  0
SECTION
  2
HEADER
  9
$ACADVER
  1
AC1015
  9
$ACADMAINTVER
 70
     6
  9
$DWGCODEPAGE
  3
ANSI_949
  9
$INSBASE
 10
0.0
 20
0.0
 30
0.0
  9
$EXTMIN
 10
-77.76500000000007
 20
-49.97180738881175
 30
0.0
  9
$EXTMAX
 10
140.2533223462277
 20
61.74680952475195
 30
0.0
  9
$LIMMIN
 10
0.0
 20
0.0
  9
$LIMMAX
 10
420.0
 20
297.0
  9
$ORTHOMODE
 70
     1
  9
$REGENMODE
 70
     1
  9
$FILLMODE
 70
     1
  9
$QTEXTMODE
 70
     0
  9
$MIRRTEXT
 70
     1
  9
$LTSCALE
 40
1.0
  9
$ATTMODE
 70
     1
  9
$TEXTSIZE
 40
3.5
  9
$TRACEWID
 40
1.0
  9
$TEXTSTYLE
  7
Standard
  9
$CLAYER
  8
0
  9
$CELTYPE
  6
ByLayer
  9
$CECOLOR
 62
   256
  9
$CELTSCALE
 40
1.0
  9
$DISPSILH
 70
     0
  9
$DIMSCALE
 40
1.0
  9
$DIMASZ
 40
3.302
  9
$DIMEXO
 40
1.0
  9
$DIMDLI
 40
3.75
  9
$DIMRND
 40
0.0
  9
$DIMDLE
 40
0.0
  9
$DIMEXE
 40
1.0
  9
$DIMTP
 40
0.0
  9
$DIMTM
 40
0.0
  9
$DIMTXT
 40
3.5
  9
$DIMCEN
 40
2.5
  9
$DIMTSZ
 40
0.0
  9
$DIMTOL
 70
     0
  9
$DIMLIM
 70
     0
  9
$DIMTIH
 70
     1
  9
$DIMTOH
 70
     1
  9
$DIMSE1
 70
     0
  9
$DIMSE2
 70
     0
  9
$DIMTAD
 70
     1
  9
$DIMZIN
 70
     0
  9
$DIMBLK
  1

  9
$DIMASO
 70
     1
  9
$DIMSHO
 70
     1
  9
$DIMPOST
  1

  9
$DIMAPOST
  1

  9
$DIMALT
 70
     0
  9
$DIMALTD
 70
     3
  9
$DIMALTF
 40
0.0393700787401575
  9
$DIMLFAC
 40
1.0
  9
$DIMTOFL
 70
     1
  9
$DIMTVP
 40
0.0
  9
$DIMTIX
 70
     0
  9
$DIMSOXD
 70
     0
  9
$DIMSAH
 70
     0
  9
$DIMBLK1
  1

  9
$DIMBLK2
  1

  9
$DIMSTYLE
  2
ISO-25
  9
$DIMCLRD
 70
     0
  9
$DIMCLRE
 70
     0
  9
$DIMCLRT
 70
     0
  9
$DIMTFAC
 40
1.0
  9
$DIMGAP
 40
1.524
  9
$DIMJUST
 70
     0
  9
$DIMSD1
 70
     0
  9
$DIMSD2
 70
     0
  9
$DIMTOLJ
 70
     0
  9
$DIMTZIN
 70
     0
  9
$DIMALTZ
 70
     0
  9
$DIMALTTZ
 70
     0
  9
$DIMUPT
 70
     0
  9
$DIMDEC
 70
     2
  9
$DIMTDEC
 70
     2
  9
$DIMALTU
 70
     2
  9
$DIMALTTD
 70
     3
  9
$DIMTXSTY
  7
Standard
  9
$DIMAUNIT
 70
     0
  9
$DIMADEC
 70
     2
  9
$DIMALTRND
 40
0.0
  9
$DIMAZIN
 70
     0
  9
$DIMDSEP
 70
    44
  9
$DIMATFIT
 70
     3
  9
$DIMFRAC
 70
     0
  9
$DIMLDRBLK
  1

  9
$DIMLUNIT
 70
     2
  9
$DIMLWD
 70
    -2
  9
$DIMLWE
 70
    -2
  9
$DIMTMOVE
 70
     0
  9
$LUNITS
 70
     2
  9
$LUPREC
 70
     2
  9
$SKETCHINC
 40
1.0
  9
$FILLETRAD
 40
10.0
  9
$AUNITS
 70
     0
  9
$AUPREC
 70
     2
  9
$MENU
  1
.
  9
$ELEVATION
 40
0.0
  9
$PELEVATION
 40
0.0
  9
$THICKNESS
 40
0.0
  9
$LIMCHECK
 70
     0
  9
$CHAMFERA
 40
0.0
  9
$CHAMFERB
 40
0.0
  9
$CHAMFERC
 40
0.0
  9
$CHAMFERD
 40
0.0
  9
$SKPOLY
 70
     0
  9
$TDCREATE
 40
2458292.675168692
  9
$TDUCREATE
 40
2458292.300168692
  9
$TDUPDATE
 40
2459697.39538728
  9
$TDUUPDATE
 40
2459697.02038728
  9
$TDINDWG
 40
0.0020968981
  9
$TDUSRTIMER
 40
0.0003174537
  9
$USRTIMER
 70
     1
  9
$ANGBASE
 50
0.0
  9
$ANGDIR
 70
     0
  9
$PDMODE
 70
     0
  9
$PDSIZE
 40
-1.0
  9
$PLINEWID
 40
0.0
  9
$SPLFRAME
 70
     0
  9
$SPLINETYPE
 70
     6
  9
$SPLINESEGS
 70
     8
  9
$HANDSEED
  5
1CD
  9
$SURFTAB1
 70
     6
  9
$SURFTAB2
 70
     6
  9
$SURFTYPE
 70
     6
  9
$SURFU
 70
     6
  9
$SURFV
 70
     6
  9
$UCSBASE
  2

  9
$UCSNAME
  2

  9
$UCSORG
 10
0.0
 20
0.0
 30
0.0
  9
$UCSXDIR
 10
1.0
 20
0.0
 30
0.0
  9
$UCSYDIR
 10
0.0
 20
1.0
 30
0.0
  9
$UCSORTHOREF
  2

  9
$UCSORTHOVIEW
 70
     0
  9
$UCSORGTOP
 10
0.0
 20
0.0
 30
0.0
  9
$UCSORGBOTTOM
 10
0.0
 20
0.0
 30
0.0
  9
$UCSORGLEFT
 10
0.0
 20
0.0
 30
0.0
  9
$UCSORGRIGHT
 10
0.0
 20
0.0
 30
0.0
  9
$UCSORGFRONT
 10
0.0
 20
0.0
 30
0.0
  9
$UCSORGBACK
 10
0.0
 20
0.0
 30
0.0
  9
$PUCSBASE
  2

  9
$PUCSNAME
  2

  9
$PUCSORG
 10
0.0
 20
0.0
 30
0.0
  9
$PUCSXDIR
 10
1.0
 20
0.0
 30
0.0
  9
$PUCSYDIR
 10
0.0
 20
1.0
 30
0.0
  9
$PUCSORTHOREF
  2

  9
$PUCSORTHOVIEW
 70
     0
  9
$PUCSORGTOP
 10
0.0
 20
0.0
 30
0.0
  9
$PUCSORGBOTTOM
 10
0.0
 20
0.0
 30
0.0
  9
$PUCSORGLEFT
 10
0.0
 20
0.0
 30
0.0
  9
$PUCSORGRIGHT
 10
0.0
 20
0.0
 30
0.0
  9
$PUCSORGFRONT
 10
0.0
 20
0.0
 30
0.0
  9
$PUCSORGBACK
 10
0.0
 20
0.0
 30
0.0
  9
$USERI1
 70
     0
  9
$USERI2
 70
     0
  9
$USERI3
 70
     0
  9
$USERI4
 70
     0
  9
$USERI5
 70
     0
  9
$USERR1
 40
0.0
  9
$USERR2
 40
0.0
  9
$USERR3
 40
0.0
  9
$USERR4
 40
0.0
  9
$USERR5
 40
0.0
  9
$WORLDVIEW
 70
     1
  9
$SHADEDGE
 70
     3
  9
$SHADEDIF
 70
    70
  9
$TILEMODE
 70
     1
  9
$MAXACTVP
 70
    64
  9
$PINSBASE
 10
0.0
 20
0.0
 30
0.0
  9
$PLIMCHECK
 70
     0
  9
$PEXTMIN
 10
1.000000000000000E+20
 20
1.000000000000000E+20
 30
1.000000000000000E+20
  9
$PEXTMAX
 10
-1.000000000000000E+20
 20
-1.000000000000000E+20
 30
-1.000000000000000E+20
  9
$PLIMMIN
 10
0.0
 20
0.0
  9
$PLIMMAX
 10
0.0
 20
0.0
  9
$UNITMODE
 70
     0
  9
$VISRETAIN
 70
     1
  9
$PLINEGEN
 70
     0
  9
$PSLTSCALE
 70
     1
  9
$TREEDEPTH
 70
  3020
  9
$CMLSTYLE
  2
Standard
  9
$CMLJUST
 70
     0
  9
$CMLSCALE
 40
20.0
  9
$PROXYGRAPHICS
 70
     1
  9
$MEASUREMENT
 70
     1
  9
$CELWEIGHT
370
    -1
  9
$ENDCAPS
280
     0
  9
$JOINSTYLE
280
     0
  9
$LWDISPLAY
290
     1
  9
$INSUNITS
 70
     4
  9
$HYPERLINKBASE
  1

  9
$STYLESHEET
  1

  9
$XEDIT
290
     1
  9
$CEPSNTYPE
380
     0
  9
$PSTYLEMODE
290
     1
  9
$FINGERPRINTGUID
  2
{FFE030F7-4FCD-40D8-9B78-45E92FFE62DD}
  9
$VERSIONGUID
  2
{FAEB1C32-E019-11D5-929B-00C0DF256EC4}
  9
$EXTNAMES
290
     1
  9
$PSVPSCALE
 40
0.0
  9
$OLESTARTUP
290
     0
  0
ENDSEC
  0
SECTION
  2
CLASSES
  0
CLASS
  1
ACDBDICTIONARYWDFLT
  2
AcDbDictionaryWithDefault
  3
ObjectDBX Classes
 90
        0
280
     0
281
     0
  0
CLASS
  1
VISUALSTYLE
  2
AcDbVisualStyle
  3
ObjectDBX Classes
 90
     4095
280
     0
281
     0
  0
CLASS
  1
MATERIAL
  2
AcDbMaterial
  3
ObjectDBX Classes
 90
     1153
280
     0
281
     0
  0
CLASS
  1
SCALE
  2
AcDbScale
  3
ObjectDBX Classes
 90
     1153
280
     0
281
     0
  0
CLASS
  1
SUN
  2
AcDbSun
  3
SCENEOE
 90
     1153
280
     0
281
     0
  0
CLASS
  1
ACDBPLACEHOLDER
  2
AcDbPlaceHolder
  3
ObjectDBX Classes
 90
        0
280
     0
281
     0
  0
CLASS
  1
LAYOUT
  2
AcDbLayout
  3
ObjectDBX Classes
 90
        0
280
     0
281
     0
  0
CLASS
  1
TABLESTYLE
  2
AcDbTableStyle
  3
ObjectDBX Classes
 90
     4095
280
     0
281
     0
  0
CLASS
  1
MLEADERSTYLE
  2
AcDbMLeaderStyle
  3
ACDB_MLEADERSTYLE_CLASS
 90
     4095
280
     0
281
     0
  0
CLASS
  1
DIMASSOC
  2
AcDbDimAssoc
  3
"AcDbDimAssoc|Product Desc:     AcDim ARX App For Dimension|Company:          Autodesk, Inc.|WEB Address:      www.autodesk.com"
 90
        0
280
     0
281
     0
  0
ENDSEC
  0
SECTION
  2
TABLES
  0
TABLE
  2
VPORT
  5
8
330
0
100
AcDbSymbolTable
 70
     1
  0
VPORT
  5
29
330
8
100
AcDbSymbolTableRecord
100
AcDbViewportTableRecord
  2
*Active
 70
     0
 10
0.0
 20
0.0
 11
1.0
 21
1.0
 12
31.24416117311381
 22
5.887501067970099
 13
0.0
 23
0.0
 14
10.0
 24
10.0
 15
10.0
 25
10.0
 16
0.0
 26
0.0
 36
1.0
 17
0.0
 27
0.0
 37
0.0
 40
113.952989251835
 41
2.008253094910592
 42
50.0
 43
0.0
 44
0.0
 50
0.0
 51
0.0
 71
    16
 72
  2000
 73
     1
 74
     3
 75
     0
 76
     0
 77
     0
 78
     0
281
     0
 65
     1
110
0.0
120
0.0
130
0.0
111
1.0
121
0.0
131
0.0
112
0.0
122
1.0
132
0.0
 79
     0
146
0.0
  0
ENDTAB
  0
TABLE
  2
LTYPE
  5
5
330
0
100
AcDbSymbolTable
 70
     6
  0
LTYPE
  5
14
330
5
100
AcDbSymbolTableRecord
100
AcDbLinetypeTableRecord
  2
ByBlock
 70
     0
  3

 72
    65
 73
     0
 40
0.0
  0
LTYPE
  5
15
330
5
100
AcDbSymbolTableRecord
100
AcDbLinetypeTableRecord
  2
ByLayer
 70
     0
  3

 72
    65
 73
     0
 40
0.0
  0
LTYPE
  5
16
330
5
100
AcDbSymbolTableRecord
100
AcDbLinetypeTableRecord
  2
Continuous
 70
     0
  3
Solid line
 72
    65
 73
     0
 40
0.0
  0
LTYPE
  5
6A
330
5
100
AcDbSymbolTableRecord
100
AcDbLinetypeTableRecord
  2
HIDDEN
 70
     0
  3
Hidden __ __ __ __ __ __ __ __ __ __ __ __ __ __
 72
    65
 73
     2
 40
1.905
 49
1.27
 74
     0
 49
-0.635
 74
     0
  0
LTYPE
  5
6B
330
5
100
AcDbSymbolTableRecord
100
AcDbLinetypeTableRecord
  2
PHANTOM
 70
     0
  3
Phantom ______  __  __  ______  __  __  ______
 72
    65
 73
     6
 40
12.7
 49
6.35
 74
     0
 49
-1.27
 74
     0
 49
1.27
 74
     0
 49
-1.27
 74
     0
 49
1.27
 74
     0
 49
-1.27
 74
     0
  0
LTYPE
  5
6C
330
5
100
AcDbSymbolTableRecord
100
AcDbLinetypeTableRecord
  2
CENTER
 70
     0
  3
Center ____ _ ____ _ ____ _ ____ _ ____ _ ____
 72
    65
 73
     4
 40
10.16
 49
6.35
 74
     0
 49
-1.27
 74
     0
 49
1.27
 74
     0
 49
-1.27
 74
     0
  0
LTYPE
  5
6D
330
5
100
AcDbSymbolTableRecord
100
AcDbLinetypeTableRecord
  2
CENTERX2
 70
     0
  3
Center (2x) ________  __  ________  __  _____
 72
    65
 73
     4
 40
20.32
 49
12.7
 74
     0
 49
-2.54
 74
     0
 49
2.54
 74
     0
 49
-2.54
 74
     0
  0
LTYPE
  5
6E
330
5
100
AcDbSymbolTableRecord
100
AcDbLinetypeTableRecord
  2
DOT2
 70
     0
  3
Dot (.5x) ........................................
 72
    65
 73
     2
 40
0.635
 49
0.0
 74
     0
 49
-0.635
 74
     0
  0
ENDTAB
  0
TABLE
  2
LAYER
  5
2
330
0
100
AcDbSymbolTable
 70
    18
  0
LAYER
  5
10
330
2
100
AcDbSymbolTableRecord
100
AcDbLayerTableRecord
  2
0
 70
     0
 62
     7
  6
Continuous
370
    -3
390
F
  0
LAYER
  5
6F
330
2
100
AcDbSymbolTableRecord
100
AcDbLayerTableRecord
  2
FORMAT
 70
     0
 62
     2
  6
Continuous
370
    -3
390
F
  0
LAYER
  5
70
330
2
100
AcDbSymbolTableRecord
100
AcDbLayerTableRecord
  2
외형선
 70
     0
 62
     4
  6
Continuous
370
    30
390
F
  0
LAYER
  5
71
330
2
100
AcDbSymbolTableRecord
100
AcDbLayerTableRecord
  2
숨은선
 70
     0
 62
     2
  6
HIDDEN
370
    15
390
F
  0
LAYER
  5
72
330
2
100
AcDbSymbolTableRecord
100
AcDbLayerTableRecord
  2
중심선
 70
     0
 62
     1
  6
CENTERX2
370
    -3
390
F
  0
LAYER
  5
73
330
2
100
AcDbSymbolTableRecord
100
AcDbLayerTableRecord
  2
파단선
 70
     0
 62
     4
  6
Continuous
370
    -3
390
F
  0
LAYER
  5
74
330
2
100
AcDbSymbolTableRecord
100
AcDbLayerTableRecord
  2
해칭선
 70
     0
 62
   100
  6
Continuous
370
    -3
390
F
  0
LAYER
  5
75
330
2
100
AcDbSymbolTableRecord
100
AcDbLayerTableRecord
  2
가는실선
 70
     0
 62
     4
  6
Continuous
370
    -3
390
F
  0
LAYER
  5
76
330
2
100
AcDbSymbolTableRecord
100
AcDbLayerTableRecord
  2
치수_보조선
 70
     0
 62
     4
  6
Continuous
370
    -3
390
F
  0
LAYER
  5
77
330
2
100
AcDbSymbolTableRecord
100
AcDbLayerTableRecord
  2
치수문자_일반주서
 70
     0
 62
     7
  6
Continuous
370
    15
390
F
  0
LAYER
  5
78
330
2
100
AcDbSymbolTableRecord
100
AcDbLayerTableRecord
  2
개별주서
 70
     0
 62
   100
  6
Continuous
370
    30
390
F
  0
LAYER
  5
79
330
2
100
AcDbSymbolTableRecord
100
AcDbLayerTableRecord
  2
중간선
 70
     0
 62
     2
  6
Continuous
370
    15
390
F
  0
LAYER
  5
7A
330
2
100
AcDbSymbolTableRecord
100
AcDbLayerTableRecord
  2
윤곽선
 70
     0
 62
     3
  6
Continuous
370
    40
390
F
  0
LAYER
  5
7B
330
2
100
AcDbSymbolTableRecord
100
AcDbLayerTableRecord
  2
중심마크
 70
     0
 62
   100
  6
Continuous
370
    30
390
F
  0
LAYER
  5
7C
330
2
100
AcDbSymbolTableRecord
100
AcDbLayerTableRecord
  2
가상선
 70
     0
 62
     4
  6
PHANTOM
370
    -3
390
F
  0
LAYER
  5
7D
330
2
100
AcDbSymbolTableRecord
100
AcDbLayerTableRecord
  2
특수지정선
 70
     0
 62
     5
  6
CENTERX2
370
    60
390
F
  0
LAYER
  5
7E
330
2
100
AcDbSymbolTableRecord
100
AcDbLayerTableRecord
  2
참조1
 70
     0
 62
    -4
  6
Continuous
370
    -3
390
F
  0
LAYER
  5
18F
330
2
100
AcDbSymbolTableRecord
100
AcDbLayerTableRecord
  2
Defpoints
 70
     0
 62
     7
  6
Continuous
290
     0
370
    -3
390
F
  0
ENDTAB
  0
TABLE
  2
STYLE
  5
3
330
0
100
AcDbSymbolTable
 70
     2
  0
STYLE
  5
11
330
3
100
AcDbSymbolTableRecord
100
AcDbTextStyleTableRecord
  2
Standard
 70
     0
 40
0.0
 41
1.0
 50
0.0
 71
     0
 42
3.5
  3
txt
  4

  0
STYLE
  5
94
330
3
100
AcDbSymbolTableRecord
100
AcDbTextStyleTableRecord
  2
SLDTEXTSTYLE0
 70
     0
 40
0.0
 41
0.75
 50
0.0
 71
     0
 42
3.5
  3
TXT
  4

  0
ENDTAB
  0
TABLE
  2
VIEW
  5
6
330
0
100
AcDbSymbolTable
 70
     0
  0
ENDTAB
  0
TABLE
  2
UCS
  5
7
330
0
100
AcDbSymbolTable
 70
     0
  0
ENDTAB
  0
TABLE
  2
APPID
  5
9
330
0
100
AcDbSymbolTable
 70
     4
  0
APPID
  5
12
330
9
100
AcDbSymbolTableRecord
100
AcDbRegAppTableRecord
  2
ACAD
 70
     0
  0
APPID
  5
1A0
330
9
100
AcDbSymbolTableRecord
100
AcDbRegAppTableRecord
  2
PE_URL
 70
     0
  0
APPID
  5
1A7
330
9
100
AcDbSymbolTableRecord
100
AcDbRegAppTableRecord
  2
ACAD_DSTYLE_DIMFLIPARROW_SYMBOL
 70
     0
  0
APPID
  5
1A8
330
9
100
AcDbSymbolTableRecord
100
AcDbRegAppTableRecord
  2
ACAD_DSTYLE_DIMFLIPARROW_WHICH_SYMBOL
 70
     0
  0
ENDTAB
  0
TABLE
  2
DIMSTYLE
  5
A
330
0
100
AcDbSymbolTable
 70
     5
100
AcDbDimStyleTable
  0
DIMSTYLE
105
27
330
A
100
AcDbSymbolTableRecord
100
AcDbDimStyleTableRecord
  2
ISO-25
 70
     0
 41
2.5
 42
0.625
 43
3.75
 44
1.25
 73
     0
 74
     0
 77
     1
 78
     8
140
2.5
141
2.5
143
0.03937007874016
147
0.625
171
     3
172
     1
178
     0
271
     2
272
     2
274
     3
278
    44
283
     0
284
     8
340
11
  0
DIMSTYLE
105
112
330
A
100
AcDbSymbolTableRecord
100
AcDbDimStyleTableRecord
  2
SLDDIMSTYLE0
 70
     0
 41
3.302
 44
0.0
 45
0.000000001
 73
     0
 74
     0
 77
     1
 78
     8
 79
     2
140
3.5
143
0.0393700787401575
147
0.875
148
0.000000001
170
     1
172
     1
173
     1
178
     0
271
     2
272
     2
276
     2
284
    12
289
     0
340
94
341
113
343
113
344
113
  0
DIMSTYLE
105
123
330
A
100
AcDbSymbolTableRecord
100
AcDbDimStyleTableRecord
  2
SLDDIMSTYLE1
 70
     0
 41
3.302
 44
0.0
 45
0.000000001
 73
     0
 74
     0
 77
     1
 78
    12
 79
     3
140
3.5
143
0.0393700787401575
147
0.875
148
0.000000001
170
     1
173
     1
178
     0
271
     2
272
     2
276
     2
284
    12
340
94
  0
DIMSTYLE
105
137
330
A
100
AcDbSymbolTableRecord
100
AcDbDimStyleTableRecord
  2
SLDDIMSTYLE2
 70
     0
 41
3.302
 44
0.0
 45
0.000000001
 73
     0
 74
     0
 77
     1
 78
     4
 79
     1
140
3.5
143
0.0393700787401575
147
0.875
148
0.000000001
170
     1
173
     1
178
     0
271
     2
272
     2
276
     2
284
    12
340
94
  0
DIMSTYLE
105
14B
102
{ACAD_REACTORS
330
14A
330
190
330
122
330
136
102
}
330
A
100
AcDbSymbolTableRecord
100
AcDbDimStyleTableRecord
  2
SLDDIMSTYLE3
 70
     0
 41
3.302
 44
0.0
 45
0.000000001
 73
     0
 74
     0
 77
     1
 78
     4
 79
     1
140
3.5
143
0.0393700787401575
147
0.875
148
0.000000001
170
     1
172
     1
173
     1
178
     0
271
     2
272
     2
276
     2
284
    12
289
     0
340
94
  0
ENDTAB
  0
TABLE
  2
BLOCK_RECORD
  5
1
330
0
100
AcDbSymbolTable
 70
     9
  0
BLOCK_RECORD
  5
1F
102
{ACAD_XDICTIONARY
360
1CA
102
}
330
1
100
AcDbSymbolTableRecord
100
AcDbBlockTableRecord
  2
*Model_Space
340
22
  0
BLOCK_RECORD
  5
1B
330
1
100
AcDbSymbolTableRecord
100
AcDbBlockTableRecord
  2
*Paper_Space
340
1E
  0
BLOCK_RECORD
  5
23
330
1
100
AcDbSymbolTableRecord
100
AcDbBlockTableRecord
  2
*Paper_Space0
340
26
  0
BLOCK_RECORD
  5
7F
330
1
100
AcDbSymbolTableRecord
100
AcDbBlockTableRecord
  2
블럭10
340
0
102
{BLKREFS
331
10A
102
}
  0
BLOCK_RECORD
  5
113
330
1
100
AcDbSymbolTableRecord
100
AcDbBlockTableRecord
  2
_NONE
340
0
  0
BLOCK_RECORD
  5
116
330
1
100
AcDbSymbolTableRecord
100
AcDbBlockTableRecord
  2
_D
340
0
  0
BLOCK_RECORD
  5
124
330
1
100
AcDbSymbolTableRecord
100
AcDbBlockTableRecord
  2
_D_1
340
0
  0
BLOCK_RECORD
  5
138
330
1
100
AcDbSymbolTableRecord
100
AcDbBlockTableRecord
  2
_D_2
340
0
  0
BLOCK_RECORD
  5
14C
330
1
100
AcDbSymbolTableRecord
100
AcDbBlockTableRecord
  2
_D_3
340
0
  0
BLOCK_RECORD
  5
166
330
1
100
AcDbSymbolTableRecord
100
AcDbBlockTableRecord
  2
SW_DOWELSYMBOL_0
340
0
102
{BLKREFS
331
16C
102
}
  0
BLOCK_RECORD
  5
193
330
1
100
AcDbSymbolTableRecord
100
AcDbBlockTableRecord
  2
*D8
340
0
  0
ENDTAB
  0
ENDSEC
  0
SECTION
  2
BLOCKS
  0
BLOCK
  5
20
330
1F
100
AcDbEntity
  8
0
100
AcDbBlockBegin
  2
*Model_Space
 70
     0
 10
0.0
 20
0.0
 30
0.0
  3
*Model_Space
  1

  0
ENDBLK
  5
21
330
1F
100
AcDbEntity
  8
0
100
AcDbBlockEnd
  0
BLOCK
  5
1C
330
1B
100
AcDbEntity
 67
     1
  8
0
100
AcDbBlockBegin
  2
*Paper_Space
 70
     0
 10
0.0
 20
0.0
 30
0.0
  3
*Paper_Space
  1

  0
ENDBLK
  5
1D
330
1B
100
AcDbEntity
 67
     1
  8
0
100
AcDbBlockEnd
  0
BLOCK
  5
24
330
23
100
AcDbEntity
  8
0
100
AcDbBlockBegin
  2
*Paper_Space0
 70
     0
 10
0.0
 20
0.0
 30
0.0
  3
*Paper_Space0
  1

  0
ENDBLK
  5
25
330
23
100
AcDbEntity
  8
0
100
AcDbBlockEnd
  0
BLOCK
  5
80
330
7F
100
AcDbEntity
  8
0
100
AcDbBlockBegin
  2
블럭10
 70
     2
 10
0.0
 20
0.0
 30
0.0
  3
블럭10
  1

  0
ELLIPSE
  5
82
330
7F
100
AcDbEntity
  8
중심선
100
AcDbEllipse
 10
20.54032771741204
 20
12.0471743016438
 30
0.0
 11
6.600054785286829
 21
-1.261213355974178E-13
 31
0.0
210
0.0
220
0.0
230
1.0
 40
0.636358354079598
 41
0.9219305317359503
 42
6.513795318482858
  0
ELLIPSE
  5
83
330
7F
100
AcDbEntity
  8
중심선
100
AcDbEllipse
 10
20.54032771746488
 20
12.04717430159265
 30
0.0
 11
3.960054785062283
 21
1.540847449632565E-10
 31
0.0
210
0.0
220
0.0
230
1.0
 40
0.3939339440162632
 41
1.131841032648279
 42
5.62031148352944
  0
LINE
  5
84
330
7F
100
AcDbEntity
  8
중심선
100
AcDbLine
 10
2.268634060543552
 20
16.24717430164393
 30
0.0
 11
5.714909304380834
 21
16.24717430164393
 31
0.0
  0
LINE
  5
85
330
7F
100
AcDbEntity
  8
중심선
100
AcDbLine
 10
5.245725140726316
 20
7.84717430164391
 30
0.0
 11
8.692000384563599
 21
7.84717430164391
 31
0.0
  0
LINE
  5
86
330
7F
100
AcDbEntity
  8
중심선
100
AcDbLine
 10
15.74043728645272
 20
16.24717430164393
 30
0.0
 11
8.692000384563599
 21
7.84717430164391
 31
0.0
  0
LINE
  5
87
330
7F
100
AcDbEntity
  8
중심선
100
AcDbLine
 10
0.1404042013395286
 20
13.71084872107135
 30
0.0
 11
3.58671253028996
 21
13.71088815037384
 31
0.0
  0
LINE
  5
88
330
7F
100
AcDbEntity
  8
중심선
100
AcDbLine
 10
2.750260043222114
 20
10.84717430164391
 30
0.0
 11
6.196535287059397
 21
10.84717430164391
 31
0.0
  0
LINE
  5
89
330
7F
100
AcDbEntity
  8
중심선
100
AcDbLine
 10
12.29416204261559
 20
16.24717430164393
 30
0.0
 11
5.245725140726316
 21
7.84717430164391
 31
0.0
  0
LINE
  5
8A
330
7F
100
AcDbEntity
  8
중심선
100
AcDbLine
 10
10.72767329541681
 20
16.24717430164393
 30
0.0
 11
6.196535287059397
 21
10.84717430164391
 31
0.0
  0
LINE
  5
8B
330
7F
100
AcDbEntity
  8
중심선
100
AcDbLine
 10
7.28139805157953
 20
16.24717430164393
 30
0.0
 11
2.750260043222114
 21
10.84717430164391
 31
0.0
  0
LINE
  5
8C
330
7F
100
AcDbEntity
  8
중심선
100
AcDbLine
 10
5.714909304380834
 20
16.24717430164393
 30
0.0
 11
3.58671253028996
 21
13.71088815037384
 31
0.0
  0
LINE
  5
8D
330
7F
100
AcDbEntity
  8
중심선
100
AcDbLine
 10
2.268634060543552
 20
16.24717430164393
 30
0.0
 11
0.1404042013395286
 21
13.71084872107135
 31
0.0
  0
LINE
  5
8E
330
7F
100
AcDbEntity
  8
중심선
100
AcDbLine
 10
7.28139805157953
 20
16.24717430164393
 30
0.0
 11
10.72767329541681
 21
16.24717430164393
 31
0.0
  0
LINE
  5
8F
330
7F
100
AcDbEntity
  8
중심선
100
AcDbLine
 10
12.29416204261559
 20
16.24717430164393
 30
0.0
 11
15.74043728645272
 21
16.24717430164393
 31
0.0
  0
LINE
  5
90
330
7F
100
AcDbEntity
  8
중심선
100
AcDbLine
 10
19.22036997980202
 20
11.08717430171403
 30
0.0
 11
23.66174974927406
 21
11.08717430171406
 31
0.0
  0
LINE
  5
91
330
7F
100
AcDbEntity
  8
중심선
100
AcDbLine
 10
19.22039502424796
 20
13.00717430171391
 30
0.0
 11
19.22036997980202
 21
11.08717430171403
 31
0.0
  0
LINE
  5
92
330
7F
100
AcDbEntity
  8
중심선
100
AcDbLine
 10
19.22039502424796
 20
13.00717430171391
 30
0.0
 11
26.96566020931264
 21
13.00717430171391
 31
0.0
  0
LINE
  5
93
330
7F
100
AcDbEntity
  8
중심선
100
AcDbLine
 10
22.22332737316547
 20
13.45928029700563
 30
0.0
 11
24.52862924686651
 21
15.39360700705356
 31
0.0
  0
ATTDEF
  5
95
330
7F
100
AcDbEntity
  8
FORMAT
 62
     2
100
AcDbText
 10
3.448148490846466
 20
2.075366912832191
 30
0.0
 40
4.233333333333333
  1
EM218064
 41
0.75
  7
SLDTEXTSTYLE0
 11
3.448148490846466
 21
-0.0412997538344756
 31
0.0
100
AcDbAttributeDefinition
  3

  2
AUTOATTR0
 70
     0
 74
     1
  0
ENDBLK
  5
81
330
7F
100
AcDbEntity
  8
0
100
AcDbBlockEnd
  0
BLOCK
  5
114
330
113
100
AcDbEntity
  8
0
100
AcDbBlockBegin
  2
_NONE
 70
     0
 10
0.0
 20
0.0
 30
0.0
  3
_NONE
  1

  0
ENDBLK
  5
115
330
113
100
AcDbEntity
  8
0
100
AcDbBlockEnd
  0
BLOCK
  5
117
330
116
100
AcDbEntity
  8
0
100
AcDbBlockBegin
  2
_D
 70
     0
 10
0.0
 20
0.0
 30
0.0
  3
_D
  1

  0
LINE
  5
119
330
116
100
AcDbEntity
  8
치수문자_일반주서
100
AcDbLine
 10
84.64192597457293
 20
7.286708497655295
 30
0.0
 11
84.64192597457293
 21
6.575771012090795
 31
0.0
  0
LINE
  5
11A
330
116
100
AcDbEntity
  8
치수문자_일반주서
100
AcDbLine
 10
84.64192597457293
 20
6.575771012090795
 30
0.0
 11
90.19817596563223
 21
6.575771012090795
 31
0.0
  0
LINE
  5
11B
330
116
100
AcDbEntity
  8
치수문자_일반주서
100
AcDbLine
 10
90.19817596563223
 20
6.575771012090795
 30
0.0
 11
90.19817596563223
 21
7.286708497655295
 31
0.0
  0
LINE
  5
11C
330
116
100
AcDbEntity
  8
치수문자_일반주서
100
AcDbLine
 10
84.64192597457293
 20
18.11544135979255
 30
0.0
 11
84.64192597457293
 21
18.82637884535705
 31
0.0
  0
LINE
  5
11D
330
116
100
AcDbEntity
  8
치수문자_일반주서
100
AcDbLine
 10
84.64192597457293
 20
18.82637884535705
 30
0.0
 11
90.19817596563223
 21
18.82637884535705
 31
0.0
  0
LINE
  5
11E
330
116
100
AcDbEntity
  8
치수문자_일반주서
100
AcDbLine
 10
90.19817596563223
 20
18.82637884535705
 30
0.0
 11
90.19817596563223
 21
18.11544135979255
 31
0.0
  0
MTEXT
  5
11F
330
116
100
AcDbEntity
  8
치수문자_일반주서
100
AcDbMText
 10
85.68643905105333
 20
8.175380398266666
 30
0.0
 40
3.5
 41
0.0
 71
     1
 72
     1
  1
0.00
  7
SLDTEXTSTYLE0
 11
6.123233995736766E-17
 21
1.0
 31
0.0
 73
     1
 44
1.0
  0
MTEXT
  5
120
330
116
100
AcDbEntity
  8
치수문자_일반주서
100
AcDbMText
 10
90.9230706014138
 20
8.768800516360157
 30
0.0
 40
3.5
 41
0.0
 71
     1
 72
     1
  1
%%c
  7
SLDTEXTSTYLE0
 11
6.123233995736766E-17
 21
1.0
 31
0.0
 73
     1
 44
1.0
  0
MTEXT
  5
121
330
116
100
AcDbEntity
  8
치수문자_일반주서
100
AcDbMText
 10
90.9230706014138
 20
14.04723791473424
 30
0.0
 40
3.5
 41
0.0
 71
     1
 72
     1
  1
0
  7
SLDTEXTSTYLE0
 11
6.123233995736766E-17
 21
1.0
 31
0.0
 73
     1
 44
1.0
  0
ENDBLK
  5
118
330
116
100
AcDbEntity
  8
0
100
AcDbBlockEnd
  0
BLOCK
  5
125
330
124
100
AcDbEntity
  8
0
100
AcDbBlockBegin
  2
_D_1
 70
     0
 10
0.0
 20
0.0
 30
0.0
  3
_D_1
  1

  0
LINE
  5
127
330
124
100
AcDbEntity
  8
치수문자_일반주서
 62
     0
370
    -2
100
AcDbLine
 10
116.775
 20
12.76250000000001
 30
0.0
 11
116.775
 21
35.06715476237598
 31
0.0
  0
LINE
  5
128
330
124
100
AcDbEntity
  8
치수문자_일반주서
 62
     0
370
    -2
100
AcDbLine
 10
12.00000000000001
 20
12.72889357088058
 30
0.0
 11
12.00000000000001
 21
35.06715476237598
 31
0.0
  0
LINE
  5
129
330
124
100
AcDbEntity
  8
치수문자_일반주서
 62
     0
370
    -2
100
AcDbLine
 10
113.473
 20
35.06715476237598
 30
0.0
 11
15.30200000000001
 21
35.06715476237598
 31
0.0
  0
SOLID
  5
12A
330
124
100
AcDbEntity
  8
치수문자_일반주서
 62
     0
100
AcDbTrace
 10
113.473
 20
34.51682142904265
 30
0.0
 11
113.473
 21
35.61748809570932
 31
0.0
 12
116.775
 22
35.06715476237598
 32
0.0
 13
116.775
 23
35.06715476237598
 33
0.0
  0
SOLID
  5
12B
330
124
100
AcDbEntity
  8
치수문자_일반주서
 62
     0
100
AcDbTrace
 10
15.30200000000001
 20
35.61748809570932
 30
0.0
 11
15.30200000000001
 21
34.51682142904265
 31
0.0
 12
12.00000000000001
 22
35.06715476237598
 32
0.0
 13
12.00000000000001
 23
35.06715476237598
 33
0.0
  0
MTEXT
  5
12C
330
124
100
AcDbEntity
  8
치수문자_일반주서
 62
     0
100
AcDbMText
 10
64.38750000000002
 20
39.44215476237598
 30
0.0
 40
3.5
 41
0.0
 71
     2
 72
     1
  1
\A1;104.78 [4 1/8]
  7
SLDTEXTSTYLE0
 73
     1
 44
1.0
  0
POINT
  5
12D
330
124
100
AcDbEntity
  8
Defpoints
 62
     0
100
AcDbPoint
 10
116.775
 20
12.70000000000001
 30
0.0
  0
POINT
  5
12E
330
124
100
AcDbEntity
  8
Defpoints
 62
     0
100
AcDbPoint
 10
12.00000000000001
 20
12.66639357088058
 30
0.0
  0
POINT
  5
12F
330
124
100
AcDbEntity
  8
Defpoints
 62
     0
100
AcDbPoint
 10
12.00000000000001
 20
35.06715476237598
 30
0.0
  0
ENDBLK
  5
126
330
124
100
AcDbEntity
  8
0
100
AcDbBlockEnd
  0
BLOCK
  5
139
330
138
100
AcDbEntity
  8
0
100
AcDbBlockBegin
  2
_D_2
 70
     0
 10
0.0
 20
0.0
 30
0.0
  3
_D_2
  1

  0
LINE
  5
13B
330
138
100
AcDbEntity
  8
치수문자_일반주서
 62
     0
370
    -2
100
AcDbLine
 10
116.775
 20
12.76250000000001
 30
0.0
 11
116.775
 21
57.37180952475195
 31
0.0
  0
LINE
  5
13C
330
138
100
AcDbEntity
  8
치수문자_일반주서
 62
     0
370
    -2
100
AcDbLine
 10
-61.02500000000002
 20
10.22250000000001
 30
0.0
 11
-61.02500000000003
 21
57.37180952475195
 31
0.0
  0
LINE
  5
13D
330
138
100
AcDbEntity
  8
치수문자_일반주서
 62
     0
370
    -2
100
AcDbLine
 10
113.473
 20
57.37180952475195
 30
0.0
 11
-57.72300000000003
 21
57.37180952475195
 31
0.0
  0
SOLID
  5
13E
330
138
100
AcDbEntity
  8
치수문자_일반주서
 62
     0
100
AcDbTrace
 10
113.473
 20
56.82147619141862
 30
0.0
 11
113.473
 21
57.92214285808529
 31
0.0
 12
116.775
 22
57.37180952475195
 32
0.0
 13
116.775
 23
57.37180952475195
 33
0.0
  0
SOLID
  5
13F
330
138
100
AcDbEntity
  8
치수문자_일반주서
 62
     0
100
AcDbTrace
 10
-57.72300000000003
 20
57.92214285808529
 30
0.0
 11
-57.72300000000003
 21
56.82147619141862
 31
0.0
 12
-61.02500000000003
 22
57.37180952475195
 32
0.0
 13
-61.02500000000003
 23
57.37180952475195
 33
0.0
  0
MTEXT
  5
140
330
138
100
AcDbEntity
  8
치수문자_일반주서
 62
     0
100
AcDbMText
 10
27.87499999999999
 20
61.74680952475195
 30
0.0
 40
3.5
 41
0.0
 71
     2
 72
     1
  1
\A1;177.80 [7]
  7
SLDTEXTSTYLE0
 73
     1
 44
1.0
  0
POINT
  5
141
330
138
100
AcDbEntity
  8
Defpoints
 62
     0
100
AcDbPoint
 10
116.775
 20
12.70000000000001
 30
0.0
  0
POINT
  5
142
330
138
100
AcDbEntity
  8
Defpoints
 62
     0
100
AcDbPoint
 10
-61.02500000000002
 20
10.16000000000001
 30
0.0
  0
POINT
  5
143
330
138
100
AcDbEntity
  8
Defpoints
 62
     0
100
AcDbPoint
 10
-61.02500000000002
 20
57.37180952475195
 30
0.0
  0
ENDBLK
  5
13A
330
138
100
AcDbEntity
  8
0
100
AcDbBlockEnd
  0
BLOCK
  5
14D
330
14C
100
AcDbEntity
  8
0
100
AcDbBlockBegin
  2
_D_3
 70
     0
 10
0.0
 20
0.0
 30
0.0
  3
_D_3
  1

  0
LINE
  5
14F
330
14C
100
AcDbEntity
  8
치수문자_일반주서
 62
     0
370
    -2
100
AcDbLine
 10
-58.54750000000003
 20
12.69999999999999
 30
0.0
 11
-73.39000000000009
 21
12.69999999999994
 31
0.0
  0
LINE
  5
150
330
14C
100
AcDbEntity
  8
치수문자_일반주서
 62
     0
370
    -2
100
AcDbLine
 10
-58.54750000000003
 20
-12.69999999999999
 30
0.0
 11
-73.39
 21
-12.70000000000004
 31
0.0
  0
LINE
  5
151
330
14C
100
AcDbEntity
  8
치수문자_일반주서
 62
     0
370
    -2
100
AcDbLine
 10
-73.39000000000009
 20
12.69999999999994
 30
0.0
 11
-73.39
 21
-12.70000000000004
 31
0.0
  0
LINE
  5
152
330
14C
100
AcDbEntity
  8
치수문자_일반주서
 62
     0
370
    -2
100
AcDbLine
 10
-73.3900000000001
 20
16.00199999999993
 30
0.0
 11
-73.39000000000011
 21
19.30399999999993
 31
0.0
  0
LINE
  5
153
330
14C
100
AcDbEntity
  8
치수문자_일반주서
 62
     0
370
    -2
100
AcDbLine
 10
-73.38999999999999
 20
-16.00200000000004
 30
0.0
 11
-73.38999999999997
 21
-19.30400000000004
 31
0.0
  0
SOLID
  5
154
330
14C
100
AcDbEntity
  8
치수문자_일반주서
 62
     0
100
AcDbTrace
 10
-73.94033333333343
 20
16.00199999999993
 30
0.0
 11
-72.83966666666677
 21
16.00199999999994
 31
0.0
 12
-73.39000000000009
 22
12.69999999999994
 32
0.0
 13
-73.39000000000009
 23
12.69999999999994
 33
0.0
  0
SOLID
  5
155
330
14C
100
AcDbEntity
  8
치수문자_일반주서
 62
     0
100
AcDbTrace
 10
-72.83966666666666
 20
-16.00200000000004
 30
0.0
 11
-73.94033333333331
 21
-16.00200000000005
 31
0.0
 12
-73.39
 22
-12.70000000000004
 32
0.0
 13
-73.39
 23
-12.70000000000004
 33
0.0
  0
MTEXT
  5
156
330
14C
100
AcDbEntity
  8
치수문자_일반주서
 62
     0
100
AcDbMText
 10
-77.76500000000004
 20
-0.0000000000000275
 30
0.0
 40
3.5
 41
0.0
 71
     2
 72
     1
  1
\A1;%%c25.40 [1]
  7
SLDTEXTSTYLE0
 11
-3.356894814614650E-15
 21
1.0
 31
0.0
 73
     1
 44
1.0
  0
POINT
  5
157
330
14C
100
AcDbEntity
  8
Defpoints
 62
     0
100
AcDbPoint
 10
-58.48500000000003
 20
12.69999999999999
 30
0.0
  0
POINT
  5
1A4
330
14C
100
AcDbEntity
  8
Defpoints
 62
     0
100
AcDbPoint
 10
-58.48500000000003
 20
-12.69999999999999
 30
0.0
  0
POINT
  5
1A5
330
14C
100
AcDbEntity
  8
Defpoints
 62
     0
100
AcDbPoint
 10
-73.39
 20
-12.70000000000004
 30
0.0
  0
ENDBLK
  5
14E
330
14C
100
AcDbEntity
  8
0
100
AcDbBlockEnd
  0
BLOCK
  5
167
330
166
100
AcDbEntity
  8
0
100
AcDbBlockBegin
  2
SW_DOWELSYMBOL_0
 70
     0
 10
0.0
 20
0.0
 30
0.0
  3
SW_DOWELSYMBOL_0
  1

  0
CIRCLE
  5
169
330
166
100
AcDbEntity
  8
해칭선
 62
     0
100
AcDbCircle
 10
0.0
 20
0.0
 30
0.0
 40
3.000000000000001
  0
HATCH
  5
16A
330
166
100
AcDbEntity
  8
0
  6
Continuous
 62
     0
370
     0
100
AcDbHatch
 10
0.0
 20
0.0
 30
0.0
210
0.0
220
0.0
230
1.0
  2
SOLID
 70
     1
 71
     0
 91
        1
 92
        0
 93
        3
 72
     2
 10
0.0
 20
0.0
 40
3.000000000000001
 50
0.0
 51
90.0
 73
     1
 72
     1
 10
0.0
 20
3.000000000000001
 11
0.0
 21
0.0
 72
     1
 10
0.0
 20
0.0
 11
3.000000000000001
 21
0.0
 97
        0
 75
     0
 76
     1
 98
        1
 10
0.0
 20
0.0
  0
HATCH
  5
16B
330
166
100
AcDbEntity
  8
0
  6
Continuous
 62
     0
370
     0
100
AcDbHatch
 10
0.0
 20
0.0
 30
0.0
210
0.0
220
0.0
230
1.0
  2
SOLID
 70
     1
 71
     0
 91
        1
 92
        0
 93
        3
 72
     2
 10
0.0
 20
0.0
 40
3.000000000000001
 50
180.0
 51
270.0000000000007
 73
     1
 72
     1
 10
0.0
 20
-3.000000000000001
 11
0.0
 21
0.0
 72
     1
 10
0.0
 20
0.0
 11
-3.000000000000001
 21
0.0
 97
        0
 75
     0
 76
     1
 98
        1
 10
0.0
 20
0.0
  0
ENDBLK
  5
168
330
166
100
AcDbEntity
  8
0
100
AcDbBlockEnd
  0
BLOCK
  5
194
330
193
100
AcDbEntity
  8
0
100
AcDbBlockBegin
  2
*D8
 70
     1
 10
0.0
 20
0.0
 30
0.0
  3
*D8
  1

  0
LINE
  5
196
330
193
100
AcDbEntity
  8
치수문자_일반주서
 62
     0
370
    -2
100
AcDbLine
 10
116.8375
 20
12.70000000000001
 30
0.0
 11
139.7029890128944
 21
12.70000000000001
 31
0.0
  0
LINE
  5
197
330
193
100
AcDbEntity
  8
치수문자_일반주서
 62
     0
370
    -2
100
AcDbLine
 10
116.8375
 20
-12.7
 30
0.0
 11
139.7029890128944
 21
-12.7
 31
0.0
  0
LINE
  5
198
330
193
100
AcDbEntity
  8
치수문자_일반주서
 62
     0
370
    -2
100
AcDbLine
 10
139.7029890128944
 20
12.70000000000001
 30
0.0
 11
139.7029890128944
 21
42.92900000000001
 31
0.0
  0
LINE
  5
199
330
193
100
AcDbEntity
  8
치수문자_일반주서
 62
     0
370
    -2
100
AcDbLine
 10
139.7029890128944
 20
9.39800000000001
 30
0.0
 11
139.7029890128944
 21
-9.398000000000003
 31
0.0
  0
LINE
  5
19A
330
193
100
AcDbEntity
  8
치수문자_일반주서
 62
     0
370
    -2
100
AcDbLine
 10
139.7029890128944
 20
9.39800000000001
 30
0.0
 11
139.7029890128944
 21
6.096000000000011
 31
0.0
  0
SOLID
  5
19B
330
193
100
AcDbEntity
  8
치수문자_일반주서
 62
     0
100
AcDbTrace
 10
140.2533223462277
 20
9.39800000000001
 30
0.0
 11
139.1526556795611
 21
9.39800000000001
 31
0.0
 12
139.7029890128944
 22
12.70000000000001
 32
0.0
 13
139.7029890128944
 23
12.70000000000001
 33
0.0
  0
SOLID
  5
19C
330
193
100
AcDbEntity
  8
치수문자_일반주서
 62
     0
100
AcDbTrace
 10
139.1526556795611
 20
-9.398000000000003
 30
0.0
 11
140.2533223462277
 21
-9.398000000000003
 31
0.0
 12
139.7029890128944
 22
-12.7
 32
0.0
 13
139.7029890128944
 23
-12.7
 33
0.0
  0
MTEXT
  5
19D
330
193
100
AcDbEntity
  8
치수문자_일반주서
 62
     0
100
AcDbMText
 10
137.0779890128944
 20
31.77275000000001
 30
0.0
 40
3.5
 41
0.0
 71
     5
 72
     1
  1
\A1;%%C25.40 [1]
  7
SLDTEXTSTYLE0
 11
0.0
 21
1.0
 31
0.0
 73
     1
 44
1.0
  0
POINT
  5
19E
330
193
100
AcDbEntity
  8
Defpoints
 62
     0
100
AcDbPoint
 10
116.775
 20
12.70000000000001
 30
0.0
  0
POINT
  5
1A1
330
193
100
AcDbEntity
  8
Defpoints
 62
     0
100
AcDbPoint
 10
116.775
 20
-12.7
 30
0.0
  0
POINT
  5
1A2
330
193
100
AcDbEntity
  8
Defpoints
 62
     0
100
AcDbPoint
 10
139.7029890128944
 20
-12.7
 30
0.0
  0
ENDBLK
  5
195
330
193
100
AcDbEntity
  8
0
100
AcDbBlockEnd
  0
ENDSEC
  0
SECTION
  2
ENTITIES
  0
LINE
  5
96
330
1F
100
AcDbEntity
  8
외형선
  6
Continuous
 62
     1
370
    15
100
AcDbLine
 10
78.81711351844172
 20
-1.158547510929675
 30
0.0
 11
78.9304959538731
 21
-1.270241145720769
 31
0.0
  0
LINE
  5
97
330
1F
100
AcDbEntity
  8
외형선
  6
Continuous
 62
     1
370
    15
100
AcDbLine
 10
48.90753862111332
 20
-1.172279647329248
 30
0.0
 11
49.00677130656059
 21
-1.270186775509573
 31
0.0
  0
LINE
  5
98
330
1F
100
AcDbEntity
  8
외형선
  6
Continuous
 62
     1
370
    15
100
AcDbLine
 10
51.66242137488958
 20
1.158964326814023
 30
0.0
 11
51.55155566550292
 21
1.269256561497018
 31
0.0
  0
LINE
  5
99
330
1F
100
AcDbEntity
  8
외형선
  6
Continuous
 62
     1
370
    15
100
AcDbLine
 10
61.62126530486105
 20
1.175301031918676
 30
0.0
 11
61.52600327493621
 21
1.269365154139352
 31
0.0
  0
LINE
  5
9A
330
1F
100
AcDbEntity
  8
외형선
  6
Continuous
 62
     1
370
    15
100
AcDbLine
 10
58.85397483837732
 20
-1.144646625310527
 30
0.0
 11
58.98167330983344
 21
-1.270530512464481
 31
0.0
  0
LINE
  5
9B
330
1F
100
AcDbEntity
  8
외형선
  6
Continuous
 62
     1
370
    15
100
AcDbLine
 10
71.63959987381602
 20
1.131935837147126
 30
0.0
 11
71.50033625448222
 21
1.26958787897179
 31
0.0
  0
LINE
  5
9C
330
1F
100
AcDbEntity
  8
외형선
  6
Continuous
 62
     1
370
    15
100
AcDbLine
 10
68.54386919921038
 20
-0.858064949509878
 30
0.0
 11
68.95622168059327
 21
-1.270522246344939
 31
0.0
  0
LINE
  5
9D
330
1F
100
AcDbEntity
  8
외형선
  6
Continuous
 62
     1
370
    15
100
AcDbLine
 10
38.8997453854364
 20
-1.139656900786661
 30
0.0
 11
39.03202978852397
 21
-1.270002784179994
 31
0.0
  0
LINE
  5
9E
330
1F
100
AcDbEntity
  8
외형선
  6
Continuous
 62
     1
370
    15
100
AcDbLine
 10
41.73478414862828
 20
1.112012728909289
 30
0.0
 11
41.57647771286266
 21
1.269775576534932
 31
0.0
  0
SPLINE
  5
9F
330
1F
100
AcDbEntity
  8
외형선
  6
Continuous
 62
     1
370
    15
100
AcDbSpline
210
0.0
220
0.0
230
1.0
 70
     8
 71
     3
 72
     9
 73
     5
 74
     0
 42
0.000000001
 43
0.00000001
 40
0.0
 40
0.0
 40
0.0
 40
0.0
 40
0.1228116909967083
 40
0.9999999999999999
 40
0.9999999999999999
 40
0.9999999999999999
 40
0.9999999999999999
 10
14.0171047670947
 20
-1.090032746221382
 30
0.0
 10
13.9343354424248
 20
-1.01330912684691
 30
0.0
 10
13.26038230328822
 20
-0.3885834288958258
 30
0.0
 10
12.58896202155982
 20
0.2588268389991762
 30
0.0
 10
11.99999999999999
 20
0.8267275571253612
 30
0.0
  0
LINE
  5
A0
330
1F
100
AcDbEntity
  8
외형선
  6
Continuous
 62
     1
370
    15
100
AcDbLine
 10
91.58121665981699
 20
1.139369722271854
 30
0.0
 11
91.44903852740077
 21
1.26999717068057
 31
0.0
  0
LINE
  5
A1
330
1F
100
AcDbEntity
  8
외형선
  6
Continuous
 62
     1
370
    15
100
AcDbLine
 10
88.77020637546639
 20
-1.137469852412207
 30
0.0
 11
88.90484017959426
 21
-1.270029675060695
 31
0.0
  0
LINE
  5
A2
330
1F
100
AcDbEntity
  8
외형선
  6
Continuous
 62
     1
370
    15
100
AcDbLine
 10
18.97693643484621
 20
-1.165891248557479
 30
0.0
 11
19.08333819657639
 21
-1.270422599368596
 31
0.0
  0
LINE
  5
A3
330
1F
100
AcDbEntity
  8
외형선
  6
Continuous
 62
     1
370
    15
100
AcDbLine
 10
21.71992502914704
 20
1.178472674271341
 30
0.0
 11
21.62731125407827
 21
1.269828454320922
 31
0.0
  0
LINE
  5
A4
330
1F
100
AcDbEntity
  8
외형선
  6
Continuous
 62
     1
370
    15
100
AcDbLine
 10
98.76414780448255
 20
-1.156400388606647
 30
0.0
 11
98.8795702179531
 21
-1.270202239587717
 31
0.0
  0
LINE
  5
A5
330
1F
100
AcDbEntity
  8
외형선
  6
Continuous
 62
     1
370
    15
100
AcDbLine
 10
31.76251765291365
 20
1.11143963656235
 30
0.0
 11
31.60163996336976
 21
1.270055429471347
 31
0.0
  0
LINE
  5
A6
330
1F
100
AcDbEntity
  8
외형선
  6
Continuous
 62
     1
370
    15
100
AcDbLine
 10
111.5301107056131
 20
1.140923044268182
 30
0.0
 11
111.3986893967018
 21
1.269461986140919
 31
0.0
  0
LINE
  5
A7
330
1F
100
AcDbEntity
  8
외형선
  6
Continuous
 62
     1
370
    15
100
AcDbLine
 10
108.6937833905499
 20
-1.112268060440601
 30
0.0
 11
108.8544806186425
 21
-1.270554335246142
 31
0.0
  0
LINE
  5
A8
330
1F
100
AcDbEntity
  8
외형선
  6
Continuous
 62
     1
370
    15
100
AcDbLine
 10
72.77054365759332
 20
-12.7
 30
0.0
 11
77.6564819697189
 21
-12.7
 31
0.0
  0
LINE
  5
A9
330
1F
100
AcDbEntity
  8
외형선
  6
Continuous
 62
     1
370
    15
100
AcDbLine
 10
37.75794371684933
 20
12.70000000000001
 30
0.0
 11
32.87313473012664
 21
12.70000000000001
 31
0.0
  0
LINE
  5
AA
330
1F
100
AcDbEntity
  8
외형선
  6
Continuous
 62
     1
370
    15
100
AcDbLine
 10
116.775
 20
12.70000000000001
 30
0.0
 11
112.6683255361643
 21
12.70000000000001
 31
0.0
  0
LINE
  5
AB
330
1F
100
AcDbEntity
  8
외형선
  6
Continuous
 62
     1
370
    15
100
AcDbLine
 10
62.79743980482244
 20
-12.7
 30
0.0
 11
67.68364740297537
 21
-12.7
 31
0.0
  0
LINE
  5
AC
330
1F
100
AcDbEntity
  8
외형선
  6
Continuous
 62
     1
370
    15
100
AcDbLine
 10
27.78552916207812
 20
12.70000000000001
 30
0.0
 11
22.89897608181463
 21
12.70000000000001
 31
0.0
  0
LINE
  5
AD
330
1F
100
AcDbEntity
  8
외형선
  6
Continuous
 62
     1
370
    15
100
AcDbLine
 10
107.5814993805898
 20
12.70000000000001
 30
0.0
 11
102.6959874894528
 21
12.70000000000001
 31
0.0
  0
LINE
  5
AE
330
1F
100
AcDbEntity
  8
외형선
  6
Continuous
 62
     1
370
    15
100
AcDbLine
 10
42.84802849984926
 20
-12.7
 30
0.0
 11
47.73462349565764
 21
-12.7
 31
0.0
  0
LINE
  5
AF
330
1F
100
AcDbEntity
  8
외형선
  6
Continuous
 62
     1
370
    15
100
AcDbLine
 10
87.63260473942455
 20
12.70000000000001
 30
0.0
 11
82.74675822679936
 21
12.70000000000001
 31
0.0
  0
LINE
  5
B0
330
1F
100
AcDbEntity
  8
외형선
  6
Continuous
 62
     1
370
    15
100
AcDbLine
 10
112.6683255361643
 20
-12.7
 30
0.0
 11
116.775
 21
-12.7
 31
0.0
  0
LINE
  5
B1
330
1F
100
AcDbEntity
  8
외형선
  6
Continuous
 62
     1
370
    15
100
AcDbLine
 10
32.87313473012664
 20
-12.7
 30
0.0
 11
37.75794371684943
 21
-12.7
 31
0.0
  0
LINE
  5
B2
330
1F
100
AcDbEntity
  8
외형선
  6
Continuous
 62
     1
370
    15
100
AcDbLine
 10
77.65648196971901
 20
12.70000000000001
 30
0.0
 11
72.77054365759327
 21
12.70000000000001
 31
0.0
  0
LINE
  5
B3
330
1F
100
AcDbEntity
  8
외형선
  6
Continuous
 62
     1
370
    15
100
AcDbLine
 10
102.6959874894527
 20
-12.7
 30
0.0
 11
107.5814993805898
 21
-12.7
 31
0.0
  0
LINE
  5
B4
330
1F
100
AcDbEntity
  8
외형선
  6
Continuous
 62
     1
370
    15
100
AcDbLine
 10
22.89897608181453
 20
-12.7
 30
0.0
 11
27.78552916207811
 21
-12.7
 31
0.0
  0
LINE
  5
B5
330
1F
100
AcDbEntity
  8
외형선
  6
Continuous
 62
     1
370
    15
100
AcDbLine
 10
67.68364740297545
 20
12.70000000000001
 30
0.0
 11
62.79743980482238
 21
12.70000000000001
 31
0.0
  0
LINE
  5
B6
330
1F
100
AcDbEntity
  8
외형선
  6
Continuous
 62
     1
370
    15
100
AcDbLine
 10
92.71936437740789
 20
-12.7
 30
0.0
 11
97.60593266133492
 21
-12.7
 31
0.0
  0
LINE
  5
B7
330
1F
100
AcDbEntity
  8
외형선
  6
Continuous
 62
     1
370
    15
100
AcDbLine
 10
12.92372760977985
 20
-12.7
 30
0.0
 11
17.81001247655182
 21
-12.7
 31
0.0
  0
LINE
  5
B8
330
1F
100
AcDbEntity
  8
외형선
  6
Continuous
 62
     1
370
    15
100
AcDbLine
 10
57.70713654959975
 20
12.70000000000001
 30
0.0
 11
52.82184823143154
 21
12.70000000000001
 31
0.0
  0
LINE
  5
B9
330
1F
100
AcDbEntity
  8
외형선
  6
Continuous
 62
     1
370
    15
100
AcDbLine
 10
82.74675822679927
 20
-12.7
 30
0.0
 11
87.63260473942447
 21
-12.7
 31
0.0
  0
LINE
  5
BA
330
1F
100
AcDbEntity
  8
외형선
  6
Continuous
 62
     1
370
    15
100
AcDbLine
 10
47.73462349565752
 20
12.70000000000001
 30
0.0
 11
42.84802849984916
 21
12.70000000000001
 31
0.0
  0
LINE
  5
BB
330
1F
100
AcDbEntity
  8
외형선
  6
Continuous
 62
     1
370
    15
100
AcDbLine
 10
52.82184823143163
 20
-12.7
 30
0.0
 11
57.70713654959986
 21
-12.7
 31
0.0
  0
LINE
  5
BC
330
1F
100
AcDbEntity
  8
외형선
  6
Continuous
 62
     1
370
    15
100
AcDbLine
 10
17.81001247655187
 20
12.70000000000001
 30
0.0
 11
12.92372760977996
 21
12.70000000000001
 31
0.0
  0
LINE
  5
BD
330
1F
100
AcDbEntity
  8
외형선
  6
Continuous
 62
     1
370
    15
100
AcDbLine
 10
97.60593266133503
 20
12.70000000000001
 30
0.0
 11
92.719364377408
 21
12.70000000000001
 31
0.0
  0
LINE
  5
BE
330
1F
100
AcDbEntity
  8
외형선
  6
Continuous
370
    15
100
AcDbLine
 10
-58.48500000000002
 20
-12.7
 30
0.0
 11
11.00014597396117
 21
-12.7
 31
0.0
  0
LINE
  5
BF
330
1F
100
AcDbEntity
  8
외형선
  6
Continuous
370
    15
100
AcDbLine
 10
11.00014597396117
 20
12.7
 30
0.0
 11
-58.48500000000002
 21
12.7
 31
0.0
  0
LINE
  5
C0
330
1F
100
AcDbEntity
  8
외형선
  6
Continuous
370
    15
100
AcDbLine
 10
-58.48500000000002
 20
12.7
 30
0.0
 11
-61.02500000000002
 21
10.16000000000001
 31
0.0
  0
LINE
  5
C1
330
1F
100
AcDbEntity
  8
외형선
  6
Continuous
370
    15
100
AcDbLine
 10
-61.02500000000002
 20
-10.16000000000001
 30
0.0
 11
-58.48500000000002
 21
-12.7
 31
0.0
  0
SPLINE
  5
C2
330
1F
100
AcDbEntity
  8
외형선
  6
Continuous
 62
     1
370
    15
100
AcDbSpline
210
0.0
220
0.0
230
1.0
 70
     8
 71
     3
 72
    11
 73
     7
 74
     0
 42
0.000000001
 43
0.00000001
 40
0.0
 40
0.0
 40
0.0
 40
0.0
 40
0.292570568952599
 40
0.5851390612056806
 40
0.8777055643303967
 40
1.0
 40
1.0
 40
1.0
 40
1.0
 10
11.99999999999993
 20
-11.39396532917379
 30
0.0
 10
12.8148524887385
 20
-11.71456472058869
 30
0.0
 10
14.44455168229905
 20
-12.35576122776718
 30
0.0
 10
16.88908051317909
 20
-12.72264929858194
 30
0.0
 10
18.85936250836672
 20
-12.74728245308996
 30
0.0
 10
20.01479867376882
 20
-12.47131406483176
 30
0.0
 10
20.35540295965499
 20
-12.38996295377568
 30
0.0
  0
SPLINE
  5
C3
330
1F
100
AcDbEntity
  8
외형선
  6
Continuous
 62
     1
370
    15
100
AcDbSpline
210
0.0
220
0.0
230
1.0
 70
     8
 71
     3
 72
    27
 73
    23
 74
     0
 42
0.000000001
 43
0.00000001
 40
0.0
 40
0.0
 40
0.0
 40
0.0
 40
0.0417591559455546
 40
0.093695482942044
 40
0.145619977424028
 40
0.1975355503887027
 40
0.2494457592270271
 40
0.3013541736443096
 40
0.3532643674689486
 40
0.4051799104407408
 40
0.4571043600194546
 40
0.5090406530093736
 40
0.5609721890144761
 40
0.6128926813350302
 40
0.664805676083142
 40
0.7167147365664954
 40
0.7686234351287936
 40
0.8205353449454266
 40
0.8724540318150111
 40
0.9243830459874965
 40
0.9763204355386688
 40
1.0
 40
1.0
 40
1.0
 40
1.0
 10
57.70713654959977
 20
12.66991906610233
 30
0.0
 10
58.29800224880093
 20
12.65817782941678
 30
0.0
 10
59.62373419397538
 20
12.63183388599454
 30
0.0
 10
61.68440471903738
 20
12.13652867593165
 30
0.0
 10
63.88838907570501
 20
11.28450704613723
 30
0.0
 10
66.09185341761875
 20
10.08227872880224
 30
0.0
 10
68.29496564051465
 20
8.58039583933172
 30
0.0
 10
70.49796701237094
 20
6.820073939537806
 30
0.0
 10
72.7010786634603
 20
4.855143401480692
 30
0.0
 10
74.90453955916087
 20
2.744256954166459
 30
0.0
 10
77.10852718620544
 20
0.5507558601794488
 30
0.0
 10
79.31312330857179
 20
-1.659140085637284
 30
0.0
 10
81.51748389822748
 20
-3.819324351638543
 30
0.0
 10
83.72124580886668
 20
-5.864723178135758
 30
0.0
 10
85.92453972145194
 20
-7.733868609260796
 30
0.0
 10
88.12758055840686
 20
-9.370600941052096
 30
0.0
 10
90.33059937971322
 20
-10.72635544381232
 30
0.0
 10
92.53382112898367
 20
-11.75853574768182
 30
0.0
 10
94.73747944163597
 20
-12.44330127092189
 30
0.0
 10
96.9416985819814
 20
-12.73324648019357
 30
0.0
 10
98.74665785198695
 20
-12.72198911939011
 30
0.0
 10
99.81653727198511
 20
-12.4764396082828
 30
0.0
 10
100.1515716438735
 20
-12.39954540442802
 30
0.0
  0
SPLINE
  5
C4
330
1F
100
AcDbEntity
  8
외형선
  6
Continuous
370
    15
100
AcDbSpline
210
0.0
220
0.0
230
1.0
 70
    24
 71
     3
 72
    11
 73
     7
 74
     0
 42
0.000000001
 43
0.00000001
 40
0.0
 40
0.0
 40
0.0
 40
0.0
 40
0.2124679441247482
 40
0.4806704324661823
 40
0.7488729208076159
 40
1.0
 40
1.0
 40
1.0
 40
1.0
 10
12.00000000000006
 20
-8.427461420104486
 30
0.0
 10
12.00000000000004
 20
-8.60631685915449
 30
0.0
 10
12.0
 20
-9.010945056557384
 30
0.0
 10
11.99999999999993
 20
-9.804764399983428
 30
0.0
 10
12.00000000000011
 20
-10.65745805348924
 30
0.0
 10
12.0
 20
-11.15390390361206
 30
0.0
 10
11.99999999999996
 20
-11.39396532917379
 30
0.0
  0
SPLINE
  5
C5
330
1F
100
AcDbEntity
  8
외형선
  6
Continuous
 62
     1
370
    15
100
AcDbSpline
210
0.0
220
0.0
230
1.0
 70
     8
 71
     3
 72
    27
 73
    23
 74
     0
 42
0.000000001
 43
0.00000001
 40
0.0
 40
0.0
 40
0.0
 40
0.0
 40
0.0317004773047206
 40
0.0836290140942399
 40
0.1355682559585049
 40
0.1874991221453804
 40
0.2394196606610381
 40
0.2913334218820455
 40
0.3432439717341911
 40
0.3951548835202997
 40
0.4470697297114786
 40
0.4989920737424962
 40
0.5509254618519286
 40
0.6028636071158318
 40
0.6547899085461427
 40
0.7067073030518831
 40
0.7586193482196973
 40
0.8105296139166932
 40
0.8624416740987281
 40
0.914359098598421
 40
0.9662854449336027
 40
1.0
 40
1.0
 40
1.0
 40
1.0
 10
102.6959874894528
 20
-12.65457612558241
 30
0.0
 10
102.2475219108823
 20
-12.65865011292887
 30
0.0
 10
101.0644250814394
 20
-12.66939769700914
 30
0.0
 10
99.14635432410566
 20
-12.25842262345349
 30
0.0
 10
96.94170956466996
 20
-11.47936777762203
 30
0.0
 10
94.73747649967228
 20
-10.33900639458231
 30
0.0
 10
92.53382191710125
 20
-8.892586875771384
 30
0.0
 10
90.33059916856416
 20
-7.17803610518791
 30
0.0
 10
88.12758061498295
 20
-5.248311957828387
 30
0.0
 10
85.92453970629106
 20
-3.160900705058375
 30
0.0
 10
83.72124581293005
 20
-0.9785145746305974
 30
0.0
 10
81.51748389713723
 20
1.233433582103031
 30
0.0
 10
79.3131233088684
 20
3.408394752259838
 30
0.0
 10
77.10852718610957
 20
5.480863334006905
 30
0.0
 10
74.9045395592481
 20
7.388867266870845
 30
0.0
 10
72.70107866320757
 20
9.07469646807259
 30
0.0
 10
70.4979670132951
 20
10.48822969985704
 30
0.0
 10
68.29496563707079
 20
11.58571914756709
 30
0.0
 10
66.09185343047113
 20
12.33935940045385
 30
0.0
 10
63.88838902773043
 20
12.70743638374331
 30
0.0
 10
61.94223052237592
 20
12.74503949626699
 30
0.0
 10
60.73040720240126
 20
12.49986514171778
 30
0.0
 10
60.25334445103609
 20
12.40334649067558
 30
0.0
  0
SPLINE
  5
C6
330
1F
100
AcDbEntity
  8
외형선
  6
Continuous
 62
     1
370
    15
100
AcDbSpline
210
0.0
220
0.0
230
1.0
 70
     8
 71
     3
 72
    12
 73
     8
 74
     0
 42
0.000000001
 43
0.00000001
 40
0.0
 40
0.0
 40
0.0
 40
0.0
 40
0.1028457891353823
 40
0.3271320881326779
 40
0.5514198448020076
 40
0.775709126379808
 40
1.0
 40
1.0
 40
1.0
 40
1.0
 10
22.89897608181453
 20
-12.64164070240625
 30
0.0
 10
22.52534102697673
 20
-12.65439365442881
 30
0.0
 10
21.33688191050518
 20
-12.6949582692766
 30
0.0
 10
19.33358547078329
 20
-12.26289328662229
 30
0.0
 10
16.88908087579383
 20
-11.37507483837909
 30
0.0
 10
14.44455159164375
 20
-10.06298497070196
 30
0.0
 10
12.8148524585196
 20
-8.890079401593278
 30
0.0
 10
11.99999999999932
 20
-8.303624535676924
 30
0.0
  0
LINE
  5
C7
330
1F
100
AcDbEntity
  8
외형선
  6
Continuous
 62
     1
370
    15
100
AcDbLine
 10
116.775
 20
9.487484931959234
 30
0.0
 11
116.775
 21
12.04218622062653
 31
0.0
  0
SPLINE
  5
C8
330
1F
100
AcDbEntity
  8
외형선
  6
Continuous
 62
     1
370
    15
100
AcDbSpline
210
0.0
220
0.0
230
1.0
 70
     8
 71
     3
 72
    27
 73
    23
 74
     0
 42
0.000000001
 43
0.00000001
 40
0.0
 40
0.0
 40
0.0
 40
0.0
 40
0.0198918768024835
 40
0.0718050833196358
 40
0.1237172040316665
 40
0.1756318128592733
 40
0.2275524780067296
 40
0.2794827537787371
 40
0.3314237713506112
 40
0.3833564753091767
 40
0.4352788363668689
 40
0.4871944049399395
 40
0.539106747028598
 40
0.5910194360447898
 40
0.6429360446032261
 40
0.6948601363163784
 40
0.7467952576340728
 40
0.7987352240725378
 40
0.8506633571673332
 40
0.9025825681196433
 40
0.9544964145697115
 40
1.0
 40
1.0
 40
1.0
 40
1.0
 10
27.78552916207812
 20
12.65485201856304
 30
0.0
 10
28.0669268222603
 20
12.66644749670882
 30
0.0
 10
29.08270741631708
 20
12.70830449605867
 30
0.0
 10
30.83273585865325
 20
12.38279363083974
 30
0.0
 10
33.03574764875415
 20
11.69220812118159
 30
0.0
 10
35.23890751758272
 20
10.62611771213789
 30
0.0
 10
37.44246195767193
 20
9.24738751689623
 30
0.0
 10
39.64656833197122
 20
7.589018460581121
 30
0.0
 10
41.85121784622677
 20
5.703337907091527
 30
0.0
 10
44.05545212264175
 20
3.646063963711963
 30
0.0
 10
46.25910924539374
 20
1.479445522088971
 30
0.0
 10
48.46233326652435
 20
-0.7314667819151297
 30
0.0
 10
50.66535221751913
 20
-2.920343946269393
 30
0.0
 10
52.86839256288768
 20
-5.021534593176892
 30
0.0
 10
55.07168487607017
 20
-6.972022168324916
 30
0.0
 10
57.27544451387409
 20
-8.713215588717384
 30
0.0
 10
59.47980238064044
 20
-10.19292546240955
 30
0.0
 10
61.68440020573779
 20
-11.36572710906666
 30
0.0
 10
63.88839020101214
 20
-12.19979378947824
 30
0.0
 10
66.0918534283932
 20
-12.65777353682344
 30
0.0
 10
68.20431274461686
 20
-12.76678651789141
 30
0.0
 10
69.5823263772802
 20
-12.53433999486081
 30
0.0
 10
70.22599517297382
 20
-12.42576445540615
 30
0.0
  0
SPLINE
  5
C9
330
1F
100
AcDbEntity
  8
외형선
  6
Continuous
 62
     1
370
    15
100
AcDbSpline
210
0.0
220
0.0
230
1.0
 70
     8
 71
     3
 72
    12
 73
     8
 74
     0
 42
0.000000001
 43
0.00000001
 40
0.0
 40
0.0
 40
0.0
 40
0.0
 40
0.0411944684439551
 40
0.2808472891767149
 40
0.52052154041757
 40
0.7602336602649938
 40
1.0
 40
1.0
 40
1.0
 40
1.0
 10
107.5814993805898
 20
12.6728300094386
 30
0.0
 10
107.7077262987313
 20
12.6814254387273
 30
0.0
 10
108.5682905715636
 20
12.74002561263966
 30
0.0
 10
110.1632631771251
 20
12.47999535921042
 30
0.0
 10
112.3666371568635
 20
11.87044238660255
 30
0.0
 10
114.5705094626067
 20
10.89017156824608
 30
0.0
 10
116.0401144260857
 20
9.973370500582746
 30
0.0
 10
116.775
 20
9.51491813037571
 30
0.0
  0
SPLINE
  5
CA
330
1F
100
AcDbEntity
  8
외형선
  6
Continuous
 62
     1
370
    15
100
AcDbSpline
210
0.0
220
0.0
230
1.0
 70
     8
 71
     3
 72
    11
 73
     7
 74
     0
 42
0.000000001
 43
0.00000001
 40
0.0
 40
0.0
 40
0.0
 40
0.0
 40
0.3314634161190507
 40
0.6628518763073437
 40
0.9941879852869087
 40
1.0
 40
1.0
 40
1.0
 40
1.0
 10
116.775
 20
12.04218622062653
 30
0.0
 10
116.0401139584365
 20
12.2428931421749
 30
0.0
 10
114.5705080597648
 20
12.64426159813875
 30
0.0
 10
112.3666427663815
 20
12.72808850563944
 30
0.0
 10
110.8847434622018
 20
12.65660972559406
 30
0.0
 10
110.1374505615561
 20
12.44640282586824
 30
0.0
 10
110.1245681605332
 20
12.44277912011951
 30
0.0
  0
SPLINE
  5
CB
330
1F
100
AcDbEntity
  8
외형선
  6
Continuous
 62
     1
370
    15
100
AcDbSpline
210
0.0
220
0.0
230
1.0
 70
     8
 71
     3
 72
    28
 73
    24
 74
     0
 42
0.000000001
 43
0.00000001
 40
0.0
 40
0.0
 40
0.0
 40
0.0
 40
0.0016380282285771
 40
0.0535493110831829
 40
0.1054588144931012
 40
0.1573701123617071
 40
0.2092867744691977
 40
0.2612123582811625
 40
0.3131497748558689
 40
0.365082346547664
 40
0.4170038891763878
 40
0.4689179490177628
 40
0.520828089509313
 40
0.572737883090362
 40
0.6246509029974268
 40
0.676570715055653
 40
0.7285008695069931
 40
0.7804393371635062
 40
0.8323670635474941
 40
0.8842851797787404
 40
0.9361972399874579
 40
0.9881068122027468
 40
1.0
 40
1.0
 40
1.0
 40
1.0
 10
72.77054365759335
 20
-12.69417194551935
 30
0.0
 10
72.74737021537842
 20
-12.69610662231569
 30
0.0
 10
71.98979971421977
 20
-12.75935376775872
 30
0.0
 10
70.49797680097967
 20
-12.53210643667069
 30
0.0
 10
68.29496309859101
 20
-11.98657852448041
 30
0.0
 10
66.09185379656662
 20
-11.03652627401198
 30
0.0
 10
63.88839010233779
 20
-9.766941928927169
 30
0.0
 10
61.68440023218636
 20
-8.200669646081753
 30
0.0
 10
59.47980237355305
 20
-6.389059081962209
 30
0.0
 10
57.2754445157746
 20
-4.385216936021953
 30
0.0
 10
55.0716848755537
 20
-2.249779423121149
 30
0.0
 10
52.86839256305351
 20
-0.0469254734375866
 30
0.0
 10
50.66535221737239
 20
2.157250920772404
 30
0.0
 10
48.46233326694591
 20
4.296646401977474
 30
0.0
 10
46.25910924385388
 20
6.307072833448153
 30
0.0
 10
44.05545212838111
 20
8.128259062088151
 30
0.0
 10
41.85121782480342
 20
9.705252220991918
 30
0.0
 10
39.64656841193067
 20
10.99121893329484
 30
0.0
 10
37.44246165935294
 20
11.94494515742038
 30
0.0
 10
35.23890863064752
 20
12.54808926284155
 30
0.0
 10
33.03574349533592
 20
12.74355223000628
 30
0.0
 10
31.39883930296822
 20
12.68995182410532
 30
0.0
 10
30.49626307328771
 20
12.45647525895099
 30
0.0
 10
30.32801786573217
 20
12.4129539342451
 30
0.0
  0
SPLINE
  5
CC
330
1F
100
AcDbEntity
  8
외형선
  6
Continuous
 62
     1
370
    15
100
AcDbSpline
210
0.0
220
0.0
230
1.0
 70
     8
 71
     3
 72
    27
 73
    23
 74
     0
 42
0.000000001
 43
0.00000001
 40
0.0
 40
0.0
 40
0.0
 40
0.0
 40
0.0444915456534076
 40
0.096428695696105
 40
0.1483575327445256
 40
0.2002760276622055
 40
0.2521877306010324
 40
0.3040962072956912
 40
0.356005030892051
 40
0.4079177737388063
 40
0.4598379991830817
 40
0.5117692534106344
 40
0.5637053523981901
 40
0.6156296189231871
 40
0.6675449639700418
 40
0.7194549449140956
 40
0.7713631314449851
 40
0.8232730973754193
 40
0.8751884124295229
 40
0.927112634051447
 40
0.9790486990325816
 40
1.0
 40
1.0
 40
1.0
 40
1.0
 10
37.75794371684935
 20
12.67657927493362
 30
0.0
 10
38.38743672901754
 20
12.65898467793146
 30
0.0
 10
39.75176761979073
 20
12.6208510501759
 30
0.0
 10
41.85122154177493
 20
12.10079814554938
 30
0.0
 10
44.05545113270413
 20
11.22923938022931
 30
0.0
 10
46.25910951058844
 20
10.01026421571794
 30
0.0
 10
48.46233319546646
 20
8.493490195726656
 30
0.0
 10
50.66535223658851
 20
6.720988317238264
 30
0.0
 10
52.86839255766621
 20
4.746859730453492
 30
0.0
 10
55.07168487788571
 20
2.630060200905354
 30
0.0
 10
57.27544451183361
 20
0.4341221102402623
 30
0.0
 10
59.47980238698798
 20
-1.77492217174766
 30
0.0
 10
61.68440018238885
 20
-3.930536479855145
 30
0.0
 10
63.88839028803164
 20
-5.968231280989851
 30
0.0
 10
66.09185310373022
 20
-7.826514916705221
 30
0.0
 10
68.29496568396624
 20
-9.449567270606305
 30
0.0
 10
70.4979671524236
 20
-10.78928369298509
 30
0.0
 10
72.70107805974556
 20
-11.80338590388314
 30
0.0
 10
74.9045418343801
 20
-12.46925278744604
 30
0.0
 10
77.10851868674317
 20
-12.73759742530561
 30
0.0
 10
78.87475109219443
 20
-12.71501317372819
 30
0.0
 10
79.90607256961599
 20
-12.4710531610428
 30
0.0
 10
80.20252348928392
 20
-12.400927432348
 30
0.0
  0
SPLINE
  5
CD
330
1F
100
AcDbEntity
  8
외형선
  6
Continuous
 62
     1
370
    15
100
AcDbSpline
210
0.0
220
0.0
230
1.0
 70
     8
 71
     3
 72
    27
 73
    23
 74
     0
 42
0.000000001
 43
0.00000001
 40
0.0
 40
0.0
 40
0.0
 40
0.0
 40
0.0289605405828714
 40
0.0808941221504197
 40
0.1328324608901598
 40
0.184758955752188
 40
0.2366765436564661
 40
0.2885887822028913
 40
0.3404992412718693
 40
0.392411494832571
 40
0.4443291127309135
 40
0.4962556524979798
 40
0.54819402524563
 40
0.600127553021174
 40
0.6520500515306008
 40
0.7039650671149198
 40
0.7558761632772584
 40
0.8077869125227091
 40
0.8597008881535725
 40
0.9116216560606416
 40
0.963552766551229
 40
1.0
 40
1.0
 40
1.0
 40
1.0
 10
82.74675822679927
 20
-12.65287144387899
 30
0.0
 10
82.33704425912961
 20
-12.65973597322326
 30
0.0
 10
81.192609415016
 20
-12.67891034166059
 30
0.0
 10
79.31311722184063
 20
-12.28911380388096
 30
0.0
 10
77.10852881721675
 20
-11.53026217514865
 30
0.0
 10
74.90453912069844
 20
-10.40696513297864
 30
0.0
 10
72.70107878673889
 20
-8.976054818517431
 30
0.0
 10
70.49796695764297
 20
-7.274376749833163
 30
0.0
 10
68.29496573615688
 20
-5.354643489975267
 30
0.0
 10
66.09185308975057
 20
-3.273991060494703
 30
0.0
 10
63.88839029175373
 20
-1.094942772492495
 30
0.0
 10
61.68440018148302
 20
1.117208960536827
 30
0.0
 10
59.47980238688787
 20
3.295651762475621
 30
0.0
 10
57.27544451313954
 20
5.375223525652027
 30
0.0
 10
55.07168487276373
 20
7.293303309654636
 30
0.0
 10
52.86839257684522
 20
8.99213873069869
 30
0.0
 10
50.66535216499938
 20
10.42115509990548
 30
0.0
 10
48.46233346265151
 20
11.5362633920182
 30
0.0
 10
46.25910851331439
 20
12.30864065079869
 30
0.0
 10
44.0554548554301
 20
12.69776150954079
 30
0.0
 10
42.07040227844901
 20
12.7506223915662
 30
0.0
 10
40.81984518436199
 20
12.50719610644997
 30
0.0
 10
40.30411537638459
 20
12.40680709432631
 30
0.0
  0
SPLINE
  5
CE
330
1F
100
AcDbEntity
  8
외형선
  6
Continuous
 62
     1
370
    15
100
AcDbSpline
210
0.0
220
0.0
230
1.0
 70
     8
 71
     3
 72
    27
 73
    23
 74
     0
 42
0.000000001
 43
0.00000001
 40
0.0
 40
0.0
 40
0.0
 40
0.0
 40
0.0171484017758184
 40
0.0690605785552843
 40
0.1209731022611788
 40
0.1728895454968365
 40
0.2248134718633809
 40
0.2767484277993446
 40
0.3286882288406504
 40
0.3806161965759683
 40
0.4325352421972127
 40
0.4844489233332979
 40
0.5363608099283115
 40
0.5882744760497068
 40
0.6401934916760623
 40
0.6921214145051066
 40
0.7440611815375672
 40
0.7959961912670145
 40
0.8479201565731962
 40
0.8998366238054194
 40
0.9517491565097196
 40
1.0
 40
1.0
 40
1.0
 40
1.0
 10
47.73462349565754
 20
12.65775029904733
 30
0.0
 10
47.97720585390697
 20
12.66945772189492
 30
0.0
 10
48.95414109411325
 20
12.71660622038571
 30
0.0
 10
50.66534780461122
 20
12.40863295431754
 30
0.0
 10
52.86839374530371
 20
11.73906477731624
 30
0.0
 10
55.07168455961542
 20
10.6902868320078
 30
0.0
 10
57.27544459708285
 20
9.327508036365597
 30
0.0
 10
59.47980236435065
 20
7.682604616134077
 30
0.0
 10
61.68440018767031
 20
5.807565317883194
 30
0.0
 10
63.8883902895377
 20
3.757817700482402
 30
0.0
 10
66.09185309242852
 20
1.595442437806277
 30
0.0
 10
68.294965727662
 20
-0.6147465061965982
 30
0.0
 10
70.49796698894406
 20
-2.806433681005108
 30
0.0
 10
72.70107867001943
 20
-4.913885764728184
 30
0.0
 10
74.90453955635357
 20
-6.873885968700092
 30
0.0
 10
77.10852719087544
 20
-8.627562813626902
 30
0.0
 10
79.31312329269676
 20
-10.12215675483437
 30
0.0
 10
81.51748395704499
 20
-11.31219253716555
 30
0.0
 10
83.72124558953303
 20
-12.16470652511005
 30
0.0
 10
85.92454053983437
 20
-12.64330527894843
 30
0.0
 10
88.07578619402699
 20
-12.77097961016334
 30
0.0
 10
89.4926546152578
 20
-12.54338298785708
 30
0.0
 10
90.17519047852898
 20
-12.43374482050456
 30
0.0
  0
SPLINE
  5
CF
330
1F
100
AcDbEntity
  8
외형선
  6
Continuous
 62
     1
370
    15
100
AcDbSpline
210
0.0
220
0.0
230
1.0
 70
     8
 71
     3
 72
    28
 73
    24
 74
     0
 42
0.000000001
 43
0.00000001
 40
0.0
 40
0.0
 40
0.0
 40
0.0
 40
0.0043733053216704
 40
0.0562865035698965
 40
0.1081964904840861
 40
0.1601068393283137
 40
0.2120211225349454
 40
0.2639429035001063
 40
0.3158757284239158
 40
0.3678133104506076
 40
0.4197390487721464
 40
0.4716558802657046
 40
0.523567362479347
 40
0.5754770652414682
 40
0.6273885624691685
 40
0.6793054239563541
 40
0.7312312071822766
 40
0.7831688232163831
 40
0.835101594348972
 40
0.887023336376134
 40
0.9389375955872103
 40
0.9908479354334101
 40
1.0
 40
1.0
 40
1.0
 40
1.0
 10
92.71936437740791
 20
-12.68528121600947
 30
0.0
 10
92.65749279784825
 20
-12.69010882142921
 30
0.0
 10
91.86117636722915
 20
-12.75224238167845
 30
0.0
 10
90.33061050354476
 20
-12.51325425042551
 30
0.0
 10
88.12757757784809
 20
-11.94505639251163
 30
0.0
 10
85.92454052015782
 20
-10.97756678314235
 30
0.0
 10
83.7212455948063
 20
-9.691272008324214
 30
0.0
 10
81.5174839556318
 20
-8.110898821143316
 30
0.0
 10
79.31312329307522
 20
-6.287636356362064
 30
0.0
 10
77.10852719077525
 20
-4.275420226275545
 30
0.0
 10
74.90453955637614
 20
-2.134702150913801
 30
0.0
 10
72.70107867002937
 20
0.0699387709358236
 30
0.0
 10
70.49796698888198
 20
2.272367441698512
 30
0.0
 10
68.29496572790038
 20
4.406526359782974
 30
0.0
 10
66.09185309153713
 20
6.408391015671331
 30
0.0
 10
63.88839029286539
 20
8.21795332175816
 30
0.0
 10
61.68440017524762
 20
9.780676724498772
 30
0.0
 10
59.47980241072244
 20
11.05018038429945
 30
0.0
 10
57.27544442405588
 20
11.98543272441026
 30
0.0
 10
55.07168520517033
 20
12.56969329685475
 30
0.0
 10
52.86839133650573
 20
12.74273001398721
 30
0.0
 10
51.27021401880972
 20
12.68188502980799
 30
0.0
 10
50.40641535628157
 20
12.45312215556044
 30
0.0
 10
50.27694876864857
 20
12.41883505835741
 30
0.0
  0
LINE
  5
D0
330
1F
100
AcDbEntity
  8
외형선
  6
Continuous
370
    15
100
AcDbLine
 10
12.92372760977985
 20
-12.64474800618826
 30
0.0
 11
11.99999999999932
 21
-12.66639357088055
 31
0.0
  0
LINE
  5
D1
330
1F
100
AcDbEntity
  8
외형선
  6
Continuous
 62
     1
370
    15
100
AcDbLine
 10
116.775
 20
0.7801083170165969
 30
0.0
 11
116.775
 21
5.662415353675614
 31
0.0
  0
SPLINE
  5
D2
330
1F
100
AcDbEntity
  8
외형선
  6
Continuous
 62
     1
370
    15
100
AcDbSpline
210
0.0
220
0.0
230
1.0
 70
     8
 71
     3
 72
    27
 73
    23
 74
     0
 42
0.000000001
 43
0.00000001
 40
0.0
 40
0.0
 40
0.0
 40
0.0
 40
0.0358914653057166
 40
0.0934771800969027
 40
0.1510625379176371
 40
0.2029865330053548
 40
0.2549023104610922
 40
0.3068134308732207
 40
0.3587234655238603
 40
0.4106359881900923
 40
0.4625545669328036
 40
0.5144827559138684
 40
0.566421686263146
 40
0.6183523033331935
 40
0.6702725779179916
 40
0.7221860602911204
 40
0.7740963163094919
 40
0.8260069192414554
 40
0.8779214415581588
 40
0.9298434467288715
 40
0.9817764810609074
 40
1.0
 40
1.0
 40
1.0
 40
1.0
 10
17.81001247655189
 20
12.64481452838395
 30
0.0
 10
18.3178726768256
 20
12.648883936573
 30
0.0
 10
19.64056426939966
 20
12.65948246741969
 30
0.0
 10
21.77804488976532
 20
12.1477845889983
 30
0.0
 10
24.14249906763402
 20
11.21919472132863
 30
0.0
 10
26.42629064268135
 20
9.937084698341433
 30
0.0
 10
28.62966918489701
 20
8.40597244255149
 30
0.0
 10
30.83274069952327
 20
6.621313981540251
 30
0.0
 10
33.03574635159612
 20
4.638172218149419
 30
0.0
 10
35.23890786520032
 20
2.515617632676584
 30
0.0
 10
37.44246186452251
 20
0.3174193532949728
 30
0.0
 10
39.6465683568725
 20
-1.890512243706783
 30
0.0
 10
41.85121783980082
 20
-4.041467408009593
 30
0.0
 10
44.05545212344625
 20
-6.071204599188155
 30
0.0
 10
46.25910924859902
 20
-7.9184936236427
 30
0.0
 10
48.46233325290106
 20
-9.52773642951688
 30
0.0
 10
50.66535226880441
 20
-10.85131308298192
 30
0.0
 10
52.86839237136108
 20
-11.84724700971697
 30
0.0
 10
55.07168559099294
 20
-12.4941945380035
 30
0.0
 10
57.27544184507634
 20
-12.74077697417842
 30
0.0
 10
59.00277563438575
 20
-12.70775177551058
 30
0.0
 10
59.99548355609758
 20
-12.46611330376615
 30
0.0
 10
60.25334445103618
 20
-12.40334649067558
 30
0.0
  0
SPLINE
  5
D3
330
1F
100
AcDbEntity
  8
외형선
  6
Continuous
 62
     1
370
    15
100
AcDbSpline
210
0.0
220
0.0
230
1.0
 70
     8
 71
     3
 72
    16
 73
    12
 74
     0
 42
0.000000001
 43
0.00000001
 40
0.0
 40
0.0
 40
0.0
 40
0.0
 40
0.0803508130875251
 40
0.1953263234654183
 40
0.3102805226170345
 40
0.425221279727042
 40
0.5401564948301137
 40
0.6550940806935939
 40
0.7700419446370765
 40
0.8850079703789712
 40
1.0
 40
1.0
 40
1.0
 40
1.0
 10
97.60593266133503
 20
12.65977585281557
 30
0.0
 10
98.1194471542731
 20
12.65775112884417
 30
0.0
 10
99.36775932558297
 20
12.65282918873965
 30
0.0
 10
101.3504687067452
 20
12.20476426050846
 30
0.0
 10
103.5540232558094
 20
11.3922879719019
 30
0.0
 10
105.7571863884173
 20
10.22379189551058
 30
0.0
 10
107.960191883357
 20
8.752036052958037
 30
0.0
 10
110.1632635450632
 20
7.01657553629372
 30
0.0
 10
112.3666370587264
 20
5.070152622627189
 30
0.0
 10
114.5705094871491
 20
2.972882911411495
 30
0.0
 10
116.0401144342671
 20
1.511088282198018
 30
0.0
 10
116.775
 20
0.7801083170165971
 30
0.0
  0
SPLINE
  5
D4
330
1F
100
AcDbEntity
  8
외형선
  6
Continuous
 62
     1
370
    15
100
AcDbSpline
210
0.0
220
0.0
230
1.0
 70
     8
 71
     3
 72
    15
 73
    11
 74
     0
 42
0.000000001
 43
0.00000001
 40
0.0
 40
0.0
 40
0.0
 40
0.0
 40
0.1325987351885684
 40
0.2651674849816752
 40
0.3977152921798368
 40
0.5302512475965049
 40
0.6627844692599498
 40
0.7953240814803125
 40
0.9278791938855251
 40
1.0
 40
1.0
 40
1.0
 40
1.0
 10
116.775
 20
5.662415353675614
 30
0.0
 10
116.0401144377597
 20
6.303545206239246
 30
0.0
 10
114.570509497626
 20
7.585659928594662
 30
0.0
 10
112.3666370168328
 20
9.23544507439716
 30
0.0
 10
110.1632637021316
 20
10.62027301141885
 30
0.0
 10
107.9601912970285
 20
11.68155907876958
 30
0.0
 10
105.7571885766811
 20
12.39779748856848
 30
0.0
 10
103.5540150882335
 20
12.72339708869824
 30
0.0
 10
101.6855021529846
 20
12.73294979001195
 30
0.0
 10
100.5512451045581
 20
12.48641562690697
 30
0.0
 10
100.1515716438736
 20
12.39954540442802
 30
0.0
  0
SPLINE
  5
D5
330
1F
100
AcDbEntity
  8
외형선
  6
Continuous
 62
     1
370
    15
100
AcDbSpline
210
0.0
220
0.0
230
1.0
 70
     8
 71
     3
 72
    27
 73
    23
 74
     0
 42
0.000000001
 43
0.00000001
 40
0.0
 40
0.0
 40
0.0
 40
0.0
 40
0.026221558754159
 40
0.0781608703347046
 40
0.1300953368555669
 40
0.1820187739109479
 40
0.2339347279059606
 40
0.2858467624081458
 40
0.3377584499871723
 40
0.3896733640099312
 40
0.4415950704316725
 40
0.4935271196238835
 40
0.5454674823245861
 40
0.5973971033608536
 40
0.6493171138937405
 40
0.7012310681831362
 40
0.7531425343883258
 40
0.8050550863849475
 40
0.856972295553608
 40
0.9088977225808711
 40
0.9664846684679915
 40
1.0
 40
1.0
 40
1.0
 40
1.0
 10
62.79743980482244
 20
-12.65223376106341
 30
0.0
 10
62.42646934070907
 20
-12.66124962751488
 30
0.0
 10
61.32068556120866
 20
-12.68812400120391
 30
0.0
 10
59.47979364695697
 20
-12.31870931247697
 30
0.0
 10
57.27544685342428
 20
-11.58019117115665
 30
0.0
 10
55.07168424934252
 20
-10.47406767026648
 30
0.0
 10
52.86839273080303
 20
-9.058784621842795
 30
0.0
 10
50.66535217249643
 20
-7.370112686084633
 30
0.0
 10
48.46233327870793
 20
-5.460520172332805
 30
0.0
 10
46.25910924168417
 20
-3.386791756159508
 30
0.0
 10
44.05545212529519
 20
-1.211240602634643
 30
0.0
 10
41.85121783932163
 20
1.000840715435707
 30
0.0
 10
39.64656835693977
 20
3.182675380801349
 30
0.0
 10
37.44246186473255
 20
5.269101871306139
 30
0.0
 10
35.23890786429337
 20
7.197113854555974
 30
0.0
 10
33.03574635501379
 20
8.908799801398198
 30
0.0
 10
30.83274068676014
 20
10.35327362270997
 30
0.0
 10
28.62966923253521
 20
11.48559510032294
 30
0.0
 10
26.42629046486289
 20
12.27783261487053
 30
0.0
 10
24.14249976196381
 20
12.69825093766929
 30
0.0
 10
22.11865999722708
 20
12.76638323793939
 30
0.0
 10
20.82962281259374
 20
12.49119945418122
 30
0.0
 10
20.35540295965509
 20
12.38996295377568
 30
0.0
  0
SPLINE
  5
D6
330
1F
100
AcDbEntity
  8
외형선
  6
Continuous
 62
     1
370
    15
100
AcDbSpline
210
0.0
220
0.0
230
1.0
 70
     8
 71
     3
 72
    15
 73
    11
 74
     0
 42
0.000000001
 43
0.00000001
 40
0.0
 40
0.0
 40
0.0
 40
0.0
 40
0.1333683934919514
 40
0.2667358403197216
 40
0.400102380402648
 40
0.5334680537210282
 40
0.6668329003134607
 40
0.7870863102322979
 40
0.9073206885210493
 40
1.0
 40
1.0
 40
1.0
 40
1.0
 10
11.99999999999997
 20
-4.090167609851566
 30
0.0
 10
12.81485259157682
 20
-4.846932987463033
 30
0.0
 10
14.44455199081317
 20
-6.360458371078366
 30
0.0
 10
16.88907927913647
 20
-8.355302759268426
 30
0.0
 10
19.33359145818958
 20
-10.05267677185152
 30
0.0
 10
21.77804526782644
 20
-11.37487943003771
 30
0.0
 10
24.14249924436979
 20
-12.25179538693937
 30
0.0
 10
26.42628971913004
 20
-12.68339726821152
 30
0.0
 10
28.46142021199947
 20
-12.75742772282149
 30
0.0
 10
29.76192183391714
 20
-12.51742489207976
 30
0.0
 10
30.32801786573216
 20
-12.4129539342451
 30
0.0
  0
SPLINE
  5
D7
330
1F
100
AcDbEntity
  8
외형선
  6
Continuous
 62
     1
370
    15
100
AcDbSpline
210
0.0
220
0.0
230
1.0
 70
     8
 71
     3
 72
    27
 73
    23
 74
     0
 42
0.000000001
 43
0.00000001
 40
0.0
 40
0.0
 40
0.0
 40
0.0
 40
0.0144055493733236
 40
0.0663169992615714
 40
0.1182302286612308
 40
0.1701488075208477
 40
0.2220762935082218
 40
0.2740156235993735
 40
0.3259501964275324
 40
0.3778737249253365
 40
0.4297897554122594
 40
0.4817018514043583
 40
0.5336135854542379
 40
0.5855285309462381
 40
0.6374502538874945
 40
0.689382304735566
 40
0.741322731452095
 40
0.7932524528496715
 40
0.8451725488405891
 40
0.8970865736127449
 40
0.9489980952877175
 40
1.0
 40
1.0
 40
1.0
 40
1.0
 10
67.68364740297542
 20
12.66171424773453
 30
0.0
 10
67.88742715535616
 20
12.67294659511835
 30
0.0
 10
68.82554213715505
 20
12.72465552713159
 30
0.0
 10
70.49796359835975
 20
12.4332995829694
 30
0.0
 10
72.70107957834972
 20
11.78496786873238
 30
0.0
 10
74.90453931397883
 20
10.75353863513634
 30
0.0
 10
77.10852725185822
 20
9.406826725723294
 30
0.0
 10
79.3131232912236
 20
7.775581471489412
 30
0.0
 10
81.51748390196605
 20
5.911262134198218
 30
0.0
 10
83.72124581125513
 20
3.869293142233861
 30
0.0
 10
85.92453970816294
 20
1.711321932692222
 30
0.0
 10
88.12758060917076
 20
-0.4979679903474357
 30
0.0
 10
90.33059918994155
 20
-2.692294668856452
 30
0.0
 10
92.53382183739402
 20
-4.805840634371654
 30
0.0
 10
94.73747679718903
 20
-6.775205754220252
 30
0.0
 10
96.94170845401166
 20
-8.541151178176227
 30
0.0
 10
99.14635846949167
 20
-10.0505670524838
 30
0.0
 10
101.3504676407462
 20
-11.25769208470856
 30
0.0
 10
103.5540232236393
 20
-12.1286040887304
 30
0.0
 10
105.7571875827042
 20
-12.62773822637738
 30
0.0
 10
107.9473049717575
 20
-12.77484588850458
 30
0.0
 10
109.4031028659831
 20
-12.55281388766543
 30
0.0
 10
110.1245681605332
 20
-12.4427791201195
 30
0.0
  0
SPLINE
  5
D8
330
1F
100
AcDbEntity
  8
외형선
  6
Continuous
370
    15
100
AcDbSpline
210
0.0
220
0.0
230
1.0
 70
    24
 71
     3
 72
    15
 73
    11
 74
     0
 42
0.000000001
 43
0.00000001
 40
0.0
 40
0.0
 40
0.0
 40
0.0
 40
0.0679388313498538
 40
0.2023125774011985
 40
0.3366863234525426
 40
0.4710600695038887
 40
0.6054338155552256
 40
0.7398075616065694
 40
0.8741813076579131
 40
1.0
 40
1.0
 40
1.0
 40
1.0
 10
12.00000000000001
 20
0.6872659945862485
 30
0.0
 10
12.0
 20
0.6368021906930771
 30
0.0
 10
11.99999999999996
 20
0.4865278626210777
 30
0.0
 10
11.99999999999996
 20
-0.0382011091108892
 30
0.0
 10
12.00000000000006
 20
-0.7940098616026184
 30
0.0
 10
12.00000000000004
 20
-1.655599529141865
 30
0.0
 10
12.00000000000004
 20
-2.510469889335216
 30
0.0
 10
11.9999999999999
 20
-3.260238575979349
 30
0.0
 10
12.00000000000012
 20
-3.831363030824043
 30
0.0
 10
12.00000000000003
 20
-4.005811354001271
 30
0.0
 10
11.99999999999997
 20
-4.090167609851566
 30
0.0
  0
SPLINE
  5
D9
330
1F
100
AcDbEntity
  8
외형선
  6
Continuous
 62
     1
370
    15
100
AcDbSpline
210
0.0
220
0.0
230
1.0
 70
     8
 71
     3
 72
    28
 73
    24
 74
     0
 42
0.000000001
 43
0.00000001
 40
0.0
 40
0.0
 40
0.0
 40
0.0
 40
0.0071100750433574
 40
0.0590257729357139
 40
0.1109368287783788
 40
0.1628468138775178
 40
0.2147593019997496
 40
0.2666778611610346
 40
0.3186060454440678
 40
0.3705449347291775
 40
0.4224754483937542
 40
0.4743956344572205
 40
0.5263090432720428
 40
0.578219240739803
 40
0.6301298001390693
 40
0.6820442939166979
 40
0.7339662854832676
 40
0.7858993210532816
 40
0.8378371137454733
 40
0.8897630626844725
 40
0.9416801047593638
 40
0.993591797532642
 40
1.0
 40
1.0
 40
1.0
 40
1.0
 10
112.6683255361643
 20
-12.67744057999418
 30
0.0
 10
112.5677319523002
 20
-12.68470140740154
 30
0.0
 10
111.7326333065419
 20
-12.74497868257216
 30
0.0
 10
110.1632768161425
 20
-12.49309509124391
 30
0.0
 10
107.9601883482719
 20
-11.90260261303526
 30
0.0
 10
105.7571872585487
 20
-10.91766167878352
 30
0.0
 10
103.554023310509
 20
-9.614780254003072
 30
0.0
 10
101.3504676174637
 20
-8.020421715551823
 30
0.0
 10
99.14635847573214
 20
-6.18572482958022
 30
0.0
 10
96.94170845233972
 20
-4.165218802990896
 30
0.0
 10
94.73747679763633
 20
-2.019483855941946
 30
0.0
 10
92.53382183727629
 20
0.1867810025951023
 30
0.0
 10
90.33059918996514
 20
2.387286914740442
 30
0.0
 10
88.12758060919401
 20
4.516043261550763
 30
0.0
 10
85.92453970804621
 20
6.509186871278864
 30
0.0
 10
83.72124581169876
 20
8.30698813852223
 30
0.0
 10
81.51748390030787
 20
9.855249409410238
 30
0.0
 10
79.31312329741428
 20
11.10824162419489
 30
0.0
 10
77.1085272287543
 20
12.02489067256716
 30
0.0
 10
74.90453940017562
 20
12.59029248610284
 30
0.0
 10
72.7010792567321
 20
12.74064939688597
 30
0.0
 10
71.14164238415341
 20
12.67361711059077
 30
0.0
 10
70.31664595564291
 20
12.45030233080705
 30
0.0
 10
70.22599517297382
 20
12.42576445540616
 30
0.0
  0
SPLINE
  5
DA
330
1F
100
AcDbEntity
  8
외형선
  6
Continuous
 62
     1
370
    15
100
AcDbSpline
210
0.0
220
0.0
230
1.0
 70
     8
 71
     3
 72
    16
 73
    12
 74
     0
 42
0.000000001
 43
0.00000001
 40
0.0
 40
0.0
 40
0.0
 40
0.0
 40
0.0977690348498984
 40
0.203330858454
 40
0.3089021522065405
 40
0.4144901566024004
 40
0.5315906032155961
 40
0.64869177573206
 40
0.7657937093075147
 40
0.882896439046492
 40
0.9999999999999999
 40
0.9999999999999999
 40
0.9999999999999999
 40
0.9999999999999999
 10
32.87313473012664
 20
-12.68696014808903
 30
0.0
 10
32.19300771979908
 20
-12.66065064826273
 30
0.0
 10
30.77854342565961
 20
-12.60593462090919
 30
0.0
 10
28.62966976820038
 20
-12.05234033477236
 30
0.0
 10
26.42629051289798
 20
-11.15542844726093
 30
0.0
 10
24.14249900570272
 20
-9.869866854737895
 30
0.0
 10
21.77804533454821
 20
-8.204265970196634
 30
0.0
 10
19.33359144031727
 20
-6.178415391494102
 30
0.0
 10
16.889079283902
 20
-3.925208931632617
 30
0.0
 10
14.44455198962117
 20
-1.524534882379274
 30
0.0
 10
12.81485259117905
 20
0.1073498657639358
 30
0.0
 10
11.99999999999934
 20
0.9232951356721791
 30
0.0
  0
LINE
  5
DB
330
1F
100
AcDbEntity
  8
외형선
  6
Continuous
 62
     1
370
    15
100
AcDbLine
 10
116.775
 20
-12.67601794783053
 30
0.0
 11
116.775
 21
-11.36780772015692
 31
0.0
  0
SPLINE
  5
DC
330
1F
100
AcDbEntity
  8
외형선
  6
Continuous
 62
     1
370
    15
100
AcDbSpline
210
0.0
220
0.0
230
1.0
 70
     8
 71
     3
 72
    20
 73
    16
 74
     0
 42
0.000000001
 43
0.00000001
 40
0.0
 40
0.0
 40
0.0
 40
0.0
 40
0.086357519275869
 40
0.1727144255761437
 40
0.2590707447490391
 40
0.3454265026822433
 40
0.4317817253011942
 40
0.5096471467339092
 40
0.5875002449743074
 40
0.6653463594943153
 40
0.7431908458022457
 40
0.8210390631478651
 40
0.8988963622089131
 40
0.976768072820116
 40
1.0
 40
1.0
 40
1.0
 40
1.0
 10
11.99999999999997
 20
5.609594822942709
 30
0.0
 10
12.81485259110359
 20
4.85852740100559
 30
0.0
 10
14.4445519893935
 20
3.356397888294212
 30
0.0
 10
16.88907928481504
 20
0.9237340195206573
 30
0.0
 10
19.33359143689523
 20
-1.528171806651545
 30
0.0
 10
21.77804534732461
 20
-3.92757993131854
 30
0.0
 10
24.14249896000148
 20
-6.107161257398884
 30
0.0
 10
26.42629066489304
 20
-8.009761863116555
 30
0.0
 10
28.62966919910752
 20
-9.6051071761379
 30
0.0
 10
30.83274062048118
 20
-10.91243382819659
 30
0.0
 10
33.03574665355572
 20
-11.89011241311266
 30
0.0
 10
35.23890673628695
 20
-12.51812754015683
 30
0.0
 10
37.44246607905558
 20
-12.74277190562799
 30
0.0
 10
39.1308949311568
 20
-12.70022836756502
 30
0.0
 10
40.08490076988135
 20
-12.46163245064734
 30
0.0
 10
40.30411537638471
 20
-12.4068070943263
 30
0.0
  0
SPLINE
  5
DD
330
1F
100
AcDbEntity
  8
외형선
  6
Continuous
 62
     1
370
    15
100
AcDbSpline
210
0.0
220
0.0
230
1.0
 70
     8
 71
     3
 72
    25
 73
    21
 74
     0
 42
0.000000001
 43
0.00000001
 40
0.0
 40
0.0
 40
0.0
 40
0.0
 40
0.0423434994574759
 40
0.0986898170107005
 40
0.1550241520383848
 40
0.2113503521132021
 40
0.2676722834652266
 40
0.3239938221287178
 40
0.3803188450403251
 40
0.4366512211328136
 40
0.4929948024684642
 40
0.5493474711869155
 40
0.605688525189613
 40
0.6620191361253775
 40
0.7183431601037135
 40
0.7746644683514471
 40
0.8309869383347518
 40
0.8873144448502583
 40
0.9436508511293907
 40
0.9999999999999999
 40
0.9999999999999999
 40
0.9999999999999999
 40
0.9999999999999999
 10
77.65648196971901
 20
12.66431644043714
 30
0.0
 10
78.2087110030293
 20
12.65776448714523
 30
0.0
 10
79.49578890031358
 20
12.64249387702262
 30
0.0
 10
81.51748794112797
 20
12.17117864499019
 30
0.0
 10
83.72124472923124
 20
11.33885959141956
 30
0.0
 10
85.92453999805662
 20
10.15345590255881
 30
0.0
 10
88.12758053146578
 20
8.666588152461472
 30
0.0
 10
90.33059921088136
 20
6.918581981373483
 30
0.0
 10
92.53382183134335
 20
4.963005866883471
 30
0.0
 10
94.73747680044897
 20
2.858185977709126
 30
0.0
 10
96.94170844702211
 20
0.6673927667142356
 30
0.0
 10
99.14635849419062
 20
-1.543260488079363
 30
0.0
 10
101.3504675489693
 20
-3.707766190007194
 30
0.0
 10
103.5540235659702
 20
-5.760683344765894
 30
0.0
 10
105.7571863053187
 20
-7.64063486478844
 30
0.0
 10
107.9601919056227
 20
-9.290581639036617
 30
0.0
 10
110.1632635390986
 20
-10.66353026549715
 30
0.0
 10
112.3666370603173
 20
-11.70899240350339
 30
0.0
 10
114.5705094867512
 20
-12.43019498965386
 30
0.0
 10
116.0401144341345
 20
-12.59407078469388
 30
0.0
 10
116.775
 20
-12.67601794783053
 30
0.0
  0
SPLINE
  5
DE
330
1F
100
AcDbEntity
  8
외형선
  6
Continuous
370
    15
100
AcDbSpline
210
0.0
220
0.0
230
1.0
 70
    24
 71
     3
 72
    15
 73
    11
 74
     0
 42
0.000000001
 43
0.00000001
 40
0.0
 40
0.0
 40
0.0
 40
0.0
 40
0.1093039082380989
 40
0.2487430901087067
 40
0.388182271979282
 40
0.5276214538498567
 40
0.6670606357204335
 40
0.8064998175910004
 40
0.9459389994615751
 40
1.0
 40
1.0
 40
1.0
 40
1.0
 10
12.00000000000003
 20
9.609361038607885
 30
0.0
 10
12.00000000000006
 20
9.44315922296647
 30
0.0
 10
12.00000000000009
 20
9.064933468089816
 30
0.0
 10
11.99999999999996
 20
8.305843686024103
 30
0.0
 10
11.99999999999997
 20
7.440104231457742
 30
0.0
 10
12.00000000000006
 20
6.608606635166828
 30
0.0
 10
12.00000000000004
 20
5.903625205942069
 30
0.0
 10
12.00000000000004
 20
5.426167705211498
 30
0.0
 10
11.99999999999993
 20
5.202727297918422
 30
0.0
 10
11.99999999999999
 20
5.247909204807675
 30
0.0
 10
12.0
 20
5.260532340673791
 30
0.0
  0
SPLINE
  5
DF
330
1F
100
AcDbEntity
  8
외형선
  6
Continuous
 62
     1
370
    15
100
AcDbSpline
210
0.0
220
0.0
230
1.0
 70
     8
 71
     3
 72
    24
 73
    20
 74
     0
 42
0.000000001
 43
0.00000001
 40
0.0
 40
0.0
 40
0.0
 40
0.0
 40
0.0602713686542064
 40
0.120529107760427
 40
0.1807773276290869
 40
0.2410201603943886
 40
0.3012617505607465
 40
0.361506245487933
 40
0.421757785862076
 40
0.4820204961997346
 40
0.5422956297031212
 40
0.6025610432904152
 40
0.6628144716861837
 40
0.7230600350780518
 40
0.7833018716984093
 40
0.8435441283406452
 40
0.9037909508329466
 40
0.9640464745168912
 40
0.9999999999999999
 40
0.9999999999999999
 40
0.9999999999999999
 40
0.9999999999999999
 10
116.775
 20
-11.36780772015692
 30
0.0
 10
116.0401144341345
 20
-11.00724255634287
 30
0.0
 10
114.5705094867512
 20
-10.28619376560886
 30
0.0
 10
112.3666370603175
 20
-8.804107525492803
 30
0.0
 10
110.1632635390978
 20
-7.082250552148743
 30
0.0
 10
107.9601919056252
 20
-5.141232039019002
 30
0.0
 10
105.7571863053093
 20
-3.047614659013694
 30
0.0
 10
103.5540235660056
 20
-0.8619578429095939
 30
0.0
 10
101.3504675488372
 20
1.349581303667472
 30
0.0
 10
99.14635849468362
 20
3.520812111696968
 30
0.0
 10
96.94170844518189
 20
5.586088832283625
 30
0.0
 10
94.73747680731535
 20
7.483780263814468
 30
0.0
 10
92.53382180572461
 20
9.156483087685578
 30
0.0
 10
90.33059930647639
 20
10.554422503469
 30
0.0
 10
88.12758017472197
 20
11.6342021493128
 30
0.0
 10
85.92454132949874
 20
12.36906607233564
 30
0.0
 10
83.72123975949941
 20
12.71598776791652
 30
0.0
 10
81.813922727593
 20
12.7391471648428
 30
0.0
 10
80.64088876577293
 20
12.49293677616815
 30
0.0
 10
80.202523489284
 20
12.400927432348
 30
0.0
  0
SPLINE
  5
E0
330
1F
100
AcDbEntity
  8
외형선
  6
Continuous
 62
     1
370
    15
100
AcDbSpline
210
0.0
220
0.0
230
1.0
 70
     8
 71
     3
 72
    21
 73
    17
 74
     0
 42
0.000000001
 43
0.00000001
 40
0.0
 40
0.0
 40
0.0
 40
0.0
 40
0.0323104133182817
 40
0.1037756480262822
 40
0.1752261031769196
 40
0.2466633351453522
 40
0.3180922342712703
 40
0.3895177100186727
 40
0.4609446797167429
 40
0.5323780572617267
 40
0.6038227418358358
 40
0.683057163583228
 40
0.7622920765031764
 40
0.8415275043833218
 40
0.9207634709766673
 40
1.0
 40
1.0
 40
1.0
 40
1.0
 10
42.84802849984926
 20
-12.65266253822527
 30
0.0
 10
42.51578645456122
 20
-12.66320107579925
 30
0.0
 10
41.44868052769789
 20
-12.69704909734005
 30
0.0
 10
39.6465590516618
 20
-12.34717353533397
 30
0.0
 10
37.44246435708866
 20
-11.62918721588271
 30
0.0
 10
35.2389071975913
 20
-10.54030148082594
 30
0.0
 10
33.03574652996259
 20
-9.140766985224985
 30
0.0
 10
30.83274065359734
 20
-7.465229774398361
 30
0.0
 10
28.62966919023535
 20
-5.565935670618931
 30
0.0
 10
26.42629066726264
 20
-3.499263416744547
 30
0.0
 10
24.14249895928896
 20
-1.248723195261794
 30
0.0
 10
21.77804534752369
 20
1.126241250805926
 30
0.0
 10
19.33359143684165
 20
3.541710611335346
 30
0.0
 10
16.88907928482885
 20
5.819613443813662
 30
0.0
 10
14.44455198938943
 20
7.908061497969621
 30
0.0
 10
12.81485259110181
 20
9.04225984995191
 30
0.0
 10
11.99999999999934
 20
9.60936103861775
 30
0.0
  0
LINE
  5
E1
330
1F
100
AcDbEntity
  8
외형선
  6
Continuous
 62
     1
370
    15
100
AcDbLine
 10
116.775
 20
-8.411678368330907
 30
0.0
 11
116.775
 21
-4.034321631668904
 31
0.0
  0
SPLINE
  5
E2
330
1F
100
AcDbEntity
  8
외형선
  6
Continuous
 62
     1
370
    15
100
AcDbSpline
210
0.0
220
0.0
230
1.0
 70
     8
 71
     3
 72
    24
 73
    20
 74
     0
 42
0.000000001
 43
0.00000001
 40
0.0
 40
0.0
 40
0.0
 40
0.0
 40
0.0638568533375223
 40
0.127713253411762
 40
0.1915692193361185
 40
0.2554247702531783
 40
0.3192799253334402
 40
0.3768573179934746
 40
0.4344255982995296
 40
0.4919887145108718
 40
0.5495506267448336
 40
0.6071152978853561
 40
0.6646866844778165
 40
0.7222687276552776
 40
0.7798626817031227
 40
0.8374474173358258
 40
0.8950206844108175
 40
0.9525864197495157
 40
1.0
 40
1.0
 40
1.0
 40
1.0
 10
11.99999999999995
 20
12.02333268787497
 30
0.0
 10
12.81485259110065
 20
11.71792459018227
 30
0.0
 10
14.44455198938477
 20
11.10711056261867
 30
0.0
 10
16.88907928484986
 20
9.661704828423877
 30
0.0
 10
19.3335914367646
 20
7.891347138733854
 30
0.0
 10
21.77804534781227
 20
5.821071081609803
 30
0.0
 10
24.14249895825716
 20
3.612717088876479
 30
0.0
 10
26.42629067069437
 20
1.363359961969864
 30
0.0
 10
28.62966917738645
 20
-0.8481180756034132
 30
0.0
 10
30.83274070155708
 20
-3.034009698804624
 30
0.0
 10
33.03574635097097
 20
-5.128775305238294
 30
0.0
 10
35.23890786566712
 20
-7.069595626738005
 30
0.0
 10
37.44246186328045
 20
-8.798162072666972
 30
0.0
 10
39.64656836137533
 20
-10.26281457548365
 30
0.0
 10
41.85121782302938
 20
-11.4183304050827
 30
0.0
 10
44.05545218601162
 20
-12.23385737399775
 30
0.0
 10
46.25910901516781
 20
-12.67113971601042
 30
0.0
 10
48.33286423126921
 20
-12.76226825005251
 30
0.0
 10
49.67209112276637
 20
-12.52568647754855
 30
0.0
 10
50.27694876864867
 20
-12.41883505835741
 30
0.0
  0
SPLINE
  5
E3
330
1F
100
AcDbEntity
  8
외형선
  6
Continuous
 62
     1
370
    15
100
AcDbSpline
210
0.0
220
0.0
230
1.0
 70
     8
 71
     3
 72
    21
 73
    17
 74
     0
 42
0.000000001
 43
0.00000001
 40
0.0
 40
0.0
 40
0.0
 40
0.0
 40
0.0169864979783511
 40
0.0925876690262276
 40
0.1681935170279666
 40
0.2438092353048922
 40
0.3194399945328472
 40
0.3950829518789254
 40
0.4707103186333185
 40
0.5463236675162505
 40
0.6219281746362079
 40
0.697529036393864
 40
0.7731314575650535
 40
0.8487406393422481
 40
0.9243617673937831
 40
1.0
 40
1.0
 40
1.0
 40
1.0
 10
87.63260473942458
 20
12.66674178037853
 30
0.0
 10
87.79759815950504
 20
12.67693067274783
 30
0.0
 10
88.69692162155027
 20
12.73246688719506
 30
0.0
 10
90.33059720509269
 20
12.45677117181867
 30
0.0
 10
92.53382236888129
 20
11.82991910317801
 30
0.0
 10
94.73747665637694
 20
10.81585692862494
 30
0.0
 10
96.94170848563664
 20
9.485394277423344
 30
0.0
 10
99.14635848384546
 20
7.867872947246152
 30
0.0
 10
101.3504675517405
 20
6.014488368327003
 30
0.0
 10
103.5540235652278
 20
3.980483965565427
 30
0.0
 10
105.7571863055176
 20
1.827013098951398
 30
0.0
 10
107.9601919055694
 20
-0.3809285360693532
 30
0.0
 10
110.1632635391128
 20
-2.578754461021091
 30
0.0
 10
112.3666370603135
 20
-4.694377152344176
 30
0.0
 10
114.5705094867522
 20
-6.687327370601068
 30
0.0
 10
116.0401144341348
 20
-7.83685137265927
 30
0.0
 10
116.775
 20
-8.411678368330906
 30
0.0
  0
LINE
  5
E4
330
1F
100
AcDbEntity
  8
외형선
  6
Continuous
370
    15
100
AcDbLine
 10
12.00000000000003
 20
12.66639357086688
 30
0.0
 11
12.00000000000004
 21
12.14715957230204
 31
0.0
  0
SPLINE
  5
E5
330
1F
100
AcDbEntity
  8
외형선
  6
Continuous
 62
     1
370
    15
100
AcDbSpline
210
0.0
220
0.0
230
1.0
 70
     8
 71
     3
 72
    20
 73
    16
 74
     0
 42
0.000000001
 43
0.00000001
 40
0.0
 40
0.0
 40
0.0
 40
0.0
 40
0.0828690161769982
 40
0.1657192926562304
 40
0.2485564808338524
 40
0.3313862621122235
 40
0.4142143349018994
 40
0.4970464015393587
 40
0.5798881551852741
 40
0.6627452667682656
 40
0.745619459355798
 40
0.8284802877224424
 40
0.9113246372691665
 40
0.9941581729726013
 40
1.0
 40
1.0
 40
1.0
 40
1.0
 10
116.775
 20
-4.034321631668902
 30
0.0
 10
116.0401144341362
 20
-3.326019735339968
 30
0.0
 10
114.5705094867564
 20
-1.909576115495495
 30
0.0
 10
112.366637060297
 20
0.3050429982712604
 30
0.0
 10
110.1632635391743
 20
2.501604858206371
 30
0.0
 10
107.9601919053403
 20
4.625287516763715
 30
0.0
 10
105.7571863063727
 20
6.609420818115963
 30
0.0
 10
103.5540235620364
 20
8.395354510552897
 30
0.0
 10
101.3504675636533
 20
9.929013617002786
 30
0.0
 10
99.1463584393733
 20
11.16535570634363
 30
0.0
 10
96.94170865163474
 20
12.06334283816961
 30
0.0
 10
94.73747603703126
 20
12.60988906868815
 30
0.0
 10
92.53382467968297
 20
12.73727980370167
 30
0.0
 10
91.01314521928404
 20
12.66517604745601
 30
0.0
 10
90.22698197449719
 20
12.44804889789035
 30
0.0
 10
90.17519047852909
 20
12.43374482050456
 30
0.0
  0
SPLINE
  5
E6
330
1F
100
AcDbEntity
  8
외형선
  6
Continuous
 62
     1
370
    15
100
AcDbSpline
210
0.0
220
0.0
230
1.0
 70
     8
 71
     3
 72
    25
 73
    21
 74
     0
 42
0.000000001
 43
0.00000001
 40
0.0
 40
0.0
 40
0.0
 40
0.0
 40
0.0528341908840501
 40
0.1068073477967375
 40
0.1607838592787323
 40
0.2147674328932291
 40
0.2687617600008121
 40
0.3227647307553122
 40
0.3767565332822496
 40
0.4307383436623088
 40
0.4847138572988891
 40
0.538686784046745
 40
0.5926608397039864
 40
0.6466397374746121
 40
0.7006271794439054
 40
0.7605009653183556
 40
0.8203751223491773
 40
0.8802496685115895
 40
0.9401246217546376
 40
1.0
 40
1.0
 40
1.0
 40
1.0
 10
52.82184823143163
 20
-12.69605953622558
 30
0.0
 10
52.10301336521977
 20
-12.66234061935804
 30
0.0
 10
50.64984744596855
 20
-12.59417589456639
 30
0.0
 10
48.46233430798178
 20
-12.0141302722648
 30
0.0
 10
46.25910896584419
 20
-11.09802812443553
 30
0.0
 10
44.05545219923153
 20
-9.8408366389123
 30
0.0
 10
41.85121781948619
 20
-8.290042191317802
 30
0.0
 10
39.64656836232452
 20
-6.48984169495977
 30
0.0
 10
37.44246186302622
 20
-4.494695117315379
 30
0.0
 10
35.23890786573526
 20
-2.364687795956372
 30
0.0
 10
33.03574635095272
 20
-0.1638008040325169
 30
0.0
 10
30.832740701562
 20
2.041953418980432
 30
0.0
 10
28.62966917738512
 20
4.186414481533889
 30
0.0
 10
26.42629067069472
 20
6.205254814143286
 30
0.0
 10
24.14249895825702
 20
8.104346923969224
 30
0.0
 10
21.77804534781217
 20
9.796888238212762
 30
0.0
 10
19.33359143676439
 20
11.18718362148186
 30
0.0
 10
16.88907928484944
 20
12.15537637837046
 30
0.0
 10
14.44455198938432
 20
12.70822490823082
 30
0.0
 10
12.81485259110009
 20
12.6803373829889
 30
0.0
 10
11.99999999999932
 20
12.66639357088054
 30
0.0
  0
LINE
  5
E7
330
1F
100
AcDbEntity
  8
외형선
  6
Continuous
 62
     1
370
    15
100
AcDbLine
 10
116.775
 20
12.04218622062653
 30
0.0
 11
116.775
 21
12.70000000000001
 31
0.0
  0
LINE
  5
E8
330
1F
100
AcDbEntity
  8
외형선
  6
Continuous
 62
     1
370
    15
100
AcDbLine
 10
116.775
 20
5.662415353675614
 30
0.0
 11
116.775
 21
9.514918130375708
 31
0.0
  0
LINE
  5
E9
330
1F
100
AcDbEntity
  8
외형선
  6
Continuous
370
    15
100
AcDbLine
 10
12.00000000000003
 20
9.609361038607885
 30
0.0
 11
11.99999999999996
 21
12.02333268787496
 31
0.0
  0
LINE
  5
EA
330
1F
100
AcDbEntity
  8
외형선
  6
Continuous
 62
     1
370
    15
100
AcDbLine
 10
116.775
 20
-11.36780772015692
 30
0.0
 11
116.775
 21
-8.411678368330907
 31
0.0
  0
LINE
  5
EB
330
1F
100
AcDbEntity
  8
외형선
  6
Continuous
370
    15
100
AcDbLine
 10
12.00000000000003
 20
0.9232951356718844
 30
0.0
 11
11.99999999999997
 21
5.609594822942707
 31
0.0
  0
LINE
  5
EC
330
1F
100
AcDbEntity
  8
외형선
  6
Continuous
 62
     1
370
    15
100
AcDbLine
 10
116.775
 20
-12.7
 30
0.0
 11
116.775
 21
-12.67601794783053
 31
0.0
  0
LINE
  5
ED
330
1F
100
AcDbEntity
  8
외형선
  6
Continuous
370
    15
100
AcDbLine
 10
12.00000000000003
 20
-8.303624535667478
 30
0.0
 11
11.99999999999997
 21
-4.090167609851566
 31
0.0
  0
LINE
  5
EE
330
1F
100
AcDbEntity
  8
외형선
  6
Continuous
370
    15
100
AcDbLine
 10
12.00000000000003
 20
-12.66639357086689
 30
0.0
 11
11.99999999999996
 21
-11.39396532917379
 31
0.0
  0
LINE
  5
EF
330
1F
100
AcDbEntity
  8
외형선
  6
Continuous
 62
     1
370
    15
100
AcDbLine
 10
116.775
 20
-4.034321631668904
 30
0.0
 11
116.775
 21
0.7801083170165969
 31
0.0
  0
SPLINE
  5
F0
330
1F
100
AcDbEntity
  8
외형선
  6
Continuous
370
    15
100
AcDbSpline
210
0.0
220
0.0
230
1.0
 70
     8
 71
     3
 72
     8
 73
     4
 74
     0
 42
0.000000001
 43
0.00000001
 40
0.0
 40
0.0
 40
0.0
 40
0.0
 40
1.0
 40
1.0
 40
1.0
 40
1.0
 10
11.99999999999999
 20
12.66639357088058
 30
0.0
 10
11.66806492134588
 20
12.64219172875332
 30
0.0
 10
11.33426566318417
 20
12.6048698864674
 30
0.0
 10
11.00014597396114
 20
12.55451587020815
 30
0.0
  0
LINE
  5
F1
330
1F
100
AcDbEntity
  8
외형선
  6
Continuous
370
    15
100
AcDbLine
 10
11.00014597396117
 20
12.30781189732122
 30
0.0
 11
11.00014597396117
 21
12.7
 31
0.0
  0
SPLINE
  5
F2
330
1F
100
AcDbEntity
  8
외형선
  6
Continuous
370
    15
100
AcDbSpline
210
0.0
220
0.0
230
1.0
 70
     8
 71
     3
 72
     8
 73
     4
 74
     0
 42
0.000000001
 43
0.00000001
 40
0.0
 40
0.0
 40
0.0
 40
0.0
 40
1.0
 40
1.0
 40
1.0
 40
1.0
 10
11.99999999999995
 20
12.02333268787495
 30
0.0
 10
11.66806492134588
 20
12.13054606628798
 30
0.0
 10
11.3342656631842
 20
12.22554896731977
 30
0.0
 10
11.00014597396116
 20
12.30781836389291
 30
0.0
  0
SPLINE
  5
F3
330
1F
100
AcDbEntity
  8
외형선
  6
Continuous
370
    15
100
AcDbSpline
210
0.0
220
0.0
230
1.0
 70
     8
 71
     3
 72
     8
 73
     4
 74
     0
 42
0.000000001
 43
0.00000001
 40
0.0
 40
0.0
 40
0.0
 40
0.0
 40
1.0
 40
1.0
 40
1.0
 40
1.0
 10
11.99999999999999
 20
9.60936103861733
 30
0.0
 10
11.66806492134588
 20
9.827019512416545
 30
0.0
 10
11.33426566318417
 20
10.03516582326232
 30
0.0
 10
11.00014597396114
 20
10.23276724911829
 30
0.0
  0
LINE
  5
F4
330
1F
100
AcDbEntity
  8
외형선
  6
Continuous
370
    15
100
AcDbLine
 10
11.00014597396117
 20
6.488465951555222
 30
0.0
 11
11.00014597396117
 21
10.23278368275931
 31
0.0
  0
SPLINE
  5
F5
330
1F
100
AcDbEntity
  8
외형선
  6
Continuous
370
    15
100
AcDbSpline
210
0.0
220
0.0
230
1.0
 70
     8
 71
     3
 72
     8
 73
     4
 74
     0
 42
0.000000001
 43
0.00000001
 40
0.0
 40
0.0
 40
0.0
 40
0.0
 40
1.0
 40
1.0
 40
1.0
 40
1.0
 10
11.99999999999995
 20
5.609594822942723
 30
0.0
 10
11.66806492134588
 20
5.908258748968473
 30
0.0
 10
11.3342656631842
 20
6.201690697000778
 30
0.0
 10
11.00014597396116
 20
6.488488494471619
 30
0.0
  0
SPLINE
  5
F6
330
1F
100
AcDbEntity
  8
외형선
  6
Continuous
370
    15
100
AcDbSpline
210
0.0
220
0.0
230
1.0
 70
     8
 71
     3
 72
     8
 73
     4
 74
     0
 42
0.000000001
 43
0.00000001
 40
0.0
 40
0.0
 40
0.0
 40
0.0
 40
1.0
 40
1.0
 40
1.0
 40
1.0
 10
11.99999999999999
 20
0.9232951356715439
 30
0.0
 10
11.66806492134588
 20
1.255312543411086
 30
0.0
 10
11.33426566318417
 20
1.586997721453024
 30
0.0
 10
11.00014597396114
 20
1.916802354102046
 30
0.0
  0
LINE
  5
F7
330
1F
100
AcDbEntity
  8
외형선
  6
Continuous
370
    15
100
AcDbLine
 10
11.00014597396117
 20
-3.131735349635881
 30
0.0
 11
11.00014597396117
 21
1.916829782538183
 31
0.0
  0
SPLINE
  5
F8
330
1F
100
AcDbEntity
  8
외형선
  6
Continuous
370
    15
100
AcDbSpline
210
0.0
220
0.0
230
1.0
 70
     8
 71
     3
 72
     8
 73
     4
 74
     0
 42
0.000000001
 43
0.00000001
 40
0.0
 40
0.0
 40
0.0
 40
0.0
 40
1.0
 40
1.0
 40
1.0
 40
1.0
 10
11.99999999999995
 20
-4.09016760985155
 30
0.0
 10
11.66806492134588
 20
-3.775006413487367
 30
0.0
 10
11.3342656631842
 20
-3.455033873978318
 30
0.0
 10
11.00014597396116
 20
-3.13170993570946
 30
0.0
  0
SPLINE
  5
F9
330
1F
100
AcDbEntity
  8
외형선
  6
Continuous
370
    15
100
AcDbSpline
210
0.0
220
0.0
230
1.0
 70
     8
 71
     3
 72
     8
 73
     4
 74
     0
 42
0.000000001
 43
0.00000001
 40
0.0
 40
0.0
 40
0.0
 40
0.0
 40
1.0
 40
1.0
 40
1.0
 40
1.0
 10
11.99999999999999
 20
-8.3036245356774
 30
0.0
 10
11.66806492134588
 20
-8.051739488507401
 30
0.0
 10
11.33426566318417
 20
-7.790812122128131
 30
0.0
 10
11.00014597396114
 20
-7.521999363558377
 30
0.0
  0
LINE
  5
FA
330
1F
100
AcDbEntity
  8
외형선
  6
Continuous
370
    15
100
AcDbLine
 10
11.00014597396117
 20
-10.9174085567734
 30
0.0
 11
11.00014597396117
 21
-7.521977007533019
 31
0.0
  0
SPLINE
  5
FB
330
1F
100
AcDbEntity
  8
외형선
  6
Continuous
370
    15
100
AcDbSpline
210
0.0
220
0.0
230
1.0
 70
     8
 71
     3
 72
     8
 73
     4
 74
     0
 42
0.000000001
 43
0.00000001
 40
0.0
 40
0.0
 40
0.0
 40
0.0
 40
1.0
 40
1.0
 40
1.0
 40
1.0
 10
11.99999999999995
 20
-11.3939653291738
 30
0.0
 10
11.66806492134588
 20
-11.24692401696759
 30
0.0
 10
11.3342656631842
 20
-11.08784646003924
 30
0.0
 10
11.00014597396116
 20
-10.91739515897038
 30
0.0
  0
SPLINE
  5
FC
330
1F
100
AcDbEntity
  8
외형선
  6
Continuous
370
    15
100
AcDbSpline
210
0.0
220
0.0
230
1.0
 70
     8
 71
     3
 72
     8
 73
     4
 74
     0
 42
0.000000001
 43
0.00000001
 40
0.0
 40
0.0
 40
0.0
 40
0.0
 40
1.0
 40
1.0
 40
1.0
 40
1.0
 10
11.99999999999999
 20
-12.66639357088059
 30
0.0
 10
11.66806492134588
 20
-12.64219172875333
 30
0.0
 10
11.33426566318417
 20
-12.60486988646741
 30
0.0
 10
11.00014597396114
 20
-12.55451587020816
 30
0.0
  0
LINE
  5
FD
330
1F
100
AcDbEntity
  8
외형선
  6
Continuous
370
    15
100
AcDbLine
 10
11.00014597396117
 20
-12.7
 30
0.0
 11
11.00014597396117
 21
-12.55451168245004
 31
0.0
  0
LINE
  5
FE
330
1F
100
AcDbEntity
  8
외형선
  6
Continuous
370
    15
100
AcDbLine
 10
-58.48500000000002
 20
0.0000000000000018
 30
0.0
 11
-58.48500000000002
 21
12.7
 31
0.0
  0
LINE
  5
FF
330
1F
100
AcDbEntity
  8
외형선
  6
Continuous
370
    15
100
AcDbLine
 10
-58.48500000000002
 20
-12.7
 30
0.0
 11
-58.48500000000002
 21
0.0000000000000018
 31
0.0
  0
LINE
  5
100
330
1F
100
AcDbEntity
  8
외형선
  6
Continuous
370
    15
100
AcDbLine
 10
-61.02500000000002
 20
0.0000000000000018
 30
0.0
 11
-61.02500000000002
 21
10.16000000000002
 31
0.0
  0
LINE
  5
101
330
1F
100
AcDbEntity
  8
외형선
  6
Continuous
370
    15
100
AcDbLine
 10
-61.02500000000002
 20
-10.16000000000001
 30
0.0
 11
-61.02500000000002
 21
0.0000000000000018
 31
0.0
  0
SPLINE
  5
102
330
1F
100
AcDbEntity
  8
외형선
  6
Continuous
370
    15
100
AcDbSpline
210
0.0
220
0.0
230
1.0
 70
    24
 71
     3
 72
    17
 73
    13
 74
     0
 42
0.000000001
 43
0.00000001
 40
0.0
 40
0.0
 40
0.0
 40
0.0
 40
0.0030425194692349
 40
0.1187319743252234
 40
0.2344214291812128
 40
0.3501108840371533
 40
0.4658003388931846
 40
0.58148979374917
 40
0.6971792486051595
 40
0.8128687034611142
 40
0.9285581583171365
 40
1.0
 40
1.0
 40
1.0
 40
1.0
 10
11.99999999999995
 20
-4.09016760985155
 30
0.0
 10
11.99999999999995
 20
-4.088458652341213
 30
0.0
 10
11.99999999999949
 20
-4.021767904330602
 30
0.0
 10
12.00000000000036
 20
-3.789298731415352
 30
0.0
 10
11.99999999999982
 20
-3.201927988506729
 30
0.0
 10
12.0
 20
-2.435257500119602
 30
0.0
 10
12.0000000000001
 20
-1.576217074392836
 30
0.0
 10
12.00000000000001
 20
-0.7220114828448884
 30
0.0
 10
11.99999999999995
 20
0.0329655201936764
 30
0.0
 10
11.99999999999999
 20
0.5963046994220773
 30
0.0
 10
11.99999999999999
 20
0.8889821219922343
 30
0.0
 10
12.00000000000001
 20
0.9096170399898752
 30
0.0
 10
12.00000000000001
 20
0.9174949127561765
 30
0.0
  0
SPLINE
  5
103
330
1F
100
AcDbEntity
  8
외형선
  6
Continuous
370
    15
100
AcDbSpline
210
0.0
220
0.0
230
1.0
 70
    24
 71
     3
 72
    15
 73
    11
 74
     0
 42
0.000000001
 43
0.00000001
 40
0.0
 40
0.0
 40
0.0
 40
0.0
 40
0.062376451019694
 40
0.2024507007915594
 40
0.3425249505635345
 40
0.4825992003354542
 40
0.6226734501073787
 40
0.7627476998792613
 40
0.9028219496512258
 40
0.9999999999999999
 40
0.9999999999999999
 40
0.9999999999999999
 40
0.9999999999999999
 10
12.0
 20
5.261120897263789
 30
0.0
 10
11.99999999999999
 20
5.249969839696975
 30
0.0
 10
11.99999999999993
 20
5.213777664892811
 30
0.0
 10
11.99999999999999
 20
5.459309904348219
 30
0.0
 10
12.0000000000001
 20
5.959724629423985
 30
0.0
 10
11.99999999999999
 20
6.679687962641122
 30
0.0
 10
11.99999999999997
 20
7.518551405037764
 30
0.0
 10
11.99999999999999
 20
8.382871627560531
 30
0.0
 10
11.99999999999999
 20
9.107745565421713
 30
0.0
 10
12.00000000000003
 20
9.463602695687344
 30
0.0
 10
12.00000000000001
 20
9.609361038617315
 30
0.0
  0
SPLINE
  5
104
330
1F
100
AcDbEntity
  8
외형선
  6
Continuous
370
    15
100
AcDbSpline
210
0.0
220
0.0
230
1.0
 70
    24
 71
     3
 72
    12
 73
     8
 74
     0
 42
0.000000001
 43
0.00000001
 40
0.0
 40
0.0
 40
0.0
 40
0.0
 40
0.0070424476876166
 40
0.2748260862380332
 40
0.542609724788452
 40
0.8103933633387574
 40
0.9999999999999999
 40
0.9999999999999999
 40
0.9999999999999999
 40
0.9999999999999999
 10
11.99999999999995
 20
-11.3939653291738
 30
0.0
 10
11.99999999999993
 20
-11.38761068667391
 30
0.0
 10
11.99999999999913
 20
-11.1396256670965
 30
0.0
 10
12.00000000000047
 20
-10.5913501230433
 30
0.0
 10
11.99999999999978
 20
-9.728956056340206
 30
0.0
 10
12.0
 20
-8.960626377353742
 30
0.0
 10
12.00000000000004
 20
-8.58370886499112
 30
0.0
 10
12.00000000000004
 20
-8.427461420104484
 30
0.0
  0
SPLINE
  5
105
330
1F
100
AcDbEntity
  8
외형선
  6
Continuous
370
    15
100
AcDbSpline
210
0.0
220
0.0
230
1.0
 70
    24
 71
     3
 72
     9
 73
     5
 74
     0
 42
0.000000001
 43
0.00000001
 40
0.0
 40
0.0
 40
0.0
 40
0.0
 40
0.4282230069133836
 40
1.0
 40
1.0
 40
1.0
 40
1.0
 10
12.00000000000003
 20
12.14715957230204
 30
0.0
 10
12.00000000000004
 20
12.22066352364899
 30
0.0
 10
12.00000000000004
 20
12.3923122911376
 30
0.0
 10
12.00000000000001
 20
12.56668898767185
 30
0.0
 10
12.00000000000001
 20
12.66639357088058
 30
0.0
  0
LINE
  5
106
330
1F
100
AcDbEntity
  8
중심선
 62
     1
100
AcDbLine
 10
-64.02500000000003
 20
-0.0000000000000069
 30
0.0
 11
119.775
 21
0.0000000000000122
 31
0.0
  0
LINE
  5
107
330
1F
100
AcDbEntity
  8
참조1
100
AcDbLine
 10
27.87499999999997
 20
-0.0000000000000108
 30
0.0
 11
27.87499999999997
 21
-40.00000000000001
 31
0.0
  0
LINE
  5
108
330
1F
100
AcDbEntity
  8
참조1
100
AcDbLine
 10
27.87499999999997
 20
-40.00000000000001
 30
0.0
 11
-23.79635681430868
 21
-40.00000000000001
 31
0.0
  0
INSERT
  5
10A
330
1F
100
AcDbEntity
  8
0
  6
Continuous
 62
     7
100
AcDbBlockReference
 66
     1
  2
블럭10
 10
13.93472706787476
 20
-52.04717430164394
 30
0.0
  0
ATTRIB
  5
10B
330
10A
100
AcDbEntity
  8
FORMAT
 62
     2
100
AcDbText
 10
3.793091055738131
 20
-49.97180738881175
 30
0.0
 40
4.233333333333333
  1
EM218064 [ 8 FLUTE ]
 41
0.75
  7
SLDTEXTSTYLE0
 11
3.793091055738131
 21
-52.08847405547842
 31
0.0
100
AcDbAttribute
  2
AUTOATTR0
 70
     0
 74
     1
  0
SEQEND
  5
10C
330
10A
100
AcDbEntity
  8
0
  6
Continuous
 62
     7
  0
HATCH
  5
10D
330
1F
100
AcDbEntity
  8
중심선
100
AcDbHatch
 10
0.0
 20
0.0
 30
0.0
210
0.0
220
0.0
230
1.0
  2
SOLID
 70
     1
 71
     0
 91
        1
 92
        0
 93
        4
 72
     1
 10
19.6496363722556
 20
-35.8
 11
16.20336112841832
 21
-35.8
 72
     1
 10
16.20336112841832
 20
-35.8
 11
14.0751312692143
 21
-38.33632558057261
 72
     1
 10
14.0751312692143
 20
-38.33632558057261
 11
17.52143959816473
 21
-38.33628615127012
 72
     1
 10
17.52143959816473
 20
-38.33628615127012
 11
19.6496363722556
 21
-35.8
 97
        0
 75
     0
 76
     1
 98
        1
 10
-4.350000000000058
 20
-0.0010749287239
  0
HATCH
  5
10E
330
1F
100
AcDbEntity
  8
중심선
100
AcDbHatch
 10
0.0
 20
0.0
 30
0.0
210
0.0
220
0.0
230
1.0
  2
SOLID
 70
     1
 71
     0
 91
        1
 92
        0
 93
        4
 72
     1
 10
24.66240036329155
 20
-35.79999999999998
 11
21.21612511945433
 21
-35.79999999999998
 72
     1
 10
21.21612511945433
 20
-35.79999999999998
 11
16.68498711109688
 21
-41.20000000000002
 72
     1
 10
16.68498711109688
 20
-41.20000000000002
 11
20.13126235493417
 21
-41.20000000000002
 72
     1
 10
20.13126235493417
 20
-41.20000000000002
 11
24.66240036329155
 21
-35.79999999999998
 97
        0
 75
     0
 76
     1
 98
        1
 10
-4.350000000000058
 20
-0.0010749287239
  0
HATCH
  5
10F
330
1F
100
AcDbEntity
  8
중심선
100
AcDbHatch
 10
0.0
 20
0.0
 30
0.0
210
0.0
220
0.0
230
1.0
  2
SOLID
 70
     1
 71
     0
 91
        1
 92
        0
 93
        4
 72
     1
 10
29.67516435432748
 20
-35.79999999999998
 11
26.22888911049039
 21
-35.79999999999998
 72
     1
 10
26.22888911049039
 20
-35.79999999999998
 11
19.18045220860109
 21
-44.20000000000002
 72
     1
 10
19.18045220860109
 20
-44.20000000000002
 11
22.62672745243837
 21
-44.20000000000002
 72
     1
 10
22.62672745243837
 20
-44.20000000000002
 11
29.67516435432748
 21
-35.79999999999998
 97
        0
 75
     0
 76
     1
 98
        1
 10
-4.350000000000058
 20
-0.0010749287239
  0
HATCH
  5
110
330
1F
100
AcDbEntity
  8
중심선
100
AcDbHatch
 10
0.0
 20
0.0
 30
0.0
210
0.0
220
0.0
230
1.0
  2
SOLID
 70
     1
 71
     0
 91
        1
 92
        0
 93
        6
 72
     3
 10
34.47505478533965
 20
-40.00000000005128
 11
3.960054785062283
 21
1.540882976769353E-10
 40
0.3939339440162628
 50
17.09539180608455
 51
320.0019657685069
 73
     0
 72
     1
 10
36.15805444104021
 20
-38.58789400463828
 11
38.4633563147412
 21
-36.65356729459042
 72
     3
 10
34.4750547852868
 20
-40.00000000000016
 11
6.600054785286829
 21
-1.278976924368180E-13
 40
0.636358354079598
 50
39.99873849337445
 51
368.4976242363724
 73
     1
 72
     1
 10
40.90038727718738
 20
-39.03999999993003
 11
33.15512209212275
 21
-39.03999999993003
 72
     1
 10
33.15512209212275
 20
-39.03999999993003
 11
33.15509704767679
 21
-40.95999999992992
 72
     1
 10
33.15509704767679
 20
-40.95999999992992
 11
37.5964768171488
 21
-40.95999999992989
 97
        0
 75
     0
 76
     1
 98
        1
 10
-4.350000000000058
 20
-0.0010749287239
  0
DIMENSION
  5
122
330
1F
100
AcDbEntity
  8
치수문자_일반주서
100
AcDbDimension
  2
_D_1
 10
12.00000000000001
 20
35.06715476237598
 30
0.0
 11
64.38750000000002
 21
35.06715476237598
 31
0.0
 70
   160
  1
<>
 71
     2
 42
104.775
  3
SLDDIMSTYLE3
100
AcDbAlignedDimension
 13
116.775
 23
12.70000000000001
 33
0.0
 14
12.00000000000001
 24
12.66639357088058
 34
0.0
100
AcDbRotatedDimension
1001
PE_URL
1000

1001
ACAD
1000
DSTYLE
1002
{
1070
   171
1070
     6
1070
   273
1070
     7
1002
}
  0
DIMENSION
  5
136
330
1F
100
AcDbEntity
  8
치수문자_일반주서
100
AcDbDimension
  2
_D_2
 10
-61.02500000000003
 20
57.37180952475195
 30
0.0
 11
27.87499999999999
 21
57.37180952475195
 31
0.0
 70
   160
  1
<>
 71
     2
 42
177.8
  3
SLDDIMSTYLE3
100
AcDbAlignedDimension
 13
116.775
 23
12.70000000000001
 33
0.0
 14
-61.02500000000002
 24
10.16000000000001
 34
0.0
 50
0.0000000000000046
100
AcDbRotatedDimension
1001
PE_URL
1000

1001
ACAD
1000
DSTYLE
1002
{
1070
   171
1070
     6
1070
   273
1070
     7
1002
}
  0
DIMENSION
  5
14A
330
1F
100
AcDbEntity
  8
치수문자_일반주서
100
AcDbDimension
  2
_D_3
 10
-73.39
 20
-12.70000000000004
 30
0.0
 11
-73.39000000000004
 21
-0.000000000000013
 31
0.0
 70
   160
  1
%%c<>
 71
     2
 42
25.39999999999998
 52
-270.0
  3
SLDDIMSTYLE3
100
AcDbAlignedDimension
 13
-58.48500000000003
 23
12.69999999999999
 33
0.0
 14
-58.48500000000003
 24
-12.69999999999999
 34
0.0
 50
90.0000000000002
100
AcDbRotatedDimension
1001
ACAD
1000
DSTYLE
1002
{
1070
   171
1070
     6
1070
   273
1070
     7
1002
}
1001
ACAD_DSTYLE_DIMFLIPARROW_SYMBOL
1070
   385
1070
     0
1001
ACAD_DSTYLE_DIMFLIPARROW_WHICH_SYMBOL
1070
   386
1070
     3
  0
LINE
  5
15F
330
1F
100
AcDbEntity
  8
참조1
100
AcDbLine
 10
74.17598381534557
 20
7.439999999999996
 30
0.0
 11
74.17598381534557
 21
-7.440000000000008
 31
0.0
  0
LINE
  5
160
330
1F
100
AcDbEntity
  8
참조1
100
AcDbLine
 10
86.87598381534559
 20
5.439999999999996
 30
0.0
 11
74.17598381534557
 21
5.439999999999996
 31
0.0
  0
SOLID
  5
161
330
1F
100
AcDbEntity
  8
참조1
100
AcDbTrace
 10
74.17598381534557
 20
5.439999999999996
 30
0.0
 11
80.52598381534557
 21
4.423999999999996
 31
0.0
 12
80.52598381534557
 22
6.455999999999996
 32
0.0
 13
80.52598381534557
 23
6.455999999999996
 33
0.0
  0
LINE
  5
162
330
1F
100
AcDbEntity
  8
참조1
100
AcDbLine
 10
86.87598381534559
 20
-5.440000000000008
 30
0.0
 11
74.17598381534557
 21
-5.440000000000008
 31
0.0
  0
SOLID
  5
163
330
1F
100
AcDbEntity
  8
참조1
100
AcDbTrace
 10
74.17598381534557
 20
-5.440000000000008
 30
0.0
 11
80.52598381534557
 21
-6.456000000000008
 31
0.0
 12
80.52598381534557
 22
-4.424000000000008
 32
0.0
 13
80.52598381534557
 23
-4.424000000000008
 33
0.0
  0
MTEXT
  5
164
330
1F
100
AcDbEntity
  8
참조1
100
AcDbMText
 10
83.57347390781587
 20
10.98821664464993
 30
0.0
 40
3.5
 41
0.0
 71
     1
 72
     1
  1
A
  7
SLDTEXTSTYLE0
 73
     1
 44
1.0
  0
MTEXT
  5
165
330
1F
100
AcDbEntity
  8
참조1
100
AcDbMText
 10
83.57347390781587
 20
0.1082166446499259
 30
0.0
 40
3.5
 41
0.0
 71
     1
 72
     1
  1
A
  7
SLDTEXTSTYLE0
 73
     1
 44
1.0
  0
INSERT
  5
16C
330
1F
100
AcDbEntity
  8
해칭선
100
AcDbBlockReference
  2
SW_DOWELSYMBOL_0
 10
0.0
 20
0.0
 30
0.0
  0
DIMENSION
  5
190
330
1F
100
AcDbEntity
  8
치수문자_일반주서
100
AcDbDimension
  2
*D8
 10
139.7029890128944
 20
-12.7
 30
0.0
 11
139.7029890128944
 21
31.77275000000001
 31
0.0
 70
   160
  1
%%C25.40 [1]
 71
     5
 42
25.40000000000001
  3
SLDDIMSTYLE3
100
AcDbAlignedDimension
 13
116.775
 23
12.70000000000001
 33
0.0
 14
116.775
 24
-12.7
 34
0.0
 50
90.0
100
AcDbRotatedDimension
1001
PE_URL
1000

1001
ACAD
1000
DSTYLE
1002
{
1070
   171
1070
     6
1070
   273
1070
     7
1002
}
1001
ACAD_DSTYLE_DIMFLIPARROW_SYMBOL
1070
   385
1070
     0
1001
ACAD_DSTYLE_DIMFLIPARROW_WHICH_SYMBOL
1070
   386
1070
     3
  0
ENDSEC
  0
SECTION
  2
OBJECTS
  0
DICTIONARY
  5
C
330
0
100
AcDbDictionary
281
     1
  3
ACAD_GROUP
350
D
  3
ACAD_LAYOUT
350
1A
  3
ACAD_MLINESTYLE
350
17
  3
ACAD_PLOTSETTINGS
350
19
  3
ACAD_PLOTSTYLENAME
350
E
  3
ACAD_SCALELIST
350
47
  3
APPDATA
350
18E
  3
DWGPROPS
350
1CC
  0
DICTIONARY
  5
1CA
330
1F
100
AcDbDictionary
280
     1
281
     1
  3
DIM_BOUNDING_BOXES_V1
360
1CB
  0
DICTIONARY
  5
D
102
{ACAD_REACTORS
330
C
102
}
330
C
100
AcDbDictionary
281
     1
  0
DICTIONARY
  5
1A
102
{ACAD_REACTORS
330
C
102
}
330
C
100
AcDbDictionary
281
     1
  3
Layout1
350
1E
  3
Layout2
350
26
  3
Model
350
22
  0
DICTIONARY
  5
17
102
{ACAD_REACTORS
330
C
102
}
330
C
100
AcDbDictionary
281
     1
  3
Standard
350
18
  0
DICTIONARY
  5
19
102
{ACAD_REACTORS
330
C
102
}
330
C
100
AcDbDictionary
281
     1
  0
ACDBDICTIONARYWDFLT
  5
E
102
{ACAD_REACTORS
330
C
102
}
330
C
100
AcDbDictionary
281
     1
  3
Normal
350
F
100
AcDbDictionaryWithDefault
340
F
  0
DICTIONARY
  5
47
102
{ACAD_REACTORS
330
C
102
}
330
C
100
AcDbDictionary
281
     1
  3
A0
350
48
  3
A1
350
49
  3
A2
350
4A
  3
A3
350
4B
  3
A4
350
4C
  3
A5
350
4D
  3
A6
350
4E
  3
A7
350
4F
  3
A8
350
50
  3
A9
350
51
  3
B0
350
52
  3
B1
350
53
  3
B2
350
54
  3
B3
350
55
  3
B4
350
56
  3
B5
350
57
  3
B6
350
58
  3
B7
350
59
  3
B8
350
5A
  3
B9
350
5B
  3
C0
350
5C
  3
C1
350
5D
  3
C2
350
5E
  3
C3
350
5F
  3
C4
350
60
  3
C5
350
61
  3
C6
350
62
  3
C7
350
63
  3
C8
350
64
  3
C9
350
65
  3
D0
350
66
  3
D1
350
67
  3
D2
350
68
  0
DICTIONARY
  5
18E
102
{ACAD_REACTORS
330
C
102
}
330
C
100
AcDbDictionary
281
     1
  0
XRECORD
  5
1CC
102
{ACAD_REACTORS
330
C
102
}
330
C
100
AcDbXrecord
280
     1
  1
DWGPROPS COOKIE
  2

  3

  4

  6

  7

  8
12017165
  9

300
=
301
=
302
=
303
=
304
=
305
=
306
=
307
=
308
=
309
=
 40
0.0
 41
2458292.300168692
 42
2459697.02038728
  1

 90
        0
  0
DICTIONARY
  5
1CB
102
{ACAD_REACTORS
330
1CA
102
}
330
1CA
100
AcDbDictionary
281
     1
  0
LAYOUT
  5
1E
102
{ACAD_REACTORS
330
1A
102
}
330
1A
100
AcDbPlotSettings
  1

  2
none_device
  4

  6

 40
0.0
 41
0.0
 42
0.0
 43
0.0
 44
0.0
 45
0.0
 46
0.0
 47
0.0
 48
0.0
 49
0.0
140
0.0
141
0.0
142
1.0
143
1.0
 70
   688
 72
     1
 73
     0
 74
     5
  7

 75
    16
147
1.0
148
0.0
149
0.0
100
AcDbLayout
  1
Layout1
 70
     1
 71
     1
 10
0.0
 20
0.0
 11
420.0
 21
297.0
 12
0.0
 22
0.0
 32
0.0
 14
1.000000000000000E+20
 24
1.000000000000000E+20
 34
1.000000000000000E+20
 15
-1.000000000000000E+20
 25
-1.000000000000000E+20
 35
-1.000000000000000E+20
146
0.0
 13
0.0
 23
0.0
 33
0.0
 16
1.0
 26
0.0
 36
0.0
 17
0.0
 27
1.0
 37
0.0
 76
     0
330
1B
  0
LAYOUT
  5
26
102
{ACAD_REACTORS
330
1A
102
}
330
1A
100
AcDbPlotSettings
  1

  2
none_device
  4

  6

 40
0.0
 41
0.0
 42
0.0
 43
0.0
 44
0.0
 45
0.0
 46
0.0
 47
0.0
 48
0.0
 49
0.0
140
0.0
141
0.0
142
1.0
143
1.0
 70
   688
 72
     1
 73
     0
 74
     5
  7

 75
    16
147
1.0
148
0.0
149
0.0
100
AcDbLayout
  1
Layout2
 70
     1
 71
     2
 10
0.0
 20
0.0
 11
0.0
 21
0.0
 12
0.0
 22
0.0
 32
0.0
 14
0.0
 24
0.0
 34
0.0
 15
0.0
 25
0.0
 35
0.0
146
0.0
 13
0.0
 23
0.0
 33
0.0
 16
1.0
 26
0.0
 36
0.0
 17
0.0
 27
1.0
 37
0.0
 76
     0
330
23
  0
LAYOUT
  5
22
102
{ACAD_REACTORS
330
1A
102
}
330
1A
100
AcDbPlotSettings
  1

  2
none_device
  4
ANSI_A_(11.00_x_8.50_Inches)
  6

 40
6.35
 41
19.05
 42
6.35000508
 43
19.05000254
 44
279.4
 45
215.9
 46
103.3156943799425
 47
77.06650137572562
 48
0.0
 49
0.0
140
0.0
141
0.0
142
0.0533933766539183
143
1.0
 70
  1696
 72
     0
 73
     0
 74
     0
  7

 75
     0
147
0.0235690232323232
148
0.0
149
0.0
100
AcDbLayout
  1
Model
 70
     1
 71
     0
 10
0.0
 20
0.0
 11
420.0
 21
297.0
 12
0.0
 22
0.0
 32
0.0
 14
-77.76500000000007
 24
-49.97180738881175
 34
0.0
 15
140.2533223462277
 25
61.74680952475195
 35
0.0
146
0.0
 13
0.0
 23
0.0
 33
0.0
 16
1.0
 26
0.0
 36
0.0
 17
0.0
 27
1.0
 37
0.0
 76
     0
330
1F
331
29
  0
MLINESTYLE
  5
18
102
{ACAD_REACTORS
330
17
102
}
330
17
100
AcDbMlineStyle
  2
Standard
 70
     0
  3

 62
   256
 51
90.0
 52
90.0
 71
     2
 49
0.5
 62
   256
  6
BYLAYER
 49
-0.5
 62
   256
  6
BYLAYER
  0
ACDBPLACEHOLDER
  5
F
102
{ACAD_REACTORS
330
E
102
}
330
E
  0
SCALE
  5
48
102
{ACAD_REACTORS
330
47
102
}
330
47
100
AcDbScale
 70
     0
300
1:1
140
1.0
141
1.0
290
     1
  0
SCALE
  5
49
102
{ACAD_REACTORS
330
47
102
}
330
47
100
AcDbScale
 70
     0
300
1:2
140
1.0
141
2.0
290
     0
  0
SCALE
  5
4A
102
{ACAD_REACTORS
330
47
102
}
330
47
100
AcDbScale
 70
     0
300
1:4
140
1.0
141
4.0
290
     0
  0
SCALE
  5
4B
102
{ACAD_REACTORS
330
47
102
}
330
47
100
AcDbScale
 70
     0
300
1:5
140
1.0
141
5.0
290
     0
  0
SCALE
  5
4C
102
{ACAD_REACTORS
330
47
102
}
330
47
100
AcDbScale
 70
     0
300
1:8
140
1.0
141
8.0
290
     0
  0
SCALE
  5
4D
102
{ACAD_REACTORS
330
47
102
}
330
47
100
AcDbScale
 70
     0
300
1:10
140
1.0
141
10.0
290
     0
  0
SCALE
  5
4E
102
{ACAD_REACTORS
330
47
102
}
330
47
100
AcDbScale
 70
     0
300
1:16
140
1.0
141
16.0
290
     0
  0
SCALE
  5
4F
102
{ACAD_REACTORS
330
47
102
}
330
47
100
AcDbScale
 70
     0
300
1:20
140
1.0
141
20.0
290
     0
  0
SCALE
  5
50
102
{ACAD_REACTORS
330
47
102
}
330
47
100
AcDbScale
 70
     0
300
1:30
140
1.0
141
30.0
290
     0
  0
SCALE
  5
51
102
{ACAD_REACTORS
330
47
102
}
330
47
100
AcDbScale
 70
     0
300
1:40
140
1.0
141
40.0
290
     0
  0
SCALE
  5
52
102
{ACAD_REACTORS
330
47
102
}
330
47
100
AcDbScale
 70
     0
300
1:50
140
1.0
141
50.0
290
     0
  0
SCALE
  5
53
102
{ACAD_REACTORS
330
47
102
}
330
47
100
AcDbScale
 70
     0
300
1:100
140
1.0
141
100.0
290
     0
  0
SCALE
  5
54
102
{ACAD_REACTORS
330
47
102
}
330
47
100
AcDbScale
 70
     0
300
2:1
140
2.0
141
1.0
290
     0
  0
SCALE
  5
55
102
{ACAD_REACTORS
330
47
102
}
330
47
100
AcDbScale
 70
     0
300
4:1
140
4.0
141
1.0
290
     0
  0
SCALE
  5
56
102
{ACAD_REACTORS
330
47
102
}
330
47
100
AcDbScale
 70
     0
300
8:1
140
8.0
141
1.0
290
     0
  0
SCALE
  5
57
102
{ACAD_REACTORS
330
47
102
}
330
47
100
AcDbScale
 70
     0
300
10:1
140
10.0
141
1.0
290
     0
  0
SCALE
  5
58
102
{ACAD_REACTORS
330
47
102
}
330
47
100
AcDbScale
 70
     0
300
100:1
140
100.0
141
1.0
290
     0
  0
SCALE
  5
59
102
{ACAD_REACTORS
330
47
102
}
330
47
100
AcDbScale
 70
     0
300
1/128" = 1'-0"
140
0.0078125
141
12.0
290
     0
  0
SCALE
  5
5A
102
{ACAD_REACTORS
330
47
102
}
330
47
100
AcDbScale
 70
     0
300
1/64" = 1'-0"
140
0.015625
141
12.0
290
     0
  0
SCALE
  5
5B
102
{ACAD_REACTORS
330
47
102
}
330
47
100
AcDbScale
 70
     0
300
1/32" = 1'-0"
140
0.03125
141
12.0
290
     0
  0
SCALE
  5
5C
102
{ACAD_REACTORS
330
47
102
}
330
47
100
AcDbScale
 70
     0
300
1/16" = 1'-0"
140
0.0625
141
12.0
290
     0
  0
SCALE
  5
5D
102
{ACAD_REACTORS
330
47
102
}
330
47
100
AcDbScale
 70
     0
300
3/32" = 1'-0"
140
0.09375
141
12.0
290
     0
  0
SCALE
  5
5E
102
{ACAD_REACTORS
330
47
102
}
330
47
100
AcDbScale
 70
     0
300
1/8" = 1'-0"
140
0.125
141
12.0
290
     0
  0
SCALE
  5
5F
102
{ACAD_REACTORS
330
47
102
}
330
47
100
AcDbScale
 70
     0
300
3/16" = 1'-0"
140
0.1875
141
12.0
290
     0
  0
SCALE
  5
60
102
{ACAD_REACTORS
330
47
102
}
330
47
100
AcDbScale
 70
     0
300
1/4" = 1'-0"
140
0.25
141
12.0
290
     0
  0
SCALE
  5
61
102
{ACAD_REACTORS
330
47
102
}
330
47
100
AcDbScale
 70
     0
300
3/8" = 1'-0"
140
0.375
141
12.0
290
     0
  0
SCALE
  5
62
102
{ACAD_REACTORS
330
47
102
}
330
47
100
AcDbScale
 70
     0
300
1/2" = 1'-0"
140
0.5
141
12.0
290
     0
  0
SCALE
  5
63
102
{ACAD_REACTORS
330
47
102
}
330
47
100
AcDbScale
 70
     0
300
3/4" = 1'-0"
140
0.75
141
12.0
290
     0
  0
SCALE
  5
64
102
{ACAD_REACTORS
330
47
102
}
330
47
100
AcDbScale
 70
     0
300
1" = 1'-0"
140
1.0
141
12.0
290
     0
  0
SCALE
  5
65
102
{ACAD_REACTORS
330
47
102
}
330
47
100
AcDbScale
 70
     0
300
1-1/2" = 1'-0"
140
1.5
141
12.0
290
     0
  0
SCALE
  5
66
102
{ACAD_REACTORS
330
47
102
}
330
47
100
AcDbScale
 70
     0
300
3" = 1'-0"
140
3.0
141
12.0
290
     0
  0
SCALE
  5
67
102
{ACAD_REACTORS
330
47
102
}
330
47
100
AcDbScale
 70
     0
300
6" = 1'-0"
140
6.0
141
12.0
290
     0
  0
SCALE
  5
68
102
{ACAD_REACTORS
330
47
102
}
330
47
100
AcDbScale
 70
     0
300
1'-0" = 1'-0"
140
12.0
141
12.0
290
     0
  0
ENDSEC
  0
EOF
