  0
SECTION
  2
HEADER
  9
$ACADVER
  1
AC1015
  9
$ACADMAINTVER
 70
     6
  9
$DWGCODEPAGE
  3
ANSI_949
  9
$INSBASE
 10
0.0
 20
0.0
 30
0.0
  9
$EXTMIN
 10
-75.22500000000007
 20
-49.97180738881175
 30
0.0
  9
$EXTMAX
 10
116.305259705978
 20
58.57180952475195
 30
0.0
  9
$LIMMIN
 10
0.0
 20
0.0
  9
$LIMMAX
 10
420.0
 20
297.0
  9
$ORTHOMODE
 70
     1
  9
$REGENMODE
 70
     1
  9
$FILLMODE
 70
     1
  9
$QTEXTMODE
 70
     0
  9
$MIRRTEXT
 70
     1
  9
$LTSCALE
 40
1.0
  9
$ATTMODE
 70
     1
  9
$TEXTSIZE
 40
3.5
  9
$TRACEWID
 40
1.0
  9
$TEXTSTYLE
  7
Standard
  9
$CLAYER
  8
0
  9
$CELTYPE
  6
ByLayer
  9
$CECOLOR
 62
   256
  9
$CELTSCALE
 40
1.0
  9
$DISPSILH
 70
     0
  9
$DIMSCALE
 40
1.0
  9
$DIMASZ
 40
3.302
  9
$DIMEXO
 40
1.0
  9
$DIMDLI
 40
3.75
  9
$DIMRND
 40
0.0
  9
$DIMDLE
 40
0.0
  9
$DIMEXE
 40
1.0
  9
$DIMTP
 40
0.0
  9
$DIMTM
 40
0.0
  9
$DIMTXT
 40
3.5
  9
$DIMCEN
 40
2.5
  9
$DIMTSZ
 40
0.0
  9
$DIMTOL
 70
     0
  9
$DIMLIM
 70
     0
  9
$DIMTIH
 70
     1
  9
$DIMTOH
 70
     1
  9
$DIMSE1
 70
     0
  9
$DIMSE2
 70
     0
  9
$DIMTAD
 70
     1
  9
$DIMZIN
 70
     0
  9
$DIMBLK
  1

  9
$DIMASO
 70
     1
  9
$DIMSHO
 70
     1
  9
$DIMPOST
  1

  9
$DIMAPOST
  1

  9
$DIMALT
 70
     0
  9
$DIMALTD
 70
     3
  9
$DIMALTF
 40
0.0393700787401575
  9
$DIMLFAC
 40
1.0
  9
$DIMTOFL
 70
     1
  9
$DIMTVP
 40
0.0
  9
$DIMTIX
 70
     0
  9
$DIMSOXD
 70
     0
  9
$DIMSAH
 70
     0
  9
$DIMBLK1
  1

  9
$DIMBLK2
  1

  9
$DIMSTYLE
  2
ISO-25
  9
$DIMCLRD
 70
     0
  9
$DIMCLRE
 70
     0
  9
$DIMCLRT
 70
     0
  9
$DIMTFAC
 40
1.0
  9
$DIMGAP
 40
1.524
  9
$DIMJUST
 70
     0
  9
$DIMSD1
 70
     0
  9
$DIMSD2
 70
     0
  9
$DIMTOLJ
 70
     0
  9
$DIMTZIN
 70
     0
  9
$DIMALTZ
 70
     0
  9
$DIMALTTZ
 70
     0
  9
$DIMUPT
 70
     0
  9
$DIMDEC
 70
     2
  9
$DIMTDEC
 70
     2
  9
$DIMALTU
 70
     2
  9
$DIMALTTD
 70
     3
  9
$DIMTXSTY
  7
Standard
  9
$DIMAUNIT
 70
     0
  9
$DIMADEC
 70
     2
  9
$DIMALTRND
 40
0.0
  9
$DIMAZIN
 70
     0
  9
$DIMDSEP
 70
    44
  9
$DIMATFIT
 70
     3
  9
$DIMFRAC
 70
     0
  9
$DIMLDRBLK
  1

  9
$DIMLUNIT
 70
     2
  9
$DIMLWD
 70
    -2
  9
$DIMLWE
 70
    -2
  9
$DIMTMOVE
 70
     0
  9
$LUNITS
 70
     2
  9
$LUPREC
 70
     2
  9
$SKETCHINC
 40
1.0
  9
$FILLETRAD
 40
10.0
  9
$AUNITS
 70
     0
  9
$AUPREC
 70
     2
  9
$MENU
  1
.
  9
$ELEVATION
 40
0.0
  9
$PELEVATION
 40
0.0
  9
$THICKNESS
 40
0.0
  9
$LIMCHECK
 70
     0
  9
$CHAMFERA
 40
0.0
  9
$CHAMFERB
 40
0.0
  9
$CHAMFERC
 40
0.0
  9
$CHAMFERD
 40
0.0
  9
$SKPOLY
 70
     0
  9
$TDCREATE
 40
2458292.675357732
  9
$TDUCREATE
 40
2458292.300357732
  9
$TDUPDATE
 40
2459697.396108044
  9
$TDUUPDATE
 40
2459697.021108044
  9
$TDINDWG
 40
0.0007512616
  9
$TDUSRTIMER
 40
0.0007182986
  9
$USRTIMER
 70
     1
  9
$ANGBASE
 50
0.0
  9
$ANGDIR
 70
     0
  9
$PDMODE
 70
     0
  9
$PDSIZE
 40
-1.0
  9
$PLINEWID
 40
0.0
  9
$SPLFRAME
 70
     0
  9
$SPLINETYPE
 70
     6
  9
$SPLINESEGS
 70
     8
  9
$HANDSEED
  5
1CF
  9
$SURFTAB1
 70
     6
  9
$SURFTAB2
 70
     6
  9
$SURFTYPE
 70
     6
  9
$SURFU
 70
     6
  9
$SURFV
 70
     6
  9
$UCSBASE
  2

  9
$UCSNAME
  2

  9
$UCSORG
 10
0.0
 20
0.0
 30
0.0
  9
$UCSXDIR
 10
1.0
 20
0.0
 30
0.0
  9
$UCSYDIR
 10
0.0
 20
1.0
 30
0.0
  9
$UCSORTHOREF
  2

  9
$UCSORTHOVIEW
 70
     0
  9
$UCSORGTOP
 10
0.0
 20
0.0
 30
0.0
  9
$UCSORGBOTTOM
 10
0.0
 20
0.0
 30
0.0
  9
$UCSORGLEFT
 10
0.0
 20
0.0
 30
0.0
  9
$UCSORGRIGHT
 10
0.0
 20
0.0
 30
0.0
  9
$UCSORGFRONT
 10
0.0
 20
0.0
 30
0.0
  9
$UCSORGBACK
 10
0.0
 20
0.0
 30
0.0
  9
$PUCSBASE
  2

  9
$PUCSNAME
  2

  9
$PUCSORG
 10
0.0
 20
0.0
 30
0.0
  9
$PUCSXDIR
 10
1.0
 20
0.0
 30
0.0
  9
$PUCSYDIR
 10
0.0
 20
1.0
 30
0.0
  9
$PUCSORTHOREF
  2

  9
$PUCSORTHOVIEW
 70
     0
  9
$PUCSORGTOP
 10
0.0
 20
0.0
 30
0.0
  9
$PUCSORGBOTTOM
 10
0.0
 20
0.0
 30
0.0
  9
$PUCSORGLEFT
 10
0.0
 20
0.0
 30
0.0
  9
$PUCSORGRIGHT
 10
0.0
 20
0.0
 30
0.0
  9
$PUCSORGFRONT
 10
0.0
 20
0.0
 30
0.0
  9
$PUCSORGBACK
 10
0.0
 20
0.0
 30
0.0
  9
$USERI1
 70
     0
  9
$USERI2
 70
     0
  9
$USERI3
 70
     0
  9
$USERI4
 70
     0
  9
$USERI5
 70
     0
  9
$USERR1
 40
0.0
  9
$USERR2
 40
0.0
  9
$USERR3
 40
0.0
  9
$USERR4
 40
0.0
  9
$USERR5
 40
0.0
  9
$WORLDVIEW
 70
     1
  9
$SHADEDGE
 70
     3
  9
$SHADEDIF
 70
    70
  9
$TILEMODE
 70
     1
  9
$MAXACTVP
 70
    64
  9
$PINSBASE
 10
0.0
 20
0.0
 30
0.0
  9
$PLIMCHECK
 70
     0
  9
$PEXTMIN
 10
1.000000000000000E+20
 20
1.000000000000000E+20
 30
1.000000000000000E+20
  9
$PEXTMAX
 10
-1.000000000000000E+20
 20
-1.000000000000000E+20
 30
-1.000000000000000E+20
  9
$PLIMMIN
 10
0.0
 20
0.0
  9
$PLIMMAX
 10
0.0
 20
0.0
  9
$UNITMODE
 70
     0
  9
$VISRETAIN
 70
     1
  9
$PLINEGEN
 70
     0
  9
$PSLTSCALE
 70
     1
  9
$TREEDEPTH
 70
  3020
  9
$CMLSTYLE
  2
Standard
  9
$CMLJUST
 70
     0
  9
$CMLSCALE
 40
20.0
  9
$PROXYGRAPHICS
 70
     1
  9
$MEASUREMENT
 70
     1
  9
$CELWEIGHT
370
    -1
  9
$ENDCAPS
280
     0
  9
$JOINSTYLE
280
     0
  9
$LWDISPLAY
290
     1
  9
$INSUNITS
 70
     4
  9
$HYPERLINKBASE
  1

  9
$STYLESHEET
  1

  9
$XEDIT
290
     1
  9
$CEPSNTYPE
380
     0
  9
$PSTYLEMODE
290
     1
  9
$FINGERPRINTGUID
  2
{5D396115-327D-4B84-A729-57289AF8798F}
  9
$VERSIONGUID
  2
{FAEB1C32-E019-11D5-929B-00C0DF256EC4}
  9
$EXTNAMES
290
     1
  9
$PSVPSCALE
 40
0.0
  9
$OLESTARTUP
290
     0
  0
ENDSEC
  0
SECTION
  2
CLASSES
  0
CLASS
  1
ACDBDICTIONARYWDFLT
  2
AcDbDictionaryWithDefault
  3
ObjectDBX Classes
 90
        0
280
     0
281
     0
  0
CLASS
  1
VISUALSTYLE
  2
AcDbVisualStyle
  3
ObjectDBX Classes
 90
     4095
280
     0
281
     0
  0
CLASS
  1
MATERIAL
  2
AcDbMaterial
  3
ObjectDBX Classes
 90
     1153
280
     0
281
     0
  0
CLASS
  1
SCALE
  2
AcDbScale
  3
ObjectDBX Classes
 90
     1153
280
     0
281
     0
  0
CLASS
  1
SUN
  2
AcDbSun
  3
SCENEOE
 90
     1153
280
     0
281
     0
  0
CLASS
  1
ACDBPLACEHOLDER
  2
AcDbPlaceHolder
  3
ObjectDBX Classes
 90
        0
280
     0
281
     0
  0
CLASS
  1
LAYOUT
  2
AcDbLayout
  3
ObjectDBX Classes
 90
        0
280
     0
281
     0
  0
CLASS
  1
TABLESTYLE
  2
AcDbTableStyle
  3
ObjectDBX Classes
 90
     4095
280
     0
281
     0
  0
CLASS
  1
MLEADERSTYLE
  2
AcDbMLeaderStyle
  3
ACDB_MLEADERSTYLE_CLASS
 90
     4095
280
     0
281
     0
  0
CLASS
  1
DIMASSOC
  2
AcDbDimAssoc
  3
"AcDbDimAssoc|Product Desc:     AcDim ARX App For Dimension|Company:          Autodesk, Inc.|WEB Address:      www.autodesk.com"
 90
        0
280
     0
281
     0
  0
ENDSEC
  0
SECTION
  2
TABLES
  0
TABLE
  2
VPORT
  5
8
330
0
100
AcDbSymbolTable
 70
     1
  0
VPORT
  5
29
330
8
100
AcDbSymbolTableRecord
100
AcDbViewportTableRecord
  2
*Active
 70
     0
 10
0.0
 20
0.0
 11
1.0
 21
1.0
 12
20.54012985298897
 22
4.300001067970115
 13
0.0
 23
0.0
 14
10.0
 24
10.0
 15
10.0
 25
10.0
 16
0.0
 26
0.0
 36
1.0
 17
0.0
 27
0.0
 37
0.0
 40
110.714489251835
 41
2.008253094910592
 42
50.0
 43
0.0
 44
0.0
 50
0.0
 51
0.0
 71
    16
 72
  2000
 73
     1
 74
     3
 75
     0
 76
     0
 77
     0
 78
     0
281
     0
 65
     1
110
0.0
120
0.0
130
0.0
111
1.0
121
0.0
131
0.0
112
0.0
122
1.0
132
0.0
 79
     0
146
0.0
  0
ENDTAB
  0
TABLE
  2
LTYPE
  5
5
330
0
100
AcDbSymbolTable
 70
     6
  0
LTYPE
  5
14
330
5
100
AcDbSymbolTableRecord
100
AcDbLinetypeTableRecord
  2
ByBlock
 70
     0
  3

 72
    65
 73
     0
 40
0.0
  0
LTYPE
  5
15
330
5
100
AcDbSymbolTableRecord
100
AcDbLinetypeTableRecord
  2
ByLayer
 70
     0
  3

 72
    65
 73
     0
 40
0.0
  0
LTYPE
  5
16
330
5
100
AcDbSymbolTableRecord
100
AcDbLinetypeTableRecord
  2
Continuous
 70
     0
  3
Solid line
 72
    65
 73
     0
 40
0.0
  0
LTYPE
  5
6A
330
5
100
AcDbSymbolTableRecord
100
AcDbLinetypeTableRecord
  2
HIDDEN
 70
     0
  3
Hidden __ __ __ __ __ __ __ __ __ __ __ __ __ __
 72
    65
 73
     2
 40
1.905
 49
1.27
 74
     0
 49
-0.635
 74
     0
  0
LTYPE
  5
6B
330
5
100
AcDbSymbolTableRecord
100
AcDbLinetypeTableRecord
  2
PHANTOM
 70
     0
  3
Phantom ______  __  __  ______  __  __  ______
 72
    65
 73
     6
 40
12.7
 49
6.35
 74
     0
 49
-1.27
 74
     0
 49
1.27
 74
     0
 49
-1.27
 74
     0
 49
1.27
 74
     0
 49
-1.27
 74
     0
  0
LTYPE
  5
6C
330
5
100
AcDbSymbolTableRecord
100
AcDbLinetypeTableRecord
  2
CENTER
 70
     0
  3
Center ____ _ ____ _ ____ _ ____ _ ____ _ ____
 72
    65
 73
     4
 40
10.16
 49
6.35
 74
     0
 49
-1.27
 74
     0
 49
1.27
 74
     0
 49
-1.27
 74
     0
  0
LTYPE
  5
6D
330
5
100
AcDbSymbolTableRecord
100
AcDbLinetypeTableRecord
  2
CENTERX2
 70
     0
  3
Center (2x) ________  __  ________  __  _____
 72
    65
 73
     4
 40
20.32
 49
12.7
 74
     0
 49
-2.54
 74
     0
 49
2.54
 74
     0
 49
-2.54
 74
     0
  0
LTYPE
  5
6E
330
5
100
AcDbSymbolTableRecord
100
AcDbLinetypeTableRecord
  2
DOT2
 70
     0
  3
Dot (.5x) ........................................
 72
    65
 73
     2
 40
0.635
 49
0.0
 74
     0
 49
-0.635
 74
     0
  0
ENDTAB
  0
TABLE
  2
LAYER
  5
2
330
0
100
AcDbSymbolTable
 70
    18
  0
LAYER
  5
10
330
2
100
AcDbSymbolTableRecord
100
AcDbLayerTableRecord
  2
0
 70
     0
 62
     7
  6
Continuous
370
    -3
390
F
  0
LAYER
  5
6F
330
2
100
AcDbSymbolTableRecord
100
AcDbLayerTableRecord
  2
FORMAT
 70
     0
 62
     2
  6
Continuous
370
    -3
390
F
  0
LAYER
  5
70
330
2
100
AcDbSymbolTableRecord
100
AcDbLayerTableRecord
  2
외형선
 70
     0
 62
     4
  6
Continuous
370
    30
390
F
  0
LAYER
  5
71
330
2
100
AcDbSymbolTableRecord
100
AcDbLayerTableRecord
  2
숨은선
 70
     0
 62
     2
  6
HIDDEN
370
    15
390
F
  0
LAYER
  5
72
330
2
100
AcDbSymbolTableRecord
100
AcDbLayerTableRecord
  2
중심선
 70
     0
 62
     1
  6
CENTERX2
370
    -3
390
F
  0
LAYER
  5
73
330
2
100
AcDbSymbolTableRecord
100
AcDbLayerTableRecord
  2
파단선
 70
     0
 62
     4
  6
Continuous
370
    -3
390
F
  0
LAYER
  5
74
330
2
100
AcDbSymbolTableRecord
100
AcDbLayerTableRecord
  2
해칭선
 70
     0
 62
   100
  6
Continuous
370
    -3
390
F
  0
LAYER
  5
75
330
2
100
AcDbSymbolTableRecord
100
AcDbLayerTableRecord
  2
가는실선
 70
     0
 62
     4
  6
Continuous
370
    -3
390
F
  0
LAYER
  5
76
330
2
100
AcDbSymbolTableRecord
100
AcDbLayerTableRecord
  2
치수_보조선
 70
     0
 62
     4
  6
Continuous
370
    -3
390
F
  0
LAYER
  5
77
330
2
100
AcDbSymbolTableRecord
100
AcDbLayerTableRecord
  2
치수문자_일반주서
 70
     0
 62
     7
  6
Continuous
370
    15
390
F
  0
LAYER
  5
78
330
2
100
AcDbSymbolTableRecord
100
AcDbLayerTableRecord
  2
개별주서
 70
     0
 62
   100
  6
Continuous
370
    30
390
F
  0
LAYER
  5
79
330
2
100
AcDbSymbolTableRecord
100
AcDbLayerTableRecord
  2
중간선
 70
     0
 62
     2
  6
Continuous
370
    15
390
F
  0
LAYER
  5
7A
330
2
100
AcDbSymbolTableRecord
100
AcDbLayerTableRecord
  2
윤곽선
 70
     0
 62
     3
  6
Continuous
370
    40
390
F
  0
LAYER
  5
7B
330
2
100
AcDbSymbolTableRecord
100
AcDbLayerTableRecord
  2
중심마크
 70
     0
 62
   100
  6
Continuous
370
    30
390
F
  0
LAYER
  5
7C
330
2
100
AcDbSymbolTableRecord
100
AcDbLayerTableRecord
  2
가상선
 70
     0
 62
     4
  6
PHANTOM
370
    -3
390
F
  0
LAYER
  5
7D
330
2
100
AcDbSymbolTableRecord
100
AcDbLayerTableRecord
  2
특수지정선
 70
     0
 62
     5
  6
CENTERX2
370
    60
390
F
  0
LAYER
  5
7E
330
2
100
AcDbSymbolTableRecord
100
AcDbLayerTableRecord
  2
참조1
 70
     0
 62
    -4
  6
Continuous
370
    -3
390
F
  0
LAYER
  5
191
330
2
100
AcDbSymbolTableRecord
100
AcDbLayerTableRecord
  2
Defpoints
 70
     0
 62
     7
  6
Continuous
290
     0
370
    -3
390
F
  0
ENDTAB
  0
TABLE
  2
STYLE
  5
3
330
0
100
AcDbSymbolTable
 70
     2
  0
STYLE
  5
11
330
3
100
AcDbSymbolTableRecord
100
AcDbTextStyleTableRecord
  2
Standard
 70
     0
 40
0.0
 41
1.0
 50
0.0
 71
     0
 42
3.5
  3
txt
  4

  0
STYLE
  5
94
330
3
100
AcDbSymbolTableRecord
100
AcDbTextStyleTableRecord
  2
SLDTEXTSTYLE0
 70
     0
 40
0.0
 41
0.75
 50
0.0
 71
     0
 42
3.5
  3
TXT
  4

  0
ENDTAB
  0
TABLE
  2
VIEW
  5
6
330
0
100
AcDbSymbolTable
 70
     0
  0
ENDTAB
  0
TABLE
  2
UCS
  5
7
330
0
100
AcDbSymbolTable
 70
     0
  0
ENDTAB
  0
TABLE
  2
APPID
  5
9
330
0
100
AcDbSymbolTable
 70
     4
  0
APPID
  5
12
330
9
100
AcDbSymbolTableRecord
100
AcDbRegAppTableRecord
  2
ACAD
 70
     0
  0
APPID
  5
192
330
9
100
AcDbSymbolTableRecord
100
AcDbRegAppTableRecord
  2
PE_URL
 70
     0
  0
APPID
  5
1A9
330
9
100
AcDbSymbolTableRecord
100
AcDbRegAppTableRecord
  2
ACAD_DSTYLE_DIMFLIPARROW_SYMBOL
 70
     0
  0
APPID
  5
1AA
330
9
100
AcDbSymbolTableRecord
100
AcDbRegAppTableRecord
  2
ACAD_DSTYLE_DIMFLIPARROW_WHICH_SYMBOL
 70
     0
  0
ENDTAB
  0
TABLE
  2
DIMSTYLE
  5
A
330
0
100
AcDbSymbolTable
 70
     5
100
AcDbDimStyleTable
  0
DIMSTYLE
105
27
330
A
100
AcDbSymbolTableRecord
100
AcDbDimStyleTableRecord
  2
ISO-25
 70
     0
 41
2.5
 42
0.625
 43
3.75
 44
1.25
 73
     0
 74
     0
 77
     1
 78
     8
140
2.5
141
2.5
143
0.03937007874016
147
0.625
171
     3
172
     1
178
     0
271
     2
272
     2
274
     3
278
    44
283
     0
284
     8
340
11
  0
DIMSTYLE
105
114
330
A
100
AcDbSymbolTableRecord
100
AcDbDimStyleTableRecord
  2
SLDDIMSTYLE0
 70
     0
 41
3.302
 44
0.0
 45
0.000000001
 73
     0
 74
     0
 77
     1
 78
     8
 79
     2
140
3.5
143
0.0393700787401575
147
0.875
148
0.000000001
170
     1
172
     1
173
     1
178
     0
271
     2
272
     2
276
     2
284
    12
289
     0
340
94
341
115
343
115
344
115
  0
DIMSTYLE
105
125
330
A
100
AcDbSymbolTableRecord
100
AcDbDimStyleTableRecord
  2
SLDDIMSTYLE1
 70
     0
 41
3.302
 44
0.0
 45
0.000000001
 73
     0
 74
     0
 77
     1
 78
    12
 79
     3
140
3.5
143
0.0393700787401575
147
0.875
148
0.000000001
170
     1
173
     1
178
     0
271
     2
272
     2
276
     2
284
    12
340
94
  0
DIMSTYLE
105
139
330
A
100
AcDbSymbolTableRecord
100
AcDbDimStyleTableRecord
  2
SLDDIMSTYLE2
 70
     0
 41
3.302
 44
0.0
 45
0.000000001
 73
     0
 74
     0
 77
     1
 78
     4
 79
     1
140
3.5
143
0.0393700787401575
147
0.875
148
0.000000001
170
     1
173
     1
178
     0
271
     2
272
     2
276
     2
284
    12
340
94
  0
DIMSTYLE
105
14D
102
{ACAD_REACTORS
330
14C
330
124
330
138
330
193
102
}
330
A
100
AcDbSymbolTableRecord
100
AcDbDimStyleTableRecord
  2
SLDDIMSTYLE3
 70
     0
 41
3.302
 44
0.0
 45
0.000000001
 73
     0
 74
     0
 77
     1
 78
    12
 79
     3
140
3.5
143
0.0393700787401575
147
0.875
148
0.000000001
170
     1
172
     1
173
     1
178
     0
271
     2
272
     2
276
     2
284
    12
289
     0
340
94
  0
ENDTAB
  0
TABLE
  2
BLOCK_RECORD
  5
1
330
0
100
AcDbSymbolTable
 70
     9
  0
BLOCK_RECORD
  5
1F
102
{ACAD_XDICTIONARY
360
1CC
102
}
330
1
100
AcDbSymbolTableRecord
100
AcDbBlockTableRecord
  2
*Model_Space
340
22
  0
BLOCK_RECORD
  5
1B
330
1
100
AcDbSymbolTableRecord
100
AcDbBlockTableRecord
  2
*Paper_Space
340
1E
  0
BLOCK_RECORD
  5
23
330
1
100
AcDbSymbolTableRecord
100
AcDbBlockTableRecord
  2
*Paper_Space0
340
26
  0
BLOCK_RECORD
  5
7F
330
1
100
AcDbSymbolTableRecord
100
AcDbBlockTableRecord
  2
블럭10
340
0
102
{BLKREFS
331
10C
102
}
  0
BLOCK_RECORD
  5
115
330
1
100
AcDbSymbolTableRecord
100
AcDbBlockTableRecord
  2
_NONE
340
0
  0
BLOCK_RECORD
  5
118
330
1
100
AcDbSymbolTableRecord
100
AcDbBlockTableRecord
  2
_D
340
0
  0
BLOCK_RECORD
  5
126
330
1
100
AcDbSymbolTableRecord
100
AcDbBlockTableRecord
  2
_D_1
340
0
  0
BLOCK_RECORD
  5
13A
330
1
100
AcDbSymbolTableRecord
100
AcDbBlockTableRecord
  2
_D_2
340
0
  0
BLOCK_RECORD
  5
14E
330
1
100
AcDbSymbolTableRecord
100
AcDbBlockTableRecord
  2
_D_3
340
0
  0
BLOCK_RECORD
  5
168
330
1
100
AcDbSymbolTableRecord
100
AcDbBlockTableRecord
  2
SW_DOWELSYMBOL_0
340
0
102
{BLKREFS
331
16E
102
}
  0
BLOCK_RECORD
  5
196
330
1
100
AcDbSymbolTableRecord
100
AcDbBlockTableRecord
  2
*D8
340
0
  0
ENDTAB
  0
ENDSEC
  0
SECTION
  2
BLOCKS
  0
BLOCK
  5
20
330
1F
100
AcDbEntity
  8
0
100
AcDbBlockBegin
  2
*Model_Space
 70
     0
 10
0.0
 20
0.0
 30
0.0
  3
*Model_Space
  1

  0
ENDBLK
  5
21
330
1F
100
AcDbEntity
  8
0
100
AcDbBlockEnd
  0
BLOCK
  5
1C
330
1B
100
AcDbEntity
 67
     1
  8
0
100
AcDbBlockBegin
  2
*Paper_Space
 70
     0
 10
0.0
 20
0.0
 30
0.0
  3
*Paper_Space
  1

  0
ENDBLK
  5
1D
330
1B
100
AcDbEntity
 67
     1
  8
0
100
AcDbBlockEnd
  0
BLOCK
  5
24
330
23
100
AcDbEntity
  8
0
100
AcDbBlockBegin
  2
*Paper_Space0
 70
     0
 10
0.0
 20
0.0
 30
0.0
  3
*Paper_Space0
  1

  0
ENDBLK
  5
25
330
23
100
AcDbEntity
  8
0
100
AcDbBlockEnd
  0
BLOCK
  5
80
330
7F
100
AcDbEntity
  8
0
100
AcDbBlockBegin
  2
블럭10
 70
     2
 10
0.0
 20
0.0
 30
0.0
  3
블럭10
  1

  0
ELLIPSE
  5
82
330
7F
100
AcDbEntity
  8
중심선
100
AcDbEllipse
 10
20.54032771741204
 20
12.0471743016438
 30
0.0
 11
6.600054785286829
 21
-1.261213355974178E-13
 31
0.0
210
0.0
220
0.0
230
1.0
 40
0.636358354079598
 41
0.9219305317359503
 42
6.513795318482858
  0
ELLIPSE
  5
83
330
7F
100
AcDbEntity
  8
중심선
100
AcDbEllipse
 10
20.54032771746488
 20
12.04717430159265
 30
0.0
 11
3.960054785062283
 21
1.540847449632565E-10
 31
0.0
210
0.0
220
0.0
230
1.0
 40
0.3939339440162632
 41
1.131841032648279
 42
5.62031148352944
  0
LINE
  5
84
330
7F
100
AcDbEntity
  8
중심선
100
AcDbLine
 10
2.268634060543552
 20
16.24717430164393
 30
0.0
 11
5.714909304380834
 21
16.24717430164393
 31
0.0
  0
LINE
  5
85
330
7F
100
AcDbEntity
  8
중심선
100
AcDbLine
 10
5.245725140726316
 20
7.84717430164391
 30
0.0
 11
8.692000384563599
 21
7.84717430164391
 31
0.0
  0
LINE
  5
86
330
7F
100
AcDbEntity
  8
중심선
100
AcDbLine
 10
15.74043728645272
 20
16.24717430164393
 30
0.0
 11
8.692000384563599
 21
7.84717430164391
 31
0.0
  0
LINE
  5
87
330
7F
100
AcDbEntity
  8
중심선
100
AcDbLine
 10
0.1404042013395286
 20
13.71084872107135
 30
0.0
 11
3.58671253028996
 21
13.71088815037384
 31
0.0
  0
LINE
  5
88
330
7F
100
AcDbEntity
  8
중심선
100
AcDbLine
 10
2.750260043222114
 20
10.84717430164391
 30
0.0
 11
6.196535287059397
 21
10.84717430164391
 31
0.0
  0
LINE
  5
89
330
7F
100
AcDbEntity
  8
중심선
100
AcDbLine
 10
12.29416204261559
 20
16.24717430164393
 30
0.0
 11
5.245725140726316
 21
7.84717430164391
 31
0.0
  0
LINE
  5
8A
330
7F
100
AcDbEntity
  8
중심선
100
AcDbLine
 10
10.72767329541681
 20
16.24717430164393
 30
0.0
 11
6.196535287059397
 21
10.84717430164391
 31
0.0
  0
LINE
  5
8B
330
7F
100
AcDbEntity
  8
중심선
100
AcDbLine
 10
7.28139805157953
 20
16.24717430164393
 30
0.0
 11
2.750260043222114
 21
10.84717430164391
 31
0.0
  0
LINE
  5
8C
330
7F
100
AcDbEntity
  8
중심선
100
AcDbLine
 10
5.714909304380834
 20
16.24717430164393
 30
0.0
 11
3.58671253028996
 21
13.71088815037384
 31
0.0
  0
LINE
  5
8D
330
7F
100
AcDbEntity
  8
중심선
100
AcDbLine
 10
2.268634060543552
 20
16.24717430164393
 30
0.0
 11
0.1404042013395286
 21
13.71084872107135
 31
0.0
  0
LINE
  5
8E
330
7F
100
AcDbEntity
  8
중심선
100
AcDbLine
 10
7.28139805157953
 20
16.24717430164393
 30
0.0
 11
10.72767329541681
 21
16.24717430164393
 31
0.0
  0
LINE
  5
8F
330
7F
100
AcDbEntity
  8
중심선
100
AcDbLine
 10
12.29416204261559
 20
16.24717430164393
 30
0.0
 11
15.74043728645272
 21
16.24717430164393
 31
0.0
  0
LINE
  5
90
330
7F
100
AcDbEntity
  8
중심선
100
AcDbLine
 10
19.22036997980202
 20
11.08717430171403
 30
0.0
 11
23.66174974927406
 21
11.08717430171406
 31
0.0
  0
LINE
  5
91
330
7F
100
AcDbEntity
  8
중심선
100
AcDbLine
 10
19.22039502424796
 20
13.00717430171391
 30
0.0
 11
19.22036997980202
 21
11.08717430171403
 31
0.0
  0
LINE
  5
92
330
7F
100
AcDbEntity
  8
중심선
100
AcDbLine
 10
19.22039502424796
 20
13.00717430171391
 30
0.0
 11
26.96566020931264
 21
13.00717430171391
 31
0.0
  0
LINE
  5
93
330
7F
100
AcDbEntity
  8
중심선
100
AcDbLine
 10
22.22332737316547
 20
13.45928029700563
 30
0.0
 11
24.52862924686651
 21
15.39360700705356
 31
0.0
  0
ATTDEF
  5
95
330
7F
100
AcDbEntity
  8
FORMAT
 62
     2
100
AcDbText
 10
3.448148490846466
 20
2.075366912832191
 30
0.0
 40
4.233333333333333
  1
EM218901
 41
0.75
  7
SLDTEXTSTYLE0
 11
3.448148490846466
 21
-0.0412997538344756
 31
0.0
100
AcDbAttributeDefinition
  3

  2
AUTOATTR0
 70
     0
 74
     1
  0
ENDBLK
  5
81
330
7F
100
AcDbEntity
  8
0
100
AcDbBlockEnd
  0
BLOCK
  5
116
330
115
100
AcDbEntity
  8
0
100
AcDbBlockBegin
  2
_NONE
 70
     0
 10
0.0
 20
0.0
 30
0.0
  3
_NONE
  1

  0
ENDBLK
  5
117
330
115
100
AcDbEntity
  8
0
100
AcDbBlockEnd
  0
BLOCK
  5
119
330
118
100
AcDbEntity
  8
0
100
AcDbBlockBegin
  2
_D
 70
     0
 10
0.0
 20
0.0
 30
0.0
  3
_D
  1

  0
LINE
  5
11B
330
118
100
AcDbEntity
  8
치수문자_일반주서
100
AcDbLine
 10
74.00844825851455
 20
4.111708497655256
 30
0.0
 11
74.00844825851455
 21
3.400771012090756
 31
0.0
  0
LINE
  5
11C
330
118
100
AcDbEntity
  8
치수문자_일반주서
100
AcDbLine
 10
74.00844825851455
 20
3.400771012090756
 30
0.0
 11
79.56469824957385
 21
3.400771012090755
 31
0.0
  0
LINE
  5
11D
330
118
100
AcDbEntity
  8
치수문자_일반주서
100
AcDbLine
 10
79.56469824957385
 20
3.400771012090755
 30
0.0
 11
79.56469824957385
 21
4.111708497655256
 31
0.0
  0
LINE
  5
11E
330
118
100
AcDbEntity
  8
치수문자_일반주서
100
AcDbLine
 10
74.00844825851455
 20
14.94044135979251
 30
0.0
 11
74.00844825851455
 21
15.65137884535701
 31
0.0
  0
LINE
  5
11F
330
118
100
AcDbEntity
  8
치수문자_일반주서
100
AcDbLine
 10
74.00844825851455
 20
15.65137884535701
 30
0.0
 11
79.56469824957385
 21
15.65137884535701
 31
0.0
  0
LINE
  5
120
330
118
100
AcDbEntity
  8
치수문자_일반주서
100
AcDbLine
 10
79.56469824957385
 20
15.65137884535701
 30
0.0
 11
79.56469824957385
 21
14.94044135979251
 31
0.0
  0
MTEXT
  5
121
330
118
100
AcDbEntity
  8
치수문자_일반주서
100
AcDbMText
 10
75.05296133499495
 20
5.000380398266627
 30
0.0
 40
3.5
 41
0.0
 71
     1
 72
     1
  1
0.00
  7
SLDTEXTSTYLE0
 11
6.123233995736766E-17
 21
1.0
 31
0.0
 73
     1
 44
1.0
  0
MTEXT
  5
122
330
118
100
AcDbEntity
  8
치수문자_일반주서
100
AcDbMText
 10
80.28959288535542
 20
5.593800516360117
 30
0.0
 40
3.5
 41
0.0
 71
     1
 72
     1
  1
%%c
  7
SLDTEXTSTYLE0
 11
6.123233995736766E-17
 21
1.0
 31
0.0
 73
     1
 44
1.0
  0
MTEXT
  5
123
330
118
100
AcDbEntity
  8
치수문자_일반주서
100
AcDbMText
 10
80.28959288535542
 20
10.8722379147342
 30
0.0
 40
3.5
 41
0.0
 71
     1
 72
     1
  1
0
  7
SLDTEXTSTYLE0
 11
6.123233995736766E-17
 21
1.0
 31
0.0
 73
     1
 44
1.0
  0
ENDBLK
  5
11A
330
118
100
AcDbEntity
  8
0
100
AcDbBlockEnd
  0
BLOCK
  5
127
330
126
100
AcDbEntity
  8
0
100
AcDbBlockBegin
  2
_D_1
 70
     0
 10
0.0
 20
0.0
 30
0.0
  3
_D_1
  1

  0
LINE
  5
129
330
126
100
AcDbEntity
  8
치수문자_일반주서
 62
     0
370
    -2
100
AcDbLine
 10
94.55000000000001
 20
9.587500000000011
 30
0.0
 11
94.55000000000001
 21
32.86090476237598
 31
0.0
  0
LINE
  5
12A
330
126
100
AcDbEntity
  8
치수문자_일반주서
 62
     0
370
    -2
100
AcDbLine
 10
12.00000000000001
 20
9.587500000000004
 30
0.0
 11
12.00000000000001
 21
32.86090476237598
 31
0.0
  0
LINE
  5
12B
330
126
100
AcDbEntity
  8
치수문자_일반주서
 62
     0
370
    -2
100
AcDbLine
 10
91.24800000000002
 20
32.86090476237598
 30
0.0
 11
15.30200000000001
 21
32.86090476237598
 31
0.0
  0
SOLID
  5
12C
330
126
100
AcDbEntity
  8
치수문자_일반주서
 62
     0
100
AcDbTrace
 10
91.24800000000002
 20
32.31057142904265
 30
0.0
 11
91.24800000000002
 21
33.41123809570932
 31
0.0
 12
94.55000000000001
 22
32.86090476237598
 32
0.0
 13
94.55000000000001
 23
32.86090476237598
 33
0.0
  0
SOLID
  5
12D
330
126
100
AcDbEntity
  8
치수문자_일반주서
 62
     0
100
AcDbTrace
 10
15.30200000000001
 20
33.41123809570932
 30
0.0
 11
15.30200000000001
 21
32.31057142904265
 31
0.0
 12
12.00000000000001
 22
32.86090476237598
 32
0.0
 13
12.00000000000001
 23
32.86090476237598
 33
0.0
  0
MTEXT
  5
12E
330
126
100
AcDbEntity
  8
치수문자_일반주서
 62
     0
100
AcDbMText
 10
53.275
 20
37.23590476237598
 30
0.0
 40
3.5
 41
0.0
 71
     2
 72
     1
  1
\A1;82.55 [3 1/4]
  7
SLDTEXTSTYLE0
 73
     1
 44
1.0
  0
POINT
  5
12F
330
126
100
AcDbEntity
  8
Defpoints
 62
     0
100
AcDbPoint
 10
94.55000000000001
 20
9.525000000000011
 30
0.0
  0
POINT
  5
130
330
126
100
AcDbEntity
  8
Defpoints
 62
     0
100
AcDbPoint
 10
12.00000000000001
 20
9.525000000000004
 30
0.0
  0
POINT
  5
131
330
126
100
AcDbEntity
  8
Defpoints
 62
     0
100
AcDbPoint
 10
12.00000000000001
 20
32.86090476237598
 30
0.0
  0
ENDBLK
  5
128
330
126
100
AcDbEntity
  8
0
100
AcDbBlockEnd
  0
BLOCK
  5
13B
330
13A
100
AcDbEntity
  8
0
100
AcDbBlockBegin
  2
_D_2
 70
     0
 10
0.0
 20
0.0
 30
0.0
  3
_D_2
  1

  0
LINE
  5
13D
330
13A
100
AcDbEntity
  8
치수문자_일반주서
 62
     0
370
    -2
100
AcDbLine
 10
94.55000000000001
 20
9.587500000000011
 30
0.0
 11
94.55000000000001
 21
54.19680952475196
 31
0.0
  0
LINE
  5
13E
330
13A
100
AcDbEntity
  8
치수문자_일반주서
 62
     0
370
    -2
100
AcDbLine
 10
-57.85
 20
7.68250000000001
 30
0.0
 11
-57.85
 21
54.19680952475196
 31
0.0
  0
LINE
  5
13F
330
13A
100
AcDbEntity
  8
치수문자_일반주서
 62
     0
370
    -2
100
AcDbLine
 10
91.24800000000002
 20
54.19680952475196
 30
0.0
 11
-54.548
 21
54.19680952475196
 31
0.0
  0
SOLID
  5
140
330
13A
100
AcDbEntity
  8
치수문자_일반주서
 62
     0
100
AcDbTrace
 10
91.24800000000002
 20
53.64647619141862
 30
0.0
 11
91.24800000000002
 21
54.74714285808529
 31
0.0
 12
94.55000000000001
 22
54.19680952475196
 32
0.0
 13
94.55000000000001
 23
54.19680952475196
 33
0.0
  0
SOLID
  5
141
330
13A
100
AcDbEntity
  8
치수문자_일반주서
 62
     0
100
AcDbTrace
 10
-54.548
 20
54.74714285808529
 30
0.0
 11
-54.548
 21
53.64647619141862
 31
0.0
 12
-57.85
 22
54.19680952475196
 32
0.0
 13
-57.85
 23
54.19680952475196
 33
0.0
  0
MTEXT
  5
142
330
13A
100
AcDbEntity
  8
치수문자_일반주서
 62
     0
100
AcDbMText
 10
18.35
 20
58.57180952475196
 30
0.0
 40
3.5
 41
0.0
 71
     2
 72
     1
  1
\A1;152.4 [6]
  7
SLDTEXTSTYLE0
 73
     1
 44
1.0
  0
POINT
  5
143
330
13A
100
AcDbEntity
  8
Defpoints
 62
     0
100
AcDbPoint
 10
94.55000000000001
 20
9.525000000000011
 30
0.0
  0
POINT
  5
144
330
13A
100
AcDbEntity
  8
Defpoints
 62
     0
100
AcDbPoint
 10
-57.85
 20
7.62000000000001
 30
0.0
  0
POINT
  5
145
330
13A
100
AcDbEntity
  8
Defpoints
 62
     0
100
AcDbPoint
 10
-57.85
 20
54.19680952475196
 30
0.0
  0
ENDBLK
  5
13C
330
13A
100
AcDbEntity
  8
0
100
AcDbBlockEnd
  0
BLOCK
  5
14F
330
14E
100
AcDbEntity
  8
0
100
AcDbBlockBegin
  2
_D_3
 70
     0
 10
0.0
 20
0.0
 30
0.0
  3
_D_3
  1

  0
LINE
  5
151
330
14E
100
AcDbEntity
  8
치수문자_일반주서
 62
     0
370
    -2
100
AcDbLine
 10
-56.00750000000001
 20
9.52500000000001
 30
0.0
 11
-70.85000000000005
 21
9.524999999999954
 31
0.0
  0
LINE
  5
152
330
14E
100
AcDbEntity
  8
치수문자_일반주서
 62
     0
370
    -2
100
AcDbLine
 10
-56.00750000000001
 20
-9.525000000000002
 30
0.0
 11
-70.84999999999998
 21
-9.525000000000057
 31
0.0
  0
LINE
  5
153
330
14E
100
AcDbEntity
  8
치수문자_일반주서
 62
     0
370
    -2
100
AcDbLine
 10
-70.85000000000005
 20
9.524999999999954
 30
0.0
 11
-70.84999999999998
 21
-9.525000000000057
 31
0.0
  0
LINE
  5
154
330
14E
100
AcDbEntity
  8
치수문자_일반주서
 62
     0
370
    -2
100
AcDbLine
 10
-70.85000000000007
 20
12.82699999999995
 30
0.0
 11
-70.85000000000008
 21
16.12899999999996
 31
0.0
  0
LINE
  5
155
330
14E
100
AcDbEntity
  8
치수문자_일반주서
 62
     0
370
    -2
100
AcDbLine
 10
-70.84999999999997
 20
-12.82700000000006
 30
0.0
 11
-70.84999999999995
 21
-16.12900000000005
 31
0.0
  0
SOLID
  5
156
330
14E
100
AcDbEntity
  8
치수문자_일반주서
 62
     0
100
AcDbTrace
 10
-71.40033333333339
 20
12.82699999999995
 30
0.0
 11
-70.29966666666674
 21
12.82699999999996
 31
0.0
 12
-70.85000000000005
 22
9.524999999999954
 32
0.0
 13
-70.85000000000005
 23
9.524999999999954
 33
0.0
  0
SOLID
  5
157
330
14E
100
AcDbEntity
  8
치수문자_일반주서
 62
     0
100
AcDbTrace
 10
-70.29966666666664
 20
-12.82700000000006
 30
0.0
 11
-71.4003333333333
 21
-12.82700000000006
 31
0.0
 12
-70.84999999999998
 22
-9.525000000000057
 32
0.0
 13
-70.84999999999998
 23
-9.525000000000057
 33
0.0
  0
MTEXT
  5
158
330
14E
100
AcDbEntity
  8
치수문자_일반주서
 62
     0
100
AcDbMText
 10
-75.22500000000002
 20
-0.0000000000000054
 30
0.0
 40
3.5
 41
0.0
 71
     2
 72
     1
  1
\A1;%%c19.05 [3/4]
  7
SLDTEXTSTYLE0
 11
-3.729883127349605E-15
 21
1.0
 31
0.0
 73
     1
 44
1.0
  0
POINT
  5
159
330
14E
100
AcDbEntity
  8
Defpoints
 62
     0
100
AcDbPoint
 10
-55.94500000000001
 20
9.52500000000001
 30
0.0
  0
POINT
  5
1A6
330
14E
100
AcDbEntity
  8
Defpoints
 62
     0
100
AcDbPoint
 10
-55.94500000000001
 20
-9.525000000000002
 30
0.0
  0
POINT
  5
1A7
330
14E
100
AcDbEntity
  8
Defpoints
 62
     0
100
AcDbPoint
 10
-70.84999999999998
 20
-9.525000000000057
 30
0.0
  0
ENDBLK
  5
150
330
14E
100
AcDbEntity
  8
0
100
AcDbBlockEnd
  0
BLOCK
  5
169
330
168
100
AcDbEntity
  8
0
100
AcDbBlockBegin
  2
SW_DOWELSYMBOL_0
 70
     0
 10
0.0
 20
0.0
 30
0.0
  3
SW_DOWELSYMBOL_0
  1

  0
CIRCLE
  5
16B
330
168
100
AcDbEntity
  8
해칭선
 62
     0
100
AcDbCircle
 10
0.0
 20
0.0
 30
0.0
 40
3.000000000000001
  0
HATCH
  5
16C
330
168
100
AcDbEntity
  8
0
  6
Continuous
 62
     0
370
     0
100
AcDbHatch
 10
0.0
 20
0.0
 30
0.0
210
0.0
220
0.0
230
1.0
  2
SOLID
 70
     1
 71
     0
 91
        1
 92
        0
 93
        3
 72
     2
 10
0.0
 20
0.0
 40
3.000000000000001
 50
0.0
 51
90.0
 73
     1
 72
     1
 10
0.0
 20
3.000000000000001
 11
0.0
 21
0.0
 72
     1
 10
0.0
 20
0.0
 11
3.000000000000001
 21
0.0
 97
        0
 75
     0
 76
     1
 98
        1
 10
0.0
 20
0.0
  0
HATCH
  5
16D
330
168
100
AcDbEntity
  8
0
  6
Continuous
 62
     0
370
     0
100
AcDbHatch
 10
0.0
 20
0.0
 30
0.0
210
0.0
220
0.0
230
1.0
  2
SOLID
 70
     1
 71
     0
 91
        1
 92
        0
 93
        3
 72
     2
 10
0.0
 20
0.0
 40
3.000000000000001
 50
180.0
 51
270.0000000000007
 73
     1
 72
     1
 10
0.0
 20
-3.000000000000001
 11
0.0
 21
0.0
 72
     1
 10
0.0
 20
0.0
 11
-3.000000000000001
 21
0.0
 97
        0
 75
     0
 76
     1
 98
        1
 10
0.0
 20
0.0
  0
ENDBLK
  5
16A
330
168
100
AcDbEntity
  8
0
100
AcDbBlockEnd
  0
BLOCK
  5
197
330
196
100
AcDbEntity
  8
0
100
AcDbBlockBegin
  2
*D8
 70
     1
 10
0.0
 20
0.0
 30
0.0
  3
*D8
  1

  0
LINE
  5
199
330
196
100
AcDbEntity
  8
치수문자_일반주서
 62
     0
370
    -2
100
AcDbLine
 10
94.61250000000001
 20
9.525000000000006
 30
0.0
 11
115.7549263726447
 21
9.525000000000006
 31
0.0
  0
LINE
  5
19A
330
196
100
AcDbEntity
  8
치수문자_일반주서
 62
     0
370
    -2
100
AcDbLine
 10
94.61250000000001
 20
-9.524999999999999
 30
0.0
 11
115.7549263726447
 21
-9.524999999999999
 31
0.0
  0
LINE
  5
19B
330
196
100
AcDbEntity
  8
치수문자_일반주서
 62
     0
370
    -2
100
AcDbLine
 10
115.7549263726447
 20
9.525000000000006
 30
0.0
 11
115.7549263726447
 21
43.6915
 31
0.0
  0
LINE
  5
19C
330
196
100
AcDbEntity
  8
치수문자_일반주서
 62
     0
370
    -2
100
AcDbLine
 10
115.7549263726447
 20
9.525000000000006
 30
0.0
 11
115.7549263726447
 21
-9.524999999999999
 31
0.0
  0
LINE
  5
19D
330
196
100
AcDbEntity
  8
치수문자_일반주서
 62
     0
370
    -2
100
AcDbLine
 10
115.7549263726447
 20
12.82700000000001
 30
0.0
 11
115.7549263726447
 21
16.129
 31
0.0
  0
LINE
  5
19E
330
196
100
AcDbEntity
  8
치수문자_일반주서
 62
     0
370
    -2
100
AcDbLine
 10
115.7549263726447
 20
-12.827
 30
0.0
 11
115.7549263726447
 21
-16.129
 31
0.0
  0
SOLID
  5
19F
330
196
100
AcDbEntity
  8
치수문자_일반주서
 62
     0
100
AcDbTrace
 10
115.2045930393114
 20
12.82700000000001
 30
0.0
 11
116.305259705978
 21
12.82700000000001
 31
0.0
 12
115.7549263726447
 22
9.525000000000006
 32
0.0
 13
115.7549263726447
 23
9.525000000000006
 33
0.0
  0
SOLID
  5
1A0
330
196
100
AcDbEntity
  8
치수문자_일반주서
 62
     0
100
AcDbTrace
 10
116.305259705978
 20
-12.827
 30
0.0
 11
115.2045930393114
 21
-12.827
 31
0.0
 12
115.7549263726447
 22
-9.524999999999999
 32
0.0
 13
115.7549263726447
 23
-9.524999999999999
 33
0.0
  0
MTEXT
  5
1A1
330
196
100
AcDbEntity
  8
치수문자_일반주서
 62
     0
100
AcDbMText
 10
113.1299263726447
 20
29.91025
 30
0.0
 40
3.5
 41
0.0
 71
     5
 72
     1
  1
\A1;%%C19.05 [3/4]
  7
SLDTEXTSTYLE0
 11
0.0
 21
1.0
 31
0.0
 73
     1
 44
1.0
  0
POINT
  5
1A2
330
196
100
AcDbEntity
  8
Defpoints
 62
     0
100
AcDbPoint
 10
94.55000000000001
 20
9.525000000000006
 30
0.0
  0
POINT
  5
1A3
330
196
100
AcDbEntity
  8
Defpoints
 62
     0
100
AcDbPoint
 10
94.55000000000001
 20
-9.524999999999999
 30
0.0
  0
POINT
  5
1A4
330
196
100
AcDbEntity
  8
Defpoints
 62
     0
100
AcDbPoint
 10
115.7549263726447
 20
-9.525
 30
0.0
  0
ENDBLK
  5
198
330
196
100
AcDbEntity
  8
0
100
AcDbBlockEnd
  0
ENDSEC
  0
SECTION
  2
ENTITIES
  0
LINE
  5
96
330
1F
100
AcDbEntity
  8
외형선
  6
Continuous
 62
     1
370
    15
100
AcDbLine
 10
45.73557777519779
 20
0.8481602882161298
 30
0.0
 11
45.63049963650322
 21
0.9526145501394206
 31
0.0
  0
LINE
  5
97
330
1F
100
AcDbEntity
  8
외형선
  6
Continuous
 62
     1
370
    15
100
AcDbLine
 10
43.62276289755289
 20
-0.854156002740799
 30
0.0
 11
43.7222079119319
 21
-0.9524491523052949
 31
0.0
  0
LINE
  5
98
330
1F
100
AcDbEntity
  8
외형선
  6
Continuous
 62
     1
370
    15
100
AcDbLine
 10
15.7491383130654
 20
0.9108655509090924
 30
0.0
 11
15.70671951713894
 21
0.9527242758894258
 31
0.0
  0
LINE
  5
99
330
1F
100
AcDbEntity
  8
외형선
  6
Continuous
 62
     1
370
    15
100
AcDbLine
 10
60.68207457324934
 20
0.863384199077614
 30
0.0
 11
60.59187812186753
 21
0.9530695506853271
 31
0.0
  0
LINE
  5
9A
330
1F
100
AcDbEntity
  8
외형선
  6
Continuous
 62
     1
370
    15
100
AcDbLine
 10
58.54987322329357
 20
-0.8203550128832442
 30
0.0
 11
58.68380360830682
 21
-0.9522110652878508
 31
0.0
  0
LINE
  5
9B
330
1F
100
AcDbEntity
  8
외형선
  6
Continuous
 62
     1
370
    15
100
AcDbLine
 10
28.55545079021951
 20
-0.7484650138642687
 30
0.0
 11
28.76040670922619
 21
-0.9524827885655526
 31
0.0
  0
LINE
  5
9C
330
1F
100
AcDbEntity
  8
외형선
  6
Continuous
 62
     1
370
    15
100
AcDbLine
 10
30.77803899879852
 20
0.8448783311728514
 30
0.0
 11
30.66880470358037
 21
0.9524749387652747
 31
0.0
  0
LINE
  5
9D
330
1F
100
AcDbEntity
  8
외형선
  6
Continuous
 62
     1
370
    15
100
AcDbLine
 10
90.60656481621336
 20
0.8640614392257949
 30
0.0
 11
90.51589201347835
 21
0.9527268345715425
 31
0.0
  0
LINE
  5
9E
330
1F
100
AcDbEntity
  8
외형선
  6
Continuous
 62
     1
370
    15
100
AcDbLine
 10
88.50449900822497
 20
-0.8502598465252243
 30
0.0
 11
88.60748152558536
 21
-0.952218916600008
 31
0.0
  0
LINE
  5
9F
330
1F
100
AcDbEntity
  8
외형선
  6
Continuous
 62
     1
370
    15
100
AcDbLine
 10
21.20271242890398
 20
-0.8752947159748203
 30
0.0
 11
21.28172102735524
 21
-0.9530511383154696
 31
0.0
  0
LINE
  5
A0
330
1F
100
AcDbEntity
  8
외형선
  6
Continuous
 62
     1
370
    15
100
AcDbLine
 10
83.25149549647428
 20
0.7339137129392088
 30
0.0
 11
83.03668385587821
 21
0.9521987825887993
 31
0.0
  0
LINE
  5
A1
330
1F
100
AcDbEntity
  8
외형선
  6
Continuous
 62
     1
370
    15
100
AcDbLine
 10
81.02640251325522
 20
-0.8519642025856697
 30
0.0
 11
81.12877136106837
 21
-0.9527631266228557
 31
0.0
  0
LINE
  5
A2
330
1F
100
AcDbEntity
  8
외형선
  6
Continuous
 62
     1
370
    15
100
AcDbLine
 10
68.29447046415613
 20
0.7354350178740189
 30
0.0
 11
68.07447926087502
 21
0.9525658599338857
 31
0.0
  0
LINE
  5
A3
330
1F
100
AcDbEntity
  8
외형선
  6
Continuous
 62
     1
370
    15
100
AcDbLine
 10
66.04856716081606
 20
-0.8359365782079778
 30
0.0
 11
66.16665941223795
 21
-0.9524878203377881
 31
0.0
  0
LINE
  5
A4
330
1F
100
AcDbEntity
  8
외형선
  6
Continuous
 62
     1
370
    15
100
AcDbLine
 10
36.11017290636283
 20
-0.8216960942132611
 30
0.0
 11
36.24328835788758
 21
-0.9527850319084253
 31
0.0
  0
LINE
  5
A5
330
1F
100
AcDbEntity
  8
외형선
  6
Continuous
 62
     1
370
    15
100
AcDbLine
 10
38.25546233740461
 20
0.849462989000609
 30
0.0
 11
38.15096824208425
 21
0.952407931208795
 31
0.0
  0
LINE
  5
A6
330
1F
100
AcDbEntity
  8
외형선
  6
Continuous
 62
     1
370
    15
100
AcDbLine
 10
53.20942400250782
 20
0.8571269678592036
 30
0.0
 11
53.11255761406414
 21
0.9526519065801201
 31
0.0
  0
LINE
  5
A7
330
1F
100
AcDbEntity
  8
외형선
  6
Continuous
 62
     1
370
    15
100
AcDbLine
 10
51.0986788944945
 20
-0.8480781567711214
 30
0.0
 11
51.20480025804219
 21
-0.9524638209214695
 31
0.0
  0
LINE
  5
A8
330
1F
100
AcDbEntity
  8
외형선
  6
Continuous
 62
     1
370
    15
100
AcDbLine
 10
39.10456286931649
 20
-9.524999999999999
 30
0.0
 11
42.76867682926856
 21
-9.524999999999999
 31
0.0
  0
LINE
  5
A9
330
1F
100
AcDbEntity
  8
외형선
  6
Continuous
370
    15
100
AcDbLine
 10
12.84454303474505
 20
9.525000000000006
 30
0.0
 11
12.00000000000001
 21
9.525000000000006
 31
0.0
  0
LINE
  5
AA
330
1F
100
AcDbEntity
  8
외형선
  6
Continuous
 62
     1
370
    15
100
AcDbLine
 10
72.69196928239278
 20
9.525000000000006
 30
0.0
 11
69.02852273389577
 21
9.525000000000006
 31
0.0
  0
LINE
  5
AB
330
1F
100
AcDbEntity
  8
외형선
  6
Continuous
 62
     1
370
    15
100
AcDbLine
 10
54.06611568715229
 20
-9.524999999999999
 30
0.0
 11
57.73176447065909
 21
-9.524999999999999
 31
0.0
  0
LINE
  5
AC
330
1F
100
AcDbEntity
  8
외형선
  6
Continuous
 62
     1
370
    15
100
AcDbLine
 10
27.80697349202829
 20
9.525000000000006
 30
0.0
 11
24.14280703018417
 21
9.525000000000006
 31
0.0
  0
LINE
  5
AD
330
1F
100
AcDbEntity
  8
외형선
  6
Continuous
 62
     1
370
    15
100
AcDbLine
 10
87.65517837760046
 20
9.525000000000006
 30
0.0
 11
83.9895519704832
 21
9.525000000000006
 31
0.0
  0
LINE
  5
AE
330
1F
100
AcDbEntity
  8
외형선
  6
Continuous
 62
     1
370
    15
100
AcDbLine
 10
46.58474816695908
 20
-9.524999999999999
 30
0.0
 11
50.25076203293445
 21
-9.524999999999999
 31
0.0
  0
LINE
  5
AF
330
1F
100
AcDbEntity
  8
외형선
  6
Continuous
 62
     1
370
    15
100
AcDbLine
 10
20.32670123928994
 20
9.525000000000006
 30
0.0
 11
16.66110418848464
 21
9.525000000000006
 31
0.0
  0
LINE
  5
B0
330
1F
100
AcDbEntity
  8
외형선
  6
Continuous
 62
     1
370
    15
100
AcDbLine
 10
80.17418851825398
 20
9.525000000000006
 30
0.0
 11
76.50976026463397
 21
9.525000000000006
 31
0.0
  0
LINE
  5
B1
330
1F
100
AcDbEntity
  8
외형선
  6
Continuous
 62
     1
370
    15
100
AcDbLine
 10
69.02852273389574
 20
-9.524999999999999
 30
0.0
 11
72.6919692823927
 21
-9.524999999999999
 31
0.0
  0
LINE
  5
B2
330
1F
100
AcDbEntity
  8
외형선
  6
Continuous
370
    15
100
AcDbLine
 10
12.00000000000001
 20
-9.524999999999999
 30
0.0
 11
12.84454303474498
 21
-9.524999999999999
 31
0.0
  0
LINE
  5
B3
330
1F
100
AcDbEntity
  8
외형선
  6
Continuous
 62
     1
370
    15
100
AcDbLine
 10
42.76867682926851
 20
9.525000000000006
 30
0.0
 11
39.10456286931645
 21
9.525000000000006
 31
0.0
  0
LINE
  5
B4
330
1F
100
AcDbEntity
  8
외형선
  6
Continuous
 62
     1
370
    15
100
AcDbLine
 10
91.46983529001153
 20
-9.524999999999999
 30
0.0
 11
94.55000000000001
 21
-9.524999999999999
 31
0.0
  0
LINE
  5
B5
330
1F
100
AcDbEntity
  8
외형선
  6
Continuous
 62
     1
370
    15
100
AcDbLine
 10
31.6247234564805
 20
-9.524999999999999
 30
0.0
 11
35.28760815701459
 21
-9.524999999999999
 31
0.0
  0
LINE
  5
B6
330
1F
100
AcDbEntity
  8
외형선
  6
Continuous
 62
     1
370
    15
100
AcDbLine
 10
65.21069310316454
 20
9.525000000000006
 30
0.0
 11
61.5471611803897
 21
9.525000000000006
 31
0.0
  0
LINE
  5
B7
330
1F
100
AcDbEntity
  8
외형선
  6
Continuous
 62
     1
370
    15
100
AcDbLine
 10
83.98955197048315
 20
-9.524999999999999
 30
0.0
 11
87.65517837760046
 21
-9.524999999999999
 31
0.0
  0
LINE
  5
B8
330
1F
100
AcDbEntity
  8
외형선
  6
Continuous
 62
     1
370
    15
100
AcDbLine
 10
24.14280703018409
 20
-9.524999999999999
 30
0.0
 11
27.80697349202828
 21
-9.524999999999999
 31
0.0
  0
LINE
  5
B9
330
1F
100
AcDbEntity
  8
외형선
  6
Continuous
 62
     1
370
    15
100
AcDbLine
 10
57.73176447065907
 20
9.525000000000006
 30
0.0
 11
54.06611568715223
 21
9.525000000000006
 31
0.0
  0
LINE
  5
BA
330
1F
100
AcDbEntity
  8
외형선
  6
Continuous
 62
     1
370
    15
100
AcDbLine
 10
76.50976026463393
 20
-9.524999999999999
 30
0.0
 11
80.17418851825393
 21
-9.524999999999999
 31
0.0
  0
LINE
  5
BB
330
1F
100
AcDbEntity
  8
외형선
  6
Continuous
 62
     1
370
    15
100
AcDbLine
 10
16.66110418848455
 20
-9.524999999999999
 30
0.0
 11
20.32670123928986
 21
-9.524999999999999
 31
0.0
  0
LINE
  5
BC
330
1F
100
AcDbEntity
  8
외형선
  6
Continuous
 62
     1
370
    15
100
AcDbLine
 10
50.25076203293435
 20
9.525000000000006
 30
0.0
 11
46.58474816695898
 21
9.525000000000006
 31
0.0
  0
LINE
  5
BD
330
1F
100
AcDbEntity
  8
외형선
  6
Continuous
 62
     1
370
    15
100
AcDbLine
 10
61.5471611803897
 20
-9.524999999999999
 30
0.0
 11
65.21069310316449
 21
-9.524999999999999
 31
0.0
  0
LINE
  5
BE
330
1F
100
AcDbEntity
  8
외형선
  6
Continuous
 62
     1
370
    15
100
AcDbLine
 10
35.28760815701452
 20
9.525000000000006
 30
0.0
 11
31.6247234564805
 21
9.525000000000006
 31
0.0
  0
LINE
  5
BF
330
1F
100
AcDbEntity
  8
외형선
  6
Continuous
 62
     1
370
    15
100
AcDbLine
 10
94.55000000000001
 20
9.525000000000006
 30
0.0
 11
91.46983529001153
 21
9.525000000000006
 31
0.0
  0
LINE
  5
C0
330
1F
100
AcDbEntity
  8
외형선
  6
Continuous
370
    15
100
AcDbLine
 10
-55.94500000000001
 20
-9.524999999999995
 30
0.0
 11
12.00000000000001
 21
-9.524999999999995
 31
0.0
  0
LINE
  5
C1
330
1F
100
AcDbEntity
  8
외형선
  6
Continuous
370
    15
100
AcDbLine
 10
12.00000000000001
 20
9.525000000000002
 30
0.0
 11
-55.94500000000001
 21
9.525000000000002
 31
0.0
  0
LINE
  5
C2
330
1F
100
AcDbEntity
  8
외형선
  6
Continuous
370
    15
100
AcDbLine
 10
-55.94500000000001
 20
9.525000000000004
 30
0.0
 11
-57.85
 21
7.62000000000001
 31
0.0
  0
LINE
  5
C3
330
1F
100
AcDbEntity
  8
외형선
  6
Continuous
370
    15
100
AcDbLine
 10
-57.85
 20
-7.620000000000004
 30
0.0
 11
-55.94500000000001
 21
-9.524999999999997
 31
0.0
  0
LINE
  5
C4
330
1F
100
AcDbEntity
  8
외형선
  6
Continuous
 62
     1
370
    15
100
AcDbLine
 10
94.55000000000001
 20
7.115613698969442
 30
0.0
 11
94.55000000000001
 21
9.031639665469896
 31
0.0
  0
SPLINE
  5
C5
330
1F
100
AcDbEntity
  8
외형선
  6
Continuous
 62
     1
370
    15
100
AcDbSpline
210
0.0
220
0.0
230
1.0
 70
     8
 71
     3
 72
    26
 73
    22
 74
     0
 42
0.000000001
 43
0.00000001
 40
0.0
 40
0.0
 40
0.0
 40
0.0
 40
0.018789164706517
 40
0.0735082247843923
 40
0.1281893107117127
 40
0.1828490527313683
 40
0.2375091389674247
 40
0.2921912549571897
 40
0.3469108963780013
 40
0.4016060364263437
 40
0.456271472214866
 40
0.51092884909394
 40
0.5655998729644819
 40
0.6203061472270545
 40
0.675018309474461
 40
0.7296926834662671
 40
0.784350604504039
 40
0.8390137743982228
 40
0.8937038555177376
 40
0.9484248823633201
 40
1.0
 40
1.0
 40
1.0
 40
1.0
 10
27.80697349202828
 20
9.48915622418213
 30
0.0
 10
28.00635467208644
 20
9.49891825796814
 30
0.0
 10
28.78638703810271
 20
9.537109938391602
 30
0.0
 10
30.14731559126156
 20
9.27726276823457
 30
0.0
 10
31.88790643093622
 20
8.716478467774818
 30
0.0
 10
33.62765269717777
 20
7.843839502727035
 30
0.0
 10
35.36740342377612
 20
6.715843488537052
 30
0.0
 10
37.108067387603
 20
5.362342247774079
 30
0.0
 10
38.85010604613956
 20
3.831195056004309
 30
0.0
 10
40.59125929403903
 20
2.171884517580531
 30
0.0
 10
42.33124618814901
 20
0.440411217771531
 30
0.0
 10
44.07086974930717
 20
-1.305584975837785
 30
0.0
 10
45.81109083699251
 20
-3.008365396651119
 30
0.0
 10
47.55264973048047
 20
-4.610795905828866
 30
0.0
 10
49.29442016101529
 20
-6.059538705513543
 30
0.0
 10
51.03477848763127
 20
-7.3068939335931
 30
0.0
 10
52.7744299644765
 20
-8.31018601766516
 30
0.0
 10
54.51432099629277
 20
-9.038672247154974
 30
0.0
 10
56.25527941204943
 20
-9.459296198728781
 30
0.0
 10
57.96436242134615
 20
-9.588020309571217
 30
0.0
 10
59.09215762676799
 20
-9.411704318993573
 30
0.0
 10
59.63936628304643
 20
-9.326155421622351
 30
0.0
  0
SPLINE
  5
C6
330
1F
100
AcDbEntity
  8
외형선
  6
Continuous
 62
     1
370
    15
100
AcDbSpline
210
0.0
220
0.0
230
1.0
 70
     8
 71
     3
 72
    11
 73
     7
 74
     0
 42
0.000000001
 43
0.00000001
 40
0.0
 40
0.0
 40
0.0
 40
0.0
 40
0.2427135682140296
 40
0.4950396745947122
 40
0.7474352600708782
 40
1.0
 40
1.0
 40
1.0
 40
1.0
 10
87.65517837760049
 20
9.519171052573
 30
0.0
 10
88.21295142988076
 20
9.493404847953618
 30
0.0
 10
89.35058783121717
 20
9.440851982268445
 30
0.0
 10
91.06803869075482
 20
8.962417885261207
 30
0.0
 10
92.80833383992722
 20
8.221070698150358
 30
0.0
 10
93.96931497597647
 20
7.497896715535471
 30
0.0
 10
94.55000000000001
 20
7.136188597781782
 30
0.0
  0
SPLINE
  5
C7
330
1F
100
AcDbEntity
  8
외형선
  6
Continuous
 62
     1
370
    15
100
AcDbSpline
210
0.0
220
0.0
230
1.0
 70
     8
 71
     3
 72
    10
 73
     6
 74
     0
 42
0.000000001
 43
0.00000001
 40
0.0
 40
0.0
 40
0.0
 40
0.0
 40
0.3492496596997545
 40
0.6982654105207445
 40
1.0
 40
1.0
 40
1.0
 40
1.0
 10
94.55000000000001
 20
9.031639665469896
 30
0.0
 10
93.9693143404128
 20
9.185289993417276
 30
0.0
 10
92.80833193366179
 20
9.492487742480387
 30
0.0
 10
91.14646179249812
 20
9.580848756175715
 30
0.0
 10
90.06509346319537
 20
9.400114899153637
 30
0.0
 10
89.56369345045391
 20
9.316313704169403
 30
0.0
  0
SPLINE
  5
C8
330
1F
100
AcDbEntity
  8
외형선
  6
Continuous
 62
     1
370
    15
100
AcDbSpline
210
0.0
220
0.0
230
1.0
 70
     8
 71
     3
 72
    27
 73
    23
 74
     0
 42
0.000000001
 43
0.00000001
 40
0.0
 40
0.0
 40
0.0
 40
0.0
 40
0.0021713154275949
 40
0.0568318502974151
 40
0.1115172130993483
 40
0.1662370554322607
 40
0.2209259527089693
 40
0.2755879393428788
 40
0.3302446772339949
 40
0.3849178677229971
 40
0.4396288456496213
 40
0.4943339357188652
 40
0.5490037761591222
 40
0.6036599699033196
 40
0.6583242223825185
 40
0.7130181784785469
 40
0.767736635416679
 40
0.8224175677360549
 40
0.8770764707785855
 40
0.9317350296121683
 40
0.9864149318913951
 40
1.0
 40
1.0
 40
1.0
 40
1.0
 10
61.5471611803897
 20
-9.518950328355679
 30
0.0
 10
61.5241268202393
 20
-9.520955624417073
 30
0.0
 10
60.92122717188451
 20
-9.573442096034583
 30
0.0
 10
59.73820928500591
 20
-9.382920574126711
 30
0.0
 10
57.99737263794451
 20
-8.92641335769335
 30
0.0
 10
56.25528523575166
 20
-8.136347054697316
 30
0.0
 10
54.51431943706085
 20
-7.08481402120799
 30
0.0
 10
52.77443038213375
 20
-5.794842635607644
 30
0.0
 10
51.03477837569473
 20
-4.312706511660001
 30
0.0
 10
49.29442019101761
 20
-2.686451264694969
 30
0.0
 10
47.55264972250733
 20
-0.9711361894291999
 30
0.0
 10
45.81109083887552
 20
0.7766656039818803
 30
0.0
 10
44.07086974974172
 20
2.498767418392877
 30
0.0
 10
42.33124618452929
 20
4.137385986967713
 30
0.0
 10
40.59125930808916
 20
5.638409275797287
 30
0.0
 10
38.85010599351835
 20
6.951619561170292
 30
0.0
 10
37.1080675840637
 20
8.033467892310195
 30
0.0
 10
35.36740269126081
 20
8.846343012827584
 30
0.0
 10
33.62765542979075
 20
9.371070319794377
 30
0.0
 10
31.8878962309205
 20
9.558983496023147
 30
0.0
 10
30.58374890777102
 20
9.530625058962029
 30
0.0
 10
29.85913673265766
 20
9.34280385885968
 30
0.0
 10
29.71493531141168
 20
9.305426507325882
 30
0.0
  0
SPLINE
  5
C9
330
1F
100
AcDbEntity
  8
외형선
  6
Continuous
 62
     1
370
    15
100
AcDbSpline
210
0.0
220
0.0
230
1.0
 70
     8
 71
     3
 72
    17
 73
    13
 74
     0
 42
0.000000001
 43
0.00000001
 40
0.0
 40
0.0
 40
0.0
 40
0.0
 40
0.1065833223544215
 40
0.2131862760238399
 40
0.3198184047427813
 40
0.426466242515551
 40
0.533082731361653
 40
0.6313281352736728
 40
0.7295502502088255
 40
0.8277880838926903
 40
0.9260805259521384
 40
1.0
 40
1.0
 40
1.0
 40
1.0
 10
12.00000000000001
 20
0.8437369784282173
 30
0.0
 10
12.62932825986956
 20
0.213561218146496
 30
0.0
 10
13.88810069400348
 20
-1.046906372910718
 30
0.0
 10
15.77667832203519
 20
-2.905483107936647
 30
0.0
 10
17.66592640540203
 20
-4.64794152169216
 30
0.0
 10
19.5554578438771
 20
-6.208699534359235
 30
0.0
 10
21.39518894220504
 20
-7.491982274038557
 30
0.0
 10
23.18444037048921
 20
-8.471352440146582
 30
0.0
 10
24.92406000947099
 20
-9.144548528185766
 30
0.0
 10
26.66406183639186
 20
-9.502945956708444
 30
0.0
 10
28.26113794625127
 20
-9.576695737732475
 30
0.0
 10
29.27832323792902
 20
-9.386895509814273
 30
0.0
 10
29.71493531141168
 20
-9.305426507325874
 30
0.0
  0
SPLINE
  5
CA
330
1F
100
AcDbEntity
  8
외형선
  6
Continuous
 62
     1
370
    15
100
AcDbSpline
210
0.0
220
0.0
230
1.0
 70
     8
 71
     3
 72
    27
 73
    23
 74
     0
 42
0.000000001
 43
0.00000001
 40
0.0
 40
0.0
 40
0.0
 40
0.0
 40
0.0083476222505228
 40
0.0630335427448343
 40
0.1176946350538336
 40
0.1723525722049391
 40
0.2270290509356096
 40
0.2817441226328424
 40
0.3364454362167677
 40
0.3911135741285867
 40
0.445770156484286
 40
0.5004368902050976
 40
0.5551354059485151
 40
0.6098523570437283
 40
0.6645307812082009
 40
0.7191892624372227
 40
0.7738494933790039
 40
0.8285331535329341
 40
0.8832530596922366
 40
0.9379449991863569
 40
0.9926086308167862
 40
1.0
 40
1.0
 40
1.0
 40
1.0
 10
57.73176447065907
 20
9.504459267479522
 30
0.0
 10
57.82037144556703
 20
9.511023951663834
 30
0.0
 10
58.48944958215875
 20
9.560594390852318
 30
0.0
 10
59.73818977723223
 20
9.347693286893058
 30
0.0
 10
61.47803606629341
 20
8.851541496120063
 30
0.0
 10
63.21771360880425
 20
8.030722863165968
 30
0.0
 10
64.9581825792565
 20
6.950265265394274
 30
0.0
 10
66.70007953774818
 20
5.636528872061417
 30
0.0
 10
68.44148163356682
 20
4.135430327977104
 30
0.0
 10
70.18160890567783
 20
2.496407175958617
 30
0.0
 10
71.92122346440428
 20
0.7745095189789973
 30
0.0
 10
73.66129191523761
 20
-0.9733812463236238
 30
0.0
 10
75.40259196301254
 20
-2.688900641749322
 30
0.0
 10
77.1445567541585
 20
-4.314481951126015
 30
0.0
 10
78.88510091966903
 20
-5.796918900437417
 30
0.0
 10
80.62480940117094
 20
-7.085829859918823
 30
0.0
 10
82.3645969211226
 20
-8.139418180526192
 30
0.0
 10
84.1053435921963
 20
-8.919916116015072
 30
0.0
 10
85.847414220991
 20
-9.411189907555869
 30
0.0
 10
87.58847280523497
 20
-9.55915386860925
 30
0.0
 10
88.82698773491103
 20
-9.517558106056477
 30
0.0
 10
89.48528382410186
 20
-9.33773270231818
 30
0.0
 10
89.56369345045391
 20
-9.316313704169396
 30
0.0
  0
SPLINE
  5
CB
330
1F
100
AcDbEntity
  8
외형선
  6
Continuous
370
    15
100
AcDbSpline
210
0.0
220
0.0
230
1.0
 70
    24
 71
     3
 72
    16
 73
    12
 74
     0
 42
0.000000001
 43
0.00000001
 40
0.0
 40
0.0
 40
0.0
 40
0.0
 40
0.0055851479773331
 40
0.1319132794167592
 40
0.2582414108563781
 40
0.3845695422959061
 40
0.5108976737354288
 40
0.6372258051749524
 40
0.763553936614469
 40
0.8898820680539925
 40
1.0
 40
1.0
 40
1.0
 40
1.0
 10
12.00000000000001
 20
4.477392918011613
 30
0.0
 10
12.00000000000001
 20
4.473774181958754
 30
0.0
 10
12.00000000000009
 20
4.388304765210344
 30
0.0
 10
11.99999999999999
 20
4.146347062012183
 30
0.0
 10
12.00000000000001
 20
3.63214054747706
 30
0.0
 10
12.00000000000001
 20
3.013811624836531
 30
0.0
 10
11.99999999999998
 20
2.362333703220609
 30
0.0
 10
12.00000000000002
 20
1.749085799063947
 30
0.0
 10
11.99999999999994
 20
1.250226157103015
 30
0.0
 10
12.00000000000002
 20
0.9111424279343608
 30
0.0
 10
12.00000000000001
 20
0.8545354826237781
 30
0.0
 10
12.00000000000001
 20
0.8281724311010369
 30
0.0
  0
SPLINE
  5
CC
330
1F
100
AcDbEntity
  8
외형선
  6
Continuous
 62
     1
370
    15
100
AcDbSpline
210
0.0
220
0.0
230
1.0
 70
     8
 71
     3
 72
    27
 73
    23
 74
     0
 42
0.000000001
 43
0.00000001
 40
0.0
 40
0.0
 40
0.0
 40
0.0
 40
0.0126278041785127
 40
0.0672863726935585
 40
0.1219515953138985
 40
0.1766451266218315
 40
0.2313666254089198
 40
0.286051877135693
 40
0.3407136989684085
 40
0.3953737710374376
 40
0.4500537866223581
 40
0.5047723302593506
 40
0.5594724380079835
 40
0.6141407628089929
 40
0.6687989359494326
 40
0.7234686649823184
 40
0.7781715706528899
 40
0.8328882348372024
 40
0.8875663049316992
 40
0.9422258329069768
 40
0.9968885161319793
 40
1.0
 40
1.0
 40
1.0
 40
1.0
 10
91.46983529001153
 20
-9.496791814495243
 30
0.0
 10
91.33585943955504
 20
-9.505394223824164
 30
0.0
 10
90.6219784766961
 20
-9.551231561177977
 30
0.0
 10
89.32843101011862
 20
-9.320398591675863
 30
0.0
 10
87.58846636050129
 20
-8.797461834368248
 30
0.0
 10
85.8474159492528
 20
-7.955179107000242
 30
0.0
 10
84.10534312934635
 20
-6.855345476744223
 30
0.0
 10
82.36459704504355
 20
-5.52489288851636
 30
0.0
 10
80.62480936799459
 20
-4.011196188321705
 30
0.0
 10
78.8851009284854
 20
-2.363841687701683
 30
0.0
 10
77.14455675207935
 20
-0.6374352600007291
 30
0.0
 10
75.40259196250358
 20
1.109651580324364
 30
0.0
 10
73.66129191934918
 20
2.82019402125269
 30
0.0
 10
71.92122344847805
 20
4.436739815509807
 30
0.0
 10
70.18160896526808
 20
5.905422257338371
 30
0.0
 10
68.44148141101931
 20
7.177451319837085
 30
0.0
 10
66.70008036896236
 20
8.211055420998912
 30
0.0
 10
64.95817947724065
 20
8.968617014448013
 30
0.0
 10
63.21772517482395
 20
9.436867748866996
 30
0.0
 10
61.47799291557856
 20
9.556427447498441
 30
0.0
 10
60.28541493733474
 20
9.508071048930447
 30
0.0
 10
59.67238177904665
 20
9.335451988724383
 30
0.0
 10
59.63936628304644
 20
9.326155421622358
 30
0.0
  0
SPLINE
  5
CD
330
1F
100
AcDbEntity
  8
외형선
  6
Continuous
 62
     1
370
    15
100
AcDbSpline
210
0.0
220
0.0
230
1.0
 70
     8
 71
     3
 72
    18
 73
    14
 74
     0
 42
0.000000001
 43
0.00000001
 40
0.0
 40
0.0
 40
0.0
 40
0.0
 40
0.0752800851152207
 40
0.1640436234479482
 40
0.2527704581062947
 40
0.3414479987577996
 40
0.4301113503751457
 40
0.5187957245366118
 40
0.6150365277916576
 40
0.7113056291637787
 40
0.8075605502531394
 40
0.9037891355455567
 40
1.0
 40
1.0
 40
1.0
 40
1.0
 10
31.6247234564805
 20
-9.504611037350154
 30
0.0
 10
31.13237085256208
 20
-9.490751366780698
 30
0.0
 10
30.05948012671883
 20
-9.460549613202334
 30
0.0
 10
28.40526444932187
 20
-9.031427585219058
 30
0.0
 10
26.66407316790958
 20
-8.310829332448408
 30
0.0
 10
24.92405697507151
 20
-7.304850452538499
 30
0.0
 10
23.18444118149848
 20
-6.058012485310793
 30
0.0
 10
21.39518870416958
 20
-4.567908821217666
 30
0.0
 10
19.55545790986806
 20
-2.867624946863132
 30
0.0
 10
17.66592638772658
 20
-1.008668717091953
 30
0.0
 10
15.77667832674712
 20
0.8865922862351188
 30
0.0
 10
13.88810069282614
 20
2.759606299757102
 30
0.0
 10
12.62932825947732
 20
3.904832531412732
 30
0.0
 10
12.00000000000029
 20
4.477392918009298
 30
0.0
  0
SPLINE
  5
CE
330
1F
100
AcDbEntity
  8
외형선
  6
Continuous
 62
     1
370
    15
100
AcDbSpline
210
0.0
220
0.0
230
1.0
 70
     8
 71
     3
 72
     9
 73
     5
 74
     0
 42
0.000000001
 43
0.00000001
 40
0.0
 40
0.0
 40
0.0
 40
0.0
 40
0.6858243385926227
 40
1.0
 40
1.0
 40
1.0
 40
1.0
 10
12.00000000000002
 20
-9.487556740870264
 30
0.0
 10
12.62931885073787
 20
-9.52339730451833
 30
0.0
 10
13.54692823746402
 20
-9.575656405910989
 30
0.0
 10
14.46466450006492
 20
-9.357525302366838
 30
0.0
 10
14.75299489736507
 20
-9.28899381863733
 30
0.0
  0
SPLINE
  5
CF
330
1F
100
AcDbEntity
  8
외형선
  6
Continuous
 62
     1
370
    15
100
AcDbSpline
210
0.0
220
0.0
230
1.0
 70
     8
 71
     3
 72
    26
 73
    22
 74
     0
 42
0.000000001
 43
0.00000001
 40
0.0
 40
0.0
 40
0.0
 40
0.0
 40
0.0409142927576673
 40
0.0955852144648519
 40
0.150291386498195
 40
0.2050034465053692
 40
0.2596777183275578
 40
0.3143355372264575
 40
0.3689986049719609
 40
0.4236885838925061
 40
0.4784095084812912
 40
0.5330959528571547
 40
0.5877575688098562
 40
0.6424160295744381
 40
0.6970930320962102
 40
0.7518086279542584
 40
0.8065104655671987
 40
0.8611791271902156
 40
0.9158362331464127
 40
0.9705034905649703
 40
1.0
 40
1.0
 40
1.0
 40
1.0
 10
42.76867682926851
 20
9.49511470667632
 30
0.0
 10
43.20269713205644
 20
9.489883682176481
 30
0.0
 10
44.21666855690307
 20
9.477662803725774
 30
0.0
 10
45.81109049457336
 20
9.086855438365749
 30
0.0
 10
47.55264981509733
 20
8.39712238083249
 30
0.0
 10
49.29442016512086
 20
7.417278997807911
 30
0.0
 10
51.03477838674938
 20
6.192997775958184
 30
0.0
 10
52.77443036379987
 20
4.76195576144707
 30
0.0
 10
54.51431949936349
 20
3.172478118883674
 30
0.0
 10
56.25528500469995
 20
1.477026391851208
 30
0.0
 10
57.99737350009867
 20
-0.266989180105761
 30
0.0
 10
59.73820607045943
 20
-2.00275857248248
 30
0.0
 10
61.47803170763063
 20
-3.67150169703834
 30
0.0
 10
63.21771475499692
 20
-5.217968526127694
 30
0.0
 10
64.95818235435635
 20
-6.590866310530535
 30
0.0
 10
66.70007928985524
 20
-7.744197092712766
 30
0.0
 10
68.44148284931468
 20
-8.638749558494437
 30
0.0
 10
70.18160429395749
 20
-9.249648987778926
 30
0.0
 10
71.92124069411838
 20
-9.537284605283409
 30
0.0
 10
73.39387504554671
 20
-9.559941211437716
 30
0.0
 10
74.2870837531184
 20
-9.364340818042955
 30
0.0
 10
74.60012272529474
 20
-9.29578959861737
 30
0.0
  0
SPLINE
  5
D0
330
1F
100
AcDbEntity
  8
외형선
  6
Continuous
370
    15
100
AcDbSpline
210
0.0
220
0.0
230
1.0
 70
    24
 71
     3
 72
     9
 73
     5
 74
     0
 42
0.000000001
 43
0.00000001
 40
0.0
 40
0.0
 40
0.0
 40
0.0
 40
0.5622285556466812
 40
1.0
 40
1.0
 40
1.0
 40
1.0
 10
12.00000000000001
 20
-8.512982119472861
 30
0.0
 10
12.00000000000001
 20
-8.693153722538586
 30
0.0
 10
12.00000000000001
 20
-9.013613438175922
 30
0.0
 10
12.00000000000001
 20
-9.343250881286716
 30
0.0
 10
12.00000000000002
 20
-9.487556740870264
 30
0.0
  0
SPLINE
  5
D1
330
1F
100
AcDbEntity
  8
외형선
  6
Continuous
 62
     1
370
    15
100
AcDbSpline
210
0.0
220
0.0
230
1.0
 70
     8
 71
     3
 72
    26
 73
    22
 74
     0
 42
0.000000001
 43
0.00000001
 40
0.0
 40
0.0
 40
0.0
 40
0.0
 40
0.0347737840447509
 40
0.0894724578662942
 40
0.1441393495733828
 40
0.198796089886021
 40
0.253464385788175
 40
0.3081658574583112
 40
0.3628810872815182
 40
0.4175577240266277
 40
0.4722158191385876
 40
0.5268770694175596
 40
0.5815631479535981
 40
0.6362837064718915
 40
0.6909733195289655
 40
0.7456360215910277
 40
0.8002934748416
 40
0.8549673809053935
 40
0.9096790749013793
 40
0.9643848809629235
 40
1.0
 40
1.0
 40
1.0
 40
1.0
 10
76.50976026463393
 20
-9.488167171234668
 30
0.0
 10
76.14066134548906
 20
-9.490276403750604
 30
0.0
 10
75.19097501140527
 20
-9.4957034293849
 30
0.0
 10
73.66128296981348
 20
-9.145406259802
 30
0.0
 10
71.9212258587192
 20
-8.490781222459317
 30
0.0
 10
70.1816082696317
 20
-7.54045737457739
 30
0.0
 10
68.44148178322935
 20
-6.342393598632025
 30
0.0
 10
66.7000795756674
 20
-4.932164309461109
 30
0.0
 10
64.95818227784217
 20
-3.358219726701193
 30
0.0
 10
63.21771477541827
 20
-1.67190153564165
 30
0.0
 10
61.47803170240777
 20
0.0697294887541856
 30
0.0
 10
59.73820607093189
 20
1.809103631582444
 30
0.0
 10
57.99737350343698
 20
3.488522611462551
 30
0.0
 10
56.2552849908672
 20
5.051194314681566
 30
0.0
 10
54.51431955130971
 20
6.446119196177532
 30
0.0
 10
52.77443016994676
 20
7.626374438361635
 30
0.0
 10
51.0347791102728
 20
8.5517487610428
 30
0.0
 10
49.29441746318167
 20
9.195797223805073
 30
0.0
 10
47.55265990607568
 20
9.521008309983406
 30
0.0
 10
46.01330452054587
 20
9.56937556846861
 30
0.0
 10
45.05509867855216
 20
9.375569007123165
 30
0.0
 10
44.67726137133499
 20
9.299147693402697
 30
0.0
  0
SPLINE
  5
D2
330
1F
100
AcDbEntity
  8
외형선
  6
Continuous
 62
     1
370
    15
100
AcDbSpline
210
0.0
220
0.0
230
1.0
 70
     8
 71
     3
 72
    10
 73
     6
 74
     0
 42
0.000000001
 43
0.00000001
 40
0.0
 40
0.0
 40
0.0
 40
0.0
 40
0.1897445010096142
 40
0.5949095568015
 40
1.0
 40
1.0
 40
1.0
 40
1.0
 10
16.66110418848457
 20
-9.478411625714465
 30
0.0
 10
16.36624837066569
 20
-9.487944792902809
 30
0.0
 10
15.44178129538487
 20
-9.5178343140049
 30
0.0
 10
13.88810862077856
 20
-9.187380054105176
 30
0.0
 10
12.62933090196591
 20
-8.66714753681188
 30
0.0
 10
12.0000000000003
 20
-8.407055231040175
 30
0.0
  0
LINE
  5
D3
330
1F
100
AcDbEntity
  8
외형선
  6
Continuous
 62
     1
370
    15
100
AcDbLine
 10
94.55000000000001
 20
-6.308758776248177
 30
0.0
 11
94.55000000000001
 21
-3.025741223751674
 31
0.0
  0
SPLINE
  5
D4
330
1F
100
AcDbEntity
  8
외형선
  6
Continuous
 62
     1
370
    15
100
AcDbSpline
210
0.0
220
0.0
230
1.0
 70
     8
 71
     3
 72
    26
 73
    22
 74
     0
 42
0.000000001
 43
0.00000001
 40
0.0
 40
0.0
 40
0.0
 40
0.0
 40
0.0327796872735238
 40
0.0921007901055222
 40
0.1514381279108803
 40
0.2107842072976435
 40
0.2701128420185846
 40
0.3247832381720458
 40
0.379440674761592
 40
0.4341068583274337
 40
0.4888034296916612
 40
0.543522627414113
 40
0.5982038508904867
 40
0.6528637304055055
 40
0.707523954137791
 40
0.7622062076792003
 40
0.8169259867460508
 40
0.8716212643787992
 40
0.9262868376770073
 40
0.9809443520454949
 40
0.9999999999999999
 40
0.9999999999999999
 40
0.9999999999999999
 40
0.9999999999999999
 10
12.84454303474504
 20
9.478763504057977
 30
0.0
 10
13.19236322101773
 20
9.485711308491998
 30
0.0
 10
14.16963044455953
 20
9.505232491611668
 30
0.0
 10
15.77668098446719
 20
9.125748718241482
 30
0.0
 10
17.66592567809909
 20
8.388583729367744
 30
0.0
 10
19.55545808983708
 20
7.304987184854803
 30
0.0
 10
21.39518869870749
 20
5.975357789462376
 30
0.0
 10
23.18444105267502
 20
4.468638225627886
 30
0.0
 10
24.92405749912213
 20
2.854807441918432
 30
0.0
 10
26.66407119967383
 20
1.145714645466963
 30
0.0
 10
28.40527180379267
 20
-0.6016497063396803
 30
0.0
 10
30.14728983478647
 20
-2.328499138782874
 30
0.0
 10
31.88791333345818
 20
-3.97838021562696
 30
0.0
 10
33.6276508251145
 20
-5.495447902121299
 30
0.0
 10
35.36740401093311
 20
-6.829443061430666
 30
0.0
 10
37.10806691145683
 20
-7.936615629914334
 30
0.0
 10
38.85010736374067
 20
-8.77763198215309
 30
0.0
 10
40.5912545035518
 20
-9.332198536164496
 30
0.0
 10
42.33126402182481
 20
-9.554890143759964
 30
0.0
 10
43.69301812068053
 20
-9.541469546343285
 30
0.0
 10
44.47508789481889
 20
-9.348923042547588
 30
0.0
 10
44.67726137133506
 20
-9.29914769340269
 30
0.0
  0
SPLINE
  5
D5
330
1F
100
AcDbEntity
  8
외형선
  6
Continuous
 62
     1
370
    15
100
AcDbSpline
210
0.0
220
0.0
230
1.0
 70
     8
 71
     3
 72
    20
 73
    16
 74
     0
 42
0.000000001
 43
0.00000001
 40
0.0
 40
0.0
 40
0.0
 40
0.0
 40
0.0443421095120425
 40
0.1240012350729451
 40
0.203687208601905
 40
0.2833170741803724
 40
0.3629178962504827
 40
0.4425212664809315
 40
0.5221587573913841
 40
0.601849034470781
 40
0.6814985828382011
 40
0.761106905595795
 40
0.8407055380578676
 40
0.9203260883510537
 40
1.0
 40
1.0
 40
1.0
 40
1.0
 10
72.69196928239278
 20
9.485793997073817
 30
0.0
 10
73.01498310828536
 20
9.49153078667069
 30
0.0
 10
73.918280533624
 20
9.50757352805566
 30
0.0
 10
75.40260225377153
 20
9.183583994716782
 30
0.0
 10
77.14455399833984
 20
8.55392385228774
 30
0.0
 10
78.8851016581409
 20
7.624104317499585
 30
0.0
 10
80.6248092011844
 20
6.444596083208178
 30
0.0
 10
82.36459698272311
 20
5.049407578787192
 30
0.0
 10
84.10534354583666
 20
3.486048183324447
 30
0.0
 10
85.84741434483277
 20
1.807037763495631
 30
0.0
 10
87.58847235660384
 20
0.067600633298761
 30
0.0
 10
89.32840864253059
 20
-1.67496332174653
 30
0.0
 10
91.06804428951241
 20
-3.357596112847925
 30
0.0
 10
92.80833243898266
 20
-4.943765178348331
 30
0.0
 10
93.96931450889069
 20
-5.853659309795141
 30
0.0
 10
94.55000000000001
 20
-6.308758776248177
 30
0.0
  0
SPLINE
  5
D6
330
1F
100
AcDbEntity
  8
외형선
  6
Continuous
 62
     1
370
    15
100
AcDbSpline
210
0.0
220
0.0
230
1.0
 70
     8
 71
     3
 72
    19
 73
    15
 74
     0
 42
0.000000001
 43
0.00000001
 40
0.0
 40
0.0
 40
0.0
 40
0.0
 40
0.0872945866958281
 40
0.1745307081123663
 40
0.2617428152942733
 40
0.3489655396320973
 40
0.4362334327396788
 40
0.5235459501917313
 40
0.6108006325669586
 40
0.6980179306767843
 40
0.785232436899038
 40
0.872478764592156
 40
0.9597865668664441
 40
1.0
 40
1.0
 40
1.0
 40
1.0
 10
94.55000000000004
 20
-3.025741223751675
 30
0.0
 10
93.9693145088411
 20
-2.465742001510477
 30
0.0
 10
92.80833243883386
 20
-1.346118614774155
 30
0.0
 10
91.06804429010715
 20
0.4056036519259736
 30
0.0
 10
89.3284086403006
 20
2.136288095674654
 30
0.0
 10
87.58847236493216
 20
3.797891550478176
 30
0.0
 10
85.84741431372568
 20
5.33269005543992
 30
0.0
 10
84.10534366196183
 20
6.689485504975544
 30
0.0
 10
82.36459654974396
 20
7.824267707392369
 30
0.0
 10
80.62481081632554
 20
8.696996337740417
 30
0.0
 10
78.88509562954219
 20
9.284802564414349
 30
0.0
 10
77.14457651326808
 20
9.546050655950218
 30
0.0
 10
75.71565687571257
 20
9.552833183993858
 30
0.0
 10
74.86756569552936
 20
9.357414336799605
 30
0.0
 10
74.60012272529482
 20
9.295789598617379
 30
0.0
  0
SPLINE
  5
D7
330
1F
100
AcDbEntity
  8
외형선
  6
Continuous
 62
     1
370
    15
100
AcDbSpline
210
0.0
220
0.0
230
1.0
 70
     8
 71
     3
 72
    26
 73
    22
 74
     0
 42
0.000000001
 43
0.00000001
 40
0.0
 40
0.0
 40
0.0
 40
0.0
 40
0.0243078210152285
 40
0.0789804564123588
 40
0.1336394444157519
 40
0.1883064915661437
 40
0.2430032438519413
 40
0.2977244982324309
 40
0.3524082260757447
 40
0.407069923515982
 40
0.461731276729674
 40
0.5164139744801786
 40
0.5711346475005957
 40
0.6258326935527536
 40
0.6805003509872323
 40
0.735159261209587
 40
0.7898311313452625
 40
0.8491613656403496
 40
0.908509045071589
 40
0.9678479826857395
 40
1.0
 40
1.0
 40
1.0
 40
1.0
 10
46.58474816695908
 20
-9.485742925492424
 30
0.0
 10
46.32676717321798
 20
-9.494659699519838
 30
0.0
 10
45.4885408007833
 20
-9.523631892542394
 30
0.0
 10
44.0708870638344
 20
-9.23504974470651
 30
0.0
 10
42.33124155092037
 20
-8.641515546905236
 30
0.0
 10
40.59126052855039
 20
-7.741913764160952
 30
0.0
 10
38.85010574813366
 20
-6.589239494113615
 30
0.0
 10
37.1080673441113
 20
-5.216215161996045
 30
0.0
 10
35.3674038951018
 20
-3.669316477179537
 30
0.0
 10
33.62765085609927
 20
-2.00043546068535
 30
0.0
 10
31.88791332532485
 20
-0.2649823899381634
 30
0.0
 10
30.14728983632393
 20
1.479668117768844
 30
0.0
 10
28.40527180578557
 20
3.174440220324306
 30
0.0
 10
26.66407119017257
 20
4.763989926344909
 30
0.0
 10
24.92405753511165
 20
6.194664328498052
 30
0.0
 10
23.18444091821964
 20
7.419262272032657
 30
0.0
 10
21.39518921875451
 20
8.423281728419694
 30
0.0
 10
19.5554559637444
 20
9.151780724351175
 30
0.0
 10
17.66593359333308
 20
9.523202804671362
 30
0.0
 10
16.06502450438049
 20
9.578056311011927
 30
0.0
 10
15.09417400262626
 20
9.36416139258962
 30
0.0
 10
14.75299489736513
 20
9.288993818637337
 30
0.0
  0
LINE
  5
D8
330
1F
100
AcDbEntity
  8
외형선
  6
Continuous
 62
     1
370
    15
100
AcDbLine
 10
94.55000000000001
 20
-9.507013460872894
 30
0.0
 11
94.55000000000001
 21
-8.525855790117683
 31
0.0
  0
SPLINE
  5
D9
330
1F
100
AcDbEntity
  8
외형선
  6
Continuous
 62
     1
370
    15
100
AcDbSpline
210
0.0
220
0.0
230
1.0
 70
     8
 71
     3
 72
    22
 73
    18
 74
     0
 42
0.000000001
 43
0.00000001
 40
0.0
 40
0.0
 40
0.0
 40
0.0
 40
0.074933264022601
 40
0.1498803298152845
 40
0.2248479070880053
 40
0.2998265285902741
 40
0.3747831102710498
 40
0.4438544117441461
 40
0.5129093399328124
 40
0.581975319167002
 40
0.6510796907475271
 40
0.7202126487682484
 40
0.7892976296242953
 40
0.8583556442373094
 40
0.9274140937389701
 40
0.9965003759928049
 40
1.0
 40
1.0
 40
1.0
 40
1.0
 10
12.00000000000001
 20
7.305327847346002
 30
0.0
 10
12.62932825954667
 20
6.873695446625873
 30
0.0
 10
13.88810069303474
 20
6.010351143895599
 30
0.0
 10
15.77667832591144
 20
4.403107538977898
 30
0.0
 10
17.66592639086063
 20
2.643775983179846
 30
0.0
 10
19.55545789816684
 20
0.7755053826430273
 30
0.0
 10
21.39518874637673
 20
-1.072402078763515
 30
0.0
 10
23.18444103769461
 20
-2.830653560554468
 30
0.0
 10
24.92405751311519
 20
-4.446294569000859
 30
0.0
 10
26.66407115866469
 20
-5.914045753587373
 30
0.0
 10
28.40527195394798
 20
-7.184732307171511
 30
0.0
 10
30.14728927512389
 20
-8.216519526662312
 30
0.0
 10
31.88791541994181
 20
-8.972497709583157
 30
0.0
 10
33.62764304150088
 20
-9.438790696702418
 30
0.0
 10
35.36743306533494
 20
-9.55612114083695
 30
0.0
 10
36.55682646422278
 20
-9.507330956282027
 30
0.0
 10
37.16663790885678
 20
-9.335315591889065
 30
0.0
 10
37.19603908163858
 20
-9.32702212102337
 30
0.0
  0
SPLINE
  5
DA
330
1F
100
AcDbEntity
  8
외형선
  6
Continuous
 62
     1
370
    15
100
AcDbSpline
210
0.0
220
0.0
230
1.0
 70
     8
 71
     3
 72
    24
 73
    20
 74
     0
 42
0.000000001
 43
0.00000001
 40
0.0
 40
0.0
 40
0.0
 40
0.0
 40
0.0507520391111411
 40
0.1101016571866267
 40
0.1694152804506553
 40
0.2287163662124301
 40
0.2880284659627708
 40
0.3473750484481637
 40
0.406741632849717
 40
0.4660664164520706
 40
0.5253695624460242
 40
0.5846746068365096
 40
0.6440050713623037
 40
0.7033748619377783
 40
0.7627143093498324
 40
0.822023043406237
 40
0.8813245581275259
 40
0.9406424017799059
 40
1.0
 40
1.0
 40
1.0
 40
1.0
 10
65.21069310316454
 20
9.505295926845388
 30
0.0
 10
65.70718781760469
 20
9.490839510595741
 30
0.0
 10
66.78428524662726
 20
9.459477708903792
 30
0.0
 10
68.44149265722534
 20
9.027851189975696
 30
0.0
 10
70.18160595337146
 20
8.305346037592074
 30
0.0
 10
71.92122425555237
 20
7.297874042357143
 30
0.0
 10
73.66129170308726
 20
6.04954337347471
 30
0.0
 10
75.40259201993591
 20
4.599061755891166
 30
0.0
 10
77.14455673876162
 20
2.995958989515529
 30
0.0
 10
78.88510092436536
 20
1.292508410625887
 30
0.0
 10
80.6248093977726
 20
-0.4536156863543704
 30
0.0
 10
82.3645969300227
 20
-2.184680779327729
 30
0.0
 10
84.10534355997092
 20
-3.843277260191788
 30
0.0
 10
85.84741434104666
 20
-5.373423067306375
 30
0.0
 10
87.58847235761753
 20
-6.724676043306134
 30
0.0
 10
89.32840864225923
 20
-7.853414021749316
 30
0.0
 10
91.0680442895848
 20
-8.714504552341
 30
0.0
 10
92.8083324389646
 20
-9.308209285094154
 30
0.0
 10
93.96931450888464
 20
-9.440730604700716
 30
0.0
 10
94.55000000000001
 20
-9.507013460872892
 30
0.0
  0
SPLINE
  5
DB
330
1F
100
AcDbEntity
  8
외형선
  6
Continuous
370
    15
100
AcDbSpline
210
0.0
220
0.0
230
1.0
 70
    24
 71
     3
 72
    11
 73
     7
 74
     0
 42
0.000000001
 43
0.00000001
 40
0.0
 40
0.0
 40
0.0
 40
0.0
 40
0.0159831474086549
 40
0.377499288941677
 40
0.7390154304752498
 40
1.0
 40
1.0
 40
1.0
 40
1.0
 10
12.00000000000001
 20
9.110680658044517
 30
0.0
 10
12.00000000000001
 20
9.101966874955169
 30
0.0
 10
11.99999999999994
 20
8.896159668394612
 30
0.0
 10
12.00000000000004
 20
8.462844017980904
 30
0.0
 10
11.99999999999999
 20
7.866458127902801
 30
0.0
 10
12.00000000000002
 20
7.545723372605589
 30
0.0
 10
12.00000000000001
 20
7.411254735773739
 30
0.0
  0
SPLINE
  5
DC
330
1F
100
AcDbEntity
  8
외형선
  6
Continuous
 62
     1
370
    15
100
AcDbSpline
210
0.0
220
0.0
230
1.0
 70
     8
 71
     3
 72
    23
 73
    19
 74
     0
 42
0.000000001
 43
0.00000001
 40
0.0
 40
0.0
 40
0.0
 40
0.0
 40
0.0634910743847547
 40
0.1269396258189254
 40
0.1903707112266794
 40
0.253809518701306
 40
0.3172811783129217
 40
0.3807852940902795
 40
0.4442473452757335
 40
0.5076822061477299
 40
0.571115036424838
 40
0.6345710110852365
 40
0.6980716974208212
 40
0.7615509889698083
 40
0.8249933965146953
 40
0.8884240230915453
 40
0.9518680602428145
 40
1.0
 40
1.0
 40
1.0
 40
1.0
 10
94.55000000000001
 20
-8.525855790117685
 30
0.0
 10
93.96931450888472
 20
-8.239645540346269
 30
0.0
 10
92.80833243896475
 20
-7.667416729232486
 30
0.0
 10
91.06804428958388
 20
-6.477379544412719
 30
0.0
 10
89.32840864226267
 20
-5.092214425146278
 30
0.0
 10
87.5884723576042
 20
-3.531934672217625
 30
0.0
 10
85.84741434109631
 20
-1.855273330145156
 30
0.0
 10
84.10534355978537
 20
-0.1170047192751204
 30
0.0
 10
82.36459693071464
 20
1.625692840326012
 30
0.0
 10
80.62480939519132
 20
3.313927769528969
 30
0.0
 10
78.88510093399988
 20
4.891801859354554
 30
0.0
 10
77.1445567027796
 20
6.307007014568875
 30
0.0
 10
75.4025921543074
 20
7.511947606655086
 30
0.0
 10
73.6612912019293
 20
8.46627229265682
 30
0.0
 10
71.92122612456038
 20
9.14130230238566
 30
0.0
 10
70.18159897881738
 20
9.501702434377897
 30
0.0
 10
68.58184054653786
 20
9.577090055778331
 30
0.0
 10
67.56145820384764
 20
9.387664699789708
 30
0.0
 10
67.12128297250766
 20
9.305949889168703
 30
0.0
  0
SPLINE
  5
DD
330
1F
100
AcDbEntity
  8
외형선
  6
Continuous
 62
     1
370
    15
100
AcDbSpline
210
0.0
220
0.0
230
1.0
 70
     8
 71
     3
 72
    23
 73
    19
 74
     0
 42
0.000000001
 43
0.00000001
 40
0.0
 40
0.0
 40
0.0
 40
0.0
 40
0.0093822246610798
 40
0.0736491871101882
 40
0.1378720768021417
 40
0.2020690930541808
 40
0.2662657050319626
 40
0.3304873849392237
 40
0.3947536646144015
 40
0.4589933702182075
 40
0.5231973861403096
 40
0.5873911289654319
 40
0.6516000924625247
 40
0.7212800364387113
 40
0.790980468722827
 40
0.8606706342461209
 40
0.9303417322139341
 40
1.0
 40
1.0
 40
1.0
 40
1.0
 10
39.1045628693165
 20
-9.505193402232338
 30
0.0
 10
39.01979309386691
 20
-9.511541614591158
 30
0.0
 10
38.35436188976507
 20
-9.561374217914903
 30
0.0
 10
37.10802940693193
 20
-9.349806171454764
 30
0.0
 10
35.36741405281334
 20
-8.855762321517833
 30
0.0
 10
33.62764813491299
 20
-8.036572249414698
 30
0.0
 10
31.88791405460655
 20
-6.957928029762138
 30
0.0
 10
30.14728964131313
 20
-5.645103438956686
 30
0.0
 10
28.4052718558425
 20
-4.145355770122806
 30
0.0
 10
26.6640711849309
 20
-2.506975805232304
 30
0.0
 10
24.92405750608152
 20
-0.785256350476501
 30
0.0
 10
23.18444103957449
 20
0.962475868670458
 30
0.0
 10
21.39518874582499
 20
2.726706184013091
 30
0.0
 10
19.55545789831984
 20
4.441255193147445
 30
0.0
 10
17.66592639081975
 20
6.029320178358241
 30
0.0
 10
15.77667832592258
 20
7.374393135863341
 30
0.0
 10
13.88810069303221
 20
8.456044835204452
 30
0.0
 10
12.629328259546
 20
8.892482113575404
 30
0.0
 10
12.00000000000029
 20
9.110680658039382
 30
0.0
  0
SPLINE
  5
DE
330
1F
100
AcDbEntity
  8
외형선
  6
Continuous
 62
     1
370
    15
100
AcDbSpline
210
0.0
220
0.0
230
1.0
 70
     8
 71
     3
 72
    13
 73
     9
 74
     0
 42
0.000000001
 43
0.00000001
 40
0.0
 40
0.0
 40
0.0
 40
0.0
 40
0.1844843639342459
 40
0.3690027075810811
 40
0.5535715501271353
 40
0.7381675833700033
 40
0.9227093549641575
 40
0.9999999999999999
 40
0.9999999999999999
 40
0.9999999999999999
 40
0.9999999999999999
 10
12.00000000000001
 20
-6.112103569377029
 30
0.0
 10
12.62932836082901
 20
-6.571746961340049
 30
0.0
 10
13.88810099690038
 20
-7.491118405830374
 30
0.0
 10
15.77667711004907
 20
-8.511208585212227
 30
0.0
 10
17.66593095199366
 20
-9.220231242244974
 30
0.0
 10
19.55544086942196
 20
-9.543711697391233
 30
0.0
 10
21.07873141604162
 20
-9.562945780101826
 30
0.0
 10
21.97175628171351
 20
-9.356757488653779
 30
0.0
 10
22.23536943087666
 20
-9.295892503905241
 30
0.0
  0
SPLINE
  5
DF
330
1F
100
AcDbEntity
  8
외형선
  6
Continuous
 62
     1
370
    15
100
AcDbSpline
210
0.0
220
0.0
230
1.0
 70
     8
 71
     3
 72
    26
 73
    22
 74
     0
 42
0.000000001
 43
0.00000001
 40
0.0
 40
0.0
 40
0.0
 40
0.0
 40
0.0246375622888478
 40
0.07929813988169
 40
0.133963966586056
 40
0.1886567058237271
 40
0.2433803922915302
 40
0.2980695968061235
 40
0.3527339716444128
 40
0.4073951911353335
 40
0.4620749533192855
 40
0.5167933107873997
 40
0.5714979093159986
 40
0.6261693301802128
 40
0.6808291947943688
 40
0.7354992113832507
 40
0.7902010119033247
 40
0.8449212488822816
 40
0.8996029566168635
 40
0.9542647202183737
 40
1.0
 40
1.0
 40
1.0
 40
1.0
 10
50.25076203293437
 20
9.485660696779012
 30
0.0
 10
50.51215546949113
 20
9.494456524173875
 30
0.0
 10
51.35347300948235
 20
9.522766660662045
 30
0.0
 10
52.77441165649122
 20
9.232342441015678
 30
0.0
 10
54.51432451480554
 20
8.636795803754584
 30
0.0
 10
56.25528365977422
 20
7.73537928670364
 30
0.0
 10
57.99737385988412
 20
6.581583266072966
 30
0.0
 10
59.73820597571446
 20
5.206854453977519
 30
0.0
 10
61.47803172709865
 20
3.65930264232085
 30
0.0
 10
63.21771477184483
 20
1.989874728100299
 30
0.0
 10
64.95818226743
 20
0.2538447210871717
 30
0.0
 10
66.70007962092434
 20
-1.490149493361213
 30
0.0
 10
68.44148161271738
 20
-3.18482652383616
 30
0.0
 10
70.18160890596535
 20
-4.773465482685228
 30
0.0
 10
71.92122348409059
 20
-6.202908579853073
 30
0.0
 10
73.66129183616711
 20
-7.426114504617437
 30
0.0
 10
75.40259225983213
 20
-8.40137587013867
 30
0.0
 10
77.1445556459485
 20
-9.099018346290485
 30
0.0
 10
78.88510505174088
 20
-9.485118758833435
 30
0.0
 10
80.5300885725406
 20
-9.58209514267482
 30
0.0
 10
81.59510614153754
 20
-9.39738670104158
 30
0.0
 10
82.08026860099902
 20
-9.313243862054916
 30
0.0
  0
SPLINE
  5
E0
330
1F
100
AcDbEntity
  8
외형선
  6
Continuous
370
    15
100
AcDbSpline
210
0.0
220
0.0
230
1.0
 70
    24
 71
     3
 72
    15
 73
    11
 74
     0
 42
0.000000001
 43
0.00000001
 40
0.0
 40
0.0
 40
0.0
 40
0.0
 40
0.0927506415201145
 40
0.2286484597676568
 40
0.3645462780151936
 40
0.5004440962627308
 40
0.6363419145102607
 40
0.772239732757798
 40
0.9081375510053369
 40
1.0
 40
1.0
 40
1.0
 40
1.0
 10
12.00000000000002
 20
-2.658221249547115
 30
0.0
 10
12.00000000000002
 20
-2.667959676324348
 30
0.0
 10
12.00000000000004
 20
-2.691966801738049
 30
0.0
 10
12.00000000000001
 20
-2.973274373229245
 30
0.0
 10
11.99999999999998
 20
-3.434273149929532
 30
0.0
 10
12.00000000000005
 20
-4.027290278686737
 30
0.0
 10
11.99999999999991
 20
-4.676302869850499
 30
0.0
 10
12.00000000000004
 20
-5.307202080272647
 30
0.0
 10
12.00000000000001
 20
-5.801874058013702
 30
0.0
 10
11.99999999999999
 20
-6.022940812111887
 30
0.0
 10
12.00000000000001
 20
-6.112103569377028
 30
0.0
  0
SPLINE
  5
E1
330
1F
100
AcDbEntity
  8
외형선
  6
Continuous
 62
     1
370
    15
100
AcDbSpline
210
0.0
220
0.0
230
1.0
 70
     8
 71
     3
 72
    26
 73
    22
 74
     0
 42
0.000000001
 43
0.00000001
 40
0.0
 40
0.0
 40
0.0
 40
0.0
 40
0.0510525981008253
 40
0.1057123357124212
 40
0.1603703236270483
 40
0.2150482542971328
 40
0.2697647115502388
 40
0.3244627336179342
 40
0.3791289739498699
 40
0.4337850630083125
 40
0.4884527075185822
 40
0.5431535274015331
 40
0.5978681052736216
 40
0.6525440905274627
 40
0.7072015343690841
 40
0.7618621333401228
 40
0.8165475602723905
 40
0.8712674667760723
 40
0.9259564281872603
 40
0.9806184789240907
 40
0.9999999999999999
 40
0.9999999999999999
 40
0.9999999999999999
 40
0.9999999999999999
 10
83.98955197048315
 20
-9.515163557856258
 30
0.0
 10
83.44780578812131
 20
-9.492442139072091
 30
0.0
 10
82.32603615383836
 20
-9.445393911563059
 30
0.0
 10
80.62482214440817
 20
-8.98211466258461
 30
0.0
 10
78.8850975038574
 20
-8.235977148305993
 30
0.0
 10
77.14455767032217
 20
-7.208185884602889
 30
0.0
 10
75.40259171743322
 20
-5.942626631614161
 30
0.0
 10
73.66129198139177
 20
-4.478352703330652
 30
0.0
 10
71.92122344518368
 20
-2.865094382049769
 30
0.0
 10
70.1816089164365
 20
-1.156578039463673
 30
0.0
 10
68.44148160974271
 20
0.5906635852780836
 30
0.0
 10
66.70007962234473
 20
2.318205409876926
 30
0.0
 10
64.9581822647252
 20
3.968244108787952
 30
0.0
 10
63.21771478123537
 20
5.48660820274393
 30
0.0
 10
61.47803169225053
 20
6.821830985775431
 30
0.0
 10
59.73820610575435
 20
7.9303607364237
 30
0.0
 10
57.99737337420757
 20
8.773420566072847
 30
0.0
 10
56.25528547315111
 20
9.32964098268165
 30
0.0
 10
54.51431775300808
 20
9.554525589105713
 30
0.0
 10
53.14865555088445
 20
9.54212339265544
 30
0.0
 10
52.36317214022487
 20
9.34933885109868
 30
0.0
 10
52.15756532108091
 20
9.29887589308875
 30
0.0
  0
SPLINE
  5
E2
330
1F
100
AcDbEntity
  8
외형선
  6
Continuous
 62
     1
370
    15
100
AcDbSpline
210
0.0
220
0.0
230
1.0
 70
     8
 71
     3
 72
    14
 73
    10
 74
     0
 42
0.000000001
 43
0.00000001
 40
0.0
 40
0.0
 40
0.0
 40
0.0
 40
0.0789431618764936
 40
0.2222752835284908
 40
0.3778201430425572
 40
0.5334107381126051
 40
0.68897841493992
 40
0.8445035277227009
 40
1.0
 40
1.0
 40
1.0
 40
1.0
 10
24.14280703018411
 20
-9.485696959053834
 30
0.0
 10
23.82339105905855
 20
-9.49165155211081
 30
0.0
 10
22.92403164834047
 20
-9.50841752434418
 30
0.0
 10
21.39518813612472
 20
-9.176380794699769
 30
0.0
 10
19.55545806734787
 20
-8.49955141993317
 30
0.0
 10
17.66592634554574
 20
-7.455026537846512
 30
0.0
 10
15.77667833799129
 20
-6.120766658502934
 30
0.0
 10
13.88810069001603
 20
-4.553321106545776
 30
0.0
 10
12.62932825854068
 20
-3.370197965656972
 30
0.0
 10
12.00000000000029
 20
-2.778690869317311
 30
0.0
  0
LINE
  5
E3
330
1F
100
AcDbEntity
  8
외형선
  6
Continuous
 62
     1
370
    15
100
AcDbLine
 10
94.55000000000001
 20
0.5850812377624486
 30
0.0
 11
94.55000000000001
 21
4.246811515256709
 31
0.0
  0
SPLINE
  5
E4
330
1F
100
AcDbEntity
  8
외형선
  6
Continuous
 62
     1
370
    15
100
AcDbSpline
210
0.0
220
0.0
230
1.0
 70
     8
 71
     3
 72
    26
 73
    22
 74
     0
 42
0.000000001
 43
0.00000001
 40
0.0
 40
0.0
 40
0.0
 40
0.0
 40
0.035109624034208
 40
0.089781062144943
 40
0.1444395404447681
 40
0.1991067658875963
 40
0.2538043797079683
 40
0.3085246203177978
 40
0.3632068859578022
 40
0.4178678072296593
 40
0.4725290727253434
 40
0.5272123684500154
 40
0.5819331904153233
 40
0.6366295104795592
 40
0.6912961256431228
 40
0.745954681723372
 40
0.8006268850895147
 40
0.8553343396081949
 40
0.910047682238739
 40
0.9647232357984231
 40
1.0
 40
1.0
 40
1.0
 40
1.0
 10
20.32670123928994
 20
9.47980797179259
 30
0.0
 10
20.69932115029042
 20
9.48506172165465
 30
0.0
 10
21.65217132474356
 20
9.498496420995208
 30
0.0
 10
23.18442858468526
 20
9.141055645400266
 30
0.0
 10
24.92406084007395
 20
8.486076465696003
 30
0.0
 10
26.66407030398263
 20
7.533639745768856
 30
0.0
 10
28.40527204352472
 20
6.334159978988451
 30
0.0
 10
30.14728977223194
 20
4.923060742941388
 30
0.0
 10
31.88791334407852
 20
3.347783091086854
 30
0.0
 10
33.62765084513316
 20
1.661260852236927
 30
0.0
 10
35.36740392022143
 20
-0.0805581529644604
 30
0.0
 10
37.10806725453576
 20
-1.820059011443587
 30
0.0
 10
38.85010608148441
 20
-3.49833674385909
 30
0.0
 10
40.5912592857081
 20
-5.060625106272802
 30
0.0
 10
42.33124618615787
 20
-6.454152636351858
 30
0.0
 10
44.07086976559886
 20
-7.632903210661262
 30
0.0
 10
45.81109077378101
 20
-8.556720877579519
 30
0.0
 10
47.55264996720473
 20
-9.198843510649956
 30
0.0
 10
49.29441927754908
 20
-9.522015628938155
 30
0.0
 10
50.82915725952753
 20
-9.568842199076636
 30
0.0
 10
51.78335561502566
 20
-9.374924823332696
 30
0.0
 10
52.15756532108099
 20
-9.298875893088745
 30
0.0
  0
SPLINE
  5
E5
330
1F
100
AcDbEntity
  8
외형선
  6
Continuous
 62
     1
370
    15
100
AcDbSpline
210
0.0
220
0.0
230
1.0
 70
     8
 71
     3
 72
    16
 73
    12
 74
     0
 42
0.000000001
 43
0.00000001
 40
0.0
 40
0.0
 40
0.0
 40
0.0
 40
0.0313513247213551
 40
0.1523839179579662
 40
0.2734683898320256
 40
0.3946331202038829
 40
0.5157359247852185
 40
0.6367760480698877
 40
0.7578014377874636
 40
0.8788601523747038
 40
0.9999999999999999
 40
0.9999999999999999
 40
0.9999999999999999
 40
0.9999999999999999
 10
80.17418851825398
 20
9.49452198971693
 30
0.0
 10
80.32439083921018
 20
9.503611593237716
 30
0.0
 10
81.05445307285143
 20
9.547791844295446
 30
0.0
 10
82.36459297822148
 20
9.31004514322974
 30
0.0
 10
84.10534461984535
 20
8.777471453527967
 30
0.0
 10
85.84741405713166
 20
7.927841308717096
 30
0.0
 10
87.5884724336304
 20
6.820577386094985
 30
0.0
 10
89.32840862190601
 20
5.484577952184169
 30
0.0
 10
91.06804429501362
 20
3.966167990506952
 30
0.0
 10
92.80833243760615
 20
2.316664166407426
 30
0.0
 10
93.96931450843181
 20
1.162404434118814
 30
0.0
 10
94.55000000000004
 20
0.5850812377624494
 30
0.0
  0
SPLINE
  5
E6
330
1F
100
AcDbEntity
  8
외형선
  6
Continuous
 62
     1
370
    15
100
AcDbSpline
210
0.0
220
0.0
230
1.0
 70
     8
 71
     3
 72
    15
 73
    11
 74
     0
 42
0.000000001
 43
0.00000001
 40
0.0
 40
0.0
 40
0.0
 40
0.0
 40
0.1396610818101752
 40
0.2792286260430157
 40
0.4187577503220609
 40
0.558303860803083
 40
0.6979222360084958
 40
0.8376120049218094
 40
0.9772092445076845
 40
1.0
 40
1.0
 40
1.0
 40
1.0
 10
94.55000000000001
 20
4.246811515256709
 30
0.0
 10
93.96931450389471
 20
4.752567384470268
 30
0.0
 10
92.80833242399804
 20
5.763740394469138
 30
0.0
 10
91.06804434939728
 20
7.050898344609611
 30
0.0
 10
89.32840841801466
 20
8.113724637996764
 30
0.0
 10
87.58847319510267
 20
8.901684848877778
 30
0.0
 10
85.84741121296456
 20
9.40161521058564
 30
0.0
 10
84.10535523732389
 20
9.55952445274905
 30
0.0
 10
82.84979925202822
 20
9.520930893546302
 30
0.0
 10
82.17497809038392
 20
9.338804809728796
 30
0.0
 10
82.0802686009991
 20
9.313243862054925
 30
0.0
  0
SPLINE
  5
E7
330
1F
100
AcDbEntity
  8
외형선
  6
Continuous
 62
     1
370
    15
100
AcDbSpline
210
0.0
220
0.0
230
1.0
 70
     8
 71
     3
 72
    26
 73
    22
 74
     0
 42
0.000000001
 43
0.00000001
 40
0.0
 40
0.0
 40
0.0
 40
0.0
 40
0.040587499997013
 40
0.0952459483273386
 40
0.1499208497704211
 40
0.2046335398336536
 40
0.25934034185525
 40
0.3140118931447501
 40
0.3686697973111283
 40
0.4233357604646997
 40
0.4780314281646517
 40
0.5327515974734419
 40
0.5874342409891727
 40
0.6420948545386694
 40
0.6967551238684464
 40
0.7514367373117936
 40
0.8061563252720393
 40
0.8608532867126973
 40
0.9155198601382543
 40
0.9701776865251363
 40
1.0
 40
1.0
 40
1.0
 40
1.0
 10
54.0661156871523
 20
-9.494637763269854
 30
0.0
 10
53.63553289358914
 20
-9.489866134889064
 30
0.0
 10
52.62509208029999
 20
-9.47866864132018
 30
0.0
 10
51.03478452979022
 20
-9.090235468267892
 30
0.0
 10
49.29441854057561
 20
-8.402339378689911
 30
0.0
 10
47.55265016471513
 20
-7.424100668532485
 30
0.0
 10
45.81109072089613
 20
-6.201430088281784
 30
0.0
 10
44.07086977976919
 20
-4.771313401118167
 30
0.0
 10
42.33124618233172
 20
-3.182741740050695
 30
0.0
 10
40.59125928684232
 20
-1.487995126084614
 30
0.0
 10
38.85010608077523
 20
0.2564526900387449
 30
0.0
 10
37.10806725623757
 20
1.991846628780847
 30
0.0
 10
35.36740391412893
 20
3.661506129249221
 30
0.0
 10
33.62765086779309
 20
5.208896561020705
 30
0.0
 10
31.88791325951398
 20
6.582775193865865
 30
0.0
 10
30.14729008805659
 20
7.737947139347675
 30
0.0
 10
28.40527086416257
 20
8.633995399943915
 30
0.0
 10
26.66407470225687
 20
9.246783224431907
 30
0.0
 10
24.92404443655474
 20
9.536504213211924
 30
0.0
 10
23.44806629112476
 20
9.560477538587376
 30
0.0
 10
22.55177056541578
 20
9.364924599146555
 30
0.0
 10
22.23536943087674
 20
9.295892503905247
 30
0.0
  0
SPLINE
  5
E8
330
1F
100
AcDbEntity
  8
외형선
  6
Continuous
 62
     1
370
    15
100
AcDbSpline
210
0.0
220
0.0
230
1.0
 70
     8
 71
     3
 72
    27
 73
    23
 74
     0
 42
0.000000001
 43
0.00000001
 40
0.0
 40
0.0
 40
0.0
 40
0.0
 40
0.0025012987980646
 40
0.0571810000787787
 40
0.111898225133453
 40
0.1665909498976147
 40
0.2212539717136677
 40
0.2759089349761459
 40
0.3305775446274541
 40
0.38528140311417
 40
0.4399911493257121
 40
0.4946631089503467
 40
0.5493186163474932
 40
0.6039793723692675
 40
0.658667038427999
 40
0.7133856488462651
 40
0.7680697805097921
 40
0.8227290848001614
 40
0.8773852340358453
 40
0.9320599242445807
 40
0.9867732061574643
 40
1.0
 40
1.0
 40
1.0
 40
1.0
 10
35.28760815701452
 20
9.518074273603355
 30
0.0
 10
35.31414403910747
 20
9.520367264062582
 30
0.0
 10
35.92076819661393
 20
9.5727862264557
 30
0.0
 10
37.10808021948904
 20
9.381035033719169
 30
0.0
 10
38.85010260851011
 20
8.922500816246007
 30
0.0
 10
40.59126021438463
 20
8.130507501540256
 30
0.0
 10
42.33124594178135
 20
7.077461235694679
 30
0.0
 10
44.07086981481643
 20
5.786260372332594
 30
0.0
 10
45.81109082135744
 20
4.302844342382475
 30
0.0
 10
47.5526497274538
 20
2.676080415699624
 30
0.0
 10
49.29442018875805
 20
0.9603892015080091
 30
0.0
 10
51.03477837978622
 20
-0.7876750460944949
 30
0.0
 10
52.77443036802952
 20
-2.509173173384365
 30
0.0
 10
54.51431948940433
 20
-4.147211859623464
 30
0.0
 10
56.25528504033322
 20
-5.647379108381144
 30
0.0
 10
57.99737336748674
 20
-6.958865707941681
 30
0.0
 10
59.73820656480967
 20
-8.039541357823586
 30
0.0
 10
61.47802986366165
 20
-8.850453476190816
 30
0.0
 10
63.21772163743287
 20
-9.373385229259073
 30
0.0
 10
64.9581566513118
 20
-9.559108835933415
 30
0.0
 10
66.25988415076843
 20
-9.530004370581542
 30
0.0
 10
66.98091111034532
 20
-9.342461367926267
 30
0.0
 10
67.12128297250757
 20
-9.3059498891687
 30
0.0
  0
SPLINE
  5
E9
330
1F
100
AcDbEntity
  8
외형선
  6
Continuous
 62
     1
370
    15
100
AcDbSpline
210
0.0
220
0.0
230
1.0
 70
     8
 71
     3
 72
    26
 73
    22
 74
     0
 42
0.000000001
 43
0.00000001
 40
0.0
 40
0.0
 40
0.0
 40
0.0
 40
0.0184366592983514
 40
0.0731384939089169
 40
0.1278540867638376
 40
0.1825310862845985
 40
0.2371895440491873
 40
0.2918511570017225
 40
0.346537598376058
 40
0.4012585199614205
 40
0.4559484958802428
 40
0.5106115606255007
 40
0.5652693765244432
 40
0.6199436453457702
 40
0.6746557023500098
 40
0.7293618713807416
 40
0.7840327900872495
 40
0.8386900618285408
 40
0.893355392463778
 40
0.9480504273016962
 40
1.0
 40
1.0
 40
1.0
 40
1.0
 10
69.02852273389571
 20
-9.48949308627163
 30
0.0
 10
68.83293015042409
 20
-9.499243680951023
 30
0.0
 10
68.05701154481487
 20
-9.537924430973405
 30
0.0
 10
66.700060815185
 20
-9.279679645647617
 30
0.0
 10
64.9581873013229
 20
-8.721146030116104
 30
0.0
 10
63.21771343036117
 20
-7.85003685786116
 30
0.0
 10
61.47803206253089
 20
-6.723547684567315
 30
0.0
 10
59.73820597531866
 20
-5.371582464025895
 30
0.0
 10
57.99737352560338
 20
-3.840853594519226
 30
0.0
 10
56.25528499791103
 20
-2.182695489279927
 30
0.0
 10
54.51431950102209
 20
-0.4512877784567318
 30
0.0
 10
52.77443036394916
 20
1.29490014429208
 30
0.0
 10
51.03477838449431
 20
2.997871648592774
 30
0.0
 10
49.29442017399744
 20
4.60132566123683
 30
0.0
 10
47.55264978182394
 20
6.051168109009706
 30
0.0
 10
45.81109061873236
 20
7.299753790949055
 30
0.0
 10
44.07087057034839
 20
8.304832662602188
 30
0.0
 10
42.33124312265927
 20
9.035022260138454
 30
0.0
 10
40.59127073973485
 20
9.45764714632591
 30
0.0
 10
38.87945800558441
 20
9.588308664936456
 30
0.0
 10
37.74746469916057
 20
9.412609904181808
 30
0.0
 10
37.19603908163851
 20
9.327022121023383
 30
0.0
  0
LINE
  5
EA
330
1F
100
AcDbEntity
  8
외형선
  6
Continuous
 62
     1
370
    15
100
AcDbLine
 10
94.55000000000001
 20
-8.525855790117683
 30
0.0
 11
94.55000000000001
 21
-6.308758776248177
 31
0.0
  0
LINE
  5
EB
330
1F
100
AcDbEntity
  8
외형선
  6
Continuous
370
    15
100
AcDbLine
 10
12.00000000000001
 20
9.110680658044517
 30
0.0
 11
12.00000000000001
 21
9.525000000000006
 31
0.0
  0
LINE
  5
EC
330
1F
100
AcDbEntity
  8
외형선
  6
Continuous
 62
     1
370
    15
100
AcDbLine
 10
94.55000000000001
 20
4.246811515256709
 30
0.0
 11
94.55000000000001
 21
7.136188597781782
 31
0.0
  0
LINE
  5
ED
330
1F
100
AcDbEntity
  8
외형선
  6
Continuous
 62
     1
370
    15
100
AcDbLine
 10
94.55000000000001
 20
-3.025741223751674
 30
0.0
 11
94.55000000000001
 21
0.5850812377624486
 31
0.0
  0
LINE
  5
EE
330
1F
100
AcDbEntity
  8
외형선
  6
Continuous
370
    15
100
AcDbLine
 10
12.00000000000001
 20
-9.524999999999999
 30
0.0
 11
12.00000000000002
 21
-9.487556740870264
 31
0.0
  0
LINE
  5
EF
330
1F
100
AcDbEntity
  8
외형선
  6
Continuous
370
    15
100
AcDbLine
 10
12.00000000000001
 20
4.477392918011613
 30
0.0
 11
12.00000000000001
 21
7.305327847346002
 31
0.0
  0
LINE
  5
F0
330
1F
100
AcDbEntity
  8
외형선
  6
Continuous
 62
     1
370
    15
100
AcDbLine
 10
94.55000000000001
 20
-9.524999999999999
 30
0.0
 11
94.55000000000001
 21
-9.507013460872894
 31
0.0
  0
LINE
  5
F1
330
1F
100
AcDbEntity
  8
외형선
  6
Continuous
370
    15
100
AcDbLine
 10
12.00000000000001
 20
-2.778690869319174
 30
0.0
 11
12.00000000000001
 21
0.8437369784282173
 31
0.0
  0
LINE
  5
F2
330
1F
100
AcDbEntity
  8
외형선
  6
Continuous
370
    15
100
AcDbLine
 10
12.00000000000001
 20
-8.407055231045124
 30
0.0
 11
12.00000000000001
 21
-6.112103569377028
 31
0.0
  0
LINE
  5
F3
330
1F
100
AcDbEntity
  8
외형선
  6
Continuous
 62
     1
370
    15
100
AcDbLine
 10
94.55000000000001
 20
9.031639665469896
 30
0.0
 11
94.55000000000001
 21
9.525000000000006
 31
0.0
  0
SPLINE
  5
F4
330
1F
100
AcDbEntity
  8
외형선
  6
Continuous
370
    15
100
AcDbSpline
210
0.0
220
0.0
230
1.0
 70
     8
 71
     3
 72
     8
 73
     4
 74
     0
 42
0.000000001
 43
0.00000001
 40
0.0
 40
0.0
 40
0.0
 40
0.0
 40
1.0
 40
1.0
 40
1.0
 40
1.0
 10
11.99999999999999
 20
9.110680658039463
 30
0.0
 10
11.6653347847748
 20
9.208142653636465
 30
0.0
 10
11.33300085675151
 20
9.288580140589247
 30
0.0
 10
11.00027477655692
 20
9.351866483074668
 30
0.0
  0
LINE
  5
F5
330
1F
100
AcDbEntity
  8
외형선
  6
Continuous
370
    15
100
AcDbLine
 10
11.00027477655689
 20
7.90607242074694
 30
0.0
 11
11.00027477655689
 21
9.35187050713962
 31
0.0
  0
SPLINE
  5
F6
330
1F
100
AcDbEntity
  8
외형선
  6
Continuous
370
    15
100
AcDbSpline
210
0.0
220
0.0
230
1.0
 70
     8
 71
     3
 72
     8
 73
     4
 74
     0
 42
0.000000001
 43
0.00000001
 40
0.0
 40
0.0
 40
0.0
 40
0.0
 40
1.0
 40
1.0
 40
1.0
 40
1.0
 10
12.00000000000001
 20
7.305327847345998
 30
0.0
 10
11.6653347847748
 20
7.519708589639024
 30
0.0
 10
11.33300085675151
 20
7.720120963973697
 30
0.0
 10
11.0002747765569
 20
7.906084894270762
 30
0.0
  0
SPLINE
  5
F7
330
1F
100
AcDbEntity
  8
외형선
  6
Continuous
370
    15
100
AcDbSpline
210
0.0
220
0.0
230
1.0
 70
     8
 71
     3
 72
     8
 73
     4
 74
     0
 42
0.000000001
 43
0.00000001
 40
0.0
 40
0.0
 40
0.0
 40
0.0
 40
1.0
 40
1.0
 40
1.0
 40
1.0
 10
11.99999999999999
 20
4.477392918009555
 30
0.0
 10
11.6653347847748
 20
4.772268605319369
 30
0.0
 10
11.33300085675151
 20
5.058202270405991
 30
0.0
 10
11.00027477655692
 20
5.334445422433012
 30
0.0
  0
LINE
  5
F8
330
1F
100
AcDbEntity
  8
외형선
  6
Continuous
370
    15
100
AcDbLine
 10
11.00027477655689
 20
1.834133128615819
 30
0.0
 11
11.00027477655689
 21
5.334462987454271
 31
0.0
  0
SPLINE
  5
F9
330
1F
100
AcDbEntity
  8
외형선
  6
Continuous
370
    15
100
AcDbSpline
210
0.0
220
0.0
230
1.0
 70
     8
 71
     3
 72
     8
 73
     4
 74
     0
 42
0.000000001
 43
0.00000001
 40
0.0
 40
0.0
 40
0.0
 40
0.0
 40
1.0
 40
1.0
 40
1.0
 40
1.0
 10
12.00000000000001
 20
0.8437369784282164
 30
0.0
 10
11.6653347847748
 20
1.176511028077099
 30
0.0
 10
11.33300085675151
 20
1.506954159332312
 30
0.0
 10
11.0002747765569
 20
1.834155075572012
 30
0.0
  0
SPLINE
  5
FA
330
1F
100
AcDbEntity
  8
외형선
  6
Continuous
370
    15
100
AcDbSpline
210
0.0
220
0.0
230
1.0
 70
     8
 71
     3
 72
     8
 73
     4
 74
     0
 42
0.000000001
 43
0.00000001
 40
0.0
 40
0.0
 40
0.0
 40
0.0
 40
1.0
 40
1.0
 40
1.0
 40
1.0
 10
11.99999999999999
 20
-2.778690869317029
 30
0.0
 10
11.6653347847748
 20
-2.459135668706403
 30
0.0
 10
11.33300085675151
 20
-2.135201888554644
 30
0.0
 10
11.00027477655692
 20
-1.807821418930761
 30
0.0
  0
SPLINE
  5
FB
330
1F
100
AcDbEntity
  8
외형선
  6
Continuous
370
    15
100
AcDbSpline
210
0.0
220
0.0
230
1.0
 70
     8
 71
     3
 72
     8
 73
     4
 74
     0
 42
0.000000001
 43
0.00000001
 40
0.0
 40
0.0
 40
0.0
 40
0.0
 40
1.0
 40
1.0
 40
1.0
 40
1.0
 10
12.00000000000001
 20
-6.112103569377028
 30
0.0
 10
11.6653347847748
 20
-5.855870737450787
 30
0.0
 10
11.33300085675151
 20
-5.588965953971305
 30
0.0
 10
11.0002747765569
 20
-5.312197910901283
 30
0.0
  0
SPLINE
  5
FC
330
1F
100
AcDbEntity
  8
외형선
  6
Continuous
370
    15
100
AcDbSpline
210
0.0
220
0.0
230
1.0
 70
     8
 71
     3
 72
     8
 73
     4
 74
     0
 42
0.000000001
 43
0.00000001
 40
0.0
 40
0.0
 40
0.0
 40
0.0
 40
1.0
 40
1.0
 40
1.0
 40
1.0
 10
11.99999999999999
 20
-8.407055231040033
 30
0.0
 10
11.6653347847748
 20
-8.250011619719444
 30
0.0
 10
11.33300085675151
 20
-8.077833739604666
 30
0.0
 10
11.00027477655692
 20
-7.891090991433515
 30
0.0
  0
LINE
  5
FD
330
1F
100
AcDbEntity
  8
외형선
  6
Continuous
370
    15
100
AcDbLine
 10
11.00027477655689
 20
-9.346741713908315
 30
0.0
 11
11.00027477655689
 21
-7.891079117299491
 31
0.0
  0
SPLINE
  5
FE
330
1F
100
AcDbEntity
  8
외형선
  6
Continuous
370
    15
100
AcDbSpline
210
0.0
220
0.0
230
1.0
 70
     8
 71
     3
 72
     8
 73
     4
 74
     0
 42
0.000000001
 43
0.00000001
 40
0.0
 40
0.0
 40
0.0
 40
0.0
 40
1.0
 40
1.0
 40
1.0
 40
1.0
 10
12.00000000000001
 20
-9.487556740870259
 30
0.0
 10
11.6653347847748
 20
-9.457962844483788
 30
0.0
 10
11.33300085675151
 20
-9.410945611080066
 30
0.0
 10
11.0002747765569
 20
-9.34673740717868
 30
0.0
  0
LINE
  5
FF
330
1F
100
AcDbEntity
  8
외형선
  6
Continuous
370
    15
100
AcDbLine
 10
-55.94500000000001
 20
0.0000000000000031
 30
0.0
 11
-55.94500000000001
 21
9.525000000000002
 31
0.0
  0
LINE
  5
100
330
1F
100
AcDbEntity
  8
외형선
  6
Continuous
370
    15
100
AcDbLine
 10
-55.94500000000001
 20
-9.524999999999995
 30
0.0
 11
-55.94500000000001
 21
0.0000000000000031
 31
0.0
  0
LINE
  5
101
330
1F
100
AcDbEntity
  8
외형선
  6
Continuous
370
    15
100
AcDbLine
 10
11.00027477655689
 20
-5.312216475060564
 30
0.0
 11
11.00027477655689
 21
-1.807800602304426
 31
0.0
  0
LINE
  5
102
330
1F
100
AcDbEntity
  8
외형선
  6
Continuous
370
    15
100
AcDbLine
 10
-57.85
 20
0.0000000000000031
 30
0.0
 11
-57.85
 21
7.62000000000001
 31
0.0
  0
LINE
  5
103
330
1F
100
AcDbEntity
  8
외형선
  6
Continuous
370
    15
100
AcDbLine
 10
-57.85
 20
-7.620000000000004
 30
0.0
 11
-57.85
 21
0.0000000000000031
 31
0.0
  0
SPLINE
  5
104
330
1F
100
AcDbEntity
  8
외형선
  6
Continuous
370
    15
100
AcDbSpline
210
0.0
220
0.0
230
1.0
 70
    24
 71
     3
 72
    15
 73
    11
 74
     0
 42
0.000000001
 43
0.00000001
 40
0.0
 40
0.0
 40
0.0
 40
0.0
 40
0.1179439514522125
 40
0.2446557499917222
 40
0.3713675485312247
 40
0.4980793470707301
 40
0.6247911456102379
 40
0.7515029441497256
 40
0.8782147426892503
 40
1.0
 40
1.0
 40
1.0
 40
1.0
 10
12.00000000000009
 20
0.82441634108177
 30
0.0
 10
12.00000000000005
 20
0.8577114588007791
 30
0.0
 10
12.00000000000001
 20
0.9267768232922114
 30
0.0
 10
12.00000000000004
 20
1.286039743491071
 30
0.0
 10
12.00000000000001
 20
1.796929611650669
 30
0.0
 10
12.00000000000001
 20
2.415867237871093
 30
0.0
 10
12.00000000000004
 20
3.0682269915423
 30
0.0
 10
11.99999999999995
 20
3.677338863897643
 30
0.0
 10
12.0000000000001
 20
4.18519261497415
 30
0.0
 10
12.00000000000004
 20
4.381288708257645
 30
0.0
 10
12.00000000000002
 20
4.477392918009542
 30
0.0
  0
SPLINE
  5
105
330
1F
100
AcDbEntity
  8
외형선
  6
Continuous
370
    15
100
AcDbSpline
210
0.0
220
0.0
230
1.0
 70
    24
 71
     3
 72
    15
 73
    11
 74
     0
 42
0.000000001
 43
0.00000001
 40
0.0
 40
0.0
 40
0.0
 40
0.0
 40
0.1028698733609278
 40
0.238405618890049
 40
0.3739413644191785
 40
0.5094771099483005
 40
0.6450128554774255
 40
0.780548601006553
 40
0.9160843465356594
 40
1.0
 40
1.0
 40
1.0
 40
1.0
 10
12.00000000000002
 20
-6.112103569377028
 30
0.0
 10
12.00000000000006
 20
-6.010866812186113
 30
0.0
 10
12.00000000000013
 20
-5.776246014434754
 30
0.0
 10
11.99999999999995
 20
-5.256795695169159
 30
0.0
 10
12.00000000000008
 20
-4.621893464565384
 30
0.0
 10
11.99999999999997
 20
-3.974925711018154
 30
0.0
 10
12.00000000000004
 20
-3.389633254991053
 30
0.0
 10
12.00000000000002
 20
-2.942373841122975
 30
0.0
 10
11.99999999999995
 20
-2.679514100999202
 30
0.0
 10
12.00000000000001
 20
-2.665083583410461
 30
0.0
 10
12.00000000000004
 20
-2.659565521922396
 30
0.0
  0
SPLINE
  5
106
330
1F
100
AcDbEntity
  8
외형선
  6
Continuous
370
    15
100
AcDbSpline
210
0.0
220
0.0
230
1.0
 70
    24
 71
     3
 72
    10
 73
     6
 74
     0
 42
0.000000001
 43
0.00000001
 40
0.0
 40
0.0
 40
0.0
 40
0.0
 40
0.2899527218064109
 40
0.652014828981692
 40
1.0
 40
1.0
 40
1.0
 40
1.0
 10
11.99999999999999
 20
7.41125473577374
 30
0.0
 10
11.99999999999997
 20
7.562342890569428
 30
0.0
 10
11.99999999999994
 20
7.902093856852969
 30
0.0
 10
12.00000000000012
 20
8.51234836302782
 30
0.0
 10
12.00000000000005
 20
8.913890128447958
 30
0.0
 10
12.00000000000002
 20
9.11068065803946
 30
0.0
  0
SPLINE
  5
107
330
1F
100
AcDbEntity
  8
외형선
  6
Continuous
370
    15
100
AcDbSpline
210
0.0
220
0.0
230
1.0
 70
    24
 71
     3
 72
     9
 73
     5
 74
     0
 42
0.000000001
 43
0.00000001
 40
0.0
 40
0.0
 40
0.0
 40
0.0
 40
0.4906967526491041
 40
1.0
 40
1.0
 40
1.0
 40
1.0
 10
12.00000000000001
 20
-9.487556740870259
 30
0.0
 10
12.00000000000005
 20
-9.325010825412642
 30
0.0
 10
12.00000000000012
 20
-8.993755493927177
 30
0.0
 10
12.00000000000005
 20
-8.675215548228286
 30
0.0
 10
12.00000000000002
 20
-8.512982119472863
 30
0.0
  0
LINE
  5
108
330
1F
100
AcDbEntity
  8
중심선
 62
     1
100
AcDbLine
 10
-60.85000000000002
 20
-0.0000000000000056
 30
0.0
 11
97.55
 21
0.0000000000000095
 31
0.0
  0
LINE
  5
109
330
1F
100
AcDbEntity
  8
참조1
100
AcDbLine
 10
18.34999999999999
 20
-0.0000000000000095
 30
0.0
 11
18.34999999999999
 21
-40.00000000000001
 31
0.0
  0
LINE
  5
10A
330
1F
100
AcDbEntity
  8
참조1
100
AcDbLine
 10
18.34999999999999
 20
-40.00000000000001
 30
0.0
 11
-20.62135681430866
 21
-40.0
 31
0.0
  0
INSERT
  5
10C
330
1F
100
AcDbEntity
  8
0
  6
Continuous
 62
     7
100
AcDbBlockReference
 66
     1
  2
블럭10
 10
4.409727067874782
 20
-52.04717430164393
 30
0.0
  0
ATTRIB
  5
10D
330
10C
100
AcDbEntity
  8
FORMAT
 62
     2
100
AcDbText
 10
-5.731908944261846
 20
-49.97180738881174
 30
0.0
 40
4.233333333333333
  1
EM218901 [ 8 FLUTE ]
 41
0.75
  7
SLDTEXTSTYLE0
 11
-5.731908944261846
 21
-52.08847405547841
 31
0.0
100
AcDbAttribute
  2
AUTOATTR0
 70
     0
 74
     1
  0
SEQEND
  5
10E
330
10C
100
AcDbEntity
  8
0
  6
Continuous
 62
     7
  0
HATCH
  5
10F
330
1F
100
AcDbEntity
  8
중심선
100
AcDbHatch
 10
0.0
 20
0.0
 30
0.0
210
0.0
220
0.0
230
1.0
  2
SOLID
 70
     1
 71
     0
 91
        1
 92
        0
 93
        4
 72
     1
 10
10.12463637225563
 20
-35.8
 11
6.67836112841835
 21
-35.8
 72
     1
 10
6.67836112841835
 20
-35.8
 11
4.550131269214328
 21
-38.3363255805726
 72
     1
 10
4.550131269214328
 20
-38.33632558057261
 11
7.996439598164759
 21
-38.33628615127012
 72
     1
 10
7.996439598164759
 20
-38.33628615127012
 11
10.12463637225563
 21
-35.8
 97
        0
 75
     0
 76
     1
 98
        1
 10
-1.17500000000004
 20
-0.0010749287238987
  0
HATCH
  5
110
330
1F
100
AcDbEntity
  8
중심선
100
AcDbHatch
 10
0.0
 20
0.0
 30
0.0
210
0.0
220
0.0
230
1.0
  2
SOLID
 70
     1
 71
     0
 91
        1
 92
        0
 93
        4
 72
     1
 10
15.13740036329164
 20
-35.79999999999998
 11
11.69112511945436
 21
-35.79999999999998
 72
     1
 10
11.69112511945436
 20
-35.79999999999998
 11
7.159987111096914
 21
-41.20000000000002
 72
     1
 10
7.159987111096914
 20
-41.20000000000002
 11
10.6062623549342
 21
-41.20000000000002
 72
     1
 10
10.6062623549342
 20
-41.20000000000002
 11
15.13740036329164
 21
-35.79999999999998
 97
        0
 75
     0
 76
     1
 98
        1
 10
-1.17500000000004
 20
-0.0010749287238987
  0
HATCH
  5
111
330
1F
100
AcDbEntity
  8
중심선
100
AcDbHatch
 10
0.0
 20
0.0
 30
0.0
210
0.0
220
0.0
230
1.0
  2
SOLID
 70
     1
 71
     0
 91
        1
 92
        0
 93
        4
 72
     1
 10
20.15016435432748
 20
-35.79999999999998
 11
16.70388911049039
 21
-35.79999999999998
 72
     1
 10
16.70388911049039
 20
-35.79999999999998
 11
9.655452208601115
 21
-44.20000000000002
 72
     1
 10
9.655452208601115
 20
-44.20000000000002
 11
13.1017274524384
 21
-44.20000000000002
 72
     1
 10
13.1017274524384
 20
-44.20000000000002
 11
20.15016435432748
 21
-35.79999999999998
 97
        0
 75
     0
 76
     1
 98
        1
 10
-1.17500000000004
 20
-0.0010749287238987
  0
HATCH
  5
112
330
1F
100
AcDbEntity
  8
중심선
100
AcDbHatch
 10
0.0
 20
0.0
 30
0.0
210
0.0
220
0.0
230
1.0
  2
SOLID
 70
     1
 71
     0
 91
        1
 92
        0
 93
        6
 72
     3
 10
24.95005478533968
 20
-40.00000000005127
 11
3.960054785062283
 21
1.540882976769353E-10
 40
0.3939339440162628
 50
17.09539180608436
 51
320.0019657685083
 73
     0
 72
     1
 10
26.63305444104025
 20
-38.58789400463833
 11
28.93835631474131
 21
-36.65356729459038
 72
     3
 10
24.95005478528683
 20
-40.00000000000016
 11
6.600054785286829
 21
-1.278976924368180E-13
 40
0.636358354079598
 50
39.99873849337416
 51
368.4976242363724
 73
     1
 72
     1
 10
31.37538727718744
 20
-39.03999999993003
 11
23.63012209212275
 21
-39.03999999993
 72
     1
 10
23.63012209212275
 20
-39.03999999993
 11
23.63009704767682
 21
-40.95999999992992
 72
     1
 10
23.63009704767682
 20
-40.95999999992992
 11
28.07147681714886
 21
-40.95999999992989
 97
        0
 75
     0
 76
     1
 98
        1
 10
-1.17500000000004
 20
-0.0010749287238987
  0
DIMENSION
  5
124
330
1F
100
AcDbEntity
  8
치수문자_일반주서
100
AcDbDimension
  2
_D_1
 10
12.00000000000001
 20
32.86090476237598
 30
0.0
 11
53.275
 21
32.86090476237598
 31
0.0
 70
   160
  1
<>
 71
     2
 42
82.55000000000001
  3
SLDDIMSTYLE3
100
AcDbAlignedDimension
 13
94.55000000000001
 23
9.525000000000011
 33
0.0
 14
12.00000000000001
 24
9.525000000000004
 34
0.0
 50
0.0000000000000049
100
AcDbRotatedDimension
1001
PE_URL
1000

1001
ACAD
1000
DSTYLE
1002
{
1070
   171
1070
     6
1070
   273
1070
     7
1002
}
  0
DIMENSION
  5
138
330
1F
100
AcDbEntity
  8
치수문자_일반주서
100
AcDbDimension
  2
_D_2
 10
-57.85
 20
54.19680952475196
 30
0.0
 11
18.35
 21
54.19680952475196
 31
0.0
 70
   160
  1
<>
 71
     2
 42
152.4
  3
SLDDIMSTYLE3
100
AcDbAlignedDimension
 13
94.55000000000001
 23
9.525000000000011
 33
0.0
 14
-57.85
 24
7.62000000000001
 34
0.0
 50
0.0000000000000053
100
AcDbRotatedDimension
1001
PE_URL
1000

1001
ACAD
1000
DSTYLE
1002
{
1070
   171
1070
     6
1070
   273
1070
     7
1002
}
  0
DIMENSION
  5
14C
330
1F
100
AcDbEntity
  8
치수문자_일반주서
100
AcDbDimension
  2
_D_3
 10
-70.84999999999998
 20
-9.525000000000057
 30
0.0
 11
-70.85000000000002
 21
0.0000000000000109
 31
0.0
 70
   160
  1
%%c<>
 71
     2
 42
19.05000000000001
 52
-270.0
  3
SLDDIMSTYLE3
100
AcDbAlignedDimension
 13
-55.94500000000001
 23
9.52500000000001
 33
0.0
 14
-55.94500000000001
 24
-9.525000000000002
 34
0.0
 50
90.0000000000002
100
AcDbRotatedDimension
1001
ACAD
1000
DSTYLE
1002
{
1070
   171
1070
     6
1070
   273
1070
     7
1002
}
1001
ACAD_DSTYLE_DIMFLIPARROW_SYMBOL
1070
   385
1070
     0
1001
ACAD_DSTYLE_DIMFLIPARROW_WHICH_SYMBOL
1070
   386
1070
     3
  0
LINE
  5
161
330
1F
100
AcDbEntity
  8
참조1
100
AcDbLine
 10
77.3509838153456
 20
7.439999999999997
 30
0.0
 11
77.3509838153456
 21
-7.440000000000007
 31
0.0
  0
LINE
  5
162
330
1F
100
AcDbEntity
  8
참조1
100
AcDbLine
 10
90.0509838153456
 20
5.439999999999997
 30
0.0
 11
77.3509838153456
 21
5.439999999999997
 31
0.0
  0
SOLID
  5
163
330
1F
100
AcDbEntity
  8
참조1
100
AcDbTrace
 10
77.3509838153456
 20
5.439999999999997
 30
0.0
 11
83.7009838153456
 21
4.423999999999997
 31
0.0
 12
83.7009838153456
 22
6.455999999999997
 32
0.0
 13
83.7009838153456
 23
6.455999999999997
 33
0.0
  0
LINE
  5
164
330
1F
100
AcDbEntity
  8
참조1
100
AcDbLine
 10
90.0509838153456
 20
-5.440000000000007
 30
0.0
 11
77.3509838153456
 21
-5.440000000000007
 31
0.0
  0
SOLID
  5
165
330
1F
100
AcDbEntity
  8
참조1
100
AcDbTrace
 10
77.3509838153456
 20
-5.440000000000007
 30
0.0
 11
83.7009838153456
 21
-6.456000000000008
 31
0.0
 12
83.7009838153456
 22
-4.424000000000007
 32
0.0
 13
83.7009838153456
 23
-4.424000000000007
 33
0.0
  0
MTEXT
  5
166
330
1F
100
AcDbEntity
  8
참조1
100
AcDbMText
 10
86.74847390781588
 20
10.98821664464993
 30
0.0
 40
3.5
 41
0.0
 71
     1
 72
     1
  1
A
  7
SLDTEXTSTYLE0
 73
     1
 44
1.0
  0
MTEXT
  5
167
330
1F
100
AcDbEntity
  8
참조1
100
AcDbMText
 10
86.74847390781588
 20
0.1082166446499272
 30
0.0
 40
3.5
 41
0.0
 71
     1
 72
     1
  1
A
  7
SLDTEXTSTYLE0
 73
     1
 44
1.0
  0
INSERT
  5
16E
330
1F
100
AcDbEntity
  8
해칭선
100
AcDbBlockReference
  2
SW_DOWELSYMBOL_0
 10
0.0
 20
0.0
 30
0.0
  0
DIMENSION
  5
193
330
1F
100
AcDbEntity
  8
치수문자_일반주서
100
AcDbDimension
  2
*D8
 10
115.7549263726447
 20
-9.524999999999999
 30
0.0
 11
115.7549263726447
 21
29.91025
 31
0.0
 70
   160
  1
%%C19.05 [3/4]
 71
     5
 42
19.05
  3
SLDDIMSTYLE3
100
AcDbAlignedDimension
 13
94.55000000000001
 23
9.525000000000006
 33
0.0
 14
94.55000000000001
 24
-9.524999999999999
 34
0.0
 50
90.0
100
AcDbRotatedDimension
1001
ACAD
1000
DSTYLE
1002
{
1070
   171
1070
     6
1070
   273
1070
     7
1002
}
1001
PE_URL
1000

  0
ENDSEC
  0
SECTION
  2
OBJECTS
  0
DICTIONARY
  5
C
330
0
100
AcDbDictionary
281
     1
  3
ACAD_GROUP
350
D
  3
ACAD_LAYOUT
350
1A
  3
ACAD_MLINESTYLE
350
17
  3
ACAD_PLOTSETTINGS
350
19
  3
ACAD_PLOTSTYLENAME
350
E
  3
ACAD_SCALELIST
350
47
  3
APPDATA
350
190
  3
DWGPROPS
350
1CE
  0
DICTIONARY
  5
1CC
330
1F
100
AcDbDictionary
280
     1
281
     1
  3
DIM_BOUNDING_BOXES_V1
360
1CD
  0
DICTIONARY
  5
D
102
{ACAD_REACTORS
330
C
102
}
330
C
100
AcDbDictionary
281
     1
  0
DICTIONARY
  5
1A
102
{ACAD_REACTORS
330
C
102
}
330
C
100
AcDbDictionary
281
     1
  3
Layout1
350
1E
  3
Layout2
350
26
  3
Model
350
22
  0
DICTIONARY
  5
17
102
{ACAD_REACTORS
330
C
102
}
330
C
100
AcDbDictionary
281
     1
  3
Standard
350
18
  0
DICTIONARY
  5
19
102
{ACAD_REACTORS
330
C
102
}
330
C
100
AcDbDictionary
281
     1
  0
ACDBDICTIONARYWDFLT
  5
E
102
{ACAD_REACTORS
330
C
102
}
330
C
100
AcDbDictionary
281
     1
  3
Normal
350
F
100
AcDbDictionaryWithDefault
340
F
  0
DICTIONARY
  5
47
102
{ACAD_REACTORS
330
C
102
}
330
C
100
AcDbDictionary
281
     1
  3
A0
350
48
  3
A1
350
49
  3
A2
350
4A
  3
A3
350
4B
  3
A4
350
4C
  3
A5
350
4D
  3
A6
350
4E
  3
A7
350
4F
  3
A8
350
50
  3
A9
350
51
  3
B0
350
52
  3
B1
350
53
  3
B2
350
54
  3
B3
350
55
  3
B4
350
56
  3
B5
350
57
  3
B6
350
58
  3
B7
350
59
  3
B8
350
5A
  3
B9
350
5B
  3
C0
350
5C
  3
C1
350
5D
  3
C2
350
5E
  3
C3
350
5F
  3
C4
350
60
  3
C5
350
61
  3
C6
350
62
  3
C7
350
63
  3
C8
350
64
  3
C9
350
65
  3
D0
350
66
  3
D1
350
67
  3
D2
350
68
  0
DICTIONARY
  5
190
102
{ACAD_REACTORS
330
C
102
}
330
C
100
AcDbDictionary
281
     1
  0
XRECORD
  5
1CE
102
{ACAD_REACTORS
330
C
102
}
330
C
100
AcDbXrecord
280
     1
  1
DWGPROPS COOKIE
  2

  3

  4

  6

  7

  8
12017165
  9

300
=
301
=
302
=
303
=
304
=
305
=
306
=
307
=
308
=
309
=
 40
0.0
 41
2458292.300357732
 42
2459697.021108044
  1

 90
        0
  0
DICTIONARY
  5
1CD
102
{ACAD_REACTORS
330
1CC
102
}
330
1CC
100
AcDbDictionary
281
     1
  0
LAYOUT
  5
1E
102
{ACAD_REACTORS
330
1A
102
}
330
1A
100
AcDbPlotSettings
  1

  2
none_device
  4

  6

 40
0.0
 41
0.0
 42
0.0
 43
0.0
 44
0.0
 45
0.0
 46
0.0
 47
0.0
 48
0.0
 49
0.0
140
0.0
141
0.0
142
1.0
143
1.0
 70
   688
 72
     1
 73
     0
 74
     5
  7

 75
    16
147
1.0
148
0.0
149
0.0
100
AcDbLayout
  1
Layout1
 70
     1
 71
     1
 10
0.0
 20
0.0
 11
420.0
 21
297.0
 12
0.0
 22
0.0
 32
0.0
 14
1.000000000000000E+20
 24
1.000000000000000E+20
 34
1.000000000000000E+20
 15
-1.000000000000000E+20
 25
-1.000000000000000E+20
 35
-1.000000000000000E+20
146
0.0
 13
0.0
 23
0.0
 33
0.0
 16
1.0
 26
0.0
 36
0.0
 17
0.0
 27
1.0
 37
0.0
 76
     0
330
1B
  0
LAYOUT
  5
26
102
{ACAD_REACTORS
330
1A
102
}
330
1A
100
AcDbPlotSettings
  1

  2
none_device
  4

  6

 40
0.0
 41
0.0
 42
0.0
 43
0.0
 44
0.0
 45
0.0
 46
0.0
 47
0.0
 48
0.0
 49
0.0
140
0.0
141
0.0
142
1.0
143
1.0
 70
   688
 72
     1
 73
     0
 74
     5
  7

 75
    16
147
1.0
148
0.0
149
0.0
100
AcDbLayout
  1
Layout2
 70
     1
 71
     2
 10
0.0
 20
0.0
 11
0.0
 21
0.0
 12
0.0
 22
0.0
 32
0.0
 14
0.0
 24
0.0
 34
0.0
 15
0.0
 25
0.0
 35
0.0
146
0.0
 13
0.0
 23
0.0
 33
0.0
 16
1.0
 26
0.0
 36
0.0
 17
0.0
 27
1.0
 37
0.0
 76
     0
330
23
  0
LAYOUT
  5
22
102
{ACAD_REACTORS
330
1A
102
}
330
1A
100
AcDbPlotSettings
  1

  2
none_device
  4
ANSI_A_(11.00_x_8.50_Inches)
  6

 40
6.35
 41
19.05
 42
6.35000508
 43
19.05000254
 44
279.4
 45
215.9
 46
119.2589565333442
 47
77.88157539888265
 48
0.0
 49
0.0
140
0.0
141
0.0
142
0.0607725033255327
143
1.0
 70
  1696
 72
     0
 73
     0
 74
     0
  7

 75
     0
147
0.0235690232323232
148
0.0
149
0.0
100
AcDbLayout
  1
Model
 70
     1
 71
     0
 10
0.0
 20
0.0
 11
420.0
 21
297.0
 12
0.0
 22
0.0
 32
0.0
 14
-75.22500000000007
 24
-49.97180738881175
 34
0.0
 15
116.305259705978
 25
58.57180952475195
 35
0.0
146
0.0
 13
0.0
 23
0.0
 33
0.0
 16
1.0
 26
0.0
 36
0.0
 17
0.0
 27
1.0
 37
0.0
 76
     0
330
1F
331
29
  0
MLINESTYLE
  5
18
102
{ACAD_REACTORS
330
17
102
}
330
17
100
AcDbMlineStyle
  2
Standard
 70
     0
  3

 62
   256
 51
90.0
 52
90.0
 71
     2
 49
0.5
 62
   256
  6
BYLAYER
 49
-0.5
 62
   256
  6
BYLAYER
  0
ACDBPLACEHOLDER
  5
F
102
{ACAD_REACTORS
330
E
102
}
330
E
  0
SCALE
  5
48
102
{ACAD_REACTORS
330
47
102
}
330
47
100
AcDbScale
 70
     0
300
1:1
140
1.0
141
1.0
290
     1
  0
SCALE
  5
49
102
{ACAD_REACTORS
330
47
102
}
330
47
100
AcDbScale
 70
     0
300
1:2
140
1.0
141
2.0
290
     0
  0
SCALE
  5
4A
102
{ACAD_REACTORS
330
47
102
}
330
47
100
AcDbScale
 70
     0
300
1:4
140
1.0
141
4.0
290
     0
  0
SCALE
  5
4B
102
{ACAD_REACTORS
330
47
102
}
330
47
100
AcDbScale
 70
     0
300
1:5
140
1.0
141
5.0
290
     0
  0
SCALE
  5
4C
102
{ACAD_REACTORS
330
47
102
}
330
47
100
AcDbScale
 70
     0
300
1:8
140
1.0
141
8.0
290
     0
  0
SCALE
  5
4D
102
{ACAD_REACTORS
330
47
102
}
330
47
100
AcDbScale
 70
     0
300
1:10
140
1.0
141
10.0
290
     0
  0
SCALE
  5
4E
102
{ACAD_REACTORS
330
47
102
}
330
47
100
AcDbScale
 70
     0
300
1:16
140
1.0
141
16.0
290
     0
  0
SCALE
  5
4F
102
{ACAD_REACTORS
330
47
102
}
330
47
100
AcDbScale
 70
     0
300
1:20
140
1.0
141
20.0
290
     0
  0
SCALE
  5
50
102
{ACAD_REACTORS
330
47
102
}
330
47
100
AcDbScale
 70
     0
300
1:30
140
1.0
141
30.0
290
     0
  0
SCALE
  5
51
102
{ACAD_REACTORS
330
47
102
}
330
47
100
AcDbScale
 70
     0
300
1:40
140
1.0
141
40.0
290
     0
  0
SCALE
  5
52
102
{ACAD_REACTORS
330
47
102
}
330
47
100
AcDbScale
 70
     0
300
1:50
140
1.0
141
50.0
290
     0
  0
SCALE
  5
53
102
{ACAD_REACTORS
330
47
102
}
330
47
100
AcDbScale
 70
     0
300
1:100
140
1.0
141
100.0
290
     0
  0
SCALE
  5
54
102
{ACAD_REACTORS
330
47
102
}
330
47
100
AcDbScale
 70
     0
300
2:1
140
2.0
141
1.0
290
     0
  0
SCALE
  5
55
102
{ACAD_REACTORS
330
47
102
}
330
47
100
AcDbScale
 70
     0
300
4:1
140
4.0
141
1.0
290
     0
  0
SCALE
  5
56
102
{ACAD_REACTORS
330
47
102
}
330
47
100
AcDbScale
 70
     0
300
8:1
140
8.0
141
1.0
290
     0
  0
SCALE
  5
57
102
{ACAD_REACTORS
330
47
102
}
330
47
100
AcDbScale
 70
     0
300
10:1
140
10.0
141
1.0
290
     0
  0
SCALE
  5
58
102
{ACAD_REACTORS
330
47
102
}
330
47
100
AcDbScale
 70
     0
300
100:1
140
100.0
141
1.0
290
     0
  0
SCALE
  5
59
102
{ACAD_REACTORS
330
47
102
}
330
47
100
AcDbScale
 70
     0
300
1/128" = 1'-0"
140
0.0078125
141
12.0
290
     0
  0
SCALE
  5
5A
102
{ACAD_REACTORS
330
47
102
}
330
47
100
AcDbScale
 70
     0
300
1/64" = 1'-0"
140
0.015625
141
12.0
290
     0
  0
SCALE
  5
5B
102
{ACAD_REACTORS
330
47
102
}
330
47
100
AcDbScale
 70
     0
300
1/32" = 1'-0"
140
0.03125
141
12.0
290
     0
  0
SCALE
  5
5C
102
{ACAD_REACTORS
330
47
102
}
330
47
100
AcDbScale
 70
     0
300
1/16" = 1'-0"
140
0.0625
141
12.0
290
     0
  0
SCALE
  5
5D
102
{ACAD_REACTORS
330
47
102
}
330
47
100
AcDbScale
 70
     0
300
3/32" = 1'-0"
140
0.09375
141
12.0
290
     0
  0
SCALE
  5
5E
102
{ACAD_REACTORS
330
47
102
}
330
47
100
AcDbScale
 70
     0
300
1/8" = 1'-0"
140
0.125
141
12.0
290
     0
  0
SCALE
  5
5F
102
{ACAD_REACTORS
330
47
102
}
330
47
100
AcDbScale
 70
     0
300
3/16" = 1'-0"
140
0.1875
141
12.0
290
     0
  0
SCALE
  5
60
102
{ACAD_REACTORS
330
47
102
}
330
47
100
AcDbScale
 70
     0
300
1/4" = 1'-0"
140
0.25
141
12.0
290
     0
  0
SCALE
  5
61
102
{ACAD_REACTORS
330
47
102
}
330
47
100
AcDbScale
 70
     0
300
3/8" = 1'-0"
140
0.375
141
12.0
290
     0
  0
SCALE
  5
62
102
{ACAD_REACTORS
330
47
102
}
330
47
100
AcDbScale
 70
     0
300
1/2" = 1'-0"
140
0.5
141
12.0
290
     0
  0
SCALE
  5
63
102
{ACAD_REACTORS
330
47
102
}
330
47
100
AcDbScale
 70
     0
300
3/4" = 1'-0"
140
0.75
141
12.0
290
     0
  0
SCALE
  5
64
102
{ACAD_REACTORS
330
47
102
}
330
47
100
AcDbScale
 70
     0
300
1" = 1'-0"
140
1.0
141
12.0
290
     0
  0
SCALE
  5
65
102
{ACAD_REACTORS
330
47
102
}
330
47
100
AcDbScale
 70
     0
300
1-1/2" = 1'-0"
140
1.5
141
12.0
290
     0
  0
SCALE
  5
66
102
{ACAD_REACTORS
330
47
102
}
330
47
100
AcDbScale
 70
     0
300
3" = 1'-0"
140
3.0
141
12.0
290
     0
  0
SCALE
  5
67
102
{ACAD_REACTORS
330
47
102
}
330
47
100
AcDbScale
 70
     0
300
6" = 1'-0"
140
6.0
141
12.0
290
     0
  0
SCALE
  5
68
102
{ACAD_REACTORS
330
47
102
}
330
47
100
AcDbScale
 70
     0
300
1'-0" = 1'-0"
140
12.0
141
12.0
290
     0
  0
ENDSEC
  0
EOF
