  0
SECTION
  2
HEADER
  9
$ACADVER
  1
AC1015
  9
$ACADMAINTVER
 70
     6
  9
$DWGCODEPAGE
  3
ANSI_949
  9
$INSBASE
 10
0.0
 20
0.0
 30
0.0
  9
$EXTMIN
 10
-78.40000000000009
 20
-49.97180738881175
 30
0.0
  9
$EXTMAX
 10
133.2075032832466
 20
58.57180952475196
 30
0.0
  9
$LIMMIN
 10
0.0
 20
0.0
  9
$LIMMAX
 10
420.0
 20
297.0
  9
$ORTHOMODE
 70
     1
  9
$REGENMODE
 70
     1
  9
$FILLMODE
 70
     1
  9
$QTEXTMODE
 70
     0
  9
$MIRRTEXT
 70
     1
  9
$LTSCALE
 40
1.0
  9
$ATTMODE
 70
     1
  9
$TEXTSIZE
 40
3.5
  9
$TRACEWID
 40
1.0
  9
$TEXTSTYLE
  7
Standard
  9
$CLAYER
  8
0
  9
$CELTYPE
  6
ByLayer
  9
$CECOLOR
 62
   256
  9
$CELTSCALE
 40
1.0
  9
$DISPSILH
 70
     0
  9
$DIMSCALE
 40
1.0
  9
$DIMASZ
 40
3.302
  9
$DIMEXO
 40
1.0
  9
$DIMDLI
 40
3.75
  9
$DIMRND
 40
0.0
  9
$DIMDLE
 40
0.0
  9
$DIMEXE
 40
1.0
  9
$DIMTP
 40
0.0
  9
$DIMTM
 40
0.0
  9
$DIMTXT
 40
3.5
  9
$DIMCEN
 40
2.5
  9
$DIMTSZ
 40
0.0
  9
$DIMTOL
 70
     0
  9
$DIMLIM
 70
     0
  9
$DIMTIH
 70
     1
  9
$DIMTOH
 70
     1
  9
$DIMSE1
 70
     0
  9
$DIMSE2
 70
     0
  9
$DIMTAD
 70
     1
  9
$DIMZIN
 70
     0
  9
$DIMBLK
  1

  9
$DIMASO
 70
     1
  9
$DIMSHO
 70
     1
  9
$DIMPOST
  1

  9
$DIMAPOST
  1

  9
$DIMALT
 70
     0
  9
$DIMALTD
 70
     3
  9
$DIMALTF
 40
0.0393700787401575
  9
$DIMLFAC
 40
1.0
  9
$DIMTOFL
 70
     1
  9
$DIMTVP
 40
0.0
  9
$DIMTIX
 70
     0
  9
$DIMSOXD
 70
     0
  9
$DIMSAH
 70
     0
  9
$DIMBLK1
  1

  9
$DIMBLK2
  1

  9
$DIMSTYLE
  2
ISO-25
  9
$DIMCLRD
 70
     0
  9
$DIMCLRE
 70
     0
  9
$DIMCLRT
 70
     0
  9
$DIMTFAC
 40
1.0
  9
$DIMGAP
 40
1.524
  9
$DIMJUST
 70
     0
  9
$DIMSD1
 70
     0
  9
$DIMSD2
 70
     0
  9
$DIMTOLJ
 70
     0
  9
$DIMTZIN
 70
     0
  9
$DIMALTZ
 70
     0
  9
$DIMALTTZ
 70
     0
  9
$DIMUPT
 70
     0
  9
$DIMDEC
 70
     2
  9
$DIMTDEC
 70
     2
  9
$DIMALTU
 70
     2
  9
$DIMALTTD
 70
     3
  9
$DIMTXSTY
  7
Standard
  9
$DIMAUNIT
 70
     0
  9
$DIMADEC
 70
     2
  9
$DIMALTRND
 40
0.0
  9
$DIMAZIN
 70
     0
  9
$DIMDSEP
 70
    44
  9
$DIMATFIT
 70
     3
  9
$DIMFRAC
 70
     0
  9
$DIMLDRBLK
  1

  9
$DIMLUNIT
 70
     2
  9
$DIMLWD
 70
    -2
  9
$DIMLWE
 70
    -2
  9
$DIMTMOVE
 70
     0
  9
$LUNITS
 70
     2
  9
$LUPREC
 70
     2
  9
$SKETCHINC
 40
1.0
  9
$FILLETRAD
 40
10.0
  9
$AUNITS
 70
     0
  9
$AUPREC
 70
     2
  9
$MENU
  1
.
  9
$ELEVATION
 40
0.0
  9
$PELEVATION
 40
0.0
  9
$THICKNESS
 40
0.0
  9
$LIMCHECK
 70
     0
  9
$CHAMFERA
 40
0.0
  9
$CHAMFERB
 40
0.0
  9
$CHAMFERC
 40
0.0
  9
$CHAMFERD
 40
0.0
  9
$SKPOLY
 70
     0
  9
$TDCREATE
 40
2458292.675547303
  9
$TDUCREATE
 40
2458292.300547303
  9
$TDUPDATE
 40
2459697.396337859
  9
$TDUUPDATE
 40
2459697.021337859
  9
$TDINDWG
 40
0.0014943981
  9
$TDUSRTIMER
 40
0.0002273264
  9
$USRTIMER
 70
     1
  9
$ANGBASE
 50
0.0
  9
$ANGDIR
 70
     0
  9
$PDMODE
 70
     0
  9
$PDSIZE
 40
-1.0
  9
$PLINEWID
 40
0.0
  9
$SPLFRAME
 70
     0
  9
$SPLINETYPE
 70
     6
  9
$SPLINESEGS
 70
     8
  9
$HANDSEED
  5
22F
  9
$SURFTAB1
 70
     6
  9
$SURFTAB2
 70
     6
  9
$SURFTYPE
 70
     6
  9
$SURFU
 70
     6
  9
$SURFV
 70
     6
  9
$UCSBASE
  2

  9
$UCSNAME
  2

  9
$UCSORG
 10
0.0
 20
0.0
 30
0.0
  9
$UCSXDIR
 10
1.0
 20
0.0
 30
0.0
  9
$UCSYDIR
 10
0.0
 20
1.0
 30
0.0
  9
$UCSORTHOREF
  2

  9
$UCSORTHOVIEW
 70
     0
  9
$UCSORGTOP
 10
0.0
 20
0.0
 30
0.0
  9
$UCSORGBOTTOM
 10
0.0
 20
0.0
 30
0.0
  9
$UCSORGLEFT
 10
0.0
 20
0.0
 30
0.0
  9
$UCSORGRIGHT
 10
0.0
 20
0.0
 30
0.0
  9
$UCSORGFRONT
 10
0.0
 20
0.0
 30
0.0
  9
$UCSORGBACK
 10
0.0
 20
0.0
 30
0.0
  9
$PUCSBASE
  2

  9
$PUCSNAME
  2

  9
$PUCSORG
 10
0.0
 20
0.0
 30
0.0
  9
$PUCSXDIR
 10
1.0
 20
0.0
 30
0.0
  9
$PUCSYDIR
 10
0.0
 20
1.0
 30
0.0
  9
$PUCSORTHOREF
  2

  9
$PUCSORTHOVIEW
 70
     0
  9
$PUCSORGTOP
 10
0.0
 20
0.0
 30
0.0
  9
$PUCSORGBOTTOM
 10
0.0
 20
0.0
 30
0.0
  9
$PUCSORGLEFT
 10
0.0
 20
0.0
 30
0.0
  9
$PUCSORGRIGHT
 10
0.0
 20
0.0
 30
0.0
  9
$PUCSORGFRONT
 10
0.0
 20
0.0
 30
0.0
  9
$PUCSORGBACK
 10
0.0
 20
0.0
 30
0.0
  9
$USERI1
 70
     0
  9
$USERI2
 70
     0
  9
$USERI3
 70
     0
  9
$USERI4
 70
     0
  9
$USERI5
 70
     0
  9
$USERR1
 40
0.0
  9
$USERR2
 40
0.0
  9
$USERR3
 40
0.0
  9
$USERR4
 40
0.0
  9
$USERR5
 40
0.0
  9
$WORLDVIEW
 70
     1
  9
$SHADEDGE
 70
     3
  9
$SHADEDIF
 70
    70
  9
$TILEMODE
 70
     1
  9
$MAXACTVP
 70
    64
  9
$PINSBASE
 10
0.0
 20
0.0
 30
0.0
  9
$PLIMCHECK
 70
     0
  9
$PEXTMIN
 10
1.000000000000000E+20
 20
1.000000000000000E+20
 30
1.000000000000000E+20
  9
$PEXTMAX
 10
-1.000000000000000E+20
 20
-1.000000000000000E+20
 30
-1.000000000000000E+20
  9
$PLIMMIN
 10
0.0
 20
0.0
  9
$PLIMMAX
 10
0.0
 20
0.0
  9
$UNITMODE
 70
     0
  9
$VISRETAIN
 70
     1
  9
$PLINEGEN
 70
     0
  9
$PSLTSCALE
 70
     1
  9
$TREEDEPTH
 70
  3020
  9
$CMLSTYLE
  2
Standard
  9
$CMLJUST
 70
     0
  9
$CMLSCALE
 40
20.0
  9
$PROXYGRAPHICS
 70
     1
  9
$MEASUREMENT
 70
     1
  9
$CELWEIGHT
370
    -1
  9
$ENDCAPS
280
     0
  9
$JOINSTYLE
280
     0
  9
$LWDISPLAY
290
     1
  9
$INSUNITS
 70
     4
  9
$HYPERLINKBASE
  1

  9
$STYLESHEET
  1

  9
$XEDIT
290
     1
  9
$CEPSNTYPE
380
     0
  9
$PSTYLEMODE
290
     1
  9
$FINGERPRINTGUID
  2
{89A90FD8-0E7E-4FE1-A1DF-B8753BCDD1F6}
  9
$VERSIONGUID
  2
{FAEB1C32-E019-11D5-929B-00C0DF256EC4}
  9
$EXTNAMES
290
     1
  9
$PSVPSCALE
 40
0.0
  9
$OLESTARTUP
290
     0
  0
ENDSEC
  0
SECTION
  2
CLASSES
  0
CLASS
  1
ACDBDICTIONARYWDFLT
  2
AcDbDictionaryWithDefault
  3
ObjectDBX Classes
 90
        0
280
     0
281
     0
  0
CLASS
  1
VISUALSTYLE
  2
AcDbVisualStyle
  3
ObjectDBX Classes
 90
     4095
280
     0
281
     0
  0
CLASS
  1
MATERIAL
  2
AcDbMaterial
  3
ObjectDBX Classes
 90
     1153
280
     0
281
     0
  0
CLASS
  1
SCALE
  2
AcDbScale
  3
ObjectDBX Classes
 90
     1153
280
     0
281
     0
  0
CLASS
  1
SUN
  2
AcDbSun
  3
SCENEOE
 90
     1153
280
     0
281
     0
  0
CLASS
  1
ACDBPLACEHOLDER
  2
AcDbPlaceHolder
  3
ObjectDBX Classes
 90
        0
280
     0
281
     0
  0
CLASS
  1
LAYOUT
  2
AcDbLayout
  3
ObjectDBX Classes
 90
        0
280
     0
281
     0
  0
CLASS
  1
TABLESTYLE
  2
AcDbTableStyle
  3
ObjectDBX Classes
 90
     4095
280
     0
281
     0
  0
CLASS
  1
MLEADERSTYLE
  2
AcDbMLeaderStyle
  3
ACDB_MLEADERSTYLE_CLASS
 90
     4095
280
     0
281
     0
  0
CLASS
  1
DICTIONARYVAR
  2
AcDbDictionaryVar
  3
ObjectDBX Classes
 90
        0
280
     0
281
     0
  0
CLASS
  1
DIMASSOC
  2
AcDbDimAssoc
  3
"AcDbDimAssoc|Product Desc:     AcDim ARX App For Dimension|Company:          Autodesk, Inc.|WEB Address:      www.autodesk.com"
 90
        0
280
     0
281
     0
  0
ENDSEC
  0
SECTION
  2
TABLES
  0
TABLE
  2
VPORT
  5
8
330
0
100
AcDbSymbolTable
 70
     1
  0
VPORT
  5
29
330
8
100
AcDbSymbolTableRecord
100
AcDbViewportTableRecord
  2
*Active
 70
     0
 10
0.0
 20
0.0
 11
1.0
 21
1.0
 12
27.40375164162326
 22
4.300001067970101
 13
0.0
 23
0.0
 14
10.0
 24
10.0
 15
10.0
 25
10.0
 16
0.0
 26
0.0
 36
1.0
 17
0.0
 27
0.0
 37
0.0
 40
110.714489251835
 41
2.008253094910592
 42
50.0
 43
0.0
 44
0.0
 50
0.0
 51
0.0
 71
    16
 72
  2000
 73
     1
 74
     3
 75
     0
 76
     0
 77
     0
 78
     0
281
     0
 65
     1
110
0.0
120
0.0
130
0.0
111
1.0
121
0.0
131
0.0
112
0.0
122
1.0
132
0.0
 79
     0
146
0.0
  0
ENDTAB
  0
TABLE
  2
LTYPE
  5
5
330
0
100
AcDbSymbolTable
 70
     6
  0
LTYPE
  5
14
330
5
100
AcDbSymbolTableRecord
100
AcDbLinetypeTableRecord
  2
ByBlock
 70
     0
  3

 72
    65
 73
     0
 40
0.0
  0
LTYPE
  5
15
330
5
100
AcDbSymbolTableRecord
100
AcDbLinetypeTableRecord
  2
ByLayer
 70
     0
  3

 72
    65
 73
     0
 40
0.0
  0
LTYPE
  5
16
330
5
100
AcDbSymbolTableRecord
100
AcDbLinetypeTableRecord
  2
Continuous
 70
     0
  3
Solid line
 72
    65
 73
     0
 40
0.0
  0
LTYPE
  5
6A
330
5
100
AcDbSymbolTableRecord
100
AcDbLinetypeTableRecord
  2
HIDDEN
 70
     0
  3
Hidden __ __ __ __ __ __ __ __ __ __ __ __ __ __
 72
    65
 73
     2
 40
1.905
 49
1.27
 74
     0
 49
-0.635
 74
     0
  0
LTYPE
  5
6B
330
5
100
AcDbSymbolTableRecord
100
AcDbLinetypeTableRecord
  2
PHANTOM
 70
     0
  3
Phantom ______  __  __  ______  __  __  ______
 72
    65
 73
     6
 40
12.7
 49
6.35
 74
     0
 49
-1.27
 74
     0
 49
1.27
 74
     0
 49
-1.27
 74
     0
 49
1.27
 74
     0
 49
-1.27
 74
     0
  0
LTYPE
  5
6C
330
5
100
AcDbSymbolTableRecord
100
AcDbLinetypeTableRecord
  2
CENTER
 70
     0
  3
Center ____ _ ____ _ ____ _ ____ _ ____ _ ____
 72
    65
 73
     4
 40
10.16
 49
6.35
 74
     0
 49
-1.27
 74
     0
 49
1.27
 74
     0
 49
-1.27
 74
     0
  0
LTYPE
  5
6D
330
5
100
AcDbSymbolTableRecord
100
AcDbLinetypeTableRecord
  2
CENTERX2
 70
     0
  3
Center (2x) ________  __  ________  __  _____
 72
    65
 73
     4
 40
20.32
 49
12.7
 74
     0
 49
-2.54
 74
     0
 49
2.54
 74
     0
 49
-2.54
 74
     0
  0
LTYPE
  5
6E
330
5
100
AcDbSymbolTableRecord
100
AcDbLinetypeTableRecord
  2
DOT2
 70
     0
  3
Dot (.5x) ........................................
 72
    65
 73
     2
 40
0.635
 49
0.0
 74
     0
 49
-0.635
 74
     0
  0
ENDTAB
  0
TABLE
  2
LAYER
  5
2
330
0
100
AcDbSymbolTable
 70
    18
  0
LAYER
  5
10
330
2
100
AcDbSymbolTableRecord
100
AcDbLayerTableRecord
  2
0
 70
     0
 62
     7
  6
Continuous
370
    -3
390
F
  0
LAYER
  5
6F
330
2
100
AcDbSymbolTableRecord
100
AcDbLayerTableRecord
  2
FORMAT
 70
     0
 62
     2
  6
Continuous
370
    -3
390
F
  0
LAYER
  5
70
330
2
100
AcDbSymbolTableRecord
100
AcDbLayerTableRecord
  2
외형선
 70
     0
 62
     4
  6
Continuous
370
    30
390
F
  0
LAYER
  5
71
330
2
100
AcDbSymbolTableRecord
100
AcDbLayerTableRecord
  2
숨은선
 70
     0
 62
     2
  6
HIDDEN
370
    15
390
F
  0
LAYER
  5
72
330
2
100
AcDbSymbolTableRecord
100
AcDbLayerTableRecord
  2
중심선
 70
     0
 62
     1
  6
CENTERX2
370
    -3
390
F
  0
LAYER
  5
73
330
2
100
AcDbSymbolTableRecord
100
AcDbLayerTableRecord
  2
파단선
 70
     0
 62
     4
  6
Continuous
370
    -3
390
F
  0
LAYER
  5
74
330
2
100
AcDbSymbolTableRecord
100
AcDbLayerTableRecord
  2
해칭선
 70
     0
 62
   100
  6
Continuous
370
    -3
390
F
  0
LAYER
  5
75
330
2
100
AcDbSymbolTableRecord
100
AcDbLayerTableRecord
  2
가는실선
 70
     0
 62
     4
  6
Continuous
370
    -3
390
F
  0
LAYER
  5
76
330
2
100
AcDbSymbolTableRecord
100
AcDbLayerTableRecord
  2
치수_보조선
 70
     0
 62
     4
  6
Continuous
370
    -3
390
F
  0
LAYER
  5
77
330
2
100
AcDbSymbolTableRecord
100
AcDbLayerTableRecord
  2
치수문자_일반주서
 70
     0
 62
     7
  6
Continuous
370
    15
390
F
  0
LAYER
  5
78
330
2
100
AcDbSymbolTableRecord
100
AcDbLayerTableRecord
  2
개별주서
 70
     0
 62
   100
  6
Continuous
370
    30
390
F
  0
LAYER
  5
79
330
2
100
AcDbSymbolTableRecord
100
AcDbLayerTableRecord
  2
중간선
 70
     0
 62
     2
  6
Continuous
370
    15
390
F
  0
LAYER
  5
7A
330
2
100
AcDbSymbolTableRecord
100
AcDbLayerTableRecord
  2
윤곽선
 70
     0
 62
     3
  6
Continuous
370
    40
390
F
  0
LAYER
  5
7B
330
2
100
AcDbSymbolTableRecord
100
AcDbLayerTableRecord
  2
중심마크
 70
     0
 62
   100
  6
Continuous
370
    30
390
F
  0
LAYER
  5
7C
330
2
100
AcDbSymbolTableRecord
100
AcDbLayerTableRecord
  2
가상선
 70
     0
 62
     4
  6
PHANTOM
370
    -3
390
F
  0
LAYER
  5
7D
330
2
100
AcDbSymbolTableRecord
100
AcDbLayerTableRecord
  2
특수지정선
 70
     0
 62
     5
  6
CENTERX2
370
    60
390
F
  0
LAYER
  5
7E
330
2
100
AcDbSymbolTableRecord
100
AcDbLayerTableRecord
  2
참조1
 70
     0
 62
    -4
  6
Continuous
370
    -3
390
F
  0
LAYER
  5
1A7
330
2
100
AcDbSymbolTableRecord
100
AcDbLayerTableRecord
  2
Defpoints
 70
     0
 62
     7
  6
Continuous
290
     0
370
    -3
390
F
  0
ENDTAB
  0
TABLE
  2
STYLE
  5
3
330
0
100
AcDbSymbolTable
 70
     2
  0
STYLE
  5
11
330
3
100
AcDbSymbolTableRecord
100
AcDbTextStyleTableRecord
  2
Standard
 70
     0
 40
0.0
 41
1.0
 50
0.0
 71
     0
 42
3.5
  3
txt
  4

  0
STYLE
  5
94
330
3
100
AcDbSymbolTableRecord
100
AcDbTextStyleTableRecord
  2
SLDTEXTSTYLE0
 70
     0
 40
0.0
 41
0.75
 50
0.0
 71
     0
 42
3.5
  3
TXT
  4

  0
ENDTAB
  0
TABLE
  2
VIEW
  5
6
330
0
100
AcDbSymbolTable
 70
     0
  0
ENDTAB
  0
TABLE
  2
UCS
  5
7
330
0
100
AcDbSymbolTable
 70
     0
  0
ENDTAB
  0
TABLE
  2
APPID
  5
9
330
0
100
AcDbSymbolTable
 70
     2
  0
APPID
  5
12
330
9
100
AcDbSymbolTableRecord
100
AcDbRegAppTableRecord
  2
ACAD
 70
     0
  0
APPID
  5
1AF
330
9
100
AcDbSymbolTableRecord
100
AcDbRegAppTableRecord
  2
PE_URL
 70
     0
  0
ENDTAB
  0
TABLE
  2
DIMSTYLE
  5
A
330
0
100
AcDbSymbolTable
 70
     5
100
AcDbDimStyleTable
  0
DIMSTYLE
105
27
330
A
100
AcDbSymbolTableRecord
100
AcDbDimStyleTableRecord
  2
ISO-25
 70
     0
 41
2.5
 42
0.625
 43
3.75
 44
1.25
 73
     0
 74
     0
 77
     1
 78
     8
140
2.5
141
2.5
143
0.03937007874016
147
0.625
171
     3
172
     1
178
     0
271
     2
272
     2
274
     3
278
    44
283
     0
284
     8
340
11
  0
DIMSTYLE
105
122
330
A
100
AcDbSymbolTableRecord
100
AcDbDimStyleTableRecord
  2
SLDDIMSTYLE0
 70
     0
 41
3.302
 44
0.0
 45
0.000000001
 73
     0
 74
     0
 77
     1
 78
     8
 79
     2
140
3.5
143
0.0393700787401575
147
0.875
148
0.000000001
170
     1
172
     1
173
     1
178
     0
271
     2
272
     2
276
     2
284
    12
289
     0
340
94
341
123
343
123
344
123
  0
DIMSTYLE
105
133
330
A
100
AcDbSymbolTableRecord
100
AcDbDimStyleTableRecord
  2
SLDDIMSTYLE1
 70
     0
 41
3.302
 44
0.0
 45
0.000000001
 73
     0
 74
     0
 77
     1
 78
    12
 79
     3
140
3.5
143
0.0393700787401575
147
0.875
148
0.000000001
170
     1
173
     1
178
     0
271
     2
272
     2
276
     2
284
    12
340
94
  0
DIMSTYLE
105
147
330
A
100
AcDbSymbolTableRecord
100
AcDbDimStyleTableRecord
  2
SLDDIMSTYLE2
 70
     0
 41
3.302
 44
0.0
 45
0.000000001
 73
     0
 74
     0
 77
     1
 78
     4
 79
     1
140
3.5
143
0.0393700787401575
147
0.875
148
0.000000001
170
     1
173
     1
178
     0
271
     2
272
     2
276
     2
284
    12
340
94
  0
DIMSTYLE
105
15B
102
{ACAD_REACTORS
330
15A
330
132
330
146
330
1F7
102
}
330
A
100
AcDbSymbolTableRecord
100
AcDbDimStyleTableRecord
  2
SLDDIMSTYLE3
 70
     0
 41
3.302
 44
0.0
 45
0.000000001
 73
     0
 74
     0
 77
     1
 78
    12
 79
     3
140
3.5
143
0.0393700787401575
147
0.875
148
0.000000001
170
     1
172
     1
173
     1
178
     0
271
     2
272
     2
276
     2
284
    12
289
     0
340
94
  0
ENDTAB
  0
TABLE
  2
BLOCK_RECORD
  5
1
330
0
100
AcDbSymbolTable
 70
    11
  0
BLOCK_RECORD
  5
1F
102
{ACAD_XDICTIONARY
360
22C
102
}
330
1
100
AcDbSymbolTableRecord
100
AcDbBlockTableRecord
  2
*Model_Space
340
22
  0
BLOCK_RECORD
  5
1B
330
1
100
AcDbSymbolTableRecord
100
AcDbBlockTableRecord
  2
*Paper_Space
340
1E
  0
BLOCK_RECORD
  5
23
330
1
100
AcDbSymbolTableRecord
100
AcDbBlockTableRecord
  2
*Paper_Space0
340
26
  0
BLOCK_RECORD
  5
7F
330
1
100
AcDbSymbolTableRecord
100
AcDbBlockTableRecord
  2
블럭10
340
0
102
{BLKREFS
331
11A
102
}
  0
BLOCK_RECORD
  5
123
330
1
100
AcDbSymbolTableRecord
100
AcDbBlockTableRecord
  2
_NONE
340
0
  0
BLOCK_RECORD
  5
126
330
1
100
AcDbSymbolTableRecord
100
AcDbBlockTableRecord
  2
_D
340
0
  0
BLOCK_RECORD
  5
134
330
1
100
AcDbSymbolTableRecord
100
AcDbBlockTableRecord
  2
_D_1
340
0
  0
BLOCK_RECORD
  5
148
330
1
100
AcDbSymbolTableRecord
100
AcDbBlockTableRecord
  2
_D_2
340
0
  0
BLOCK_RECORD
  5
15C
330
1
100
AcDbSymbolTableRecord
100
AcDbBlockTableRecord
  2
_D_3
340
0
  0
BLOCK_RECORD
  5
176
330
1
100
AcDbSymbolTableRecord
100
AcDbBlockTableRecord
  2
SW_DOWELSYMBOL_0
340
0
102
{BLKREFS
331
17C
102
}
  0
BLOCK_RECORD
  5
1D2
330
1
100
AcDbSymbolTableRecord
100
AcDbBlockTableRecord
  2
*D8
340
0
  0
BLOCK_RECORD
  5
1E8
330
1
100
AcDbSymbolTableRecord
100
AcDbBlockTableRecord
  2
*D9
340
0
  0
BLOCK_RECORD
  5
1FA
330
1
100
AcDbSymbolTableRecord
100
AcDbBlockTableRecord
  2
*D10
340
0
  0
ENDTAB
  0
ENDSEC
  0
SECTION
  2
BLOCKS
  0
BLOCK
  5
20
330
1F
100
AcDbEntity
  8
0
100
AcDbBlockBegin
  2
*Model_Space
 70
     0
 10
0.0
 20
0.0
 30
0.0
  3
*Model_Space
  1

  0
ENDBLK
  5
21
330
1F
100
AcDbEntity
  8
0
100
AcDbBlockEnd
  0
BLOCK
  5
1C
330
1B
100
AcDbEntity
 67
     1
  8
0
100
AcDbBlockBegin
  2
*Paper_Space
 70
     0
 10
0.0
 20
0.0
 30
0.0
  3
*Paper_Space
  1

  0
ENDBLK
  5
1D
330
1B
100
AcDbEntity
 67
     1
  8
0
100
AcDbBlockEnd
  0
BLOCK
  5
24
330
23
100
AcDbEntity
  8
0
100
AcDbBlockBegin
  2
*Paper_Space0
 70
     0
 10
0.0
 20
0.0
 30
0.0
  3
*Paper_Space0
  1

  0
ENDBLK
  5
25
330
23
100
AcDbEntity
  8
0
100
AcDbBlockEnd
  0
BLOCK
  5
80
330
7F
100
AcDbEntity
  8
0
100
AcDbBlockBegin
  2
블럭10
 70
     2
 10
0.0
 20
0.0
 30
0.0
  3
블럭10
  1

  0
ELLIPSE
  5
82
330
7F
100
AcDbEntity
  8
중심선
100
AcDbEllipse
 10
20.54032771741204
 20
12.0471743016438
 30
0.0
 11
6.600054785286829
 21
-1.261213355974178E-13
 31
0.0
210
0.0
220
0.0
230
1.0
 40
0.636358354079598
 41
0.9219305317359503
 42
6.513795318482858
  0
ELLIPSE
  5
83
330
7F
100
AcDbEntity
  8
중심선
100
AcDbEllipse
 10
20.54032771746488
 20
12.04717430159265
 30
0.0
 11
3.960054785062283
 21
1.540847449632565E-10
 31
0.0
210
0.0
220
0.0
230
1.0
 40
0.3939339440162632
 41
1.131841032648279
 42
5.62031148352944
  0
LINE
  5
84
330
7F
100
AcDbEntity
  8
중심선
100
AcDbLine
 10
2.268634060543552
 20
16.24717430164393
 30
0.0
 11
5.714909304380834
 21
16.24717430164393
 31
0.0
  0
LINE
  5
85
330
7F
100
AcDbEntity
  8
중심선
100
AcDbLine
 10
5.245725140726316
 20
7.84717430164391
 30
0.0
 11
8.692000384563599
 21
7.84717430164391
 31
0.0
  0
LINE
  5
86
330
7F
100
AcDbEntity
  8
중심선
100
AcDbLine
 10
15.74043728645272
 20
16.24717430164393
 30
0.0
 11
8.692000384563599
 21
7.84717430164391
 31
0.0
  0
LINE
  5
87
330
7F
100
AcDbEntity
  8
중심선
100
AcDbLine
 10
0.1404042013395286
 20
13.71084872107135
 30
0.0
 11
3.58671253028996
 21
13.71088815037384
 31
0.0
  0
LINE
  5
88
330
7F
100
AcDbEntity
  8
중심선
100
AcDbLine
 10
2.750260043222114
 20
10.84717430164391
 30
0.0
 11
6.196535287059397
 21
10.84717430164391
 31
0.0
  0
LINE
  5
89
330
7F
100
AcDbEntity
  8
중심선
100
AcDbLine
 10
12.29416204261559
 20
16.24717430164393
 30
0.0
 11
5.245725140726316
 21
7.84717430164391
 31
0.0
  0
LINE
  5
8A
330
7F
100
AcDbEntity
  8
중심선
100
AcDbLine
 10
10.72767329541681
 20
16.24717430164393
 30
0.0
 11
6.196535287059397
 21
10.84717430164391
 31
0.0
  0
LINE
  5
8B
330
7F
100
AcDbEntity
  8
중심선
100
AcDbLine
 10
7.28139805157953
 20
16.24717430164393
 30
0.0
 11
2.750260043222114
 21
10.84717430164391
 31
0.0
  0
LINE
  5
8C
330
7F
100
AcDbEntity
  8
중심선
100
AcDbLine
 10
5.714909304380834
 20
16.24717430164393
 30
0.0
 11
3.58671253028996
 21
13.71088815037384
 31
0.0
  0
LINE
  5
8D
330
7F
100
AcDbEntity
  8
중심선
100
AcDbLine
 10
2.268634060543552
 20
16.24717430164393
 30
0.0
 11
0.1404042013395286
 21
13.71084872107135
 31
0.0
  0
LINE
  5
8E
330
7F
100
AcDbEntity
  8
중심선
100
AcDbLine
 10
7.28139805157953
 20
16.24717430164393
 30
0.0
 11
10.72767329541681
 21
16.24717430164393
 31
0.0
  0
LINE
  5
8F
330
7F
100
AcDbEntity
  8
중심선
100
AcDbLine
 10
12.29416204261559
 20
16.24717430164393
 30
0.0
 11
15.74043728645272
 21
16.24717430164393
 31
0.0
  0
LINE
  5
90
330
7F
100
AcDbEntity
  8
중심선
100
AcDbLine
 10
19.22036997980202
 20
11.08717430171403
 30
0.0
 11
23.66174974927406
 21
11.08717430171406
 31
0.0
  0
LINE
  5
91
330
7F
100
AcDbEntity
  8
중심선
100
AcDbLine
 10
19.22039502424796
 20
13.00717430171391
 30
0.0
 11
19.22036997980202
 21
11.08717430171403
 31
0.0
  0
LINE
  5
92
330
7F
100
AcDbEntity
  8
중심선
100
AcDbLine
 10
19.22039502424796
 20
13.00717430171391
 30
0.0
 11
26.96566020931264
 21
13.00717430171391
 31
0.0
  0
LINE
  5
93
330
7F
100
AcDbEntity
  8
중심선
100
AcDbLine
 10
22.22332737316547
 20
13.45928029700563
 30
0.0
 11
24.52862924686651
 21
15.39360700705356
 31
0.0
  0
ATTDEF
  5
95
330
7F
100
AcDbEntity
  8
FORMAT
 62
     2
100
AcDbText
 10
3.448148490846466
 20
2.075366912832191
 30
0.0
 40
4.233333333333333
  1
EM218902
 41
0.75
  7
SLDTEXTSTYLE0
 11
3.448148490846466
 21
-0.0412997538344756
 31
0.0
100
AcDbAttributeDefinition
  3

  2
AUTOATTR0
 70
     0
 74
     1
  0
ENDBLK
  5
81
330
7F
100
AcDbEntity
  8
0
100
AcDbBlockEnd
  0
BLOCK
  5
124
330
123
100
AcDbEntity
  8
0
100
AcDbBlockBegin
  2
_NONE
 70
     0
 10
0.0
 20
0.0
 30
0.0
  3
_NONE
  1

  0
ENDBLK
  5
125
330
123
100
AcDbEntity
  8
0
100
AcDbBlockEnd
  0
BLOCK
  5
127
330
126
100
AcDbEntity
  8
0
100
AcDbBlockBegin
  2
_D
 70
     0
 10
0.0
 20
0.0
 30
0.0
  3
_D
  1

  0
LINE
  5
129
330
126
100
AcDbEntity
  8
치수문자_일반주서
100
AcDbLine
 10
99.40844825851455
 20
4.111708497655283
 30
0.0
 11
99.40844825851455
 21
3.400771012090784
 31
0.0
  0
LINE
  5
12A
330
126
100
AcDbEntity
  8
치수문자_일반주서
100
AcDbLine
 10
99.40844825851455
 20
3.400771012090784
 30
0.0
 11
104.9646982495739
 21
3.400771012090783
 31
0.0
  0
LINE
  5
12B
330
126
100
AcDbEntity
  8
치수문자_일반주서
100
AcDbLine
 10
104.9646982495739
 20
3.400771012090783
 30
0.0
 11
104.9646982495739
 21
4.111708497655283
 31
0.0
  0
LINE
  5
12C
330
126
100
AcDbEntity
  8
치수문자_일반주서
100
AcDbLine
 10
99.40844825851455
 20
14.94044135979254
 30
0.0
 11
99.40844825851455
 21
15.65137884535704
 31
0.0
  0
LINE
  5
12D
330
126
100
AcDbEntity
  8
치수문자_일반주서
100
AcDbLine
 10
99.40844825851455
 20
15.65137884535704
 30
0.0
 11
104.9646982495739
 21
15.65137884535704
 31
0.0
  0
LINE
  5
12E
330
126
100
AcDbEntity
  8
치수문자_일반주서
100
AcDbLine
 10
104.9646982495739
 20
15.65137884535704
 30
0.0
 11
104.9646982495739
 21
14.94044135979254
 31
0.0
  0
MTEXT
  5
12F
330
126
100
AcDbEntity
  8
치수문자_일반주서
100
AcDbMText
 10
100.452961334995
 20
5.000380398266654
 30
0.0
 40
3.5
 41
0.0
 71
     1
 72
     1
  1
0.00
  7
SLDTEXTSTYLE0
 11
6.123233995736766E-17
 21
1.0
 31
0.0
 73
     1
 44
1.0
  0
MTEXT
  5
130
330
126
100
AcDbEntity
  8
치수문자_일반주서
100
AcDbMText
 10
105.6895928853554
 20
5.593800516360145
 30
0.0
 40
3.5
 41
0.0
 71
     1
 72
     1
  1
%%c
  7
SLDTEXTSTYLE0
 11
6.123233995736766E-17
 21
1.0
 31
0.0
 73
     1
 44
1.0
  0
MTEXT
  5
131
330
126
100
AcDbEntity
  8
치수문자_일반주서
100
AcDbMText
 10
105.6895928853554
 20
10.87223791473423
 30
0.0
 40
3.5
 41
0.0
 71
     1
 72
     1
  1
0
  7
SLDTEXTSTYLE0
 11
6.123233995736766E-17
 21
1.0
 31
0.0
 73
     1
 44
1.0
  0
ENDBLK
  5
128
330
126
100
AcDbEntity
  8
0
100
AcDbBlockEnd
  0
BLOCK
  5
135
330
134
100
AcDbEntity
  8
0
100
AcDbBlockBegin
  2
_D_1
 70
     0
 10
0.0
 20
0.0
 30
0.0
  3
_D_1
  1

  0
LINE
  5
137
330
134
100
AcDbEntity
  8
치수문자_일반주서
 62
     0
370
    -2
100
AcDbLine
 10
116.775
 20
9.587500000000013
 30
0.0
 11
116.775
 21
31.89215476237598
 31
0.0
  0
LINE
  5
138
330
134
100
AcDbEntity
  8
치수문자_일반주서
 62
     0
370
    -2
100
AcDbLine
 10
11.99999999999999
 20
9.587500000000002
 30
0.0
 11
11.99999999999999
 21
31.89215476237598
 31
0.0
  0
LINE
  5
139
330
134
100
AcDbEntity
  8
치수문자_일반주서
 62
     0
370
    -2
100
AcDbLine
 10
113.473
 20
31.89215476237598
 30
0.0
 11
15.30199999999999
 21
31.89215476237598
 31
0.0
  0
SOLID
  5
13A
330
134
100
AcDbEntity
  8
치수문자_일반주서
 62
     0
100
AcDbTrace
 10
113.473
 20
31.34182142904265
 30
0.0
 11
113.473
 21
32.44248809570932
 31
0.0
 12
116.775
 22
31.89215476237598
 32
0.0
 13
116.775
 23
31.89215476237598
 33
0.0
  0
SOLID
  5
13B
330
134
100
AcDbEntity
  8
치수문자_일반주서
 62
     0
100
AcDbTrace
 10
15.30199999999999
 20
32.44248809570932
 30
0.0
 11
15.30199999999999
 21
31.34182142904265
 31
0.0
 12
11.99999999999999
 22
31.89215476237598
 32
0.0
 13
11.99999999999999
 23
31.89215476237598
 33
0.0
  0
MTEXT
  5
13C
330
134
100
AcDbEntity
  8
치수문자_일반주서
 62
     0
100
AcDbMText
 10
64.38749999999999
 20
36.26715476237598
 30
0.0
 40
3.5
 41
0.0
 71
     2
 72
     1
  1
\A1;104.78 [4 1/8]
  7
SLDTEXTSTYLE0
 73
     1
 44
1.0
  0
POINT
  5
13D
330
134
100
AcDbEntity
  8
Defpoints
 62
     0
100
AcDbPoint
 10
116.775
 20
9.525000000000013
 30
0.0
  0
POINT
  5
13E
330
134
100
AcDbEntity
  8
Defpoints
 62
     0
100
AcDbPoint
 10
11.99999999999999
 20
9.525000000000002
 30
0.0
  0
POINT
  5
13F
330
134
100
AcDbEntity
  8
Defpoints
 62
     0
100
AcDbPoint
 10
11.99999999999999
 20
31.89215476237598
 30
0.0
  0
ENDBLK
  5
136
330
134
100
AcDbEntity
  8
0
100
AcDbBlockEnd
  0
BLOCK
  5
149
330
148
100
AcDbEntity
  8
0
100
AcDbBlockBegin
  2
_D_2
 70
     0
 10
0.0
 20
0.0
 30
0.0
  3
_D_2
  1

  0
LINE
  5
14B
330
148
100
AcDbEntity
  8
치수문자_일반주서
 62
     0
370
    -2
100
AcDbLine
 10
116.775
 20
9.587500000000013
 30
0.0
 11
116.775
 21
54.19680952475196
 31
0.0
  0
LINE
  5
14C
330
148
100
AcDbEntity
  8
치수문자_일반주서
 62
     0
370
    -2
100
AcDbLine
 10
-61.02500000000002
 20
7.682500000000009
 30
0.0
 11
-61.02500000000003
 21
54.19680952475196
 31
0.0
  0
LINE
  5
14D
330
148
100
AcDbEntity
  8
치수문자_일반주서
 62
     0
370
    -2
100
AcDbLine
 10
113.473
 20
54.19680952475196
 30
0.0
 11
-57.72300000000003
 21
54.19680952475196
 31
0.0
  0
SOLID
  5
14E
330
148
100
AcDbEntity
  8
치수문자_일반주서
 62
     0
100
AcDbTrace
 10
113.473
 20
53.64647619141862
 30
0.0
 11
113.473
 21
54.74714285808529
 31
0.0
 12
116.775
 22
54.19680952475196
 32
0.0
 13
116.775
 23
54.19680952475196
 33
0.0
  0
SOLID
  5
14F
330
148
100
AcDbEntity
  8
치수문자_일반주서
 62
     0
100
AcDbTrace
 10
-57.72300000000003
 20
54.74714285808529
 30
0.0
 11
-57.72300000000003
 21
53.64647619141862
 31
0.0
 12
-61.02500000000003
 22
54.19680952475196
 32
0.0
 13
-61.02500000000003
 23
54.19680952475196
 33
0.0
  0
MTEXT
  5
150
330
148
100
AcDbEntity
  8
치수문자_일반주서
 62
     0
100
AcDbMText
 10
27.87499999999999
 20
58.57180952475196
 30
0.0
 40
3.5
 41
0.0
 71
     2
 72
     1
  1
\A1;177.8 [7]
  7
SLDTEXTSTYLE0
 73
     1
 44
1.0
  0
POINT
  5
151
330
148
100
AcDbEntity
  8
Defpoints
 62
     0
100
AcDbPoint
 10
116.775
 20
9.525000000000013
 30
0.0
  0
POINT
  5
152
330
148
100
AcDbEntity
  8
Defpoints
 62
     0
100
AcDbPoint
 10
-61.02500000000002
 20
7.620000000000009
 30
0.0
  0
POINT
  5
153
330
148
100
AcDbEntity
  8
Defpoints
 62
     0
100
AcDbPoint
 10
-61.02500000000002
 20
54.19680952475196
 30
0.0
  0
ENDBLK
  5
14A
330
148
100
AcDbEntity
  8
0
100
AcDbBlockEnd
  0
BLOCK
  5
15D
330
15C
100
AcDbEntity
  8
0
100
AcDbBlockBegin
  2
_D_3
 70
     0
 10
0.0
 20
0.0
 30
0.0
  3
_D_3
  1

  0
LINE
  5
15F
330
15C
100
AcDbEntity
  8
치수문자_일반주서
 62
     0
370
    -2
100
AcDbLine
 10
-59.18250000000003
 20
9.52500000000001
 30
0.0
 11
-74.02500000000006
 21
9.524999999999954
 31
0.0
  0
LINE
  5
160
330
15C
100
AcDbEntity
  8
치수문자_일반주서
 62
     0
370
    -2
100
AcDbLine
 10
-59.18250000000003
 20
-9.525000000000002
 30
0.0
 11
-74.02499999999999
 21
-9.525000000000057
 31
0.0
  0
LINE
  5
161
330
15C
100
AcDbEntity
  8
치수문자_일반주서
 62
     0
370
    -2
100
AcDbLine
 10
-74.02500000000005
 20
6.222999999999955
 30
0.0
 11
-74.025
 21
-6.223000000000058
 31
0.0
  0
SOLID
  5
162
330
15C
100
AcDbEntity
  8
치수문자_일반주서
 62
     0
100
AcDbTrace
 10
-73.47466666666672
 20
6.222999999999956
 30
0.0
 11
-74.57533333333338
 21
6.222999999999953
 31
0.0
 12
-74.02500000000006
 22
9.524999999999954
 32
0.0
 13
-74.02500000000006
 23
9.524999999999954
 33
0.0
  0
SOLID
  5
163
330
15C
100
AcDbEntity
  8
치수문자_일반주서
 62
     0
100
AcDbTrace
 10
-74.57533333333333
 20
-6.223000000000059
 30
0.0
 11
-73.47466666666668
 21
-6.223000000000056
 31
0.0
 12
-74.02499999999999
 22
-9.525000000000057
 32
0.0
 13
-74.02499999999999
 23
-9.525000000000057
 33
0.0
  0
MTEXT
  5
164
330
15C
100
AcDbEntity
  8
치수문자_일반주서
 62
     0
100
AcDbMText
 10
-78.40000000000003
 20
-0.0000000000000063
 30
0.0
 40
3.5
 41
0.0
 71
     2
 72
     1
  1
\A1;%%c19.05 [3/4]
  7
SLDTEXTSTYLE0
 11
-3.729883127349605E-15
 21
1.0
 31
0.0
 73
     1
 44
1.0
  0
POINT
  5
165
330
15C
100
AcDbEntity
  8
Defpoints
 62
     0
100
AcDbPoint
 10
-59.12000000000003
 20
9.52500000000001
 30
0.0
  0
POINT
  5
166
330
15C
100
AcDbEntity
  8
Defpoints
 62
     0
100
AcDbPoint
 10
-59.12000000000003
 20
-9.525000000000002
 30
0.0
  0
POINT
  5
167
330
15C
100
AcDbEntity
  8
Defpoints
 62
     0
100
AcDbPoint
 10
-74.025
 20
-9.525000000000057
 30
0.0
  0
ENDBLK
  5
15E
330
15C
100
AcDbEntity
  8
0
100
AcDbBlockEnd
  0
BLOCK
  5
177
330
176
100
AcDbEntity
  8
0
100
AcDbBlockBegin
  2
SW_DOWELSYMBOL_0
 70
     0
 10
0.0
 20
0.0
 30
0.0
  3
SW_DOWELSYMBOL_0
  1

  0
CIRCLE
  5
179
330
176
100
AcDbEntity
  8
해칭선
 62
     0
100
AcDbCircle
 10
0.0
 20
0.0
 30
0.0
 40
3.000000000000001
  0
HATCH
  5
17A
330
176
100
AcDbEntity
  8
0
  6
Continuous
 62
     0
370
     0
100
AcDbHatch
 10
0.0
 20
0.0
 30
0.0
210
0.0
220
0.0
230
1.0
  2
SOLID
 70
     1
 71
     0
 91
        1
 92
        0
 93
        3
 72
     2
 10
0.0
 20
0.0
 40
3.000000000000001
 50
0.0
 51
90.0
 73
     1
 72
     1
 10
0.0
 20
3.000000000000001
 11
0.0
 21
0.0
 72
     1
 10
0.0
 20
0.0
 11
3.000000000000001
 21
0.0
 97
        0
 75
     0
 76
     1
 98
        1
 10
0.0
 20
0.0
  0
HATCH
  5
17B
330
176
100
AcDbEntity
  8
0
  6
Continuous
 62
     0
370
     0
100
AcDbHatch
 10
0.0
 20
0.0
 30
0.0
210
0.0
220
0.0
230
1.0
  2
SOLID
 70
     1
 71
     0
 91
        1
 92
        0
 93
        3
 72
     2
 10
0.0
 20
0.0
 40
3.000000000000001
 50
180.0
 51
270.0000000000007
 73
     1
 72
     1
 10
0.0
 20
-3.000000000000001
 11
0.0
 21
0.0
 72
     1
 10
0.0
 20
0.0
 11
-3.000000000000001
 21
0.0
 97
        0
 75
     0
 76
     1
 98
        1
 10
0.0
 20
0.0
  0
ENDBLK
  5
178
330
176
100
AcDbEntity
  8
0
100
AcDbBlockEnd
  0
BLOCK
  5
1D3
330
1D2
100
AcDbEntity
  8
0
100
AcDbBlockBegin
  2
*D8
 70
     1
 10
0.0
 20
0.0
 30
0.0
  3
*D8
  1

  0
LINE
  5
1D4
330
1D2
100
AcDbEntity
  8
치수문자_일반주서
 62
     0
370
    -2
100
AcDbLine
 10
0.0625
 20
25.654
 30
0.0
 11
21.20492637264471
 21
25.654
 31
0.0
  0
LINE
  5
1D5
330
1D2
100
AcDbEntity
  8
치수문자_일반주서
 62
     0
370
    -2
100
AcDbLine
 10
0.0625
 20
6.603999999999999
 30
0.0
 11
21.20492637264471
 21
6.603999999999999
 31
0.0
  0
LINE
  5
1D6
330
1D2
100
AcDbEntity
  8
치수문자_일반주서
 62
     0
370
    -2
100
AcDbLine
 10
21.20492637264471
 20
25.654
 30
0.0
 11
21.20492637264471
 21
59.8205
 31
0.0
  0
LINE
  5
1D7
330
1D2
100
AcDbEntity
  8
치수문자_일반주서
 62
     0
370
    -2
100
AcDbLine
 10
21.20492637264471
 20
25.654
 30
0.0
 11
21.20492637264471
 21
6.603999999999999
 31
0.0
  0
LINE
  5
1D8
330
1D2
100
AcDbEntity
  8
치수문자_일반주서
 62
     0
370
    -2
100
AcDbLine
 10
21.20492637264471
 20
28.956
 30
0.0
 11
21.20492637264471
 21
32.258
 31
0.0
  0
LINE
  5
1D9
330
1D2
100
AcDbEntity
  8
치수문자_일반주서
 62
     0
370
    -2
100
AcDbLine
 10
21.20492637264471
 20
3.302
 30
0.0
 11
21.20492637264471
 21
0.0
 31
0.0
  0
SOLID
  5
1DA
330
1D2
100
AcDbEntity
  8
치수문자_일반주서
 62
     0
100
AcDbTrace
 10
20.65459303931137
 20
28.956
 30
0.0
 11
21.75525970597804
 21
28.956
 31
0.0
 12
21.20492637264471
 22
25.654
 32
0.0
 13
21.20492637264471
 23
25.654
 33
0.0
  0
SOLID
  5
1DB
330
1D2
100
AcDbEntity
  8
치수문자_일반주서
 62
     0
100
AcDbTrace
 10
21.75525970597804
 20
3.302
 30
0.0
 11
20.65459303931137
 21
3.302
 31
0.0
 12
21.20492637264471
 22
6.603999999999999
 32
0.0
 13
21.20492637264471
 23
6.603999999999999
 33
0.0
  0
MTEXT
  5
1DC
330
1D2
100
AcDbEntity
  8
치수문자_일반주서
 62
     0
100
AcDbMText
 10
18.57992637264471
 20
46.03925
 30
0.0
 40
3.5
 41
0.0
 71
     5
 72
     1
  1
\A1;%%C19.05 [3/4]
  7
SLDTEXTSTYLE0
 11
0.0
 21
1.0
 31
0.0
 73
     1
 44
1.0
  0
POINT
  5
1DD
330
1D2
100
AcDbEntity
  8
Defpoints
 62
     0
100
AcDbPoint
 10
0.0
 20
25.654
 30
0.0
  0
POINT
  5
1DE
330
1D2
100
AcDbEntity
  8
Defpoints
 62
     0
100
AcDbPoint
 10
0.0
 20
6.603999999999999
 30
0.0
  0
POINT
  5
1DF
330
1D2
100
AcDbEntity
  8
Defpoints
 62
     0
100
AcDbPoint
 10
21.20492637264471
 20
6.603999999999998
 30
0.0
  0
ENDBLK
  5
1E0
330
1D2
100
AcDbEntity
  8
0
100
AcDbBlockEnd
  0
BLOCK
  5
1E9
330
1E8
100
AcDbEntity
  8
0
100
AcDbBlockBegin
  2
*D9
 70
     1
 10
0.0
 20
0.0
 30
0.0
  3
*D9
  1

  0
LINE
  5
1EB
330
1E8
100
AcDbEntity
  8
치수문자_일반주서
 62
     0
370
    -2
100
AcDbLine
 10
133.7977088362873
 20
7.05474632760928
 30
0.0
 11
154.940135208932
 21
7.05474632760928
 31
0.0
  0
LINE
  5
1EC
330
1E8
100
AcDbEntity
  8
치수문자_일반주서
 62
     0
370
    -2
100
AcDbLine
 10
133.7977088362873
 20
-11.99525367239072
 30
0.0
 11
154.940135208932
 21
-11.99525367239072
 31
0.0
  0
LINE
  5
1ED
330
1E8
100
AcDbEntity
  8
치수문자_일반주서
 62
     0
370
    -2
100
AcDbLine
 10
154.940135208932
 20
7.05474632760928
 30
0.0
 11
154.940135208932
 21
41.22124632760928
 31
0.0
  0
LINE
  5
1EE
330
1E8
100
AcDbEntity
  8
치수문자_일반주서
 62
     0
370
    -2
100
AcDbLine
 10
154.940135208932
 20
7.05474632760928
 30
0.0
 11
154.940135208932
 21
-11.99525367239072
 31
0.0
  0
LINE
  5
1EF
330
1E8
100
AcDbEntity
  8
치수문자_일반주서
 62
     0
370
    -2
100
AcDbLine
 10
154.940135208932
 20
10.35674632760928
 30
0.0
 11
154.940135208932
 21
13.65874632760928
 31
0.0
  0
LINE
  5
1F0
330
1E8
100
AcDbEntity
  8
치수문자_일반주서
 62
     0
370
    -2
100
AcDbLine
 10
154.940135208932
 20
-15.29725367239072
 30
0.0
 11
154.940135208932
 21
-18.59925367239072
 31
0.0
  0
SOLID
  5
1F1
330
1E8
100
AcDbEntity
  8
치수문자_일반주서
 62
     0
100
AcDbTrace
 10
154.3898018755987
 20
10.35674632760928
 30
0.0
 11
155.4904685422653
 21
10.35674632760928
 31
0.0
 12
154.940135208932
 22
7.05474632760928
 32
0.0
 13
154.940135208932
 23
7.05474632760928
 33
0.0
  0
SOLID
  5
1F2
330
1E8
100
AcDbEntity
  8
치수문자_일반주서
 62
     0
100
AcDbTrace
 10
155.4904685422653
 20
-15.29725367239072
 30
0.0
 11
154.3898018755987
 21
-15.29725367239072
 31
0.0
 12
154.940135208932
 22
-11.99525367239072
 32
0.0
 13
154.940135208932
 23
-11.99525367239072
 33
0.0
  0
MTEXT
  5
1F3
330
1E8
100
AcDbEntity
  8
치수문자_일반주서
 62
     0
100
AcDbMText
 10
152.315135208932
 20
27.43999632760928
 30
0.0
 40
3.5
 41
0.0
 71
     5
 72
     1
  1
\A1;%%C19.05 [3/4]
  7
SLDTEXTSTYLE0
 11
0.0
 21
1.0
 31
0.0
 73
     1
 44
1.0
  0
POINT
  5
1F4
330
1E8
100
AcDbEntity
  8
Defpoints
 62
     0
100
AcDbPoint
 10
133.7352088362873
 20
7.05474632760928
 30
0.0
  0
POINT
  5
1F5
330
1E8
100
AcDbEntity
  8
Defpoints
 62
     0
100
AcDbPoint
 10
133.7352088362873
 20
-11.99525367239072
 30
0.0
  0
POINT
  5
1F6
330
1E8
100
AcDbEntity
  8
Defpoints
 62
     0
100
AcDbPoint
 10
154.940135208932
 20
-11.99525367239073
 30
0.0
  0
ENDBLK
  5
1EA
330
1E8
100
AcDbEntity
  8
0
100
AcDbBlockEnd
  0
BLOCK
  5
1FB
330
1FA
100
AcDbEntity
  8
0
100
AcDbBlockBegin
  2
*D10
 70
     1
 10
0.0
 20
0.0
 30
0.0
  3
*D10
  1

  0
LINE
  5
1FD
330
1FA
100
AcDbEntity
  8
치수문자_일반주서
 62
     0
370
    -2
100
AcDbLine
 10
116.8375
 20
9.52500000000001
 30
0.0
 11
132.6571699499133
 21
9.52500000000001
 31
0.0
  0
LINE
  5
1FE
330
1FA
100
AcDbEntity
  8
치수문자_일반주서
 62
     0
370
    -2
100
AcDbLine
 10
116.8375
 20
-9.525000000000002
 30
0.0
 11
132.6571699499133
 21
-9.525000000000002
 31
0.0
  0
LINE
  5
1FF
330
1FA
100
AcDbEntity
  8
치수문자_일반주서
 62
     0
370
    -2
100
AcDbLine
 10
132.6571699499133
 20
9.52500000000001
 30
0.0
 11
132.6571699499133
 21
43.6915
 31
0.0
  0
LINE
  5
200
330
1FA
100
AcDbEntity
  8
치수문자_일반주서
 62
     0
370
    -2
100
AcDbLine
 10
132.6571699499133
 20
9.52500000000001
 30
0.0
 11
132.6571699499133
 21
-9.525000000000002
 31
0.0
  0
LINE
  5
201
330
1FA
100
AcDbEntity
  8
치수문자_일반주서
 62
     0
370
    -2
100
AcDbLine
 10
132.6571699499133
 20
12.82700000000001
 30
0.0
 11
132.6571699499133
 21
16.12900000000001
 31
0.0
  0
LINE
  5
202
330
1FA
100
AcDbEntity
  8
치수문자_일반주서
 62
     0
370
    -2
100
AcDbLine
 10
132.6571699499133
 20
-12.827
 30
0.0
 11
132.6571699499133
 21
-16.129
 31
0.0
  0
SOLID
  5
203
330
1FA
100
AcDbEntity
  8
치수문자_일반주서
 62
     0
100
AcDbTrace
 10
132.10683661658
 20
12.82700000000001
 30
0.0
 11
133.2075032832466
 21
12.82700000000001
 31
0.0
 12
132.6571699499133
 22
9.52500000000001
 32
0.0
 13
132.6571699499133
 23
9.52500000000001
 33
0.0
  0
SOLID
  5
204
330
1FA
100
AcDbEntity
  8
치수문자_일반주서
 62
     0
100
AcDbTrace
 10
133.2075032832466
 20
-12.827
 30
0.0
 11
132.10683661658
 21
-12.827
 31
0.0
 12
132.6571699499133
 22
-9.525000000000002
 32
0.0
 13
132.6571699499133
 23
-9.525000000000002
 33
0.0
  0
MTEXT
  5
205
330
1FA
100
AcDbEntity
  8
치수문자_일반주서
 62
     0
100
AcDbMText
 10
130.0321699499133
 20
29.91025000000001
 30
0.0
 40
3.5
 41
0.0
 71
     5
 72
     1
  1
\A1;%%C19.05 [3/4]
  7
SLDTEXTSTYLE0
 11
0.0
 21
1.0
 31
0.0
 73
     1
 44
1.0
  0
POINT
  5
206
330
1FA
100
AcDbEntity
  8
Defpoints
 62
     0
100
AcDbPoint
 10
116.775
 20
9.52500000000001
 30
0.0
  0
POINT
  5
207
330
1FA
100
AcDbEntity
  8
Defpoints
 62
     0
100
AcDbPoint
 10
116.775
 20
-9.525000000000002
 30
0.0
  0
POINT
  5
208
330
1FA
100
AcDbEntity
  8
Defpoints
 62
     0
100
AcDbPoint
 10
132.6571699499133
 20
-9.525000000000004
 30
0.0
  0
ENDBLK
  5
1FC
330
1FA
100
AcDbEntity
  8
0
100
AcDbBlockEnd
  0
ENDSEC
  0
SECTION
  2
ENTITIES
  0
LINE
  5
96
330
1F
100
AcDbEntity
  8
외형선
  6
Continuous
 62
     1
370
    15
100
AcDbLine
 10
35.91545567371818
 20
-0.845984853207654
 30
0.0
 11
36.02309767916125
 21
-0.9520112054964246
 31
0.0
  0
LINE
  5
97
330
1F
100
AcDbEntity
  8
외형선
  6
Continuous
 62
     1
370
    15
100
AcDbLine
 10
38.06269801732756
 20
0.8238349366688568
 30
0.0
 11
37.93133777912087
 21
0.9531047371828228
 31
0.0
  0
LINE
  5
98
330
1F
100
AcDbEntity
  8
외형선
  6
Continuous
 62
     1
370
    15
100
AcDbLine
 10
97.84215201721122
 20
0.890306654204759
 30
0.0
 11
97.77923642014724
 21
0.9525480151798154
 31
0.0
  0
LINE
  5
99
330
1F
100
AcDbEntity
  8
외형선
  6
Continuous
 62
     1
370
    15
100
AcDbLine
 10
95.20567489159436
 20
-0.2962178148832781
 30
0.0
 11
95.8701945493346
 21
-0.9517692721296137
 31
0.0
  0
LINE
  5
9A
330
1F
100
AcDbEntity
  8
외형선
  6
Continuous
 62
     1
370
    15
100
AcDbLine
 10
53.00869470856798
 20
0.8396266362923518
 30
0.0
 11
52.8937577798929
 21
0.9525217055438276
 31
0.0
  0
LINE
  5
9B
330
1F
100
AcDbEntity
  8
외형선
  6
Continuous
 62
     1
370
    15
100
AcDbLine
 10
50.78823087383848
 20
-0.7576466750600925
 30
0.0
 11
50.98412924561158
 21
-0.9512118764979689
 31
0.0
  0
SPLINE
  5
9C
330
1F
100
AcDbEntity
  8
외형선
  6
Continuous
 62
     1
370
    15
100
AcDbSpline
210
0.0
220
0.0
230
1.0
 70
     8
 71
     3
 72
     9
 73
     5
 74
     0
 42
0.000000001
 43
0.00000001
 40
0.0
 40
0.0
 40
0.0
 40
0.0
 40
0.2569107332961387
 40
0.9999999999999999
 40
0.9999999999999999
 40
0.9999999999999999
 40
0.9999999999999999
 10
69.19250229029791
 20
-0.3815552561171994
 30
0.0
 10
69.07338419305003
 20
-0.2666957389149314
 30
0.0
 10
68.6097286045131
 20
0.1803837416837653
 30
0.0
 10
68.17692104035916
 20
0.6235184844362774
 30
0.0
 10
67.85530638488811
 20
0.9528071554792454
 30
0.0
  0
LINE
  5
9D
330
1F
100
AcDbEntity
  8
외형선
  6
Continuous
 62
     1
370
    15
100
AcDbLine
 10
65.84410881615787
 20
-0.8503566955187437
 30
0.0
 11
65.94699557746569
 21
-0.9522379086155208
 31
0.0
  0
LINE
  5
9E
330
1F
100
AcDbEntity
  8
외형선
  6
Continuous
 62
     1
370
    15
100
AcDbLine
 10
20.87895215084625
 20
-0.7724879683152779
 30
0.0
 11
21.06176374613417
 21
-0.9525097118244129
 31
0.0
  0
LINE
  5
9F
330
1F
100
AcDbEntity
  8
외형선
  6
Continuous
 62
     1
370
    15
100
AcDbLine
 10
23.12504798792169
 20
0.7997372547738094
 30
0.0
 11
22.96933509511283
 21
0.9532718476270999
 31
0.0
  0
LINE
  5
A0
330
1F
100
AcDbEntity
  8
외형선
  6
Continuous
 62
     1
370
    15
100
AcDbLine
 10
58.32007058802577
 20
-0.8062707594336753
 30
0.0
 11
58.4680267960678
 21
-0.9525250094732356
 31
0.0
  0
LINE
  5
A1
330
1F
100
AcDbEntity
  8
외형선
  6
Continuous
 62
     1
370
    15
100
AcDbLine
 10
13.45402545439306
 20
-0.8252440828092593
 30
0.0
 11
13.5824596494407
 21
-0.9524632664873279
 31
0.0
  0
LINE
  5
A2
330
1F
100
AcDbEntity
  8
외형선
  6
Continuous
 62
     1
370
    15
100
AcDbLine
 10
15.71381122899833
 20
0.7262316369731041
 30
0.0
 11
15.47141250384594
 21
0.9713271264189698
 31
0.0
  0
LINE
  5
A3
330
1F
100
AcDbEntity
  8
외형선
  6
Continuous
 62
     1
370
    15
100
AcDbLine
 10
73.37053664539624
 20
-0.8940495292000489
 30
0.0
 11
73.42991442673437
 21
-0.9525773177723796
 31
0.0
  0
LINE
  5
A4
330
1F
100
AcDbEntity
  8
외형선
  6
Continuous
 62
     1
370
    15
100
AcDbLine
 10
45.49918137344623
 20
0.8681201113436529
 30
0.0
 11
45.41376693743449
 21
0.9527717394988732
 31
0.0
  0
LINE
  5
A5
330
1F
100
AcDbEntity
  8
외형선
  6
Continuous
 62
     1
370
    15
100
AcDbLine
 10
102.7268791302791
 20
-0.3349121602185336
 30
0.0
 11
103.3535657685709
 21
-0.952558744117039
 31
0.0
  0
LINE
  5
A6
330
1F
100
AcDbEntity
  8
외형선
  6
Continuous
 62
     1
370
    15
100
AcDbLine
 10
43.41402716400201
 20
-0.8618261641077692
 30
0.0
 11
43.50684961086476
 21
-0.9531789647485756
 31
0.0
  0
LINE
  5
A7
330
1F
100
AcDbEntity
  8
외형선
  6
Continuous
 62
     1
370
    15
100
AcDbLine
 10
28.41530300640071
 20
-0.8256961126739207
 30
0.0
 11
28.54520027956226
 21
-0.9533635527536387
 31
0.0
  0
LINE
  5
A8
330
1F
100
AcDbEntity
  8
외형선
  6
Continuous
 62
     1
370
    15
100
AcDbLine
 10
30.57204098089493
 20
0.8344141998815284
 30
0.0
 11
30.45240578643617
 21
0.9523010904558016
 31
0.0
  0
LINE
  5
A9
330
1F
100
AcDbEntity
  8
외형선
  6
Continuous
 62
     1
370
    15
100
AcDbLine
 10
87.78356013565678
 20
-0.3528869594659704
 30
0.0
 11
88.39244257672155
 21
-0.9532663746882204
 31
0.0
  0
LINE
  5
AA
330
1F
100
AcDbEntity
  8
외형선
  6
Continuous
 62
     1
370
    15
100
AcDbLine
 10
61.32953770197469
 20
-9.525000000000002
 30
0.0
 11
64.99348467445424
 21
-9.525000000000002
 31
0.0
  0
LINE
  5
AB
330
1F
100
AcDbEntity
  8
외형선
  6
Continuous
 62
     1
370
    15
100
AcDbLine
 10
35.07074737269136
 20
9.52500000000001
 30
0.0
 11
31.40560246555317
 21
9.52500000000001
 31
0.0
  0
LINE
  5
AC
330
1F
100
AcDbEntity
  8
외형선
  6
Continuous
 62
     1
370
    15
100
AcDbLine
 10
94.9168811327574
 20
9.52500000000001
 30
0.0
 11
91.25342273762053
 21
9.52500000000001
 31
0.0
  0
LINE
  5
AD
330
1F
100
AcDbEntity
  8
외형선
  6
Continuous
 62
     1
370
    15
100
AcDbLine
 10
83.77213613035292
 20
-9.525000000000002
 30
0.0
 11
87.43748307896763
 21
-9.525000000000002
 31
0.0
  0
LINE
  5
AE
330
1F
100
AcDbEntity
  8
외형선
  6
Continuous
 62
     1
370
    15
100
AcDbLine
 10
23.92635032722711
 20
-9.525000000000002
 30
0.0
 11
27.58999312228929
 21
-9.525000000000002
 31
0.0
  0
LINE
  5
AF
330
1F
100
AcDbEntity
  8
외형선
  6
Continuous
 62
     1
370
    15
100
AcDbLine
 10
57.51405487803218
 20
9.52500000000001
 30
0.0
 11
53.8497432010878
 21
9.52500000000001
 31
0.0
  0
LINE
  5
B0
330
1F
100
AcDbEntity
  8
외형선
  6
Continuous
 62
     1
370
    15
100
AcDbLine
 10
116.775
 20
9.52500000000001
 30
0.0
 11
113.6947335907013
 21
9.52500000000001
 31
0.0
  0
LINE
  5
B1
330
1F
100
AcDbEntity
  8
외형선
  6
Continuous
 62
     1
370
    15
100
AcDbLine
 10
76.29149375785485
 20
-9.525000000000002
 30
0.0
 11
79.95510748921174
 21
-9.525000000000002
 31
0.0
  0
LINE
  5
B2
330
1F
100
AcDbEntity
  8
외형선
  6
Continuous
 62
     1
370
    15
100
AcDbLine
 10
16.44396886176518
 20
-9.525000000000002
 30
0.0
 11
20.10952802580518
 21
-9.525000000000002
 31
0.0
  0
LINE
  5
B3
330
1F
100
AcDbEntity
  8
외형선
  6
Continuous
 62
     1
370
    15
100
AcDbLine
 10
50.03202671800148
 20
9.52500000000001
 30
0.0
 11
46.36756910712374
 21
9.52500000000001
 31
0.0
  0
LINE
  5
B4
330
1F
100
AcDbEntity
  8
외형선
  6
Continuous
 62
     1
370
    15
100
AcDbLine
 10
109.8787913524406
 20
9.52500000000001
 30
0.0
 11
106.2153101147308
 21
9.52500000000001
 31
0.0
  0
LINE
  5
B5
330
1F
100
AcDbEntity
  8
외형선
  6
Continuous
 62
     1
370
    15
100
AcDbLine
 10
68.8110156629871
 20
-9.525000000000002
 30
0.0
 11
72.47585532077974
 21
-9.525000000000002
 31
0.0
  0
LINE
  5
B6
330
1F
100
AcDbEntity
  8
외형선
  6
Continuous
370
    15
100
AcDbLine
 10
11.99999999999999
 20
-9.525000000000002
 30
0.0
 11
12.62723360653467
 21
-9.525000000000002
 31
0.0
  0
LINE
  5
B7
330
1F
100
AcDbEntity
  8
외형선
  6
Continuous
 62
     1
370
    15
100
AcDbLine
 10
42.55209600221225
 20
9.52500000000001
 30
0.0
 11
38.88814766156657
 21
9.52500000000001
 31
0.0
  0
LINE
  5
B8
330
1F
100
AcDbEntity
  8
외형선
  6
Continuous
 62
     1
370
    15
100
AcDbLine
 10
102.3989241331032
 20
9.52500000000001
 30
0.0
 11
98.733302011044
 21
9.52500000000001
 31
0.0
  0
LINE
  5
B9
330
1F
100
AcDbEntity
  8
외형선
  6
Continuous
 62
     1
370
    15
100
AcDbLine
 10
91.25342273762047
 20
-9.525000000000002
 30
0.0
 11
94.91688113275737
 21
-9.525000000000002
 31
0.0
  0
LINE
  5
BA
330
1F
100
AcDbEntity
  8
외형선
  6
Continuous
 62
     1
370
    15
100
AcDbLine
 10
31.40560246555312
 20
-9.525000000000002
 30
0.0
 11
35.07074737269132
 21
-9.525000000000002
 31
0.0
  0
LINE
  5
BB
330
1F
100
AcDbEntity
  8
외형선
  6
Continuous
 62
     1
370
    15
100
AcDbLine
 10
64.99348467445415
 20
9.52500000000001
 30
0.0
 11
61.32953770197461
 21
9.52500000000001
 31
0.0
  0
LINE
  5
BC
330
1F
100
AcDbEntity
  8
외형선
  6
Continuous
 62
     1
370
    15
100
AcDbLine
 10
106.2153101147306
 20
-9.525000000000002
 30
0.0
 11
109.8787913524406
 21
-9.525000000000002
 31
0.0
  0
LINE
  5
BD
330
1F
100
AcDbEntity
  8
외형선
  6
Continuous
 62
     1
370
    15
100
AcDbLine
 10
46.36756910712364
 20
-9.525000000000002
 30
0.0
 11
50.03202671800153
 21
-9.525000000000002
 31
0.0
  0
LINE
  5
BE
330
1F
100
AcDbEntity
  8
외형선
  6
Continuous
 62
     1
370
    15
100
AcDbLine
 10
20.10952802580517
 20
9.52500000000001
 30
0.0
 11
16.44396886176514
 21
9.52500000000001
 31
0.0
  0
LINE
  5
BF
330
1F
100
AcDbEntity
  8
외형선
  6
Continuous
 62
     1
370
    15
100
AcDbLine
 10
79.95510748921174
 20
9.52500000000001
 30
0.0
 11
76.29149375785482
 21
9.52500000000001
 31
0.0
  0
LINE
  5
C0
330
1F
100
AcDbEntity
  8
외형선
  6
Continuous
 62
     1
370
    15
100
AcDbLine
 10
98.73330201104395
 20
-9.525000000000002
 30
0.0
 11
102.3989241331032
 21
-9.525000000000002
 31
0.0
  0
LINE
  5
C1
330
1F
100
AcDbEntity
  8
외형선
  6
Continuous
 62
     1
370
    15
100
AcDbLine
 10
38.88814766156647
 20
-9.525000000000002
 30
0.0
 11
42.55209600221216
 21
-9.525000000000002
 31
0.0
  0
LINE
  5
C2
330
1F
100
AcDbEntity
  8
외형선
  6
Continuous
370
    15
100
AcDbLine
 10
12.62723360653461
 20
9.52500000000001
 30
0.0
 11
11.99999999999999
 21
9.52500000000001
 31
0.0
  0
LINE
  5
C3
330
1F
100
AcDbEntity
  8
외형선
  6
Continuous
 62
     1
370
    15
100
AcDbLine
 10
72.47585532077963
 20
9.52500000000001
 30
0.0
 11
68.81101566298702
 21
9.52500000000001
 31
0.0
  0
LINE
  5
C4
330
1F
100
AcDbEntity
  8
외형선
  6
Continuous
 62
     1
370
    15
100
AcDbLine
 10
113.6947335907012
 20
-9.525000000000002
 30
0.0
 11
116.775
 21
-9.525000000000002
 31
0.0
  0
LINE
  5
C5
330
1F
100
AcDbEntity
  8
외형선
  6
Continuous
 62
     1
370
    15
100
AcDbLine
 10
53.84974320108785
 20
-9.525000000000002
 30
0.0
 11
57.51405487803224
 21
-9.525000000000002
 31
0.0
  0
LINE
  5
C6
330
1F
100
AcDbEntity
  8
외형선
  6
Continuous
 62
     1
370
    15
100
AcDbLine
 10
27.58999312228937
 20
9.52500000000001
 30
0.0
 11
23.92635032722715
 21
9.52500000000001
 31
0.0
  0
LINE
  5
C7
330
1F
100
AcDbEntity
  8
외형선
  6
Continuous
 62
     1
370
    15
100
AcDbLine
 10
87.43748307896769
 20
9.52500000000001
 30
0.0
 11
83.77213613035286
 21
9.52500000000001
 31
0.0
  0
LINE
  5
C8
330
1F
100
AcDbEntity
  8
외형선
  6
Continuous
370
    15
100
AcDbLine
 10
-59.12000000000003
 20
-9.524999999999995
 30
0.0
 11
11.99999999999999
 21
-9.524999999999995
 31
0.0
  0
LINE
  5
C9
330
1F
100
AcDbEntity
  8
외형선
  6
Continuous
370
    15
100
AcDbLine
 10
11.99999999999999
 20
9.525000000000002
 30
0.0
 11
-59.12000000000003
 21
9.525000000000002
 31
0.0
  0
LINE
  5
CA
330
1F
100
AcDbEntity
  8
외형선
  6
Continuous
370
    15
100
AcDbLine
 10
-59.12000000000003
 20
9.525000000000002
 30
0.0
 11
-61.02500000000002
 21
7.620000000000009
 31
0.0
  0
LINE
  5
CB
330
1F
100
AcDbEntity
  8
외형선
  6
Continuous
370
    15
100
AcDbLine
 10
-61.02500000000002
 20
-7.620000000000005
 30
0.0
 11
-59.12000000000003
 21
-9.524999999999999
 31
0.0
  0
SPLINE
  5
CC
330
1F
100
AcDbEntity
  8
외형선
  6
Continuous
 62
     1
370
    15
100
AcDbSpline
210
0.0
220
0.0
230
1.0
 70
     8
 71
     3
 72
    25
 73
    21
 74
     0
 42
0.000000001
 43
0.00000001
 40
0.0
 40
0.0
 40
0.0
 40
0.0
 40
0.0012428902942202
 40
0.0652304720532195
 40
0.1292162196772458
 40
0.1885457492306124
 40
0.2478715109409545
 40
0.307198845355349
 40
0.3665330882984761
 40
0.4258795548697138
 40
0.4852435235743217
 40
0.5446076953787689
 40
0.6039543125196799
 40
0.6632886524708862
 40
0.7226160300409668
 40
0.7819417809250419
 40
0.8412712457026996
 40
0.9006097538043003
 40
0.9599626075494634
 40
1.0
 40
1.0
 40
1.0
 40
1.0
 10
20.10952802580518
 20
9.520866246217938
 30
0.0
 10
20.1227169193276
 20
9.522240957856393
 30
0.0
 10
20.81490814032889
 20
9.59438979474934
 30
0.0
 10
22.18601430935685
 20
9.338172812353587
 30
0.0
 10
24.17366484984386
 20
8.74043517488435
 30
0.0
 10
26.1111500281919
 20
7.744081629414053
 30
0.0
 10
27.99929393438399
 20
6.482009833140833
 30
0.0
 10
29.88747479377579
 20
4.962586338632943
 30
0.0
 10
31.77600207514524
 20
3.249476248979396
 30
0.0
 10
33.66508477597588
 20
1.408548452773438
 30
0.0
 10
35.55485942181393
 20
-0.4874836753774899
 30
0.0
 10
37.44464137167354
 20
-2.364414155403031
 30
0.0
 10
39.33373109751107
 20
-4.148726705188726
 30
0.0
 10
41.22226116526271
 20
-5.770145974044013
 30
0.0
 10
43.11045161977096
 20
-7.16561700826444
 30
0.0
 10
44.99856671709382
 20
-8.279255651330143
 30
0.0
 10
46.886857048917
 20
-9.072235364880775
 30
0.0
 10
48.77558525737025
 20
-9.495651841040686
 30
0.0
 10
50.45981627276232
 20
-9.588044145186334
 30
0.0
 10
51.51460588250239
 20
-9.378596008862853
 30
0.0
 10
51.93950698874129
 20
-9.294223974855559
 30
0.0
  0
SPLINE
  5
CD
330
1F
100
AcDbEntity
  8
외형선
  6
Continuous
 62
     1
370
    15
100
AcDbSpline
210
0.0
220
0.0
230
1.0
 70
     8
 71
     3
 72
    25
 73
    21
 74
     0
 42
0.000000001
 43
0.00000001
 40
0.0
 40
0.0
 40
0.0
 40
0.0
 40
0.0292364375978611
 40
0.0885807167277988
 40
0.147942670169752
 40
0.2072975372696839
 40
0.266635918481402
 40
0.3259631001223561
 40
0.3852844020548777
 40
0.4446051617849088
 40
0.503930718446548
 40
0.5632663967760503
 40
0.6226174911790294
 40
0.6819810853795331
 40
0.7413287093744384
 40
0.8006619623123807
 40
0.8599861458608303
 40
0.919306588875863
 40
0.9786286314427197
 40
1.0
 40
1.0
 40
1.0
 40
1.0
 10
79.95510748921174
 20
9.478232081467524
 30
0.0
 10
80.26531371391007
 20
9.487458358332301
 30
0.0
 10
81.20517821091772
 20
9.515412181867596
 30
0.0
 10
82.77507014512605
 20
9.158136742351157
 30
0.0
 10
84.66495978272656
 20
8.443030572311933
 30
0.0
 10
86.5545947041808
 20
7.37711065945996
 30
0.0
 10
88.44355715116316
 20
6.027332132518662
 30
0.0
 10
90.33199588413606
 20
4.440036738257272
 30
0.0
 10
92.22015088228599
 20
2.679199186501286
 30
0.0
 10
94.10828084137805
 20
0.8132774848228447
 30
0.0
 10
95.99663941508908
 20
-1.08456758315313
 30
0.0
 10
97.88548224173044
 20
-2.940064867053835
 30
0.0
 10
99.77497074010401
 20
-4.680488999880327
 30
0.0
 10
101.6649275016198
 20
-6.237130233579553
 30
0.0
 10
103.5542788901623
 20
-7.549902979371377
 30
0.0
 10
105.4430116039397
 20
-8.564834822919508
 30
0.0
 10
107.3313011939643
 20
-9.25051665137114
 30
0.0
 10
109.2194240071244
 20
-9.549456893423418
 30
0.0
 10
110.7048802431202
 20
-9.561315120605439
 30
0.0
 10
111.5610615491226
 20
-9.348589798137944
 30
0.0
 10
111.7878181825023
 20
-9.292250238258323
 30
0.0
  0
SPLINE
  5
CE
330
1F
100
AcDbEntity
  8
외형선
  6
Continuous
 62
     1
370
    15
100
AcDbSpline
210
0.0
220
0.0
230
1.0
 70
     8
 71
     3
 72
    25
 73
    21
 74
     0
 42
0.000000001
 43
0.00000001
 40
0.0
 40
0.0
 40
0.0
 40
0.0
 40
0.021949046223566
 40
0.0812801016222312
 40
0.140604221943949
 40
0.19992674265782
 40
0.2592530040361191
 40
0.3185883351215664
 40
0.3779380377673233
 40
0.4373037111780348
 40
0.496656884353418
 40
0.5559946409153742
 40
0.6153222754549571
 40
0.6746451128949194
 40
0.7339684925563623
 40
0.7932977521321741
 40
0.8526382116710158
 40
0.9119951576754894
 40
0.9713591902701832
 40
1.0
 40
1.0
 40
1.0
 40
1.0
 10
113.6947335907013
 20
-9.481390692378401
 30
0.0
 10
113.4618304653011
 20
-9.492829406938267
 30
0.0
 10
112.5993606564611
 20
-9.535188417547829
 30
0.0
 10
111.1076182450907
 20
-9.220724540751402
 30
0.0
 10
109.2194153326822
 20
-8.55229786190883
 30
0.0
 10
107.3313035183989
 20
-7.524355979345478
 30
0.0
 10
105.4430109809865
 20
-6.208038992710614
 30
0.0
 10
103.5542790571571
 20
-4.646557867940699
 30
0.0
 10
101.6649274567784
 20
-2.90320394783107
 30
0.0
 10
99.77497075240498
 20
-1.046125435363484
 30
0.0
 10
97.88548223736444
 20
0.8521365331930869
 30
0.0
 10
95.9966394202549
 20
2.716833850986299
 30
0.0
 10
94.10828082508277
 20
4.474916658518159
 30
0.0
 10
92.22015094229764
 20
6.057462329721695
 30
0.0
 10
90.331995660371
 20
7.403015798225881
 30
0.0
 10
88.44355798636718
 20
8.457090820039674
 30
0.0
 10
86.55459158616162
 20
9.185056147553151
 30
0.0
 10
84.66497142343874
 20
9.533242589051138
 30
0.0
 10
83.10092469869448
 20
9.57302689582789
 30
0.0
 10
82.16711263702553
 20
9.35851515665641
 30
0.0
 10
81.86320738732294
 20
9.288703203766726
 30
0.0
  0
SPLINE
  5
CF
330
1F
100
AcDbEntity
  8
외형선
  6
Continuous
 62
     1
370
    15
100
AcDbSpline
210
0.0
220
0.0
230
1.0
 70
     8
 71
     3
 72
    25
 73
    21
 74
     0
 42
0.000000001
 43
0.00000001
 40
0.0
 40
0.0
 40
0.0
 40
0.0
 40
0.0406690960313299
 40
0.1000321244527153
 40
0.1593791176031895
 40
0.2187117665266123
 40
0.2780353730190447
 40
0.3373552659846107
 40
0.3966767854755602
 40
0.4560052666601586
 40
0.5153460238221929
 40
0.5747043339143889
 40
0.6340624409267989
 40
0.6934030475340275
 40
0.7527314317201251
 40
0.8120529080596498
 40
0.8713728118504134
 40
0.9306964831121569
 40
0.9946759126822217
 40
1.0
 40
1.0
 40
1.0
 40
1.0
 10
53.84974320108785
 20
-9.484642199408608
 30
0.0
 10
53.41816323850203
 20
-9.483678931750823
 30
0.0
 10
52.35662352551144
 20
-9.481309621399038
 30
0.0
 10
50.66492774556659
 20
-9.048500604427346
 30
0.0
 10
48.77558799136437
 20
-8.262490902156262
 30
0.0
 10
46.88685631654358
 20
-7.138674756681997
 30
0.0
 10
44.99856691330449
 20
-5.738925297241892
 30
0.0
 10
43.11045156720238
 20
-4.113318415746201
 30
0.0
 10
41.22226117932804
 20
-2.32676318404759
 30
0.0
 10
39.33373109382408
 20
-0.448847655479064
 30
0.0
 10
37.44464137235264
 20
1.446868109944095
 30
0.0
 10
35.55485942278596
 20
3.28579531025966
 30
0.0
 10
33.66508477140889
 20
4.995976953857872
 30
0.0
 10
31.77600209243359
 20
6.510143689303068
 30
0.0
 10
29.88747472920432
 20
7.769734237260336
 30
0.0
 10
27.9992941753537
 20
8.721893092278144
 30
0.0
 10
26.11114912887387
 20
9.342967188266012
 30
0.0
 10
24.1736683177235
 20
9.563520382093245
 30
0.0
 10
22.80853483295974
 20
9.549698264366281
 30
0.0
 10
22.07306417807005
 20
9.33477443090002
 30
0.0
 10
22.01656329381287
 20
9.318263389217996
 30
0.0
  0
LINE
  5
D0
330
1F
100
AcDbEntity
  8
외형선
  6
Continuous
 62
     1
370
    15
100
AcDbLine
 10
116.775
 20
-6.30875877624818
 30
0.0
 11
116.775
 21
-3.025741223751678
 31
0.0
  0
SPLINE
  5
D1
330
1F
100
AcDbEntity
  8
외형선
  6
Continuous
 62
     1
370
    15
100
AcDbSpline
210
0.0
220
0.0
230
1.0
 70
     8
 71
     3
 72
    25
 73
    21
 74
     0
 42
0.000000001
 43
0.00000001
 40
0.0
 40
0.0
 40
0.0
 40
0.0
 40
0.0152061489750043
 40
0.0745688969310001
 40
0.1339140906445083
 40
0.1932470074627798
 40
0.2525729620669181
 40
0.311897290024067
 40
0.3712253317857209
 40
0.4305624166544137
 40
0.4899138468225889
 40
0.5492813134605363
 40
0.6086363914489255
 40
0.6679760256985984
 40
0.7273055107689151
 40
0.7866301716319756
 40
0.8459553477395141
 40
0.9052863769960605
 40
0.9646285797421161
 40
1.0
 40
1.0
 40
1.0
 40
1.0
 10
35.07074737269138
 20
9.489351897452504
 30
0.0
 10
35.23211701146351
 20
9.500007576705073
 30
0.0
 10
36.02345188403186
 20
9.552261585870745
 30
0.0
 10
37.44464899018833
 20
9.273019089771438
 30
0.0
 10
39.33372905560493
 20
8.648503887825726
 30
0.0
 10
41.22226171692896
 20
7.655523981363919
 30
0.0
 10
43.11045145458298
 20
6.37050298199664
 30
0.0
 10
44.99856682622733
 20
4.833734717682
 30
0.0
 10
46.88685677754125
 20
3.108054278706224
 30
0.0
 10
48.77558623398672
 20
1.26027842150171
 30
0.0
 10
50.66493431643991
 20
-0.637078215224665
 30
0.0
 10
52.55489028158317
 20
-2.509247868159774
 30
0.0
 10
54.44438232735433
 20
-4.283273063798809
 30
0.0
 10
56.33322810318345
 20
-5.889157887330162
 30
0.0
 10
58.22158836670776
 20
-7.264406324057461
 30
0.0
 10
60.10971943658488
 20
-8.353756416423234
 30
0.0
 10
61.99787140169517
 20
-9.120082306154938
 30
0.0
 10
63.88631652746252
 20
-9.512837862751145
 30
0.0
 10
65.52073820400062
 20
-9.582350843961969
 30
0.0
 10
66.52584663719344
 20
-9.369733607908206
 30
0.0
 10
66.90121093714981
 20
-9.290330314358613
 30
0.0
  0
SPLINE
  5
D2
330
1F
100
AcDbEntity
  8
외형선
  6
Continuous
 62
     1
370
    15
100
AcDbSpline
210
0.0
220
0.0
230
1.0
 70
     8
 71
     3
 72
    19
 73
    15
 74
     0
 42
0.000000001
 43
0.00000001
 40
0.0
 40
0.0
 40
0.0
 40
0.0
 40
0.0494000698849756
 40
0.1358136897070654
 40
0.222249760754962
 40
0.308704035905037
 40
0.3951350528180124
 40
0.4815451404168246
 40
0.5679420197942477
 40
0.65433345163923
 40
0.740727212994333
 40
0.8271310739072456
 40
0.9135527741276357
 40
1.0
 40
1.0
 40
1.0
 40
1.0
 10
94.9168811327574
 20
9.479192488038478
 30
0.0
 10
95.2767694764133
 20
9.485249625988931
 30
0.0
 10
96.2661964943969
 20
9.501902279639651
 30
0.0
 10
97.88548558250164
 20
9.114941698041054
 30
0.0
 10
99.77496985210348
 20
8.370456682216517
 30
0.0
 10
101.6649277116165
 20
7.280721995469131
 30
0.0
 10
103.5542789379722
 20
5.910044747062559
 30
0.0
 10
105.4430112029133
 20
4.306641459346713
 30
0.0
 10
107.3313027499858
 20
2.53481655671495
 30
0.0
 10
109.2194181842974
 20
0.6639673554215436
 30
0.0
 10
111.1076076061308
 20
-1.234178480124845
 30
0.0
 10
112.9961352693032
 20
-3.079313090221019
 30
0.0
 10
114.8852217464311
 20
-4.821701604247174
 30
0.0
 10
116.1450119090271
 20
-5.813024259678686
 30
0.0
 10
116.775
 20
-6.308758776248182
 30
0.0
  0
SPLINE
  5
D3
330
1F
100
AcDbEntity
  8
외형선
  6
Continuous
 62
     1
370
    15
100
AcDbSpline
210
0.0
220
0.0
230
1.0
 70
     8
 71
     3
 72
    18
 73
    14
 74
     0
 42
0.000000001
 43
0.00000001
 40
0.0
 40
0.0
 40
0.0
 40
0.0
 40
0.0947182416072633
 40
0.1894085153434212
 40
0.284079242959749
 40
0.3787389047223467
 40
0.4733960140941647
 40
0.5680590922022674
 40
0.6627366422554453
 40
0.7574371240778688
 40
0.8521630894169545
 40
0.9468691089390318
 40
1.0
 40
1.0
 40
1.0
 40
1.0
 10
116.775
 20
-3.025741223751677
 30
0.0
 10
116.1450119090827
 20
-2.417163006889736
 30
0.0
 10
114.8852217465979
 20
-1.200186270728202
 30
0.0
 10
112.9961352686362
 20
0.7042554706752038
 30
0.0
 10
111.1076076086308
 20
2.572352309470094
 30
0.0
 10
109.2194181749649
 20
4.341840421215958
 30
0.0
 10
107.331302784816
 20
5.940456892278593
 30
0.0
 10
105.4430110729069
 20
7.306817723758968
 30
0.0
 10
103.5542794232941
 20
8.385619247985584
 30
0.0
 10
101.6649258996855
 20
9.140420999696797
 30
0.0
 10
99.77497661568901
 20
9.519615516927274
 30
0.0
 10
98.16179507816008
 20
9.579654568678254
 30
0.0
 10
97.17874693823936
 20
9.366093203839824
 30
0.0
 10
96.82545070508735
 20
9.289341697295804
 30
0.0
  0
SPLINE
  5
D4
330
1F
100
AcDbEntity
  8
외형선
  6
Continuous
 62
     1
370
    15
100
AcDbSpline
210
0.0
220
0.0
230
1.0
 70
     8
 71
     3
 72
    25
 73
    21
 74
     0
 42
0.000000001
 43
0.00000001
 40
0.0
 40
0.0
 40
0.0
 40
0.0
 40
0.0359974018074257
 40
0.0953511449260764
 40
0.1546884290462183
 40
0.2140145406029729
 40
0.2733347994958646
 40
0.3326545431869842
 40
0.3919791106855008
 40
0.4513138265221514
 40
0.5106639848174513
 40
0.5700265307354665
 40
0.6293730415129053
 40
0.6887052081798828
 40
0.7480283324893666
 40
0.8073477433021679
 40
0.8666687806271322
 40
0.9259967795891607
 40
0.9853370544288458
 40
1.0
 40
1.0
 40
1.0
 40
1.0
 10
68.8110156629871
 20
-9.480322756628482
 30
0.0
 10
68.42896021291034
 20
-9.484552881603491
 30
0.0
 10
67.4169587138868
 20
-9.495757780826647
 30
0.0
 10
65.77526550824734
 20
-9.095137501965844
 30
0.0
 10
63.88631078852475
 20
-8.33790509095807
 30
0.0
 10
61.9978729391466
 20
-7.23777085708937
 30
0.0
 10
60.10971902465287
 20
-5.858386598299078
 30
0.0
 10
58.22158847707701
 20
-4.248270763027849
 30
0.0
 10
56.33322807366487
 20
-2.471910511429734
 30
0.0
 10
54.44438233503821
 20
-0.5984258752871621
 30
0.0
 10
52.55489028037612
 20
1.298658070889901
 30
0.0
 10
50.66493431358104
 20
3.144624348799257
 30
0.0
 10
48.77558624662318
 20
4.867563816080288
 30
0.0
 10
46.88685672986823
 20
6.39934955553708
 30
0.0
 10
44.99856700425364
 20
7.680788999216037
 30
0.0
 10
43.11045079017642
 20
8.659094005891266
 30
0.0
 10
41.22226419674288
 20
9.305908802540394
 30
0.0
 10
39.33371979879858
 20
9.55882159353003
 30
0.0
 10
37.9189412658937
 20
9.549342510647378
 30
0.0
 10
37.13352905964945
 20
9.341566708133577
 30
0.0
 10
36.97790804252148
 20
9.300398158084686
 30
0.0
  0
LINE
  5
D5
330
1F
100
AcDbEntity
  8
외형선
  6
Continuous
 62
     1
370
    15
100
AcDbLine
 10
116.775
 20
7.11561369896946
 30
0.0
 11
116.775
 21
9.031639665469903
 31
0.0
  0
SPLINE
  5
D6
330
1F
100
AcDbEntity
  8
외형선
  6
Continuous
 62
     1
370
    15
100
AcDbSpline
210
0.0
220
0.0
230
1.0
 70
     8
 71
     3
 72
    12
 73
     8
 74
     0
 42
0.000000001
 43
0.00000001
 40
0.0
 40
0.0
 40
0.0
 40
0.0
 40
0.203402879674648
 40
0.4067955146152041
 40
0.6101790024342423
 40
0.8135544452613355
 40
0.9999999999999999
 40
0.9999999999999999
 40
0.9999999999999999
 40
0.9999999999999999
 10
11.99999999999997
 20
-6.276988518672427
 30
0.0
 10
12.67916634983682
 20
-6.759854226989467
 30
0.0
 10
14.03746484213513
 20
-7.725561323265877
 30
0.0
 10
16.07479866263046
 20
-8.747948072001247
 30
0.0
 10
18.11199844851978
 20
-9.38230091309121
 30
0.0
 10
20.09257692931069
 20
-9.614299911544371
 30
0.0
 10
21.39407582927969
 20
-9.41404318661787
 30
0.0
 10
22.01656329381284
 20
-9.318263389217986
 30
0.0
  0
SPLINE
  5
D7
330
1F
100
AcDbEntity
  8
외형선
  6
Continuous
 62
     1
370
    15
100
AcDbSpline
210
0.0
220
0.0
230
1.0
 70
     8
 71
     3
 72
    25
 73
    21
 74
     0
 42
0.000000001
 43
0.00000001
 40
0.0
 40
0.0
 40
0.0
 40
0.0
 40
0.019878214005056
 40
0.0792444648353945
 40
0.1385983272698863
 40
0.1979367462819397
 40
0.2572650163224858
 40
0.3165884622545721
 40
0.3759124234205847
 40
0.4352422376157364
 40
0.4945832250715714
 40
0.553940672553149
 40
0.6133053642343459
 40
0.6726524004283245
 40
0.7319861116661179
 40
0.7913118064974839
 40
0.8506348175129541
 40
0.9099604853610416
 40
0.9692941427132705
 40
1.0
 40
1.0
 40
1.0
 40
1.0
 10
50.03202671800148
 20
9.483320136159346
 30
0.0
 10
50.24295779921193
 20
9.494798665023978
 30
0.0
 10
51.0838341799282
 20
9.540557799961558
 30
0.0
 10
52.55490431527308
 20
9.237260803838947
 30
0.0
 10
54.4443785771874
 20
8.582019773717327
 30
0.0
 10
56.33322907509392
 20
7.564536489630475
 30
0.0
 10
58.2215882281327
 20
6.257602307362948
 30
0.0
 10
60.10971901916886
 20
4.703639695388563
 30
0.0
 10
61.99787321003468
 20
2.965841776357282
 30
0.0
 10
63.88630971024896
 20
1.111593707870555
 30
0.0
 10
65.77526955172021
 20
-0.7863786475146273
 30
0.0
 10
67.66489906209074
 20
-2.653597087178142
 30
0.0
 10
69.5547975221235
 20
-4.41668622359845
 30
0.0
 10
71.4440161765948
 20
-6.006690277526117
 30
0.0
 10
73.33264387513816
 20
-7.361403716285131
 30
0.0
 10
75.22088025616313
 20
-8.426205759347845
 30
0.0
 10
77.10898754043131
 20
-9.165751173575927
 30
0.0
 10
78.99723398392547
 20
-9.527558094890999
 30
0.0
 10
80.58194241187275
 20
-9.575983172721429
 30
0.0
 10
81.53737842298904
 20
-9.361759235541488
 30
0.0
 10
81.86320738732297
 20
-9.288703203766723
 30
0.0
  0
SPLINE
  5
D8
330
1F
100
AcDbEntity
  8
외형선
  6
Continuous
 62
     1
370
    15
100
AcDbSpline
210
0.0
220
0.0
230
1.0
 70
     8
 71
     3
 72
    11
 73
     7
 74
     0
 42
0.000000001
 43
0.00000001
 40
0.0
 40
0.0
 40
0.0
 40
0.0
 40
0.1782052584493388
 40
0.4520721743256831
 40
0.7259956339266783
 40
1.0
 40
1.0
 40
1.0
 40
1.0
 10
109.8787913524406
 20
9.482491799526255
 30
0.0
 10
110.2883751986597
 20
9.48411754154668
 30
0.0
 10
111.3274099698
 20
9.48824173370836
 30
0.0
 10
112.9961368125887
 20
9.06596353621132
 30
0.0
 10
114.8852213604436
 20
8.30834958656138
 30
0.0
 10
116.145011780352
 20
7.526947387729561
 30
0.0
 10
116.775
 20
7.136188597781786
 30
0.0
  0
SPLINE
  5
D9
330
1F
100
AcDbEntity
  8
외형선
  6
Continuous
370
    15
100
AcDbSpline
210
0.0
220
0.0
230
1.0
 70
    24
 71
     3
 72
    15
 73
    11
 74
     0
 42
0.000000001
 43
0.00000001
 40
0.0
 40
0.0
 40
0.0
 40
0.0
 40
0.0637377697793627
 40
0.2003213767199775
 40
0.336904983660598
 40
0.4734885906012167
 40
0.6100721975418398
 40
0.7466558044824498
 40
0.8832394114230716
 40
1.0
 40
1.0
 40
1.0
 40
1.0
 10
11.99999999999999
 20
-2.85032525565881
 30
0.0
 10
12.0
 20
-2.849825324329161
 30
0.0
 10
12.00000000000004
 20
-2.84825409062319
 30
0.0
 10
12.00000000000001
 20
-3.075451546713581
 30
0.0
 10
12.0
 20
-3.493958795769864
 30
0.0
 10
12.00000000000009
 20
-4.062894004946353
 30
0.0
 10
11.99999999999993
 20
-4.704257929890047
 30
0.0
 10
11.99999999999995
 20
-5.345739632922992
 30
0.0
 10
12.00000000000009
 20
-5.900669763778621
 30
0.0
 10
12.00000000000001
 20
-6.158267547741337
 30
0.0
 10
11.99999999999997
 20
-6.276988518672427
 30
0.0
  0
SPLINE
  5
DA
330
1F
100
AcDbEntity
  8
외형선
  6
Continuous
 62
     1
370
    15
100
AcDbSpline
210
0.0
220
0.0
230
1.0
 70
     8
 71
     3
 72
    10
 73
     6
 74
     0
 42
0.000000001
 43
0.00000001
 40
0.0
 40
0.0
 40
0.0
 40
0.0
 40
0.3789076166959974
 40
0.7577033516762368
 40
0.9999999999999999
 40
0.9999999999999999
 40
0.9999999999999999
 40
0.9999999999999999
 10
116.775
 20
9.031639665469903
 30
0.0
 10
116.1450130085754
 20
9.194533304054989
 30
0.0
 10
114.8852250447516
 20
9.52027248290523
 30
0.0
 10
113.2228981979656
 20
9.583138900269525
 30
0.0
 10
112.1905509774367
 20
9.373883598492032
 30
0.0
 10
111.7878181825023
 20
9.29225023825833
 30
0.0
  0
SPLINE
  5
DB
330
1F
100
AcDbEntity
  8
외형선
  6
Continuous
 62
     1
370
    15
100
AcDbSpline
210
0.0
220
0.0
230
1.0
 70
     8
 71
     3
 72
    25
 73
    21
 74
     0
 42
0.000000001
 43
0.00000001
 40
0.0
 40
0.0
 40
0.0
 40
0.0
 40
0.0313191169697198
 40
0.0906632306160769
 40
0.1499940466838804
 40
0.2093168736301325
 40
0.2686370438709927
 40
0.327959897799231
 40
0.3872907677500178
 40
0.4466349620189049
 40
0.5059968109295484
 40
0.5653514159874724
 40
0.6246895618078689
 40
0.6840165349026294
 40
0.743337655248534
 40
0.802658260385185
 40
0.8619836893992845
 40
0.9213192668988929
 40
0.9806702870814071
 40
1.0
 40
1.0
 40
1.0
 40
1.0
 10
83.77213613035292
 20
-9.478340796822593
 30
0.0
 10
83.4397325543519
 20
-9.486349104818665
 30
0.0
 10
82.47748377518846
 20
-9.509531721218547
 30
0.0
 10
80.88585295512647
 20
-9.139410583031172
 30
0.0
 10
78.99722346707799
 20
-8.411358595162657
 30
0.0
 10
77.1089903581063
 20
-7.335108368735676
 30
0.0
 10
75.22087950114806
 20
-5.976421396044237
 30
0.0
 10
73.3326440774818
 20
-4.382157998493623
 30
0.0
 10
71.44401612234094
 20
-2.61640320209679
 30
0.0
 10
69.55479753674126
 20
-0.7477624031424418
 30
0.0
 10
67.66489905789646
 20
1.149999726460002
 30
0.0
 10
65.77526955387864
 20
3.002814416779235
 30
0.0
 10
63.88630970580972
 20
4.737876061702143
 30
0.0
 10
61.99787322563014
 20
6.286936887059858
 30
0.0
 10
60.10971896123146
 20
7.590038840571264
 30
0.0
 10
58.22158844429444
 20
8.593857983710048
 30
0.0
 10
56.33322826825396
 20
9.267796747990118
 30
0.0
 10
54.4443815892468
 20
9.55288667476928
 30
0.0
 10
52.97973555690969
 20
9.557821352015385
 30
0.0
 10
52.14466185140127
 20
9.346210899040862
 30
0.0
 10
51.9395069887413
 20
9.294223974855566
 30
0.0
  0
SPLINE
  5
DC
330
1F
100
AcDbEntity
  8
외형선
  6
Continuous
 62
     1
370
    15
100
AcDbSpline
210
0.0
220
0.0
230
1.0
 70
     8
 71
     3
 72
    13
 73
     9
 74
     0
 42
0.000000001
 43
0.00000001
 40
0.0
 40
0.0
 40
0.0
 40
0.0
 40
0.1459259630859443
 40
0.3167272605491034
 40
0.487534385710676
 40
0.6583482675481153
 40
0.8291698316971847
 40
1.0
 40
1.0
 40
1.0
 40
1.0
 10
23.92635032722712
 20
-9.49796681592111
 30
0.0
 10
23.34625720849761
 20
-9.478241610773583
 30
0.0
 10
22.08718513884562
 20
-9.43542873458605
 30
0.0
 10
20.14907685576333
 20
-8.845832937492972
 30
0.0
 10
18.11199899908602
 20
-7.867269065891929
 30
0.0
 10
16.07479851580324
 20
-6.515961814042583
 30
0.0
 10
14.03746487884477
 20
-4.880582862984714
 30
0.0
 10
12.67916636207357
 20
-3.617259147107984
 30
0.0
 10
11.99999999999999
 20
-2.985581381403832
 30
0.0
  0
SPLINE
  5
DD
330
1F
100
AcDbEntity
  8
외형선
  6
Continuous
 62
     1
370
    15
100
AcDbSpline
210
0.0
220
0.0
230
1.0
 70
     8
 71
     3
 72
    20
 73
    16
 74
     0
 42
0.000000001
 43
0.00000001
 40
0.0
 40
0.0
 40
0.0
 40
0.0
 40
0.0815602920947035
 40
0.163116476265732
 40
0.2446689926327253
 40
0.3262182831265453
 40
0.4077647912734906
 40
0.4893089619777876
 40
0.5649191949648716
 40
0.6405246261695873
 40
0.7161320616463867
 40
0.7917483014314451
 40
0.8673801191483761
 40
0.9430342417848274
 40
1.0
 40
1.0
 40
1.0
 40
1.0
 10
11.99999999999999
 20
7.164149645034983
 30
0.0
 10
12.67916630790611
 20
6.685004359958935
 30
0.0
 10
14.03746471634507
 20
5.726737922779021
 30
0.0
 10
16.07479916575179
 20
3.940902786652845
 30
0.0
 10
18.11199656193786
 20
1.99898000989538
 30
0.0
 10
20.14908595393253
 20
-0.0402685486622723
 30
0.0
 10
22.18601929414891
 20
-2.075948011940729
 30
0.0
 10
24.17366362916232
 20
-3.970448180557999
 30
0.0
 10
26.11115032018395
 20
-5.649673138781017
 30
0.0
 10
27.99929394844239
 20
-7.065077222491444
 30
0.0
 10
29.88747444552208
 20
-8.202730992996184
 30
0.0
 10
31.77600345440254
 20
-9.022224765595528
 30
0.0
 10
33.66507960546502
 20
-9.476029821393862
 30
0.0
 10
35.39925304167452
 20
-9.593048950959709
 30
0.0
 10
36.50356157025652
 20
-9.38833242562972
 30
0.0
 10
36.9779080425214
 20
-9.300398158084676
 30
0.0
  0
SPLINE
  5
DE
330
1F
100
AcDbEntity
  8
외형선
  6
Continuous
 62
     1
370
    15
100
AcDbSpline
210
0.0
220
0.0
230
1.0
 70
     8
 71
     3
 72
    25
 73
    21
 74
     0
 42
0.000000001
 43
0.00000001
 40
0.0
 40
0.0
 40
0.0
 40
0.0
 40
0.0245554493089033
 40
0.0839115316053297
 40
0.1432748579347633
 40
0.2026205291830441
 40
0.2619528757816055
 40
0.3212772061581119
 40
0.3805988527804488
 40
0.4399231561742974
 40
0.4992554488885337
 40
0.5586010395122796
 40
0.617964304838639
 40
0.6773204836663707
 40
0.7366601762415544
 40
0.7959886689984665
 40
0.855311281917006
 40
0.9146333526210724
 40
0.973960220362758
 40
0.9999999999999999
 40
0.9999999999999999
 40
0.9999999999999999
 40
0.9999999999999999
 10
64.99348467445415
 20
9.47960989868621
 30
0.0
 10
65.25403327758937
 20
9.490629597554836
 30
0.0
 10
66.14438686353571
 20
9.52828640432973
 30
0.0
 10
67.66490812139801
 20
9.198927159616357
 30
0.0
 10
69.55479510772295
 20
8.513555522198281
 30
0.0
 10
71.44401677713222
 20
7.47171648773157
 30
0.0
 10
73.33264388648101
 20
6.143198652023433
 30
0.0
 10
75.22087961050497
 20
4.572390604965321
 30
0.0
 10
77.10899011166376
 20
2.822873260652861
 30
0.0
 10
78.9972243435873
 20
0.9625736544636051
 30
0.0
 10
80.8858496947662
 20
-0.9355411538956876
 30
0.0
 10
82.77506495019313
 20
-2.797218218613245
 30
0.0
 10
84.66496116539454
 20
-4.549107376761913
 30
0.0
 10
86.554594368577
 20
-6.122679675867365
 30
0.0
 10
88.44355711142134
 20
-7.456581509889967
 30
0.0
 10
90.33199637847935
 20
-8.49657388998006
 30
0.0
 10
92.22014894484786
 20
-9.209231726273252
 30
0.0
 10
94.10828809704321
 20
-9.539777907668558
 30
0.0
 10
95.64334884533503
 20
-9.568961567222559
 30
0.0
 10
96.54915002153464
 20
-9.354699145605586
 30
0.0
 10
96.82545070508729
 20
-9.2893416972958
 30
0.0
  0
SPLINE
  5
DF
330
1F
100
AcDbEntity
  8
외형선
  6
Continuous
370
    15
100
AcDbSpline
210
0.0
220
0.0
230
1.0
 70
    24
 71
     3
 72
    10
 73
     6
 74
     0
 42
0.000000001
 43
0.00000001
 40
0.0
 40
0.0
 40
0.0
 40
0.0
 40
0.3030910540625115
 40
0.6532853159798083
 40
1.0
 40
1.0
 40
1.0
 40
1.0
 10
12.00000000000001
 20
9.044994682973282
 30
0.0
 10
11.99999999999999
 20
8.869770831040299
 30
0.0
 10
11.99999999999996
 20
8.492091688278052
 30
0.0
 10
12.00000000000001
 20
7.861275039388125
 30
0.0
 10
12.00000000000001
 20
7.476049826125818
 30
0.0
 10
12.00000000000001
 20
7.28439890978813
 30
0.0
  0
SPLINE
  5
E0
330
1F
100
AcDbEntity
  8
외형선
  6
Continuous
 62
     1
370
    15
100
AcDbSpline
210
0.0
220
0.0
230
1.0
 70
     8
 71
     3
 72
    25
 73
    21
 74
     0
 42
0.000000001
 43
0.00000001
 40
0.0
 40
0.0
 40
0.0
 40
0.0
 40
0.0266346451350082
 40
0.0859712370969598
 40
0.1452977072351993
 40
0.204619380367969
 40
0.2639415957115775
 40
0.3232696908541519
 40
0.3826089857399387
 40
0.4419647667677836
 40
0.501327634246763
 40
0.5606728271415825
 40
0.620004722216015
 40
0.6793286280236035
 40
0.7386498770774849
 40
0.7979738098675505
 40
0.8573057588259462
 40
0.9166510323447619
 40
0.9760139608264062
 40
1.0
 40
1.0
 40
1.0
 40
1.0
 10
98.73330201104395
 20
-9.478699105482214
 30
0.0
 10
98.45064904156382
 20
-9.489097668557502
 30
0.0
 10
97.53830253451787
 20
-9.522662122939447
 30
0.0
 10
95.99664974190688
 20
-9.181290920371058
 30
0.0
 10
94.10827807298136
 20
-8.482828849854847
 30
0.0
 10
92.22015163071399
 20
-7.430649457773628
 30
0.0
 10
90.33199565872081
 20
-6.092985473205473
 30
0.0
 10
88.4435573043481
 20
-4.514937972608121
 30
0.0
 10
86.55459431678321
 20
-2.76016624000029
 30
0.0
 10
84.66496117957189
 20
-0.8970130597558088
 30
0.0
 10
82.77506494529194
 20
1.001142823033328
 30
0.0
 10
80.885849700195
 20
2.860218430190589
 30
0.0
 10
78.99722432677649
 20
4.606976489827421
 30
0.0
 10
77.10899017346995
 20
6.172961167957949
 30
0.0
 10
75.22087938009386
 20
7.497436654251164
 30
0.0
 10
73.33264474641479
 20
8.526513481662807
 30
0.0
 10
71.44401356705026
 20
9.227511877782742
 30
0.0
 10
69.55480709235411
 20
9.544345999245426
 30
0.0
 10
68.0402715572917
 20
9.565739724411458
 30
0.0
 10
67.15575559562635
 20
9.351875760653115
 30
0.0
 10
66.90121093714976
 20
9.290330314358616
 30
0.0
  0
SPLINE
  5
E1
330
1F
100
AcDbEntity
  8
외형선
  6
Continuous
 62
     1
370
    15
100
AcDbSpline
210
0.0
220
0.0
230
1.0
 70
     8
 71
     3
 72
    21
 73
    17
 74
     0
 42
0.000000001
 43
0.00000001
 40
0.0
 40
0.0
 40
0.0
 40
0.0
 40
0.0536827580471859
 40
0.1239623743885397
 40
0.1942417502855577
 40
0.2645004058864612
 40
0.3347445902689875
 40
0.4049805958336508
 40
0.4752147395170807
 40
0.5454533438466214
 40
0.6212043171633967
 40
0.6969574618623097
 40
0.7727131912399561
 40
0.848471917312898
 40
0.9242340506156046
 40
1.0
 40
1.0
 40
1.0
 40
1.0
 10
38.88814766156647
 20
-9.491287368140469
 30
0.0
 10
38.40703570747487
 20
-9.48369977075884
 30
0.0
 10
37.29606856745789
 20
-9.46617875243664
 30
0.0
 10
35.55485465857419
 20
-8.999474370223957
 30
0.0
 10
33.66508605339579
 20
-8.185144069999794
 30
0.0
 10
31.77600172729085
 20
-7.037858888683939
 30
0.0
 10
29.88747490819426
 20
-5.618079722210137
 30
0.0
 10
27.99929382450208
 20
-3.977356301693993
 30
0.0
 10
26.11115035331201
 20
-2.180990294273572
 30
0.0
 10
24.17366361950666
 20
-0.2500282565254404
 30
0.0
 10
22.18601929681828
 20
1.743382203906177
 30
0.0
 10
20.14908595321724
 20
3.706302730720461
 30
0.0
 10
18.11199656212949
 20
5.502528522659252
 30
0.0
 10
16.07479916570069
 20
7.04013881926054
 30
0.0
 10
14.03746471635781
 20
8.286582947736683
 30
0.0
 10
12.67916630791036
 20
8.79218652685596
 30
0.0
 10
11.99999999999999
 20
9.04499468297329
 30
0.0
  0
LINE
  5
E2
330
1F
100
AcDbEntity
  8
외형선
  6
Continuous
 62
     1
370
    15
100
AcDbLine
 10
116.775
 20
0.5850812377624486
 30
0.0
 11
116.775
 21
4.246811515256712
 31
0.0
  0
SPLINE
  5
E3
330
1F
100
AcDbEntity
  8
외형선
  6
Continuous
 62
     1
370
    15
100
AcDbSpline
210
0.0
220
0.0
230
1.0
 70
     8
 71
     3
 72
     9
 73
     5
 74
     0
 42
0.000000001
 43
0.00000001
 40
0.0
 40
0.0
 40
0.0
 40
0.0
 40
0.802852281456582
 40
1.0
 40
1.0
 40
1.0
 40
1.0
 10
11.99999999999997
 20
-9.50431994242279
 30
0.0
 10
12.67916952617431
 20
-9.533964172983126
 30
0.0
 10
13.52511533944663
 20
-9.570887815407797
 30
0.0
 10
14.37102923209477
 20
-9.340446707057279
 30
0.0
 10
14.53779922611454
 20
-9.29501576828736
 30
0.0
  0
SPLINE
  5
E4
330
1F
100
AcDbEntity
  8
외형선
  6
Continuous
 62
     1
370
    15
100
AcDbSpline
210
0.0
220
0.0
230
1.0
 70
     8
 71
     3
 72
    25
 73
    21
 74
     0
 42
0.000000001
 43
0.00000001
 40
0.0
 40
0.0
 40
0.0
 40
0.0
 40
0.0175437751808672
 40
0.0768672118098003
 40
0.1361943621874396
 40
0.1955305555362482
 40
0.2548810939690059
 40
0.3142476686305932
 40
0.3736018548287574
 40
0.4329405975202424
 40
0.4922691911848596
 40
0.5515929607147022
 40
0.6109172454812818
 40
0.6702473833089275
 40
0.7295886944582045
 40
0.7889464657230103
 40
0.8483114812269511
 40
0.9076588411473664
 40
0.9669928760389115
 40
1.0
 40
1.0
 40
1.0
 40
1.0
 10
42.55209600221223
 20
9.48605200226201
 30
0.0
 10
42.73821941127012
 20
9.497272767576447
 30
0.0
 10
43.55371022549456
 20
9.546436014095569
 30
0.0
 10
44.99856387701361
 20
9.255493278151057
 30
0.0
 10
46.88685756797404
 20
8.615718910245885
 30
0.0
 10
48.77558602195338
 20
7.61057278139798
 30
0.0
 10
50.66493437390693
 20
6.314355946074449
 30
0.0
 10
52.5548902638366
 20
4.76878971211393
 30
0.0
 10
54.44438234087511
 20
3.036637653156303
 30
0.0
 10
56.33322806685329
 20
1.185450611297646
 30
0.0
 10
58.2215884984839
 20
-0.7119997105617194
 30
0.0
 10
60.109718945842
 20
-2.58147410922213
 30
0.0
 10
61.99787323300108
 20
-4.349816047029688
 30
0.0
 10
63.88630969171418
 20
-5.947682870922949
 30
0.0
 10
65.77526960290419
 20
-7.312909168000185
 30
0.0
 10
67.66489887583012
 20
-8.390249116045783
 30
0.0
 10
69.55479821596424
 20
-9.143278586921411
 30
0.0
 10
71.44401358860756
 20
-9.520563235742838
 30
0.0
 10
73.05341282693945
 20
-9.579227042008128
 30
0.0
 10
74.03306435167386
 20
-9.365606197943716
 30
0.0
 10
74.38323842050039
 20
-9.289247943744648
 30
0.0
  0
SPLINE
  5
E5
330
1F
100
AcDbEntity
  8
외형선
  6
Continuous
 62
     1
370
    15
100
AcDbSpline
210
0.0
220
0.0
230
1.0
 70
     8
 71
     3
 72
    15
 73
    11
 74
     0
 42
0.000000001
 43
0.00000001
 40
0.0
 40
0.0
 40
0.0
 40
0.0
 40
0.0803654722725448
 40
0.2117430640309123
 40
0.343100574056166
 40
0.4744498016723513
 40
0.6058025710674904
 40
0.7371706957946251
 40
0.8685659433417936
 40
0.9999999999999999
 40
0.9999999999999999
 40
0.9999999999999999
 40
0.9999999999999999
 10
102.3989241331032
 20
9.480544176757792
 30
0.0
 10
102.7840902822779
 20
9.484479577267042
 30
0.0
 10
103.7989074454328
 20
9.494848380416617
 30
0.0
 10
105.443002545021
 20
9.09226732585854
 30
0.0
 10
107.3313050695413
 20
8.333341505546397
 30
0.0
 10
109.2194175627904
 20
7.231810703921179
 30
0.0
 10
111.1076077726281
 20
5.851275504003923
 30
0.0
 10
112.996135224892
 20
4.23975229523815
 30
0.0
 10
114.8852217575387
 20
2.463793934535944
 30
0.0
 10
116.14501191273
 20
1.211380446726119
 30
0.0
 10
116.775
 20
0.5850812377624484
 30
0.0
  0
SPLINE
  5
E6
330
1F
100
AcDbEntity
  8
외형선
  6
Continuous
370
    15
100
AcDbSpline
210
0.0
220
0.0
230
1.0
 70
    24
 71
     3
 72
     9
 73
     5
 74
     0
 42
0.000000001
 43
0.00000001
 40
0.0
 40
0.0
 40
0.0
 40
0.0
 40
0.3848319594390166
 40
0.9999999999999999
 40
0.9999999999999999
 40
0.9999999999999999
 40
0.9999999999999999
 10
12.0
 20
-8.629920565327986
 30
0.0
 10
12.00000000000003
 20
-8.738246584596219
 30
0.0
 10
12.00000000000006
 20
-9.019735729692542
 30
0.0
 10
12.00000000000001
 20
-9.31975665665562
 30
0.0
 10
11.99999999999999
 20
-9.50431994242279
 30
0.0
  0
SPLINE
  5
E7
330
1F
100
AcDbEntity
  8
외형선
  6
Continuous
 62
     1
370
    15
100
AcDbSpline
210
0.0
220
0.0
230
1.0
 70
     8
 71
     3
 72
    14
 73
    10
 74
     0
 42
0.000000001
 43
0.00000001
 40
0.0
 40
0.0
 40
0.0
 40
0.0
 40
0.1515616643261165
 40
0.303078576374103
 40
0.4545642120554436
 40
0.6060321409130505
 40
0.7574959856091691
 40
0.9089693810696378
 40
1.0
 40
1.0
 40
1.0
 40
1.0
 10
116.775
 20
4.246811515256711
 30
0.0
 10
116.1450119011967
 20
4.794321200036051
 30
0.0
 10
114.8852217229425
 20
5.889178904005999
 30
0.0
 10
112.996135363217
 20
7.25640289489941
 30
0.0
 10
111.1076072540492
 20
8.349847788303101
 30
0.0
 10
109.2194194985588
 20
9.117105205504174
 30
0.0
 10
107.331297844969
 20
9.511887848497931
 30
0.0
 10
105.6942782287142
 20
9.582701561489127
 30
0.0
 10
104.6865108779744
 20
9.370268981502452
 30
0.0
 10
104.3082174055711
 20
9.290526510905678
 30
0.0
  0
SPLINE
  5
E8
330
1F
100
AcDbEntity
  8
외형선
  6
Continuous
 62
     1
370
    15
100
AcDbSpline
210
0.0
220
0.0
230
1.0
 70
     8
 71
     3
 72
    25
 73
    21
 74
     0
 42
0.000000001
 43
0.00000001
 40
0.0
 40
0.0
 40
0.0
 40
0.0
 40
0.0336358706954649
 40
0.0929578463117817
 40
0.1522878378319647
 40
0.2116311534729732
 40
0.2709921234943501
 40
0.3303458497702573
 40
0.3896831170523263
 40
0.4490092117741784
 40
0.5083294538338282
 40
0.5676491806918523
 40
0.6269737313559046
 40
0.686308430355211
 40
0.7456585718087846
 40
0.8050211008815583
 40
0.8643675948183059
 40
0.9236997446486626
 40
0.9830228521240917
 40
1.0
 40
1.0
 40
1.0
 40
1.0
 10
76.29149375785488
 20
-9.479073230466813
 30
0.0
 10
75.93463032726953
 20
-9.485360234490045
 30
0.0
 10
74.94838394063672
 20
-9.50273532666603
 30
0.0
 10
73.33264413674883
 20
-9.117695266223961
 30
0.0
 10
71.44401610645068
 20
-8.375145742409511
 30
0.0
 10
69.5547975410195
 20
-7.286807633540477
 30
0.0
 10
67.66489905668067
 20
-5.917581113761329
 30
0.0
 10
65.77526955446314
 20
-4.315029769981304
 30
0.0
 10
63.88630970468751
 20
-2.543715738898128
 30
0.0
 10
61.9978732295338
 20
-0.6727933616830014
 30
0.0
 10
60.10971894674024
 20
1.224383070304459
 30
0.0
 10
58.22158849835787
 20
3.073566295576337
 30
0.0
 10
56.33322806645889
 20
4.802408304637771
 30
0.0
 10
54.44438234257917
 20
6.343026828991386
 30
0.0
 10
52.55489025741213
 20
7.635629036559306
 30
0.0
 10
50.66493439790234
 20
8.62681854104165
 30
0.0
 10
48.77558593243323
 20
9.28726770711339
 30
0.0
 10
46.88685790196036
 20
9.5561909537351
 30
0.0
 10
45.4478101079535
 20
9.553602534821415
 30
0.0
 10
44.63829368214317
 20
9.343755255280236
 30
0.0
 10
44.45817265888219
 20
9.297063297570226
 30
0.0
  0
SPLINE
  5
E9
330
1F
100
AcDbEntity
  8
외형선
  6
Continuous
 62
     1
370
    15
100
AcDbSpline
210
0.0
220
0.0
230
1.0
 70
     8
 71
     3
 72
    10
 73
     6
 74
     0
 42
0.000000001
 43
0.00000001
 40
0.0
 40
0.0
 40
0.0
 40
0.0
 40
0.0830695726947722
 40
0.5415232403641211
 40
1.0
 40
1.0
 40
1.0
 40
1.0
 10
16.44396886176517
 20
-9.492748936029656
 30
0.0
 10
16.3209201229214
 20
-9.502808567163246
 30
0.0
 10
15.51877621366803
 20
-9.568386418012995
 30
0.0
 10
14.03746270709879
 20
-9.288645465321967
 30
0.0
 10
12.6791656381461
 20
-8.767487474520877
 30
0.0
 10
11.99999999999999
 20
-8.506901916701569
 30
0.0
  0
SPLINE
  5
EA
330
1F
100
AcDbEntity
  8
외형선
  6
Continuous
 62
     1
370
    15
100
AcDbSpline
210
0.0
220
0.0
230
1.0
 70
     8
 71
     3
 72
    16
 73
    12
 74
     0
 42
0.000000001
 43
0.00000001
 40
0.0
 40
0.0
 40
0.0
 40
0.0
 40
0.1164390295535664
 40
0.2328721944561622
 40
0.3493001230417773
 40
0.4657234462301811
 40
0.5821427972188581
 40
0.6985588111724834
 40
0.8065032768827387
 40
0.9144408873590959
 40
1.0
 40
1.0
 40
1.0
 40
1.0
 10
11.99999999999997
 20
0.6273176484560646
 30
0.0
 10
12.67916630811904
 20
-0.0530243333319401
 30
0.0
 10
14.03746471698391
 20
-1.413674030319855
 30
0.0
 10
16.07479916319659
 20
-3.397924611633051
 30
0.0
 10
18.11199657151927
 20
-5.225182393806296
 30
0.0
 10
20.14908591816384
 20
-6.815116893755058
 30
0.0
 10
22.18601942763629
 20
-8.093472774687935
 30
0.0
 10
24.17366314631642
 20
-8.984307041077855
 30
0.0
 10
26.11115197680907
 20
-9.465326310549973
 30
0.0
 10
27.86878712528439
 20
-9.595235566012573
 30
0.0
 10
28.99703547991425
 20
-9.393565481466055
 30
0.0
 10
29.49591694160284
 20
-9.304392325445423
 30
0.0
  0
SPLINE
  5
EB
330
1F
100
AcDbEntity
  8
외형선
  6
Continuous
 62
     1
370
    15
100
AcDbSpline
210
0.0
220
0.0
230
1.0
 70
     8
 71
     3
 72
    25
 73
    21
 74
     0
 42
0.000000001
 43
0.00000001
 40
0.0
 40
0.0
 40
0.0
 40
0.0
 40
0.0222305900584573
 40
0.0815531944327575
 40
0.140876314033675
 40
0.2002052865807009
 40
0.2595454322299071
 40
0.3189020376713551
 40
0.3782658872096569
 40
0.4376120815111998
 40
0.4969449510455843
 40
0.5562698042872614
 40
0.6155919737511152
 40
0.6749168000098966
 40
0.734249615659481
 40
0.7935957293357785
 40
0.8529595178704683
 40
0.9123162198440726
 40
0.9716564354198244
 40
1.0
 40
1.0
 40
1.0
 40
1.0
 10
57.5140548780322
 20
9.481170154687547
 30
0.0
 10
57.74991363235969
 20
9.492579554990765
 30
0.0
 10
58.61516438817662
 20
9.534435081040353
 30
0.0
 10
60.10971429790369
 20
9.218405624964333
 30
0.0
 10
61.9978744752925
 20
8.548160788482004
 30
0.0
 10
63.88630937090367
 20
7.518690342697814
 30
0.0
 10
65.77526964357281
 20
6.200883518247658
 30
0.0
 10
67.66489903414873
 20
4.638193408332212
 30
0.0
 10
69.55479754201264
 20
2.894270192147363
 30
0.0
 10
71.44401612499578
 20
1.036601777370188
 30
0.0
 10
73.33264406159765
 20
-0.8614354134087705
 30
0.0
 10
75.22087956202105
 20
-2.725592981756002
 30
0.0
 10
77.10899013050192
 20
-4.48292107576418
 30
0.0
 10
78.99722431671643
 20
-6.064508962753608
 30
0.0
 10
80.88584978343044
 20
-7.408898255769133
 30
0.0
 10
82.77506462229232
 20
-8.46158001541852
 30
0.0
 10
84.66496238863485
 20
-9.18780611019401
 30
0.0
 10
86.55458980479642
 20
-9.534020014987348
 30
0.0
 10
88.1147960171426
 20
-9.572546308189995
 30
0.0
 10
89.04508646978817
 20
-9.358078169144214
 30
0.0
 10
89.34580055255228
 20
-9.288751874832716
 30
0.0
  0
SPLINE
  5
EC
330
1F
100
AcDbEntity
  8
외형선
  6
Continuous
370
    15
100
AcDbSpline
210
0.0
220
0.0
230
1.0
 70
    24
 71
     3
 72
    16
 73
    12
 74
     0
 42
0.000000001
 43
0.00000001
 40
0.0
 40
0.0
 40
0.0
 40
0.0
 40
0.1089838947593159
 40
0.2349049144481364
 40
0.3608259341369008
 40
0.4867469538256703
 40
0.6126679735144382
 40
0.7385889932032101
 40
0.86451001289197
 40
0.9904310325807406
 40
1.0
 40
1.0
 40
1.0
 40
1.0
 10
12.00000000000001
 20
4.284652235551734
 30
0.0
 10
11.99999999999999
 20
4.203546190476312
 30
0.0
 10
11.99999999999993
 20
4.028729456116208
 30
0.0
 10
12.00000000000004
 20
3.560261632754155
 30
0.0
 10
12.0
 20
2.964520385943858
 30
0.0
 10
12.00000000000001
 20
2.313114279297008
 30
0.0
 10
12.00000000000006
 20
1.685831269667734
 30
0.0
 10
11.99999999999993
 20
1.145551883789433
 30
0.0
 10
11.9999999999999
 20
0.7782051609878214
 30
0.0
 10
12.0000000000001
 20
0.6085106990806326
 30
0.0
 10
12.00000000000004
 20
0.6158133148911514
 30
0.0
 10
12.00000000000004
 20
0.6163290614363962
 30
0.0
  0
SPLINE
  5
ED
330
1F
100
AcDbEntity
  8
외형선
  6
Continuous
 62
     1
370
    15
100
AcDbSpline
210
0.0
220
0.0
230
1.0
 70
     8
 71
     3
 72
    25
 73
    21
 74
     0
 42
0.000000001
 43
0.00000001
 40
0.0
 40
0.0
 40
0.0
 40
0.0
 40
0.0289482006560167
 40
0.0882753637600146
 40
0.147613726431278
 40
0.2069685749856039
 40
0.2663305098797369
 40
0.3256747704673758
 40
0.3850057334435353
 40
0.4443287072783614
 40
0.5036490244012177
 40
0.5629720252180969
 40
0.622303042077373
 40
0.6816473832877415
 40
0.7410093791835811
 40
0.8003641312087647
 40
0.8597024239556663
 40
0.9190295439492671
 40
0.9783508111795203
 40
1.0
 40
1.0
 40
1.0
 40
1.0
 10
91.2534227376205
 20
-9.478256938557244
 30
0.0
 10
90.94629767043483
 20
-9.48762931146263
 30
0.0
 10
90.00974284453076
 20
-9.516209658730109
 30
0.0
 10
88.44355548985405
 20
-9.16080218517747
 30
0.0
 10
86.55459480322622
 20
-8.447541937605305
 30
0.0
 10
84.66496104895995
 20
-7.383142545247434
 30
0.0
 10
82.77506498116014
 20
-6.034752733395847
 30
0.0
 10
80.88584968730345
 20
-4.448229834332238
 30
0.0
 10
78.9972243424836
 20
-2.687928314618127
 30
0.0
 10
77.10899012353761
 20
-0.8222978965898605
 30
0.0
 10
75.22087956411391
 20
1.075487298530296
 30
0.0
 10
73.33264406019046
 20
2.931169302861604
 30
0.0
 10
71.44401612853213
 20
4.672122284977264
 30
0.0
 10
69.55479752927022
 20
6.230009945428743
 30
0.0
 10
67.66489908159329
 20
7.544006028958986
 30
0.0
 10
65.77526946658696
 20
8.560634062564151
 30
0.0
 10
63.88631003116073
 20
9.248069407270723
 30
0.0
 10
61.99787201177761
 20
9.548944228211415
 30
0.0
 10
60.50939675242299
 20
9.561794477579912
 30
0.0
 10
59.65034139957672
 20
9.34893075752813
 30
0.0
 10
59.42065451811271
 20
9.292017074523265
 30
0.0
  0
SPLINE
  5
EE
330
1F
100
AcDbEntity
  8
외형선
  6
Continuous
 62
     1
370
    15
100
AcDbSpline
210
0.0
220
0.0
230
1.0
 70
     8
 71
     3
 72
    17
 73
    13
 74
     0
 42
0.000000001
 43
0.00000001
 40
0.0
 40
0.0
 40
0.0
 40
0.0
 40
0.0782437146562877
 40
0.1755604423967526
 40
0.2728745903750623
 40
0.3701949188797223
 40
0.4751530067874536
 40
0.580114103291739
 40
0.6850787810429158
 40
0.7900476109177486
 40
0.8950211617394616
 40
1.0
 40
1.0
 40
1.0
 40
1.0
 10
31.40560246555313
 20
-9.495532603838019
 30
0.0
 10
30.89953564665866
 20
-9.484053288937929
 30
0.0
 10
29.76404105776143
 20
-9.458296413626925
 30
0.0
 10
27.99929674142661
 20
-8.97406232802335
 30
0.0
 10
26.11114957364509
 20
-8.145773953324877
 30
0.0
 10
24.17366384675123
 20
-6.956996420112322
 30
0.0
 10
22.18601923399433
 20
-5.441260164706554
 30
0.0
 10
20.14908597005132
 20
-3.639316128675888
 30
0.0
 10
18.11199655762007
 20
-1.670752710013719
 30
0.0
 10
16.07479916690329
 20
0.3702833940442259
 30
0.0
 10
14.03746471605712
 20
2.408497193958175
 30
0.0
 10
12.67916630781014
 20
3.659256721982152
 30
0.0
 10
11.99999999999999
 20
4.28465223555174
 30
0.0
  0
LINE
  5
EF
330
1F
100
AcDbEntity
  8
외형선
  6
Continuous
 62
     1
370
    15
100
AcDbLine
 10
116.775
 20
-9.507013460872901
 30
0.0
 11
116.775
 21
-8.525855790117692
 31
0.0
  0
SPLINE
  5
F0
330
1F
100
AcDbEntity
  8
외형선
  6
Continuous
 62
     1
370
    15
100
AcDbSpline
210
0.0
220
0.0
230
1.0
 70
     8
 71
     3
 72
    25
 73
    21
 74
     0
 42
0.000000001
 43
0.00000001
 40
0.0
 40
0.0
 40
0.0
 40
0.0
 40
0.0128598832017065
 40
0.0721858181034875
 40
0.1315186613710309
 40
0.1908637279783337
 40
0.2502262963061369
 40
0.3095890677289882
 40
0.3689342849024124
 40
0.4282672251757467
 40
0.4875932032321956
 40
0.5469175546410121
 40
0.6062456198558016
 40
0.6655827281812049
 40
0.7249341818117615
 40
0.7843016719184297
 40
0.8436567733706423
 40
0.9029964310780336
 40
0.9623259396020567
 40
1.0
 40
1.0
 40
1.0
 40
1.0
 10
27.58999312228937
 20
9.493262480025553
 30
0.0
 10
27.72642040722334
 20
9.50303693794767
 30
0.0
 10
28.49222169951574
 20
9.557903473713143
 30
0.0
 10
29.88747593786125
 20
9.289994548053524
 30
0.0
 10
31.7760017684997
 20
8.681240381547504
 30
0.0
 10
33.66508485819941
 20
7.70050670562238
 30
0.0
 10
35.55485939968982
 20
6.426396675584193
 30
0.0
 10
37.44464137793308
 20
4.898104533869374
 30
0.0
 10
39.33373109459099
 20
3.178353273002638
 30
0.0
 10
41.22226117068437
 20
1.334063551556227
 30
0.0
 10
43.11045160100623
 20
-0.5623614920115725
 30
0.0
 10
44.99856678673163
 20
-2.436727229467927
 30
0.0
 10
46.88685678909524
 20
-4.215677634369062
 30
0.0
 10
48.7755862272717
 20
-5.829455017738715
 30
0.0
 10
50.66493433174785
 20
-7.215170496238864
 30
0.0
 10
52.55489022705778
 20
-8.316816779260957
 30
0.0
 10
54.4443825300738
 20
-9.096590861890878
 30
0.0
 10
56.3332273470808
 20
-9.50460459459968
 30
0.0
 10
57.99189642475916
 20
-9.585249319668549
 30
0.0
 10
59.02098072689098
 20
-9.374044426578788
 30
0.0
 10
59.42065451811278
 20
-9.292017074523262
 30
0.0
  0
SPLINE
  5
F1
330
1F
100
AcDbEntity
  8
외형선
  6
Continuous
 62
     1
370
    15
100
AcDbSpline
210
0.0
220
0.0
230
1.0
 70
     8
 71
     3
 72
    23
 73
    19
 74
     0
 42
0.000000001
 43
0.00000001
 40
0.0
 40
0.0
 40
0.0
 40
0.0
 40
0.0342951792424286
 40
0.0986672582437792
 40
0.1630329575546531
 40
0.227398068556752
 40
0.2917683843983849
 40
0.3561496826056939
 40
0.4205477077950082
 40
0.4849592957043354
 40
0.5493535553788129
 40
0.6137322219509624
 40
0.6781010479164833
 40
0.7424658152716682
 40
0.8068323181968486
 40
0.8712063456609205
 40
0.9355936640596493
 40
1.0
 40
1.0
 40
1.0
 40
1.0
 10
87.43748307896772
 20
9.478416596503486
 30
0.0
 10
87.77287663909422
 20
9.48622027329844
 30
0.0
 10
88.73780418113674
 20
9.508671457709394
 30
0.0
 10
90.33198854239782
 20
9.136739139383828
 30
0.0
 10
92.22015284942873
 20
8.406954371600545
 30
0.0
 10
94.10828031409804
 20
7.329284246037577
 30
0.0
 10
95.9966395569399
 20
5.969277097248693
 30
0.0
 10
97.88548220170645
 20
4.373860110474718
 30
0.0
 10
99.77497075830536
 20
2.607187532569619
 30
0.0
 10
101.6649274688496
 20
0.7384197412758209
 30
0.0
 10
103.5542790029967
 20
-1.159497396470815
 30
0.0
 10
105.4430111854948
 20
-3.011715832383286
 30
0.0
 10
107.3313027546524
 20
-4.745901343159742
 30
0.0
 10
109.219418183047
 20
-6.293533991160201
 30
0.0
 10
111.1076076064657
 20
-7.596475925225818
 30
0.0
 10
112.9961352692139
 20
-8.59460971701781
 30
0.0
 10
114.8852217464534
 20
-9.282696959779368
 30
0.0
 10
116.1450119090345
 20
-9.432233933681939
 30
0.0
 10
116.775
 20
-9.507013460872901
 30
0.0
  0
SPLINE
  5
F2
330
1F
100
AcDbEntity
  8
외형선
  6
Continuous
 62
     1
370
    15
100
AcDbSpline
210
0.0
220
0.0
230
1.0
 70
     8
 71
     3
 72
    22
 73
    18
 74
     0
 42
0.000000001
 43
0.00000001
 40
0.0
 40
0.0
 40
0.0
 40
0.0
 40
0.0688873177115057
 40
0.1377542947622279
 40
0.2066070561798902
 40
0.2754517695492704
 40
0.344294626598774
 40
0.4131418246308149
 40
0.4819995479160846
 40
0.5508739491722171
 40
0.6197668842511798
 40
0.6886453130026391
 40
0.7575058510154452
 40
0.8263546425796697
 40
0.8951978671848462
 40
0.964041721029567
 40
1.0
 40
1.0
 40
1.0
 40
1.0
 10
116.775
 20
-8.525855790117689
 30
0.0
 10
116.1450119090342
 20
-8.212721817339098
 30
0.0
 10
114.8852217464526
 20
-7.586546332225029
 30
0.0
 10
112.996135269217
 20
-6.260244431946921
 30
0.0
 10
111.1076076064539
 20
-4.712707665392927
 30
0.0
 10
109.2194181830908
 20
-2.974145126003081
 30
0.0
 10
107.331302754489
 20
-1.120779731546043
 30
0.0
 10
105.4430111861045
 20
0.7770316522233688
 30
0.0
 10
103.5542790007203
 20
2.644398840389765
 30
0.0
 10
101.6649274773486
 20
4.408367186288628
 30
0.0
 10
99.77497072657985
 20
5.999225609738056
 30
0.0
 10
97.88548232006593
 20
7.355430952871785
 30
0.0
 10
95.996639115373
 20
8.421858380179337
 30
0.0
 10
94.10828196169388
 20
9.163057915588418
 30
0.0
 10
92.22014670100802
 20
9.526731104371414
 30
0.0
 10
90.63270854833169
 20
9.576380446138693
 30
0.0
 10
89.67455063316453
 20
9.362228701702488
 30
0.0
 10
89.34580055255233
 20
9.28875187483272
 30
0.0
  0
SPLINE
  5
F3
330
1F
100
AcDbEntity
  8
외형선
  6
Continuous
 62
     1
370
    15
100
AcDbSpline
210
0.0
220
0.0
230
1.0
 70
     8
 71
     3
 72
    25
 73
    21
 74
     0
 42
0.000000001
 43
0.00000001
 40
0.0
 40
0.0
 40
0.0
 40
0.0
 40
0.0383237200492676
 40
0.097642871095425
 40
0.1569668459007862
 40
0.2163009689428925
 40
0.2756505342893675
 40
0.3350124871347967
 40
0.3943584049998517
 40
0.4536899788977528
 40
0.5130125105284998
 40
0.5723313286996644
 40
0.6316517733667422
 40
0.6909791796013326
 40
0.7503188615909351
 40
0.8096760961926646
 40
0.8690331277182873
 40
0.9283726591558121
 40
0.9876999683936591
 40
1.0
 40
1.0
 40
1.0
 40
1.0
 10
61.32953770197471
 20
-9.482229590521833
 30
0.0
 10
60.92292909228959
 20
-9.484026768692662
 30
0.0
 10
59.88695366999927
 20
-9.488605698823768
 30
0.0
 10
58.22158999474249
 20
-9.072178246031143
 30
0.0
 10
56.33322766684514
 20
-8.300701772813067
 30
0.0
 10
54.44438244436327
 20
-7.188744409540646
 30
0.0
 10
52.55489025002984
 20
-5.798901771692566
 30
0.0
 10
50.66493432560122
 20
-4.180822526398335
 30
0.0
 10
48.77558622889018
 20
-2.398944739251459
 30
0.0
 10
46.88685678876568
 20
-0.5231573997461164
 30
0.0
 10
44.99856678643196
 20
1.372976382352057
 30
0.0
 10
43.1104516025344
 20
3.215238624220073
 30
0.0
 10
41.22226116487084
 20
4.93156999255249
 30
0.0
 10
39.3337311163213
 20
6.454561992048887
 30
0.0
 10
37.44464129679785
 20
7.725312760852266
 30
0.0
 10
35.5548597025895
 20
8.690935308847706
 30
0.0
 10
33.66508372791835
 20
9.324249901968361
 30
0.0
 10
31.77600598501147
 20
9.560796809306321
 30
0.0
 10
30.38637304946292
 20
9.544873842138632
 30
0.0
 10
29.62641832572753
 20
9.339636253257073
 30
0.0
 10
29.49591694160291
 20
9.30439232544543
 30
0.0
  0
SPLINE
  5
F4
330
1F
100
AcDbEntity
  8
외형선
  6
Continuous
 62
     1
370
    15
100
AcDbSpline
210
0.0
220
0.0
230
1.0
 70
     8
 71
     3
 72
    24
 73
    20
 74
     0
 42
0.000000001
 43
0.00000001
 40
0.0
 40
0.0
 40
0.0
 40
0.0
 40
0.0442969846442159
 40
0.1082925510995283
 40
0.1722852394996782
 40
0.2362753966192989
 40
0.3002633704849316
 40
0.3642495102043514
 40
0.4235794033204821
 40
0.4829055285704995
 40
0.5422332265342067
 40
0.6015678330689809
 40
0.6609146633067703
 40
0.7202789957851804
 40
0.7796435313646742
 40
0.8389905121730598
 40
0.8983252157165076
 40
0.957652956836165
 40
1.0
 40
1.0
 40
1.0
 40
1.0
 10
12.62723360653461
 20
9.478644592883246
 30
0.0
 10
13.09732049392647
 20
9.476918057504996
 30
0.0
 10
14.24653885908103
 20
9.472697207662147
 30
0.0
 10
16.07479858767591
 20
8.966344027637042
 30
0.0
 10
18.11199671696805
 20
8.053506100205258
 30
0.0
 10
20.14908591185415
 20
6.757670783735639
 30
0.0
 10
22.18601930743997
 20
5.158291045959853
 30
0.0
 10
24.17366361866618
 20
3.367201793379994
 30
0.0
 10
26.11115034748584
 20
1.482420332394134
 30
0.0
 10
27.99929384877283
 20
-0.4125844755011946
 30
0.0
 10
29.88747481693009
 20
-2.291403876567391
 30
0.0
 10
31.77600206814878
 20
-4.080553229287753
 30
0.0
 10
33.66508478080311
 20
-5.709882539494363
 30
0.0
 10
35.55485940950043
 20
-7.115582011132344
 30
0.0
 10
37.44464141609329
 20
-8.241409561466853
 30
0.0
 10
39.33373093221293
 20
-9.047684689615856
 30
0.0
 10
41.22226178188746
 20
-9.486182389709295
 30
0.0
 10
42.93032723173992
 20
-9.590591053097338
 30
0.0
 10
44.00893702982774
 20
-9.38336988562984
 30
0.0
 10
44.45817265888211
 20
-9.297063297570219
 30
0.0
  0
SPLINE
  5
F5
330
1F
100
AcDbEntity
  8
외형선
  6
Continuous
 62
     1
370
    15
100
AcDbSpline
210
0.0
220
0.0
230
1.0
 70
     8
 71
     3
 72
    25
 73
    21
 74
     0
 42
0.000000001
 43
0.00000001
 40
0.0
 40
0.0
 40
0.0
 40
0.0
 40
0.0269188658034972
 40
0.0862425069391696
 40
0.1455634643518529
 40
0.2048870785051808
 40
0.2642186818860752
 40
0.3235635830219817
 40
0.3829261586551538
 40
0.4422816478720304
 40
0.5016206510278993
 40
0.5609484544956183
 40
0.6202703781932775
 40
0.6795917596827632
 40
0.7389179381541351
 40
0.7982542383994586
 40
0.8576059548798395
 40
0.9169701712887592
 40
0.9763184173246919
 40
1.0
 40
1.0
 40
1.0
 40
1.0
 10
72.47585532077966
 20
9.478624282896515
 30
0.0
 10
72.76147526725765
 20
9.488908754947499
 30
0.0
 10
73.67654280375444
 20
9.521858087162958
 30
0.0
 10
75.22087403026052
 20
9.178801493274594
 30
0.0
 10
77.10899160697232
 20
8.478568705581203
 30
0.0
 10
78.99722394267633
 20
7.42491424775148
 30
0.0
 10
80.88584980289343
 20
6.085858469312409
 30
0.0
 10
82.77506491870079
 20
4.506535263569804
 30
0.0
 10
84.66496118319293
 20
2.751103875005234
 30
0.0
 10
86.55459432888722
 20
0.8875922720667178
 30
0.0
 10
88.44355725233288
 20
-1.010619606829729
 30
0.0
 10
90.33199585463484
 20
-2.869029487321521
 30
0.0
 10
92.22015089913899
 20
-4.614944628760231
 30
0.0
 10
94.10828080346454
 20
-6.179886039959652
 30
0.0
 10
95.9966395499113
 20
-7.503138069118155
 30
0.0
 10
97.88548174021241
 20
-8.530786286136532
 30
0.0
 10
99.77497261201052
 20
-9.230162901902926
 30
0.0
 10
101.6649205149182
 20
-9.544948732981336
 30
0.0
 10
103.1759714986867
 20
-9.56523334410128
 30
0.0
 10
104.0569474176263
 20
-9.351489930817984
 30
0.0
 10
104.308217405571
 20
-9.290526510905671
 30
0.0
  0
SPLINE
  5
F6
330
1F
100
AcDbEntity
  8
외형선
  6
Continuous
 62
     1
370
    15
100
AcDbSpline
210
0.0
220
0.0
230
1.0
 70
     8
 71
     3
 72
    25
 73
    21
 74
     0
 42
0.000000001
 43
0.00000001
 40
0.0
 40
0.0
 40
0.0
 40
0.0
 40
0.0242620127595284
 40
0.083596517711601
 40
0.1429453940238862
 40
0.202310240878763
 40
0.261662587672354
 40
0.3209995180671653
 40
0.3803263265805335
 40
0.4396483380610717
 40
0.4989708917555413
 40
0.5582993252825128
 40
0.6176389586165757
 40
0.6769950781867274
 40
0.7363582842484319
 40
0.7957038156251673
 40
0.8550360491056704
 40
0.9143602932737618
 40
0.9736818806729929
 40
1.0
 40
1.0
 40
1.0
 40
1.0
 10
106.2153101147306
 20
-9.479781773328867
 30
0.0
 10
105.9579030357438
 20
-9.490865487191499
 30
0.0
 10
105.0709883493615
 20
-9.529055224020485
 30
0.0
 10
103.5542748478838
 20
-9.201451661633481
 30
0.0
 10
101.6649285851796
 20
-8.517901929973437
 30
0.0
 10
99.77497044983139
 20
-7.477711268142347
 30
0.0
 10
97.88548231935306
 20
-6.150380449013355
 30
0.0
 10
95.996639394769
 20
-4.58042344007072
 30
0.0
 10
94.10828084505832
 20
-2.831524852191926
 30
0.0
 10
92.22015088788129
 20
-0.9716175750814564
 30
0.0
 10
90.33199585807313
 20
0.926344948598328
 30
0.0
 10
88.44355724983814
 20
2.788096343063313
 30
0.0
 10
86.55459433542921
 20
4.540775511712184
 30
0.0
 10
84.66496115951207
 20
6.115396848565207
 30
0.0
 10
82.77506500687929
 20
7.450595958261613
 30
0.0
 10
80.88584947400167
 20
8.492313949097014
 30
0.0
 10
78.9972251697385
 20
9.206664787491501
 30
0.0
 10
77.10898702825338
 20
9.539109361130063
 30
0.0
 10
75.57105543939716
 20
9.569399833481036
 30
0.0
 10
74.66246061642889
 20
9.355103731800614
 30
0.0
 10
74.38323842050033
 20
9.289247943744652
 30
0.0
  0
SPLINE
  5
F7
330
1F
100
AcDbEntity
  8
외형선
  6
Continuous
 62
     1
370
    15
100
AcDbSpline
210
0.0
220
0.0
230
1.0
 70
     8
 71
     3
 72
    24
 73
    20
 74
     0
 42
0.000000001
 43
0.00000001
 40
0.0
 40
0.0
 40
0.0
 40
0.0
 40
0.0430165035019563
 40
0.1023436654929267
 40
0.1616724542085942
 40
0.2210082054709924
 40
0.2803562342151177
 40
0.3397218180403307
 40
0.3990871987608723
 40
0.4584350769317431
 40
0.5177707311837545
 40
0.5770994767427092
 40
0.6364266495602037
 40
0.6957575903103419
 40
0.7597448598827339
 40
0.823733963633726
 40
0.8877252506772569
 40
0.9517190690460149
 40
1.0
 40
1.0
 40
1.0
 40
1.0
 10
46.36756910712364
 20
-9.487719821605555
 30
0.0
 10
45.91122168206874
 20
-9.483600358801297
 30
0.0
 10
44.82549261493858
 20
-9.473799447780465
 30
0.0
 10
43.11045417022071
 20
-9.024286013870817
 30
0.0
 10
41.22226048178743
 20
-8.22424605399167
 30
0.0
 10
39.3337312806684
 20
-7.08884864475942
 30
0.0
 10
37.44464132268369
 20
-5.678914758487423
 30
0.0
 10
35.55485943454071
 20
-4.045469448037597
 30
0.0
 10
33.66508477406559
 20
-2.25368813084212
 30
0.0
 10
31.77600207006544
 20
-0.3734386222051921
 30
0.0
 10
29.88747481599819
 20
1.52120699642056
 30
0.0
 10
27.99929385058362
 20
3.356151545916067
 30
0.0
 10
26.11115034117423
 20
5.059495253940669
 30
0.0
 10
24.17366364288167
 20
6.604119334253165
 30
0.0
 10
22.18601920917239
 20
7.905903166002664
 30
0.0
 10
20.14908627768057
 20
8.883551104641867
 30
0.0
 10
18.11199535186119
 20
9.442448878625306
 30
0.0
 10
16.24156962747284
 20
9.608646314719564
 30
0.0
 10
15.05014248901023
 20
9.389328063755546
 30
0.0
 10
14.53779922611447
 20
9.29501576828737
 30
0.0
  0
LINE
  5
F8
330
1F
100
AcDbEntity
  8
외형선
  6
Continuous
 62
     1
370
    15
100
AcDbLine
 10
116.775
 20
-8.525855790117692
 30
0.0
 11
116.775
 21
-6.30875877624818
 31
0.0
  0
LINE
  5
F9
330
1F
100
AcDbEntity
  8
외형선
  6
Continuous
 62
     1
370
    15
100
AcDbLine
 10
116.775
 20
9.031639665469903
 30
0.0
 11
116.775
 21
9.52500000000001
 31
0.0
  0
LINE
  5
FA
330
1F
100
AcDbEntity
  8
외형선
  6
Continuous
370
    15
100
AcDbLine
 10
12.00000000000001
 20
-2.985581381403827
 30
0.0
 11
11.99999999999997
 21
0.627317648456064
 31
0.0
  0
LINE
  5
FB
330
1F
100
AcDbEntity
  8
외형선
  6
Continuous
370
    15
100
AcDbLine
 10
12.00000000000001
 20
-8.506901916701558
 30
0.0
 11
11.99999999999997
 21
-6.276988518672427
 31
0.0
  0
LINE
  5
FC
330
1F
100
AcDbEntity
  8
외형선
  6
Continuous
 62
     1
370
    15
100
AcDbLine
 10
116.775
 20
4.246811515256712
 30
0.0
 11
116.775
 21
7.136188597781786
 31
0.0
  0
LINE
  5
FD
330
1F
100
AcDbEntity
  8
외형선
  6
Continuous
 62
     1
370
    15
100
AcDbLine
 10
116.775
 20
-3.025741223751678
 30
0.0
 11
116.775
 21
0.5850812377624486
 31
0.0
  0
LINE
  5
FE
330
1F
100
AcDbEntity
  8
외형선
  6
Continuous
370
    15
100
AcDbLine
 10
11.99999999999999
 20
-9.525000000000002
 30
0.0
 11
11.99999999999999
 21
-9.50431994242279
 31
0.0
  0
LINE
  5
FF
330
1F
100
AcDbEntity
  8
외형선
  6
Continuous
370
    15
100
AcDbLine
 10
12.00000000000001
 20
4.284652235551734
 30
0.0
 11
11.99999999999999
 21
7.164149645034979
 31
0.0
  0
LINE
  5
100
330
1F
100
AcDbEntity
  8
외형선
  6
Continuous
370
    15
100
AcDbLine
 10
12.00000000000001
 20
9.044994682973282
 30
0.0
 11
11.99999999999999
 21
9.52500000000001
 31
0.0
  0
LINE
  5
101
330
1F
100
AcDbEntity
  8
외형선
  6
Continuous
 62
     1
370
    15
100
AcDbLine
 10
116.775
 20
-9.525000000000002
 30
0.0
 11
116.775
 21
-9.507013460872901
 31
0.0
  0
LINE
  5
102
330
1F
100
AcDbEntity
  8
외형선
  6
Continuous
370
    15
100
AcDbLine
 10
11.00002539195328
 20
-9.386271912351322
 30
0.0
 11
11.00002539195328
 21
-8.011132706429368
 31
0.0
  0
SPLINE
  5
103
330
1F
100
AcDbEntity
  8
외형선
  6
Continuous
370
    15
100
AcDbSpline
210
0.0
220
0.0
230
1.0
 70
     8
 71
     3
 72
     8
 73
     4
 74
     0
 42
0.000000001
 43
0.00000001
 40
0.0
 40
0.0
 40
0.0
 40
0.0
 40
1.0
 40
1.0
 40
1.0
 40
1.0
 10
12.0
 20
-9.504319942422786
 30
0.0
 10
11.66858293034873
 20
-9.482411470096903
 30
0.0
 10
11.33434353543393
 20
-9.443004457902891
 30
0.0
 10
11.00002539195329
 20
-9.386272673670096
 30
0.0
  0
SPLINE
  5
104
330
1F
100
AcDbEntity
  8
외형선
  6
Continuous
370
    15
100
AcDbSpline
210
0.0
220
0.0
230
1.0
 70
     8
 71
     3
 72
     8
 73
     4
 74
     0
 42
0.000000001
 43
0.00000001
 40
0.0
 40
0.0
 40
0.0
 40
0.0
 40
1.0
 40
1.0
 40
1.0
 40
1.0
 10
11.99999999999999
 20
9.044994682973293
 30
0.0
 10
11.66858293034873
 20
9.149263273586222
 30
0.0
 10
11.33434353543395
 20
9.237233505263212
 30
0.0
 10
11.00002539195329
 20
9.308034666825588
 30
0.0
  0
LINE
  5
105
330
1F
100
AcDbEntity
  8
외형선
  6
Continuous
370
    15
100
AcDbLine
 10
11.00002539195328
 20
7.78241843634628
 30
0.0
 11
11.00002539195328
 21
9.308033671183857
 31
0.0
  0
SPLINE
  5
106
330
1F
100
AcDbEntity
  8
외형선
  6
Continuous
370
    15
100
AcDbSpline
210
0.0
220
0.0
230
1.0
 70
     8
 71
     3
 72
     8
 73
     4
 74
     0
 42
0.000000001
 43
0.00000001
 40
0.0
 40
0.0
 40
0.0
 40
0.0
 40
1.0
 40
1.0
 40
1.0
 40
1.0
 10
12.0
 20
7.164149645034986
 30
0.0
 10
11.66858293034873
 20
7.383367499960041
 30
0.0
 10
11.33434353543393
 20
7.590063260089707
 30
0.0
 10
11.00002539195329
 20
7.782415855052645
 30
0.0
  0
SPLINE
  5
107
330
1F
100
AcDbEntity
  8
외형선
  6
Continuous
370
    15
100
AcDbSpline
210
0.0
220
0.0
230
1.0
 70
     8
 71
     3
 72
     8
 73
     4
 74
     0
 42
0.000000001
 43
0.00000001
 40
0.0
 40
0.0
 40
0.0
 40
0.0
 40
1.0
 40
1.0
 40
1.0
 40
1.0
 10
11.99999999999999
 20
4.284652235551748
 30
0.0
 10
11.66858293034873
 20
4.581747695371329
 30
0.0
 10
11.33434353543395
 20
4.871824396266699
 30
0.0
 10
11.00002539195329
 20
5.152418696239272
 30
0.0
  0
SPLINE
  5
108
330
1F
100
AcDbEntity
  8
외형선
  6
Continuous
370
    15
100
AcDbSpline
210
0.0
220
0.0
230
1.0
 70
     8
 71
     3
 72
     8
 73
     4
 74
     0
 42
0.000000001
 43
0.00000001
 40
0.0
 40
0.0
 40
0.0
 40
0.0
 40
1.0
 40
1.0
 40
1.0
 40
1.0
 10
12.0
 20
0.6273176484560627
 30
0.0
 10
11.66858293034873
 20
0.9592469843312921
 30
0.0
 10
11.33434353543393
 20
1.29096594378569
 30
0.0
 10
11.00002539195329
 20
1.61972537657273
 30
0.0
  0
SPLINE
  5
109
330
1F
100
AcDbEntity
  8
외형선
  6
Continuous
370
    15
100
AcDbSpline
210
0.0
220
0.0
230
1.0
 70
     8
 71
     3
 72
     8
 73
     4
 74
     0
 42
0.000000001
 43
0.00000001
 40
0.0
 40
0.0
 40
0.0
 40
0.0
 40
1.0
 40
1.0
 40
1.0
 40
1.0
 10
11.99999999999999
 20
-2.985581381403816
 30
0.0
 10
11.66858293034873
 20
-2.669693543420428
 30
0.0
 10
11.33434353543395
 20
-2.347433370562741
 30
0.0
 10
11.00002539195329
 20
-2.02141426757932
 30
0.0
  0
LINE
  5
10A
330
1F
100
AcDbEntity
  8
외형선
  6
Continuous
370
    15
100
AcDbLine
 10
11.00002539195328
 20
-5.491774602222656
 30
0.0
 11
11.00002539195328
 21
-2.021418852219331
 31
0.0
  0
SPLINE
  5
10B
330
1F
100
AcDbEntity
  8
외형선
  6
Continuous
370
    15
100
AcDbSpline
210
0.0
220
0.0
230
1.0
 70
     8
 71
     3
 72
     8
 73
     4
 74
     0
 42
0.000000001
 43
0.00000001
 40
0.0
 40
0.0
 40
0.0
 40
0.0
 40
1.0
 40
1.0
 40
1.0
 40
1.0
 10
12.0
 20
-6.276988518672424
 30
0.0
 10
11.66858293034873
 20
-6.026787405053237
 30
0.0
 10
11.33434353543393
 20
-5.764361713826204
 30
0.0
 10
11.00002539195329
 20
-5.491778260183624
 30
0.0
  0
SPLINE
  5
10C
330
1F
100
AcDbEntity
  8
외형선
  6
Continuous
370
    15
100
AcDbSpline
210
0.0
220
0.0
230
1.0
 70
     8
 71
     3
 72
     8
 73
     4
 74
     0
 42
0.000000001
 43
0.00000001
 40
0.0
 40
0.0
 40
0.0
 40
0.0
 40
1.0
 40
1.0
 40
1.0
 40
1.0
 10
11.99999999999999
 20
-8.506901916701558
 30
0.0
 10
11.66858293034873
 20
-8.357264511856311
 30
0.0
 10
11.33434353543395
 20
-8.191596505683638
 30
0.0
 10
11.00002539195329
 20
-8.011130168624344
 30
0.0
  0
LINE
  5
10D
330
1F
100
AcDbEntity
  8
외형선
  6
Continuous
370
    15
100
AcDbLine
 10
-59.12000000000003
 20
0.0000000000000022
 30
0.0
 11
-59.12000000000003
 21
9.525000000000002
 31
0.0
  0
LINE
  5
10E
330
1F
100
AcDbEntity
  8
외형선
  6
Continuous
370
    15
100
AcDbLine
 10
-59.12000000000003
 20
-9.524999999999995
 30
0.0
 11
-59.12000000000003
 21
0.0000000000000022
 31
0.0
  0
LINE
  5
10F
330
1F
100
AcDbEntity
  8
외형선
  6
Continuous
370
    15
100
AcDbLine
 10
11.00002539195328
 20
1.619729788391969
 30
0.0
 11
11.00002539195328
 21
5.152414750384211
 31
0.0
  0
LINE
  5
110
330
1F
100
AcDbEntity
  8
외형선
  6
Continuous
370
    15
100
AcDbLine
 10
-61.02500000000002
 20
0.0000000000000022
 30
0.0
 11
-61.02500000000002
 21
7.620000000000009
 31
0.0
  0
LINE
  5
111
330
1F
100
AcDbEntity
  8
외형선
  6
Continuous
370
    15
100
AcDbLine
 10
-61.02500000000002
 20
-7.620000000000005
 30
0.0
 11
-61.02500000000002
 21
0.0000000000000022
 31
0.0
  0
SPLINE
  5
112
330
1F
100
AcDbEntity
  8
외형선
  6
Continuous
370
    15
100
AcDbSpline
210
0.0
220
0.0
230
1.0
 70
    24
 71
     3
 72
    15
 73
    11
 74
     0
 42
0.000000001
 43
0.00000001
 40
0.0
 40
0.0
 40
0.0
 40
0.0
 40
0.1255016788702503
 40
0.2516550929546301
 40
0.3778085070390094
 40
0.503961921123392
 40
0.6301153352077661
 40
0.7562687492921304
 40
0.882422163376531
 40
0.9999999999999999
 40
0.9999999999999999
 40
0.9999999999999999
 40
0.9999999999999999
 10
12.00000000000004
 20
0.6113782964625372
 30
0.0
 10
12.00000000000001
 20
0.6534034910559101
 30
0.0
 10
11.99999999999993
 20
0.737672118751046
 30
0.0
 10
11.99999999999999
 20
1.120475370924929
 30
0.0
 10
11.99999999999993
 20
1.644698525964045
 30
0.0
 10
12.00000000000015
 20
2.269932499594951
 30
0.0
 10
12.00000000000003
 20
2.921679126460257
 30
0.0
 10
11.99999999999997
 20
3.52313657801278
 30
0.0
 10
12.00000000000007
 20
4.012447809920607
 30
0.0
 10
12.00000000000003
 20
4.196070994151381
 30
0.0
 10
12.0
 20
4.284652235551748
 30
0.0
  0
SPLINE
  5
113
330
1F
100
AcDbEntity
  8
외형선
  6
Continuous
370
    15
100
AcDbSpline
210
0.0
220
0.0
230
1.0
 70
    24
 71
     3
 72
    15
 73
    11
 74
     0
 42
0.000000001
 43
0.00000001
 40
0.0
 40
0.0
 40
0.0
 40
0.0
 40
0.1073099070205427
 40
0.243453810861739
 40
0.379597714702934
 40
0.5157416185441284
 40
0.6518855223853265
 40
0.7880294262265154
 40
0.9241733300676936
 40
1.0
 40
1.0
 40
1.0
 40
1.0
 10
12.0
 20
-6.276988518672424
 30
0.0
 10
12.00000000000003
 20
-6.168460406655265
 30
0.0
 10
12.00000000000007
 20
-5.922242856106558
 30
0.0
 10
11.99999999999993
 20
-5.38720073831125
 30
0.0
 10
11.99999999999999
 20
-4.74813162521136
 30
0.0
 10
11.99999999999995
 20
-4.104219036533717
 30
0.0
 10
12.00000000000015
 20
-3.52850628522145
 30
0.0
 10
12.00000000000003
 20
-3.097620532285977
 30
0.0
 10
11.99999999999999
 20
-2.85487439426437
 30
0.0
 10
12.0
 20
-2.850804578001528
 30
0.0
 10
12.00000000000001
 20
-2.849348712647419
 30
0.0
  0
SPLINE
  5
114
330
1F
100
AcDbEntity
  8
외형선
  6
Continuous
370
    15
100
AcDbSpline
210
0.0
220
0.0
230
1.0
 70
    24
 71
     3
 72
    10
 73
     6
 74
     0
 42
0.000000001
 43
0.00000001
 40
0.0
 40
0.0
 40
0.0
 40
0.0
 40
0.3233556793428144
 40
0.6735815569182575
 40
1.0
 40
1.0
 40
1.0
 40
1.0
 10
12.00000000000004
 20
7.287168293661408
 30
0.0
 10
12.00000000000001
 20
7.464043611131624
 30
0.0
 10
11.99999999999995
 20
7.83249222463406
 30
0.0
 10
12.00000000000009
 20
8.463395336600371
 30
0.0
 10
12.0
 20
8.85572960405364
 30
0.0
 10
11.99999999999999
 20
9.04499468297329
 30
0.0
  0
SPLINE
  5
115
330
1F
100
AcDbEntity
  8
외형선
  6
Continuous
370
    15
100
AcDbSpline
210
0.0
220
0.0
230
1.0
 70
    24
 71
     3
 72
     9
 73
     5
 74
     0
 42
0.000000001
 43
0.00000001
 40
0.0
 40
0.0
 40
0.0
 40
0.0
 40
0.5675073347927571
 40
1.0
 40
1.0
 40
1.0
 40
1.0
 10
12.00000000000001
 20
-9.504319942422786
 30
0.0
 10
12.00000000000004
 20
-9.334679136640837
 30
0.0
 10
12.0000000000001
 20
-9.035756470127815
 30
0.0
 10
12.00000000000003
 20
-8.752448977770698
 30
0.0
 10
11.99999999999999
 20
-8.629920565327986
 30
0.0
  0
LINE
  5
116
330
1F
100
AcDbEntity
  8
중심선
 62
     1
100
AcDbLine
 10
-64.02500000000003
 20
-0.0000000000000064
 30
0.0
 11
119.775
 21
0.0000000000000117
 31
0.0
  0
LINE
  5
117
330
1F
100
AcDbEntity
  8
참조1
100
AcDbLine
 10
27.87499999999997
 20
-0.0000000000000104
 30
0.0
 11
27.87499999999997
 21
-40.00000000000001
 31
0.0
  0
LINE
  5
118
330
1F
100
AcDbEntity
  8
참조1
100
AcDbLine
 10
27.87499999999997
 20
-40.00000000000001
 30
0.0
 11
-23.79635681430868
 21
-40.00000000000001
 31
0.0
  0
INSERT
  5
11A
330
1F
100
AcDbEntity
  8
0
  6
Continuous
 62
     7
100
AcDbBlockReference
 66
     1
  2
블럭10
 10
13.93472706787476
 20
-52.04717430164394
 30
0.0
  0
ATTRIB
  5
11B
330
11A
100
AcDbEntity
  8
FORMAT
 62
     2
100
AcDbText
 10
3.793091055738135
 20
-49.97180738881175
 30
0.0
 40
4.233333333333333
  1
EM218902 [ 8 FLUTE ]
 41
0.75
  7
SLDTEXTSTYLE0
 11
3.793091055738135
 21
-52.08847405547842
 31
0.0
100
AcDbAttribute
  2
AUTOATTR0
 70
     0
 74
     1
  0
SEQEND
  5
11C
330
11A
100
AcDbEntity
  8
0
  6
Continuous
 62
     7
  0
HATCH
  5
11D
330
1F
100
AcDbEntity
  8
중심선
100
AcDbHatch
 10
0.0
 20
0.0
 30
0.0
210
0.0
220
0.0
230
1.0
  2
SOLID
 70
     1
 71
     0
 91
        1
 92
        0
 93
        4
 72
     1
 10
19.6496363722556
 20
-35.8
 11
16.20336112841832
 21
-35.8
 72
     1
 10
16.20336112841832
 20
-35.8
 11
14.0751312692143
 21
-38.33632558057261
 72
     1
 10
14.0751312692143
 20
-38.33632558057261
 11
17.52143959816473
 21
-38.33628615127012
 72
     1
 10
17.52143959816473
 20
-38.33628615127012
 11
19.6496363722556
 21
-35.8
 97
        0
 75
     0
 76
     1
 98
        1
 10
-4.350000000000058
 20
-0.0010749287238996
  0
HATCH
  5
11E
330
1F
100
AcDbEntity
  8
중심선
100
AcDbHatch
 10
0.0
 20
0.0
 30
0.0
210
0.0
220
0.0
230
1.0
  2
SOLID
 70
     1
 71
     0
 91
        1
 92
        0
 93
        4
 72
     1
 10
24.66240036329155
 20
-35.79999999999998
 11
21.21612511945433
 21
-35.79999999999998
 72
     1
 10
21.21612511945433
 20
-35.79999999999998
 11
16.68498711109688
 21
-41.20000000000002
 72
     1
 10
16.68498711109688
 20
-41.20000000000002
 11
20.13126235493417
 21
-41.20000000000002
 72
     1
 10
20.13126235493417
 20
-41.20000000000002
 11
24.66240036329155
 21
-35.79999999999998
 97
        0
 75
     0
 76
     1
 98
        1
 10
-4.350000000000058
 20
-0.0010749287238996
  0
HATCH
  5
11F
330
1F
100
AcDbEntity
  8
중심선
100
AcDbHatch
 10
0.0
 20
0.0
 30
0.0
210
0.0
220
0.0
230
1.0
  2
SOLID
 70
     1
 71
     0
 91
        1
 92
        0
 93
        4
 72
     1
 10
29.67516435432748
 20
-35.79999999999998
 11
26.22888911049039
 21
-35.79999999999998
 72
     1
 10
26.22888911049039
 20
-35.79999999999998
 11
19.18045220860109
 21
-44.20000000000002
 72
     1
 10
19.18045220860109
 20
-44.20000000000002
 11
22.62672745243837
 21
-44.20000000000002
 72
     1
 10
22.62672745243837
 20
-44.20000000000002
 11
29.67516435432748
 21
-35.79999999999998
 97
        0
 75
     0
 76
     1
 98
        1
 10
-4.350000000000058
 20
-0.0010749287238996
  0
HATCH
  5
120
330
1F
100
AcDbEntity
  8
중심선
100
AcDbHatch
 10
0.0
 20
0.0
 30
0.0
210
0.0
220
0.0
230
1.0
  2
SOLID
 70
     1
 71
     0
 91
        1
 92
        0
 93
        6
 72
     3
 10
34.47505478533965
 20
-40.00000000005128
 11
3.960054785062283
 21
1.540882976769353E-10
 40
0.3939339440162628
 50
17.09539180608455
 51
320.0019657685069
 73
     0
 72
     1
 10
36.15805444104021
 20
-38.58789400463828
 11
38.4633563147412
 21
-36.65356729459042
 72
     3
 10
34.4750547852868
 20
-40.00000000000016
 11
6.600054785286829
 21
-1.278976924368180E-13
 40
0.636358354079598
 50
39.99873849337445
 51
368.4976242363724
 73
     1
 72
     1
 10
40.90038727718738
 20
-39.03999999993003
 11
33.15512209212275
 21
-39.03999999993003
 72
     1
 10
33.15512209212275
 20
-39.03999999993003
 11
33.15509704767679
 21
-40.95999999992992
 72
     1
 10
33.15509704767679
 20
-40.95999999992992
 11
37.5964768171488
 21
-40.95999999992989
 97
        0
 75
     0
 76
     1
 98
        1
 10
-4.350000000000058
 20
-0.0010749287238996
  0
DIMENSION
  5
132
330
1F
100
AcDbEntity
  8
치수문자_일반주서
100
AcDbDimension
  2
_D_1
 10
11.99999999999999
 20
31.89215476237598
 30
0.0
 11
64.38749999999999
 21
31.89215476237598
 31
0.0
 70
   160
  1
<>
 71
     2
 42
104.775
  3
SLDDIMSTYLE3
100
AcDbAlignedDimension
 13
116.775
 23
9.525000000000013
 33
0.0
 14
11.99999999999999
 24
9.525000000000002
 34
0.0
100
AcDbRotatedDimension
1001
PE_URL
1000

1001
ACAD
1000
DSTYLE
1002
{
1070
   171
1070
     6
1070
   273
1070
     7
1002
}
  0
DIMENSION
  5
146
330
1F
100
AcDbEntity
  8
치수문자_일반주서
100
AcDbDimension
  2
_D_2
 10
-61.02500000000003
 20
54.19680952475196
 30
0.0
 11
27.87499999999999
 21
54.19680952475196
 31
0.0
 70
   160
  1
<>
 71
     2
 42
177.8
  3
SLDDIMSTYLE3
100
AcDbAlignedDimension
 13
116.775
 23
9.525000000000013
 33
0.0
 14
-61.02500000000002
 24
7.620000000000009
 34
0.0
 50
0.0000000000000046
100
AcDbRotatedDimension
1001
PE_URL
1000

1001
ACAD
1000
DSTYLE
1002
{
1070
   171
1070
     6
1070
   273
1070
     7
1002
}
  0
DIMENSION
  5
15A
330
1F
100
AcDbEntity
  8
치수문자_일반주서
100
AcDbDimension
  2
_D_3
 10
-74.02499999999999
 20
-9.525000000000057
 30
0.0
 11
-74.02500000000003
 21
0.00000000000001
 31
0.0
 70
   160
  1
%%c<>
 71
     2
 42
19.05000000000001
 52
-270.0
  3
SLDDIMSTYLE3
100
AcDbAlignedDimension
 13
-59.12000000000003
 23
9.52500000000001
 33
0.0
 14
-59.12000000000003
 24
-9.525000000000002
 34
0.0
 50
90.0000000000002
100
AcDbRotatedDimension
1001
ACAD
1000
DSTYLE
1002
{
1070
   171
1070
     6
1070
   273
1070
     7
1002
}
  0
LINE
  5
16F
330
1F
100
AcDbEntity
  8
참조1
100
AcDbLine
 10
74.17598381534557
 20
7.439999999999996
 30
0.0
 11
74.17598381534557
 21
-7.440000000000008
 31
0.0
  0
LINE
  5
170
330
1F
100
AcDbEntity
  8
참조1
100
AcDbLine
 10
86.87598381534559
 20
5.439999999999996
 30
0.0
 11
74.17598381534557
 21
5.439999999999996
 31
0.0
  0
SOLID
  5
171
330
1F
100
AcDbEntity
  8
참조1
100
AcDbTrace
 10
74.17598381534557
 20
5.439999999999996
 30
0.0
 11
80.52598381534557
 21
4.423999999999996
 31
0.0
 12
80.52598381534557
 22
6.455999999999996
 32
0.0
 13
80.52598381534557
 23
6.455999999999996
 33
0.0
  0
LINE
  5
172
330
1F
100
AcDbEntity
  8
참조1
100
AcDbLine
 10
86.87598381534559
 20
-5.440000000000008
 30
0.0
 11
74.17598381534557
 21
-5.440000000000008
 31
0.0
  0
SOLID
  5
173
330
1F
100
AcDbEntity
  8
참조1
100
AcDbTrace
 10
74.17598381534557
 20
-5.440000000000008
 30
0.0
 11
80.52598381534557
 21
-6.456000000000008
 31
0.0
 12
80.52598381534557
 22
-4.424000000000008
 32
0.0
 13
80.52598381534557
 23
-4.424000000000008
 33
0.0
  0
MTEXT
  5
174
330
1F
100
AcDbEntity
  8
참조1
100
AcDbMText
 10
83.57347390781587
 20
10.98821664464993
 30
0.0
 40
3.5
 41
0.0
 71
     1
 72
     1
  1
A
  7
SLDTEXTSTYLE0
 73
     1
 44
1.0
  0
MTEXT
  5
175
330
1F
100
AcDbEntity
  8
참조1
100
AcDbMText
 10
83.57347390781587
 20
0.1082166446499263
 30
0.0
 40
3.5
 41
0.0
 71
     1
 72
     1
  1
A
  7
SLDTEXTSTYLE0
 73
     1
 44
1.0
  0
INSERT
  5
17C
330
1F
100
AcDbEntity
  8
해칭선
100
AcDbBlockReference
  2
SW_DOWELSYMBOL_0
 10
0.0
 20
0.0
 30
0.0
  0
DIMENSION
  5
1F7
330
1F
100
AcDbEntity
  8
치수문자_일반주서
100
AcDbDimension
  2
*D10
 10
132.6571699499133
 20
-9.525000000000002
 30
0.0
 11
132.6571699499133
 21
29.91025000000001
 31
0.0
 70
   160
  1
%%C19.05 [3/4]
 71
     5
 42
19.05000000000001
  3
SLDDIMSTYLE3
100
AcDbAlignedDimension
 13
116.775
 23
9.52500000000001
 33
0.0
 14
116.775
 24
-9.525000000000002
 34
0.0
 50
90.0
100
AcDbRotatedDimension
1001
ACAD
1000
DSTYLE
1002
{
1070
   171
1070
     6
1070
   273
1070
     7
1002
}
1001
PE_URL
1000

  0
ENDSEC
  0
SECTION
  2
OBJECTS
  0
DICTIONARY
  5
C
330
0
100
AcDbDictionary
281
     1
  3
ACAD_DETAILVIEWSTYLE
350
1A4
  3
ACAD_GROUP
350
D
  3
ACAD_LAYOUT
350
1A
  3
ACAD_MLINESTYLE
350
17
  3
ACAD_PLOTSETTINGS
350
19
  3
ACAD_PLOTSTYLENAME
350
E
  3
ACAD_SCALELIST
350
47
  3
ACAD_SECTIONVIEWSTYLE
350
1A5
  3
AcDbVariableDictionary
350
19F
  3
APPDATA
350
19E
  3
DWGPROPS
350
22E
  0
DICTIONARY
  5
22C
330
1F
100
AcDbDictionary
280
     1
281
     1
  3
DIM_BOUNDING_BOXES_V1
360
22D
  0
DICTIONARY
  5
1A4
102
{ACAD_REACTORS
330
C
102
}
330
C
100
AcDbDictionary
281
     1
  0
DICTIONARY
  5
D
102
{ACAD_REACTORS
330
C
102
}
330
C
100
AcDbDictionary
281
     1
  0
DICTIONARY
  5
1A
102
{ACAD_REACTORS
330
C
102
}
330
C
100
AcDbDictionary
281
     1
  3
Layout1
350
1E
  3
Layout2
350
26
  3
Model
350
22
  0
DICTIONARY
  5
17
102
{ACAD_REACTORS
330
C
102
}
330
C
100
AcDbDictionary
281
     1
  3
Standard
350
18
  0
DICTIONARY
  5
19
102
{ACAD_REACTORS
330
C
102
}
330
C
100
AcDbDictionary
281
     1
  0
ACDBDICTIONARYWDFLT
  5
E
102
{ACAD_REACTORS
330
C
102
}
330
C
100
AcDbDictionary
281
     1
  3
Normal
350
F
100
AcDbDictionaryWithDefault
340
F
  0
DICTIONARY
  5
47
102
{ACAD_REACTORS
330
C
102
}
330
C
100
AcDbDictionary
281
     1
  3
A0
350
48
  3
A1
350
49
  3
A2
350
4A
  3
A3
350
4B
  3
A4
350
4C
  3
A5
350
4D
  3
A6
350
4E
  3
A7
350
4F
  3
A8
350
50
  3
A9
350
51
  3
B0
350
52
  3
B1
350
53
  3
B2
350
54
  3
B3
350
55
  3
B4
350
56
  3
B5
350
57
  3
B6
350
58
  3
B7
350
59
  3
B8
350
5A
  3
B9
350
5B
  3
C0
350
5C
  3
C1
350
5D
  3
C2
350
5E
  3
C3
350
5F
  3
C4
350
60
  3
C5
350
61
  3
C6
350
62
  3
C7
350
63
  3
C8
350
64
  3
C9
350
65
  3
D0
350
66
  3
D1
350
67
  3
D2
350
68
  0
DICTIONARY
  5
1A5
102
{ACAD_REACTORS
330
C
102
}
330
C
100
AcDbDictionary
281
     1
  0
DICTIONARY
  5
19F
102
{ACAD_REACTORS
330
C
102
}
330
C
100
AcDbDictionary
281
     1
  0
DICTIONARY
  5
19E
102
{ACAD_REACTORS
330
C
102
}
330
C
100
AcDbDictionary
281
     1
  0
XRECORD
  5
22E
102
{ACAD_REACTORS
330
C
102
}
330
C
100
AcDbXrecord
280
     1
  1
DWGPROPS COOKIE
  2

  3

  4

  6

  7

  8
12017165
  9

300
=
301
=
302
=
303
=
304
=
305
=
306
=
307
=
308
=
309
=
 40
0.0
 41
2458292.300547303
 42
2459697.021337859
  1

 90
        0
  0
DICTIONARY
  5
22D
102
{ACAD_REACTORS
330
22C
102
}
330
22C
100
AcDbDictionary
281
     1
  0
LAYOUT
  5
1E
102
{ACAD_REACTORS
330
1A
102
}
330
1A
100
AcDbPlotSettings
  1

  2
none_device
  4

  6

 40
0.0
 41
0.0
 42
0.0
 43
0.0
 44
0.0
 45
0.0
 46
0.0
 47
0.0
 48
0.0
 49
0.0
140
0.0
141
0.0
142
1.0
143
1.0
 70
   688
 72
     1
 73
     0
 74
     5
  7

 75
    16
147
1.0
148
0.0
149
0.0
100
AcDbLayout
  1
Layout1
 70
     1
 71
     1
 10
0.0
 20
0.0
 11
420.0
 21
297.0
 12
0.0
 22
0.0
 32
0.0
 14
1.000000000000000E+20
 24
1.000000000000000E+20
 34
1.000000000000000E+20
 15
-1.000000000000000E+20
 25
-1.000000000000000E+20
 35
-1.000000000000000E+20
146
0.0
 13
0.0
 23
0.0
 33
0.0
 16
1.0
 26
0.0
 36
0.0
 17
0.0
 27
1.0
 37
0.0
 76
     0
330
1B
  0
LAYOUT
  5
26
102
{ACAD_REACTORS
330
1A
102
}
330
1A
100
AcDbPlotSettings
  1

  2
none_device
  4

  6

 40
0.0
 41
0.0
 42
0.0
 43
0.0
 44
0.0
 45
0.0
 46
0.0
 47
0.0
 48
0.0
 49
0.0
140
0.0
141
0.0
142
1.0
143
1.0
 70
   688
 72
     1
 73
     0
 74
     5
  7

 75
    16
147
1.0
148
0.0
149
0.0
100
AcDbLayout
  1
Layout2
 70
     1
 71
     2
 10
0.0
 20
0.0
 11
0.0
 21
0.0
 12
0.0
 22
0.0
 32
0.0
 14
0.0
 24
0.0
 34
0.0
 15
0.0
 25
0.0
 35
0.0
146
0.0
 13
0.0
 23
0.0
 33
0.0
 16
1.0
 26
0.0
 36
0.0
 17
0.0
 27
1.0
 37
0.0
 76
     0
330
23
  0
LAYOUT
  5
22
102
{ACAD_REACTORS
330
1A
102
}
330
1A
100
AcDbPlotSettings
  1

  2
none_device
  4
ANSI_A_(11.00_x_8.50_Inches)
  6

 40
6.35
 41
19.05
 42
6.35000508
 43
19.05000254
 44
279.4
 45
215.9
 46
103.8381670415486
 47
79.24950154696246
 48
0.0
 49
0.0
140
0.0
141
0.0
142
0.0532276583068729
143
1.0
 70
  1696
 72
     0
 73
     0
 74
     0
  7

 75
     0
147
0.0235690232323232
148
0.0
149
0.0
100
AcDbLayout
  1
Model
 70
     1
 71
     0
 10
0.0
 20
0.0
 11
420.0
 21
297.0
 12
0.0
 22
0.0
 32
0.0
 14
-78.40000000000009
 24
-49.97180738881175
 34
0.0
 15
133.2075032832466
 25
58.57180952475196
 35
0.0
146
0.0
 13
0.0
 23
0.0
 33
0.0
 16
1.0
 26
0.0
 36
0.0
 17
0.0
 27
1.0
 37
0.0
 76
     0
330
1F
331
29
  0
MLINESTYLE
  5
18
102
{ACAD_REACTORS
330
17
102
}
330
17
100
AcDbMlineStyle
  2
Standard
 70
     0
  3

 62
   256
 51
90.0
 52
90.0
 71
     2
 49
0.5
 62
   256
  6
BYLAYER
 49
-0.5
 62
   256
  6
BYLAYER
  0
ACDBPLACEHOLDER
  5
F
102
{ACAD_REACTORS
330
E
102
}
330
E
  0
SCALE
  5
48
102
{ACAD_REACTORS
330
47
102
}
330
47
100
AcDbScale
 70
     0
300
1:1
140
1.0
141
1.0
290
     1
  0
SCALE
  5
49
102
{ACAD_REACTORS
330
47
102
}
330
47
100
AcDbScale
 70
     0
300
1:2
140
1.0
141
2.0
290
     0
  0
SCALE
  5
4A
102
{ACAD_REACTORS
330
47
102
}
330
47
100
AcDbScale
 70
     0
300
1:4
140
1.0
141
4.0
290
     0
  0
SCALE
  5
4B
102
{ACAD_REACTORS
330
47
102
}
330
47
100
AcDbScale
 70
     0
300
1:5
140
1.0
141
5.0
290
     0
  0
SCALE
  5
4C
102
{ACAD_REACTORS
330
47
102
}
330
47
100
AcDbScale
 70
     0
300
1:8
140
1.0
141
8.0
290
     0
  0
SCALE
  5
4D
102
{ACAD_REACTORS
330
47
102
}
330
47
100
AcDbScale
 70
     0
300
1:10
140
1.0
141
10.0
290
     0
  0
SCALE
  5
4E
102
{ACAD_REACTORS
330
47
102
}
330
47
100
AcDbScale
 70
     0
300
1:16
140
1.0
141
16.0
290
     0
  0
SCALE
  5
4F
102
{ACAD_REACTORS
330
47
102
}
330
47
100
AcDbScale
 70
     0
300
1:20
140
1.0
141
20.0
290
     0
  0
SCALE
  5
50
102
{ACAD_REACTORS
330
47
102
}
330
47
100
AcDbScale
 70
     0
300
1:30
140
1.0
141
30.0
290
     0
  0
SCALE
  5
51
102
{ACAD_REACTORS
330
47
102
}
330
47
100
AcDbScale
 70
     0
300
1:40
140
1.0
141
40.0
290
     0
  0
SCALE
  5
52
102
{ACAD_REACTORS
330
47
102
}
330
47
100
AcDbScale
 70
     0
300
1:50
140
1.0
141
50.0
290
     0
  0
SCALE
  5
53
102
{ACAD_REACTORS
330
47
102
}
330
47
100
AcDbScale
 70
     0
300
1:100
140
1.0
141
100.0
290
     0
  0
SCALE
  5
54
102
{ACAD_REACTORS
330
47
102
}
330
47
100
AcDbScale
 70
     0
300
2:1
140
2.0
141
1.0
290
     0
  0
SCALE
  5
55
102
{ACAD_REACTORS
330
47
102
}
330
47
100
AcDbScale
 70
     0
300
4:1
140
4.0
141
1.0
290
     0
  0
SCALE
  5
56
102
{ACAD_REACTORS
330
47
102
}
330
47
100
AcDbScale
 70
     0
300
8:1
140
8.0
141
1.0
290
     0
  0
SCALE
  5
57
102
{ACAD_REACTORS
330
47
102
}
330
47
100
AcDbScale
 70
     0
300
10:1
140
10.0
141
1.0
290
     0
  0
SCALE
  5
58
102
{ACAD_REACTORS
330
47
102
}
330
47
100
AcDbScale
 70
     0
300
100:1
140
100.0
141
1.0
290
     0
  0
SCALE
  5
59
102
{ACAD_REACTORS
330
47
102
}
330
47
100
AcDbScale
 70
     0
300
1/128" = 1'-0"
140
0.0078125
141
12.0
290
     0
  0
SCALE
  5
5A
102
{ACAD_REACTORS
330
47
102
}
330
47
100
AcDbScale
 70
     0
300
1/64" = 1'-0"
140
0.015625
141
12.0
290
     0
  0
SCALE
  5
5B
102
{ACAD_REACTORS
330
47
102
}
330
47
100
AcDbScale
 70
     0
300
1/32" = 1'-0"
140
0.03125
141
12.0
290
     0
  0
SCALE
  5
5C
102
{ACAD_REACTORS
330
47
102
}
330
47
100
AcDbScale
 70
     0
300
1/16" = 1'-0"
140
0.0625
141
12.0
290
     0
  0
SCALE
  5
5D
102
{ACAD_REACTORS
330
47
102
}
330
47
100
AcDbScale
 70
     0
300
3/32" = 1'-0"
140
0.09375
141
12.0
290
     0
  0
SCALE
  5
5E
102
{ACAD_REACTORS
330
47
102
}
330
47
100
AcDbScale
 70
     0
300
1/8" = 1'-0"
140
0.125
141
12.0
290
     0
  0
SCALE
  5
5F
102
{ACAD_REACTORS
330
47
102
}
330
47
100
AcDbScale
 70
     0
300
3/16" = 1'-0"
140
0.1875
141
12.0
290
     0
  0
SCALE
  5
60
102
{ACAD_REACTORS
330
47
102
}
330
47
100
AcDbScale
 70
     0
300
1/4" = 1'-0"
140
0.25
141
12.0
290
     0
  0
SCALE
  5
61
102
{ACAD_REACTORS
330
47
102
}
330
47
100
AcDbScale
 70
     0
300
3/8" = 1'-0"
140
0.375
141
12.0
290
     0
  0
SCALE
  5
62
102
{ACAD_REACTORS
330
47
102
}
330
47
100
AcDbScale
 70
     0
300
1/2" = 1'-0"
140
0.5
141
12.0
290
     0
  0
SCALE
  5
63
102
{ACAD_REACTORS
330
47
102
}
330
47
100
AcDbScale
 70
     0
300
3/4" = 1'-0"
140
0.75
141
12.0
290
     0
  0
SCALE
  5
64
102
{ACAD_REACTORS
330
47
102
}
330
47
100
AcDbScale
 70
     0
300
1" = 1'-0"
140
1.0
141
12.0
290
     0
  0
SCALE
  5
65
102
{ACAD_REACTORS
330
47
102
}
330
47
100
AcDbScale
 70
     0
300
1-1/2" = 1'-0"
140
1.5
141
12.0
290
     0
  0
SCALE
  5
66
102
{ACAD_REACTORS
330
47
102
}
330
47
100
AcDbScale
 70
     0
300
3" = 1'-0"
140
3.0
141
12.0
290
     0
  0
SCALE
  5
67
102
{ACAD_REACTORS
330
47
102
}
330
47
100
AcDbScale
 70
     0
300
6" = 1'-0"
140
6.0
141
12.0
290
     0
  0
SCALE
  5
68
102
{ACAD_REACTORS
330
47
102
}
330
47
100
AcDbScale
 70
     0
300
1'-0" = 1'-0"
140
12.0
141
12.0
290
     0
  0
ENDSEC
  0
EOF
