  0
SECTION
  2
HEADER
  9
$ACADVER
  1
AC1015
  9
$ACADMAINTVER
 70
     6
  9
$DWGCODEPAGE
  3
ANSI_949
  9
$INSBASE
 10
0.0
 20
0.0
 30
0.0
  9
$EXTMIN
 10
1.000000000000000E+20
 20
1.000000000000000E+20
 30
1.000000000000000E+20
  9
$EXTMAX
 10
-1.000000000000000E+20
 20
-1.000000000000000E+20
 30
-1.000000000000000E+20
  9
$LIMMIN
 10
0.0
 20
0.0
  9
$LIMMAX
 10
420.0
 20
297.0
  9
$ORTHOMODE
 70
     0
  9
$REGENMODE
 70
     1
  9
$FILLMODE
 70
     1
  9
$QTEXTMODE
 70
     0
  9
$MIRRTEXT
 70
     1
  9
$LTSCALE
 40
1.0
  9
$ATTMODE
 70
     1
  9
$TEXTSIZE
 40
3.5
  9
$TRACEWID
 40
1.0
  9
$TEXTSTYLE
  7
Standard
  9
$CLAYER
  8
0
  9
$CELTYPE
  6
ByLayer
  9
$CECOLOR
 62
   256
  9
$CELTSCALE
 40
1.0
  9
$DISPSILH
 70
     0
  9
$DIMSCALE
 40
1.0
  9
$DIMASZ
 40
3.302
  9
$DIMEXO
 40
1.0
  9
$DIMDLI
 40
3.75
  9
$DIMRND
 40
0.0
  9
$DIMDLE
 40
0.0
  9
$DIMEXE
 40
1.0
  9
$DIMTP
 40
0.0
  9
$DIMTM
 40
0.0
  9
$DIMTXT
 40
3.5
  9
$DIMCEN
 40
2.5
  9
$DIMTSZ
 40
0.0
  9
$DIMTOL
 70
     0
  9
$DIMLIM
 70
     0
  9
$DIMTIH
 70
     1
  9
$DIMTOH
 70
     1
  9
$DIMSE1
 70
     0
  9
$DIMSE2
 70
     0
  9
$DIMTAD
 70
     1
  9
$DIMZIN
 70
     0
  9
$DIMBLK
  1

  9
$DIMASO
 70
     1
  9
$DIMSHO
 70
     1
  9
$DIMPOST
  1

  9
$DIMAPOST
  1

  9
$DIMALT
 70
     0
  9
$DIMALTD
 70
     3
  9
$DIMALTF
 40
0.0393700787401575
  9
$DIMLFAC
 40
1.0
  9
$DIMTOFL
 70
     1
  9
$DIMTVP
 40
0.0
  9
$DIMTIX
 70
     0
  9
$DIMSOXD
 70
     0
  9
$DIMSAH
 70
     0
  9
$DIMBLK1
  1

  9
$DIMBLK2
  1

  9
$DIMSTYLE
  2
ISO-25
  9
$DIMCLRD
 70
     0
  9
$DIMCLRE
 70
     0
  9
$DIMCLRT
 70
     0
  9
$DIMTFAC
 40
1.0
  9
$DIMGAP
 40
1.524
  9
$DIMJUST
 70
     0
  9
$DIMSD1
 70
     0
  9
$DIMSD2
 70
     0
  9
$DIMTOLJ
 70
     0
  9
$DIMTZIN
 70
     0
  9
$DIMALTZ
 70
     0
  9
$DIMALTTZ
 70
     0
  9
$DIMUPT
 70
     0
  9
$DIMDEC
 70
     2
  9
$DIMTDEC
 70
     2
  9
$DIMALTU
 70
     2
  9
$DIMALTTD
 70
     3
  9
$DIMTXSTY
  7
Standard
  9
$DIMAUNIT
 70
     0
  9
$DIMADEC
 70
     2
  9
$DIMALTRND
 40
0.0
  9
$DIMAZIN
 70
     0
  9
$DIMDSEP
 70
    44
  9
$DIMATFIT
 70
     3
  9
$DIMFRAC
 70
     0
  9
$DIMLDRBLK
  1

  9
$DIMLUNIT
 70
     2
  9
$DIMLWD
 70
    -2
  9
$DIMLWE
 70
    -2
  9
$DIMTMOVE
 70
     0
  9
$LUNITS
 70
     2
  9
$LUPREC
 70
     2
  9
$SKETCHINC
 40
1.0
  9
$FILLETRAD
 40
10.0
  9
$AUNITS
 70
     0
  9
$AUPREC
 70
     2
  9
$MENU
  1
.
  9
$ELEVATION
 40
0.0
  9
$PELEVATION
 40
0.0
  9
$THICKNESS
 40
0.0
  9
$LIMCHECK
 70
     0
  9
$CHAMFERA
 40
0.0
  9
$CHAMFERB
 40
0.0
  9
$CHAMFERC
 40
0.0
  9
$CHAMFERD
 40
0.0
  9
$SKPOLY
 70
     0
  9
$TDCREATE
 40
2458288.65181706
  9
$TDUCREATE
 40
2458288.27681706
  9
$TDUPDATE
 40
2458295.780057732
  9
$TDUUPDATE
 40
2458295.405057732
  9
$TDINDWG
 40
0.0000962269
  9
$TDUSRTIMER
 40
2458295.403503218
  9
$USRTIMER
 70
     1
  9
$ANGBASE
 50
0.0
  9
$ANGDIR
 70
     0
  9
$PDMODE
 70
     0
  9
$PDSIZE
 40
-1.0
  9
$PLINEWID
 40
0.0
  9
$SPLFRAME
 70
     0
  9
$SPLINETYPE
 70
     6
  9
$SPLINESEGS
 70
     8
  9
$HANDSEED
  5
2AC
  9
$SURFTAB1
 70
     6
  9
$SURFTAB2
 70
     6
  9
$SURFTYPE
 70
     6
  9
$SURFU
 70
     6
  9
$SURFV
 70
     6
  9
$UCSBASE
  2

  9
$UCSNAME
  2

  9
$UCSORG
 10
0.0
 20
0.0
 30
0.0
  9
$UCSXDIR
 10
1.0
 20
0.0
 30
0.0
  9
$UCSYDIR
 10
0.0
 20
1.0
 30
0.0
  9
$UCSORTHOREF
  2

  9
$UCSORTHOVIEW
 70
     0
  9
$UCSORGTOP
 10
0.0
 20
0.0
 30
0.0
  9
$UCSORGBOTTOM
 10
0.0
 20
0.0
 30
0.0
  9
$UCSORGLEFT
 10
0.0
 20
0.0
 30
0.0
  9
$UCSORGRIGHT
 10
0.0
 20
0.0
 30
0.0
  9
$UCSORGFRONT
 10
0.0
 20
0.0
 30
0.0
  9
$UCSORGBACK
 10
0.0
 20
0.0
 30
0.0
  9
$PUCSBASE
  2

  9
$PUCSNAME
  2

  9
$PUCSORG
 10
0.0
 20
0.0
 30
0.0
  9
$PUCSXDIR
 10
1.0
 20
0.0
 30
0.0
  9
$PUCSYDIR
 10
0.0
 20
1.0
 30
0.0
  9
$PUCSORTHOREF
  2

  9
$PUCSORTHOVIEW
 70
     0
  9
$PUCSORGTOP
 10
0.0
 20
0.0
 30
0.0
  9
$PUCSORGBOTTOM
 10
0.0
 20
0.0
 30
0.0
  9
$PUCSORGLEFT
 10
0.0
 20
0.0
 30
0.0
  9
$PUCSORGRIGHT
 10
0.0
 20
0.0
 30
0.0
  9
$PUCSORGFRONT
 10
0.0
 20
0.0
 30
0.0
  9
$PUCSORGBACK
 10
0.0
 20
0.0
 30
0.0
  9
$USERI1
 70
     0
  9
$USERI2
 70
     0
  9
$USERI3
 70
     0
  9
$USERI4
 70
     0
  9
$USERI5
 70
     0
  9
$USERR1
 40
0.0
  9
$USERR2
 40
0.0
  9
$USERR3
 40
0.0
  9
$USERR4
 40
0.0
  9
$USERR5
 40
0.0
  9
$WORLDVIEW
 70
     1
  9
$SHADEDGE
 70
     3
  9
$SHADEDIF
 70
    70
  9
$TILEMODE
 70
     1
  9
$MAXACTVP
 70
    64
  9
$PINSBASE
 10
0.0
 20
0.0
 30
0.0
  9
$PLIMCHECK
 70
     0
  9
$PEXTMIN
 10
1.000000000000000E+20
 20
1.000000000000000E+20
 30
1.000000000000000E+20
  9
$PEXTMAX
 10
-1.000000000000000E+20
 20
-1.000000000000000E+20
 30
-1.000000000000000E+20
  9
$PLIMMIN
 10
0.0
 20
0.0
  9
$PLIMMAX
 10
0.0
 20
0.0
  9
$UNITMODE
 70
     0
  9
$VISRETAIN
 70
     1
  9
$PLINEGEN
 70
     0
  9
$PSLTSCALE
 70
     1
  9
$TREEDEPTH
 70
  3020
  9
$CMLSTYLE
  2
Standard
  9
$CMLJUST
 70
     0
  9
$CMLSCALE
 40
20.0
  9
$PROXYGRAPHICS
 70
     1
  9
$MEASUREMENT
 70
     1
  9
$CELWEIGHT
370
    -1
  9
$ENDCAPS
280
     0
  9
$JOINSTYLE
280
     0
  9
$LWDISPLAY
290
     1
  9
$INSUNITS
 70
     4
  9
$HYPERLINKBASE
  1

  9
$STYLESHEET
  1

  9
$XEDIT
290
     1
  9
$CEPSNTYPE
380
     0
  9
$PSTYLEMODE
290
     1
  9
$FINGERPRINTGUID
  2
{4085FF03-3980-479B-BDDA-E634E6A81AC5}
  9
$VERSIONGUID
  2
{FAEB1C32-E019-11D5-929B-00C0DF256EC4}
  9
$EXTNAMES
290
     1
  9
$PSVPSCALE
 40
0.0
  9
$OLESTARTUP
290
     0
  0
ENDSEC
  0
SECTION
  2
CLASSES
  0
CLASS
  1
ACDBDICTIONARYWDFLT
  2
AcDbDictionaryWithDefault
  3
ObjectDBX Classes
 90
        0
280
     0
281
     0
  0
CLASS
  1
VISUALSTYLE
  2
AcDbVisualStyle
  3
ObjectDBX Classes
 90
     4095
280
     0
281
     0
  0
CLASS
  1
MATERIAL
  2
AcDbMaterial
  3
ObjectDBX Classes
 90
     1153
280
     0
281
     0
  0
CLASS
  1
SCALE
  2
AcDbScale
  3
ObjectDBX Classes
 90
     1153
280
     0
281
     0
  0
CLASS
  1
SUN
  2
AcDbSun
  3
SCENEOE
 90
     1153
280
     0
281
     0
  0
CLASS
  1
ACDBPLACEHOLDER
  2
AcDbPlaceHolder
  3
ObjectDBX Classes
 90
        0
280
     0
281
     0
  0
CLASS
  1
LAYOUT
  2
AcDbLayout
  3
ObjectDBX Classes
 90
        0
280
     0
281
     0
  0
CLASS
  1
TABLESTYLE
  2
AcDbTableStyle
  3
ObjectDBX Classes
 90
     4095
280
     0
281
     0
  0
CLASS
  1
MLEADERSTYLE
  2
AcDbMLeaderStyle
  3
ACDB_MLEADERSTYLE_CLASS
 90
     4095
280
     0
281
     0
  0
CLASS
  1
RASTERVARIABLES
  2
AcDbRasterVariables
  3
ISM
 90
        0
280
     0
281
     0
  0
CLASS
  1
DIMASSOC
  2
AcDbDimAssoc
  3
"AcDbDimAssoc|Product Desc:     AcDim ARX App For Dimension|Company:          Autodesk, Inc.|WEB Address:      www.autodesk.com"
 90
        0
280
     0
281
     0
  0
ENDSEC
  0
SECTION
  2
TABLES
  0
TABLE
  2
VPORT
  5
8
330
0
100
AcDbSymbolTable
 70
     1
  0
VPORT
  5
29
330
8
100
AcDbSymbolTableRecord
100
AcDbViewportTableRecord
  2
*Active
 70
     0
 10
0.0
 20
0.0
 11
1.0
 21
1.0
 12
-18.28497132571334
 22
-20.83665489660125
 13
0.0
 23
0.0
 14
10.0
 24
10.0
 15
10.0
 25
10.0
 16
0.0
 26
0.0
 36
1.0
 17
0.0
 27
0.0
 37
0.0
 40
115.88743558219
 41
1.798434442270059
 42
50.0
 43
0.0
 44
0.0
 50
0.0
 51
0.0
 71
    16
 72
  2000
 73
     1
 74
     3
 75
     0
 76
     0
 77
     0
 78
     0
281
     0
 65
     1
110
0.0
120
0.0
130
0.0
111
1.0
121
0.0
131
0.0
112
0.0
122
1.0
132
0.0
 79
     0
146
0.0
  0
ENDTAB
  0
TABLE
  2
LTYPE
  5
5
330
0
100
AcDbSymbolTable
 70
     6
  0
LTYPE
  5
14
330
5
100
AcDbSymbolTableRecord
100
AcDbLinetypeTableRecord
  2
ByBlock
 70
     0
  3

 72
    65
 73
     0
 40
0.0
  0
LTYPE
  5
15
330
5
100
AcDbSymbolTableRecord
100
AcDbLinetypeTableRecord
  2
ByLayer
 70
     0
  3

 72
    65
 73
     0
 40
0.0
  0
LTYPE
  5
16
330
5
100
AcDbSymbolTableRecord
100
AcDbLinetypeTableRecord
  2
Continuous
 70
     0
  3
Solid line
 72
    65
 73
     0
 40
0.0
  0
LTYPE
  5
6A
330
5
100
AcDbSymbolTableRecord
100
AcDbLinetypeTableRecord
  2
HIDDEN
 70
     0
  3
Hidden __ __ __ __ __ __ __ __ __ __ __ __ __ __
 72
    65
 73
     2
 40
1.905
 49
1.27
 74
     0
 49
-0.635
 74
     0
  0
LTYPE
  5
6B
330
5
100
AcDbSymbolTableRecord
100
AcDbLinetypeTableRecord
  2
PHANTOM
 70
     0
  3
Phantom ______  __  __  ______  __  __  ______
 72
    65
 73
     6
 40
12.7
 49
6.35
 74
     0
 49
-1.27
 74
     0
 49
1.27
 74
     0
 49
-1.27
 74
     0
 49
1.27
 74
     0
 49
-1.27
 74
     0
  0
LTYPE
  5
6C
330
5
100
AcDbSymbolTableRecord
100
AcDbLinetypeTableRecord
  2
CENTER
 70
     0
  3
Center ____ _ ____ _ ____ _ ____ _ ____ _ ____
 72
    65
 73
     4
 40
10.16
 49
6.35
 74
     0
 49
-1.27
 74
     0
 49
1.27
 74
     0
 49
-1.27
 74
     0
  0
LTYPE
  5
6D
330
5
100
AcDbSymbolTableRecord
100
AcDbLinetypeTableRecord
  2
CENTERX2
 70
     0
  3
Center (2x) ________  __  ________  __  _____
 72
    65
 73
     4
 40
20.32
 49
12.7
 74
     0
 49
-2.54
 74
     0
 49
2.54
 74
     0
 49
-2.54
 74
     0
  0
LTYPE
  5
6E
330
5
100
AcDbSymbolTableRecord
100
AcDbLinetypeTableRecord
  2
DOT2
 70
     0
  3
Dot (.5x) ........................................
 72
    65
 73
     2
 40
0.635
 49
0.0
 74
     0
 49
-0.635
 74
     0
  0
ENDTAB
  0
TABLE
  2
LAYER
  5
2
102
{ACAD_XDICTIONARY
360
20F
102
}
330
0
100
AcDbSymbolTable
 70
    18
  0
LAYER
  5
10
330
2
100
AcDbSymbolTableRecord
100
AcDbLayerTableRecord
  2
0
 70
     0
 62
     7
  6
Continuous
370
    -3
390
F
  0
LAYER
  5
6F
330
2
100
AcDbSymbolTableRecord
100
AcDbLayerTableRecord
  2
FORMAT
 70
     0
 62
     2
  6
Continuous
370
    -3
390
F
  0
LAYER
  5
70
330
2
100
AcDbSymbolTableRecord
100
AcDbLayerTableRecord
  2
외형선
 70
     0
 62
     4
  6
Continuous
370
    30
390
F
  0
LAYER
  5
71
330
2
100
AcDbSymbolTableRecord
100
AcDbLayerTableRecord
  2
숨은선
 70
     0
 62
     2
  6
HIDDEN
370
    15
390
F
  0
LAYER
  5
72
330
2
100
AcDbSymbolTableRecord
100
AcDbLayerTableRecord
  2
중심선
 70
     0
 62
     1
  6
CENTERX2
370
    -3
390
F
  0
LAYER
  5
73
330
2
100
AcDbSymbolTableRecord
100
AcDbLayerTableRecord
  2
파단선
 70
     0
 62
     4
  6
Continuous
370
    -3
390
F
  0
LAYER
  5
74
330
2
100
AcDbSymbolTableRecord
100
AcDbLayerTableRecord
  2
해칭선
 70
     0
 62
   100
  6
Continuous
370
    -3
390
F
  0
LAYER
  5
75
330
2
100
AcDbSymbolTableRecord
100
AcDbLayerTableRecord
  2
가는실선
 70
     0
 62
     4
  6
Continuous
370
    -3
390
F
  0
LAYER
  5
76
330
2
100
AcDbSymbolTableRecord
100
AcDbLayerTableRecord
  2
치수_보조선
 70
     0
 62
     4
  6
Continuous
370
    -3
390
F
  0
LAYER
  5
77
330
2
100
AcDbSymbolTableRecord
100
AcDbLayerTableRecord
  2
치수문자_일반주서
 70
     0
 62
     7
  6
Continuous
370
    15
390
F
  0
LAYER
  5
78
330
2
100
AcDbSymbolTableRecord
100
AcDbLayerTableRecord
  2
개별주서
 70
     0
 62
   100
  6
Continuous
370
    30
390
F
  0
LAYER
  5
79
330
2
100
AcDbSymbolTableRecord
100
AcDbLayerTableRecord
  2
중간선
 70
     0
 62
     2
  6
Continuous
370
    15
390
F
  0
LAYER
  5
7A
330
2
100
AcDbSymbolTableRecord
100
AcDbLayerTableRecord
  2
윤곽선
 70
     0
 62
     3
  6
Continuous
370
    40
390
F
  0
LAYER
  5
7B
330
2
100
AcDbSymbolTableRecord
100
AcDbLayerTableRecord
  2
중심마크
 70
     0
 62
   100
  6
Continuous
370
    30
390
F
  0
LAYER
  5
7C
330
2
100
AcDbSymbolTableRecord
100
AcDbLayerTableRecord
  2
가상선
 70
     0
 62
     4
  6
PHANTOM
370
    -3
390
F
  0
LAYER
  5
7D
330
2
100
AcDbSymbolTableRecord
100
AcDbLayerTableRecord
  2
특수지정선
 70
     0
 62
     5
  6
CENTERX2
370
    60
390
F
  0
LAYER
  5
7E
330
2
100
AcDbSymbolTableRecord
100
AcDbLayerTableRecord
  2
참조1
 70
     0
 62
    -4
  6
Continuous
370
    -3
390
F
  0
LAYER
  5
160
330
2
100
AcDbSymbolTableRecord
100
AcDbLayerTableRecord
  2
Defpoints
 70
     0
 62
     7
  6
Continuous
290
     0
370
    -3
390
F
  0
ENDTAB
  0
TABLE
  2
STYLE
  5
3
330
0
100
AcDbSymbolTable
 70
     2
  0
STYLE
  5
11
330
3
100
AcDbSymbolTableRecord
100
AcDbTextStyleTableRecord
  2
Standard
 70
     0
 40
0.0
 41
1.0
 50
0.0
 71
     0
 42
3.5
  3
txt
  4

  0
STYLE
  5
94
330
3
100
AcDbSymbolTableRecord
100
AcDbTextStyleTableRecord
  2
SLDTEXTSTYLE0
 70
     0
 40
0.0
 41
0.75
 50
0.0
 71
     0
 42
3.5
  3
TXT
  4

  0
ENDTAB
  0
TABLE
  2
VIEW
  5
6
330
0
100
AcDbSymbolTable
 70
     0
  0
ENDTAB
  0
TABLE
  2
UCS
  5
7
330
0
100
AcDbSymbolTable
 70
     0
  0
ENDTAB
  0
TABLE
  2
APPID
  5
9
330
0
100
AcDbSymbolTable
 70
     2
  0
APPID
  5
12
330
9
100
AcDbSymbolTableRecord
100
AcDbRegAppTableRecord
  2
ACAD
 70
     0
  0
APPID
  5
16B
330
9
100
AcDbSymbolTableRecord
100
AcDbRegAppTableRecord
  2
ACAD_DSTYLE_DIMRADIAL_EXTENSION
 70
     0
  0
ENDTAB
  0
TABLE
  2
DIMSTYLE
  5
A
330
0
100
AcDbSymbolTable
 70
     3
100
AcDbDimStyleTable
  0
DIMSTYLE
105
27
330
A
100
AcDbSymbolTableRecord
100
AcDbDimStyleTableRecord
  2
ISO-25
 70
     0
 41
2.5
 42
0.625
 43
3.75
 44
1.25
 73
     0
 74
     0
 77
     1
 78
     8
140
2.5
141
2.5
143
0.03937007874016
147
0.625
171
     3
172
     1
178
     0
271
     2
272
     2
274
     3
278
    44
283
     0
284
     8
340
11
  0
DIMSTYLE
105
DD
102
{ACAD_REACTORS
330
1BC
330
1C9
330
1D9
330
1E9
330
203
330
246
330
247
330
248
330
249
330
29E
102
}
330
A
100
AcDbSymbolTableRecord
100
AcDbDimStyleTableRecord
  2
SLDDIMSTYLE0
 70
     0
 41
3.302
 44
0.0
 45
0.000000001
 73
     0
 74
     0
 77
     1
 78
    12
 79
     3
140
3.5
143
0.0393700787401575
147
0.875
148
0.000000001
170
     1
172
     1
173
     1
178
     0
271
     2
272
     2
276
     2
284
    12
289
     0
340
94
  0
DIMSTYLE
105
F2
330
A
100
AcDbSymbolTableRecord
100
AcDbDimStyleTableRecord
  2
SLDDIMSTYLE1
 70
     0
 41
3.302
 44
0.0
 45
0.000000001
 73
     0
 74
     0
 77
     1
 78
     4
 79
     1
140
3.5
143
0.0393700787401575
147
0.875
148
0.000000001
170
     1
173
     1
178
     0
271
     2
272
     2
276
     2
284
    12
340
94
  0
ENDTAB
  0
TABLE
  2
BLOCK_RECORD
  5
1
330
0
100
AcDbSymbolTable
 70
    19
  0
BLOCK_RECORD
  5
1F
330
1
100
AcDbSymbolTableRecord
100
AcDbBlockTableRecord
  2
*Model_Space
340
22
  0
BLOCK_RECORD
  5
1B
330
1
100
AcDbSymbolTableRecord
100
AcDbBlockTableRecord
  2
*Paper_Space
340
1E
  0
BLOCK_RECORD
  5
23
330
1
100
AcDbSymbolTableRecord
100
AcDbBlockTableRecord
  2
*Paper_Space0
340
26
  0
BLOCK_RECORD
  5
7F
330
1
100
AcDbSymbolTableRecord
100
AcDbBlockTableRecord
  2
블럭10
340
0
102
{BLKREFS
331
D5
102
}
  0
BLOCK_RECORD
  5
DE
330
1
100
AcDbSymbolTableRecord
100
AcDbBlockTableRecord
  2
_D
340
0
  0
BLOCK_RECORD
  5
F3
330
1
100
AcDbSymbolTableRecord
100
AcDbBlockTableRecord
  2
_D_1
340
0
  0
BLOCK_RECORD
  5
106
330
1
100
AcDbSymbolTableRecord
100
AcDbBlockTableRecord
  2
_D_2
340
0
  0
BLOCK_RECORD
  5
11B
330
1
100
AcDbSymbolTableRecord
100
AcDbBlockTableRecord
  2
_D_3
340
0
  0
BLOCK_RECORD
  5
134
330
1
100
AcDbSymbolTableRecord
100
AcDbBlockTableRecord
  2
SW_DOWELSYMBOL_0
340
0
102
{BLKREFS
331
0
331
1F6
331
24A
102
}
  0
BLOCK_RECORD
  5
1BD
330
1
100
AcDbSymbolTableRecord
100
AcDbBlockTableRecord
  2
*D8
340
0
  0
BLOCK_RECORD
  5
1CA
330
1
100
AcDbSymbolTableRecord
100
AcDbBlockTableRecord
  2
*D9
340
0
  0
BLOCK_RECORD
  5
1DA
330
1
100
AcDbSymbolTableRecord
100
AcDbBlockTableRecord
  2
*D10
340
0
  0
BLOCK_RECORD
  5
1EA
330
1
100
AcDbSymbolTableRecord
100
AcDbBlockTableRecord
  2
*D11
340
0
  0
BLOCK_RECORD
  5
206
330
1
100
AcDbSymbolTableRecord
100
AcDbBlockTableRecord
  2
*D12
340
0
  0
BLOCK_RECORD
  5
254
330
1
100
AcDbSymbolTableRecord
100
AcDbBlockTableRecord
  2
*D13
340
0
  0
BLOCK_RECORD
  5
260
330
1
100
AcDbSymbolTableRecord
100
AcDbBlockTableRecord
  2
*D14
340
0
  0
BLOCK_RECORD
  5
26F
330
1
100
AcDbSymbolTableRecord
100
AcDbBlockTableRecord
  2
*D15
340
0
  0
BLOCK_RECORD
  5
27E
330
1
100
AcDbSymbolTableRecord
100
AcDbBlockTableRecord
  2
*D16
340
0
  0
BLOCK_RECORD
  5
28A
330
1
100
AcDbSymbolTableRecord
100
AcDbBlockTableRecord
  2
*D17
340
0
  0
BLOCK_RECORD
  5
2A1
330
1
100
AcDbSymbolTableRecord
100
AcDbBlockTableRecord
  2
*D18
340
0
  0
ENDTAB
  0
ENDSEC
  0
SECTION
  2
BLOCKS
  0
BLOCK
  5
20
330
1F
100
AcDbEntity
  8
0
100
AcDbBlockBegin
  2
*Model_Space
 70
     0
 10
0.0
 20
0.0
 30
0.0
  3
*Model_Space
  1
*Model_Space
  0
ENDBLK
  5
21
330
1F
100
AcDbEntity
  8
0
100
AcDbBlockEnd
  0
BLOCK
  5
1C
330
1B
100
AcDbEntity
 67
     1
  8
0
100
AcDbBlockBegin
  2
*Paper_Space
 70
     0
 10
0.0
 20
0.0
 30
0.0
  3
*Paper_Space
  1
*Paper_Space
  0
ENDBLK
  5
1D
330
1B
100
AcDbEntity
 67
     1
  8
0
100
AcDbBlockEnd
  0
BLOCK
  5
24
330
23
100
AcDbEntity
  8
0
100
AcDbBlockBegin
  2
*Paper_Space0
 70
     0
 10
0.0
 20
0.0
 30
0.0
  3
*Paper_Space0
  1
*Paper_Space0
  0
ENDBLK
  5
25
330
23
100
AcDbEntity
  8
0
100
AcDbBlockEnd
  0
BLOCK
  5
80
330
7F
100
AcDbEntity
  8
0
100
AcDbBlockBegin
  2
블럭10
 70
     2
 10
0.0
 20
0.0
 30
0.0
  3
블럭10
  1
블럭10
  0
ELLIPSE
  5
82
330
7F
100
AcDbEntity
  8
중심선
100
AcDbEllipse
 10
20.54032771741204
 20
12.0471743016438
 30
0.0
 11
6.600054785286829
 21
-1.261213355974178E-13
 31
0.0
210
0.0
220
0.0
230
1.0
 40
0.636358354079598
 41
0.9219305317359503
 42
6.513795318482858
  0
ELLIPSE
  5
83
330
7F
100
AcDbEntity
  8
중심선
100
AcDbEllipse
 10
20.54032771746488
 20
12.04717430159265
 30
0.0
 11
3.960054785062283
 21
1.540847449632565E-10
 31
0.0
210
0.0
220
0.0
230
1.0
 40
0.3939339440162632
 41
1.131841032648279
 42
5.62031148352944
  0
LINE
  5
84
330
7F
100
AcDbEntity
  8
중심선
100
AcDbLine
 10
2.268634060543552
 20
16.24717430164393
 30
0.0
 11
5.714909304380834
 21
16.24717430164393
 31
0.0
  0
LINE
  5
85
330
7F
100
AcDbEntity
  8
중심선
100
AcDbLine
 10
5.245725140726316
 20
7.84717430164391
 30
0.0
 11
8.692000384563599
 21
7.84717430164391
 31
0.0
  0
LINE
  5
86
330
7F
100
AcDbEntity
  8
중심선
100
AcDbLine
 10
15.74043728645272
 20
16.24717430164393
 30
0.0
 11
8.692000384563599
 21
7.84717430164391
 31
0.0
  0
LINE
  5
87
330
7F
100
AcDbEntity
  8
중심선
100
AcDbLine
 10
0.1404042013395286
 20
13.71084872107135
 30
0.0
 11
3.58671253028996
 21
13.71088815037384
 31
0.0
  0
LINE
  5
88
330
7F
100
AcDbEntity
  8
중심선
100
AcDbLine
 10
2.750260043222114
 20
10.84717430164391
 30
0.0
 11
6.196535287059397
 21
10.84717430164391
 31
0.0
  0
LINE
  5
89
330
7F
100
AcDbEntity
  8
중심선
100
AcDbLine
 10
12.29416204261559
 20
16.24717430164393
 30
0.0
 11
5.245725140726316
 21
7.84717430164391
 31
0.0
  0
LINE
  5
8A
330
7F
100
AcDbEntity
  8
중심선
100
AcDbLine
 10
10.72767329541681
 20
16.24717430164393
 30
0.0
 11
6.196535287059397
 21
10.84717430164391
 31
0.0
  0
LINE
  5
8B
330
7F
100
AcDbEntity
  8
중심선
100
AcDbLine
 10
7.28139805157953
 20
16.24717430164393
 30
0.0
 11
2.750260043222114
 21
10.84717430164391
 31
0.0
  0
LINE
  5
8C
330
7F
100
AcDbEntity
  8
중심선
100
AcDbLine
 10
5.714909304380834
 20
16.24717430164393
 30
0.0
 11
3.58671253028996
 21
13.71088815037384
 31
0.0
  0
LINE
  5
8D
330
7F
100
AcDbEntity
  8
중심선
100
AcDbLine
 10
2.268634060543552
 20
16.24717430164393
 30
0.0
 11
0.1404042013395286
 21
13.71084872107135
 31
0.0
  0
LINE
  5
8E
330
7F
100
AcDbEntity
  8
중심선
100
AcDbLine
 10
7.28139805157953
 20
16.24717430164393
 30
0.0
 11
10.72767329541681
 21
16.24717430164393
 31
0.0
  0
LINE
  5
8F
330
7F
100
AcDbEntity
  8
중심선
100
AcDbLine
 10
12.29416204261559
 20
16.24717430164393
 30
0.0
 11
15.74043728645272
 21
16.24717430164393
 31
0.0
  0
LINE
  5
90
330
7F
100
AcDbEntity
  8
중심선
100
AcDbLine
 10
19.22036997980202
 20
11.08717430171403
 30
0.0
 11
23.66174974927406
 21
11.08717430171406
 31
0.0
  0
LINE
  5
91
330
7F
100
AcDbEntity
  8
중심선
100
AcDbLine
 10
19.22039502424796
 20
13.00717430171391
 30
0.0
 11
19.22036997980202
 21
11.08717430171403
 31
0.0
  0
LINE
  5
92
330
7F
100
AcDbEntity
  8
중심선
100
AcDbLine
 10
19.22039502424796
 20
13.00717430171391
 30
0.0
 11
26.96566020931264
 21
13.00717430171391
 31
0.0
  0
LINE
  5
93
330
7F
100
AcDbEntity
  8
중심선
100
AcDbLine
 10
22.22332737316547
 20
13.45928029700563
 30
0.0
 11
24.52862924686651
 21
15.39360700705356
 31
0.0
  0
ATTDEF
  5
95
330
7F
100
AcDbEntity
  8
FORMAT
 62
     2
100
AcDbText
 10
3.448148490846466
 20
2.075366912832191
 30
0.0
 40
4.233333333333333
  1
EM636904
 41
0.75
  7
SLDTEXTSTYLE0
 11
3.448148490846466
 21
-0.0412997538344756
 31
0.0
100
AcDbAttributeDefinition
  3

  2
AUTOATTR0
 70
     0
 74
     1
  0
ENDBLK
  5
81
330
7F
100
AcDbEntity
  8
0
100
AcDbBlockEnd
  0
BLOCK
  5
DF
330
DE
100
AcDbEntity
  8
0
100
AcDbBlockBegin
  2
_D
 70
     0
 10
0.0
 20
0.0
 30
0.0
  3
_D
  1
_D
  0
SOLID
  5
E1
330
DE
100
AcDbEntity
  8
치수문자_일반주서
100
AcDbTrace
 10
-56.66499999999999
 20
3.176074928723876
 30
0.0
 11
-56.15699999999999
 21
6.478074928723876
 31
0.0
 12
-57.17299999999999
 22
6.478074928723876
 32
0.0
 13
-57.17299999999999
 23
6.478074928723876
 33
0.0
  0
SOLID
  5
E2
330
DE
100
AcDbEntity
  8
치수문자_일반주서
100
AcDbTrace
 10
-56.66499999999999
 20
-3.173925071276119
 30
0.0
 11
-57.17299999999999
 21
-6.475925071276118
 31
0.0
 12
-56.15699999999999
 22
-6.475925071276118
 32
0.0
 13
-56.15699999999999
 23
-6.475925071276118
 33
0.0
  0
LINE
  5
E3
330
DE
100
AcDbEntity
  8
치수문자_일반주서
100
AcDbLine
 10
-67.45788171604272
 20
-5.413291502344841
 30
0.0
 11
-67.45788171604272
 21
-6.124228987909341
 31
0.0
  0
LINE
  5
E4
330
DE
100
AcDbEntity
  8
치수문자_일반주서
100
AcDbLine
 10
-67.45788171604272
 20
-6.124228987909341
 30
0.0
 11
-61.90163172498342
 21
-6.124228987909302
 31
0.0
  0
LINE
  5
E5
330
DE
100
AcDbEntity
  8
치수문자_일반주서
100
AcDbLine
 10
-61.90163172498342
 20
-6.124228987909302
 30
0.0
 11
-61.90163172498342
 21
-5.413291502344802
 31
0.0
  0
LINE
  5
E6
330
DE
100
AcDbEntity
  8
치수문자_일반주서
100
AcDbLine
 10
-67.4578817160428
 20
5.415441359792417
 30
0.0
 11
-67.4578817160428
 21
6.126378845356917
 31
0.0
  0
LINE
  5
E7
330
DE
100
AcDbEntity
  8
치수문자_일반주서
100
AcDbLine
 10
-67.4578817160428
 20
6.126378845356917
 30
0.0
 11
-61.9016317249835
 21
6.126378845356956
 31
0.0
  0
LINE
  5
E8
330
DE
100
AcDbEntity
  8
치수문자_일반주서
100
AcDbLine
 10
-61.9016317249835
 20
6.126378845356956
 30
0.0
 11
-61.9016317249835
 21
5.415441359792456
 31
0.0
  0
LINE
  5
E9
330
DE
100
AcDbEntity
  8
치수문자_일반주서
100
AcDbLine
 10
-44.16499999999998
 20
3.176074928723876
 30
0.0
 11
-57.66499999999999
 21
3.176074928723876
 31
0.0
  0
LINE
  5
EA
330
DE
100
AcDbEntity
  8
치수문자_일반주서
100
AcDbLine
 10
-44.16499999999998
 20
-3.173925071276118
 30
0.0
 11
-57.66499999999999
 21
-3.173925071276119
 31
0.0
  0
LINE
  5
EB
330
DE
100
AcDbEntity
  8
치수문자_일반주서
100
AcDbLine
 10
-56.66499999999999
 20
3.176074928723876
 30
0.0
 11
-56.66499999999999
 21
9.526074928723874
 31
0.0
  0
LINE
  5
EC
330
DE
100
AcDbEntity
  8
치수문자_일반주서
100
AcDbLine
 10
-56.66499999999999
 20
3.176074928723876
 30
0.0
 11
-56.66499999999999
 21
-3.173925071276119
 31
0.0
  0
LINE
  5
ED
330
DE
100
AcDbEntity
  8
치수문자_일반주서
100
AcDbLine
 10
-56.66499999999999
 20
-3.173925071276119
 30
0.0
 11
-56.66499999999999
 21
-9.52392507127612
 31
0.0
  0
MTEXT
  5
EE
330
DE
100
AcDbEntity
  8
치수문자_일반주서
100
AcDbMText
 10
-66.41336863956234
 20
-4.524619601733464
 30
0.0
 40
3.5
 41
0.0
 71
     1
 72
     1
  1
0.25
  7
SLDTEXTSTYLE0
 11
-7.044195017643634E-15
 21
1.0
 31
0.0
 73
     1
 44
1.0
  0
MTEXT
  5
EF
330
DE
100
AcDbEntity
  8
치수문자_일반주서
100
AcDbMText
 10
-61.17673708920184
 20
-7.163838766581756
 30
0.0
 40
3.5
 41
0.0
 71
     1
 72
     1
  1
%%c
  7
SLDTEXTSTYLE0
 11
-7.044195017643634E-15
 21
1.0
 31
0.0
 73
     1
 44
1.0
  0
MTEXT
  5
F0
330
DE
100
AcDbEntity
  8
치수문자_일반주서
100
AcDbMText
 10
-61.17673708920187
 20
-1.885401368207674
 30
0.0
 40
3.5
 41
0.0
 71
     1
 72
     1
  1
6.35
  7
SLDTEXTSTYLE0
 11
-7.044195017643634E-15
 21
1.0
 31
0.0
 73
     1
 44
1.0
  0
ENDBLK
  5
E0
330
DE
100
AcDbEntity
  8
0
100
AcDbBlockEnd
  0
BLOCK
  5
F4
330
F3
100
AcDbEntity
  8
0
100
AcDbBlockBegin
  2
_D_1
 70
     0
 10
0.0
 20
0.0
 30
0.0
  3
_D_1
  1
_D_1
  0
SOLID
  5
F6
330
F3
100
AcDbEntity
  8
치수문자_일반주서
100
AcDbTrace
 10
64.28939220805994
 20
6.351074928723897
 30
0.0
 11
63.78139220805993
 21
3.049074928723897
 31
0.0
 12
64.79739220805993
 22
3.049074928723897
 32
0.0
 13
64.79739220805993
 23
3.049074928723897
 33
0.0
  0
SOLID
  5
F7
330
F3
100
AcDbEntity
  8
치수문자_일반주서
100
AcDbTrace
 10
64.28939220805994
 20
-6.348925071276113
 30
0.0
 11
64.79739220805993
 21
-3.046925071276114
 31
0.0
 12
63.78139220805993
 22
-3.046925071276114
 32
0.0
 13
63.78139220805993
 23
-3.046925071276114
 33
0.0
  0
LINE
  5
F8
330
F3
100
AcDbEntity
  8
치수문자_일반주서
100
AcDbLine
 10
53.49651049201722
 20
20.97715961835173
 30
0.0
 11
53.49651049201722
 21
20.26622213278723
 31
0.0
  0
LINE
  5
F9
330
F3
100
AcDbEntity
  8
치수문자_일반주서
100
AcDbLine
 10
53.49651049201722
 20
20.26622213278723
 30
0.0
 11
59.05276048307653
 21
20.26622213278727
 31
0.0
  0
LINE
  5
FA
330
F3
100
AcDbEntity
  8
치수문자_일반주서
100
AcDbLine
 10
59.05276048307653
 20
20.26622213278727
 30
0.0
 11
59.05276048307652
 21
20.97715961835177
 31
0.0
  0
LINE
  5
FB
330
F3
100
AcDbEntity
  8
치수문자_일반주서
100
AcDbLine
 10
53.49651049201714
 20
31.80589248048899
 30
0.0
 11
53.49651049201714
 21
32.51682996605349
 31
0.0
  0
LINE
  5
FC
330
F3
100
AcDbEntity
  8
치수문자_일반주서
100
AcDbLine
 10
53.49651049201714
 20
32.51682996605349
 30
0.0
 11
59.05276048307644
 21
32.51682996605354
 31
0.0
  0
LINE
  5
FD
330
F3
100
AcDbEntity
  8
치수문자_일반주서
100
AcDbLine
 10
59.05276048307644
 20
32.51682996605354
 30
0.0
 11
59.05276048307645
 21
31.80589248048903
 31
0.0
  0
LINE
  5
FE
330
F3
100
AcDbEntity
  8
치수문자_일반주서
100
AcDbLine
 10
30.77706927758172
 20
6.351074928723898
 30
0.0
 11
65.28939220805994
 21
6.351074928723897
 31
0.0
  0
LINE
  5
FF
330
F3
100
AcDbEntity
  8
치수문자_일반주서
100
AcDbLine
 10
30.77706927758172
 20
-6.348925071276112
 30
0.0
 11
65.28939220805994
 21
-6.348925071276113
 31
0.0
  0
LINE
  5
100
330
F3
100
AcDbEntity
  8
치수문자_일반주서
100
AcDbLine
 10
64.28939220805994
 20
6.351074928723897
 30
0.0
 11
64.28939220805994
 21
34.84949499224145
 31
0.0
  0
LINE
  5
101
330
F3
100
AcDbEntity
  8
치수문자_일반주서
100
AcDbLine
 10
64.28939220805994
 20
6.351074928723897
 30
0.0
 11
64.28939220805994
 21
-6.348925071276113
 31
0.0
  0
MTEXT
  5
102
330
F3
100
AcDbEntity
  8
치수문자_일반주서
100
AcDbMText
 10
54.54102356849762
 20
21.86583151896311
 30
0.0
 40
3.5
 41
0.0
 71
     1
 72
     1
  1
0.50
  7
SLDTEXTSTYLE0
 11
-7.044195017643634E-15
 21
1.0
 31
0.0
 73
     1
 44
1.0
  0
MTEXT
  5
103
330
F3
100
AcDbEntity
  8
치수문자_일반주서
100
AcDbMText
 10
59.77765511885812
 20
17.93355710659938
 30
0.0
 40
3.5
 41
0.0
 71
     1
 72
     1
  1
%%c
  7
SLDTEXTSTYLE0
 11
-7.044195017643634E-15
 21
1.0
 31
0.0
 73
     1
 44
1.0
  0
MTEXT
  5
104
330
F3
100
AcDbEntity
  8
치수문자_일반주서
100
AcDbMText
 10
59.77765511885809
 20
23.21199450497346
 30
0.0
 40
3.5
 41
0.0
 71
     1
 72
     1
  1
12.70
  7
SLDTEXTSTYLE0
 11
-7.044195017643634E-15
 21
1.0
 31
0.0
 73
     1
 44
1.0
  0
ENDBLK
  5
F5
330
F3
100
AcDbEntity
  8
0
100
AcDbBlockEnd
  0
BLOCK
  5
107
330
106
100
AcDbEntity
  8
0
100
AcDbBlockBegin
  2
_D_2
 70
     0
 10
0.0
 20
0.0
 30
0.0
  3
_D_2
  1
_D_2
  0
SOLID
  5
109
330
106
100
AcDbEntity
  8
치수문자_일반주서
100
AcDbTrace
 10
19.52500000000001
 20
12.5930504890722
 30
0.0
 11
22.82700000000001
 21
12.0850504890722
 31
0.0
 12
22.82700000000001
 22
13.1010504890722
 32
0.0
 13
22.82700000000001
 23
13.1010504890722
 33
0.0
  0
SOLID
  5
10A
330
106
100
AcDbEntity
  8
치수문자_일반주서
100
AcDbTrace
 10
10.00000000000001
 20
12.59305048907219
 30
0.0
 11
6.698000000000009
 21
13.10105048907219
 31
0.0
 12
6.698000000000009
 22
12.08505048907219
 32
0.0
 13
6.698000000000009
 23
12.08505048907219
 33
0.0
  0
LINE
  5
10B
330
106
100
AcDbEntity
  8
치수문자_일반주서
100
AcDbLine
 10
9.3681615483271
 20
23.38593220511497
 30
0.0
 11
8.6572240627626
 21
23.38593220511497
 31
0.0
  0
LINE
  5
10C
330
106
100
AcDbEntity
  8
치수문자_일반주서
100
AcDbLine
 10
8.6572240627626
 20
23.38593220511497
 30
0.0
 11
8.657224062762642
 21
17.82968221405566
 31
0.0
  0
LINE
  5
10D
330
106
100
AcDbEntity
  8
치수문자_일반주서
100
AcDbLine
 10
8.657224062762642
 20
17.82968221405566
 30
0.0
 11
9.368161548327143
 21
17.82968221405567
 31
0.0
  0
LINE
  5
10E
330
106
100
AcDbEntity
  8
치수문자_일반주서
100
AcDbLine
 10
20.19689441046436
 20
23.38593220511505
 30
0.0
 11
20.90783189602886
 21
23.38593220511506
 31
0.0
  0
LINE
  5
10F
330
106
100
AcDbEntity
  8
치수문자_일반주서
100
AcDbLine
 10
20.90783189602886
 20
23.38593220511506
 30
0.0
 11
20.9078318960289
 21
17.82968221405575
 31
0.0
  0
LINE
  5
110
330
106
100
AcDbEntity
  8
치수문자_일반주서
100
AcDbLine
 10
20.9078318960289
 20
17.82968221405575
 30
0.0
 11
20.1968944104644
 21
17.82968221405575
 31
0.0
  0
LINE
  5
111
330
106
100
AcDbEntity
  8
치수문자_일반주서
100
AcDbLine
 10
19.52500000000001
 20
2.620324928723896
 30
0.0
 11
19.52500000000001
 21
13.59305048907219
 31
0.0
  0
LINE
  5
112
330
106
100
AcDbEntity
  8
치수문자_일반주서
100
AcDbLine
 10
10.00000000000001
 20
3.077983619529295
 30
0.0
 11
10.00000000000001
 21
13.59305048907219
 31
0.0
  0
LINE
  5
113
330
106
100
AcDbEntity
  8
치수문자_일반주서
100
AcDbLine
 10
19.52500000000001
 20
12.5930504890722
 30
0.0
 11
25.87500000000001
 21
12.5930504890722
 31
0.0
  0
LINE
  5
114
330
106
100
AcDbEntity
  8
치수문자_일반주서
100
AcDbLine
 10
19.52500000000001
 20
12.5930504890722
 30
0.0
 11
10.00000000000001
 21
12.59305048907219
 31
0.0
  0
LINE
  5
115
330
106
100
AcDbEntity
  8
치수문자_일반주서
100
AcDbLine
 10
10.00000000000001
 20
12.59305048907219
 30
0.0
 11
3.650000000000009
 21
12.59305048907219
 31
0.0
  0
MTEXT
  5
116
330
106
100
AcDbEntity
  8
치수문자_일반주서
100
AcDbMText
 10
8.14346533727595
 20
17.15825975493393
 30
0.0
 40
3.5
 41
0.0
 71
     1
 72
     1
  1

  7
SLDTEXTSTYLE0
 73
     1
 44
1.0
  0
MTEXT
  5
117
330
106
100
AcDbEntity
  8
치수문자_일반주서
100
AcDbMText
 10
10.25683344893848
 20
22.34141912863457
 30
0.0
 40
3.5
 41
0.0
 71
     1
 72
     1
  1
0.38
  7
SLDTEXTSTYLE0
 73
     1
 44
1.0
  0
MTEXT
  5
118
330
106
100
AcDbEntity
  8
치수문자_일반주서
100
AcDbMText
 10
10.25683344893852
 20
17.1047875782741
 30
0.0
 40
3.5
 41
0.0
 71
     1
 72
     1
  1
9.53
  7
SLDTEXTSTYLE0
 73
     1
 44
1.0
  0
MTEXT
  5
119
330
106
100
AcDbEntity
  8
치수문자_일반주서
100
AcDbMText
 10
22.75353514116952
 20
17.15825975493404
 30
0.0
 40
3.5
 41
0.0
 71
     1
 72
     1
  1

  7
SLDTEXTSTYLE0
 73
     1
 44
1.0
  0
ENDBLK
  5
108
330
106
100
AcDbEntity
  8
0
100
AcDbBlockEnd
  0
BLOCK
  5
11C
330
11B
100
AcDbEntity
  8
0
100
AcDbBlockBegin
  2
_D_3
 70
     0
 10
0.0
 20
0.0
 30
0.0
  3
_D_3
  1
_D_3
  0
SOLID
  5
11E
330
11B
100
AcDbEntity
  8
치수문자_일반주서
100
AcDbTrace
 10
19.52500000000001
 20
24.59305048907215
 30
0.0
 11
16.22300000000001
 21
25.10105048907215
 31
0.0
 12
16.22300000000001
 22
24.08505048907215
 32
0.0
 13
16.22300000000001
 23
24.08505048907215
 33
0.0
  0
SOLID
  5
11F
330
11B
100
AcDbEntity
  8
치수문자_일반주서
100
AcDbTrace
 10
-43.97499999999998
 20
24.59305048907215
 30
0.0
 11
-40.67299999999998
 21
24.08505048907215
 31
0.0
 12
-40.67299999999998
 22
25.10105048907215
 32
0.0
 13
-40.67299999999998
 23
25.10105048907215
 33
0.0
  0
LINE
  5
120
330
11B
100
AcDbEntity
  8
치수문자_일반주서
100
AcDbLine
 10
-17.92510688423708
 20
35.38593220511488
 30
0.0
 11
-18.63604436980158
 21
35.38593220511488
 31
0.0
  0
LINE
  5
121
330
11B
100
AcDbEntity
  8
치수문자_일반주서
100
AcDbLine
 10
-18.63604436980158
 20
35.38593220511488
 30
0.0
 11
-18.63604436980162
 21
29.82968221405558
 31
0.0
  0
LINE
  5
122
330
11B
100
AcDbEntity
  8
치수문자_일반주서
100
AcDbLine
 10
-18.63604436980162
 20
29.82968221405558
 30
0.0
 11
-17.92510688423712
 21
29.82968221405557
 31
0.0
  0
LINE
  5
123
330
11B
100
AcDbEntity
  8
치수문자_일반주서
100
AcDbLine
 10
-7.096374022099821
 20
35.38593220511481
 30
0.0
 11
-6.385436536535321
 21
35.3859322051148
 31
0.0
  0
LINE
  5
124
330
11B
100
AcDbEntity
  8
치수문자_일반주서
100
AcDbLine
 10
-6.385436536535321
 20
35.3859322051148
 30
0.0
 11
-6.38543653653536
 21
29.82968221405549
 31
0.0
  0
LINE
  5
125
330
11B
100
AcDbEntity
  8
치수문자_일반주서
100
AcDbLine
 10
-6.38543653653536
 20
29.82968221405549
 30
0.0
 11
-7.096374022099861
 21
29.8296822140555
 31
0.0
  0
LINE
  5
126
330
11B
100
AcDbEntity
  8
치수문자_일반주서
100
AcDbLine
 10
19.52500000000001
 20
2.620324928723896
 30
0.0
 11
19.52500000000001
 21
25.59305048907216
 31
0.0
  0
LINE
  5
127
330
11B
100
AcDbEntity
  8
치수문자_일반주서
100
AcDbLine
 10
-43.97499999999998
 20
3.366074928723887
 30
0.0
 11
-43.97499999999998
 21
25.59305048907215
 31
0.0
  0
LINE
  5
128
330
11B
100
AcDbEntity
  8
치수문자_일반주서
100
AcDbLine
 10
19.52500000000001
 20
24.59305048907215
 30
0.0
 11
-43.97499999999998
 21
24.59305048907215
 31
0.0
  0
MTEXT
  5
129
330
11B
100
AcDbEntity
  8
치수문자_일반주서
100
AcDbMText
 10
-19.14980309528832
 20
29.15825975493387
 30
0.0
 40
3.5
 41
0.0
 71
     1
 72
     1
  1

  7
SLDTEXTSTYLE0
 73
     1
 44
1.0
  0
MTEXT
  5
12A
330
11B
100
AcDbEntity
  8
치수문자_일반주서
100
AcDbMText
 10
-17.03643498362571
 20
34.34141912863447
 30
0.0
 40
3.5
 41
0.0
 71
     1
 72
     1
  1
2.50
  7
SLDTEXTSTYLE0
 73
     1
 44
1.0
  0
MTEXT
  5
12B
330
11B
100
AcDbEntity
  8
치수문자_일반주서
100
AcDbMText
 10
-18.32949069680248
 20
29.10478757827401
 30
0.0
 40
3.5
 41
0.0
 71
     1
 72
     1
  1
63.50
  7
SLDTEXTSTYLE0
 73
     1
 44
1.0
  0
MTEXT
  5
12C
330
11B
100
AcDbEntity
  8
치수문자_일반주서
100
AcDbMText
 10
-4.539733291394753
 20
29.15825975493376
 30
0.0
 40
3.5
 41
0.0
 71
     1
 72
     1
  1

  7
SLDTEXTSTYLE0
 73
     1
 44
1.0
  0
ENDBLK
  5
11D
330
11B
100
AcDbEntity
  8
0
100
AcDbBlockEnd
  0
BLOCK
  5
135
330
134
100
AcDbEntity
  8
0
100
AcDbBlockBegin
  2
SW_DOWELSYMBOL_0
 70
     0
 10
0.0
 20
0.0
 30
0.0
  3
SW_DOWELSYMBOL_0
  1
SW_DOWELSYMBOL_0
  0
CIRCLE
  5
137
330
134
100
AcDbEntity
  8
해칭선
 62
     0
100
AcDbCircle
 10
0.0
 20
0.0
 30
0.0
 40
3.000000000000002
  0
HATCH
  5
138
330
134
100
AcDbEntity
  8
0
  6
Continuous
 62
     0
370
     0
100
AcDbHatch
 10
0.0
 20
0.0
 30
0.0
210
0.0
220
0.0
230
1.0
  2
SOLID
 70
     1
 71
     0
 91
        1
 92
        0
 93
        3
 72
     2
 10
0.0000000000000069
 20
0.0
 40
3.000000000000002
 50
0.0
 51
90.0
 73
     1
 72
     1
 10
0.0000000000000069
 20
3.000000000000002
 11
0.0000000000000069
 21
0.0
 72
     1
 10
0.0000000000000069
 20
0.0
 11
3.000000000000009
 21
0.0
 97
        0
 75
     0
 76
     1
 98
        1
 10
0.0
 20
0.0
  0
HATCH
  5
139
330
134
100
AcDbEntity
  8
0
  6
Continuous
 62
     0
370
     0
100
AcDbHatch
 10
0.0
 20
0.0
 30
0.0
210
0.0
220
0.0
230
1.0
  2
SOLID
 70
     1
 71
     0
 91
        1
 92
        0
 93
        3
 72
     2
 10
0.0000000000000069
 20
0.0
 40
3.000000000000002
 50
180.0
 51
270.0000000000008
 73
     1
 72
     1
 10
0.0000000000000069
 20
-3.000000000000002
 11
0.0000000000000069
 21
0.0
 72
     1
 10
0.0000000000000069
 20
0.0
 11
-2.999999999999995
 21
0.0
 97
        0
 75
     0
 76
     1
 98
        1
 10
0.0
 20
0.0
  0
ENDBLK
  5
136
330
134
100
AcDbEntity
  8
0
100
AcDbBlockEnd
  0
BLOCK
  5
1BE
330
1BD
100
AcDbEntity
  8
0
100
AcDbBlockBegin
  2
*D8
 70
     1
 10
0.0
 20
0.0
 30
0.0
  3
*D8
  1
*D8
  0
LINE
  5
1BF
330
1BD
100
AcDbEntity
  8
치수문자_일반주서
 62
     0
370
    -2
100
AcDbLine
 10
17.81250000000006
 20
32.94743642920149
 30
0.0
 11
4.375000000000032
 21
32.94743642920144
 31
0.0
  0
LINE
  5
1C0
330
1BD
100
AcDbEntity
  8
치수문자_일반주서
 62
     0
370
    -2
100
AcDbLine
 10
17.81250000000006
 20
26.59743642920149
 30
0.0
 11
4.375000000000054
 21
26.59743642920144
 31
0.0
  0
LINE
  5
1C1
330
1BD
100
AcDbEntity
  8
치수문자_일반주서
 62
     0
370
    -2
100
AcDbLine
 10
4.375000000000044
 20
29.64543642920144
 30
0.0
 11
4.375000000000043
 21
29.89943642920144
 31
0.0
  0
SOLID
  5
1C2
330
1BD
100
AcDbEntity
  8
치수문자_일반주서
 62
     0
100
AcDbTrace
 10
4.925333333333377
 20
29.64543642920144
 30
0.0
 11
3.82466666666671
 21
29.64543642920144
 31
0.0
 12
4.375000000000032
 22
32.94743642920144
 32
0.0
 13
4.375000000000032
 23
32.94743642920144
 33
0.0
  0
SOLID
  5
1C3
330
1BD
100
AcDbEntity
  8
치수문자_일반주서
 62
     0
100
AcDbTrace
 10
3.82466666666671
 20
29.89943642920144
 30
0.0
 11
4.925333333333376
 21
29.89943642920144
 31
0.0
 12
4.375000000000054
 22
26.59743642920144
 32
0.0
 13
4.375000000000054
 23
26.59743642920144
 33
0.0
  0
MTEXT
  5
1C4
330
1BD
100
AcDbEntity
  8
치수문자_일반주서
 62
     0
100
AcDbMText
 10
0.0000000000000426
 20
29.77243642920147
 30
0.0
 40
3.5
 41
0.0
 71
     2
 72
     1
  1
\A1;%%c6.35 [1/4]
  7
SLDTEXTSTYLE0
 11
-3.496765431890258E-15
 21
1.0
 31
0.0
 73
     1
 44
1.0
  0
POINT
  5
1C5
330
1BD
100
AcDbEntity
  8
Defpoints
 62
     0
100
AcDbPoint
 10
17.87500000000006
 20
32.94743642920149
 30
0.0
  0
POINT
  5
1C6
330
1BD
100
AcDbEntity
  8
Defpoints
 62
     0
100
AcDbPoint
 10
17.87500000000006
 20
26.59743642920149
 30
0.0
  0
POINT
  5
1C7
330
1BD
100
AcDbEntity
  8
Defpoints
 62
     0
100
AcDbPoint
 10
4.375000000000057
 20
26.59743642920144
 30
0.0
  0
ENDBLK
  5
1C8
330
1BD
100
AcDbEntity
  8
0
100
AcDbBlockEnd
  0
BLOCK
  5
1CB
330
1CA
100
AcDbEntity
  8
0
100
AcDbBlockBegin
  2
*D9
 70
     1
 10
0.0
 20
0.0
 30
0.0
  3
*D9
  1
*D9
  0
LINE
  5
1CC
330
1CA
100
AcDbEntity
  8
치수문자_일반주서
 62
     0
370
    -2
100
AcDbLine
 10
80.62750000000003
 20
32.1536864292015
 30
0.0
 11
91.05200058329949
 21
32.15368642920154
 31
0.0
  0
LINE
  5
1CD
330
1CA
100
AcDbEntity
  8
치수문자_일반주서
 62
     0
370
    -2
100
AcDbLine
 10
80.62750000000003
 20
27.39118642920151
 30
0.0
 11
91.0520005832995
 21
27.39118642920155
 31
0.0
  0
LINE
  5
1CE
330
1CA
100
AcDbEntity
  8
치수문자_일반주서
 62
     0
370
    -2
100
AcDbLine
 10
91.05200058329949
 20
32.15368642920154
 30
0.0
 11
91.05200058329937
 21
70.16288754989792
 31
0.0
  0
LINE
  5
1CF
330
1CA
100
AcDbEntity
  8
치수문자_일반주서
 62
     0
370
    -2
100
AcDbLine
 10
91.05200058329949
 20
32.15368642920154
 30
0.0
 11
91.0520005832995
 21
27.39118642920155
 31
0.0
  0
LINE
  5
1D0
330
1CA
100
AcDbEntity
  8
치수문자_일반주서
 62
     0
370
    -2
100
AcDbLine
 10
91.05200058329947
 20
35.45568642920154
 30
0.0
 11
91.05200058329946
 21
38.75768642920154
 31
0.0
  0
LINE
  5
1D1
330
1CA
100
AcDbEntity
  8
치수문자_일반주서
 62
     0
370
    -2
100
AcDbLine
 10
91.05200058329952
 20
24.08918642920155
 30
0.0
 11
91.05200058329953
 21
20.78718642920155
 31
0.0
  0
SOLID
  5
1D2
330
1CA
100
AcDbEntity
  8
치수문자_일반주서
 62
     0
100
AcDbTrace
 10
90.50166724996615
 20
35.45568642920154
 30
0.0
 11
91.6023339166328
 21
35.45568642920154
 31
0.0
 12
91.05200058329949
 22
32.15368642920154
 32
0.0
 13
91.05200058329949
 23
32.15368642920154
 33
0.0
  0
SOLID
  5
1D3
330
1CA
100
AcDbEntity
  8
치수문자_일반주서
 62
     0
100
AcDbTrace
 10
91.60233391663284
 20
24.08918642920155
 30
0.0
 11
90.50166724996619
 21
24.08918642920155
 31
0.0
 12
91.0520005832995
 22
27.39118642920155
 32
0.0
 13
91.0520005832995
 23
27.39118642920155
 33
0.0
  0
MTEXT
  5
1D4
330
1CA
100
AcDbEntity
  8
치수문자_일반주서
 62
     0
100
AcDbMText
 10
86.67700058329942
 20
56.1628875498979
 30
0.0
 40
3.5
 41
0.0
 71
     2
 72
     1
  1
\A1;%%c4.76 [3/16]
  7
SLDTEXTSTYLE0
 11
-2.983906501879689E-15
 21
1.0
 31
0.0
 73
     1
 44
1.0
  0
POINT
  5
1D5
330
1CA
100
AcDbEntity
  8
Defpoints
 62
     0
100
AcDbPoint
 10
80.56500000000003
 20
32.1536864292015
 30
0.0
  0
POINT
  5
1D6
330
1CA
100
AcDbEntity
  8
Defpoints
 62
     0
100
AcDbPoint
 10
80.56500000000003
 20
27.39118642920151
 30
0.0
  0
POINT
  5
1D7
330
1CA
100
AcDbEntity
  8
Defpoints
 62
     0
100
AcDbPoint
 10
91.05200058329953
 20
27.39118642920155
 30
0.0
  0
ENDBLK
  5
1D8
330
1CA
100
AcDbEntity
  8
0
100
AcDbBlockEnd
  0
BLOCK
  5
1DB
330
1DA
100
AcDbEntity
  8
0
100
AcDbBlockBegin
  2
*D10
 70
     1
 10
0.0
 20
0.0
 30
0.0
  3
*D10
  1
*D10
  0
LINE
  5
1DC
330
1DA
100
AcDbEntity
  8
치수문자_일반주서
 62
     0
370
    -2
100
AcDbLine
 10
80.56500000000003
 20
32.2161864292015
 30
0.0
 11
80.56500000000003
 21
42.41203698954979
 31
0.0
  0
LINE
  5
1DD
330
1DA
100
AcDbEntity
  8
치수문자_일반주서
 62
     0
370
    -2
100
AcDbLine
 10
71.04000000000005
 20
31.91184512000691
 30
0.0
 11
71.04000000000005
 21
42.41203698954979
 31
0.0
  0
LINE
  5
1DE
330
1DA
100
AcDbEntity
  8
치수문자_일반주서
 62
     0
370
    -2
100
AcDbLine
 10
71.04000000000005
 20
42.41203698954979
 30
0.0
 11
40.59225000000005
 21
42.41203698954979
 31
0.0
  0
LINE
  5
1DF
330
1DA
100
AcDbEntity
  8
치수문자_일반주서
 62
     0
370
    -2
100
AcDbLine
 10
80.56500000000003
 20
42.41203698954979
 30
0.0
 11
71.04000000000005
 21
42.41203698954979
 31
0.0
  0
LINE
  5
1E0
330
1DA
100
AcDbEntity
  8
치수문자_일반주서
 62
     0
370
    -2
100
AcDbLine
 10
83.86700000000002
 20
42.41203698954979
 30
0.0
 11
87.16900000000001
 21
42.41203698954979
 31
0.0
  0
LINE
  5
1E1
330
1DA
100
AcDbEntity
  8
치수문자_일반주서
 62
     0
370
    -2
100
AcDbLine
 10
67.73800000000006
 20
42.41203698954979
 30
0.0
 11
64.43600000000006
 21
42.41203698954979
 31
0.0
  0
SOLID
  5
1E2
330
1DA
100
AcDbEntity
  8
치수문자_일반주서
 62
     0
100
AcDbTrace
 10
83.86700000000002
 20
42.96237032288312
 30
0.0
 11
83.86700000000002
 21
41.86170365621646
 31
0.0
 12
80.56500000000003
 22
42.41203698954979
 32
0.0
 13
80.56500000000003
 23
42.41203698954979
 33
0.0
  0
SOLID
  5
1E3
330
1DA
100
AcDbEntity
  8
치수문자_일반주서
 62
     0
100
AcDbTrace
 10
67.73800000000006
 20
41.86170365621646
 30
0.0
 11
67.73800000000006
 21
42.96237032288312
 31
0.0
 12
71.04000000000005
 22
42.41203698954979
 32
0.0
 13
71.04000000000005
 23
42.41203698954979
 33
0.0
  0
MTEXT
  5
1E4
330
1DA
100
AcDbEntity
  8
치수문자_일반주서
 62
     0
100
AcDbMText
 10
52.40475000000005
 20
46.78703698954979
 30
0.0
 40
3.5
 41
0.0
 71
     2
 72
     1
  1
\A1;9.53 [3/8]
  7
SLDTEXTSTYLE0
 73
     1
 44
1.0
  0
POINT
  5
1E5
330
1DA
100
AcDbEntity
  8
Defpoints
 62
     0
100
AcDbPoint
 10
80.56500000000003
 20
32.1536864292015
 30
0.0
  0
POINT
  5
1E6
330
1DA
100
AcDbEntity
  8
Defpoints
 62
     0
100
AcDbPoint
 10
71.04000000000005
 20
31.84934512000691
 30
0.0
  0
POINT
  5
1E7
330
1DA
100
AcDbEntity
  8
Defpoints
 62
     0
100
AcDbPoint
 10
71.04000000000005
 20
42.41203698954979
 30
0.0
  0
ENDBLK
  5
1E8
330
1DA
100
AcDbEntity
  8
0
100
AcDbBlockEnd
  0
BLOCK
  5
1EB
330
1EA
100
AcDbEntity
  8
0
100
AcDbBlockBegin
  2
*D11
 70
     1
 10
0.0
 20
0.0
 30
0.0
  3
*D11
  1
*D11
  0
LINE
  5
1EC
330
1EA
100
AcDbEntity
  8
치수문자_일반주서
 62
     0
370
    -2
100
AcDbLine
 10
80.56500000000003
 20
32.2161864292015
 30
0.0
 11
80.56500000000003
 21
54.41203698954976
 31
0.0
  0
LINE
  5
1ED
330
1EA
100
AcDbEntity
  8
치수문자_일반주서
 62
     0
370
    -2
100
AcDbLine
 10
17.06500000000005
 20
32.1999364292015
 30
0.0
 11
17.06500000000005
 21
54.41203698954976
 31
0.0
  0
LINE
  5
1EE
330
1EA
100
AcDbEntity
  8
치수문자_일반주서
 62
     0
370
    -2
100
AcDbLine
 10
77.26300000000003
 20
54.41203698954976
 30
0.0
 11
20.36700000000005
 21
54.41203698954976
 31
0.0
  0
SOLID
  5
1EF
330
1EA
100
AcDbEntity
  8
치수문자_일반주서
 62
     0
100
AcDbTrace
 10
77.26300000000003
 20
53.86170365621643
 30
0.0
 11
77.26300000000003
 21
54.9623703228831
 31
0.0
 12
80.56500000000003
 22
54.41203698954976
 32
0.0
 13
80.56500000000003
 23
54.41203698954976
 33
0.0
  0
SOLID
  5
1F0
330
1EA
100
AcDbEntity
  8
치수문자_일반주서
 62
     0
100
AcDbTrace
 10
20.36700000000005
 20
54.9623703228831
 30
0.0
 11
20.36700000000005
 21
53.86170365621643
 31
0.0
 12
17.06500000000005
 22
54.41203698954976
 32
0.0
 13
17.06500000000005
 23
54.41203698954976
 33
0.0
  0
MTEXT
  5
1F1
330
1EA
100
AcDbEntity
  8
치수문자_일반주서
 62
     0
100
AcDbMText
 10
48.52925919758562
 20
58.78703698954976
 30
0.0
 40
3.5
 41
0.0
 71
     2
 72
     1
  1
\A1;63.5 [2 1/2]
  7
SLDTEXTSTYLE0
 73
     1
 44
1.0
  0
POINT
  5
1F2
330
1EA
100
AcDbEntity
  8
Defpoints
 62
     0
100
AcDbPoint
 10
80.56500000000003
 20
32.1536864292015
 30
0.0
  0
POINT
  5
1F3
330
1EA
100
AcDbEntity
  8
Defpoints
 62
     0
100
AcDbPoint
 10
17.06500000000005
 20
32.1374364292015
 30
0.0
  0
POINT
  5
1F4
330
1EA
100
AcDbEntity
  8
Defpoints
 62
     0
100
AcDbPoint
 10
17.06500000000005
 20
54.41203698954976
 30
0.0
  0
ENDBLK
  5
1F5
330
1EA
100
AcDbEntity
  8
0
100
AcDbBlockEnd
  0
BLOCK
  5
207
330
206
100
AcDbEntity
  8
0
100
AcDbBlockBegin
  2
*D12
 70
     1
 10
0.0
 20
0.0
 30
0.0
  3
*D12
  1
*D12
  0
LINE
  5
208
330
206
100
AcDbEntity
  8
치수문자_일반주서
 62
     0
370
    -2
100
AcDbLine
 10
82.31943097951202
 20
24.83365122911909
 30
0.0
 11
100.6472002622281
 21
-0.0000000000000018
 31
0.0
  0
MTEXT
  5
209
330
206
100
AcDbEntity
  8
치수문자_일반주서
 62
     0
100
AcDbMText
 10
94.57578371729807
 20
12.64718852948945
 30
0.0
 40
3.5
 41
0.0
 71
     5
 72
     1
  1
\A1;R.51 [R0.020]
  7
SLDTEXTSTYLE0
 11
0.5938139053837288
 21
-0.8046024147197943
 31
0.0
 73
     1
 44
1.0
  0
LINE
  5
20A
330
206
100
AcDbEntity
  8
치수문자_일반주서
 62
     0
370
    -2
100
AcDbLine
 10
80.05700000000002
 20
27.8991864292015
 30
0.0
 11
80.35865746393495
 21
27.49044840252385
 31
0.0
  0
SOLID
  5
20B
330
206
100
AcDbEntity
  8
치수문자_일반주서
 62
     0
100
AcDbTrace
 10
82.76223050841281
 20
25.1604468150486
 30
0.0
 11
81.87663145061123
 21
24.50685564318958
 31
0.0
 12
80.35865746393495
 22
27.49044840252385
 32
0.0
 13
80.35865746393495
 23
27.49044840252385
 33
0.0
  0
POINT
  5
20C
330
206
100
AcDbEntity
  8
Defpoints
 62
     0
100
AcDbPoint
 10
80.35865746393495
 20
27.49044840252385
 30
0.0
  0
POINT
  5
20D
330
206
100
AcDbEntity
  8
Defpoints
 62
     0
100
AcDbPoint
 10
80.05700000000002
 20
27.8991864292015
 30
0.0
  0
ENDBLK
  5
20E
330
206
100
AcDbEntity
  8
0
100
AcDbBlockEnd
  0
BLOCK
  5
255
330
254
100
AcDbEntity
  8
0
100
AcDbBlockBegin
  2
*D13
 70
     1
 10
0.0
 20
0.0
 30
0.0
  3
*D13
  1
*D13
  0
LINE
  5
257
330
254
100
AcDbEntity
  8
치수문자_일반주서
 62
     0
370
    -2
100
AcDbLine
 10
-47.26518467149222
 20
3.174999999999986
 30
0.0
 11
-60.70268467149224
 21
3.174999999999936
 31
0.0
  0
LINE
  5
258
330
254
100
AcDbEntity
  8
치수문자_일반주서
 62
     0
370
    -2
100
AcDbLine
 10
-47.26518467149222
 20
-3.175000000000012
 30
0.0
 11
-60.70268467149222
 21
-3.175000000000062
 31
0.0
  0
LINE
  5
259
330
254
100
AcDbEntity
  8
치수문자_일반주서
 62
     0
370
    -2
100
AcDbLine
 10
-60.70268467149223
 20
-0.1270000000000637
 30
0.0
 11
-60.70268467149224
 21
0.1269999999999376
 31
0.0
  0
SOLID
  5
25A
330
254
100
AcDbEntity
  8
치수문자_일반주서
 62
     0
100
AcDbTrace
 10
-60.15235133815889
 20
-0.1270000000000619
 30
0.0
 11
-61.25301800482556
 21
-0.1270000000000656
 31
0.0
 12
-60.70268467149224
 22
3.174999999999936
 32
0.0
 13
-60.70268467149224
 23
3.174999999999936
 33
0.0
  0
SOLID
  5
25B
330
254
100
AcDbEntity
  8
치수문자_일반주서
 62
     0
100
AcDbTrace
 10
-61.25301800482557
 20
0.1269999999999357
 30
0.0
 11
-60.1523513381589
 21
0.1269999999999395
 31
0.0
 12
-60.70268467149222
 22
-3.175000000000062
 32
0.0
 13
-60.70268467149222
 23
-3.175000000000062
 33
0.0
  0
MTEXT
  5
25C
330
254
100
AcDbEntity
  8
치수문자_일반주서
 62
     0
100
AcDbMText
 10
-65.07768467149224
 20
-0.0000000000000287
 30
0.0
 40
3.5
 41
0.0
 71
     2
 72
     1
  1
\A1;%%c6.35 [1/4]
  7
SLDTEXTSTYLE0
 11
-3.356894814614648E-15
 21
1.0
 31
0.0
 73
     1
 44
1.0
  0
POINT
  5
25D
330
254
100
AcDbEntity
  8
Defpoints
 62
     0
100
AcDbPoint
 10
-47.20268467149222
 20
3.174999999999986
 30
0.0
  0
POINT
  5
25E
330
254
100
AcDbEntity
  8
Defpoints
 62
     0
100
AcDbPoint
 10
-47.20268467149222
 20
-3.175000000000011
 30
0.0
  0
POINT
  5
25F
330
254
100
AcDbEntity
  8
Defpoints
 62
     0
100
AcDbPoint
 10
-60.70268467149222
 20
-3.175000000000062
 30
0.0
  0
ENDBLK
  5
256
330
254
100
AcDbEntity
  8
0
100
AcDbBlockEnd
  0
BLOCK
  5
261
330
260
100
AcDbEntity
  8
0
100
AcDbBlockBegin
  2
*D14
 70
     1
 10
0.0
 20
0.0
 30
0.0
  3
*D14
  1
*D14
  0
LINE
  5
263
330
260
100
AcDbEntity
  8
치수문자_일반주서
 62
     0
370
    -2
100
AcDbLine
 10
15.54981532850775
 20
2.381249999999998
 30
0.0
 11
25.97431591180723
 21
2.381250000000037
 31
0.0
  0
LINE
  5
264
330
260
100
AcDbEntity
  8
치수문자_일반주서
 62
     0
370
    -2
100
AcDbLine
 10
15.54981532850775
 20
-2.381249999999994
 30
0.0
 11
25.97431591180725
 21
-2.381249999999955
 31
0.0
  0
LINE
  5
265
330
260
100
AcDbEntity
  8
치수문자_일반주서
 62
     0
370
    -2
100
AcDbLine
 10
25.97431591180723
 20
2.381250000000037
 30
0.0
 11
25.97431591180709
 21
40.39045112069641
 31
0.0
  0
LINE
  5
266
330
260
100
AcDbEntity
  8
치수문자_일반주서
 62
     0
370
    -2
100
AcDbLine
 10
25.97431591180723
 20
2.381250000000037
 30
0.0
 11
25.97431591180725
 21
-2.381249999999955
 31
0.0
  0
LINE
  5
267
330
260
100
AcDbEntity
  8
치수문자_일반주서
 62
     0
370
    -2
100
AcDbLine
 10
25.97431591180722
 20
5.683250000000037
 30
0.0
 11
25.97431591180721
 21
8.985250000000036
 31
0.0
  0
LINE
  5
268
330
260
100
AcDbEntity
  8
치수문자_일반주서
 62
     0
370
    -2
100
AcDbLine
 10
25.97431591180726
 20
-5.683249999999955
 30
0.0
 11
25.97431591180727
 21
-8.985249999999954
 31
0.0
  0
SOLID
  5
269
330
260
100
AcDbEntity
  8
치수문자_일반주서
 62
     0
100
AcDbTrace
 10
25.42398257847388
 20
5.683250000000035
 30
0.0
 11
26.52464924514055
 21
5.683250000000038
 31
0.0
 12
25.97431591180723
 22
2.381250000000037
 32
0.0
 13
25.97431591180723
 23
2.381250000000037
 33
0.0
  0
SOLID
  5
26A
330
260
100
AcDbEntity
  8
치수문자_일반주서
 62
     0
100
AcDbTrace
 10
26.52464924514059
 20
-5.683249999999953
 30
0.0
 11
25.42398257847392
 21
-5.683249999999957
 31
0.0
 12
25.97431591180725
 22
-2.381249999999955
 32
0.0
 13
25.97431591180725
 23
-2.381249999999955
 33
0.0
  0
MTEXT
  5
26B
330
260
100
AcDbEntity
  8
치수문자_일반주서
 62
     0
100
AcDbMText
 10
21.59931591180714
 20
26.3904511206964
 30
0.0
 40
3.5
 41
0.0
 71
     2
 72
     1
  1
\A1;%%c4.76 [3/16]
  7
SLDTEXTSTYLE0
 11
-3.729883127349614E-15
 21
1.0
 31
0.0
 73
     1
 44
1.0
  0
POINT
  5
26C
330
260
100
AcDbEntity
  8
Defpoints
 62
     0
100
AcDbPoint
 10
15.48731532850775
 20
2.381249999999998
 30
0.0
  0
POINT
  5
26D
330
260
100
AcDbEntity
  8
Defpoints
 62
     0
100
AcDbPoint
 10
15.48731532850775
 20
-2.381249999999994
 30
0.0
  0
POINT
  5
26E
330
260
100
AcDbEntity
  8
Defpoints
 62
     0
100
AcDbPoint
 10
25.97431591180731
 20
-2.381249999999955
 30
0.0
  0
ENDBLK
  5
262
330
260
100
AcDbEntity
  8
0
100
AcDbBlockEnd
  0
BLOCK
  5
270
330
26F
100
AcDbEntity
  8
0
100
AcDbBlockBegin
  2
*D15
 70
     1
 10
0.0
 20
0.0
 30
0.0
  3
*D15
  1
*D15
  0
LINE
  5
272
330
26F
100
AcDbEntity
  8
치수문자_일반주서
 62
     0
370
    -2
100
AcDbLine
 10
15.48731532850775
 20
2.443749999999998
 30
0.0
 11
15.48731532850775
 21
12.63960056034829
 31
0.0
  0
LINE
  5
273
330
26F
100
AcDbEntity
  8
치수문자_일반주서
 62
     0
370
    -2
100
AcDbLine
 10
5.962315328507771
 20
2.139408690805404
 30
0.0
 11
5.962315328507771
 21
12.63960056034829
 31
0.0
  0
LINE
  5
274
330
26F
100
AcDbEntity
  8
치수문자_일반주서
 62
     0
370
    -2
100
AcDbLine
 10
5.962315328507771
 20
12.63960056034829
 30
0.0
 11
-24.48543467149223
 21
12.63960056034829
 31
0.0
  0
LINE
  5
275
330
26F
100
AcDbEntity
  8
치수문자_일반주서
 62
     0
370
    -2
100
AcDbLine
 10
15.48731532850775
 20
12.63960056034829
 30
0.0
 11
5.962315328507771
 21
12.63960056034829
 31
0.0
  0
LINE
  5
276
330
26F
100
AcDbEntity
  8
치수문자_일반주서
 62
     0
370
    -2
100
AcDbLine
 10
18.78931532850775
 20
12.63960056034829
 30
0.0
 11
22.09131532850775
 21
12.63960056034829
 31
0.0
  0
LINE
  5
277
330
26F
100
AcDbEntity
  8
치수문자_일반주서
 62
     0
370
    -2
100
AcDbLine
 10
2.660315328507771
 20
12.63960056034829
 30
0.0
 11
-0.6416846714922286
 21
12.63960056034829
 31
0.0
  0
SOLID
  5
278
330
26F
100
AcDbEntity
  8
치수문자_일반주서
 62
     0
100
AcDbTrace
 10
18.78931532850775
 20
13.18993389368162
 30
0.0
 11
18.78931532850775
 21
12.08926722701496
 31
0.0
 12
15.48731532850775
 22
12.63960056034829
 32
0.0
 13
15.48731532850775
 23
12.63960056034829
 33
0.0
  0
SOLID
  5
279
330
26F
100
AcDbEntity
  8
치수문자_일반주서
 62
     0
100
AcDbTrace
 10
2.660315328507771
 20
12.08926722701496
 30
0.0
 11
2.660315328507771
 21
13.18993389368162
 31
0.0
 12
5.962315328507771
 22
12.63960056034829
 32
0.0
 13
5.962315328507771
 23
12.63960056034829
 33
0.0
  0
MTEXT
  5
27A
330
26F
100
AcDbEntity
  8
치수문자_일반주서
 62
     0
100
AcDbMText
 10
-12.67293467149223
 20
17.01460056034829
 30
0.0
 40
3.5
 41
0.0
 71
     2
 72
     1
  1
\A1;9.53 [3/8]
  7
SLDTEXTSTYLE0
 73
     1
 44
1.0
  0
POINT
  5
27B
330
26F
100
AcDbEntity
  8
Defpoints
 62
     0
100
AcDbPoint
 10
15.48731532850775
 20
2.381249999999998
 30
0.0
  0
POINT
  5
27C
330
26F
100
AcDbEntity
  8
Defpoints
 62
     0
100
AcDbPoint
 10
5.962315328507771
 20
2.076908690805404
 30
0.0
  0
POINT
  5
27D
330
26F
100
AcDbEntity
  8
Defpoints
 62
     0
100
AcDbPoint
 10
5.962315328507771
 20
12.63960056034829
 30
0.0
  0
ENDBLK
  5
271
330
26F
100
AcDbEntity
  8
0
100
AcDbBlockEnd
  0
BLOCK
  5
27F
330
27E
100
AcDbEntity
  8
0
100
AcDbBlockBegin
  2
*D16
 70
     1
 10
0.0
 20
0.0
 30
0.0
  3
*D16
  1
*D16
  0
LINE
  5
281
330
27E
100
AcDbEntity
  8
치수문자_일반주서
 62
     0
370
    -2
100
AcDbLine
 10
15.48731532850775
 20
2.443749999999998
 30
0.0
 11
15.48731532850775
 21
24.63960056034826
 31
0.0
  0
LINE
  5
282
330
27E
100
AcDbEntity
  8
치수문자_일반주서
 62
     0
370
    -2
100
AcDbLine
 10
-48.01268467149222
 20
2.427499999999998
 30
0.0
 11
-48.01268467149222
 21
24.63960056034826
 31
0.0
  0
LINE
  5
283
330
27E
100
AcDbEntity
  8
치수문자_일반주서
 62
     0
370
    -2
100
AcDbLine
 10
12.18531532850775
 20
24.63960056034826
 30
0.0
 11
-44.71068467149222
 21
24.63960056034826
 31
0.0
  0
SOLID
  5
284
330
27E
100
AcDbEntity
  8
치수문자_일반주서
 62
     0
100
AcDbTrace
 10
12.18531532850775
 20
24.08926722701493
 30
0.0
 11
12.18531532850775
 21
25.18993389368159
 31
0.0
 12
15.48731532850775
 22
24.63960056034826
 32
0.0
 13
15.48731532850775
 23
24.63960056034826
 33
0.0
  0
SOLID
  5
285
330
27E
100
AcDbEntity
  8
치수문자_일반주서
 62
     0
100
AcDbTrace
 10
-44.71068467149222
 20
25.18993389368159
 30
0.0
 11
-44.71068467149222
 21
24.08926722701493
 31
0.0
 12
-48.01268467149222
 22
24.63960056034826
 32
0.0
 13
-48.01268467149222
 23
24.63960056034826
 33
0.0
  0
MTEXT
  5
286
330
27E
100
AcDbEntity
  8
치수문자_일반주서
 62
     0
100
AcDbMText
 10
-16.54842547390666
 20
29.01460056034826
 30
0.0
 40
3.5
 41
0.0
 71
     2
 72
     1
  1
\A1;63.5 [2 1/2]
  7
SLDTEXTSTYLE0
 73
     1
 44
1.0
  0
POINT
  5
287
330
27E
100
AcDbEntity
  8
Defpoints
 62
     0
100
AcDbPoint
 10
15.48731532850775
 20
2.381249999999998
 30
0.0
  0
POINT
  5
288
330
27E
100
AcDbEntity
  8
Defpoints
 62
     0
100
AcDbPoint
 10
-48.01268467149222
 20
2.364999999999998
 30
0.0
  0
POINT
  5
289
330
27E
100
AcDbEntity
  8
Defpoints
 62
     0
100
AcDbPoint
 10
-48.01268467149222
 20
24.63960056034826
 30
0.0
  0
ENDBLK
  5
280
330
27E
100
AcDbEntity
  8
0
100
AcDbBlockEnd
  0
BLOCK
  5
28B
330
28A
100
AcDbEntity
  8
0
100
AcDbBlockBegin
  2
*D17
 70
     1
 10
0.0
 20
0.0
 30
0.0
  3
*D17
  1
*D17
  0
LINE
  5
28D
330
28A
100
AcDbEntity
  8
치수문자_일반주서
 62
     0
370
    -2
100
AcDbLine
 10
153.1139347737026
 20
-29.75582885061223
 30
0.0
 11
171.4417040564187
 21
-54.58948007973132
 31
0.0
  0
MTEXT
  5
28E
330
28A
100
AcDbEntity
  8
치수문자_일반주서
 62
     0
100
AcDbMText
 10
165.3702875114886
 20
-41.94229155024187
 30
0.0
 40
3.5
 41
0.0
 71
     5
 72
     1
  1
\A1;R.51 [R0.020]
  7
SLDTEXTSTYLE0
 11
0.5938139053837288
 21
-0.8046024147197943
 31
0.0
 73
     1
 44
1.0
  0
LINE
  5
28F
330
28A
100
AcDbEntity
  8
치수문자_일반주서
 62
     0
370
    -2
100
AcDbLine
 10
150.8515037941906
 20
-26.69029365052982
 30
0.0
 11
151.1531612581255
 21
-27.09903167720747
 31
0.0
  0
SOLID
  5
290
330
28A
100
AcDbEntity
  8
치수문자_일반주서
 62
     0
100
AcDbTrace
 10
153.5567343026034
 20
-29.42903326468272
 30
0.0
 11
152.6711352448018
 21
-30.08262443654175
 31
0.0
 12
151.1531612581255
 22
-27.09903167720747
 32
0.0
 13
151.1531612581255
 23
-27.09903167720747
 33
0.0
  0
POINT
  5
291
330
28A
100
AcDbEntity
  8
Defpoints
 62
     0
100
AcDbPoint
 10
151.1531612581255
 20
-27.09903167720747
 30
0.0
  0
POINT
  5
292
330
28A
100
AcDbEntity
  8
Defpoints
 62
     0
100
AcDbPoint
 10
150.8515037941906
 20
-26.69029365052982
 30
0.0
  0
ENDBLK
  5
28C
330
28A
100
AcDbEntity
  8
0
100
AcDbBlockEnd
  0
BLOCK
  5
2A2
330
2A1
100
AcDbEntity
  8
0
100
AcDbBlockBegin
  2
*D18
 70
     1
 10
0.0
 20
0.0
 30
0.0
  3
*D18
  1
*D18
  0
LINE
  5
2A4
330
2A1
100
AcDbEntity
  8
치수문자_일반주서
 62
     0
370
    -2
100
AcDbLine
 10
16.84212484674005
 20
-5.088430517574881
 30
0.0
 11
33.3742300888498
 21
-32.18244012327568
 31
0.0
  0
MTEXT
  5
2A5
330
2A1
100
AcDbEntity
  8
치수문자_일반주서
 62
     0
100
AcDbMText
 10
28.20892829782337
 20
-18.67751013567045
 30
0.0
 40
3.5
 41
0.0
 71
     5
 72
     1
  1
\A1;R.76 [R0.030]
  7
SLDTEXTSTYLE0
 11
0.5208684838170025
 21
-0.8536369383796469
 31
0.0
 73
     1
 44
1.0
  0
LINE
  5
2A6
330
2A1
100
AcDbEntity
  8
치수문자_일반주서
 62
     0
370
    -2
100
AcDbLine
 10
14.72531532850775
 20
-1.619249999999994
 30
0.0
 11
15.1222171131763
 21
-2.269721347045287
 31
0.0
  0
SOLID
  5
2A7
330
2A1
100
AcDbEntity
  8
치수문자_일반주서
 62
     0
100
AcDbTrace
 10
17.31190970849498
 20
-4.801779228647591
 30
0.0
 11
16.37233998498511
 21
-5.375081806502171
 31
0.0
 12
15.1222171131763
 22
-2.269721347045287
 32
0.0
 13
15.1222171131763
 23
-2.269721347045287
 33
0.0
  0
POINT
  5
2A8
330
2A1
100
AcDbEntity
  8
Defpoints
 62
     0
100
AcDbPoint
 10
15.1222171131763
 20
-2.269721347045287
 30
0.0
  0
POINT
  5
2A9
330
2A1
100
AcDbEntity
  8
Defpoints
 62
     0
100
AcDbPoint
 10
14.72531532850775
 20
-1.619249999999994
 30
0.0
  0
ENDBLK
  5
2A3
330
2A1
100
AcDbEntity
  8
0
100
AcDbBlockEnd
  0
ENDSEC
  0
SECTION
  2
ENTITIES
  0
LINE
  5
D2
330
1F
100
AcDbEntity
  8
참조1
100
AcDbLine
 10
-12.225
 20
0.0010749287238892
 30
0.0
 11
-12.22499999999999
 21
-39.99892507127611
 31
0.0
  0
LINE
  5
D3
330
1F
100
AcDbEntity
  8
참조1
100
AcDbLine
 10
-12.22499999999999
 20
-39.99892507127611
 30
0.0
 11
-14.66672777521594
 21
-39.9989250712761
 31
0.0
  0
INSERT
  5
D5
330
1F
100
AcDbEntity
  8
0
  6
Continuous
 62
     7
100
AcDbBlockReference
 66
     1
  2
블럭10
 10
-26.16527293212521
 20
-52.04609937292004
 30
0.0
  0
ATTRIB
  5
D6
330
D5
100
AcDbEntity
  8
FORMAT
 62
     2
100
AcDbText
 10
-36.30690894426183
 20
-49.97073246008785
 30
0.0
 40
4.233333333333333
  1
EM636904 [ 2 FLUTE ]
 41
0.75
  7
SLDTEXTSTYLE0
 11
-36.30690894426183
 21
-52.08739912675452
 31
0.0
100
AcDbAttribute
  2
AUTOATTR0
 70
     0
 74
     1
  0
SEQEND
  5
D7
330
D5
100
AcDbEntity
  8
0
  6
Continuous
 62
     7
  0
HATCH
  5
D8
330
1F
100
AcDbEntity
  8
중심선
100
AcDbHatch
 10
0.0
 20
0.0
 30
0.0
210
0.0
220
0.0
230
1.0
  2
SOLID
 70
     1
 71
     0
 91
        1
 92
        0
 93
        4
 72
     1
 10
-20.45036362774436
 20
-35.7989250712761
 11
-23.89663887158164
 21
-35.7989250712761
 72
     1
 10
-23.89663887158164
 20
-35.7989250712761
 11
-26.02486873078566
 21
-38.33525065184867
 72
     1
 10
-26.02486873078566
 20
-38.33525065184867
 11
-22.57856040183523
 21
-38.33521122254619
 72
     1
 10
-22.57856040183523
 20
-38.33521122254619
 11
-20.45036362774436
 21
-35.7989250712761
 97
        0
 75
     0
 76
     1
 98
        1
 10
0.0
 20
0.0
  0
HATCH
  5
D9
330
1F
100
AcDbEntity
  8
중심선
100
AcDbHatch
 10
0.0
 20
0.0
 30
0.0
210
0.0
220
0.0
230
1.0
  2
SOLID
 70
     1
 71
     0
 91
        1
 92
        0
 93
        4
 72
     1
 10
-15.4375996367084
 20
-35.79892507127613
 11
-18.88387488054563
 21
-35.79892507127608
 72
     1
 10
-18.88387488054563
 20
-35.79892507127608
 11
-23.41501288890307
 21
-41.19892507127612
 72
     1
 10
-23.41501288890307
 20
-41.19892507127612
 11
-19.96873764506579
 21
-41.19892507127612
 72
     1
 10
-19.96873764506579
 20
-41.19892507127612
 11
-15.4375996367084
 21
-35.79892507127613
 97
        0
 75
     0
 76
     1
 98
        1
 10
0.0
 20
0.0
  0
HATCH
  5
DA
330
1F
100
AcDbEntity
  8
중심선
100
AcDbHatch
 10
0.0
 20
0.0
 30
0.0
210
0.0
220
0.0
230
1.0
  2
SOLID
 70
     1
 71
     0
 91
        1
 92
        0
 93
        4
 72
     1
 10
-10.42483564567254
 20
-35.7989250712761
 11
-13.8711108895096
 21
-35.7989250712761
 72
     1
 10
-13.8711108895096
 20
-35.7989250712761
 11
-20.91954779139887
 21
-44.19892507127612
 72
     1
 10
-20.91954779139887
 20
-44.19892507127612
 11
-17.47327254756159
 21
-44.19892507127612
 72
     1
 10
-17.47327254756159
 20
-44.19892507127612
 11
-10.42483564567254
 21
-35.7989250712761
 97
        0
 75
     0
 76
     1
 98
        1
 10
0.0
 20
0.0
  0
HATCH
  5
DB
330
1F
100
AcDbEntity
  8
중심선
100
AcDbHatch
 10
0.0
 20
0.0
 30
0.0
210
0.0
220
0.0
230
1.0
  2
SOLID
 70
     1
 71
     0
 91
        1
 92
        0
 93
        6
 72
     3
 10
-5.624945214660309
 20
-39.99892507132738
 11
3.960054785062284
 21
1.540850780301639E-10
 40
0.3939339440162633
 50
17.09539180608434
 51
320.0019657685086
 73
     0
 72
     1
 10
-3.941945558959714
 20
-38.58681907591443
 11
-1.636643685258649
 21
-36.65249236586649
 72
     3
 10
-5.624945214713156
 20
-39.99892507127625
 11
6.600054785286829
 21
-1.249000902703301E-13
 40
0.6363583540795982
 50
39.99873849337387
 51
368.4976242363725
 73
     1
 72
     1
 10
0.8003872771874532
 20
-39.03892507120613
 11
-6.944877907877234
 21
-39.03892507120613
 72
     1
 10
-6.944877907877234
 20
-39.03892507120613
 11
-6.944902952323168
 21
-40.95892507120602
 72
     1
 10
-6.944902952323168
 20
-40.95892507120602
 11
-2.50352318285113
 21
-40.95892507120599
 97
        0
 75
     0
 76
     1
 98
        1
 10
0.0
 20
0.0
  0
LINE
  5
12D
330
1F
100
AcDbEntity
  8
참조1
100
AcDbLine
 10
83.30561285443832
 20
7.441074928723896
 30
0.0
 11
83.30561285443832
 21
-7.438925071276109
 31
0.0
  0
LINE
  5
12E
330
1F
100
AcDbEntity
  8
참조1
100
AcDbLine
 10
96.00561285443833
 20
5.441074928723896
 30
0.0
 11
83.30561285443832
 21
5.441074928723896
 31
0.0
  0
SOLID
  5
12F
330
1F
100
AcDbEntity
  8
참조1
100
AcDbTrace
 10
83.30561285443832
 20
5.441074928723896
 30
0.0
 11
89.65561285443832
 21
4.425074928723896
 31
0.0
 12
89.65561285443832
 22
6.457074928723896
 32
0.0
 13
89.65561285443832
 23
6.457074928723896
 33
0.0
  0
LINE
  5
130
330
1F
100
AcDbEntity
  8
참조1
100
AcDbLine
 10
96.00561285443833
 20
-5.438925071276109
 30
0.0
 11
83.30561285443832
 21
-5.438925071276109
 31
0.0
  0
SOLID
  5
131
330
1F
100
AcDbEntity
  8
참조1
100
AcDbTrace
 10
83.30561285443832
 20
-5.438925071276109
 30
0.0
 11
89.65561285443832
 21
-6.454925071276109
 31
0.0
 12
89.65561285443832
 22
-4.422925071276109
 32
0.0
 13
89.65561285443832
 23
-4.422925071276109
 33
0.0
  0
MTEXT
  5
132
330
1F
100
AcDbEntity
  8
참조1
100
AcDbMText
 10
92.7031029469086
 20
10.98929157337383
 30
0.0
 40
3.5
 41
0.0
 71
     1
 72
     1
  1
A
  7
SLDTEXTSTYLE0
 73
     1
 44
1.0
  0
MTEXT
  5
133
330
1F
100
AcDbEntity
  8
참조1
100
AcDbMText
 10
92.7031029469086
 20
0.1092915733738251
 30
0.0
 40
3.5
 41
0.0
 71
     1
 72
     1
  1
A
  7
SLDTEXTSTYLE0
 73
     1
 44
1.0
  0
LINE
  5
214
330
1F
100
AcDbEntity
  8
외형선
  6
Continuous
370
    15
100
AcDbLine
 10
2.0
 20
3.175000000000001
 30
0.0
 11
-47.20268467149222
 21
3.175000000000001
 31
0.0
  0
LINE
  5
215
330
1F
100
AcDbEntity
  8
외형선
  6
Continuous
370
    15
100
AcDbLine
 10
-47.20268467149222
 20
-3.175000000000001
 30
0.0
 11
2.0
 21
-3.174999999999997
 31
0.0
  0
LINE
  5
216
330
1F
100
AcDbEntity
  8
외형선
  6
Continuous
370
    15
100
AcDbLine
 10
2.0
 20
-3.175000000000001
 30
0.0
 11
4.962315328507771
 21
-2.381250000000001
 31
0.0
  0
LINE
  5
217
330
1F
100
AcDbEntity
  8
외형선
  6
Continuous
370
    15
100
AcDbLine
 10
4.962315328507771
 20
2.381249999999998
 30
0.0
 11
2.0
 21
3.175000000000001
 31
0.0
  0
LINE
  5
218
330
1F
100
AcDbEntity
  8
외형선
  6
Continuous
370
    15
100
AcDbLine
 10
-47.20268467149222
 20
3.174999999999986
 30
0.0
 11
-48.01268467149222
 21
2.364999999999998
 31
0.0
  0
LINE
  5
219
330
1F
100
AcDbEntity
  8
외형선
  6
Continuous
370
    15
100
AcDbLine
 10
-48.01268467149222
 20
-2.365000000000002
 30
0.0
 11
-47.20268467149222
 21
-3.175000000000001
 31
0.0
  0
LINE
  5
21A
330
1F
100
AcDbEntity
  8
외형선
  6
Continuous
370
    15
100
AcDbLine
 10
5.072212534662441
 20
2.381249999999998
 30
0.0
 11
4.962315328507771
 21
2.381249999999998
 31
0.0
  0
LINE
  5
21B
330
1F
100
AcDbEntity
  8
외형선
  6
Continuous
370
    15
100
AcDbLine
 10
4.962315328507771
 20
-2.381250000000001
 30
0.0
 11
5.072212534662441
 21
-2.381250000000001
 31
0.0
  0
LINE
  5
21C
330
1F
100
AcDbEntity
  8
외형선
  6
Continuous
370
    15
100
AcDbLine
 10
5.072173247475689
 20
-1.959168592400356
 30
0.0
 11
5.962315328507771
 21
-1.900256282497377
 31
0.0
  0
LINE
  5
21D
330
1F
100
AcDbEntity
  8
0
  6
Continuous
 62
     1
370
    15
100
AcDbLine
 10
9.318906966572342
 20
0.6101377465972533
 30
0.0
 11
8.656762608890034
 21
0.9405893431646035
 31
0.0
  0
SPLINE
  5
21E
330
1F
100
AcDbEntity
  8
0
  6
Continuous
 62
     1
370
    15
100
AcDbSpline
210
0.0
220
0.0
230
1.0
 70
     8
 71
     3
 72
    15
 73
    11
 74
     0
 42
0.000000001
 43
0.00000001
 40
0.0
 40
0.0
 40
0.0
 40
0.0
 40
0.2378979690788968
 40
0.4444580599971517
 40
0.6053214358667159
 40
0.6840377682283301
 40
0.7203408336869602
 40
0.7825495239678665
 40
0.9081300629354329
 40
1.0
 40
1.0
 40
1.0
 40
1.0
 10
8.530254832476999
 20
1.892229357246357
 30
0.0
 10
8.379688443306122
 20
1.884609407484412
 30
0.0
 10
8.098389508763887
 20
1.870373270448098
 30
0.0
 10
7.691126747045445
 20
1.861575703092399
 30
0.0
 10
7.391665627966233
 20
1.859321006961338
 30
0.0
 10
7.207175801640005
 20
1.859721187626377
 30
0.0
 10
7.092745344598171
 20
1.860685633334391
 30
0.0
 10
6.945821784078703
 20
1.862520479697046
 30
0.0
 10
6.762602606992999
 20
1.865851758992505
 30
0.0
 10
6.619723013511333
 20
1.870927779758674
 30
0.0
 10
6.559358283571498
 20
1.873072331092089
 30
0.0
  0
SPLINE
  5
21F
330
1F
100
AcDbEntity
  8
0
  6
Continuous
 62
     1
370
    15
100
AcDbSpline
210
0.0
220
0.0
230
1.0
 70
     8
 71
     3
 72
    25
 73
    21
 74
     0
 42
0.000000001
 43
0.00000001
 40
0.0
 40
0.0
 40
0.0
 40
0.0
 40
0.075333960278258
 40
0.1288016169983354
 40
0.1639941789318501
 40
0.2054494921089795
 40
0.257553103109625
 40
0.3078147479569232
 40
0.3714875841572763
 40
0.4254880547986973
 40
0.4792866327289253
 40
0.552259459765721
 40
0.636045354412438
 40
0.7103638832059654
 40
0.7403208965548439
 40
0.7679960492192287
 40
0.7959976957059972
 40
0.8423944703112837
 40
0.9103756214771038
 40
1.0
 40
1.0
 40
1.0
 40
1.0
 10
14.60172044282939
 20
1.62866241708938
 30
0.0
 10
14.49769831698688
 20
1.62022379239685
 30
0.0
 10
14.31984734562377
 20
1.605795923456668
 30
0.0
 10
14.09344341149534
 20
1.592121147458663
 30
0.0
 10
13.91151755807192
 20
1.583065386419626
 30
0.0
 10
13.73225238127236
 20
1.575925137770433
 30
0.0
 10
13.5327571548595
 20
1.570337128829536
 30
0.0
 10
13.30268386541746
 20
1.56688420923988
 30
0.0
 10
13.07017717680307
 20
1.566802603725847
 30
0.0
 10
12.83251449081672
 20
1.57034231122325
 30
0.0
 10
12.58176001370566
 20
1.577514561764495
 30
0.0
 10
12.2900327714685
 20
1.590504564615699
 30
0.0
 10
11.96699754326733
 20
1.611361300385369
 30
0.0
 10
11.7054535040694
 20
1.633493651023365
 30
0.0
 10
11.52540474641921
 20
1.650878798706273
 30
0.0
 10
11.40812111456972
 20
1.662952469041606
 30
0.0
 10
11.26811460661051
 20
1.678235599896489
 30
0.0
 10
11.07079774348495
 20
1.701508968098757
 30
0.0
 10
10.78773830074755
 20
1.738458318468062
 30
0.0
 10
10.5681833514069
 20
1.771964356196207
 30
0.0
 10
10.44333065159907
 20
1.791017988477265
 30
0.0
  0
SPLINE
  5
220
330
1F
100
AcDbEntity
  8
0
  6
Continuous
 62
     1
370
    15
100
AcDbSpline
210
0.0
220
0.0
230
1.0
 70
     8
 71
     3
 72
    14
 73
    10
 74
     0
 42
0.000000001
 43
0.00000001
 40
0.0
 40
0.0
 40
0.0
 40
0.0
 40
0.2170192521050743
 40
0.353907446299416
 40
0.4835873304294898
 40
0.6487756015487123
 40
0.7897947165339172
 40
0.900861942926095
 40
1.0
 40
1.0
 40
1.0
 40
1.0
 10
10.44333065159907
 20
-1.791017988477268
 30
0.0
 10
10.5703518329567
 20
-1.771626014440091
 30
0.0
 10
10.77749355648655
 20
-1.740002257821125
 30
0.0
 10
11.06373503131965
 20
-1.70241557541361
 30
0.0
 10
11.32054893642459
 20
-1.671938352001192
 30
0.0
 10
11.5774635215904
 20
-1.645201326308115
 30
0.0
 10
11.82350141507453
 20
-1.623365640756525
 30
0.0
 10
12.03040486087542
 20
-1.607413943725774
 30
0.0
 10
12.15379022204274
 20
-1.599720841454037
 30
0.0
 10
12.21198183728563
 20
-1.596092582451622
 30
0.0
  0
SPLINE
  5
221
330
1F
100
AcDbEntity
  8
0
  6
Continuous
 62
     1
370
    15
100
AcDbSpline
210
0.0
220
0.0
230
1.0
 70
     8
 71
     3
 72
    11
 73
     7
 74
     0
 42
0.000000001
 43
0.00000001
 40
0.0
 40
0.0
 40
0.0
 40
0.0
 40
0.3300872662318685
 40
0.4948903503185271
 40
0.6575484489718234
 40
1.0
 40
1.0
 40
1.0
 40
1.0
 10
5.962315328507714
 20
-1.900256282497377
 30
0.0
 10
6.243744785709794
 20
-1.886293947925573
 30
0.0
 10
6.665683881557413
 20
-1.86536062103179
 30
0.0
 10
7.229103490287116
 20
-1.858721370605579
 30
0.0
 10
7.80137510291911
 20
-1.860858712453066
 30
0.0
 10
8.235755752421056
 20
-1.879554253717291
 30
0.0
 10
8.530254832476999
 20
-1.892229357246357
 30
0.0
  0
LINE
  5
222
330
1F
100
AcDbEntity
  8
외형선
  6
Continuous
370
    15
100
AcDbLine
 10
2.0
 20
3.175000000000001
 30
0.0
 11
2.0
 21
-3.174999999999997
 31
0.0
  0
LINE
  5
223
330
1F
100
AcDbEntity
  8
외형선
  6
Continuous
370
    15
100
AcDbLine
 10
-47.20268467149222
 20
3.174999999999986
 30
0.0
 11
-47.20268467149222
 21
-3.175000000000001
 31
0.0
  0
LINE
  5
224
330
1F
100
AcDbEntity
  8
외형선
  6
Continuous
370
    15
100
AcDbLine
 10
4.962315328507771
 20
2.381249999999998
 30
0.0
 11
4.962315328507771
 21
-2.381250000000001
 31
0.0
  0
LINE
  5
225
330
1F
100
AcDbEntity
  8
외형선
  6
Continuous
370
    15
100
AcDbLine
 10
-48.01268467149222
 20
2.364999999999998
 30
0.0
 11
-48.01268467149222
 21
-2.365000000000002
 31
0.0
  0
SPLINE
  5
226
330
1F
100
AcDbEntity
  8
외형선
  6
Continuous
370
    15
100
AcDbSpline
210
0.0
220
0.0
230
1.0
 70
     8
 71
     3
 72
     8
 73
     4
 74
     0
 42
0.000000001
 43
0.00000001
 40
0.0
 40
0.0
 40
0.0
 40
0.0
 40
1.0
 40
1.0
 40
1.0
 40
1.0
 10
5.962315328507771
 20
2.076908690805404
 30
0.0
 10
5.667792368891753
 20
2.160386058300482
 30
0.0
 10
5.367613186996152
 20
2.228203479397241
 30
0.0
 10
5.072104985817361
 20
2.27797190027967
 30
0.0
  0
LINE
  5
227
330
1F
100
AcDbEntity
  8
외형선
  6
Continuous
370
    15
100
AcDbLine
 10
5.962315328507771
 20
2.076908690805404
 30
0.0
 11
5.962315328507771
 21
1.674428352756273
 31
0.0
  0
SPLINE
  5
228
330
1F
100
AcDbEntity
  8
외형선
  6
Continuous
370
    15
100
AcDbSpline
210
0.0
220
0.0
230
1.0
 70
     8
 71
     3
 72
     8
 73
     4
 74
     0
 42
0.000000001
 43
0.00000001
 40
0.0
 40
0.0
 40
0.0
 40
0.0
 40
1.0
 40
1.0
 40
1.0
 40
1.0
 10
5.072212534662441
 20
1.997756151499175
 30
0.0
 10
5.367686016795261
 20
1.904793631790731
 30
0.0
 10
5.667828098913702
 20
1.795751736562586
 30
0.0
 10
5.962315328507771
 20
1.674428352756252
 30
0.0
  0
SPLINE
  5
229
330
1F
100
AcDbEntity
  8
외형선
  6
Continuous
370
    15
100
AcDbSpline
210
0.0
220
0.0
230
1.0
 70
     8
 71
     3
 72
     8
 73
     4
 74
     0
 42
0.000000001
 43
0.00000001
 40
0.0
 40
0.0
 40
0.0
 40
0.0
 40
1.0
 40
1.0
 40
1.0
 40
1.0
 10
5.962315328507771
 20
-2.076908690805404
 30
0.0
 10
5.667792368891753
 20
-2.160386058300482
 30
0.0
 10
5.367613186996152
 20
-2.228203479397241
 30
0.0
 10
5.072104985817361
 20
-2.277971900279663
 30
0.0
  0
LINE
  5
22A
330
1F
100
AcDbEntity
  8
외형선
  6
Continuous
370
    15
100
AcDbLine
 10
5.072212534662441
 20
2.27800162747349
 30
0.0
 11
5.072212534662441
 21
2.381249999999998
 31
0.0
  0
LINE
  5
22B
330
1F
100
AcDbEntity
  8
외형선
  6
Continuous
370
    15
100
AcDbLine
 10
5.072212534662441
 20
-2.381250000000001
 30
0.0
 11
5.072212534662441
 21
1.998102628211157
 31
0.0
  0
SPLINE
  5
22C
330
1F
100
AcDbEntity
  8
외형선
  6
Continuous
370
    15
100
AcDbSpline
210
0.0
220
0.0
230
1.0
 70
    24
 71
     3
 72
    14
 73
    10
 74
     0
 42
0.000000001
 43
0.00000001
 40
0.0
 40
0.0
 40
0.0
 40
0.0
 40
0.25
 40
0.25
 40
0.5
 40
0.5
 40
0.75
 40
0.75
 40
1.0
 40
1.0
 40
1.0
 40
1.0
 10
5.962315328507771
 20
1.122391844582474
 30
0.0
 10
5.962315328507771
 20
0.9397736460990203
 30
0.0
 10
5.962315328507771
 20
0.7383496937525535
 30
0.0
 10
5.962315328507771
 20
0.3125706673265185
 30
0.0
 10
5.962315328507771
 20
0.088377990090887
 30
0.0
 10
5.962315328507771
 20
-0.3614185231946045
 30
0.0
 10
5.962315328507771
 20
-0.5867826888569994
 30
0.0
 10
5.962315328507771
 20
-1.017025464704506
 30
0.0
 10
5.962315328507771
 20
-1.221735408468756
 30
0.0
 10
5.962315328507771
 20
-1.408410335773326
 30
0.0
  0
SPLINE
  5
22D
330
1F
100
AcDbEntity
  8
외형선
  6
Continuous
370
    15
100
AcDbSpline
210
0.0
220
0.0
230
1.0
 70
     8
 71
     3
 72
     8
 73
     4
 74
     0
 42
0.000000001
 43
0.00000001
 40
0.0
 40
0.0
 40
0.0
 40
0.0
 40
1.0
 40
1.0
 40
1.0
 40
1.0
 10
5.962315328507771
 20
-1.408410335773326
 30
0.0
 10
5.66781504688754
 20
-1.316489590096584
 30
0.0
 10
5.367659412395824
 20
-1.213014624363257
 30
0.0
 10
5.072173247475689
 20
-1.101513073035704
 30
0.0
  0
SPLINE
  5
22E
330
1F
100
AcDbEntity
  8
외형선
  6
Continuous
370
    15
100
AcDbSpline
210
0.0
220
0.0
230
1.0
 70
     8
 71
     3
 72
     8
 73
     4
 74
     0
 42
0.000000001
 43
0.00000001
 40
0.0
 40
0.0
 40
0.0
 40
0.0
 40
1.0
 40
1.0
 40
1.0
 40
1.0
 10
5.962315328507771
 20
1.122391844582474
 30
0.0
 10
5.667819486928465
 20
1.210701420305433
 30
0.0
 10
5.3676684626883
 20
1.290822083810333
 30
0.0
 10
5.072186612192752
 20
1.359965872415749
 30
0.0
  0
SPLINE
  5
22F
330
1F
100
AcDbEntity
  8
외형선
  6
Continuous
370
    15
100
AcDbSpline
210
0.0
220
0.0
230
1.0
 70
    24
 71
     3
 72
    10
 73
     6
 74
     0
 42
0.000000001
 43
0.00000001
 40
0.0
 40
0.0
 40
0.0
 40
0.0
 40
0.5
 40
0.5
 40
1.0
 40
1.0
 40
1.0
 40
1.0
 10
5.962315328507771
 20
1.674428352756244
 30
0.0
 10
5.962315328507771
 20
1.616687076023588
 30
0.0
 10
5.962315328507771
 20
1.535648950469231
 30
0.0
 10
5.962315328507771
 20
1.343770143202391
 30
0.0
 10
5.962315328507771
 20
1.233557972591079
 30
0.0
 10
5.962315328507771
 20
1.122391844582474
 30
0.0
  0
SPLINE
  5
230
330
1F
100
AcDbEntity
  8
외형선
  6
Continuous
370
    15
100
AcDbSpline
210
0.0
220
0.0
230
1.0
 70
    24
 71
     3
 72
    12
 73
     8
 74
     0
 42
0.000000001
 43
0.00000001
 40
0.0
 40
0.0
 40
0.0
 40
0.0
 40
0.1800022080526429
 40
0.3623743033082342
 40
0.6259085562795081
 40
0.8970853204400276
 40
1.0
 40
1.0
 40
1.0
 40
1.0
 10
5.962315328507771
 20
-1.408410335773329
 30
0.0
 10
5.962315328507771
 20
-1.463545293396987
 30
0.0
 10
5.962315328507771
 20
-1.574541108798094
 30
0.0
 10
5.962315328507771
 20
-1.724055722677097
 30
0.0
 10
5.962315328507771
 20
-1.843217298827671
 30
0.0
 10
5.962315328507771
 20
-1.902691881017301
 30
0.0
 10
5.962315328507771
 20
-1.895154698799953
 30
0.0
 10
5.962315328507771
 20
-1.893081177189917
 30
0.0
  0
SPLINE
  5
231
330
1F
100
AcDbEntity
  8
외형선
  6
Continuous
370
    15
100
AcDbSpline
210
0.0
220
0.0
230
1.0
 70
    24
 71
     3
 72
    10
 73
     6
 74
     0
 42
0.000000001
 43
0.00000001
 40
0.0
 40
0.0
 40
0.0
 40
0.0
 40
0.0036591190731043
 40
0.7506523228040666
 40
0.9999999999999999
 40
0.9999999999999999
 40
0.9999999999999999
 40
0.9999999999999999
 10
5.962315328507771
 20
-1.93610375175761
 30
0.0
 10
5.962315328507771
 20
-1.936291275585742
 30
0.0
 10
5.962315328507771
 20
-1.97476097125708
 30
0.0
 10
5.962315328507771
 20
-2.021012139548869
 30
0.0
 10
5.962315328507771
 20
-2.065719958967996
 30
0.0
 10
5.962315328507771
 20
-2.076908690794681
 30
0.0
  0
SPLINE
  5
233
330
1F
100
AcDbEntity
  8
0
  6
Continuous
 62
     1
370
    15
100
AcDbSpline
210
0.0
220
0.0
230
1.0
 70
     8
 71
     3
 72
     8
 73
     4
 74
     0
 42
0.000000001
 43
0.00000001
 40
0.0
 40
0.0
 40
0.0
 40
0.0
 40
0.0007980876565349
 40
0.0007980876565349
 40
0.0007980876565349
 40
0.0007980876565349
 10
15.23331532850773
 20
-2.20898432726678
 30
0.0
 10
15.23084864094804
 20
-2.208452567365388
 30
0.0
 10
15.22838168333951
 20
-2.20791959740987
 30
0.0
 10
15.22591446166885
 20
-2.20738541887507
 30
0.0
  0
SPLINE
  5
234
330
1F
100
AcDbEntity
  8
0
  6
Continuous
 62
     1
370
    15
100
AcDbSpline
210
0.0
220
0.0
230
1.0
 70
     8
 71
     3
 72
    11
 73
     7
 74
     0
 42
0.000000001
 43
0.00000001
 40
0.0
 40
0.0
 40
0.0
 40
0.0
 40
0.1609152304279814
 40
0.5231365291244199
 40
0.7613775776445622
 40
1.0
 40
1.0
 40
1.0
 40
1.0
 10
9.556949476564796
 20
-0.2179581098808114
 30
0.0
 10
9.364102886893477
 20
-0.141410578320027
 30
0.0
 10
8.737157287612206
 20
0.1074459771921106
 30
0.0
 10
7.824418056221361
 20
0.4773718580466735
 30
0.0
 10
6.8195503098367
 20
0.8521919355162382
 30
0.0
 10
6.24821263229498
 20
1.032277200210601
 30
0.0
 10
5.962315328507771
 20
1.122391844582474
 30
0.0
  0
SPLINE
  5
235
330
1F
100
AcDbEntity
  8
외형선
  6
Continuous
370
    15
100
AcDbSpline
210
0.0
220
0.0
230
1.0
 70
    24
 71
     3
 72
    10
 73
     6
 74
     0
 42
0.000000001
 43
0.00000001
 40
0.0
 40
0.0
 40
0.0
 40
0.0
 40
0.5
 40
0.5
 40
1.0
 40
1.0
 40
1.0
 40
1.0
 10
5.962315328507771
 20
1.674428352756244
 30
0.0
 10
5.962315328507771
 20
1.616687076023588
 30
0.0
 10
5.962315328507771
 20
1.535648950469231
 30
0.0
 10
5.962315328507771
 20
1.343770143202391
 30
0.0
 10
5.962315328507771
 20
1.233557972591079
 30
0.0
 10
5.962315328507771
 20
1.122391844582474
 30
0.0
  0
SPLINE
  5
236
330
1F
100
AcDbEntity
  8
0
  6
Continuous
 62
     1
370
    15
100
AcDbSpline
210
0.0
220
0.0
230
1.0
 70
     8
 71
     3
 72
     8
 73
     4
 74
     0
 42
0.000000001
 43
0.00000001
 40
0.0
 40
0.0
 40
0.0
 40
0.0
 40
1.0
 40
1.0
 40
1.0
 40
1.0
 10
14.01324664702321
 20
0.6667656290396451
 30
0.0
 10
13.90672023184203
 20
0.7929948216216118
 30
0.0
 10
13.81429170132935
 20
0.9136234360926352
 30
0.0
 10
13.74131708917653
 20
1.025850592335402
 30
0.0
  0
LINE
  5
237
330
1F
100
AcDbEntity
  8
0
  6
Continuous
 62
     1
370
    15
100
AcDbLine
 10
13.74131708917653
 20
1.025850592335395
 30
0.0
 11
15.48731532850775
 21
0.0
 31
0.0
  0
LINE
  5
238
330
1F
100
AcDbEntity
  8
0
  6
Continuous
 62
     1
370
    15
100
AcDbLine
 10
15.48731532850775
 20
0.0
 30
0.0
 11
15.48731532850775
 21
-0.6363722652330921
 31
0.0
  0
SPLINE
  5
239
330
1F
100
AcDbEntity
  8
0
  6
Continuous
 62
     1
370
    15
100
AcDbSpline
210
0.0
220
0.0
230
1.0
 70
     8
 71
     3
 72
    10
 73
     6
 74
     0
 42
0.000000001
 43
0.00000001
 40
0.0
 40
0.0
 40
0.0
 40
0.0
 40
0.5
 40
0.5
 40
1.0
 40
1.0
 40
1.0
 40
1.0
 10
15.48731532850775
 20
-0.6363722652330921
 30
0.0
 10
15.23214040559313
 20
-0.4357598858607723
 30
0.0
 10
14.98123166978615
 20
-0.226917031129318
 30
0.0
 10
14.48815541534901
 20
0.2076325360986644
 30
0.0
 10
14.24369538424011
 20
0.435636419038552
 30
0.0
 10
14.01324664702321
 20
0.6667656290396451
 30
0.0
  0
SPLINE
  5
23A
330
1F
100
AcDbEntity
  8
0
  6
Continuous
 62
     1
370
    15
100
AcDbSpline
210
0.0
220
0.0
230
1.0
 70
     8
 71
     3
 72
    14
 73
    10
 74
     0
 42
0.000000001
 43
0.00000001
 40
0.0
 40
0.0
 40
0.0
 40
0.0
 40
0.2057483584590771
 40
0.3643107420634888
 40
0.5226672330467772
 40
0.6807271251498146
 40
0.8389156751675025
 40
0.9975252492440436
 40
1.0
 40
1.0
 40
1.0
 40
1.0
 10
14.01324664701599
 20
0.6667656290427644
 30
0.0
 10
13.63715583038652
 20
0.8247790167129239
 30
0.0
 10
12.97122621852628
 20
1.10456727334455
 30
0.0
 10
12.01577734830249
 20
1.430753960935164
 30
0.0
 10
11.14766625122763
 20
1.666209752103583
 30
0.0
 10
10.28053010661048
 20
1.830284668982877
 30
0.0
 10
9.412898848162229
 20
1.903730050113538
 30
0.0
 10
8.829055571121671
 20
1.921566936074477
 30
0.0
 10
8.534675775499466
 20
1.892042362835497
 30
0.0
 10
8.53015319626951
 20
1.891588774567246
 30
0.0
  0
LINE
  5
23C
330
1F
100
AcDbEntity
  8
0
  6
Continuous
 62
     1
370
    15
100
AcDbLine
 10
15.48583146398204
 20
1.666781123311452
 30
0.0
 11
14.59754387465398
 21
1.610583609375041
 31
0.0
  0
SPLINE
  5
23D
330
1F
100
AcDbEntity
  8
0
  6
Continuous
 62
     1
370
    15
100
AcDbSpline
210
0.0
220
0.0
230
1.0
 70
     8
 71
     3
 72
    10
 73
     6
 74
     0
 42
0.000000001
 43
0.00000001
 40
0.0008239545377392
 40
0.0008239545377392
 40
0.0008239545377392
 40
0.0008239545377392
 40
0.5
 40
0.5
 40
1.0
 40
1.0
 40
1.0
 40
1.0
 10
15.48585039901994
 20
1.666477179896638
 30
0.0
 10
15.19002147863296
 20
1.586120946727728
 30
0.0
 10
14.89638987676301
 20
1.494150626745721
 30
0.0
 10
14.31373495571287
 20
1.283138969693987
 30
0.0
 10
14.02455404687009
 20
1.164731763184975
 30
0.0
 10
13.74131708917511
 20
1.025850592336504
 30
0.0
  0
SPLINE
  5
23E
330
1F
100
AcDbEntity
  8
0
  6
Continuous
 62
     1
370
    15
100
AcDbSpline
210
0.0
220
0.0
230
1.0
 70
     8
 71
     3
 72
    13
 73
     9
 74
     0
 42
0.000000001
 43
0.00000001
 40
0.0
 40
0.0
 40
0.0
 40
0.0
 40
0.0368211666546259
 40
0.2302568292711075
 40
0.4242073273026215
 40
0.617733731458723
 40
0.8087179934475692
 40
1.0
 40
1.0
 40
1.0
 40
1.0
 10
10.44581880142522
 20
-1.78453745965831
 30
0.0
 10
10.39079910100224
 20
-1.795098515843179
 30
0.0
 10
10.04673988403965
 20
-1.861140836926904
 30
0.0
 10
9.41287410660189
 20
-1.905566795047207
 30
0.0
 10
8.544276954413505
 20
-1.908353570016821
 30
0.0
 10
7.67981081511229
 20
-1.819277096293177
 30
0.0
 10
6.819545961715846
 20
-1.657392525978324
 30
0.0
 10
6.248207210183239
 20
-1.491447483658479
 30
0.0
 10
5.962315328507771
 20
-1.408410335773329
 30
0.0
  0
SPLINE
  5
23F
330
1F
100
AcDbEntity
  8
외형선
  6
Continuous
370
    15
100
AcDbSpline
210
0.0
220
0.0
230
1.0
 70
    24
 71
     3
 72
    14
 73
    10
 74
     0
 42
0.000000001
 43
0.00000001
 40
0.0
 40
0.0
 40
0.0
 40
0.0
 40
0.25
 40
0.25
 40
0.5
 40
0.5
 40
0.75
 40
0.75
 40
1.0
 40
1.0
 40
1.0
 40
1.0
 10
5.962315328507771
 20
1.122391844582474
 30
0.0
 10
5.962315328507771
 20
0.9397736460990203
 30
0.0
 10
5.962315328507771
 20
0.7383496937525535
 30
0.0
 10
5.962315328507771
 20
0.3125706673265185
 30
0.0
 10
5.962315328507771
 20
0.088377990090887
 30
0.0
 10
5.962315328507771
 20
-0.3614185231946045
 30
0.0
 10
5.962315328507771
 20
-0.5867826888569994
 30
0.0
 10
5.962315328507771
 20
-1.017025464704506
 30
0.0
 10
5.962315328507771
 20
-1.221735408468756
 30
0.0
 10
5.962315328507771
 20
-1.408410335773326
 30
0.0
  0
LINE
  5
240
330
1F
100
AcDbEntity
  8
0
  6
Continuous
 62
     1
370
    15
100
AcDbLine
 10
15.48731532850775
 20
0.0
 30
0.0
 11
15.48731532850775
 21
1.619250000000001
 31
0.0
  0
SPLINE
  5
241
330
1F
100
AcDbEntity
  8
외형선
  6
Continuous
370
    15
100
AcDbSpline
210
0.0
220
0.0
230
1.0
 70
    24
 71
     3
 72
    12
 73
     8
 74
     0
 42
0.000000001
 43
0.00000001
 40
0.0
 40
0.0
 40
0.0
 40
0.0
 40
0.1798410536045303
 40
0.3620498726721232
 40
0.6253481856649061
 40
0.8962821675715746
 40
1.0
 40
1.0
 40
1.0
 40
1.0
 10
5.962315328507771
 20
-1.408410335773329
 30
0.0
 10
5.962315328507771
 20
-1.463545480461597
 30
0.0
 10
5.962315328507771
 20
-1.574541672454789
 30
0.0
 10
5.962315328507771
 20
-1.724053008311294
 30
0.0
 10
5.962315328507771
 20
-1.843232837890227
 30
0.0
 10
5.962315328507771
 20
-1.902731821728018
 30
0.0
 10
5.962315328507771
 20
-1.895153062811648
 30
0.0
 10
5.962315328507771
 20
-1.893054974887804
 30
0.0
  0
LINE
  5
242
330
1F
100
AcDbEntity
  8
0
  6
Continuous
 62
     1
370
    15
100
AcDbLine
 10
6.550684648213576
 20
-1.876033595841712
 30
0.0
 11
5.962315328504758
 21
-2.07690869080626
 31
0.0
  0
SPLINE
  5
243
330
1F
100
AcDbEntity
  8
외형선
  6
Continuous
370
    15
100
AcDbSpline
210
0.0
220
0.0
230
1.0
 70
    24
 71
     3
 72
    11
 73
     7
 74
     0
 42
0.000000001
 43
0.00000001
 40
0.0
 40
0.0
 40
0.0
 40
0.0
 40
0.0037236304689048
 40
0.376989929357117
 40
0.7506959746838556
 40
1.0
 40
1.0
 40
1.0
 40
1.0
 10
5.962315328507771
 20
-1.93610375175761
 30
0.0
 10
5.962315328507771
 20
-1.936291276827053
 30
0.0
 10
5.962315328507771
 20
-1.955276797348287
 30
0.0
 10
5.962315328507771
 20
-1.991187167316046
 30
0.0
 10
5.962315328507771
 20
-2.03791509899898
 30
0.0
 10
5.962315328507771
 20
-2.065764471709791
 30
0.0
 10
5.962315328507771
 20
-2.076908690794681
 30
0.0
  0
LINE
  5
244
330
1F
100
AcDbEntity
  8
중심선
 48
0.8
100
AcDbLine
 10
-51.01268467149224
 20
-0.0000000000000036
 30
0.0
 11
18.48731532850775
 21
0.0000000000000036
 31
0.0
  0
CIRCLE
  5
245
330
1F
100
AcDbEntity
  8
해칭선
100
AcDbCircle
 10
0.0
 20
0.0
 30
0.0
 40
3.000000000000001
  0
DIMENSION
  5
246
330
1F
100
AcDbEntity
  8
치수문자_일반주서
100
AcDbDimension
  2
*D13
 10
-60.70268467149222
 20
-3.175000000000062
 30
0.0
 11
-60.70268467149224
 21
-0.0000000000000142
 31
0.0
 70
   160
  1
%%c<>
 71
     2
 42
6.349999999999998
 52
-270.0
  3
SLDDIMSTYLE0
100
AcDbAlignedDimension
 13
-47.20268467149222
 23
3.174999999999986
 33
0.0
 14
-47.20268467149222
 24
-3.175000000000011
 34
0.0
 50
90.0000000000002
100
AcDbRotatedDimension
1001
ACAD
1000
DSTYLE
1002
{
1070
   171
1070
     6
1070
   273
1070
     7
1002
}
  0
DIMENSION
  5
247
330
1F
100
AcDbEntity
  8
치수문자_일반주서
100
AcDbDimension
  2
*D14
 10
25.97431591180725
 20
-2.381249999999955
 30
0.0
 11
25.97431591180714
 21
26.39045112069642
 31
0.0
 70
   160
  1
%%c<>
 71
     2
 42
4.762499999999992
 52
-270.0
  3
SLDDIMSTYLE0
100
AcDbAlignedDimension
 13
15.48731532850775
 23
2.381249999999998
 33
0.0
 14
15.48731532850775
 24
-2.381249999999994
 34
0.0
 50
90.0000000000002
100
AcDbRotatedDimension
1001
ACAD
1000
DSTYLE
1002
{
1070
   171
1070
     6
1070
   273
1070
     7
1002
}
  0
DIMENSION
  5
248
330
1F
100
AcDbEntity
  8
치수문자_일반주서
100
AcDbDimension
  2
*D15
 10
5.962315328507771
 20
12.63960056034829
 30
0.0
 11
-12.67293467149223
 21
12.63960056034829
 31
0.0
 70
   160
  1
<>
 71
     2
 42
9.524999999999977
  3
SLDDIMSTYLE0
100
AcDbAlignedDimension
 13
15.48731532850775
 23
2.381249999999998
 33
0.0
 14
5.962315328507771
 24
2.076908690805404
 34
0.0
 50
0.0000000000000214
100
AcDbRotatedDimension
1001
ACAD
1000
DSTYLE
1002
{
1070
   171
1070
     6
1070
   273
1070
     7
1002
}
  0
DIMENSION
  5
249
330
1F
100
AcDbEntity
  8
치수문자_일반주서
100
AcDbDimension
  2
*D16
 10
-48.01268467149222
 20
24.63960056034826
 30
0.0
 11
-16.54842547390666
 21
24.63960056034826
 31
0.0
 70
   160
  1
<>
 71
     2
 42
63.49999999999997
  3
SLDDIMSTYLE0
100
AcDbAlignedDimension
 13
15.48731532850775
 23
2.381249999999998
 33
0.0
 14
-48.01268467149222
 24
2.364999999999998
 34
0.0
 50
0.0000000000000064
100
AcDbRotatedDimension
1001
ACAD
1000
DSTYLE
1002
{
1070
   171
1070
     6
1070
   273
1070
     7
1002
}
  0
INSERT
  5
24A
330
1F
100
AcDbEntity
  8
해칭선
100
AcDbBlockReference
  2
SW_DOWELSYMBOL_0
 10
0.0
 20
0.0
 30
0.0
  0
SPLINE
  5
24F
330
1F
100
AcDbEntity
  8
0
  6
Continuous
 62
     1
370
    15
100
AcDbSpline
210
0.0
220
0.0
230
1.0
 70
     8
 71
     3
 72
    30
 73
    26
 74
     0
 42
0.000000001
 43
0.00000001
 40
0.0
 40
0.0
 40
0.0
 40
0.0
 40
0.0625000000000001
 40
0.0625000000000001
 40
0.1250000000000001
 40
0.1250000000000001
 40
0.1875
 40
0.1875
 40
0.25
 40
0.25
 40
0.3125
 40
0.3125
 40
0.3750000000000001
 40
0.3750000000000001
 40
0.4375000000000001
 40
0.4375000000000001
 40
0.5000000000000002
 40
0.5000000000000002
 40
0.5625000000000003
 40
0.5625000000000003
 40
0.6250000000000004
 40
0.6250000000000004
 40
0.6875000000000004
 40
0.6875000000000004
 40
0.6982812320326617
 40
0.6982812320326617
 40
0.6982812320326617
 40
0.6982812320326617
 10
5.962315328507771
 20
1.674428352756244
 30
0.0
 10
6.15441893997064
 20
1.595285157935123
 30
0.0
 10
6.346372834782585
 20
1.510678129966259
 30
0.0
 10
6.734410259973941
 20
1.331455704995754
 30
0.0
 10
6.92898020175835
 20
1.237050525166282
 30
0.0
 10
7.313497173729246
 20
1.041511814813234
 30
0.0
 10
7.505156146235151
 20
0.9401125843961466
 30
0.0
 10
7.893113943057244
 20
0.7309728129113893
 30
0.0
 10
8.087739735219031
 20
0.623519509142092
 30
0.0
 10
8.472554310814928
 20
0.4060507416184365
 30
0.0
 10
8.663949963573884
 20
0.2958198474717477
 30
0.0
 10
9.0518156183565
 20
0.0731688476554133
 30
0.0
 10
9.246490934934457
 20
-0.038907517313195
 30
0.0
 10
9.631590937043143
 20
-0.2612553496004146
 30
0.0
 10
9.822754900693042
 20
-0.3716736390665787
 30
0.0
 10
10.21051590967971
 20
-0.5903723880911258
 30
0.0
 10
10.40523441931458
 20
-0.6982826798871358
 30
0.0
 10
10.79060764040034
 20
-0.9080674815335996
 30
0.0
 10
10.98157157029249
 20
-1.010021192220197
 30
0.0
 10
11.36921544098215
 20
-1.207617309014495
 30
0.0
 10
11.56397080760519
 20
-1.30289794263058
 30
0.0
 10
11.94960501098404
 20
-1.483655472539098
 30
0.0
 10
12.14040058381232
 20
-1.569160995786007
 30
0.0
 10
12.36758075863168
 20
-1.663548308959367
 30
0.0
 10
12.40103441906462
 20
-1.677276279207277
 30
0.0
 10
12.43450394352857
 20
-1.690840264041586
 30
0.0
  0
SPLINE
  5
296
330
1F
100
AcDbEntity
  8
0
  6
Continuous
 62
     1
370
    15
100
AcDbSpline
210
0.0
220
0.0
230
1.0
 70
     8
 71
     3
 72
    11
 73
     7
 74
     5
 42
0.000000001
 43
0.0000000001
 44
0.0
 40
0.0
 40
0.0
 40
0.0
 40
0.0
 40
0.7296399182735063
 40
1.401118521127316
 40
2.044686675514673
 40
2.648372557253108
 40
2.648372557253108
 40
2.648372557253108
 40
2.648372557253108
 10
12.21332151753404
 20
1.596699421853636
 30
0.0
 10
12.42833013664738
 20
1.711571066118385
 30
0.0
 10
12.84120853172551
 20
1.932157665481711
 30
0.0
 10
13.49360778947647
 20
2.137286586560563
 30
0.0
 10
14.11367894893577
 20
2.296261620209343
 30
0.0
 10
14.52582951941067
 20
2.353530956017933
 30
0.0
 10
14.72531532850775
 20
2.381250000000001
 30
0.0
 11
12.21332151753404
 21
1.596699421853636
 31
0.0
 11
12.86761576500859
 21
1.919613416687984
 31
0.0
 11
13.5039177436625
 21
2.134097229717383
 31
0.0
 11
14.12898485591958
 21
2.287299953309812
 31
0.0
 11
14.72531532850775
 21
2.381250000000001
 31
0.0
  0
ARC
  5
297
330
1F
100
AcDbEntity
  8
0
  6
Continuous
 62
     1
370
    15
100
AcDbCircle
 10
14.72531532850775
 20
1.619250000000001
 30
0.0
 40
0.7619999999999998
100
AcDbArc
 50
0.0
 51
90.0
  0
ARC
  5
298
102
{ACAD_REACTORS
102
}
330
1F
100
AcDbEntity
  8
0
  6
Continuous
 62
     1
370
    15
100
AcDbCircle
 10
14.72531532850775
 20
-1.619249999999994
 30
0.0
 40
0.7619999999999998
100
AcDbArc
 50
270.0
 51
0.0
  0
SPLINE
  5
299
330
1F
100
AcDbEntity
  8
0
  6
Continuous
 62
     1
370
    15
100
AcDbSpline
210
0.0
220
0.0
230
1.0
 70
    24
 71
     3
 72
    10
 73
     6
 74
     0
 42
0.000000001
 43
0.00000001
 40
0.2647830261401121
 40
0.2647830261401121
 40
0.2647830261401121
 40
0.2647830261401121
 40
0.5
 40
0.5
 40
1.0
 40
1.0
 40
1.0
 40
1.0
 10
15.48731532850772
 20
-1.619249999999994
 30
0.0
 10
15.48731532850772
 20
-1.533694242854626
 30
0.0
 10
15.48731532850775
 20
-1.440722373403847
 30
0.0
 10
15.48731532850775
 20
-1.129671093977556
 30
0.0
 10
15.48731532850775
 20
-0.8889383487659295
 30
0.0
 10
15.48731532850775
 20
-0.6363722652331667
 30
0.0
  0
SPLINE
  5
29A
330
1F
100
AcDbEntity
  8
0
  6
Continuous
 62
     1
370
    15
100
AcDbSpline
210
0.0
220
0.0
230
1.0
 70
     8
 71
     3
 72
    15
 73
    11
 74
     0
 42
0.000000001
 43
0.00000001
 40
0.0068331585958594
 40
0.0068331585958594
 40
0.0068331585958594
 40
0.0068331585958594
 40
0.1401128798870411
 40
0.2798929544452186
 40
0.4197104228801603
 40
0.5599062827997994
 40
0.6999226609213123
 40
0.8396803860056421
 40
0.9795502522073026
 40
1.0
 40
1.0
 40
1.0
 40
1.0
 10
15.44493385706019
 20
-1.86983566073128
 30
0.0
 10
15.16938591804671
 20
-1.811917170540337
 30
0.0
 10
14.6048579570276
 20
-1.691782904793033
 30
0.0
 10
13.75171470037583
 20
-1.416603207998861
 30
0.0
 10
12.88426224680865
 20
-1.080084093715865
 30
0.0
 10
12.01572178141845
 20
-0.6954052511550728
 30
0.0
 10
11.14763268049575
 20
-0.2791640500952752
 30
0.0
 10
10.28049438215982
 20
0.1467469287597041
 30
0.0
 10
9.660421412384096
 20
0.4546656663740691
 30
0.0
 10
9.328947843090987
 20
0.604056582213623
 30
0.0
 10
9.28666636097472
 20
0.6231123076817937
 30
0.0
  0
SPLINE
  5
29B
330
1F
100
AcDbEntity
  8
0
  6
Continuous
 62
     1
370
    15
100
AcDbSpline
210
0.0
220
0.0
230
1.0
 70
     8
 71
     3
 72
    38
 73
    34
 74
     0
 42
0.000000001
 43
0.00000001
 40
0.0021730121082966
 40
0.0021730121082966
 40
0.0021730121082966
 40
0.0021730121082966
 40
0.0625
 40
0.0625
 40
0.125
 40
0.125
 40
0.1874999999999999
 40
0.1874999999999999
 40
0.2499999999999999
 40
0.2499999999999999
 40
0.3125
 40
0.3125
 40
0.375
 40
0.375
 40
0.4375000000000001
 40
0.4375000000000001
 40
0.5000000000000001
 40
0.5000000000000001
 40
0.5625000000000001
 40
0.5625000000000001
 40
0.6250000000000001
 40
0.6250000000000001
 40
0.6875000000000001
 40
0.6875000000000001
 40
0.75
 40
0.75
 40
0.8125
 40
0.8125
 40
0.875
 40
0.875
 40
0.9375
 40
0.9375
 40
1.0
 40
1.0
 40
1.0
 40
1.0
 10
15.21316074704254
 20
-2.204613859163349
 30
0.0
 10
15.0265974459204
 20
-2.163921170387304
 30
0.0
 10
14.83858428625825
 20
-2.116337465549453
 30
0.0
 10
14.45809808168644
 20
-2.00672271909934
 30
0.0
 10
14.26754412441676
 20
-1.944476389497623
 30
0.0
 10
13.88142477668077
 20
-1.807113407880813
 30
0.0
 10
13.68661471967545
 20
-1.732026643975011
 30
0.0
 10
13.29924255136712
 20
-1.571221356844013
 30
0.0
 10
13.10858364094207
 20
-1.485819494893722
 30
0.0
 10
12.72270071982024
 20
-1.305173288018747
 30
0.0
 10
12.52791483629738
 20
-1.209954071560908
 30
0.0
 10
12.14040058381084
 20
-1.012498888882483
 30
0.0
 10
11.94960501098257
 20
-0.9106273209034335
 30
0.0
 10
11.56397080760357
 20
-0.7008819145937615
 30
0.0
 10
11.3692154409805
 20
-0.5929989360876711
 30
0.0
 10
10.98157157029073
 20
-0.3743738625400965
 30
0.0
 10
10.79060764039855
 20
-0.2640110866882495
 30
0.0
 10
10.40523441931268
 20
-0.0416271021120629
 30
0.0
 10
10.21051590967772
 20
0.0704583902931937
 30
0.0
 10
9.822754900690995
 20
0.2931089774180933
 30
0.0
 10
9.631590937041096
 20
0.4033149338206243
 30
0.0
 10
9.246490934932297
 20
0.6208927472653656
 30
0.0
 10
9.051815618354226
 20
0.7283909150732057
 30
0.0
 10
8.663949963571554
 20
0.9376034295471598
 30
0.0
 10
8.47255431081254
 20
1.03901080333732
 30
0.0
 10
8.08773973521653
 20
1.234722720309783
 30
0.0
 10
7.893113943054686
 20
1.329204810115954
 30
0.0
 10
7.505156146232537
 20
1.508566934200154
 30
0.0
 10
7.313497173726603
 20
1.593216009314837
 30
0.0
 10
6.928980201755564
 20
1.751725653904707
 30
0.0
 10
6.734410259971128
 20
1.825785239105748
 30
0.0
 10
6.346372834779686
 20
1.9612241099111
 30
0.0
 10
6.154418939967712
 20
2.022460291292305
 30
0.0
 10
5.962315328504758
 20
2.076908690806256
 30
0.0
  0
SPLINE
  5
29C
330
1F
100
AcDbEntity
  8
0
  6
Continuous
 62
     1
370
    15
100
AcDbSpline
210
0.0
220
0.0
230
1.0
 70
     8
 71
     3
 72
    10
 73
     6
 74
     4
 42
0.000000001
 43
0.0000000001
 44
0.0
 40
0.0
 40
0.0
 40
0.0
 40
0.0
 40
1.535440727626335
 40
2.41636381705894
 40
2.642131240373717
 40
2.642131240373717
 40
2.642131240373717
 40
2.642131240373717
 10
12.21198183728563
 20
-1.596092582451622
 30
0.0
 10
12.68334496554826
 20
-1.797262752025074
 30
0.0
 10
13.42514162844537
 20
-2.113849586073934
 30
0.0
 10
14.28446938902215
 20
-2.326755641997988
 30
0.0
 10
14.65061979843301
 20
-2.372016649769318
 30
0.0
 10
14.72531532850775
 20
-2.381249999999994
 30
0.0
 11
12.21198183728563
 21
-1.596092582451622
 31
0.0
 11
13.64387875860726
 21
-2.150393434663979
 31
0.0
 11
14.50148717824786
 21
-2.351722240494244
 31
0.0
 11
14.72531532850775
 21
-2.381249999999994
 31
0.0
  0
DIMENSION
  5
29E
102
{ACAD_REACTORS
102
}
102
{ACAD_XDICTIONARY
360
29F
102
}
330
1F
100
AcDbEntity
  8
치수문자_일반주서
100
AcDbDimension
  2
*D18
 10
14.72531532850775
 20
-1.619249999999994
 30
0.0
 11
25.96813133457679
 21
-20.04478990569008
 31
0.0
 70
   164
  1
<>
 71
     5
 42
0.7620000000000029
  3
SLDDIMSTYLE0
100
AcDbRadialDimension
 15
15.1222171131763
 25
-2.269721347045287
 35
0.0
 40
0.0
1001
ACAD
1000
DSTYLE
1002
{
1070
   171
1070
     3
1002
}
1001
ACAD_DSTYLE_DIMRADIAL_EXTENSION
1070
   387
1070
     1
1070
   388
1040
4.71238898038469
1070
   390
1040
0.0
  0
ENDSEC
  0
SECTION
  2
OBJECTS
  0
DICTIONARY
  5
C
330
0
100
AcDbDictionary
281
     1
  3
ACAD_GROUP
350
D
  3
ACAD_IMAGE_VARS
350
15E
  3
ACAD_LAYOUT
350
1A
  3
ACAD_MLINESTYLE
350
17
  3
ACAD_PLOTSETTINGS
350
19
  3
ACAD_PLOTSTYLENAME
350
E
  3
ACAD_SCALELIST
350
47
  3
APPDATA
350
15C
  3
DWGPROPS
350
2AB
  0
DICTIONARY
  5
20F
330
2
100
AcDbDictionary
280
     1
281
     1
  3
ACAD_LAYERSTATES
360
210
  0
DICTIONARY
  5
29F
330
29E
100
AcDbDictionary
280
     1
281
     1
  0
DICTIONARY
  5
D
102
{ACAD_REACTORS
330
C
102
}
330
C
100
AcDbDictionary
281
     1
  0
RASTERVARIABLES
  5
15E
102
{ACAD_REACTORS
330
C
102
}
330
C
100
AcDbRasterVariables
 90
        0
 70
     1
 71
     1
 72
     1
  0
DICTIONARY
  5
1A
102
{ACAD_REACTORS
330
C
102
}
330
C
100
AcDbDictionary
281
     1
  3
Layout1
350
1E
  3
Layout2
350
26
  3
Model
350
22
  0
DICTIONARY
  5
17
102
{ACAD_REACTORS
330
C
102
}
330
C
100
AcDbDictionary
281
     1
  3
Standard
350
18
  0
DICTIONARY
  5
19
102
{ACAD_REACTORS
330
C
102
}
330
C
100
AcDbDictionary
281
     1
  0
ACDBDICTIONARYWDFLT
  5
E
102
{ACAD_REACTORS
330
C
102
}
330
C
100
AcDbDictionary
281
     1
  3
Normal
350
F
100
AcDbDictionaryWithDefault
340
F
  0
DICTIONARY
  5
47
102
{ACAD_REACTORS
330
C
102
}
330
C
100
AcDbDictionary
281
     1
  3
A0
350
48
  3
A1
350
49
  3
A2
350
4A
  3
A3
350
4B
  3
A4
350
4C
  3
A5
350
4D
  3
A6
350
4E
  3
A7
350
4F
  3
A8
350
50
  3
A9
350
51
  3
B0
350
52
  3
B1
350
53
  3
B2
350
54
  3
B3
350
55
  3
B4
350
56
  3
B5
350
57
  3
B6
350
58
  3
B7
350
59
  3
B8
350
5A
  3
B9
350
5B
  3
C0
350
5C
  3
C1
350
5D
  3
C2
350
5E
  3
C3
350
5F
  3
C4
350
60
  3
C5
350
61
  3
C6
350
62
  3
C7
350
63
  3
C8
350
64
  3
C9
350
65
  3
D0
350
66
  3
D1
350
67
  3
D2
350
68
  0
DICTIONARY
  5
15C
102
{ACAD_REACTORS
330
C
102
}
330
C
100
AcDbDictionary
281
     1
  0
XRECORD
  5
2AB
102
{ACAD_REACTORS
330
C
102
}
330
C
100
AcDbXrecord
280
     1
  1
DWGPROPS COOKIE
  2

  3

  4

  6

  7

  8
12017012
  9

300
=
301
=
302
=
303
=
304
=
305
=
306
=
307
=
308
=
309
=
 40
0.0
 41
2458288.27681706
 42
2458295.405057732
  1

 90
        0
  0
DICTIONARY
  5
210
102
{ACAD_REACTORS
330
20F
102
}
330
20F
100
AcDbDictionary
281
     1
  0
LAYOUT
  5
1E
102
{ACAD_REACTORS
330
1A
102
}
330
1A
100
AcDbPlotSettings
  1

  2
none_device
  4

  6

 40
0.0
 41
0.0
 42
0.0
 43
0.0
 44
0.0
 45
0.0
 46
0.0
 47
0.0
 48
0.0
 49
0.0
140
0.0
141
0.0
142
1.0
143
1.0
 70
   688
 72
     1
 73
     0
 74
     5
  7

 75
    16
147
1.0
148
0.0
149
0.0
100
AcDbLayout
  1
Layout1
 70
     1
 71
     1
 10
0.0
 20
0.0
 11
420.0
 21
297.0
 12
0.0
 22
0.0
 32
0.0
 14
1.000000000000000E+20
 24
1.000000000000000E+20
 34
1.000000000000000E+20
 15
-1.000000000000000E+20
 25
-1.000000000000000E+20
 35
-1.000000000000000E+20
146
0.0
 13
0.0
 23
0.0
 33
0.0
 16
1.0
 26
0.0
 36
0.0
 17
0.0
 27
1.0
 37
0.0
 76
     0
330
1B
  0
LAYOUT
  5
26
102
{ACAD_REACTORS
330
1A
102
}
330
1A
100
AcDbPlotSettings
  1

  2
none_device
  4

  6

 40
0.0
 41
0.0
 42
0.0
 43
0.0
 44
0.0
 45
0.0
 46
0.0
 47
0.0
 48
0.0
 49
0.0
140
0.0
141
0.0
142
1.0
143
1.0
 70
   688
 72
     1
 73
     0
 74
     5
  7

 75
    16
147
1.0
148
0.0
149
0.0
100
AcDbLayout
  1
Layout2
 70
     1
 71
     2
 10
0.0
 20
0.0
 11
0.0
 21
0.0
 12
0.0
 22
0.0
 32
0.0
 14
0.0
 24
0.0
 34
0.0
 15
0.0
 25
0.0
 35
0.0
146
0.0
 13
0.0
 23
0.0
 33
0.0
 16
1.0
 26
0.0
 36
0.0
 17
0.0
 27
1.0
 37
0.0
 76
     0
330
23
  0
LAYOUT
  5
22
102
{ACAD_REACTORS
330
1A
102
}
330
1A
100
AcDbPlotSettings
  1

  2
none_device
  4
ANSI_A_(11.00_x_8.50_Inches)
  6

 40
6.35
 41
19.05
 42
6.35000508
 43
19.05000254
 44
279.4
 45
215.9
 46
109.1963668894071
 47
101.8693429170878
 48
0.0
 49
0.0
140
0.0
141
0.0
142
0.0666203792388919
143
1.0
 70
  1696
 72
     0
 73
     0
 74
     0
  7

 75
     0
147
0.0235690232323232
148
0.0
149
0.0
100
AcDbLayout
  1
Model
 70
     1
 71
     0
 10
0.0
 20
0.0
 11
420.0
 21
297.0
 12
0.0
 22
0.0
 32
0.0
 14
1.000000000000000E+20
 24
1.000000000000000E+20
 34
1.000000000000000E+20
 15
-1.000000000000000E+20
 25
-1.000000000000000E+20
 35
-1.000000000000000E+20
146
0.0
 13
0.0
 23
0.0
 33
0.0
 16
1.0
 26
0.0
 36
0.0
 17
0.0
 27
1.0
 37
0.0
 76
     0
330
1F
331
29
  0
MLINESTYLE
  5
18
102
{ACAD_REACTORS
330
17
102
}
330
17
100
AcDbMlineStyle
  2
Standard
 70
     0
  3

 62
   256
 51
90.0
 52
90.0
 71
     2
 49
0.5
 62
   256
  6
BYLAYER
 49
-0.5
 62
   256
  6
BYLAYER
  0
ACDBPLACEHOLDER
  5
F
102
{ACAD_REACTORS
330
E
102
}
330
E
  0
SCALE
  5
48
102
{ACAD_REACTORS
330
47
102
}
330
47
100
AcDbScale
 70
     0
300
1:1
140
1.0
141
1.0
290
     1
  0
SCALE
  5
49
102
{ACAD_REACTORS
330
47
102
}
330
47
100
AcDbScale
 70
     0
300
1:2
140
1.0
141
2.0
290
     0
  0
SCALE
  5
4A
102
{ACAD_REACTORS
330
47
102
}
330
47
100
AcDbScale
 70
     0
300
1:4
140
1.0
141
4.0
290
     0
  0
SCALE
  5
4B
102
{ACAD_REACTORS
330
47
102
}
330
47
100
AcDbScale
 70
     0
300
1:5
140
1.0
141
5.0
290
     0
  0
SCALE
  5
4C
102
{ACAD_REACTORS
330
47
102
}
330
47
100
AcDbScale
 70
     0
300
1:8
140
1.0
141
8.0
290
     0
  0
SCALE
  5
4D
102
{ACAD_REACTORS
330
47
102
}
330
47
100
AcDbScale
 70
     0
300
1:10
140
1.0
141
10.0
290
     0
  0
SCALE
  5
4E
102
{ACAD_REACTORS
330
47
102
}
330
47
100
AcDbScale
 70
     0
300
1:16
140
1.0
141
16.0
290
     0
  0
SCALE
  5
4F
102
{ACAD_REACTORS
330
47
102
}
330
47
100
AcDbScale
 70
     0
300
1:20
140
1.0
141
20.0
290
     0
  0
SCALE
  5
50
102
{ACAD_REACTORS
330
47
102
}
330
47
100
AcDbScale
 70
     0
300
1:30
140
1.0
141
30.0
290
     0
  0
SCALE
  5
51
102
{ACAD_REACTORS
330
47
102
}
330
47
100
AcDbScale
 70
     0
300
1:40
140
1.0
141
40.0
290
     0
  0
SCALE
  5
52
102
{ACAD_REACTORS
330
47
102
}
330
47
100
AcDbScale
 70
     0
300
1:50
140
1.0
141
50.0
290
     0
  0
SCALE
  5
53
102
{ACAD_REACTORS
330
47
102
}
330
47
100
AcDbScale
 70
     0
300
1:100
140
1.0
141
100.0
290
     0
  0
SCALE
  5
54
102
{ACAD_REACTORS
330
47
102
}
330
47
100
AcDbScale
 70
     0
300
2:1
140
2.0
141
1.0
290
     0
  0
SCALE
  5
55
102
{ACAD_REACTORS
330
47
102
}
330
47
100
AcDbScale
 70
     0
300
4:1
140
4.0
141
1.0
290
     0
  0
SCALE
  5
56
102
{ACAD_REACTORS
330
47
102
}
330
47
100
AcDbScale
 70
     0
300
8:1
140
8.0
141
1.0
290
     0
  0
SCALE
  5
57
102
{ACAD_REACTORS
330
47
102
}
330
47
100
AcDbScale
 70
     0
300
10:1
140
10.0
141
1.0
290
     0
  0
SCALE
  5
58
102
{ACAD_REACTORS
330
47
102
}
330
47
100
AcDbScale
 70
     0
300
100:1
140
100.0
141
1.0
290
     0
  0
SCALE
  5
59
102
{ACAD_REACTORS
330
47
102
}
330
47
100
AcDbScale
 70
     0
300
1/128" = 1'-0"
140
0.0078125
141
12.0
290
     0
  0
SCALE
  5
5A
102
{ACAD_REACTORS
330
47
102
}
330
47
100
AcDbScale
 70
     0
300
1/64" = 1'-0"
140
0.015625
141
12.0
290
     0
  0
SCALE
  5
5B
102
{ACAD_REACTORS
330
47
102
}
330
47
100
AcDbScale
 70
     0
300
1/32" = 1'-0"
140
0.03125
141
12.0
290
     0
  0
SCALE
  5
5C
102
{ACAD_REACTORS
330
47
102
}
330
47
100
AcDbScale
 70
     0
300
1/16" = 1'-0"
140
0.0625
141
12.0
290
     0
  0
SCALE
  5
5D
102
{ACAD_REACTORS
330
47
102
}
330
47
100
AcDbScale
 70
     0
300
3/32" = 1'-0"
140
0.09375
141
12.0
290
     0
  0
SCALE
  5
5E
102
{ACAD_REACTORS
330
47
102
}
330
47
100
AcDbScale
 70
     0
300
1/8" = 1'-0"
140
0.125
141
12.0
290
     0
  0
SCALE
  5
5F
102
{ACAD_REACTORS
330
47
102
}
330
47
100
AcDbScale
 70
     0
300
3/16" = 1'-0"
140
0.1875
141
12.0
290
     0
  0
SCALE
  5
60
102
{ACAD_REACTORS
330
47
102
}
330
47
100
AcDbScale
 70
     0
300
1/4" = 1'-0"
140
0.25
141
12.0
290
     0
  0
SCALE
  5
61
102
{ACAD_REACTORS
330
47
102
}
330
47
100
AcDbScale
 70
     0
300
3/8" = 1'-0"
140
0.375
141
12.0
290
     0
  0
SCALE
  5
62
102
{ACAD_REACTORS
330
47
102
}
330
47
100
AcDbScale
 70
     0
300
1/2" = 1'-0"
140
0.5
141
12.0
290
     0
  0
SCALE
  5
63
102
{ACAD_REACTORS
330
47
102
}
330
47
100
AcDbScale
 70
     0
300
3/4" = 1'-0"
140
0.75
141
12.0
290
     0
  0
SCALE
  5
64
102
{ACAD_REACTORS
330
47
102
}
330
47
100
AcDbScale
 70
     0
300
1" = 1'-0"
140
1.0
141
12.0
290
     0
  0
SCALE
  5
65
102
{ACAD_REACTORS
330
47
102
}
330
47
100
AcDbScale
 70
     0
300
1-1/2" = 1'-0"
140
1.5
141
12.0
290
     0
  0
SCALE
  5
66
102
{ACAD_REACTORS
330
47
102
}
330
47
100
AcDbScale
 70
     0
300
3" = 1'-0"
140
3.0
141
12.0
290
     0
  0
SCALE
  5
67
102
{ACAD_REACTORS
330
47
102
}
330
47
100
AcDbScale
 70
     0
300
6" = 1'-0"
140
6.0
141
12.0
290
     0
  0
SCALE
  5
68
102
{ACAD_REACTORS
330
47
102
}
330
47
100
AcDbScale
 70
     0
300
1'-0" = 1'-0"
140
12.0
141
12.0
290
     0
  0
ENDSEC
  0
EOF
