  0
SECTION
  2
HEADER
  9
$ACADVER
  1
AC1015
  9
$ACADMAINTVER
 70
     6
  9
$DWGCODEPAGE
  3
ANSI_949
  9
$INSBASE
 10
0.0
 20
0.0
 30
0.0
  9
$EXTMIN
 10
1.000000000000000E+20
 20
1.000000000000000E+20
 30
1.000000000000000E+20
  9
$EXTMAX
 10
-1.000000000000000E+20
 20
-1.000000000000000E+20
 30
-1.000000000000000E+20
  9
$LIMMIN
 10
0.0
 20
0.0
  9
$LIMMAX
 10
420.0
 20
297.0
  9
$ORTHOMODE
 70
     1
  9
$REGENMODE
 70
     1
  9
$FILLMODE
 70
     1
  9
$QTEXTMODE
 70
     0
  9
$MIRRTEXT
 70
     1
  9
$LTSCALE
 40
1.0
  9
$ATTMODE
 70
     1
  9
$TEXTSIZE
 40
3.5
  9
$TRACEWID
 40
1.0
  9
$TEXTSTYLE
  7
Standard
  9
$CLAYER
  8
0
  9
$CELTYPE
  6
ByLayer
  9
$CECOLOR
 62
   256
  9
$CELTSCALE
 40
1.0
  9
$DISPSILH
 70
     0
  9
$DIMSCALE
 40
1.0
  9
$DIMASZ
 40
3.302
  9
$DIMEXO
 40
1.0
  9
$DIMDLI
 40
3.75
  9
$DIMRND
 40
0.0
  9
$DIMDLE
 40
0.0
  9
$DIMEXE
 40
1.0
  9
$DIMTP
 40
0.0
  9
$DIMTM
 40
0.0
  9
$DIMTXT
 40
3.5
  9
$DIMCEN
 40
2.5
  9
$DIMTSZ
 40
0.0
  9
$DIMTOL
 70
     0
  9
$DIMLIM
 70
     0
  9
$DIMTIH
 70
     1
  9
$DIMTOH
 70
     1
  9
$DIMSE1
 70
     0
  9
$DIMSE2
 70
     0
  9
$DIMTAD
 70
     1
  9
$DIMZIN
 70
     0
  9
$DIMBLK
  1

  9
$DIMASO
 70
     1
  9
$DIMSHO
 70
     1
  9
$DIMPOST
  1

  9
$DIMAPOST
  1

  9
$DIMALT
 70
     0
  9
$DIMALTD
 70
     3
  9
$DIMALTF
 40
0.0393700787401575
  9
$DIMLFAC
 40
1.0
  9
$DIMTOFL
 70
     1
  9
$DIMTVP
 40
0.0
  9
$DIMTIX
 70
     0
  9
$DIMSOXD
 70
     0
  9
$DIMSAH
 70
     0
  9
$DIMBLK1
  1

  9
$DIMBLK2
  1

  9
$DIMSTYLE
  2
ISO-25
  9
$DIMCLRD
 70
     0
  9
$DIMCLRE
 70
     0
  9
$DIMCLRT
 70
     0
  9
$DIMTFAC
 40
1.0
  9
$DIMGAP
 40
1.524
  9
$DIMJUST
 70
     0
  9
$DIMSD1
 70
     0
  9
$DIMSD2
 70
     0
  9
$DIMTOLJ
 70
     0
  9
$DIMTZIN
 70
     0
  9
$DIMALTZ
 70
     0
  9
$DIMALTTZ
 70
     0
  9
$DIMUPT
 70
     0
  9
$DIMDEC
 70
     2
  9
$DIMTDEC
 70
     2
  9
$DIMALTU
 70
     2
  9
$DIMALTTD
 70
     3
  9
$DIMTXSTY
  7
Standard
  9
$DIMAUNIT
 70
     0
  9
$DIMADEC
 70
     2
  9
$DIMALTRND
 40
0.0
  9
$DIMAZIN
 70
     0
  9
$DIMDSEP
 70
    44
  9
$DIMATFIT
 70
     3
  9
$DIMFRAC
 70
     0
  9
$DIMLDRBLK
  1

  9
$DIMLUNIT
 70
     2
  9
$DIMLWD
 70
    -2
  9
$DIMLWE
 70
    -2
  9
$DIMTMOVE
 70
     0
  9
$LUNITS
 70
     2
  9
$LUPREC
 70
     2
  9
$SKETCHINC
 40
1.0
  9
$FILLETRAD
 40
10.0
  9
$AUNITS
 70
     0
  9
$AUPREC
 70
     2
  9
$MENU
  1
.
  9
$ELEVATION
 40
0.0
  9
$PELEVATION
 40
0.0
  9
$THICKNESS
 40
0.0
  9
$LIMCHECK
 70
     0
  9
$CHAMFERA
 40
0.0
  9
$CHAMFERB
 40
0.0
  9
$CHAMFERC
 40
0.0
  9
$CHAMFERD
 40
0.0
  9
$SKPOLY
 70
     0
  9
$TDCREATE
 40
2458288.654464005
  9
$TDUCREATE
 40
2458288.279464005
  9
$TDUPDATE
 40
2458295.671031632
  9
$TDUUPDATE
 40
2458295.296031632
  9
$TDINDWG
 40
0.0003776042
  9
$TDUSRTIMER
 40
2458295.295654363
  9
$USRTIMER
 70
     1
  9
$ANGBASE
 50
0.0
  9
$ANGDIR
 70
     0
  9
$PDMODE
 70
     0
  9
$PDSIZE
 40
-1.0
  9
$PLINEWID
 40
0.0
  9
$SPLFRAME
 70
     0
  9
$SPLINETYPE
 70
     6
  9
$SPLINESEGS
 70
     8
  9
$HANDSEED
  5
379
  9
$SURFTAB1
 70
     6
  9
$SURFTAB2
 70
     6
  9
$SURFTYPE
 70
     6
  9
$SURFU
 70
     6
  9
$SURFV
 70
     6
  9
$UCSBASE
  2

  9
$UCSNAME
  2

  9
$UCSORG
 10
0.0
 20
0.0
 30
0.0
  9
$UCSXDIR
 10
1.0
 20
0.0
 30
0.0
  9
$UCSYDIR
 10
0.0
 20
1.0
 30
0.0
  9
$UCSORTHOREF
  2

  9
$UCSORTHOVIEW
 70
     0
  9
$UCSORGTOP
 10
0.0
 20
0.0
 30
0.0
  9
$UCSORGBOTTOM
 10
0.0
 20
0.0
 30
0.0
  9
$UCSORGLEFT
 10
0.0
 20
0.0
 30
0.0
  9
$UCSORGRIGHT
 10
0.0
 20
0.0
 30
0.0
  9
$UCSORGFRONT
 10
0.0
 20
0.0
 30
0.0
  9
$UCSORGBACK
 10
0.0
 20
0.0
 30
0.0
  9
$PUCSBASE
  2

  9
$PUCSNAME
  2

  9
$PUCSORG
 10
0.0
 20
0.0
 30
0.0
  9
$PUCSXDIR
 10
1.0
 20
0.0
 30
0.0
  9
$PUCSYDIR
 10
0.0
 20
1.0
 30
0.0
  9
$PUCSORTHOREF
  2

  9
$PUCSORTHOVIEW
 70
     0
  9
$PUCSORGTOP
 10
0.0
 20
0.0
 30
0.0
  9
$PUCSORGBOTTOM
 10
0.0
 20
0.0
 30
0.0
  9
$PUCSORGLEFT
 10
0.0
 20
0.0
 30
0.0
  9
$PUCSORGRIGHT
 10
0.0
 20
0.0
 30
0.0
  9
$PUCSORGFRONT
 10
0.0
 20
0.0
 30
0.0
  9
$PUCSORGBACK
 10
0.0
 20
0.0
 30
0.0
  9
$USERI1
 70
     0
  9
$USERI2
 70
     0
  9
$USERI3
 70
     0
  9
$USERI4
 70
     0
  9
$USERI5
 70
     0
  9
$USERR1
 40
0.0
  9
$USERR2
 40
0.0
  9
$USERR3
 40
0.0
  9
$USERR4
 40
0.0
  9
$USERR5
 40
0.0
  9
$WORLDVIEW
 70
     1
  9
$SHADEDGE
 70
     3
  9
$SHADEDIF
 70
    70
  9
$TILEMODE
 70
     1
  9
$MAXACTVP
 70
    64
  9
$PINSBASE
 10
0.0
 20
0.0
 30
0.0
  9
$PLIMCHECK
 70
     0
  9
$PEXTMIN
 10
1.000000000000000E+20
 20
1.000000000000000E+20
 30
1.000000000000000E+20
  9
$PEXTMAX
 10
-1.000000000000000E+20
 20
-1.000000000000000E+20
 30
-1.000000000000000E+20
  9
$PLIMMIN
 10
0.0
 20
0.0
  9
$PLIMMAX
 10
0.0
 20
0.0
  9
$UNITMODE
 70
     0
  9
$VISRETAIN
 70
     1
  9
$PLINEGEN
 70
     0
  9
$PSLTSCALE
 70
     1
  9
$TREEDEPTH
 70
  3020
  9
$CMLSTYLE
  2
Standard
  9
$CMLJUST
 70
     0
  9
$CMLSCALE
 40
20.0
  9
$PROXYGRAPHICS
 70
     1
  9
$MEASUREMENT
 70
     1
  9
$CELWEIGHT
370
    -1
  9
$ENDCAPS
280
     0
  9
$JOINSTYLE
280
     0
  9
$LWDISPLAY
290
     1
  9
$INSUNITS
 70
     4
  9
$HYPERLINKBASE
  1

  9
$STYLESHEET
  1

  9
$XEDIT
290
     1
  9
$CEPSNTYPE
380
     0
  9
$PSTYLEMODE
290
     1
  9
$FINGERPRINTGUID
  2
{2AE13E57-2462-40A2-B5B4-F221BDDFC723}
  9
$VERSIONGUID
  2
{FAEB1C32-E019-11D5-929B-00C0DF256EC4}
  9
$EXTNAMES
290
     1
  9
$PSVPSCALE
 40
0.0
  9
$OLESTARTUP
290
     0
  0
ENDSEC
  0
SECTION
  2
CLASSES
  0
CLASS
  1
ACDBDICTIONARYWDFLT
  2
AcDbDictionaryWithDefault
  3
ObjectDBX Classes
 90
        0
280
     0
281
     0
  0
CLASS
  1
VISUALSTYLE
  2
AcDbVisualStyle
  3
ObjectDBX Classes
 90
     4095
280
     0
281
     0
  0
CLASS
  1
MATERIAL
  2
AcDbMaterial
  3
ObjectDBX Classes
 90
     1153
280
     0
281
     0
  0
CLASS
  1
SCALE
  2
AcDbScale
  3
ObjectDBX Classes
 90
     1153
280
     0
281
     0
  0
CLASS
  1
SUN
  2
AcDbSun
  3
SCENEOE
 90
     1153
280
     0
281
     0
  0
CLASS
  1
ACDBPLACEHOLDER
  2
AcDbPlaceHolder
  3
ObjectDBX Classes
 90
        0
280
     0
281
     0
  0
CLASS
  1
LAYOUT
  2
AcDbLayout
  3
ObjectDBX Classes
 90
        0
280
     0
281
     0
  0
CLASS
  1
TABLESTYLE
  2
AcDbTableStyle
  3
ObjectDBX Classes
 90
     4095
280
     0
281
     0
  0
CLASS
  1
MLEADERSTYLE
  2
AcDbMLeaderStyle
  3
ACDB_MLEADERSTYLE_CLASS
 90
     4095
280
     0
281
     0
  0
CLASS
  1
RASTERVARIABLES
  2
AcDbRasterVariables
  3
ISM
 90
        0
280
     0
281
     0
  0
CLASS
  1
DIMASSOC
  2
AcDbDimAssoc
  3
"AcDbDimAssoc|Product Desc:     AcDim ARX App For Dimension|Company:          Autodesk, Inc.|WEB Address:      www.autodesk.com"
 90
        0
280
     0
281
     0
  0
ENDSEC
  0
SECTION
  2
TABLES
  0
TABLE
  2
VPORT
  5
8
330
0
100
AcDbSymbolTable
 70
     1
  0
VPORT
  5
29
330
8
100
AcDbSymbolTableRecord
100
AcDbViewportTableRecord
  2
*Active
 70
     0
 10
0.0
 20
0.0
 11
1.0
 21
1.0
 12
1.496721107218974
 22
8.21413905492836
 13
0.0
 23
0.0
 14
10.0
 24
10.0
 15
10.0
 25
10.0
 16
0.0
 26
0.0
 36
1.0
 17
0.0
 27
0.0
 37
0.0
 40
89.27137545850667
 41
1.859099804305284
 42
50.0
 43
0.0
 44
0.0
 50
0.0
 51
0.0
 71
    16
 72
  2000
 73
     1
 74
     3
 75
     0
 76
     0
 77
     0
 78
     0
281
     0
 65
     1
110
0.0
120
0.0
130
0.0
111
1.0
121
0.0
131
0.0
112
0.0
122
1.0
132
0.0
 79
     0
146
0.0
  0
ENDTAB
  0
TABLE
  2
LTYPE
  5
5
330
0
100
AcDbSymbolTable
 70
     6
  0
LTYPE
  5
14
330
5
100
AcDbSymbolTableRecord
100
AcDbLinetypeTableRecord
  2
ByBlock
 70
     0
  3

 72
    65
 73
     0
 40
0.0
  0
LTYPE
  5
15
330
5
100
AcDbSymbolTableRecord
100
AcDbLinetypeTableRecord
  2
ByLayer
 70
     0
  3

 72
    65
 73
     0
 40
0.0
  0
LTYPE
  5
16
330
5
100
AcDbSymbolTableRecord
100
AcDbLinetypeTableRecord
  2
Continuous
 70
     0
  3
Solid line
 72
    65
 73
     0
 40
0.0
  0
LTYPE
  5
6A
330
5
100
AcDbSymbolTableRecord
100
AcDbLinetypeTableRecord
  2
HIDDEN
 70
     0
  3
Hidden __ __ __ __ __ __ __ __ __ __ __ __ __ __
 72
    65
 73
     2
 40
1.905
 49
1.27
 74
     0
 49
-0.635
 74
     0
  0
LTYPE
  5
6B
330
5
100
AcDbSymbolTableRecord
100
AcDbLinetypeTableRecord
  2
PHANTOM
 70
     0
  3
Phantom ______  __  __  ______  __  __  ______
 72
    65
 73
     6
 40
12.7
 49
6.35
 74
     0
 49
-1.27
 74
     0
 49
1.27
 74
     0
 49
-1.27
 74
     0
 49
1.27
 74
     0
 49
-1.27
 74
     0
  0
LTYPE
  5
6C
330
5
100
AcDbSymbolTableRecord
100
AcDbLinetypeTableRecord
  2
CENTER
 70
     0
  3
Center ____ _ ____ _ ____ _ ____ _ ____ _ ____
 72
    65
 73
     4
 40
10.16
 49
6.35
 74
     0
 49
-1.27
 74
     0
 49
1.27
 74
     0
 49
-1.27
 74
     0
  0
LTYPE
  5
6D
330
5
100
AcDbSymbolTableRecord
100
AcDbLinetypeTableRecord
  2
CENTERX2
 70
     0
  3
Center (2x) ________  __  ________  __  _____
 72
    65
 73
     4
 40
20.32
 49
12.7
 74
     0
 49
-2.54
 74
     0
 49
2.54
 74
     0
 49
-2.54
 74
     0
  0
LTYPE
  5
6E
330
5
100
AcDbSymbolTableRecord
100
AcDbLinetypeTableRecord
  2
DOT2
 70
     0
  3
Dot (.5x) ........................................
 72
    65
 73
     2
 40
0.635
 49
0.0
 74
     0
 49
-0.635
 74
     0
  0
ENDTAB
  0
TABLE
  2
LAYER
  5
2
102
{ACAD_XDICTIONARY
360
21C
102
}
330
0
100
AcDbSymbolTable
 70
    18
  0
LAYER
  5
10
330
2
100
AcDbSymbolTableRecord
100
AcDbLayerTableRecord
  2
0
 70
     0
 62
     7
  6
Continuous
370
    -3
390
F
  0
LAYER
  5
6F
330
2
100
AcDbSymbolTableRecord
100
AcDbLayerTableRecord
  2
FORMAT
 70
     0
 62
     2
  6
Continuous
370
    -3
390
F
  0
LAYER
  5
70
330
2
100
AcDbSymbolTableRecord
100
AcDbLayerTableRecord
  2
외형선
 70
     0
 62
     4
  6
Continuous
370
    30
390
F
  0
LAYER
  5
71
330
2
100
AcDbSymbolTableRecord
100
AcDbLayerTableRecord
  2
숨은선
 70
     0
 62
     2
  6
HIDDEN
370
    15
390
F
  0
LAYER
  5
72
330
2
100
AcDbSymbolTableRecord
100
AcDbLayerTableRecord
  2
중심선
 70
     0
 62
     1
  6
CENTERX2
370
    -3
390
F
  0
LAYER
  5
73
330
2
100
AcDbSymbolTableRecord
100
AcDbLayerTableRecord
  2
파단선
 70
     0
 62
     4
  6
Continuous
370
    -3
390
F
  0
LAYER
  5
74
330
2
100
AcDbSymbolTableRecord
100
AcDbLayerTableRecord
  2
해칭선
 70
     0
 62
   100
  6
Continuous
370
    -3
390
F
  0
LAYER
  5
75
330
2
100
AcDbSymbolTableRecord
100
AcDbLayerTableRecord
  2
가는실선
 70
     0
 62
     4
  6
Continuous
370
    -3
390
F
  0
LAYER
  5
76
330
2
100
AcDbSymbolTableRecord
100
AcDbLayerTableRecord
  2
치수_보조선
 70
     0
 62
     4
  6
Continuous
370
    -3
390
F
  0
LAYER
  5
77
330
2
100
AcDbSymbolTableRecord
100
AcDbLayerTableRecord
  2
치수문자_일반주서
 70
     0
 62
     7
  6
Continuous
370
    15
390
F
  0
LAYER
  5
78
330
2
100
AcDbSymbolTableRecord
100
AcDbLayerTableRecord
  2
개별주서
 70
     0
 62
   100
  6
Continuous
370
    30
390
F
  0
LAYER
  5
79
330
2
100
AcDbSymbolTableRecord
100
AcDbLayerTableRecord
  2
중간선
 70
     0
 62
     2
  6
Continuous
370
    15
390
F
  0
LAYER
  5
7A
330
2
100
AcDbSymbolTableRecord
100
AcDbLayerTableRecord
  2
윤곽선
 70
     0
 62
     3
  6
Continuous
370
    40
390
F
  0
LAYER
  5
7B
330
2
100
AcDbSymbolTableRecord
100
AcDbLayerTableRecord
  2
중심마크
 70
     0
 62
   100
  6
Continuous
370
    30
390
F
  0
LAYER
  5
7C
330
2
100
AcDbSymbolTableRecord
100
AcDbLayerTableRecord
  2
가상선
 70
     0
 62
     4
  6
PHANTOM
370
    -3
390
F
  0
LAYER
  5
7D
330
2
100
AcDbSymbolTableRecord
100
AcDbLayerTableRecord
  2
특수지정선
 70
     0
 62
     5
  6
CENTERX2
370
    60
390
F
  0
LAYER
  5
7E
330
2
100
AcDbSymbolTableRecord
100
AcDbLayerTableRecord
  2
참조1
 70
     0
 62
    -4
  6
Continuous
370
    -3
390
F
  0
LAYER
  5
165
330
2
100
AcDbSymbolTableRecord
100
AcDbLayerTableRecord
  2
Defpoints
 70
     0
 62
     7
  6
Continuous
290
     0
370
    -3
390
F
  0
ENDTAB
  0
TABLE
  2
STYLE
  5
3
330
0
100
AcDbSymbolTable
 70
     2
  0
STYLE
  5
11
330
3
100
AcDbSymbolTableRecord
100
AcDbTextStyleTableRecord
  2
Standard
 70
     0
 40
0.0
 41
1.0
 50
0.0
 71
     0
 42
3.5
  3
txt
  4

  0
STYLE
  5
94
330
3
100
AcDbSymbolTableRecord
100
AcDbTextStyleTableRecord
  2
SLDTEXTSTYLE0
 70
     0
 40
0.0
 41
0.75
 50
0.0
 71
     0
 42
3.5
  3
TXT
  4

  0
ENDTAB
  0
TABLE
  2
VIEW
  5
6
330
0
100
AcDbSymbolTable
 70
     0
  0
ENDTAB
  0
TABLE
  2
UCS
  5
7
330
0
100
AcDbSymbolTable
 70
     0
  0
ENDTAB
  0
TABLE
  2
APPID
  5
9
330
0
100
AcDbSymbolTable
 70
     2
  0
APPID
  5
12
330
9
100
AcDbSymbolTableRecord
100
AcDbRegAppTableRecord
  2
ACAD
 70
     0
  0
APPID
  5
170
330
9
100
AcDbSymbolTableRecord
100
AcDbRegAppTableRecord
  2
ACAD_DSTYLE_DIMRADIAL_EXTENSION
 70
     0
  0
ENDTAB
  0
TABLE
  2
DIMSTYLE
  5
A
330
0
100
AcDbSymbolTable
 70
     3
100
AcDbDimStyleTable
  0
DIMSTYLE
105
27
330
A
100
AcDbSymbolTableRecord
100
AcDbDimStyleTableRecord
  2
ISO-25
 70
     0
 41
2.5
 42
0.625
 43
3.75
 44
1.25
 73
     0
 74
     0
 77
     1
 78
     8
140
2.5
141
2.5
143
0.03937007874016
147
0.625
171
     3
172
     1
178
     0
271
     2
272
     2
274
     3
278
    44
283
     0
284
     8
340
11
  0
DIMSTYLE
105
E1
102
{ACAD_REACTORS
330
E0
330
F5
330
109
330
1C7
330
1D4
330
1E4
330
1F4
330
20F
330
282
330
28F
330
29F
330
2AF
330
2CA
330
11E
330
366
102
}
330
A
100
AcDbSymbolTableRecord
100
AcDbDimStyleTableRecord
  2
SLDDIMSTYLE0
 70
     0
 41
3.302
 44
0.0
 45
0.000000001
 73
     0
 74
     0
 77
     1
 78
    12
 79
     3
140
3.5
143
0.0393700787401575
147
0.875
148
0.000000001
170
     1
172
     1
173
     1
178
     0
271
     2
272
     2
276
     2
284
    12
289
     0
340
94
  0
DIMSTYLE
105
11F
330
A
100
AcDbSymbolTableRecord
100
AcDbDimStyleTableRecord
  2
SLDDIMSTYLE1
 70
     0
 41
3.302
 44
0.0
 45
0.000000001
 73
     0
 74
     0
 77
     1
 78
     4
 79
     1
140
3.5
143
0.0393700787401575
147
0.875
148
0.000000001
170
     1
173
     1
178
     0
271
     2
272
     2
276
     2
284
    12
340
94
  0
ENDTAB
  0
TABLE
  2
BLOCK_RECORD
  5
1
330
0
100
AcDbSymbolTable
 70
    25
  0
BLOCK_RECORD
  5
1F
330
1
100
AcDbSymbolTableRecord
100
AcDbBlockTableRecord
  2
*Model_Space
340
22
  0
BLOCK_RECORD
  5
1B
330
1
100
AcDbSymbolTableRecord
100
AcDbBlockTableRecord
  2
*Paper_Space
340
1E
  0
BLOCK_RECORD
  5
23
330
1
100
AcDbSymbolTableRecord
100
AcDbBlockTableRecord
  2
*Paper_Space0
340
26
  0
BLOCK_RECORD
  5
7F
330
1
100
AcDbSymbolTableRecord
100
AcDbBlockTableRecord
  2
블럭10
340
0
102
{BLKREFS
331
D9
102
}
  0
BLOCK_RECORD
  5
E2
330
1
100
AcDbSymbolTableRecord
100
AcDbBlockTableRecord
  2
_D
340
0
  0
BLOCK_RECORD
  5
F6
330
1
100
AcDbSymbolTableRecord
100
AcDbBlockTableRecord
  2
_D_1
340
0
  0
BLOCK_RECORD
  5
10A
330
1
100
AcDbSymbolTableRecord
100
AcDbBlockTableRecord
  2
_D_2
340
0
  0
BLOCK_RECORD
  5
120
330
1
100
AcDbSymbolTableRecord
100
AcDbBlockTableRecord
  2
_D_3
340
0
  0
BLOCK_RECORD
  5
139
330
1
100
AcDbSymbolTableRecord
100
AcDbBlockTableRecord
  2
SW_DOWELSYMBOL_0
340
0
102
{BLKREFS
331
13F
331
201
331
2BC
331
0
102
}
  0
BLOCK_RECORD
  5
1C8
330
1
100
AcDbSymbolTableRecord
100
AcDbBlockTableRecord
  2
*D8
340
0
  0
BLOCK_RECORD
  5
1D5
330
1
100
AcDbSymbolTableRecord
100
AcDbBlockTableRecord
  2
*D9
340
0
  0
BLOCK_RECORD
  5
1E5
330
1
100
AcDbSymbolTableRecord
100
AcDbBlockTableRecord
  2
*D10
340
0
  0
BLOCK_RECORD
  5
1F5
330
1
100
AcDbSymbolTableRecord
100
AcDbBlockTableRecord
  2
*D11
340
0
  0
BLOCK_RECORD
  5
212
330
1
100
AcDbSymbolTableRecord
100
AcDbBlockTableRecord
  2
*D12
340
0
  0
BLOCK_RECORD
  5
283
330
1
100
AcDbSymbolTableRecord
100
AcDbBlockTableRecord
  2
*D14
340
0
  0
BLOCK_RECORD
  5
290
330
1
100
AcDbSymbolTableRecord
100
AcDbBlockTableRecord
  2
*D15
340
0
  0
BLOCK_RECORD
  5
2A0
330
1
100
AcDbSymbolTableRecord
100
AcDbBlockTableRecord
  2
*D16
340
0
  0
BLOCK_RECORD
  5
2B0
330
1
100
AcDbSymbolTableRecord
100
AcDbBlockTableRecord
  2
*D17
340
0
  0
BLOCK_RECORD
  5
2CD
330
1
100
AcDbSymbolTableRecord
100
AcDbBlockTableRecord
  2
*D18
340
0
  0
BLOCK_RECORD
  5
322
330
1
100
AcDbSymbolTableRecord
100
AcDbBlockTableRecord
  2
*D19
340
0
  0
BLOCK_RECORD
  5
32E
330
1
100
AcDbSymbolTableRecord
100
AcDbBlockTableRecord
  2
*D20
340
0
  0
BLOCK_RECORD
  5
33D
330
1
100
AcDbSymbolTableRecord
100
AcDbBlockTableRecord
  2
*D21
340
0
  0
BLOCK_RECORD
  5
34C
330
1
100
AcDbSymbolTableRecord
100
AcDbBlockTableRecord
  2
*D22
340
0
  0
BLOCK_RECORD
  5
358
330
1
100
AcDbSymbolTableRecord
100
AcDbBlockTableRecord
  2
*D23
340
0
  0
BLOCK_RECORD
  5
369
330
1
100
AcDbSymbolTableRecord
100
AcDbBlockTableRecord
  2
*D24
340
0
  0
ENDTAB
  0
ENDSEC
  0
SECTION
  2
BLOCKS
  0
BLOCK
  5
20
330
1F
100
AcDbEntity
  8
0
100
AcDbBlockBegin
  2
*Model_Space
 70
     0
 10
0.0
 20
0.0
 30
0.0
  3
*Model_Space
  1
*Model_Space
  0
ENDBLK
  5
21
330
1F
100
AcDbEntity
  8
0
100
AcDbBlockEnd
  0
BLOCK
  5
1C
330
1B
100
AcDbEntity
 67
     1
  8
0
100
AcDbBlockBegin
  2
*Paper_Space
 70
     0
 10
0.0
 20
0.0
 30
0.0
  3
*Paper_Space
  1
*Paper_Space
  0
ENDBLK
  5
1D
330
1B
100
AcDbEntity
 67
     1
  8
0
100
AcDbBlockEnd
  0
BLOCK
  5
24
330
23
100
AcDbEntity
  8
0
100
AcDbBlockBegin
  2
*Paper_Space0
 70
     0
 10
0.0
 20
0.0
 30
0.0
  3
*Paper_Space0
  1
*Paper_Space0
  0
ENDBLK
  5
25
330
23
100
AcDbEntity
  8
0
100
AcDbBlockEnd
  0
BLOCK
  5
80
330
7F
100
AcDbEntity
  8
0
100
AcDbBlockBegin
  2
블럭10
 70
     2
 10
0.0
 20
0.0
 30
0.0
  3
블럭10
  1
블럭10
  0
ELLIPSE
  5
82
330
7F
100
AcDbEntity
  8
중심선
100
AcDbEllipse
 10
20.54032771741204
 20
12.0471743016438
 30
0.0
 11
6.600054785286829
 21
-1.261213355974178E-13
 31
0.0
210
0.0
220
0.0
230
1.0
 40
0.636358354079598
 41
0.9219305317359503
 42
6.513795318482858
  0
ELLIPSE
  5
83
330
7F
100
AcDbEntity
  8
중심선
100
AcDbEllipse
 10
20.54032771746488
 20
12.04717430159265
 30
0.0
 11
3.960054785062283
 21
1.540847449632565E-10
 31
0.0
210
0.0
220
0.0
230
1.0
 40
0.3939339440162632
 41
1.131841032648279
 42
5.62031148352944
  0
LINE
  5
84
330
7F
100
AcDbEntity
  8
중심선
100
AcDbLine
 10
2.268634060543552
 20
16.24717430164393
 30
0.0
 11
5.714909304380834
 21
16.24717430164393
 31
0.0
  0
LINE
  5
85
330
7F
100
AcDbEntity
  8
중심선
100
AcDbLine
 10
5.245725140726316
 20
7.84717430164391
 30
0.0
 11
8.692000384563599
 21
7.84717430164391
 31
0.0
  0
LINE
  5
86
330
7F
100
AcDbEntity
  8
중심선
100
AcDbLine
 10
15.74043728645272
 20
16.24717430164393
 30
0.0
 11
8.692000384563599
 21
7.84717430164391
 31
0.0
  0
LINE
  5
87
330
7F
100
AcDbEntity
  8
중심선
100
AcDbLine
 10
0.1404042013395286
 20
13.71084872107135
 30
0.0
 11
3.58671253028996
 21
13.71088815037384
 31
0.0
  0
LINE
  5
88
330
7F
100
AcDbEntity
  8
중심선
100
AcDbLine
 10
2.750260043222114
 20
10.84717430164391
 30
0.0
 11
6.196535287059397
 21
10.84717430164391
 31
0.0
  0
LINE
  5
89
330
7F
100
AcDbEntity
  8
중심선
100
AcDbLine
 10
12.29416204261559
 20
16.24717430164393
 30
0.0
 11
5.245725140726316
 21
7.84717430164391
 31
0.0
  0
LINE
  5
8A
330
7F
100
AcDbEntity
  8
중심선
100
AcDbLine
 10
10.72767329541681
 20
16.24717430164393
 30
0.0
 11
6.196535287059397
 21
10.84717430164391
 31
0.0
  0
LINE
  5
8B
330
7F
100
AcDbEntity
  8
중심선
100
AcDbLine
 10
7.28139805157953
 20
16.24717430164393
 30
0.0
 11
2.750260043222114
 21
10.84717430164391
 31
0.0
  0
LINE
  5
8C
330
7F
100
AcDbEntity
  8
중심선
100
AcDbLine
 10
5.714909304380834
 20
16.24717430164393
 30
0.0
 11
3.58671253028996
 21
13.71088815037384
 31
0.0
  0
LINE
  5
8D
330
7F
100
AcDbEntity
  8
중심선
100
AcDbLine
 10
2.268634060543552
 20
16.24717430164393
 30
0.0
 11
0.1404042013395286
 21
13.71084872107135
 31
0.0
  0
LINE
  5
8E
330
7F
100
AcDbEntity
  8
중심선
100
AcDbLine
 10
7.28139805157953
 20
16.24717430164393
 30
0.0
 11
10.72767329541681
 21
16.24717430164393
 31
0.0
  0
LINE
  5
8F
330
7F
100
AcDbEntity
  8
중심선
100
AcDbLine
 10
12.29416204261559
 20
16.24717430164393
 30
0.0
 11
15.74043728645272
 21
16.24717430164393
 31
0.0
  0
LINE
  5
90
330
7F
100
AcDbEntity
  8
중심선
100
AcDbLine
 10
19.22036997980202
 20
11.08717430171403
 30
0.0
 11
23.66174974927406
 21
11.08717430171406
 31
0.0
  0
LINE
  5
91
330
7F
100
AcDbEntity
  8
중심선
100
AcDbLine
 10
19.22039502424796
 20
13.00717430171391
 30
0.0
 11
19.22036997980202
 21
11.08717430171403
 31
0.0
  0
LINE
  5
92
330
7F
100
AcDbEntity
  8
중심선
100
AcDbLine
 10
19.22039502424796
 20
13.00717430171391
 30
0.0
 11
26.96566020931264
 21
13.00717430171391
 31
0.0
  0
LINE
  5
93
330
7F
100
AcDbEntity
  8
중심선
100
AcDbLine
 10
22.22332737316547
 20
13.45928029700563
 30
0.0
 11
24.52862924686651
 21
15.39360700705356
 31
0.0
  0
ATTDEF
  5
95
330
7F
100
AcDbEntity
  8
FORMAT
 62
     2
100
AcDbText
 10
3.448148490846466
 20
2.075366912832191
 30
0.0
 40
4.233333333333333
  1
EM637012
 41
0.75
  7
SLDTEXTSTYLE0
 11
3.448148490846466
 21
-0.0412997538344756
 31
0.0
100
AcDbAttributeDefinition
  3

  2
AUTOATTR0
 70
     0
 74
     1
  0
ENDBLK
  5
81
330
7F
100
AcDbEntity
  8
0
100
AcDbBlockEnd
  0
BLOCK
  5
E3
330
E2
100
AcDbEntity
  8
0
100
AcDbBlockBegin
  2
_D
 70
     0
 10
0.0
 20
0.0
 30
0.0
  3
_D
  1
_D
  0
LINE
  5
E5
330
E2
100
AcDbEntity
  8
치수문자_일반주서
 62
     0
370
    -2
100
AcDbLine
 10
-40.91518467149221
 20
3.174999999999982
 30
0.0
 11
-54.35268467149223
 21
3.174999999999931
 31
0.0
  0
LINE
  5
E6
330
E2
100
AcDbEntity
  8
치수문자_일반주서
 62
     0
370
    -2
100
AcDbLine
 10
-40.91518467149221
 20
-3.175000000000013
 30
0.0
 11
-54.35268467149221
 21
-3.175000000000063
 31
0.0
  0
LINE
  5
E7
330
E2
100
AcDbEntity
  8
치수문자_일반주서
 62
     0
370
    -2
100
AcDbLine
 10
-54.35268467149222
 20
-0.1270000000000682
 30
0.0
 11
-54.35268467149223
 21
0.1269999999999367
 31
0.0
  0
SOLID
  5
E8
330
E2
100
AcDbEntity
  8
치수문자_일반주서
 62
     0
100
AcDbTrace
 10
-53.80235133815889
 20
-0.1270000000000663
 30
0.0
 11
-54.90301800482555
 21
-0.12700000000007
 31
0.0
 12
-54.35268467149223
 22
3.174999999999931
 32
0.0
 13
-54.35268467149223
 23
3.174999999999931
 33
0.0
  0
SOLID
  5
E9
330
E2
100
AcDbEntity
  8
치수문자_일반주서
 62
     0
100
AcDbTrace
 10
-54.90301800482556
 20
0.1269999999999349
 30
0.0
 11
-53.80235133815889
 21
0.1269999999999386
 31
0.0
 12
-54.35268467149221
 22
-3.175000000000063
 32
0.0
 13
-54.35268467149221
 23
-3.175000000000063
 33
0.0
  0
MTEXT
  5
EA
330
E2
100
AcDbEntity
  8
치수문자_일반주서
 62
     0
100
AcDbMText
 10
-58.72768467149223
 20
-0.0000000000000295
 30
0.0
 40
3.5
 41
0.0
 71
     2
 72
     1
  1
\A1;%%c6.35 [1/4]
  7
SLDTEXTSTYLE0
 11
-3.356894814614650E-15
 21
1.0
 31
0.0
 73
     1
 44
1.0
  0
POINT
  5
EB
330
E2
100
AcDbEntity
  8
Defpoints
 62
     0
100
AcDbPoint
 10
-40.85268467149221
 20
3.174999999999982
 30
0.0
  0
POINT
  5
EC
330
E2
100
AcDbEntity
  8
Defpoints
 62
     0
100
AcDbPoint
 10
-40.85268467149221
 20
-3.175000000000012
 30
0.0
  0
POINT
  5
ED
330
E2
100
AcDbEntity
  8
Defpoints
 62
     0
100
AcDbPoint
 10
-54.35268467149221
 20
-3.175000000000063
 30
0.0
  0
ENDBLK
  5
E4
330
E2
100
AcDbEntity
  8
0
100
AcDbBlockEnd
  0
BLOCK
  5
F7
330
F6
100
AcDbEntity
  8
0
100
AcDbBlockBegin
  2
_D_1
 70
     0
 10
0.0
 20
0.0
 30
0.0
  3
_D_1
  1
_D_1
  0
LINE
  5
F9
330
F6
100
AcDbEntity
  8
치수문자_일반주서
 62
     0
370
    -2
100
AcDbLine
 10
21.89981532850778
 20
2.381250000000003
 30
0.0
 11
37.28225783107891
 21
2.381250000000058
 31
0.0
  0
LINE
  5
FA
330
F6
100
AcDbEntity
  8
치수문자_일반주서
 62
     0
370
    -2
100
AcDbLine
 10
21.89981532850778
 20
-2.381249999999996
 30
0.0
 11
37.28225783107892
 21
-2.381249999999941
 31
0.0
  0
LINE
  5
FB
330
F6
100
AcDbEntity
  8
치수문자_일반주서
 62
     0
370
    -2
100
AcDbLine
 10
37.28225783107891
 20
2.381250000000058
 30
0.0
 11
37.2822578310788
 21
36.98525000000008
 31
0.0
  0
LINE
  5
FC
330
F6
100
AcDbEntity
  8
치수문자_일반주서
 62
     0
370
    -2
100
AcDbLine
 10
37.28225783107891
 20
2.381250000000058
 30
0.0
 11
37.28225783107892
 21
-2.381249999999941
 31
0.0
  0
LINE
  5
FD
330
F6
100
AcDbEntity
  8
치수문자_일반주서
 62
     0
370
    -2
100
AcDbLine
 10
37.2822578310789
 20
5.683250000000058
 30
0.0
 11
37.28225783107889
 21
8.985250000000057
 31
0.0
  0
LINE
  5
FE
330
F6
100
AcDbEntity
  8
치수문자_일반주서
 62
     0
370
    -2
100
AcDbLine
 10
37.28225783107893
 20
-5.683249999999941
 30
0.0
 11
37.28225783107894
 21
-8.98524999999994
 31
0.0
  0
SOLID
  5
FF
330
F6
100
AcDbEntity
  8
치수문자_일반주서
 62
     0
100
AcDbTrace
 10
36.73192449774557
 20
5.683250000000056
 30
0.0
 11
37.83259116441224
 21
5.68325000000006
 31
0.0
 12
37.28225783107891
 22
2.381250000000058
 32
0.0
 13
37.28225783107891
 23
2.381250000000058
 33
0.0
  0
SOLID
  5
100
330
F6
100
AcDbEntity
  8
치수문자_일반주서
 62
     0
100
AcDbTrace
 10
37.83259116441226
 20
-5.683249999999939
 30
0.0
 11
36.7319244977456
 21
-5.683249999999942
 31
0.0
 12
37.28225783107892
 22
-2.381249999999941
 32
0.0
 13
37.28225783107892
 23
-2.381249999999941
 33
0.0
  0
MTEXT
  5
101
330
F6
100
AcDbEntity
  8
치수문자_일반주서
 62
     0
100
AcDbMText
 10
32.90725783107884
 20
22.98525000000006
 30
0.0
 40
3.5
 41
0.0
 71
     2
 72
     1
  1
\A1;%%c4.76 [3/16]
  7
SLDTEXTSTYLE0
 11
-2.983906501879686E-15
 21
1.0
 31
0.0
 73
     1
 44
1.0
  0
POINT
  5
102
330
F6
100
AcDbEntity
  8
Defpoints
 62
     0
100
AcDbPoint
 10
21.83731532850778
 20
2.381250000000003
 30
0.0
  0
POINT
  5
103
330
F6
100
AcDbEntity
  8
Defpoints
 62
     0
100
AcDbPoint
 10
21.83731532850778
 20
-2.381249999999997
 30
0.0
  0
POINT
  5
104
330
F6
100
AcDbEntity
  8
Defpoints
 62
     0
100
AcDbPoint
 10
37.28225783107892
 20
-2.381249999999939
 30
0.0
  0
ENDBLK
  5
F8
330
F6
100
AcDbEntity
  8
0
100
AcDbBlockEnd
  0
BLOCK
  5
10B
330
10A
100
AcDbEntity
  8
0
100
AcDbBlockBegin
  2
_D_2
 70
     0
 10
0.0
 20
0.0
 30
0.0
  3
_D_2
  1
_D_2
  0
LINE
  5
10D
330
10A
100
AcDbEntity
  8
치수문자_일반주서
 62
     0
370
    -2
100
AcDbLine
 10
21.83731532850778
 20
2.443750000000003
 30
0.0
 11
21.83731532850778
 21
12.6396005603483
 31
0.0
  0
LINE
  5
10E
330
10A
100
AcDbEntity
  8
치수문자_일반주서
 62
     0
370
    -2
100
AcDbLine
 10
5.962315328507778
 20
1.641173065219676
 30
0.0
 11
5.962315328507778
 21
12.6396005603483
 31
0.0
  0
LINE
  5
10F
330
10A
100
AcDbEntity
  8
치수문자_일반주서
 62
     0
370
    -2
100
AcDbLine
 10
5.962315328507778
 20
12.6396005603483
 30
0.0
 11
-26.01668467149222
 21
12.6396005603483
 31
0.0
  0
LINE
  5
110
330
10A
100
AcDbEntity
  8
치수문자_일반주서
 62
     0
370
    -2
100
AcDbLine
 10
21.83731532850778
 20
12.6396005603483
 30
0.0
 11
5.962315328507778
 21
12.6396005603483
 31
0.0
  0
LINE
  5
111
330
10A
100
AcDbEntity
  8
치수문자_일반주서
 62
     0
370
    -2
100
AcDbLine
 10
25.13931532850778
 20
12.6396005603483
 30
0.0
 11
28.44131532850778
 21
12.6396005603483
 31
0.0
  0
LINE
  5
112
330
10A
100
AcDbEntity
  8
치수문자_일반주서
 62
     0
370
    -2
100
AcDbLine
 10
2.660315328507778
 20
12.6396005603483
 30
0.0
 11
-0.6416846714922215
 21
12.6396005603483
 31
0.0
  0
SOLID
  5
113
330
10A
100
AcDbEntity
  8
치수문자_일반주서
 62
     0
100
AcDbTrace
 10
25.13931532850778
 20
13.18993389368163
 30
0.0
 11
25.13931532850778
 21
12.08926722701497
 31
0.0
 12
21.83731532850778
 22
12.6396005603483
 32
0.0
 13
21.83731532850778
 23
12.6396005603483
 33
0.0
  0
SOLID
  5
114
330
10A
100
AcDbEntity
  8
치수문자_일반주서
 62
     0
100
AcDbTrace
 10
2.660315328507778
 20
12.08926722701497
 30
0.0
 11
2.660315328507778
 21
13.18993389368163
 31
0.0
 12
5.962315328507778
 22
12.6396005603483
 32
0.0
 13
5.962315328507778
 23
12.6396005603483
 33
0.0
  0
MTEXT
  5
115
330
10A
100
AcDbEntity
  8
치수문자_일반주서
 62
     0
100
AcDbMText
 10
-13.32918467149222
 20
17.0146005603483
 30
0.0
 40
3.5
 41
0.0
 71
     2
 72
     1
  1
\A1;15.88 [5/8]
  7
SLDTEXTSTYLE0
 73
     1
 44
1.0
  0
POINT
  5
375
330
10A
100
AcDbEntity
  8
Defpoints
 62
     0
100
AcDbPoint
 10
21.83731532850778
 20
2.381250000000003
 30
0.0
  0
POINT
  5
376
330
10A
100
AcDbEntity
  8
Defpoints
 62
     0
100
AcDbPoint
 10
5.962315328507778
 20
1.578673065219676
 30
0.0
  0
POINT
  5
377
330
10A
100
AcDbEntity
  8
Defpoints
 62
     0
100
AcDbPoint
 10
5.962315328507778
 20
12.6396005603483
 30
0.0
  0
ENDBLK
  5
10C
330
10A
100
AcDbEntity
  8
0
100
AcDbBlockEnd
  0
BLOCK
  5
121
330
120
100
AcDbEntity
  8
0
100
AcDbBlockBegin
  2
_D_3
 70
     0
 10
0.0
 20
0.0
 30
0.0
  3
_D_3
  1
_D_3
  0
LINE
  5
123
330
120
100
AcDbEntity
  8
치수문자_일반주서
 62
     0
370
    -2
100
AcDbLine
 10
21.83731532850778
 20
2.443750000000003
 30
0.0
 11
21.83731532850778
 21
24.63960056034825
 31
0.0
  0
LINE
  5
124
330
120
100
AcDbEntity
  8
치수문자_일반주서
 62
     0
370
    -2
100
AcDbLine
 10
-41.66268467149222
 20
2.427499999999994
 30
0.0
 11
-41.66268467149222
 21
24.63960056034825
 31
0.0
  0
LINE
  5
125
330
120
100
AcDbEntity
  8
치수문자_일반주서
 62
     0
370
    -2
100
AcDbLine
 10
18.53531532850779
 20
24.63960056034825
 30
0.0
 11
-38.36068467149222
 21
24.63960056034825
 31
0.0
  0
SOLID
  5
126
330
120
100
AcDbEntity
  8
치수문자_일반주서
 62
     0
100
AcDbTrace
 10
18.53531532850779
 20
24.08926722701492
 30
0.0
 11
18.53531532850779
 21
25.18993389368159
 31
0.0
 12
21.83731532850778
 22
24.63960056034825
 32
0.0
 13
21.83731532850778
 23
24.63960056034825
 33
0.0
  0
SOLID
  5
127
330
120
100
AcDbEntity
  8
치수문자_일반주서
 62
     0
100
AcDbTrace
 10
-38.36068467149222
 20
25.18993389368159
 30
0.0
 11
-38.36068467149222
 21
24.08926722701492
 31
0.0
 12
-41.66268467149222
 22
24.63960056034825
 32
0.0
 13
-41.66268467149222
 23
24.63960056034825
 33
0.0
  0
MTEXT
  5
128
330
120
100
AcDbEntity
  8
치수문자_일반주서
 62
     0
100
AcDbMText
 10
-10.19842547390664
 20
29.01460056034825
 30
0.0
 40
3.5
 41
0.0
 71
     2
 72
     1
  1
\A1;63.5 [2 1/2]
  7
SLDTEXTSTYLE0
 73
     1
 44
1.0
  0
POINT
  5
129
330
120
100
AcDbEntity
  8
Defpoints
 62
     0
100
AcDbPoint
 10
21.83731532850778
 20
2.381250000000003
 30
0.0
  0
POINT
  5
12A
330
120
100
AcDbEntity
  8
Defpoints
 62
     0
100
AcDbPoint
 10
-41.66268467149222
 20
2.364999999999994
 30
0.0
  0
POINT
  5
12B
330
120
100
AcDbEntity
  8
Defpoints
 62
     0
100
AcDbPoint
 10
-41.66268467149222
 20
24.63960056034825
 30
0.0
  0
ENDBLK
  5
122
330
120
100
AcDbEntity
  8
0
100
AcDbBlockEnd
  0
BLOCK
  5
13A
330
139
100
AcDbEntity
  8
0
100
AcDbBlockBegin
  2
SW_DOWELSYMBOL_0
 70
     0
 10
0.0
 20
0.0
 30
0.0
  3
SW_DOWELSYMBOL_0
  1
SW_DOWELSYMBOL_0
  0
CIRCLE
  5
13C
330
139
100
AcDbEntity
  8
해칭선
 62
     0
100
AcDbCircle
 10
0.0
 20
0.0
 30
0.0
 40
3.000000000000002
  0
HATCH
  5
13D
330
139
100
AcDbEntity
  8
0
  6
Continuous
 62
     0
370
     0
100
AcDbHatch
 10
0.0
 20
0.0
 30
0.0
210
0.0
220
0.0
230
1.0
  2
SOLID
 70
     1
 71
     0
 91
        1
 92
        0
 93
        3
 72
     2
 10
0.0000000000000069
 20
0.0
 40
3.000000000000002
 50
0.0
 51
90.0
 73
     1
 72
     1
 10
0.0000000000000069
 20
3.000000000000002
 11
0.0000000000000069
 21
0.0
 72
     1
 10
0.0000000000000069
 20
0.0
 11
3.000000000000009
 21
0.0
 97
        0
 75
     0
 76
     1
 98
        1
 10
0.0
 20
0.0
  0
HATCH
  5
13E
330
139
100
AcDbEntity
  8
0
  6
Continuous
 62
     0
370
     0
100
AcDbHatch
 10
0.0
 20
0.0
 30
0.0
210
0.0
220
0.0
230
1.0
  2
SOLID
 70
     1
 71
     0
 91
        1
 92
        0
 93
        3
 72
     2
 10
0.0000000000000069
 20
0.0
 40
3.000000000000002
 50
180.0
 51
270.0000000000008
 73
     1
 72
     1
 10
0.0000000000000069
 20
-3.000000000000002
 11
0.0000000000000069
 21
0.0
 72
     1
 10
0.0000000000000069
 20
0.0
 11
-2.999999999999995
 21
0.0
 97
        0
 75
     0
 76
     1
 98
        1
 10
0.0
 20
0.0
  0
ENDBLK
  5
13B
330
139
100
AcDbEntity
  8
0
100
AcDbBlockEnd
  0
BLOCK
  5
1C9
330
1C8
100
AcDbEntity
  8
0
100
AcDbBlockBegin
  2
*D8
 70
     1
 10
0.0
 20
0.0
 30
0.0
  3
*D8
  1
*D8
  0
LINE
  5
1CA
330
1C8
100
AcDbEntity
  8
치수문자_일반주서
 62
     0
370
    -2
100
AcDbLine
 10
17.81250000000004
 20
33.15397882670416
 30
0.0
 11
4.375000000000025
 21
33.15397882670411
 31
0.0
  0
LINE
  5
1CB
330
1C8
100
AcDbEntity
  8
치수문자_일반주서
 62
     0
370
    -2
100
AcDbLine
 10
17.81250000000004
 20
26.80397882670417
 30
0.0
 11
4.375000000000047
 21
26.80397882670412
 31
0.0
  0
LINE
  5
1CC
330
1C8
100
AcDbEntity
  8
치수문자_일반주서
 62
     0
370
    -2
100
AcDbLine
 10
4.375000000000036
 20
29.85197882670411
 30
0.0
 11
4.375000000000036
 21
30.10597882670412
 31
0.0
  0
SOLID
  5
1CD
330
1C8
100
AcDbEntity
  8
치수문자_일반주서
 62
     0
100
AcDbTrace
 10
4.92533333333337
 20
29.85197882670412
 30
0.0
 11
3.824666666666703
 21
29.85197882670411
 31
0.0
 12
4.375000000000025
 22
33.15397882670411
 32
0.0
 13
4.375000000000025
 23
33.15397882670411
 33
0.0
  0
SOLID
  5
1CE
330
1C8
100
AcDbEntity
  8
치수문자_일반주서
 62
     0
100
AcDbTrace
 10
3.824666666666702
 20
30.10597882670411
 30
0.0
 11
4.925333333333369
 21
30.10597882670412
 31
0.0
 12
4.375000000000047
 22
26.80397882670412
 32
0.0
 13
4.375000000000047
 23
26.80397882670412
 33
0.0
  0
MTEXT
  5
1CF
330
1C8
100
AcDbEntity
  8
치수문자_일반주서
 62
     0
100
AcDbMText
 10
0.0000000000000355
 20
29.97897882670415
 30
0.0
 40
3.5
 41
0.0
 71
     2
 72
     1
  1
\A1;%%c6.35 [1/4]
  7
SLDTEXTSTYLE0
 11
-3.496765431890260E-15
 21
1.0
 31
0.0
 73
     1
 44
1.0
  0
POINT
  5
1D0
330
1C8
100
AcDbEntity
  8
Defpoints
 62
     0
100
AcDbPoint
 10
17.87500000000004
 20
33.15397882670416
 30
0.0
  0
POINT
  5
1D1
330
1C8
100
AcDbEntity
  8
Defpoints
 62
     0
100
AcDbPoint
 10
17.87500000000004
 20
26.80397882670417
 30
0.0
  0
POINT
  5
1D2
330
1C8
100
AcDbEntity
  8
Defpoints
 62
     0
100
AcDbPoint
 10
4.37500000000005
 20
26.80397882670412
 30
0.0
  0
ENDBLK
  5
1D3
330
1C8
100
AcDbEntity
  8
0
100
AcDbBlockEnd
  0
BLOCK
  5
1D6
330
1D5
100
AcDbEntity
  8
0
100
AcDbBlockBegin
  2
*D9
 70
     1
 10
0.0
 20
0.0
 30
0.0
  3
*D9
  1
*D9
  0
LINE
  5
1D7
330
1D5
100
AcDbEntity
  8
치수문자_일반주서
 62
     0
370
    -2
100
AcDbLine
 10
74.27750000000003
 20
31.56647882670418
 30
0.0
 11
88.56686652211077
 21
31.56647882670424
 31
0.0
  0
LINE
  5
1D8
330
1D5
100
AcDbEntity
  8
치수문자_일반주서
 62
     0
370
    -2
100
AcDbLine
 10
74.27750000000003
 20
28.39147882670418
 30
0.0
 11
88.56686652211079
 21
28.39147882670423
 31
0.0
  0
LINE
  5
1D9
330
1D5
100
AcDbEntity
  8
치수문자_일반주서
 62
     0
370
    -2
100
AcDbLine
 10
88.56686652211077
 20
31.56647882670424
 30
0.0
 11
88.56686652211062
 21
66.01371986763738
 31
0.0
  0
LINE
  5
1DA
330
1D5
100
AcDbEntity
  8
치수문자_일반주서
 62
     0
370
    -2
100
AcDbLine
 10
88.56686652211077
 20
31.56647882670424
 30
0.0
 11
88.56686652211079
 21
28.39147882670423
 31
0.0
  0
LINE
  5
1DB
330
1D5
100
AcDbEntity
  8
치수문자_일반주서
 62
     0
370
    -2
100
AcDbLine
 10
88.56686652211076
 20
34.86847882670423
 30
0.0
 11
88.56686652211074
 21
38.17047882670423
 31
0.0
  0
LINE
  5
1DC
330
1D5
100
AcDbEntity
  8
치수문자_일반주서
 62
     0
370
    -2
100
AcDbLine
 10
88.5668665221108
 20
25.08947882670423
 30
0.0
 11
88.56686652211081
 21
21.78747882670423
 31
0.0
  0
SOLID
  5
1DD
330
1D5
100
AcDbEntity
  8
치수문자_일반주서
 62
     0
100
AcDbTrace
 10
88.01653318877743
 20
34.86847882670423
 30
0.0
 11
89.11719985544408
 21
34.86847882670423
 31
0.0
 12
88.56686652211077
 22
31.56647882670424
 32
0.0
 13
88.56686652211077
 23
31.56647882670424
 33
0.0
  0
SOLID
  5
1DE
330
1D5
100
AcDbEntity
  8
치수문자_일반주서
 62
     0
100
AcDbTrace
 10
89.11719985544413
 20
25.08947882670424
 30
0.0
 11
88.01653318877747
 21
25.08947882670423
 31
0.0
 12
88.56686652211079
 22
28.39147882670423
 32
0.0
 13
88.56686652211079
 23
28.39147882670423
 33
0.0
  0
MTEXT
  5
1DF
330
1D5
100
AcDbEntity
  8
치수문자_일반주서
 62
     0
100
AcDbMText
 10
84.19186652211067
 20
53.76371986763736
 30
0.0
 40
3.5
 41
0.0
 71
     2
 72
     1
  1
\A1;%%c3.18 [1/8]
  7
SLDTEXTSTYLE0
 11
-4.475859752819522E-15
 21
1.0
 31
0.0
 73
     1
 44
1.0
  0
POINT
  5
1E0
330
1D5
100
AcDbEntity
  8
Defpoints
 62
     0
100
AcDbPoint
 10
74.21500000000003
 20
31.56647882670418
 30
0.0
  0
POINT
  5
1E1
330
1D5
100
AcDbEntity
  8
Defpoints
 62
     0
100
AcDbPoint
 10
74.21500000000003
 20
28.39147882670418
 30
0.0
  0
POINT
  5
1E2
330
1D5
100
AcDbEntity
  8
Defpoints
 62
     0
100
AcDbPoint
 10
88.56686652211079
 20
28.39147882670423
 30
0.0
  0
ENDBLK
  5
1E3
330
1D5
100
AcDbEntity
  8
0
100
AcDbBlockEnd
  0
BLOCK
  5
1E6
330
1E5
100
AcDbEntity
  8
0
100
AcDbBlockBegin
  2
*D10
 70
     1
 10
0.0
 20
0.0
 30
0.0
  3
*D10
  1
*D10
  0
LINE
  5
1E7
330
1E5
100
AcDbEntity
  8
치수문자_일반주서
 62
     0
370
    -2
100
AcDbLine
 10
74.21500000000003
 20
31.62897882670418
 30
0.0
 11
74.21500000000003
 21
40.70060572564913
 31
0.0
  0
LINE
  5
1E8
330
1E5
100
AcDbEntity
  8
치수문자_일반주서
 62
     0
370
    -2
100
AcDbLine
 10
61.51500000000005
 20
31.3058952706383
 30
0.0
 11
61.51500000000005
 21
40.70060572564913
 31
0.0
  0
LINE
  5
1E9
330
1E5
100
AcDbEntity
  8
치수문자_일반주서
 62
     0
370
    -2
100
AcDbLine
 10
61.51500000000005
 20
40.70060572564913
 30
0.0
 11
32.71287910182971
 21
40.70060572564913
 31
0.0
  0
LINE
  5
1EA
330
1E5
100
AcDbEntity
  8
치수문자_일반주서
 62
     0
370
    -2
100
AcDbLine
 10
74.21500000000003
 20
40.70060572564913
 30
0.0
 11
61.51500000000005
 21
40.70060572564913
 31
0.0
  0
LINE
  5
1EB
330
1E5
100
AcDbEntity
  8
치수문자_일반주서
 62
     0
370
    -2
100
AcDbLine
 10
77.51700000000002
 20
40.70060572564913
 30
0.0
 11
80.81900000000002
 21
40.70060572564913
 31
0.0
  0
LINE
  5
1EC
330
1E5
100
AcDbEntity
  8
치수문자_일반주서
 62
     0
370
    -2
100
AcDbLine
 10
58.21300000000005
 20
40.70060572564913
 30
0.0
 11
54.91100000000005
 21
40.70060572564913
 31
0.0
  0
SOLID
  5
1ED
330
1E5
100
AcDbEntity
  8
치수문자_일반주서
 62
     0
100
AcDbTrace
 10
77.51700000000002
 20
41.25093905898246
 30
0.0
 11
77.51700000000002
 21
40.15027239231579
 31
0.0
 12
74.21500000000003
 22
40.70060572564913
 32
0.0
 13
74.21500000000003
 23
40.70060572564913
 33
0.0
  0
SOLID
  5
1EE
330
1E5
100
AcDbEntity
  8
치수문자_일반주서
 62
     0
100
AcDbTrace
 10
58.21300000000005
 20
40.15027239231579
 30
0.0
 11
58.21300000000005
 21
41.25093905898246
 31
0.0
 12
61.51500000000005
 22
40.70060572564913
 32
0.0
 13
61.51500000000005
 23
40.70060572564913
 33
0.0
  0
MTEXT
  5
1EF
330
1E5
100
AcDbEntity
  8
치수문자_일반주서
 62
     0
100
AcDbMText
 10
43.65037910182971
 20
45.07560572564913
 30
0.0
 40
3.5
 41
0.0
 71
     2
 72
     1
  1
\A1;12.7 [1/2]
  7
SLDTEXTSTYLE0
 73
     1
 44
1.0
  0
POINT
  5
1F0
330
1E5
100
AcDbEntity
  8
Defpoints
 62
     0
100
AcDbPoint
 10
74.21500000000003
 20
31.56647882670418
 30
0.0
  0
POINT
  5
1F1
330
1E5
100
AcDbEntity
  8
Defpoints
 62
     0
100
AcDbPoint
 10
61.51500000000005
 20
31.2433952706383
 30
0.0
  0
POINT
  5
1F2
330
1E5
100
AcDbEntity
  8
Defpoints
 62
     0
100
AcDbPoint
 10
61.51500000000005
 20
40.70060572564913
 30
0.0
  0
ENDBLK
  5
1F3
330
1E5
100
AcDbEntity
  8
0
100
AcDbBlockEnd
  0
BLOCK
  5
1F6
330
1F5
100
AcDbEntity
  8
0
100
AcDbBlockBegin
  2
*D11
 70
     1
 10
0.0
 20
0.0
 30
0.0
  3
*D11
  1
*D11
  0
LINE
  5
1F7
330
1F5
100
AcDbEntity
  8
치수문자_일반주서
 62
     0
370
    -2
100
AcDbLine
 10
74.21500000000003
 20
31.62897882670418
 30
0.0
 11
74.21500000000003
 21
54.06295438705244
 31
0.0
  0
LINE
  5
1F8
330
1F5
100
AcDbEntity
  8
치수문자_일반주서
 62
     0
370
    -2
100
AcDbLine
 10
17.06500000000003
 20
32.40647882670417
 30
0.0
 11
17.06500000000003
 21
54.06295438705244
 31
0.0
  0
LINE
  5
1F9
330
1F5
100
AcDbEntity
  8
치수문자_일반주서
 62
     0
370
    -2
100
AcDbLine
 10
70.91300000000004
 20
54.06295438705244
 30
0.0
 11
20.36700000000003
 21
54.06295438705244
 31
0.0
  0
SOLID
  5
1FA
330
1F5
100
AcDbEntity
  8
치수문자_일반주서
 62
     0
100
AcDbTrace
 10
70.91300000000004
 20
53.5126210537191
 30
0.0
 11
70.91300000000004
 21
54.61328772038577
 31
0.0
 12
74.21500000000003
 22
54.06295438705244
 32
0.0
 13
74.21500000000003
 23
54.06295438705244
 33
0.0
  0
SOLID
  5
1FB
330
1F5
100
AcDbEntity
  8
치수문자_일반주서
 62
     0
100
AcDbTrace
 10
20.36700000000003
 20
54.61328772038577
 30
0.0
 11
20.36700000000003
 21
53.5126210537191
 31
0.0
 12
17.06500000000003
 22
54.06295438705244
 32
0.0
 13
17.06500000000003
 23
54.06295438705244
 33
0.0
  0
MTEXT
  5
1FC
330
1F5
100
AcDbEntity
  8
치수문자_일반주서
 62
     0
100
AcDbMText
 10
45.38283327782705
 20
58.43795438705244
 30
0.0
 40
3.5
 41
0.0
 71
     2
 72
     1
  1
\A1;57.15 [2 1/4]
  7
SLDTEXTSTYLE0
 73
     1
 44
1.0
  0
POINT
  5
1FD
330
1F5
100
AcDbEntity
  8
Defpoints
 62
     0
100
AcDbPoint
 10
74.21500000000003
 20
31.56647882670418
 30
0.0
  0
POINT
  5
1FE
330
1F5
100
AcDbEntity
  8
Defpoints
 62
     0
100
AcDbPoint
 10
17.06500000000003
 20
32.34397882670417
 30
0.0
  0
POINT
  5
1FF
330
1F5
100
AcDbEntity
  8
Defpoints
 62
     0
100
AcDbPoint
 10
17.06500000000003
 20
54.06295438705244
 30
0.0
  0
ENDBLK
  5
200
330
1F5
100
AcDbEntity
  8
0
100
AcDbBlockEnd
  0
BLOCK
  5
213
330
212
100
AcDbEntity
  8
0
100
AcDbBlockBegin
  2
*D12
 70
     1
 10
0.0
 20
0.0
 30
0.0
  3
*D12
  1
*D12
  0
LINE
  5
214
330
212
100
AcDbEntity
  8
치수문자_일반주서
 62
     0
370
    -2
100
AcDbLine
 10
75.81238369488618
 20
25.72403248054943
 30
0.0
 11
92.86792570297376
 21
0.0000000000000338
 31
0.0
  0
MTEXT
  5
215
330
212
100
AcDbEntity
  8
치수문자_일반주서
 62
     0
100
AcDbMText
 10
87.44029515533765
 20
12.93654912257779
 30
0.0
 40
3.5
 41
0.0
 71
     5
 72
     1
  1
\A1;R.51 [R0.020]
  7
SLDTEXTSTYLE0
 11
0.5525941456394103
 21
-0.8334504845550514
 31
0.0
 73
     1
 44
1.0
  0
LINE
  5
216
330
212
100
AcDbEntity
  8
치수문자_일반주서
 62
     0
370
    -2
100
AcDbLine
 10
73.70700000000002
 20
28.89947882670418
 30
0.0
 11
73.98771782598484
 21
28.47608598055021
 31
0.0
  0
SOLID
  5
217
330
212
100
AcDbEntity
  8
치수문자_일반주서
 62
     0
100
AcDbTrace
 10
76.27105927821964
 20
26.02814345869965
 30
0.0
 11
75.35370811155272
 21
25.41992150239921
 31
0.0
 12
73.98771782598484
 22
28.47608598055021
 32
0.0
 13
73.98771782598484
 23
28.47608598055021
 33
0.0
  0
POINT
  5
218
330
212
100
AcDbEntity
  8
Defpoints
 62
     0
100
AcDbPoint
 10
73.98771782598484
 20
28.47608598055021
 30
0.0
  0
POINT
  5
219
330
212
100
AcDbEntity
  8
Defpoints
 62
     0
100
AcDbPoint
 10
73.70700000000002
 20
28.89947882670418
 30
0.0
  0
ENDBLK
  5
21A
330
212
100
AcDbEntity
  8
0
100
AcDbBlockEnd
  0
BLOCK
  5
284
330
283
100
AcDbEntity
  8
0
100
AcDbBlockBegin
  2
*D14
 70
     1
 10
0.0
 20
0.0
 30
0.0
  3
*D14
  1
*D14
  0
LINE
  5
285
330
283
100
AcDbEntity
  8
치수문자_일반주서
 62
     0
370
    -2
100
AcDbLine
 10
17.81250000000004
 20
33.15397882670416
 30
0.0
 11
4.375000000000025
 21
33.15397882670411
 31
0.0
  0
LINE
  5
286
330
283
100
AcDbEntity
  8
치수문자_일반주서
 62
     0
370
    -2
100
AcDbLine
 10
17.81250000000004
 20
26.80397882670417
 30
0.0
 11
4.375000000000047
 21
26.80397882670412
 31
0.0
  0
LINE
  5
287
330
283
100
AcDbEntity
  8
치수문자_일반주서
 62
     0
370
    -2
100
AcDbLine
 10
4.375000000000036
 20
29.85197882670411
 30
0.0
 11
4.375000000000036
 21
30.10597882670412
 31
0.0
  0
SOLID
  5
288
330
283
100
AcDbEntity
  8
치수문자_일반주서
 62
     0
100
AcDbTrace
 10
4.92533333333337
 20
29.85197882670412
 30
0.0
 11
3.824666666666703
 21
29.85197882670411
 31
0.0
 12
4.375000000000025
 22
33.15397882670411
 32
0.0
 13
4.375000000000025
 23
33.15397882670411
 33
0.0
  0
SOLID
  5
289
330
283
100
AcDbEntity
  8
치수문자_일반주서
 62
     0
100
AcDbTrace
 10
3.824666666666702
 20
30.10597882670411
 30
0.0
 11
4.925333333333369
 21
30.10597882670412
 31
0.0
 12
4.375000000000047
 22
26.80397882670412
 32
0.0
 13
4.375000000000047
 23
26.80397882670412
 33
0.0
  0
MTEXT
  5
28A
330
283
100
AcDbEntity
  8
치수문자_일반주서
 62
     0
100
AcDbMText
 10
0.0000000000000355
 20
29.97897882670415
 30
0.0
 40
3.5
 41
0.0
 71
     2
 72
     1
  1
\A1;%%c6.35 [1/4]
  7
SLDTEXTSTYLE0
 11
-3.496765431890260E-15
 21
1.0
 31
0.0
 73
     1
 44
1.0
  0
POINT
  5
28B
330
283
100
AcDbEntity
  8
Defpoints
 62
     0
100
AcDbPoint
 10
17.87500000000004
 20
33.15397882670416
 30
0.0
  0
POINT
  5
28C
330
283
100
AcDbEntity
  8
Defpoints
 62
     0
100
AcDbPoint
 10
17.87500000000004
 20
26.80397882670417
 30
0.0
  0
POINT
  5
28D
330
283
100
AcDbEntity
  8
Defpoints
 62
     0
100
AcDbPoint
 10
4.37500000000005
 20
26.80397882670412
 30
0.0
  0
ENDBLK
  5
28E
330
283
100
AcDbEntity
  8
0
100
AcDbBlockEnd
  0
BLOCK
  5
291
330
290
100
AcDbEntity
  8
0
100
AcDbBlockBegin
  2
*D15
 70
     1
 10
0.0
 20
0.0
 30
0.0
  3
*D15
  1
*D15
  0
LINE
  5
292
330
290
100
AcDbEntity
  8
치수문자_일반주서
 62
     0
370
    -2
100
AcDbLine
 10
74.27750000000003
 20
31.56647882670418
 30
0.0
 11
88.56686652211077
 21
31.56647882670424
 31
0.0
  0
LINE
  5
293
330
290
100
AcDbEntity
  8
치수문자_일반주서
 62
     0
370
    -2
100
AcDbLine
 10
74.27750000000003
 20
28.39147882670418
 30
0.0
 11
88.56686652211079
 21
28.39147882670423
 31
0.0
  0
LINE
  5
294
330
290
100
AcDbEntity
  8
치수문자_일반주서
 62
     0
370
    -2
100
AcDbLine
 10
88.56686652211077
 20
31.56647882670424
 30
0.0
 11
88.56686652211062
 21
66.01371986763738
 31
0.0
  0
LINE
  5
295
330
290
100
AcDbEntity
  8
치수문자_일반주서
 62
     0
370
    -2
100
AcDbLine
 10
88.56686652211077
 20
31.56647882670424
 30
0.0
 11
88.56686652211079
 21
28.39147882670423
 31
0.0
  0
LINE
  5
296
330
290
100
AcDbEntity
  8
치수문자_일반주서
 62
     0
370
    -2
100
AcDbLine
 10
88.56686652211076
 20
34.86847882670423
 30
0.0
 11
88.56686652211074
 21
38.17047882670423
 31
0.0
  0
LINE
  5
297
330
290
100
AcDbEntity
  8
치수문자_일반주서
 62
     0
370
    -2
100
AcDbLine
 10
88.5668665221108
 20
25.08947882670423
 30
0.0
 11
88.56686652211081
 21
21.78747882670423
 31
0.0
  0
SOLID
  5
298
330
290
100
AcDbEntity
  8
치수문자_일반주서
 62
     0
100
AcDbTrace
 10
88.01653318877743
 20
34.86847882670423
 30
0.0
 11
89.11719985544408
 21
34.86847882670423
 31
0.0
 12
88.56686652211077
 22
31.56647882670424
 32
0.0
 13
88.56686652211077
 23
31.56647882670424
 33
0.0
  0
SOLID
  5
299
330
290
100
AcDbEntity
  8
치수문자_일반주서
 62
     0
100
AcDbTrace
 10
89.11719985544413
 20
25.08947882670424
 30
0.0
 11
88.01653318877747
 21
25.08947882670423
 31
0.0
 12
88.56686652211079
 22
28.39147882670423
 32
0.0
 13
88.56686652211079
 23
28.39147882670423
 33
0.0
  0
MTEXT
  5
29A
330
290
100
AcDbEntity
  8
치수문자_일반주서
 62
     0
100
AcDbMText
 10
84.19186652211067
 20
53.76371986763736
 30
0.0
 40
3.5
 41
0.0
 71
     2
 72
     1
  1
\A1;%%c3.18 [1/8]
  7
SLDTEXTSTYLE0
 11
-4.475859752819522E-15
 21
1.0
 31
0.0
 73
     1
 44
1.0
  0
POINT
  5
29B
330
290
100
AcDbEntity
  8
Defpoints
 62
     0
100
AcDbPoint
 10
74.21500000000003
 20
31.56647882670418
 30
0.0
  0
POINT
  5
29C
330
290
100
AcDbEntity
  8
Defpoints
 62
     0
100
AcDbPoint
 10
74.21500000000003
 20
28.39147882670418
 30
0.0
  0
POINT
  5
29D
330
290
100
AcDbEntity
  8
Defpoints
 62
     0
100
AcDbPoint
 10
88.56686652211079
 20
28.39147882670423
 30
0.0
  0
ENDBLK
  5
29E
330
290
100
AcDbEntity
  8
0
100
AcDbBlockEnd
  0
BLOCK
  5
2A1
330
2A0
100
AcDbEntity
  8
0
100
AcDbBlockBegin
  2
*D16
 70
     1
 10
0.0
 20
0.0
 30
0.0
  3
*D16
  1
*D16
  0
LINE
  5
2A2
330
2A0
100
AcDbEntity
  8
치수문자_일반주서
 62
     0
370
    -2
100
AcDbLine
 10
74.21500000000003
 20
31.62897882670418
 30
0.0
 11
74.21500000000003
 21
40.70060572564913
 31
0.0
  0
LINE
  5
2A3
330
2A0
100
AcDbEntity
  8
치수문자_일반주서
 62
     0
370
    -2
100
AcDbLine
 10
61.51500000000005
 20
31.3058952706383
 30
0.0
 11
61.51500000000005
 21
40.70060572564913
 31
0.0
  0
LINE
  5
2A4
330
2A0
100
AcDbEntity
  8
치수문자_일반주서
 62
     0
370
    -2
100
AcDbLine
 10
61.51500000000005
 20
40.70060572564913
 30
0.0
 11
32.71287910182971
 21
40.70060572564913
 31
0.0
  0
LINE
  5
2A5
330
2A0
100
AcDbEntity
  8
치수문자_일반주서
 62
     0
370
    -2
100
AcDbLine
 10
74.21500000000003
 20
40.70060572564913
 30
0.0
 11
61.51500000000005
 21
40.70060572564913
 31
0.0
  0
LINE
  5
2A6
330
2A0
100
AcDbEntity
  8
치수문자_일반주서
 62
     0
370
    -2
100
AcDbLine
 10
77.51700000000002
 20
40.70060572564913
 30
0.0
 11
80.81900000000002
 21
40.70060572564913
 31
0.0
  0
LINE
  5
2A7
330
2A0
100
AcDbEntity
  8
치수문자_일반주서
 62
     0
370
    -2
100
AcDbLine
 10
58.21300000000005
 20
40.70060572564913
 30
0.0
 11
54.91100000000005
 21
40.70060572564913
 31
0.0
  0
SOLID
  5
2A8
330
2A0
100
AcDbEntity
  8
치수문자_일반주서
 62
     0
100
AcDbTrace
 10
77.51700000000002
 20
41.25093905898246
 30
0.0
 11
77.51700000000002
 21
40.15027239231579
 31
0.0
 12
74.21500000000003
 22
40.70060572564913
 32
0.0
 13
74.21500000000003
 23
40.70060572564913
 33
0.0
  0
SOLID
  5
2A9
330
2A0
100
AcDbEntity
  8
치수문자_일반주서
 62
     0
100
AcDbTrace
 10
58.21300000000005
 20
40.15027239231579
 30
0.0
 11
58.21300000000005
 21
41.25093905898246
 31
0.0
 12
61.51500000000005
 22
40.70060572564913
 32
0.0
 13
61.51500000000005
 23
40.70060572564913
 33
0.0
  0
MTEXT
  5
2AA
330
2A0
100
AcDbEntity
  8
치수문자_일반주서
 62
     0
100
AcDbMText
 10
43.65037910182971
 20
45.07560572564913
 30
0.0
 40
3.5
 41
0.0
 71
     2
 72
     1
  1
\A1;12.7 [1/2]
  7
SLDTEXTSTYLE0
 73
     1
 44
1.0
  0
POINT
  5
2AB
330
2A0
100
AcDbEntity
  8
Defpoints
 62
     0
100
AcDbPoint
 10
74.21500000000003
 20
31.56647882670418
 30
0.0
  0
POINT
  5
2AC
330
2A0
100
AcDbEntity
  8
Defpoints
 62
     0
100
AcDbPoint
 10
61.51500000000005
 20
31.2433952706383
 30
0.0
  0
POINT
  5
2AD
330
2A0
100
AcDbEntity
  8
Defpoints
 62
     0
100
AcDbPoint
 10
61.51500000000005
 20
40.70060572564913
 30
0.0
  0
ENDBLK
  5
2AE
330
2A0
100
AcDbEntity
  8
0
100
AcDbBlockEnd
  0
BLOCK
  5
2B1
330
2B0
100
AcDbEntity
  8
0
100
AcDbBlockBegin
  2
*D17
 70
     1
 10
0.0
 20
0.0
 30
0.0
  3
*D17
  1
*D17
  0
LINE
  5
2B2
330
2B0
100
AcDbEntity
  8
치수문자_일반주서
 62
     0
370
    -2
100
AcDbLine
 10
74.21500000000003
 20
31.62897882670418
 30
0.0
 11
74.21500000000003
 21
54.06295438705244
 31
0.0
  0
LINE
  5
2B3
330
2B0
100
AcDbEntity
  8
치수문자_일반주서
 62
     0
370
    -2
100
AcDbLine
 10
17.06500000000003
 20
32.40647882670417
 30
0.0
 11
17.06500000000003
 21
54.06295438705244
 31
0.0
  0
LINE
  5
2B4
330
2B0
100
AcDbEntity
  8
치수문자_일반주서
 62
     0
370
    -2
100
AcDbLine
 10
70.91300000000004
 20
54.06295438705244
 30
0.0
 11
20.36700000000003
 21
54.06295438705244
 31
0.0
  0
SOLID
  5
2B5
330
2B0
100
AcDbEntity
  8
치수문자_일반주서
 62
     0
100
AcDbTrace
 10
70.91300000000004
 20
53.5126210537191
 30
0.0
 11
70.91300000000004
 21
54.61328772038577
 31
0.0
 12
74.21500000000003
 22
54.06295438705244
 32
0.0
 13
74.21500000000003
 23
54.06295438705244
 33
0.0
  0
SOLID
  5
2B6
330
2B0
100
AcDbEntity
  8
치수문자_일반주서
 62
     0
100
AcDbTrace
 10
20.36700000000003
 20
54.61328772038577
 30
0.0
 11
20.36700000000003
 21
53.5126210537191
 31
0.0
 12
17.06500000000003
 22
54.06295438705244
 32
0.0
 13
17.06500000000003
 23
54.06295438705244
 33
0.0
  0
MTEXT
  5
2B7
330
2B0
100
AcDbEntity
  8
치수문자_일반주서
 62
     0
100
AcDbMText
 10
45.38283327782705
 20
58.43795438705244
 30
0.0
 40
3.5
 41
0.0
 71
     2
 72
     1
  1
\A1;57.15 [2 1/4]
  7
SLDTEXTSTYLE0
 73
     1
 44
1.0
  0
POINT
  5
2B8
330
2B0
100
AcDbEntity
  8
Defpoints
 62
     0
100
AcDbPoint
 10
74.21500000000003
 20
31.56647882670418
 30
0.0
  0
POINT
  5
2B9
330
2B0
100
AcDbEntity
  8
Defpoints
 62
     0
100
AcDbPoint
 10
17.06500000000003
 20
32.34397882670417
 30
0.0
  0
POINT
  5
2BA
330
2B0
100
AcDbEntity
  8
Defpoints
 62
     0
100
AcDbPoint
 10
17.06500000000003
 20
54.06295438705244
 30
0.0
  0
ENDBLK
  5
2BB
330
2B0
100
AcDbEntity
  8
0
100
AcDbBlockEnd
  0
BLOCK
  5
2CE
330
2CD
100
AcDbEntity
  8
0
100
AcDbBlockBegin
  2
*D18
 70
     1
 10
0.0
 20
0.0
 30
0.0
  3
*D18
  1
*D18
  0
LINE
  5
2CF
330
2CD
100
AcDbEntity
  8
치수문자_일반주서
 62
     0
370
    -2
100
AcDbLine
 10
75.81238369488618
 20
25.72403248054943
 30
0.0
 11
92.86792570297376
 21
0.0000000000000338
 31
0.0
  0
MTEXT
  5
2D0
330
2CD
100
AcDbEntity
  8
치수문자_일반주서
 62
     0
100
AcDbMText
 10
87.44029515533765
 20
12.93654912257779
 30
0.0
 40
3.5
 41
0.0
 71
     5
 72
     1
  1
\A1;R.51 [R0.020]
  7
SLDTEXTSTYLE0
 11
0.5525941456394103
 21
-0.8334504845550514
 31
0.0
 73
     1
 44
1.0
  0
LINE
  5
2D1
330
2CD
100
AcDbEntity
  8
치수문자_일반주서
 62
     0
370
    -2
100
AcDbLine
 10
73.70700000000002
 20
28.89947882670418
 30
0.0
 11
73.98771782598484
 21
28.47608598055021
 31
0.0
  0
SOLID
  5
2D2
330
2CD
100
AcDbEntity
  8
치수문자_일반주서
 62
     0
100
AcDbTrace
 10
76.27105927821964
 20
26.02814345869965
 30
0.0
 11
75.35370811155272
 21
25.41992150239921
 31
0.0
 12
73.98771782598484
 22
28.47608598055021
 32
0.0
 13
73.98771782598484
 23
28.47608598055021
 33
0.0
  0
POINT
  5
2D3
330
2CD
100
AcDbEntity
  8
Defpoints
 62
     0
100
AcDbPoint
 10
73.98771782598484
 20
28.47608598055021
 30
0.0
  0
POINT
  5
2D4
330
2CD
100
AcDbEntity
  8
Defpoints
 62
     0
100
AcDbPoint
 10
73.70700000000002
 20
28.89947882670418
 30
0.0
  0
ENDBLK
  5
2D5
330
2CD
100
AcDbEntity
  8
0
100
AcDbBlockEnd
  0
BLOCK
  5
323
330
322
100
AcDbEntity
  8
0
100
AcDbBlockBegin
  2
*D19
 70
     1
 10
0.0
 20
0.0
 30
0.0
  3
*D19
  1
*D19
  0
LINE
  5
325
330
322
100
AcDbEntity
  8
치수문자_일반주서
 62
     0
370
    -2
100
AcDbLine
 10
76.49041568310702
 20
-2.338693374424488
 30
0.0
 11
63.052915683107
 21
-2.338693374424538
 31
0.0
  0
LINE
  5
326
330
322
100
AcDbEntity
  8
치수문자_일반주서
 62
     0
370
    -2
100
AcDbLine
 10
76.49041568310702
 20
-8.688693374424481
 30
0.0
 11
63.05291568310702
 21
-8.688693374424531
 31
0.0
  0
LINE
  5
327
330
322
100
AcDbEntity
  8
치수문자_일반주서
 62
     0
370
    -2
100
AcDbLine
 10
63.05291568310702
 20
-5.640693374424537
 30
0.0
 11
63.05291568310701
 21
-5.386693374424532
 31
0.0
  0
SOLID
  5
328
330
322
100
AcDbEntity
  8
치수문자_일반주서
 62
     0
100
AcDbTrace
 10
63.60324901644035
 20
-5.640693374424536
 30
0.0
 11
62.50258234977368
 21
-5.640693374424539
 31
0.0
 12
63.052915683107
 22
-2.338693374424538
 32
0.0
 13
63.052915683107
 23
-2.338693374424538
 33
0.0
  0
SOLID
  5
329
330
322
100
AcDbEntity
  8
치수문자_일반주서
 62
     0
100
AcDbTrace
 10
62.50258234977368
 20
-5.386693374424533
 30
0.0
 11
63.60324901644034
 21
-5.38669337442453
 31
0.0
 12
63.05291568310702
 22
-8.688693374424531
 32
0.0
 13
63.05291568310702
 23
-8.688693374424531
 33
0.0
  0
MTEXT
  5
32A
330
322
100
AcDbEntity
  8
치수문자_일반주서
 62
     0
100
AcDbMText
 10
58.67791568310701
 20
-5.513693374424498
 30
0.0
 40
3.5
 41
0.0
 71
     2
 72
     1
  1
\A1;%%c6.35 [1/4]
  7
SLDTEXTSTYLE0
 11
-3.356894814614650E-15
 21
1.0
 31
0.0
 73
     1
 44
1.0
  0
POINT
  5
32B
330
322
100
AcDbEntity
  8
Defpoints
 62
     0
100
AcDbPoint
 10
76.55291568310702
 20
-2.338693374424487
 30
0.0
  0
POINT
  5
32C
330
322
100
AcDbEntity
  8
Defpoints
 62
     0
100
AcDbPoint
 10
76.55291568310702
 20
-8.688693374424481
 30
0.0
  0
POINT
  5
32D
330
322
100
AcDbEntity
  8
Defpoints
 62
     0
100
AcDbPoint
 10
63.05291568310702
 20
-8.688693374424531
 30
0.0
  0
ENDBLK
  5
324
330
322
100
AcDbEntity
  8
0
100
AcDbBlockEnd
  0
BLOCK
  5
32F
330
32E
100
AcDbEntity
  8
0
100
AcDbBlockBegin
  2
*D20
 70
     1
 10
0.0
 20
0.0
 30
0.0
  3
*D20
  1
*D20
  0
LINE
  5
331
330
32E
100
AcDbEntity
  8
치수문자_일반주서
 62
     0
370
    -2
100
AcDbLine
 10
132.955415683107
 20
-3.926193374424464
 30
0.0
 11
147.2447822052176
 21
-3.926193374424411
 31
0.0
  0
LINE
  5
332
330
32E
100
AcDbEntity
  8
치수문자_일반주서
 62
     0
370
    -2
100
AcDbLine
 10
132.955415683107
 20
-7.101193374424469
 30
0.0
 11
147.2447822052176
 21
-7.101193374424415
 31
0.0
  0
LINE
  5
333
330
32E
100
AcDbEntity
  8
치수문자_일반주서
 62
     0
370
    -2
100
AcDbLine
 10
147.2447822052176
 20
-3.926193374424411
 30
0.0
 11
147.2447822052176
 21
30.52104766650874
 31
0.0
  0
LINE
  5
334
330
32E
100
AcDbEntity
  8
치수문자_일반주서
 62
     0
370
    -2
100
AcDbLine
 10
147.2447822052176
 20
-3.926193374424411
 30
0.0
 11
147.2447822052176
 21
-7.101193374424415
 31
0.0
  0
LINE
  5
335
330
32E
100
AcDbEntity
  8
치수문자_일반주서
 62
     0
370
    -2
100
AcDbLine
 10
147.2447822052176
 20
-0.6241933744244115
 30
0.0
 11
147.2447822052176
 21
2.677806625575588
 31
0.0
  0
LINE
  5
336
330
32E
100
AcDbEntity
  8
치수문자_일반주서
 62
     0
370
    -2
100
AcDbLine
 10
147.2447822052176
 20
-10.40319337442441
 30
0.0
 11
147.2447822052176
 21
-13.70519337442441
 31
0.0
  0
SOLID
  5
337
330
32E
100
AcDbEntity
  8
치수문자_일반주서
 62
     0
100
AcDbTrace
 10
146.6944488718843
 20
-0.6241933744244115
 30
0.0
 11
147.795115538551
 21
-0.6241933744244115
 31
0.0
 12
147.2447822052176
 22
-3.926193374424411
 32
0.0
 13
147.2447822052176
 23
-3.926193374424411
 33
0.0
  0
SOLID
  5
338
330
32E
100
AcDbEntity
  8
치수문자_일반주서
 62
     0
100
AcDbTrace
 10
147.795115538551
 20
-10.40319337442441
 30
0.0
 11
146.6944488718843
 21
-10.40319337442441
 31
0.0
 12
147.2447822052176
 22
-7.101193374424415
 32
0.0
 13
147.2447822052176
 23
-7.101193374424415
 33
0.0
  0
MTEXT
  5
339
330
32E
100
AcDbEntity
  8
치수문자_일반주서
 62
     0
100
AcDbMText
 10
142.8697822052176
 20
18.27104766650874
 30
0.0
 40
3.5
 41
0.0
 71
     2
 72
     1
  1
\A1;%%c3.18 [1/8]
  7
SLDTEXTSTYLE0
 11
0.0
 21
1.0
 31
0.0
 73
     1
 44
1.0
  0
POINT
  5
33A
330
32E
100
AcDbEntity
  8
Defpoints
 62
     0
100
AcDbPoint
 10
132.892915683107
 20
-3.926193374424464
 30
0.0
  0
POINT
  5
33B
330
32E
100
AcDbEntity
  8
Defpoints
 62
     0
100
AcDbPoint
 10
132.892915683107
 20
-7.101193374424469
 30
0.0
  0
POINT
  5
33C
330
32E
100
AcDbEntity
  8
Defpoints
 62
     0
100
AcDbPoint
 10
147.2447822052177
 20
-7.101193374424415
 30
0.0
  0
ENDBLK
  5
330
330
32E
100
AcDbEntity
  8
0
100
AcDbBlockEnd
  0
BLOCK
  5
33E
330
33D
100
AcDbEntity
  8
0
100
AcDbBlockBegin
  2
*D21
 70
     1
 10
0.0
 20
0.0
 30
0.0
  3
*D21
  1
*D21
  0
LINE
  5
340
330
33D
100
AcDbEntity
  8
치수문자_일반주서
 62
     0
370
    -2
100
AcDbLine
 10
132.892915683107
 20
-3.863693374424464
 30
0.0
 11
132.892915683107
 21
5.207933524520477
 31
0.0
  0
LINE
  5
341
330
33D
100
AcDbEntity
  8
치수문자_일반주서
 62
     0
370
    -2
100
AcDbLine
 10
120.192915683107
 20
-4.186776930490353
 30
0.0
 11
120.192915683107
 21
5.207933524520477
 31
0.0
  0
LINE
  5
342
330
33D
100
AcDbEntity
  8
치수문자_일반주서
 62
     0
370
    -2
100
AcDbLine
 10
120.192915683107
 20
5.207933524520477
 30
0.0
 11
91.39079478493667
 21
5.207933524520477
 31
0.0
  0
LINE
  5
343
330
33D
100
AcDbEntity
  8
치수문자_일반주서
 62
     0
370
    -2
100
AcDbLine
 10
132.892915683107
 20
5.207933524520477
 30
0.0
 11
120.192915683107
 21
5.207933524520477
 31
0.0
  0
LINE
  5
344
330
33D
100
AcDbEntity
  8
치수문자_일반주서
 62
     0
370
    -2
100
AcDbLine
 10
136.194915683107
 20
5.207933524520477
 30
0.0
 11
139.496915683107
 21
5.207933524520477
 31
0.0
  0
LINE
  5
345
330
33D
100
AcDbEntity
  8
치수문자_일반주서
 62
     0
370
    -2
100
AcDbLine
 10
116.890915683107
 20
5.207933524520477
 30
0.0
 11
113.588915683107
 21
5.207933524520477
 31
0.0
  0
SOLID
  5
346
330
33D
100
AcDbEntity
  8
치수문자_일반주서
 62
     0
100
AcDbTrace
 10
136.194915683107
 20
5.758266857853811
 30
0.0
 11
136.194915683107
 21
4.657600191187144
 31
0.0
 12
132.892915683107
 22
5.207933524520477
 32
0.0
 13
132.892915683107
 23
5.207933524520477
 33
0.0
  0
SOLID
  5
347
330
33D
100
AcDbEntity
  8
치수문자_일반주서
 62
     0
100
AcDbTrace
 10
116.890915683107
 20
4.657600191187144
 30
0.0
 11
116.890915683107
 21
5.758266857853811
 31
0.0
 12
120.192915683107
 22
5.207933524520477
 32
0.0
 13
120.192915683107
 23
5.207933524520477
 33
0.0
  0
MTEXT
  5
348
330
33D
100
AcDbEntity
  8
치수문자_일반주서
 62
     0
100
AcDbMText
 10
102.3282947849367
 20
9.582933524520477
 30
0.0
 40
3.5
 41
0.0
 71
     2
 72
     1
  1
\A1;12.7 [1/2]
  7
SLDTEXTSTYLE0
 73
     1
 44
1.0
  0
POINT
  5
349
330
33D
100
AcDbEntity
  8
Defpoints
 62
     0
100
AcDbPoint
 10
132.892915683107
 20
-3.926193374424464
 30
0.0
  0
POINT
  5
34A
330
33D
100
AcDbEntity
  8
Defpoints
 62
     0
100
AcDbPoint
 10
120.192915683107
 20
-4.249276930490353
 30
0.0
  0
POINT
  5
34B
330
33D
100
AcDbEntity
  8
Defpoints
 62
     0
100
AcDbPoint
 10
120.192915683107
 20
5.207933524520477
 30
0.0
  0
ENDBLK
  5
33F
330
33D
100
AcDbEntity
  8
0
100
AcDbBlockEnd
  0
BLOCK
  5
34D
330
34C
100
AcDbEntity
  8
0
100
AcDbBlockBegin
  2
*D22
 70
     1
 10
0.0
 20
0.0
 30
0.0
  3
*D22
  1
*D22
  0
LINE
  5
34F
330
34C
100
AcDbEntity
  8
치수문자_일반주서
 62
     0
370
    -2
100
AcDbLine
 10
132.892915683107
 20
-3.863693374424464
 30
0.0
 11
132.892915683107
 21
18.57028218592379
 31
0.0
  0
LINE
  5
350
330
34C
100
AcDbEntity
  8
치수문자_일반주서
 62
     0
370
    -2
100
AcDbLine
 10
75.74291568310701
 20
-3.086193374424475
 30
0.0
 11
75.74291568310701
 21
18.57028218592379
 31
0.0
  0
LINE
  5
351
330
34C
100
AcDbEntity
  8
치수문자_일반주서
 62
     0
370
    -2
100
AcDbLine
 10
129.590915683107
 20
18.57028218592379
 30
0.0
 11
79.044915683107
 21
18.57028218592379
 31
0.0
  0
SOLID
  5
352
330
34C
100
AcDbEntity
  8
치수문자_일반주서
 62
     0
100
AcDbTrace
 10
129.590915683107
 20
18.01994885259045
 30
0.0
 11
129.590915683107
 21
19.12061551925712
 31
0.0
 12
132.892915683107
 22
18.57028218592379
 32
0.0
 13
132.892915683107
 23
18.57028218592379
 33
0.0
  0
SOLID
  5
353
330
34C
100
AcDbEntity
  8
치수문자_일반주서
 62
     0
100
AcDbTrace
 10
79.044915683107
 20
19.12061551925712
 30
0.0
 11
79.044915683107
 21
18.01994885259045
 31
0.0
 12
75.74291568310701
 22
18.57028218592379
 32
0.0
 13
75.74291568310701
 23
18.57028218592379
 33
0.0
  0
MTEXT
  5
354
330
34C
100
AcDbEntity
  8
치수문자_일반주서
 62
     0
100
AcDbMText
 10
104.060748960934
 20
22.94528218592379
 30
0.0
 40
3.5
 41
0.0
 71
     2
 72
     1
  1
\A1;57.15 [2 1/4]
  7
SLDTEXTSTYLE0
 73
     1
 44
1.0
  0
POINT
  5
355
330
34C
100
AcDbEntity
  8
Defpoints
 62
     0
100
AcDbPoint
 10
132.892915683107
 20
-3.926193374424464
 30
0.0
  0
POINT
  5
356
330
34C
100
AcDbEntity
  8
Defpoints
 62
     0
100
AcDbPoint
 10
75.74291568310701
 20
-3.148693374424475
 30
0.0
  0
POINT
  5
357
330
34C
100
AcDbEntity
  8
Defpoints
 62
     0
100
AcDbPoint
 10
75.74291568310701
 20
18.57028218592379
 30
0.0
  0
ENDBLK
  5
34E
330
34C
100
AcDbEntity
  8
0
100
AcDbBlockEnd
  0
BLOCK
  5
359
330
358
100
AcDbEntity
  8
0
100
AcDbBlockBegin
  2
*D23
 70
     1
 10
0.0
 20
0.0
 30
0.0
  3
*D23
  1
*D23
  0
LINE
  5
35B
330
358
100
AcDbEntity
  8
치수문자_일반주서
 62
     0
370
    -2
100
AcDbLine
 10
134.4902993779932
 20
-9.76863972057922
 30
0.0
 11
151.5458413860808
 21
-35.49267220112861
 31
0.0
  0
MTEXT
  5
35C
330
358
100
AcDbEntity
  8
치수문자_일반주서
 62
     0
100
AcDbMText
 10
146.1182108384446
 20
-22.55612307855086
 30
0.0
 40
3.5
 41
0.0
 71
     5
 72
     1
  1
\A1;R.51 [R0.020]
  7
SLDTEXTSTYLE0
 11
0.5525941456394103
 21
-0.8334504845550514
 31
0.0
 73
     1
 44
1.0
  0
LINE
  5
35D
330
358
100
AcDbEntity
  8
치수문자_일반주서
 62
     0
370
    -2
100
AcDbLine
 10
132.384915683107
 20
-6.59319337442447
 30
0.0
 11
132.6656335090918
 21
-7.016586220578439
 31
0.0
  0
SOLID
  5
35E
330
358
100
AcDbEntity
  8
치수문자_일반주서
 62
     0
100
AcDbTrace
 10
134.9489749613266
 20
-9.464528742428998
 30
0.0
 11
134.0316237946597
 21
-10.07275069872944
 31
0.0
 12
132.6656335090918
 22
-7.016586220578439
 32
0.0
 13
132.6656335090918
 23
-7.016586220578439
 33
0.0
  0
POINT
  5
35F
330
358
100
AcDbEntity
  8
Defpoints
 62
     0
100
AcDbPoint
 10
132.6656335090918
 20
-7.016586220578439
 30
0.0
  0
POINT
  5
360
330
358
100
AcDbEntity
  8
Defpoints
 62
     0
100
AcDbPoint
 10
132.384915683107
 20
-6.59319337442447
 30
0.0
  0
ENDBLK
  5
35A
330
358
100
AcDbEntity
  8
0
100
AcDbBlockEnd
  0
BLOCK
  5
36A
330
369
100
AcDbEntity
  8
0
100
AcDbBlockBegin
  2
*D24
 70
     1
 10
0.0
 20
0.0
 30
0.0
  3
*D24
  1
*D24
  0
LINE
  5
36C
330
369
100
AcDbEntity
  8
치수문자_일반주서
 62
     0
370
    -2
100
AcDbLine
 10
23.61184842360805
 20
-5.047898811836664
 30
0.0
 11
41.21861437234884
 21
-30.3978327974758
 31
0.0
  0
MTEXT
  5
36D
330
369
100
AcDbEntity
  8
치수문자_일반주서
 62
     0
100
AcDbMText
 10
35.51304109175847
 20
-17.58144055541667
 30
0.0
 40
3.5
 41
0.0
 71
     5
 72
     1
  1
\A1;R.25 [R0.010]
  7
SLDTEXTSTYLE0
 11
0.5704536262936637
 21
-0.8213298121025494
 31
0.0
 73
     1
 44
1.0
  0
LINE
  5
36E
330
369
100
AcDbEntity
  8
치수문자_일반주서
 62
     0
370
    -2
100
AcDbLine
 10
21.58331532850778
 20
-2.127249999999997
 30
0.0
 11
21.72821054958637
 21
-2.335867772274046
 31
0.0
  0
SOLID
  5
36F
330
369
100
AcDbEntity
  8
치수문자_일반주서
 62
     0
100
AcDbTrace
 10
24.06385359686848
 20
-4.733959166166384
 30
0.0
 11
23.15984325034761
 21
-5.361838457506943
 31
0.0
 12
21.72821054958637
 22
-2.335867772274046
 32
0.0
 13
21.72821054958637
 23
-2.335867772274046
 33
0.0
  0
POINT
  5
370
330
369
100
AcDbEntity
  8
Defpoints
 62
     0
100
AcDbPoint
 10
21.72821054958637
 20
-2.335867772274046
 30
0.0
  0
POINT
  5
371
330
369
100
AcDbEntity
  8
Defpoints
 62
     0
100
AcDbPoint
 10
21.58331532850778
 20
-2.127249999999997
 30
0.0
  0
ENDBLK
  5
36B
330
369
100
AcDbEntity
  8
0
100
AcDbBlockEnd
  0
ENDSEC
  0
SECTION
  2
ENTITIES
  0
LINE
  5
96
330
1F
100
AcDbEntity
  8
외형선
  6
Continuous
370
    15
100
AcDbLine
 10
1.999999999999993
 20
3.174999999999997
 30
0.0
 11
-40.85268467149222
 21
3.174999999999994
 31
0.0
  0
LINE
  5
97
330
1F
100
AcDbEntity
  8
외형선
  6
Continuous
370
    15
100
AcDbLine
 10
-40.85268467149222
 20
-3.175000000000002
 30
0.0
 11
1.999999999999993
 21
-3.174999999999999
 31
0.0
  0
LINE
  5
98
330
1F
100
AcDbEntity
  8
외형선
  6
Continuous
370
    15
100
AcDbLine
 10
1.999999999999993
 20
-3.175000000000001
 30
0.0
 11
4.962315328507779
 21
-2.381250000000001
 31
0.0
  0
LINE
  5
99
330
1F
100
AcDbEntity
  8
외형선
  6
Continuous
370
    15
100
AcDbLine
 10
4.962315328507779
 20
2.381249999999999
 30
0.0
 11
1.999999999999993
 21
3.174999999999998
 31
0.0
  0
LINE
  5
9A
330
1F
100
AcDbEntity
  8
외형선
  6
Continuous
370
    15
100
AcDbLine
 10
-40.85268467149222
 20
3.174999999999993
 30
0.0
 11
-41.66268467149222
 21
2.364999999999994
 31
0.0
  0
LINE
  5
9B
330
1F
100
AcDbEntity
  8
외형선
  6
Continuous
370
    15
100
AcDbLine
 10
-41.66268467149222
 20
-2.365000000000002
 30
0.0
 11
-40.85268467149222
 21
-3.175
 31
0.0
  0
LINE
  5
9C
330
1F
100
AcDbEntity
  8
외형선
  6
Continuous
370
    15
100
AcDbLine
 10
5.072422784068554
 20
2.381249999999999
 30
0.0
 11
4.962315328507779
 21
2.381249999999999
 31
0.0
  0
LINE
  5
9D
330
1F
100
AcDbEntity
  8
외형선
  6
Continuous
370
    15
100
AcDbLine
 10
4.962315328507779
 20
-2.381250000000001
 30
0.0
 11
5.072422784068554
 21
-2.381250000000001
 31
0.0
  0
ARC
  5
9E
330
1F
100
AcDbEntity
  8
외형선
  6
Continuous
370
    15
100
AcDbCircle
 10
5.422422784068544
 20
-1.958816774695969
 30
0.0
 40
0.3500000000000016
100
AcDbArc
 50
94.09817228917146
 51
179.9999734650187
  0
SPLINE
  5
9F
330
1F
100
AcDbEntity
  8
외형선
  6
Continuous
370
    15
100
AcDbSpline
210
0.0
220
0.0
230
1.0
 70
     8
 71
     3
 72
     9
 73
     5
 74
     0
 42
0.000000001
 43
0.00000001
 40
0.0
 40
0.0
 40
0.0
 40
0.0
 40
0.4394289042056703
 40
1.0
 40
1.0
 40
1.0
 40
1.0
 10
5.962315328507779
 20
1.578673064322124
 30
0.0
 10
5.831965132868799
 20
1.584368305454116
 30
0.0
 10
5.535329671724961
 20
1.59732885738296
 30
0.0
 10
5.23872045393659
 20
1.622296715200502
 30
0.0
 10
5.072449899698265
 20
1.636292974616918
 30
0.0
  0
LINE
  5
A0
330
1F
100
AcDbEntity
  8
외형선
  6
Continuous
370
    15
100
AcDbLine
 10
5.397219792654555
 20
-1.609989896833589
 30
0.0
 11
5.602434369430913
 21
-1.596580177738588
 31
0.0
  0
SPLINE
  5
A1
330
1F
100
AcDbEntity
  8
0
  6
Continuous
 62
     1
370
    15
100
AcDbSpline
210
0.0
220
0.0
230
1.0
 70
     8
 71
     3
 72
     9
 73
     5
 74
     0
 42
0.000000001
 43
0.00000001
 40
0.0
 40
0.0
 40
0.0
 40
0.0
 40
0.4991394354925562
 40
1.0
 40
1.0
 40
1.0
 40
1.0
 10
15.66881708823614
 20
0.6101797778129439
 30
0.0
 10
15.55865168752084
 20
0.6625645396227754
 30
0.0
 10
15.3379410145471
 20
0.7675146960016993
 30
0.0
 10
15.11718497671463
 20
0.8828831109561989
 30
0.0
 10
15.00661698298744
 20
0.9406666003966383
 30
0.0
  0
LINE
  5
A2
330
1F
100
AcDbEntity
  8
0
  6
Continuous
 62
     1
370
    15
100
AcDbLine
 10
10.20398731838967
 20
2.381250000000001
 30
0.0
 11
9.049149489254045
 21
2.381250000000001
 31
0.0
  0
LINE
  5
A3
330
1F
100
AcDbEntity
  8
0
  6
Continuous
 62
     1
370
    15
100
AcDbLine
 10
9.049149489254024
 20
-2.381250000000002
 30
0.0
 11
10.20398731838967
 21
-2.381250000000002
 31
0.0
  0
SPLINE
  5
A4
330
1F
100
AcDbEntity
  8
0
  6
Continuous
 62
     1
370
    15
100
AcDbSpline
210
0.0
220
0.0
230
1.0
 70
     8
 71
     3
 72
    13
 73
     9
 74
     0
 42
0.000000001
 43
0.00000001
 40
0.0
 40
0.0
 40
0.0
 40
0.0
 40
0.2545157402776541
 40
0.4466233573974026
 40
0.5793664980200982
 40
0.7178199171476023
 40
0.8826816502562607
 40
1.0
 40
1.0
 40
1.0
 40
1.0
 10
14.88033614748407
 20
1.892233712883187
 30
0.0
 10
14.7166034310416
 20
1.884427157290447
 30
0.0
 10
14.42928581581844
 20
1.870728240026093
 30
0.0
 10
14.0554575144389
 20
1.86217937521601
 30
0.0
 10
13.75272096476286
 20
1.859210554502909
 30
0.0
 10
13.46869022270439
 20
1.860005714327308
 30
0.0
 10
13.19565899400512
 20
1.863554565589745
 30
0.0
 10
13.01278178142385
 20
1.869854402467434
 30
0.0
 10
12.93674929688811
 20
1.872473603860651
 30
0.0
  0
SPLINE
  5
A5
330
1F
100
AcDbEntity
  8
0
  6
Continuous
 62
     1
370
    15
100
AcDbSpline
210
0.0
220
0.0
230
1.0
 70
     8
 71
     3
 72
    19
 73
    15
 74
     0
 42
0.000000001
 43
0.00000001
 40
0.0
 40
0.0
 40
0.0
 40
0.0
 40
0.1136914366606704
 40
0.2048043155449553
 40
0.2831321150713141
 40
0.3323080285396717
 40
0.3852962533671055
 40
0.4485354752891291
 40
0.520950453427559
 40
0.6104243180648493
 40
0.6855658457438034
 40
0.7576082874411503
 40
0.8618690555760832
 40
1.0
 40
1.0
 40
1.0
 40
1.0
 10
11.29907758113846
 20
-1.981527947869163
 30
0.0
 10
11.43488064316334
 20
-1.968515476132682
 30
0.0
 10
11.67951694985304
 20
-1.94507474527542
 30
0.0
 10
12.01736617182017
 20
-1.919159470932878
 30
0.0
 10
12.27798026674865
 20
-1.902058777595267
 30
0.0
 10
12.4934969361336
 20
-1.889967127598829
 30
0.0
 10
12.69106836301358
 20
-1.880501317758142
 30
0.0
 10
12.91639059664692
 20
-1.871778519071735
 30
0.0
 10
13.18520096181714
 20
-1.86423058096056
 30
0.0
 10
13.46869029925603
 20
-1.859875857275302
 30
0.0
 10
13.752720946898
 20
-1.859240859241467
 30
0.0
 10
14.0554575214584
 20
-1.862167467805266
 30
0.0
 10
14.42928581303708
 20
-1.870732958152845
 30
0.0
 10
14.71660343003195
 20
-1.884428869985584
 30
0.0
 10
14.88033614748407
 20
-1.892233712883189
 30
0.0
  0
SPLINE
  5
A6
330
1F
100
AcDbEntity
  8
0
  6
Continuous
 62
     1
370
    15
100
AcDbSpline
210
0.0
220
0.0
230
1.0
 70
     8
 71
     3
 72
    13
 73
     9
 74
     0
 42
0.000000001
 43
0.00000001
 40
0.0
 40
0.0
 40
0.0
 40
0.0
 40
0.3021382312052334
 40
0.5145125815987255
 40
0.6471073577585746
 40
0.7658021183742959
 40
0.990103430312738
 40
1.0
 40
1.0
 40
1.0
 40
1.0
 10
16.79326942380266
 20
-1.791027609460213
 30
0.0
 10
16.97187350227239
 20
-1.764130047866352
 30
0.0
 10
17.27601920780246
 20
-1.718326066691365
 30
0.0
 10
17.65758970237588
 20
-1.67323396180459
 30
0.0
 10
17.93126885319768
 20
-1.644987498121377
 30
0.0
 10
18.21190106719081
 20
-1.620083766943005
 30
0.0
 10
18.41990049214522
 20
-1.603173269231564
 30
0.0
 10
18.55812726382105
 20
-1.596408940919396
 30
0.0
 10
18.56396835371066
 20
-1.596123098681779
 30
0.0
  0
SPLINE
  5
A7
330
1F
100
AcDbEntity
  8
0
  6
Continuous
 62
     1
370
    15
100
AcDbSpline
210
0.0
220
0.0
230
1.0
 70
     8
 71
     3
 72
     9
 73
     5
 74
     0
 42
0.000000001
 43
0.00000001
 40
0.0
 40
0.0
 40
0.0
 40
0.0
 40
0.5296170233539608
 40
1.0
 40
1.0
 40
1.0
 40
1.0
 10
7.994417094231236
 20
1.628664640186366
 30
0.0
 10
7.635448812889136
 20
1.603400225421599
 30
0.0
 10
6.95766040067228
 20
1.555697048124216
 30
0.0
 10
6.280731268561613
 20
1.571322920135868
 30
0.0
 10
5.962315328420978
 20
1.578673064325399
 30
0.0
  0
SPLINE
  5
A8
330
1F
100
AcDbEntity
  8
0
  6
Continuous
 62
     1
370
    15
100
AcDbSpline
210
0.0
220
0.0
230
1.0
 70
     8
 71
     3
 72
    20
 73
    16
 74
     0
 42
0.000000001
 43
0.00000001
 40
0.0
 40
0.0
 40
0.0
 40
0.0
 40
0.1280794919035092
 40
0.2184618212679009
 40
0.2749489897472929
 40
0.3253824935870797
 40
0.5116876304189535
 40
0.5560653504704711
 40
0.6009292000524367
 40
0.6460627984461288
 40
0.6909743218349915
 40
0.73558723040571
 40
0.7956304903268917
 40
0.8839990207815727
 40
1.0
 40
1.0
 40
1.0
 40
1.0
 10
20.95171836780266
 20
1.628662238701098
 30
0.0
 10
20.77387770407982
 20
1.614871032971485
 30
0.0
 10
20.47053956059582
 20
1.591347736022107
 30
0.0
 10
20.08983504673255
 20
1.575676050201061
 30
0.0
 10
19.81634756051944
 20
1.568985702249838
 30
0.0
 10
19.41016172684092
 20
1.564723304754551
 30
0.0
 10
19.02042986753978
 20
1.572554406534581
 30
0.0
 10
18.6382890560544
 20
1.591344700046244
 30
0.0
 10
18.45212222886898
 20
1.602599802535873
 30
0.0
 10
18.26545290887525
 20
1.61607293786701
 30
0.0
 10
18.07902209299511
 20
1.631559388299567
 30
0.0
 10
17.87168290787656
 20
1.650925702367835
 30
0.0
 10
17.60431143178174
 20
1.679218295535798
 30
0.0
 10
17.23806669033423
 20
1.72375374988641
 30
0.0
 10
16.95432332939136
 20
1.766668831554778
 30
0.0
 10
16.79326942380266
 20
1.791027609460211
 30
0.0
  0
LINE
  5
A9
330
1F
100
AcDbEntity
  8
외형선
  6
Continuous
370
    15
100
AcDbLine
 10
1.999999999999993
 20
3.174999999999998
 30
0.0
 11
1.999999999999993
 21
-3.174999999999999
 31
0.0
  0
LINE
  5
AA
330
1F
100
AcDbEntity
  8
외형선
  6
Continuous
370
    15
100
AcDbLine
 10
-40.85268467149222
 20
3.174999999999993
 30
0.0
 11
-40.85268467149222
 21
-3.175000000000002
 31
0.0
  0
LINE
  5
AB
330
1F
100
AcDbEntity
  8
외형선
  6
Continuous
370
    15
100
AcDbLine
 10
4.962315328507779
 20
2.381249999999999
 30
0.0
 11
4.962315328507779
 21
-2.381250000000004
 31
0.0
  0
LINE
  5
AC
330
1F
100
AcDbEntity
  8
외형선
  6
Continuous
370
    15
100
AcDbLine
 10
-41.66268467149222
 20
2.364999999999994
 30
0.0
 11
-41.66268467149222
 21
-2.365000000000005
 31
0.0
  0
LINE
  5
AD
330
1F
100
AcDbEntity
  8
외형선
  6
Continuous
370
    15
100
AcDbLine
 10
5.602327593651776
 20
1.59653623441651
 30
0.0
 11
5.962315328507779
 21
1.744688344419628
 31
0.0
  0
SPLINE
  5
AE
330
1F
100
AcDbEntity
  8
외형선
  6
Continuous
370
    15
100
AcDbSpline
210
0.0
220
0.0
230
1.0
 70
     8
 71
     3
 72
    10
 73
     6
 74
     0
 42
0.000000001
 43
0.00000001
 40
0.0
 40
0.0
 40
0.0
 40
0.0
 40
0.5
 40
0.5
 40
1.0
 40
1.0
 40
1.0
 40
1.0
 10
5.962315328507779
 20
-1.229245414035236
 30
0.0
 10
5.813095689643109
 20
-1.155708868752455
 30
0.0
 10
5.66379870706416
 20
-1.079756180507178
 30
0.0
 10
5.367650715539579
 20
-0.9243779258385927
 30
0.0
 10
5.22110970543595
 20
-0.8450202195212765
 30
0.0
 10
5.072535329872402
 20
-0.7638131153377004
 30
0.0
  0
LINE
  5
AF
330
1F
100
AcDbEntity
  8
외형선
  6
Continuous
370
    15
100
AcDbLine
 10
5.962315328507779
 20
-1.229245414035236
 30
0.0
 11
5.962315328507779
 21
-1.744688344419632
 31
0.0
  0
SPLINE
  5
B0
330
1F
100
AcDbEntity
  8
외형선
  6
Continuous
370
    15
100
AcDbSpline
210
0.0
220
0.0
230
1.0
 70
     8
 71
     3
 72
    10
 73
     6
 74
     0
 42
0.000000001
 43
0.00000001
 40
0.0
 40
0.0
 40
0.0
 40
0.0
 40
0.5000000000000001
 40
0.5000000000000001
 40
1.0
 40
1.0
 40
1.0
 40
1.0
 10
5.962315328507779
 20
-1.744688344419631
 30
0.0
 10
5.813076850573557
 20
-1.686245795250561
 30
0.0
 10
5.663761010257041
 20
-1.624380554989828
 30
0.0
 10
5.367576245874828
 20
-1.49493449842069
 30
0.0
 10
5.221016381482187
 20
-1.427420337298458
 30
0.0
 10
5.072422784068554
 20
-1.356956747832742
 30
0.0
  0
LINE
  5
B1
330
1F
100
AcDbEntity
  8
외형선
  6
Continuous
370
    15
100
AcDbLine
 10
5.072422784068554
 20
-2.381250000000001
 30
0.0
 11
5.072422784068554
 21
-1.356433411745576
 31
0.0
  0
LINE
  5
B2
330
1F
100
AcDbEntity
  8
외형선
  6
Continuous
370
    15
100
AcDbLine
 10
5.072422784068554
 20
-0.7637164534736508
 30
0.0
 11
5.072422784068554
 21
2.381249999999999
 31
0.0
  0
SPLINE
  5
B3
330
1F
100
AcDbEntity
  8
외형선
  6
Continuous
370
    15
100
AcDbSpline
210
0.0
220
0.0
230
1.0
 70
    24
 71
     3
 72
     8
 73
     4
 74
     0
 42
0.000000001
 43
0.00000001
 40
0.0
 40
0.0
 40
0.0
 40
0.0
 40
1.0
 40
1.0
 40
1.0
 40
1.0
 10
5.962315328507785
 20
-0.9384762892963889
 30
0.0
 10
5.962315328507785
 20
-1.028328423828133
 30
0.0
 10
5.962315328507785
 20
-1.125843016892478
 30
0.0
 10
5.962315328507785
 20
-1.229245414027772
 30
0.0
  0
SPLINE
  5
B4
330
1F
100
AcDbEntity
  8
외형선
  6
Continuous
370
    15
100
AcDbSpline
210
0.0
220
0.0
230
1.0
 70
     8
 71
     3
 72
    10
 73
     6
 74
     0
 42
0.000000001
 43
0.00000001
 40
0.0
 40
0.0
 40
0.0
 40
0.0
 40
0.5
 40
0.5
 40
1.0
 40
1.0
 40
1.0
 40
1.0
 10
5.962315328507781
 20
-0.9384762892963875
 30
0.0
 10
5.813095689643111
 20
-0.8738131325971485
 30
0.0
 10
5.663798707064164
 20
-0.80730397273891
 30
0.0
 10
5.367650715539581
 20
-0.6717799071831039
 30
0.0
 10
5.22110970543595
 20
-0.6028222870446145
 30
0.0
 10
5.072535329872402
 20
-0.5325128164481691
 30
0.0
  0
SPLINE
  5
B5
330
1F
100
AcDbEntity
  8
외형선
  6
Continuous
370
    15
100
AcDbSpline
210
0.0
220
0.0
230
1.0
 70
     8
 71
     3
 72
    10
 73
     6
 74
     0
 42
0.000000001
 43
0.00000001
 40
0.0
 40
0.0
 40
0.0
 40
0.0
 40
0.5000000000000001
 40
0.5000000000000001
 40
1.0
 40
1.0
 40
1.0
 40
1.0
 10
5.962315328507779
 20
1.238028532461981
 30
0.0
 10
5.813083730054087
 20
1.290238727553215
 30
0.0
 10
5.663774776035325
 20
1.340035597225111
 30
0.0
 10
5.36760344000424
 20
1.433972435884628
 30
0.0
 10
5.221050460723333
 20
1.478099652857517
 30
0.0
 10
5.07246388256506
 20
1.519473398167039
 30
0.0
  0
SPLINE
  5
B6
330
1F
100
AcDbEntity
  8
외형선
  6
Continuous
370
    15
100
AcDbSpline
210
0.0
220
0.0
230
1.0
 70
    24
 71
     3
 72
    10
 73
     6
 74
     0
 42
0.000000001
 43
0.00000001
 40
0.0
 40
0.0
 40
0.0
 40
0.0
 40
0.5
 40
0.5
 40
1.0
 40
1.0
 40
1.0
 40
1.0
 10
5.962315328507779
 20
1.238028532461982
 30
0.0
 10
5.962315328507779
 20
0.9331570256875925
 30
0.0
 10
5.962315328507779
 20
0.568274816340194
 30
0.0
 10
5.962315328507779
 20
-0.1925214702029214
 30
0.0
 10
5.962315328507779
 20
-0.5851607827652113
 30
0.0
 10
5.962315328507779
 20
-0.9384762892963859
 30
0.0
  0
SPLINE
  5
B7
330
1F
100
AcDbEntity
  8
외형선
  6
Continuous
370
    15
100
AcDbSpline
210
0.0
220
0.0
230
1.0
 70
    24
 71
     3
 72
    11
 73
     7
 74
     0
 42
0.000000001
 43
0.00000001
 40
0.0
 40
0.0
 40
0.0
 40
0.0
 40
0.0183655963260562
 40
0.3509886999257436
 40
0.6754943499628717
 40
1.0
 40
1.0
 40
1.0
 40
1.0
 10
5.962315328507778
 20
1.576734282381109
 30
0.0
 10
5.962315328507778
 20
1.57736328464306
 30
0.0
 10
5.962315328507778
 20
1.589384276624638
 30
0.0
 10
5.962315328507778
 20
1.542675130993826
 30
0.0
 10
5.962315328507778
 20
1.436146427025497
 30
0.0
 10
5.962315328507778
 20
1.30406783064982
 30
0.0
 10
5.962315328507778
 20
1.238028532461981
 30
0.0
  0
SPLINE
  5
B8
330
1F
100
AcDbEntity
  8
외형선
  6
Continuous
370
    15
100
AcDbSpline
210
0.0
220
0.0
230
1.0
 70
    24
 71
     3
 72
     9
 73
     5
 74
     0
 42
0.000000001
 43
0.00000001
 40
0.0
 40
0.0
 40
0.0
 40
0.0
 40
0.4085494470692168
 40
1.0
 40
1.0
 40
1.0
 40
1.0
 10
5.962315328507778
 20
1.744688344419629
 30
0.0
 10
5.962315328507778
 20
1.72621367904714
 30
0.0
 10
5.962315328507778
 20
1.680993533713399
 30
0.0
 10
5.962315328507778
 20
1.644121882209042
 30
0.0
 10
5.962315328507778
 20
1.62231412353932
 30
0.0
  0
SPLINE
  5
B9
330
1F
100
AcDbEntity
  8
0
  6
Continuous
 62
     1
370
    15
100
AcDbSpline
210
0.0
220
0.0
230
1.0
 70
     8
 71
     3
 72
    13
 73
     9
 74
     0
 42
0.000000001
 43
0.00000001
 40
0.0
 40
0.0
 40
0.0
 40
0.0
 40
0.1694265036427227
 40
0.3387568975966112
 40
0.5080180891542605
 40
0.6772373153528743
 40
0.84644201391366
 40
0.9999999999999999
 40
0.9999999999999999
 40
0.9999999999999999
 40
0.9999999999999999
 10
21.83731532850778
 20
-1.878740204526815
 30
0.0
 10
21.487712096359
 20
-1.803211769013025
 30
0.0
 10
20.78870394966309
 20
-1.652197742607031
 30
0.0
 10
19.74055188125354
 20
-1.287256117001748
 30
0.0
 10
18.69288329345841
 20
-0.8481435278045267
 30
0.0
 10
17.64551403766195
 20
-0.3532165622142537
 30
0.0
 10
16.63055626190826
 20
0.1510691163228809
 30
0.0
 10
15.96468353112732
 20
0.4678431885488948
 30
0.0
 10
15.64788707232873
 20
0.6185520247595514
 30
0.0
  0
LINE
  5
BA
330
1F
100
AcDbEntity
  8
0
  6
Continuous
 62
     1
370
    15
100
AcDbLine
 10
21.83731532850778
 20
-1.987323588009472
 30
0.0
 11
21.83731532850778
 21
-1.878740204526815
 31
0.0
  0
SPLINE
  5
BB
330
1F
100
AcDbEntity
  8
0
  6
Continuous
 62
     1
370
    15
100
AcDbSpline
210
0.0
220
0.0
230
1.0
 70
     8
 71
     3
 72
    10
 73
     6
 74
     0
 42
0.000000001
 43
0.00000001
 40
0.0
 40
0.0
 40
0.0
 40
0.0
 40
0.5
 40
0.5
 40
1.0
 40
1.0
 40
1.0
 40
1.0
 10
21.58331532850779
 20
-2.208984327266788
 30
0.0
 10
21.64388213934479
 20
-2.222041109116424
 30
0.0
 10
21.70941582569801
 20
-2.210111832236292
 30
0.0
 10
21.80852331603263
 20
-2.126985125941053
 30
0.0
 10
21.83731532850778
 20
-2.057386471887814
 30
0.0
 10
21.83731532850778
 20
-1.987323588009473
 30
0.0
  0
SPLINE
  5
BC
330
1F
100
AcDbEntity
  8
0
  6
Continuous
 62
     1
370
    15
100
AcDbSpline
210
0.0
220
0.0
230
1.0
 70
     8
 71
     3
 72
    19
 73
    15
 74
     0
 42
0.000000001
 43
0.00000001
 40
0.0
 40
0.0
 40
0.0
 40
0.0
 40
0.0861412641023178
 40
0.1723414359806176
 40
0.258440430188754
 40
0.3444758477767217
 40
0.4304981983777116
 40
0.5150230827766361
 40
0.5996571684621065
 40
0.6843046593076394
 40
0.7688372161741994
 40
0.8550499471372988
 40
0.9412697603864074
 40
1.0
 40
1.0
 40
1.0
 40
1.0
 10
21.58331532850775
 20
-2.208984327266781
 30
0.0
 10
21.25655056912691
 20
-2.126486431565501
 30
0.0
 10
20.6027975920094
 20
-1.961434223907504
 30
0.0
 10
19.62214230317489
 20
-1.570797507916895
 30
0.0
 10
18.64227861605001
 20
-1.100565274176762
 30
0.0
 10
17.66320428386176
 20
-0.5662840768439786
 30
0.0
 10
16.69011890218186
 20
-0.004241032537903
 30
0.0
 10
15.7223355779534
 20
0.5548245813983633
 30
0.0
 10
14.75941185486805
 20
1.080277014005515
 30
0.0
 10
13.79640054776051
 20
1.546824092461868
 30
0.0
 10
12.82780833069313
 20
1.933757628664122
 30
0.0
 10
11.8532532697701
 20
2.210961394617668
 30
0.0
 10
10.9765864627487
 20
2.365836836976972
 30
0.0
 10
10.4267625919412
 20
2.366387660534215
 30
0.0
 10
10.20398731838967
 20
2.366610840856421
 30
0.0
  0
SPLINE
  5
BD
330
1F
100
AcDbEntity
  8
0
  6
Continuous
 62
     1
370
    15
100
AcDbSpline
210
0.0
220
0.0
230
1.0
 70
     8
 71
     3
 72
    16
 73
    12
 74
     0
 42
0.000000001
 43
0.00000001
 40
0.0
 40
0.0
 40
0.0
 40
0.0
 40
0.0467135021962122
 40
0.1788515913502371
 40
0.3110446755429433
 40
0.443314635317198
 40
0.5755943530239089
 40
0.7077950565930851
 40
0.8399382699806375
 40
0.978669417180544
 40
1.0
 40
1.0
 40
1.0
 40
1.0
 10
15.92127330103016
 20
-0.2245274506663495
 30
0.0
 10
15.79782768977609
 20
-0.1756445314231744
 30
0.0
 10
15.32519252049986
 20
0.0115130886534449
 30
0.0
 10
14.50319771648814
 20
0.3480051859423551
 30
0.0
 10
13.45506844128655
 20
0.750376795977483
 30
0.0
 10
12.40648254273264
 20
1.105829193971805
 30
0.0
 10
11.35786466051388
 20
1.389251415174388
 30
0.0
 10
10.3096637538101
 20
1.586254109396572
 30
0.0
 10
9.244484642477834
 20
1.672832086209226
 30
0.0
 10
8.472232460569094
 20
1.682537580986164
 30
0.0
 10
8.049226643146943
 20
1.628314693515749
 30
0.0
 10
7.992854888196254
 20
1.621088695197739
 30
0.0
  0
SPLINE
  5
BE
330
1F
100
AcDbEntity
  8
외형선
  6
Continuous
370
    15
100
AcDbSpline
210
0.0
220
0.0
230
1.0
 70
    24
 71
     3
 72
     9
 73
     5
 74
     0
 42
0.000000001
 43
0.00000001
 40
0.0
 40
0.0
 40
0.0
 40
0.0
 40
0.4085494470692075
 40
1.0
 40
1.0
 40
1.0
 40
1.0
 10
5.962315328507781
 20
1.74468834441963
 30
0.0
 10
5.962315328507783
 20
1.726213679047141
 30
0.0
 10
5.962315328507785
 20
1.6809935337134
 30
0.0
 10
5.962315328507783
 20
1.644121882209043
 30
0.0
 10
5.962315328507783
 20
1.62231412353932
 30
0.0
  0
SPLINE
  5
BF
330
1F
100
AcDbEntity
  8
0
  6
Continuous
 62
     1
370
    15
100
AcDbSpline
210
0.0
220
0.0
230
1.0
 70
     8
 71
     3
 72
    52
 73
    48
 74
     0
 42
0.000000001
 43
0.00000001
 40
0.0
 40
0.0
 40
0.0
 40
0.0
 40
0.0624999999999999
 40
0.0624999999999999
 40
0.1249999999999999
 40
0.1249999999999999
 40
0.15625
 40
0.15625
 40
0.1875000000000001
 40
0.1875000000000001
 40
0.2187500000000002
 40
0.2187500000000002
 40
0.2500000000000003
 40
0.2500000000000003
 40
0.3125000000000003
 40
0.3125000000000003
 40
0.3437500000000003
 40
0.3437500000000003
 40
0.3750000000000003
 40
0.3750000000000003
 40
0.4375000000000005
 40
0.4375000000000005
 40
0.5000000000000008
 40
0.5000000000000008
 40
0.5312500000000008
 40
0.5312500000000008
 40
0.5625000000000007
 40
0.5625000000000007
 40
0.5937500000000007
 40
0.5937500000000007
 40
0.6250000000000007
 40
0.6250000000000007
 40
0.6875000000000006
 40
0.6875000000000006
 40
0.7187500000000006
 40
0.7187500000000006
 40
0.7500000000000006
 40
0.7500000000000006
 40
0.8125000000000003
 40
0.8125000000000003
 40
0.8750000000000002
 40
0.8750000000000002
 40
0.9062500000000002
 40
0.9062500000000002
 40
0.9375000000000001
 40
0.9375000000000001
 40
1.0
 40
1.0
 40
1.0
 40
1.0
 10
21.58331532850778
 20
-2.381249999999997
 30
0.0
 10
21.25784243003727
 20
-2.364692717439869
 30
0.0
 10
20.92934270010951
 20
-2.307653413280952
 30
0.0
 10
20.28342162182253
 20
-2.182784727551077
 30
0.0
 10
19.95295480087452
 20
-2.098722968935139
 30
0.0
 10
19.46652973855206
 20
-1.945293461493005
 30
0.0
 10
19.30567374602734
 20
-1.88965184568786
 30
0.0
 10
18.97948914074415
 20
-1.76929366067613
 30
0.0
 10
18.8155188115026
 20
-1.704714626663081
 30
0.0
 10
18.48926369469959
 20
-1.568110387876737
 30
0.0
 10
18.3283174557391
 20
-1.496299613846215
 30
0.0
 10
18.00416198602181
 20
-1.345735044803074
 30
0.0
 10
17.84050294697796
 20
-1.266888187297931
 30
0.0
 10
17.34991193862227
 20
-1.022050395072146
 30
0.0
 10
17.02837941175991
 20
-0.8486719596353817
 30
0.0
 10
16.53834379361457
 20
-0.577819992223923
 30
0.0
 10
16.37441967682729
 20
-0.4858611745389271
 30
0.0
 10
16.04885200980077
 20
-0.3005320042215743
 30
0.0
 10
15.88838668809158
 20
-0.2073933898586484
 30
0.0
 10
15.40066353935127
 20
0.0740279437694591
 30
0.0
 10
15.07107560600353
 20
0.26354082446969
 30
0.0
 10
14.42616738502809
 20
0.631483690908975
 30
0.0
 10
14.0957617515517
 20
0.8127305914917039
 30
0.0
 10
13.60874832516791
 20
1.069184409246077
 30
0.0
 10
13.4481218750904
 20
1.152086976673385
 30
0.0
 10
13.12218353160074
 20
1.312928063106246
 30
0.0
 10
12.95822312322034
 20
1.390620579913759
 30
0.0
 10
12.63176073953157
 20
1.538908849427804
 30
0.0
 10
12.4704635794042
 20
1.609340124466674
 30
0.0
 10
12.14673855090254
 20
1.742575467379964
 30
0.0
 10
11.98318397586573
 20
1.805512174647001
 30
0.0
 10
11.49256324306589
 20
1.981175436106577
 30
0.0
 10
11.17083673339264
 20
2.080216494502102
 30
0.0
 10
10.68105292254164
 20
2.199113204155559
 30
0.0
 10
10.51709890062854
 20
2.233730814876902
 30
0.0
 10
10.1912458166736
 20
2.292231433365985
 30
0.0
 10
10.03067335643627
 20
2.316077315808855
 30
0.0
 10
9.543480537365273
 20
2.371567354350011
 30
0.0
 10
9.213101095633464
 20
2.386691276049165
 30
0.0
 10
8.568529822215917
 20
2.372284342485327
 30
0.0
 10
8.238576792862801
 20
2.342654458305495
 30
0.0
 10
7.751018917833106
 20
2.266087742045513
 30
0.0
 10
7.590529336298953
 20
2.235351688544123
 30
0.0
 10
7.264866915153672
 20
2.163310134455461
 30
0.0
 10
7.100931560351677
 20
2.122053418487328
 30
0.0
 10
6.610971814918285
 20
1.983829271398727
 30
0.0
 10
6.289385624241161
 20
1.872770740492883
 30
0.0
 10
5.962315328507776
 20
1.74468834441963
 30
0.0
  0
SPLINE
  5
C1
330
1F
100
AcDbEntity
  8
0
  6
Continuous
 62
     1
370
    15
100
AcDbSpline
210
0.0
220
0.0
230
1.0
 70
     8
 71
     3
 72
     8
 73
     4
 74
     0
 42
0.000000001
 43
0.00000001
 40
0.0
 40
0.0
 40
0.0
 40
0.0
 40
1.0
 40
1.0
 40
1.0
 40
1.0
 10
20.36324664702321
 20
0.6667656290396481
 30
0.0
 10
20.25672023184202
 20
0.7929948216216134
 30
0.0
 10
20.16429170132938
 20
0.9136234360926362
 30
0.0
 10
20.09131708917656
 20
1.025850592335399
 30
0.0
  0
LINE
  5
C2
330
1F
100
AcDbEntity
  8
0
  6
Continuous
 62
     1
370
    15
100
AcDbLine
 10
20.09131708917655
 20
1.025850592335399
 30
0.0
 11
21.83731532850778
 21
0.000000000000001
 31
0.0
  0
LINE
  5
C3
330
1F
100
AcDbEntity
  8
0
  6
Continuous
 62
     1
370
    15
100
AcDbLine
 10
21.83731532850778
 20
0.000000000000001
 30
0.0
 11
21.83731532850778
 21
-0.636372265233091
 31
0.0
  0
SPLINE
  5
C4
330
1F
100
AcDbEntity
  8
0
  6
Continuous
 62
     1
370
    15
100
AcDbSpline
210
0.0
220
0.0
230
1.0
 70
     8
 71
     3
 72
    10
 73
     6
 74
     0
 42
0.000000001
 43
0.00000001
 40
0.0
 40
0.0
 40
0.0
 40
0.0
 40
0.5
 40
0.5
 40
1.0
 40
1.0
 40
1.0
 40
1.0
 10
21.83731532850778
 20
-0.6363722652330909
 30
0.0
 10
21.58214040559314
 20
-0.4357598858607716
 30
0.0
 10
21.33123166978615
 20
-0.226917031129322
 30
0.0
 10
20.83815541534904
 20
0.2076325360986607
 30
0.0
 10
20.59369538424014
 20
0.4356364190385493
 30
0.0
 10
20.36324664702322
 20
0.6667656290396443
 30
0.0
  0
SPLINE
  5
C5
330
1F
100
AcDbEntity
  8
외형선
  6
Continuous
370
    15
100
AcDbSpline
210
0.0
220
0.0
230
1.0
 70
    24
 71
     3
 72
     8
 73
     4
 74
     0
 42
0.000000001
 43
0.00000001
 40
0.0
 40
0.0
 40
0.0
 40
0.0
 40
1.0
 40
1.0
 40
1.0
 40
1.0
 10
5.96231532850779
 20
-0.9384762892963913
 30
0.0
 10
5.96231532850779
 20
-1.028328423828138
 30
0.0
 10
5.96231532850779
 20
-1.125843016892485
 30
0.0
 10
5.96231532850779
 20
-1.229245414027782
 30
0.0
  0
SPLINE
  5
C6
330
1F
100
AcDbEntity
  8
0
  6
Continuous
 62
     1
370
    15
100
AcDbSpline
210
0.0
220
0.0
230
1.0
 70
     8
 71
     3
 72
    13
 73
     9
 74
     0
 42
0.000000001
 43
0.00000001
 40
0.0
 40
0.0
 40
0.0
 40
0.0
 40
0.1855127877127738
 40
0.3817732390758694
 40
0.5779832464920095
 40
0.7741746146652175
 40
0.8871815134266003
 40
1.0
 40
1.0
 40
1.0
 40
1.0
 10
11.29991028384819
 20
-1.978050514026273
 30
0.0
 10
10.96979654095083
 20
-2.001459957183064
 30
0.0
 10
10.29044395052718
 20
-2.049635067099302
 30
0.0
 10
9.262027034305262
 20
-1.959605392220837
 30
0.0
 10
8.21465390021188
 20
-1.752884127144735
 30
0.0
 10
7.315386672694061
 20
-1.475285689425132
 30
0.0
 10
6.564581327898157
 20
-1.194784440758461
 30
0.0
 10
6.162958966861471
 20
-1.023864805502041
 30
0.0
 10
5.962315328507781
 20
-0.9384762892963878
 30
0.0
  0
SPLINE
  5
C7
330
1F
100
AcDbEntity
  8
0
  6
Continuous
 62
     1
370
    15
100
AcDbSpline
210
0.0
220
0.0
230
1.0
 70
     8
 71
     3
 72
    15
 73
    11
 74
     0
 42
0.000000001
 43
0.00000001
 40
0.0
 40
0.0
 40
0.0
 40
0.0
 40
0.0150060570357192
 40
0.1556238526297075
 40
0.2962531998290709
 40
0.4369739163039232
 40
0.5778601348488199
 40
0.7186951319352397
 40
0.8593820184924216
 40
1.0
 40
1.0
 40
1.0
 40
1.0
 10
12.93886490227977
 20
-1.871638665481578
 30
0.0
 10
12.90396996782299
 20
-1.885568396366261
 30
0.0
 10
12.54208382248188
 20
-2.030029954869555
 30
0.0
 10
11.8532691404527
 20
-2.207826934182535
 30
0.0
 10
10.87209681827637
 20
-2.374126438751995
 30
0.0
 10
9.890213015078363
 20
-2.396355874030825
 30
0.0
 10
8.907494338416209
 20
-2.28650823398508
 30
0.0
 10
7.924986146950351
 20
-2.045635485262108
 30
0.0
 10
6.943358259199243
 20
-1.694482539375234
 30
0.0
 10
6.289276233386706
 20
-1.384299129551219
 30
0.0
 10
5.962315328504772
 20
-1.229245414033755
 30
0.0
  0
SPLINE
  5
C8
330
1F
100
AcDbEntity
  8
0
  6
Continuous
 62
     1
370
    15
100
AcDbSpline
210
0.0
220
0.0
230
1.0
 70
     8
 71
     3
 72
    11
 73
     7
 74
     0
 42
0.000000001
 43
0.00000001
 40
0.0
 40
0.0
 40
0.0
 40
0.0
 40
0.3171191791755866
 40
0.6343995213678549
 40
0.9520259223232861
 40
0.9999999999999999
 40
0.9999999999999999
 40
0.9999999999999999
 40
0.9999999999999999
 10
5.962315328507781
 20
-1.744688344419634
 30
0.0
 10
6.288559720110831
 20
-1.864115765567451
 30
0.0
 10
6.941214303854329
 20
-2.103031302027082
 30
0.0
 10
7.920710465320996
 20
-2.305298774349212
 30
0.0
 10
8.62350816730677
 20
-2.396373169241291
 30
0.0
 10
8.99977568341896
 20
-2.375406827763349
 30
0.0
 10
9.049149489254024
 20
-2.372655625416944
 30
0.0
  0
SPLINE
  5
C9
330
1F
100
AcDbEntity
  8
0
  6
Continuous
 62
     1
370
    15
100
AcDbSpline
210
0.0
220
0.0
230
1.0
 70
     8
 71
     3
 72
    11
 73
     7
 74
     0
 42
0.000000001
 43
0.00000001
 40
0.0
 40
0.0
 40
0.0
 40
0.0
 40
0.0236910122563766
 40
0.3489543388984437
 40
0.67459026522655
 40
1.0
 40
1.0
 40
1.0
 40
1.0
 10
18.56410504701848
 20
1.596186537239656
 30
0.0
 10
18.58794177814013
 20
1.607315413625491
 30
0.0
 10
18.93904246814202
 20
1.771237058672811
 30
0.0
 10
19.61787255170695
 20
2.00463403107417
 30
0.0
 10
20.60066584291625
 20
2.272849012652878
 30
0.0
 10
21.00271576149876
 20
2.336728533556556
 30
0.0
 10
21.58331532850778
 20
2.381250000000003
 30
0.0
  0
SPLINE
  5
CA
330
1F
100
AcDbEntity
  8
0
  6
Continuous
 62
     1
370
    15
100
AcDbSpline
210
0.0
220
0.0
230
1.0
 70
     8
 71
     3
 72
    13
 73
     9
 74
     0
 42
0.000000001
 43
0.00000001
 40
0.0
 40
0.0
 40
0.0
 40
0.0
 40
0.113556052783599
 40
0.3045875211147493
 40
0.4955709637713643
 40
0.6865377775069568
 40
0.877519439060126
 40
0.9999999999999999
 40
0.9999999999999999
 40
0.9999999999999999
 40
0.9999999999999999
 10
20.36324664702322
 20
0.6667656290396409
 30
0.0
 10
20.15562822398467
 20
0.7548327548726325
 30
0.0
 10
19.59874042046462
 20
0.9910521979725939
 30
0.0
 10
18.69288297999125
 20
1.329189343288053
 30
0.0
 10
17.645494465745
 20
1.63796407313033
 30
0.0
 10
16.59822516084925
 20
1.836190194744545
 30
0.0
 10
15.67616560578777
 20
1.923278091472271
 30
0.0
 10
15.1031530122045
 20
1.890753886210538
 30
0.0
 10
14.87925712028646
 20
1.878045551302114
 30
0.0
  0
SPLINE
  5
CB
330
1F
100
AcDbEntity
  8
0
  6
Continuous
 62
     1
370
    15
100
AcDbSpline
210
0.0
220
0.0
230
1.0
 70
    24
 71
     3
 72
    10
 73
     6
 74
     0
 42
0.000000001
 43
0.00000001
 40
0.0
 40
0.0
 40
0.0
 40
0.0
 40
0.5
 40
0.5
 40
1.0
 40
1.0
 40
1.0
 40
1.0
 10
21.83731532850778
 20
-1.878740204526815
 30
0.0
 10
21.83731532850778
 20
-1.73472012006531
 30
0.0
 10
21.83731532850778
 20
-1.552745221052278
 30
0.0
 10
21.83731532850778
 20
-1.129671093977556
 30
0.0
 10
21.83731532850778
 20
-0.888938348765931
 30
0.0
 10
21.83731532850778
 20
-0.636372265233167
 30
0.0
  0
SPLINE
  5
CC
330
1F
100
AcDbEntity
  8
0
  6
Continuous
 62
     1
370
    15
100
AcDbSpline
210
0.0
220
0.0
230
1.0
 70
     8
 71
     3
 72
    19
 73
    15
 74
     0
 42
0.000000001
 43
0.00000001
 40
0.0
 40
0.0
 40
0.0
 40
0.0
 40
0.0183613679070354
 40
0.1150251863391794
 40
0.2117124154201155
 40
0.308438838280059
 40
0.4052200505035348
 40
0.5020082100558924
 40
0.5987400572280536
 40
0.6954309341723011
 40
0.7920966065286285
 40
0.8887529609302788
 40
0.9444235065328666
 40
1.0
 40
1.0
 40
1.0
 40
1.0
 10
16.7971862017986
 20
-1.781625757915137
 30
0.0
 10
16.73087445322963
 20
-1.794813312499016
 30
0.0
 10
16.31546307025205
 20
-1.877427033385659
 30
0.0
 10
15.55086198674984
 20
-1.917255647591092
 30
0.0
 10
14.5032101857143
 20
-1.8859387840453
 30
0.0
 10
13.45508372874329
 20
-1.723534753884273
 30
0.0
 10
12.40649207979442
 20
-1.453140477020744
 30
0.0
 10
11.35786263689128
 20
-1.088756663040878
 30
0.0
 10
10.30967322485818
 20
-0.6545596440458917
 30
0.0
 10
9.26197381363523
 20
-0.1784223564573403
 30
0.0
 10
8.214596101400103
 20
0.309316952649528
 30
0.0
 10
7.31534025630239
 20
0.710386397019854
 30
0.0
 10
6.564558152571886
 20
1.018735928847254
 30
0.0
 10
6.162949758604341
 20
1.164972209011378
 30
0.0
 10
5.962315328507781
 20
1.238028532461981
 30
0.0
  0
SPLINE
  5
CD
330
1F
100
AcDbEntity
  8
외형선
  6
Continuous
370
    15
100
AcDbSpline
210
0.0
220
0.0
230
1.0
 70
    24
 71
     3
 72
    10
 73
     6
 74
     0
 42
0.000000001
 43
0.00000001
 40
0.0
 40
0.0
 40
0.0
 40
0.0
 40
0.5
 40
0.5
 40
1.0
 40
1.0
 40
1.0
 40
1.0
 10
5.962315328507779
 20
1.238028532461982
 30
0.0
 10
5.962315328507779
 20
0.9331570256875925
 30
0.0
 10
5.962315328507779
 20
0.568274816340194
 30
0.0
 10
5.962315328507779
 20
-0.1925214702029214
 30
0.0
 10
5.962315328507779
 20
-0.5851607827652113
 30
0.0
 10
5.962315328507779
 20
-0.9384762892963859
 30
0.0
  0
SPLINE
  5
CE
330
1F
100
AcDbEntity
  8
외형선
  6
Continuous
370
    15
100
AcDbSpline
210
0.0
220
0.0
230
1.0
 70
    24
 71
     3
 72
    11
 73
     7
 74
     0
 42
0.000000001
 43
0.00000001
 40
0.0
 40
0.0
 40
0.0
 40
0.0
 40
0.0248909060066551
 40
0.3553029331100557
 40
0.6776514665550278
 40
0.9999999999999999
 40
0.9999999999999999
 40
0.9999999999999999
 40
0.9999999999999999
 10
5.962315328507783
 20
1.576082918231433
 30
0.0
 10
5.962315328507783
 20
1.576956256912274
 30
0.0
 10
5.962315328507783
 20
1.589422649048358
 30
0.0
 10
5.962315328507783
 20
1.542855997983439
 30
0.0
 10
5.962315328507783
 20
1.43610167670379
 30
0.0
 10
5.962315328507783
 20
1.304052913875917
 30
0.0
 10
5.962315328507783
 20
1.23802853246198
 30
0.0
  0
LINE
  5
CF
330
1F
100
AcDbEntity
  8
0
  6
Continuous
 62
     1
370
    15
100
AcDbLine
 10
21.83731532850778
 20
1.666874999999999
 30
0.0
 11
20.94998194233749
 21
1.621577649705101
 31
0.0
  0
SPLINE
  5
D0
330
1F
100
AcDbEntity
  8
0
  6
Continuous
 62
     1
370
    15
100
AcDbSpline
210
0.0
220
0.0
230
1.0
 70
     8
 71
     3
 72
    10
 73
     6
 74
     0
 42
0.000000001
 43
0.00000001
 40
0.0
 40
0.0
 40
0.0
 40
0.0
 40
0.5
 40
0.5
 40
1.0
 40
1.0
 40
1.0
 40
1.0
 10
21.83731532850778
 20
1.666875000000001
 30
0.0
 10
21.54099083933531
 20
1.586424527870696
 30
0.0
 10
21.24687035382046
 20
1.494324634132242
 30
0.0
 10
20.6637349557129
 20
1.283138969693983
 30
0.0
 10
20.3745540468701
 20
1.164731763184976
 30
0.0
 10
20.09131708917513
 20
1.025850592336505
 30
0.0
  0
SPLINE
  5
D2
330
1F
100
AcDbEntity
  8
0
  6
Continuous
 62
     1
370
    15
100
AcDbSpline
210
0.0
220
0.0
230
1.0
 70
    24
 71
     3
 72
     8
 73
     4
 74
     0
 42
0.000000001
 43
0.00000001
 40
0.0
 40
0.0
 40
0.0
 40
0.0
 40
1.0
 40
1.0
 40
1.0
 40
1.0
 10
21.83731532850778
 20
1.666874999999999
 30
0.0
 10
21.83731532850778
 20
1.799051679953651
 30
0.0
 10
21.83731532850778
 20
1.959901200163837
 30
0.0
 10
21.83731532850778
 20
2.123431178816543
 30
0.0
  0
LINE
  5
D3
330
1F
100
AcDbEntity
  8
0
  6
Continuous
 62
     1
370
    15
100
AcDbLine
 10
21.83731532850778
 20
0.000000000000001
 30
0.0
 11
21.83731532850778
 21
1.666875000000001
 31
0.0
  0
LINE
  5
D4
330
1F
100
AcDbEntity
  8
0
  6
Continuous
 62
     1
370
    15
100
AcDbLine
 10
21.83731532850778
 20
-1.987323588009472
 30
0.0
 11
21.83731532850778
 21
-2.123431178816544
 31
0.0
  0
LINE
  5
D5
330
1F
100
AcDbEntity
  8
중심선
 48
0.8
100
AcDbLine
 10
-44.66268467149223
 20
-0.000000000000005
 30
0.0
 11
24.83731532850778
 21
0.0000000000000035
 31
0.0
  0
LINE
  5
D6
330
1F
100
AcDbEntity
  8
참조1
100
AcDbLine
 10
-5.874999999999998
 20
0.0010749287238892
 30
0.0
 11
-5.874999999999993
 21
-39.99892507127611
 31
0.0
  0
LINE
  5
D7
330
1F
100
AcDbEntity
  8
참조1
100
AcDbLine
 10
-5.874999999999993
 20
-39.99892507127611
 30
0.0
 11
-14.66672777521594
 21
-39.9989250712761
 31
0.0
  0
CIRCLE
  5
D8
330
1F
100
AcDbEntity
  8
해칭선
100
AcDbCircle
 10
0.0
 20
0.0
 30
0.0
 40
3.000000000000001
  0
INSERT
  5
D9
330
1F
100
AcDbEntity
  8
0
  6
Continuous
 62
     7
100
AcDbBlockReference
 66
     1
  2
블럭10
 10
-23.85295760361744
 20
-52.04717430164393
 30
0.0
  0
ATTRIB
  5
DA
330
D9
100
AcDbEntity
  8
FORMAT
 62
     2
100
AcDbText
 10
-33.99459361575407
 20
-49.97180738881175
 30
0.0
 40
4.233333333333333
  1
EM637012 [ 2 FLUTE ]
 41
0.75
  7
SLDTEXTSTYLE0
 11
-33.99459361575407
 21
-52.08847405547841
 31
0.0
100
AcDbAttribute
  2
AUTOATTR0
 70
     0
 74
     1
  0
SEQEND
  5
DB
330
D9
100
AcDbEntity
  8
0
  6
Continuous
 62
     7
  0
HATCH
  5
DC
330
1F
100
AcDbEntity
  8
중심선
100
AcDbHatch
 10
0.0
 20
0.0
 30
0.0
210
0.0
220
0.0
230
1.0
  2
SOLID
 70
     1
 71
     0
 91
        1
 92
        0
 93
        4
 72
     1
 10
-18.13804829923659
 20
-35.8
 11
-21.58432354307388
 21
-35.8
 72
     1
 10
-21.58432354307388
 20
-35.8
 11
-23.7125534022779
 21
-38.3363255805726
 72
     1
 10
-23.7125534022779
 20
-38.3363255805726
 11
-20.26624507332747
 21
-38.33628615127011
 72
     1
 10
-20.26624507332747
 20
-38.33628615127011
 11
-18.13804829923659
 21
-35.8
 97
        0
 75
     0
 76
     1
 98
        1
 10
-4.037684671492235
 20
-0.0010749287238943
  0
HATCH
  5
DD
330
1F
100
AcDbEntity
  8
중심선
100
AcDbHatch
 10
0.0
 20
0.0
 30
0.0
210
0.0
220
0.0
230
1.0
  2
SOLID
 70
     1
 71
     0
 91
        1
 92
        0
 93
        4
 72
     1
 10
-13.12528430820062
 20
-35.8
 11
-16.57155955203787
 21
-35.8
 72
     1
 10
-16.57155955203787
 20
-35.8
 11
-21.10269756039531
 21
-41.20000000000002
 72
     1
 10
-21.10269756039531
 20
-41.20000000000002
 11
-17.65642231655803
 21
-41.20000000000002
 72
     1
 10
-17.65642231655803
 20
-41.20000000000002
 11
-13.12528430820062
 21
-35.8
 97
        0
 75
     0
 76
     1
 98
        1
 10
-4.037684671492235
 20
-0.0010749287238943
  0
HATCH
  5
DE
330
1F
100
AcDbEntity
  8
중심선
100
AcDbHatch
 10
0.0
 20
0.0
 30
0.0
210
0.0
220
0.0
230
1.0
  2
SOLID
 70
     1
 71
     0
 91
        1
 92
        0
 93
        4
 72
     1
 10
-8.11252031716475
 20
-35.80000000000003
 11
-11.55879556100184
 21
-35.8
 72
     1
 10
-11.55879556100184
 20
-35.8
 11
-18.60723246289111
 21
-44.20000000000002
 72
     1
 10
-18.60723246289111
 20
-44.20000000000002
 11
-15.16095721905383
 21
-44.20000000000002
 72
     1
 10
-15.16095721905383
 20
-44.20000000000002
 11
-8.11252031716475
 21
-35.80000000000003
 97
        0
 75
     0
 76
     1
 98
        1
 10
-4.037684671492235
 20
-0.0010749287238943
  0
HATCH
  5
DF
330
1F
100
AcDbEntity
  8
중심선
100
AcDbHatch
 10
0.0
 20
0.0
 30
0.0
210
0.0
220
0.0
230
1.0
  2
SOLID
 70
     1
 71
     0
 91
        1
 92
        0
 93
        6
 72
     3
 10
-3.31262988615255
 20
-40.00000000005127
 11
3.960054785062283
 21
1.540882976769353E-10
 40
0.3939339440162628
 50
17.09539180608437
 51
320.0019657685086
 73
     0
 72
     1
 10
-1.629630230451954
 20
-38.58789400463833
 11
0.6756716432490837
 21
-36.65356729459038
 72
     3
 10
-3.312629886205396
 20
-40.00000000000015
 11
6.600054785286829
 21
-1.278976924368180E-13
 40
0.636358354079598
 50
39.9987384933741
 51
368.4976242363725
 73
     1
 72
     1
 10
3.112702605695213
 20
-39.03999999993002
 11
-4.632562579369474
 21
-39.03999999993002
 72
     1
 10
-4.632562579369474
 20
-39.03999999993002
 11
-4.632587623815408
 21
-40.95999999992991
 72
     1
 10
-4.632587623815407
 20
-40.95999999992991
 11
-0.1912078543433697
 21
-40.95999999992988
 97
        0
 75
     0
 76
     1
 98
        1
 10
-4.037684671492235
 20
-0.0010749287238943
  0
DIMENSION
  5
E0
330
1F
100
AcDbEntity
  8
치수문자_일반주서
100
AcDbDimension
  2
_D
 10
-54.35268467149221
 20
-3.175000000000063
 30
0.0
 11
-54.35268467149223
 21
-0.0000000000000149
 31
0.0
 70
   160
  1
%%c<>
 71
     2
 42
6.349999999999994
 52
-270.0
  3
SLDDIMSTYLE0
100
AcDbAlignedDimension
 13
-40.85268467149221
 23
3.174999999999982
 33
0.0
 14
-40.85268467149221
 24
-3.175000000000012
 34
0.0
 50
90.0000000000002
100
AcDbRotatedDimension
1001
ACAD
1000
DSTYLE
1002
{
1070
   171
1070
     6
1070
   273
1070
     7
1002
}
  0
DIMENSION
  5
F5
330
1F
100
AcDbEntity
  8
치수문자_일반주서
100
AcDbDimension
  2
_D_1
 10
37.28225783107892
 20
-2.381249999999941
 30
0.0
 11
37.28225783107884
 21
22.98525000000008
 31
0.0
 70
   160
  1
%%c<>
 71
     2
 42
4.762499999999999
 52
-270.0
  3
SLDDIMSTYLE0
100
AcDbAlignedDimension
 13
21.83731532850778
 23
2.381250000000003
 33
0.0
 14
21.83731532850778
 24
-2.381249999999997
 34
0.0
 50
90.0000000000002
100
AcDbRotatedDimension
1001
ACAD
1000
DSTYLE
1002
{
1070
   171
1070
     6
1070
   273
1070
     7
1002
}
  0
DIMENSION
  5
109
330
1F
100
AcDbEntity
  8
치수문자_일반주서
100
AcDbDimension
  2
_D_2
 10
5.962315328507778
 20
12.6396005603483
 30
0.0
 11
-13.32918467149222
 21
12.6396005603483
 31
0.0
 70
   160
  1
<>
 71
     2
 42
15.87500000000001
  3
SLDDIMSTYLE0
100
AcDbAlignedDimension
 13
21.83731532850778
 23
2.381250000000003
 33
0.0
 14
5.962315328507778
 24
1.578673065219676
 34
0.0
 50
0.0000000000000064
100
AcDbRotatedDimension
1001
ACAD
1000
DSTYLE
1002
{
1070
   171
1070
     6
1070
   273
1070
     7
1002
}
  0
DIMENSION
  5
11E
330
1F
100
AcDbEntity
  8
치수문자_일반주서
100
AcDbDimension
  2
_D_3
 10
-41.66268467149222
 20
24.63960056034825
 30
0.0
 11
-10.19842547390664
 21
24.63960056034825
 31
0.0
 70
   160
  1
<>
 71
     2
 42
63.50000000000001
  3
SLDDIMSTYLE0
100
AcDbAlignedDimension
 13
21.83731532850778
 23
2.381250000000003
 33
0.0
 14
-41.66268467149222
 24
2.364999999999994
 34
0.0
 50
0.0000000000000064
100
AcDbRotatedDimension
1001
ACAD
1000
DSTYLE
1002
{
1070
   171
1070
     6
1070
   273
1070
     7
1002
}
  0
LINE
  5
132
330
1F
100
AcDbEntity
  8
참조1
100
AcDbLine
 10
83.30561285443832
 20
7.441074928723896
 30
0.0
 11
83.30561285443832
 21
-7.438925071276109
 31
0.0
  0
LINE
  5
133
330
1F
100
AcDbEntity
  8
참조1
100
AcDbLine
 10
96.00561285443833
 20
5.441074928723896
 30
0.0
 11
83.30561285443832
 21
5.441074928723896
 31
0.0
  0
SOLID
  5
134
330
1F
100
AcDbEntity
  8
참조1
100
AcDbTrace
 10
83.30561285443832
 20
5.441074928723896
 30
0.0
 11
89.65561285443832
 21
4.425074928723896
 31
0.0
 12
89.65561285443832
 22
6.457074928723896
 32
0.0
 13
89.65561285443832
 23
6.457074928723896
 33
0.0
  0
LINE
  5
135
330
1F
100
AcDbEntity
  8
참조1
100
AcDbLine
 10
96.00561285443833
 20
-5.438925071276109
 30
0.0
 11
83.30561285443832
 21
-5.438925071276109
 31
0.0
  0
SOLID
  5
136
330
1F
100
AcDbEntity
  8
참조1
100
AcDbTrace
 10
83.30561285443832
 20
-5.438925071276109
 30
0.0
 11
89.65561285443832
 21
-6.454925071276109
 31
0.0
 12
89.65561285443832
 22
-4.422925071276109
 32
0.0
 13
89.65561285443832
 23
-4.422925071276109
 33
0.0
  0
MTEXT
  5
137
330
1F
100
AcDbEntity
  8
참조1
100
AcDbMText
 10
92.7031029469086
 20
10.98929157337383
 30
0.0
 40
3.5
 41
0.0
 71
     1
 72
     1
  1
A
  7
SLDTEXTSTYLE0
 73
     1
 44
1.0
  0
MTEXT
  5
138
330
1F
100
AcDbEntity
  8
참조1
100
AcDbMText
 10
92.7031029469086
 20
0.1092915733738251
 30
0.0
 40
3.5
 41
0.0
 71
     1
 72
     1
  1
A
  7
SLDTEXTSTYLE0
 73
     1
 44
1.0
  0
INSERT
  5
13F
330
1F
100
AcDbEntity
  8
해칭선
100
AcDbBlockReference
  2
SW_DOWELSYMBOL_0
 10
0.0
 20
0.0
 30
0.0
  0
ARC
  5
364
330
1F
100
AcDbEntity
  8
0
  6
Continuous
 62
     1
370
    15
100
AcDbCircle
 10
21.58331532850778
 20
2.127250000000003
 30
0.0
 40
0.254
100
AcDbArc
 50
359.5627516094586
 51
90.0
  0
ARC
  5
365
102
{ACAD_REACTORS
102
}
330
1F
100
AcDbEntity
  8
0
  6
Continuous
 62
     1
370
    15
100
AcDbCircle
 10
21.58331532850778
 20
-2.127249999999997
 30
0.0
 40
0.254
100
AcDbArc
 50
270.0
 51
0.4372483905413541
  0
DIMENSION
  5
366
102
{ACAD_REACTORS
102
}
102
{ACAD_XDICTIONARY
360
367
102
}
330
1F
100
AcDbEntity
  8
치수문자_일반주서
100
AcDbDimension
  2
*D24
 10
21.58331532850778
 20
-2.127249999999997
 30
0.0
 11
33.35705033498928
 21
-19.07888132443754
 31
0.0
 70
   164
  1
<>
 71
     5
 42
0.2540000000000023
  3
SLDDIMSTYLE0
100
AcDbRadialDimension
 15
21.72821054958637
 25
-2.335867772274046
 35
0.0
 40
0.0
1001
ACAD_DSTYLE_DIMRADIAL_EXTENSION
1070
   387
1070
     1
1070
   388
1040
4.71238898038469
1070
   390
1040
0.0076314240639928
1001
ACAD
1000
DSTYLE
1002
{
1070
   171
1070
     3
1002
}
  0
ENDSEC
  0
SECTION
  2
OBJECTS
  0
DICTIONARY
  5
C
330
0
100
AcDbDictionary
281
     1
  3
ACAD_GROUP
350
D
  3
ACAD_IMAGE_VARS
350
163
  3
ACAD_LAYOUT
350
1A
  3
ACAD_MLINESTYLE
350
17
  3
ACAD_PLOTSETTINGS
350
19
  3
ACAD_PLOTSTYLENAME
350
E
  3
ACAD_SCALELIST
350
47
  3
APPDATA
350
161
  3
DWGPROPS
350
378
  0
DICTIONARY
  5
21C
330
2
100
AcDbDictionary
280
     1
281
     1
  3
ACAD_LAYERSTATES
360
21D
  0
DICTIONARY
  5
367
330
366
100
AcDbDictionary
280
     1
281
     1
  0
DICTIONARY
  5
D
102
{ACAD_REACTORS
330
C
102
}
330
C
100
AcDbDictionary
281
     1
  0
RASTERVARIABLES
  5
163
102
{ACAD_REACTORS
330
C
102
}
330
C
100
AcDbRasterVariables
 90
        0
 70
     1
 71
     1
 72
     1
  0
DICTIONARY
  5
1A
102
{ACAD_REACTORS
330
C
102
}
330
C
100
AcDbDictionary
281
     1
  3
Layout1
350
1E
  3
Layout2
350
26
  3
Model
350
22
  0
DICTIONARY
  5
17
102
{ACAD_REACTORS
330
C
102
}
330
C
100
AcDbDictionary
281
     1
  3
Standard
350
18
  0
DICTIONARY
  5
19
102
{ACAD_REACTORS
330
C
102
}
330
C
100
AcDbDictionary
281
     1
  0
ACDBDICTIONARYWDFLT
  5
E
102
{ACAD_REACTORS
330
C
102
}
330
C
100
AcDbDictionary
281
     1
  3
Normal
350
F
100
AcDbDictionaryWithDefault
340
F
  0
DICTIONARY
  5
47
102
{ACAD_REACTORS
330
C
102
}
330
C
100
AcDbDictionary
281
     1
  3
A0
350
48
  3
A1
350
49
  3
A2
350
4A
  3
A3
350
4B
  3
A4
350
4C
  3
A5
350
4D
  3
A6
350
4E
  3
A7
350
4F
  3
A8
350
50
  3
A9
350
51
  3
B0
350
52
  3
B1
350
53
  3
B2
350
54
  3
B3
350
55
  3
B4
350
56
  3
B5
350
57
  3
B6
350
58
  3
B7
350
59
  3
B8
350
5A
  3
B9
350
5B
  3
C0
350
5C
  3
C1
350
5D
  3
C2
350
5E
  3
C3
350
5F
  3
C4
350
60
  3
C5
350
61
  3
C6
350
62
  3
C7
350
63
  3
C8
350
64
  3
C9
350
65
  3
D0
350
66
  3
D1
350
67
  3
D2
350
68
  0
DICTIONARY
  5
161
102
{ACAD_REACTORS
330
C
102
}
330
C
100
AcDbDictionary
281
     1
  0
XRECORD
  5
378
102
{ACAD_REACTORS
330
C
102
}
330
C
100
AcDbXrecord
280
     1
  1
DWGPROPS COOKIE
  2

  3

  4

  6

  7

  8
12017012
  9

300
=
301
=
302
=
303
=
304
=
305
=
306
=
307
=
308
=
309
=
 40
0.0
 41
2458288.279464005
 42
2458295.296031632
  1

 90
        0
  0
DICTIONARY
  5
21D
102
{ACAD_REACTORS
330
21C
102
}
330
21C
100
AcDbDictionary
281
     1
  0
LAYOUT
  5
1E
102
{ACAD_REACTORS
330
1A
102
}
330
1A
100
AcDbPlotSettings
  1

  2
none_device
  4

  6

 40
0.0
 41
0.0
 42
0.0
 43
0.0
 44
0.0
 45
0.0
 46
0.0
 47
0.0
 48
0.0
 49
0.0
140
0.0
141
0.0
142
1.0
143
1.0
 70
   688
 72
     1
 73
     0
 74
     5
  7

 75
    16
147
1.0
148
0.0
149
0.0
100
AcDbLayout
  1
Layout1
 70
     1
 71
     1
 10
0.0
 20
0.0
 11
420.0
 21
297.0
 12
0.0
 22
0.0
 32
0.0
 14
1.000000000000000E+20
 24
1.000000000000000E+20
 34
1.000000000000000E+20
 15
-1.000000000000000E+20
 25
-1.000000000000000E+20
 35
-1.000000000000000E+20
146
0.0
 13
0.0
 23
0.0
 33
0.0
 16
1.0
 26
0.0
 36
0.0
 17
0.0
 27
1.0
 37
0.0
 76
     0
330
1B
  0
LAYOUT
  5
26
102
{ACAD_REACTORS
330
1A
102
}
330
1A
100
AcDbPlotSettings
  1

  2
none_device
  4

  6

 40
0.0
 41
0.0
 42
0.0
 43
0.0
 44
0.0
 45
0.0
 46
0.0
 47
0.0
 48
0.0
 49
0.0
140
0.0
141
0.0
142
1.0
143
1.0
 70
   688
 72
     1
 73
     0
 74
     5
  7

 75
    16
147
1.0
148
0.0
149
0.0
100
AcDbLayout
  1
Layout2
 70
     1
 71
     2
 10
0.0
 20
0.0
 11
0.0
 21
0.0
 12
0.0
 22
0.0
 32
0.0
 14
0.0
 24
0.0
 34
0.0
 15
0.0
 25
0.0
 35
0.0
146
0.0
 13
0.0
 23
0.0
 33
0.0
 16
1.0
 26
0.0
 36
0.0
 17
0.0
 27
1.0
 37
0.0
 76
     0
330
23
  0
LAYOUT
  5
22
102
{ACAD_REACTORS
330
1A
102
}
330
1A
100
AcDbPlotSettings
  1

  2
none_device
  4
ANSI_A_(11.00_x_8.50_Inches)
  6

 40
6.35
 41
19.05
 42
6.35000508
 43
19.05000254
 44
279.4
 45
215.9
 46
102.6304152698886
 47
102.3515971971555
 48
0.0
 49
0.0
140
0.0
141
0.0
142
0.0693129513144063
143
1.0
 70
  1696
 72
     0
 73
     0
 74
     0
  7

 75
     0
147
0.0235690232323232
148
0.0
149
0.0
100
AcDbLayout
  1
Model
 70
     1
 71
     0
 10
0.0
 20
0.0
 11
420.0
 21
297.0
 12
0.0
 22
0.0
 32
0.0
 14
1.000000000000000E+20
 24
1.000000000000000E+20
 34
1.000000000000000E+20
 15
-1.000000000000000E+20
 25
-1.000000000000000E+20
 35
-1.000000000000000E+20
146
0.0
 13
0.0
 23
0.0
 33
0.0
 16
1.0
 26
0.0
 36
0.0
 17
0.0
 27
1.0
 37
0.0
 76
     0
330
1F
331
29
  0
MLINESTYLE
  5
18
102
{ACAD_REACTORS
330
17
102
}
330
17
100
AcDbMlineStyle
  2
Standard
 70
     0
  3

 62
   256
 51
90.0
 52
90.0
 71
     2
 49
0.5
 62
   256
  6
BYLAYER
 49
-0.5
 62
   256
  6
BYLAYER
  0
ACDBPLACEHOLDER
  5
F
102
{ACAD_REACTORS
330
E
102
}
330
E
  0
SCALE
  5
48
102
{ACAD_REACTORS
330
47
102
}
330
47
100
AcDbScale
 70
     0
300
1:1
140
1.0
141
1.0
290
     1
  0
SCALE
  5
49
102
{ACAD_REACTORS
330
47
102
}
330
47
100
AcDbScale
 70
     0
300
1:2
140
1.0
141
2.0
290
     0
  0
SCALE
  5
4A
102
{ACAD_REACTORS
330
47
102
}
330
47
100
AcDbScale
 70
     0
300
1:4
140
1.0
141
4.0
290
     0
  0
SCALE
  5
4B
102
{ACAD_REACTORS
330
47
102
}
330
47
100
AcDbScale
 70
     0
300
1:5
140
1.0
141
5.0
290
     0
  0
SCALE
  5
4C
102
{ACAD_REACTORS
330
47
102
}
330
47
100
AcDbScale
 70
     0
300
1:8
140
1.0
141
8.0
290
     0
  0
SCALE
  5
4D
102
{ACAD_REACTORS
330
47
102
}
330
47
100
AcDbScale
 70
     0
300
1:10
140
1.0
141
10.0
290
     0
  0
SCALE
  5
4E
102
{ACAD_REACTORS
330
47
102
}
330
47
100
AcDbScale
 70
     0
300
1:16
140
1.0
141
16.0
290
     0
  0
SCALE
  5
4F
102
{ACAD_REACTORS
330
47
102
}
330
47
100
AcDbScale
 70
     0
300
1:20
140
1.0
141
20.0
290
     0
  0
SCALE
  5
50
102
{ACAD_REACTORS
330
47
102
}
330
47
100
AcDbScale
 70
     0
300
1:30
140
1.0
141
30.0
290
     0
  0
SCALE
  5
51
102
{ACAD_REACTORS
330
47
102
}
330
47
100
AcDbScale
 70
     0
300
1:40
140
1.0
141
40.0
290
     0
  0
SCALE
  5
52
102
{ACAD_REACTORS
330
47
102
}
330
47
100
AcDbScale
 70
     0
300
1:50
140
1.0
141
50.0
290
     0
  0
SCALE
  5
53
102
{ACAD_REACTORS
330
47
102
}
330
47
100
AcDbScale
 70
     0
300
1:100
140
1.0
141
100.0
290
     0
  0
SCALE
  5
54
102
{ACAD_REACTORS
330
47
102
}
330
47
100
AcDbScale
 70
     0
300
2:1
140
2.0
141
1.0
290
     0
  0
SCALE
  5
55
102
{ACAD_REACTORS
330
47
102
}
330
47
100
AcDbScale
 70
     0
300
4:1
140
4.0
141
1.0
290
     0
  0
SCALE
  5
56
102
{ACAD_REACTORS
330
47
102
}
330
47
100
AcDbScale
 70
     0
300
8:1
140
8.0
141
1.0
290
     0
  0
SCALE
  5
57
102
{ACAD_REACTORS
330
47
102
}
330
47
100
AcDbScale
 70
     0
300
10:1
140
10.0
141
1.0
290
     0
  0
SCALE
  5
58
102
{ACAD_REACTORS
330
47
102
}
330
47
100
AcDbScale
 70
     0
300
100:1
140
100.0
141
1.0
290
     0
  0
SCALE
  5
59
102
{ACAD_REACTORS
330
47
102
}
330
47
100
AcDbScale
 70
     0
300
1/128" = 1'-0"
140
0.0078125
141
12.0
290
     0
  0
SCALE
  5
5A
102
{ACAD_REACTORS
330
47
102
}
330
47
100
AcDbScale
 70
     0
300
1/64" = 1'-0"
140
0.015625
141
12.0
290
     0
  0
SCALE
  5
5B
102
{ACAD_REACTORS
330
47
102
}
330
47
100
AcDbScale
 70
     0
300
1/32" = 1'-0"
140
0.03125
141
12.0
290
     0
  0
SCALE
  5
5C
102
{ACAD_REACTORS
330
47
102
}
330
47
100
AcDbScale
 70
     0
300
1/16" = 1'-0"
140
0.0625
141
12.0
290
     0
  0
SCALE
  5
5D
102
{ACAD_REACTORS
330
47
102
}
330
47
100
AcDbScale
 70
     0
300
3/32" = 1'-0"
140
0.09375
141
12.0
290
     0
  0
SCALE
  5
5E
102
{ACAD_REACTORS
330
47
102
}
330
47
100
AcDbScale
 70
     0
300
1/8" = 1'-0"
140
0.125
141
12.0
290
     0
  0
SCALE
  5
5F
102
{ACAD_REACTORS
330
47
102
}
330
47
100
AcDbScale
 70
     0
300
3/16" = 1'-0"
140
0.1875
141
12.0
290
     0
  0
SCALE
  5
60
102
{ACAD_REACTORS
330
47
102
}
330
47
100
AcDbScale
 70
     0
300
1/4" = 1'-0"
140
0.25
141
12.0
290
     0
  0
SCALE
  5
61
102
{ACAD_REACTORS
330
47
102
}
330
47
100
AcDbScale
 70
     0
300
3/8" = 1'-0"
140
0.375
141
12.0
290
     0
  0
SCALE
  5
62
102
{ACAD_REACTORS
330
47
102
}
330
47
100
AcDbScale
 70
     0
300
1/2" = 1'-0"
140
0.5
141
12.0
290
     0
  0
SCALE
  5
63
102
{ACAD_REACTORS
330
47
102
}
330
47
100
AcDbScale
 70
     0
300
3/4" = 1'-0"
140
0.75
141
12.0
290
     0
  0
SCALE
  5
64
102
{ACAD_REACTORS
330
47
102
}
330
47
100
AcDbScale
 70
     0
300
1" = 1'-0"
140
1.0
141
12.0
290
     0
  0
SCALE
  5
65
102
{ACAD_REACTORS
330
47
102
}
330
47
100
AcDbScale
 70
     0
300
1-1/2" = 1'-0"
140
1.5
141
12.0
290
     0
  0
SCALE
  5
66
102
{ACAD_REACTORS
330
47
102
}
330
47
100
AcDbScale
 70
     0
300
3" = 1'-0"
140
3.0
141
12.0
290
     0
  0
SCALE
  5
67
102
{ACAD_REACTORS
330
47
102
}
330
47
100
AcDbScale
 70
     0
300
6" = 1'-0"
140
6.0
141
12.0
290
     0
  0
SCALE
  5
68
102
{ACAD_REACTORS
330
47
102
}
330
47
100
AcDbScale
 70
     0
300
1'-0" = 1'-0"
140
12.0
141
12.0
290
     0
  0
ENDSEC
  0
EOF
