  0
SECTION
  2
HEADER
  9
$ACADVER
  1
AC1015
  9
$ACADMAINTVER
 70
     6
  9
$DWGCODEPAGE
  3
ANSI_949
  9
$INSBASE
 10
0.0
 20
0.0
 30
0.0
  9
$EXTMIN
 10
1.000000000000000E+20
 20
1.000000000000000E+20
 30
1.000000000000000E+20
  9
$EXTMAX
 10
-1.000000000000000E+20
 20
-1.000000000000000E+20
 30
-1.000000000000000E+20
  9
$LIMMIN
 10
0.0
 20
0.0
  9
$LIMMAX
 10
420.0
 20
297.0
  9
$ORTHOMODE
 70
     1
  9
$REGENMODE
 70
     1
  9
$FILLMODE
 70
     1
  9
$QTEXTMODE
 70
     0
  9
$MIRRTEXT
 70
     1
  9
$LTSCALE
 40
1.0
  9
$ATTMODE
 70
     1
  9
$TEXTSIZE
 40
3.5
  9
$TRACEWID
 40
1.0
  9
$TEXTSTYLE
  7
Standard
  9
$CLAYER
  8
0
  9
$CELTYPE
  6
ByLayer
  9
$CECOLOR
 62
   256
  9
$CELTSCALE
 40
1.0
  9
$DISPSILH
 70
     0
  9
$DIMSCALE
 40
1.0
  9
$DIMASZ
 40
3.302
  9
$DIMEXO
 40
1.0
  9
$DIMDLI
 40
3.75
  9
$DIMRND
 40
0.0
  9
$DIMDLE
 40
0.0
  9
$DIMEXE
 40
1.0
  9
$DIMTP
 40
0.0
  9
$DIMTM
 40
0.0
  9
$DIMTXT
 40
3.5
  9
$DIMCEN
 40
2.5
  9
$DIMTSZ
 40
0.0
  9
$DIMTOL
 70
     0
  9
$DIMLIM
 70
     0
  9
$DIMTIH
 70
     1
  9
$DIMTOH
 70
     1
  9
$DIMSE1
 70
     0
  9
$DIMSE2
 70
     0
  9
$DIMTAD
 70
     1
  9
$DIMZIN
 70
     0
  9
$DIMBLK
  1

  9
$DIMASO
 70
     1
  9
$DIMSHO
 70
     1
  9
$DIMPOST
  1

  9
$DIMAPOST
  1

  9
$DIMALT
 70
     0
  9
$DIMALTD
 70
     3
  9
$DIMALTF
 40
0.0393700787401575
  9
$DIMLFAC
 40
1.0
  9
$DIMTOFL
 70
     1
  9
$DIMTVP
 40
0.0
  9
$DIMTIX
 70
     0
  9
$DIMSOXD
 70
     0
  9
$DIMSAH
 70
     0
  9
$DIMBLK1
  1

  9
$DIMBLK2
  1

  9
$DIMSTYLE
  2
ISO-25
  9
$DIMCLRD
 70
     0
  9
$DIMCLRE
 70
     0
  9
$DIMCLRT
 70
     0
  9
$DIMTFAC
 40
1.0
  9
$DIMGAP
 40
1.524
  9
$DIMJUST
 70
     0
  9
$DIMSD1
 70
     0
  9
$DIMSD2
 70
     0
  9
$DIMTOLJ
 70
     0
  9
$DIMTZIN
 70
     0
  9
$DIMALTZ
 70
     0
  9
$DIMALTTZ
 70
     0
  9
$DIMUPT
 70
     0
  9
$DIMDEC
 70
     2
  9
$DIMTDEC
 70
     2
  9
$DIMALTU
 70
     2
  9
$DIMALTTD
 70
     3
  9
$DIMTXSTY
  7
Standard
  9
$DIMAUNIT
 70
     0
  9
$DIMADEC
 70
     2
  9
$DIMALTRND
 40
0.0
  9
$DIMAZIN
 70
     0
  9
$DIMDSEP
 70
    44
  9
$DIMATFIT
 70
     3
  9
$DIMFRAC
 70
     0
  9
$DIMLDRBLK
  1

  9
$DIMLUNIT
 70
     2
  9
$DIMLWD
 70
    -2
  9
$DIMLWE
 70
    -2
  9
$DIMTMOVE
 70
     0
  9
$LUNITS
 70
     2
  9
$LUPREC
 70
     2
  9
$SKETCHINC
 40
1.0
  9
$FILLETRAD
 40
10.0
  9
$AUNITS
 70
     0
  9
$AUPREC
 70
     2
  9
$MENU
  1
.
  9
$ELEVATION
 40
0.0
  9
$PELEVATION
 40
0.0
  9
$THICKNESS
 40
0.0
  9
$LIMCHECK
 70
     0
  9
$CHAMFERA
 40
0.0
  9
$CHAMFERB
 40
0.0
  9
$CHAMFERC
 40
0.0
  9
$CHAMFERD
 40
0.0
  9
$SKPOLY
 70
     0
  9
$TDCREATE
 40
2458288.655030764
  9
$TDUCREATE
 40
2458288.280030764
  9
$TDUPDATE
 40
2458295.703946377
  9
$TDUUPDATE
 40
2458295.328946377
  9
$TDINDWG
 40
0.0003739468
  9
$TDUSRTIMER
 40
2458295.326701759
  9
$USRTIMER
 70
     1
  9
$ANGBASE
 50
0.0
  9
$ANGDIR
 70
     0
  9
$PDMODE
 70
     0
  9
$PDSIZE
 40
-1.0
  9
$PLINEWID
 40
0.0
  9
$SPLFRAME
 70
     0
  9
$SPLINETYPE
 70
     6
  9
$SPLINESEGS
 70
     8
  9
$HANDSEED
  5
2A2
  9
$SURFTAB1
 70
     6
  9
$SURFTAB2
 70
     6
  9
$SURFTYPE
 70
     6
  9
$SURFU
 70
     6
  9
$SURFV
 70
     6
  9
$UCSBASE
  2

  9
$UCSNAME
  2

  9
$UCSORG
 10
0.0
 20
0.0
 30
0.0
  9
$UCSXDIR
 10
1.0
 20
0.0
 30
0.0
  9
$UCSYDIR
 10
0.0
 20
1.0
 30
0.0
  9
$UCSORTHOREF
  2

  9
$UCSORTHOVIEW
 70
     0
  9
$UCSORGTOP
 10
0.0
 20
0.0
 30
0.0
  9
$UCSORGBOTTOM
 10
0.0
 20
0.0
 30
0.0
  9
$UCSORGLEFT
 10
0.0
 20
0.0
 30
0.0
  9
$UCSORGRIGHT
 10
0.0
 20
0.0
 30
0.0
  9
$UCSORGFRONT
 10
0.0
 20
0.0
 30
0.0
  9
$UCSORGBACK
 10
0.0
 20
0.0
 30
0.0
  9
$PUCSBASE
  2

  9
$PUCSNAME
  2

  9
$PUCSORG
 10
0.0
 20
0.0
 30
0.0
  9
$PUCSXDIR
 10
1.0
 20
0.0
 30
0.0
  9
$PUCSYDIR
 10
0.0
 20
1.0
 30
0.0
  9
$PUCSORTHOREF
  2

  9
$PUCSORTHOVIEW
 70
     0
  9
$PUCSORGTOP
 10
0.0
 20
0.0
 30
0.0
  9
$PUCSORGBOTTOM
 10
0.0
 20
0.0
 30
0.0
  9
$PUCSORGLEFT
 10
0.0
 20
0.0
 30
0.0
  9
$PUCSORGRIGHT
 10
0.0
 20
0.0
 30
0.0
  9
$PUCSORGFRONT
 10
0.0
 20
0.0
 30
0.0
  9
$PUCSORGBACK
 10
0.0
 20
0.0
 30
0.0
  9
$USERI1
 70
     0
  9
$USERI2
 70
     0
  9
$USERI3
 70
     0
  9
$USERI4
 70
     0
  9
$USERI5
 70
     0
  9
$USERR1
 40
0.0
  9
$USERR2
 40
0.0
  9
$USERR3
 40
0.0
  9
$USERR4
 40
0.0
  9
$USERR5
 40
0.0
  9
$WORLDVIEW
 70
     1
  9
$SHADEDGE
 70
     3
  9
$SHADEDIF
 70
    70
  9
$TILEMODE
 70
     1
  9
$MAXACTVP
 70
    64
  9
$PINSBASE
 10
0.0
 20
0.0
 30
0.0
  9
$PLIMCHECK
 70
     0
  9
$PEXTMIN
 10
1.000000000000000E+20
 20
1.000000000000000E+20
 30
1.000000000000000E+20
  9
$PEXTMAX
 10
-1.000000000000000E+20
 20
-1.000000000000000E+20
 30
-1.000000000000000E+20
  9
$PLIMMIN
 10
0.0
 20
0.0
  9
$PLIMMAX
 10
0.0
 20
0.0
  9
$UNITMODE
 70
     0
  9
$VISRETAIN
 70
     1
  9
$PLINEGEN
 70
     0
  9
$PSLTSCALE
 70
     1
  9
$TREEDEPTH
 70
  3020
  9
$CMLSTYLE
  2
Standard
  9
$CMLJUST
 70
     0
  9
$CMLSCALE
 40
20.0
  9
$PROXYGRAPHICS
 70
     1
  9
$MEASUREMENT
 70
     1
  9
$CELWEIGHT
370
    -1
  9
$ENDCAPS
280
     0
  9
$JOINSTYLE
280
     0
  9
$LWDISPLAY
290
     1
  9
$INSUNITS
 70
     4
  9
$HYPERLINKBASE
  1

  9
$STYLESHEET
  1

  9
$XEDIT
290
     1
  9
$CEPSNTYPE
380
     0
  9
$PSTYLEMODE
290
     1
  9
$FINGERPRINTGUID
  2
{79EE1518-6E44-42D3-9B2B-39D89091C58B}
  9
$VERSIONGUID
  2
{FAEB1C32-E019-11D5-929B-00C0DF256EC4}
  9
$EXTNAMES
290
     1
  9
$PSVPSCALE
 40
0.0
  9
$OLESTARTUP
290
     0
  0
ENDSEC
  0
SECTION
  2
CLASSES
  0
CLASS
  1
ACDBDICTIONARYWDFLT
  2
AcDbDictionaryWithDefault
  3
ObjectDBX Classes
 90
        0
280
     0
281
     0
  0
CLASS
  1
VISUALSTYLE
  2
AcDbVisualStyle
  3
ObjectDBX Classes
 90
     4095
280
     0
281
     0
  0
CLASS
  1
MATERIAL
  2
AcDbMaterial
  3
ObjectDBX Classes
 90
     1153
280
     0
281
     0
  0
CLASS
  1
SCALE
  2
AcDbScale
  3
ObjectDBX Classes
 90
     1153
280
     0
281
     0
  0
CLASS
  1
SUN
  2
AcDbSun
  3
SCENEOE
 90
     1153
280
     0
281
     0
  0
CLASS
  1
ACDBPLACEHOLDER
  2
AcDbPlaceHolder
  3
ObjectDBX Classes
 90
        0
280
     0
281
     0
  0
CLASS
  1
LAYOUT
  2
AcDbLayout
  3
ObjectDBX Classes
 90
        0
280
     0
281
     0
  0
CLASS
  1
TABLESTYLE
  2
AcDbTableStyle
  3
ObjectDBX Classes
 90
     4095
280
     0
281
     0
  0
CLASS
  1
MLEADERSTYLE
  2
AcDbMLeaderStyle
  3
ACDB_MLEADERSTYLE_CLASS
 90
     4095
280
     0
281
     0
  0
CLASS
  1
RASTERVARIABLES
  2
AcDbRasterVariables
  3
ISM
 90
        0
280
     0
281
     0
  0
CLASS
  1
DIMASSOC
  2
AcDbDimAssoc
  3
"AcDbDimAssoc|Product Desc:     AcDim ARX App For Dimension|Company:          Autodesk, Inc.|WEB Address:      www.autodesk.com"
 90
        0
280
     0
281
     0
  0
ENDSEC
  0
SECTION
  2
TABLES
  0
TABLE
  2
VPORT
  5
8
330
0
100
AcDbSymbolTable
 70
     1
  0
VPORT
  5
29
330
8
100
AcDbSymbolTableRecord
100
AcDbViewportTableRecord
  2
*Active
 70
     0
 10
0.0
 20
0.0
 11
1.0
 21
1.0
 12
-8.200054116140102
 22
-5.337594918285511
 13
0.0
 23
0.0
 14
10.0
 24
10.0
 15
10.0
 25
10.0
 16
0.0
 26
0.0
 36
1.0
 17
0.0
 27
0.0
 37
0.0
 40
113.7144849481336
 41
1.859099804305284
 42
50.0
 43
0.0
 44
0.0
 50
0.0
 51
0.0
 71
    16
 72
  2000
 73
     1
 74
     3
 75
     0
 76
     0
 77
     0
 78
     0
281
     0
 65
     1
110
0.0
120
0.0
130
0.0
111
1.0
121
0.0
131
0.0
112
0.0
122
1.0
132
0.0
 79
     0
146
0.0
  0
ENDTAB
  0
TABLE
  2
LTYPE
  5
5
330
0
100
AcDbSymbolTable
 70
     6
  0
LTYPE
  5
14
330
5
100
AcDbSymbolTableRecord
100
AcDbLinetypeTableRecord
  2
ByBlock
 70
     0
  3

 72
    65
 73
     0
 40
0.0
  0
LTYPE
  5
15
330
5
100
AcDbSymbolTableRecord
100
AcDbLinetypeTableRecord
  2
ByLayer
 70
     0
  3

 72
    65
 73
     0
 40
0.0
  0
LTYPE
  5
16
330
5
100
AcDbSymbolTableRecord
100
AcDbLinetypeTableRecord
  2
Continuous
 70
     0
  3
Solid line
 72
    65
 73
     0
 40
0.0
  0
LTYPE
  5
6A
330
5
100
AcDbSymbolTableRecord
100
AcDbLinetypeTableRecord
  2
HIDDEN
 70
     0
  3
Hidden __ __ __ __ __ __ __ __ __ __ __ __ __ __
 72
    65
 73
     2
 40
1.905
 49
1.27
 74
     0
 49
-0.635
 74
     0
  0
LTYPE
  5
6B
330
5
100
AcDbSymbolTableRecord
100
AcDbLinetypeTableRecord
  2
PHANTOM
 70
     0
  3
Phantom ______  __  __  ______  __  __  ______
 72
    65
 73
     6
 40
12.7
 49
6.35
 74
     0
 49
-1.27
 74
     0
 49
1.27
 74
     0
 49
-1.27
 74
     0
 49
1.27
 74
     0
 49
-1.27
 74
     0
  0
LTYPE
  5
6C
330
5
100
AcDbSymbolTableRecord
100
AcDbLinetypeTableRecord
  2
CENTER
 70
     0
  3
Center ____ _ ____ _ ____ _ ____ _ ____ _ ____
 72
    65
 73
     4
 40
10.16
 49
6.35
 74
     0
 49
-1.27
 74
     0
 49
1.27
 74
     0
 49
-1.27
 74
     0
  0
LTYPE
  5
6D
330
5
100
AcDbSymbolTableRecord
100
AcDbLinetypeTableRecord
  2
CENTERX2
 70
     0
  3
Center (2x) ________  __  ________  __  _____
 72
    65
 73
     4
 40
20.32
 49
12.7
 74
     0
 49
-2.54
 74
     0
 49
2.54
 74
     0
 49
-2.54
 74
     0
  0
LTYPE
  5
6E
330
5
100
AcDbSymbolTableRecord
100
AcDbLinetypeTableRecord
  2
DOT2
 70
     0
  3
Dot (.5x) ........................................
 72
    65
 73
     2
 40
0.635
 49
0.0
 74
     0
 49
-0.635
 74
     0
  0
ENDTAB
  0
TABLE
  2
LAYER
  5
2
102
{ACAD_XDICTIONARY
360
20D
102
}
330
0
100
AcDbSymbolTable
 70
    18
  0
LAYER
  5
10
330
2
100
AcDbSymbolTableRecord
100
AcDbLayerTableRecord
  2
0
 70
     0
 62
     7
  6
Continuous
370
    -3
390
F
  0
LAYER
  5
6F
330
2
100
AcDbSymbolTableRecord
100
AcDbLayerTableRecord
  2
FORMAT
 70
     0
 62
     2
  6
Continuous
370
    -3
390
F
  0
LAYER
  5
70
330
2
100
AcDbSymbolTableRecord
100
AcDbLayerTableRecord
  2
외형선
 70
     0
 62
     4
  6
Continuous
370
    30
390
F
  0
LAYER
  5
71
330
2
100
AcDbSymbolTableRecord
100
AcDbLayerTableRecord
  2
숨은선
 70
     0
 62
     2
  6
HIDDEN
370
    15
390
F
  0
LAYER
  5
72
330
2
100
AcDbSymbolTableRecord
100
AcDbLayerTableRecord
  2
중심선
 70
     0
 62
     1
  6
CENTERX2
370
    -3
390
F
  0
LAYER
  5
73
330
2
100
AcDbSymbolTableRecord
100
AcDbLayerTableRecord
  2
파단선
 70
     0
 62
     4
  6
Continuous
370
    -3
390
F
  0
LAYER
  5
74
330
2
100
AcDbSymbolTableRecord
100
AcDbLayerTableRecord
  2
해칭선
 70
     0
 62
   100
  6
Continuous
370
    -3
390
F
  0
LAYER
  5
75
330
2
100
AcDbSymbolTableRecord
100
AcDbLayerTableRecord
  2
가는실선
 70
     0
 62
     4
  6
Continuous
370
    -3
390
F
  0
LAYER
  5
76
330
2
100
AcDbSymbolTableRecord
100
AcDbLayerTableRecord
  2
치수_보조선
 70
     0
 62
     4
  6
Continuous
370
    -3
390
F
  0
LAYER
  5
77
330
2
100
AcDbSymbolTableRecord
100
AcDbLayerTableRecord
  2
치수문자_일반주서
 70
     0
 62
     7
  6
Continuous
370
    15
390
F
  0
LAYER
  5
78
330
2
100
AcDbSymbolTableRecord
100
AcDbLayerTableRecord
  2
개별주서
 70
     0
 62
   100
  6
Continuous
370
    30
390
F
  0
LAYER
  5
79
330
2
100
AcDbSymbolTableRecord
100
AcDbLayerTableRecord
  2
중간선
 70
     0
 62
     2
  6
Continuous
370
    15
390
F
  0
LAYER
  5
7A
330
2
100
AcDbSymbolTableRecord
100
AcDbLayerTableRecord
  2
윤곽선
 70
     0
 62
     3
  6
Continuous
370
    40
390
F
  0
LAYER
  5
7B
330
2
100
AcDbSymbolTableRecord
100
AcDbLayerTableRecord
  2
중심마크
 70
     0
 62
   100
  6
Continuous
370
    30
390
F
  0
LAYER
  5
7C
330
2
100
AcDbSymbolTableRecord
100
AcDbLayerTableRecord
  2
가상선
 70
     0
 62
     4
  6
PHANTOM
370
    -3
390
F
  0
LAYER
  5
7D
330
2
100
AcDbSymbolTableRecord
100
AcDbLayerTableRecord
  2
특수지정선
 70
     0
 62
     5
  6
CENTERX2
370
    60
390
F
  0
LAYER
  5
7E
330
2
100
AcDbSymbolTableRecord
100
AcDbLayerTableRecord
  2
참조1
 70
     0
 62
    -4
  6
Continuous
370
    -3
390
F
  0
LAYER
  5
160
330
2
100
AcDbSymbolTableRecord
100
AcDbLayerTableRecord
  2
Defpoints
 70
     0
 62
     7
  6
Continuous
290
     0
370
    -3
390
F
  0
ENDTAB
  0
TABLE
  2
STYLE
  5
3
330
0
100
AcDbSymbolTable
 70
     2
  0
STYLE
  5
11
330
3
100
AcDbSymbolTableRecord
100
AcDbTextStyleTableRecord
  2
Standard
 70
     0
 40
0.0
 41
1.0
 50
0.0
 71
     0
 42
3.5
  3
txt
  4

  0
STYLE
  5
94
330
3
100
AcDbSymbolTableRecord
100
AcDbTextStyleTableRecord
  2
SLDTEXTSTYLE0
 70
     0
 40
0.0
 41
0.75
 50
0.0
 71
     0
 42
3.5
  3
TXT
  4

  0
ENDTAB
  0
TABLE
  2
VIEW
  5
6
330
0
100
AcDbSymbolTable
 70
     0
  0
ENDTAB
  0
TABLE
  2
UCS
  5
7
330
0
100
AcDbSymbolTable
 70
     0
  0
ENDTAB
  0
TABLE
  2
APPID
  5
9
330
0
100
AcDbSymbolTable
 70
     2
  0
APPID
  5
12
330
9
100
AcDbSymbolTableRecord
100
AcDbRegAppTableRecord
  2
ACAD
 70
     0
  0
APPID
  5
16B
330
9
100
AcDbSymbolTableRecord
100
AcDbRegAppTableRecord
  2
ACAD_DSTYLE_DIMRADIAL_EXTENSION
 70
     0
  0
ENDTAB
  0
TABLE
  2
DIMSTYLE
  5
A
330
0
100
AcDbSymbolTable
 70
     4
100
AcDbDimStyleTable
  0
DIMSTYLE
105
27
330
A
100
AcDbSymbolTableRecord
100
AcDbDimStyleTableRecord
  2
ISO-25
 70
     0
 41
2.5
 42
0.625
 43
3.75
 44
1.25
 73
     0
 74
     0
 77
     1
 78
     8
140
2.5
141
2.5
143
0.03937007874016
147
0.625
171
     3
172
     1
178
     0
271
     2
272
     2
274
     3
278
    44
283
     0
284
     8
340
11
  0
DIMSTYLE
105
DB
102
{ACAD_REACTORS
330
DA
330
EF
330
1B7
330
1C4
330
1D4
330
1E4
330
201
330
103
330
119
330
294
102
}
330
A
100
AcDbSymbolTableRecord
100
AcDbDimStyleTableRecord
  2
SLDDIMSTYLE0
 70
     0
 41
3.302
 44
0.0
 45
0.000000001
 73
     0
 74
     0
 77
     1
 78
    12
 79
     3
140
3.5
143
0.0393700787401575
147
0.875
148
0.000000001
170
     1
172
     1
173
     1
178
     0
271
     2
272
     2
276
     2
284
    12
289
     0
340
94
  0
DIMSTYLE
105
104
330
A
100
AcDbSymbolTableRecord
100
AcDbDimStyleTableRecord
  2
SLDDIMSTYLE1
 70
     0
 41
3.302
 44
0.0
 45
0.000000001
 73
     0
 74
     0
 77
     1
 78
     4
 79
     1
140
3.5
143
0.0393700787401575
147
0.875
148
0.000000001
170
     1
172
     1
173
     1
178
     0
271
     2
272
     2
276
     2
284
    12
289
     0
340
94
  0
DIMSTYLE
105
11A
330
A
100
AcDbSymbolTableRecord
100
AcDbDimStyleTableRecord
  2
SLDDIMSTYLE2
 70
     0
 41
3.302
 44
0.0
 45
0.000000001
 73
     0
 74
     0
 77
     1
 78
     4
 79
     1
140
3.5
143
0.0393700787401575
147
0.875
148
0.000000001
170
     1
173
     1
178
     0
271
     2
272
     2
276
     2
284
    12
340
94
  0
ENDTAB
  0
TABLE
  2
BLOCK_RECORD
  5
1
330
0
100
AcDbSymbolTable
 70
    19
  0
BLOCK_RECORD
  5
1F
330
1
100
AcDbSymbolTableRecord
100
AcDbBlockTableRecord
  2
*Model_Space
340
22
  0
BLOCK_RECORD
  5
1B
330
1
100
AcDbSymbolTableRecord
100
AcDbBlockTableRecord
  2
*Paper_Space
340
1E
  0
BLOCK_RECORD
  5
23
330
1
100
AcDbSymbolTableRecord
100
AcDbBlockTableRecord
  2
*Paper_Space0
340
26
  0
BLOCK_RECORD
  5
7F
330
1
100
AcDbSymbolTableRecord
100
AcDbBlockTableRecord
  2
블럭10
340
0
102
{BLKREFS
331
D3
102
}
  0
BLOCK_RECORD
  5
DC
330
1
100
AcDbSymbolTableRecord
100
AcDbBlockTableRecord
  2
_D
340
0
  0
BLOCK_RECORD
  5
F0
330
1
100
AcDbSymbolTableRecord
100
AcDbBlockTableRecord
  2
_D_1
340
0
  0
BLOCK_RECORD
  5
105
330
1
100
AcDbSymbolTableRecord
100
AcDbBlockTableRecord
  2
_D_2
340
0
  0
BLOCK_RECORD
  5
11B
330
1
100
AcDbSymbolTableRecord
100
AcDbBlockTableRecord
  2
_D_3
340
0
  0
BLOCK_RECORD
  5
134
330
1
100
AcDbSymbolTableRecord
100
AcDbBlockTableRecord
  2
SW_DOWELSYMBOL_0
340
0
102
{BLKREFS
331
13A
331
1F1
331
0
102
}
  0
BLOCK_RECORD
  5
1B8
330
1
100
AcDbSymbolTableRecord
100
AcDbBlockTableRecord
  2
*D8
340
0
  0
BLOCK_RECORD
  5
1C5
330
1
100
AcDbSymbolTableRecord
100
AcDbBlockTableRecord
  2
*D9
340
0
  0
BLOCK_RECORD
  5
1D5
330
1
100
AcDbSymbolTableRecord
100
AcDbBlockTableRecord
  2
*D10
340
0
  0
BLOCK_RECORD
  5
1E5
330
1
100
AcDbSymbolTableRecord
100
AcDbBlockTableRecord
  2
*D11
340
0
  0
BLOCK_RECORD
  5
204
330
1
100
AcDbSymbolTableRecord
100
AcDbBlockTableRecord
  2
*D12
340
0
  0
BLOCK_RECORD
  5
250
330
1
100
AcDbSymbolTableRecord
100
AcDbBlockTableRecord
  2
*D13
340
0
  0
BLOCK_RECORD
  5
25C
330
1
100
AcDbSymbolTableRecord
100
AcDbBlockTableRecord
  2
*D14
340
0
  0
BLOCK_RECORD
  5
26B
330
1
100
AcDbSymbolTableRecord
100
AcDbBlockTableRecord
  2
*D15
340
0
  0
BLOCK_RECORD
  5
27A
330
1
100
AcDbSymbolTableRecord
100
AcDbBlockTableRecord
  2
*D16
340
0
  0
BLOCK_RECORD
  5
286
330
1
100
AcDbSymbolTableRecord
100
AcDbBlockTableRecord
  2
*D17
340
0
  0
BLOCK_RECORD
  5
297
330
1
100
AcDbSymbolTableRecord
100
AcDbBlockTableRecord
  2
*D18
340
0
  0
ENDTAB
  0
ENDSEC
  0
SECTION
  2
BLOCKS
  0
BLOCK
  5
20
330
1F
100
AcDbEntity
  8
0
100
AcDbBlockBegin
  2
*Model_Space
 70
     0
 10
0.0
 20
0.0
 30
0.0
  3
*Model_Space
  1
*Model_Space
  0
ENDBLK
  5
21
330
1F
100
AcDbEntity
  8
0
100
AcDbBlockEnd
  0
BLOCK
  5
1C
330
1B
100
AcDbEntity
 67
     1
  8
0
100
AcDbBlockBegin
  2
*Paper_Space
 70
     0
 10
0.0
 20
0.0
 30
0.0
  3
*Paper_Space
  1
*Paper_Space
  0
ENDBLK
  5
1D
330
1B
100
AcDbEntity
 67
     1
  8
0
100
AcDbBlockEnd
  0
BLOCK
  5
24
330
23
100
AcDbEntity
  8
0
100
AcDbBlockBegin
  2
*Paper_Space0
 70
     0
 10
0.0
 20
0.0
 30
0.0
  3
*Paper_Space0
  1
*Paper_Space0
  0
ENDBLK
  5
25
330
23
100
AcDbEntity
  8
0
100
AcDbBlockEnd
  0
BLOCK
  5
80
330
7F
100
AcDbEntity
  8
0
100
AcDbBlockBegin
  2
블럭10
 70
     2
 10
0.0
 20
0.0
 30
0.0
  3
블럭10
  1
블럭10
  0
ELLIPSE
  5
82
330
7F
100
AcDbEntity
  8
중심선
100
AcDbEllipse
 10
20.54032771741204
 20
12.0471743016438
 30
0.0
 11
6.600054785286829
 21
-1.261213355974178E-13
 31
0.0
210
0.0
220
0.0
230
1.0
 40
0.636358354079598
 41
0.9219305317359503
 42
6.513795318482858
  0
ELLIPSE
  5
83
330
7F
100
AcDbEntity
  8
중심선
100
AcDbEllipse
 10
20.54032771746488
 20
12.04717430159265
 30
0.0
 11
3.960054785062283
 21
1.540847449632565E-10
 31
0.0
210
0.0
220
0.0
230
1.0
 40
0.3939339440162632
 41
1.131841032648279
 42
5.62031148352944
  0
LINE
  5
84
330
7F
100
AcDbEntity
  8
중심선
100
AcDbLine
 10
2.268634060543552
 20
16.24717430164393
 30
0.0
 11
5.714909304380834
 21
16.24717430164393
 31
0.0
  0
LINE
  5
85
330
7F
100
AcDbEntity
  8
중심선
100
AcDbLine
 10
5.245725140726316
 20
7.84717430164391
 30
0.0
 11
8.692000384563599
 21
7.84717430164391
 31
0.0
  0
LINE
  5
86
330
7F
100
AcDbEntity
  8
중심선
100
AcDbLine
 10
15.74043728645272
 20
16.24717430164393
 30
0.0
 11
8.692000384563599
 21
7.84717430164391
 31
0.0
  0
LINE
  5
87
330
7F
100
AcDbEntity
  8
중심선
100
AcDbLine
 10
0.1404042013395286
 20
13.71084872107135
 30
0.0
 11
3.58671253028996
 21
13.71088815037384
 31
0.0
  0
LINE
  5
88
330
7F
100
AcDbEntity
  8
중심선
100
AcDbLine
 10
2.750260043222114
 20
10.84717430164391
 30
0.0
 11
6.196535287059397
 21
10.84717430164391
 31
0.0
  0
LINE
  5
89
330
7F
100
AcDbEntity
  8
중심선
100
AcDbLine
 10
12.29416204261559
 20
16.24717430164393
 30
0.0
 11
5.245725140726316
 21
7.84717430164391
 31
0.0
  0
LINE
  5
8A
330
7F
100
AcDbEntity
  8
중심선
100
AcDbLine
 10
10.72767329541681
 20
16.24717430164393
 30
0.0
 11
6.196535287059397
 21
10.84717430164391
 31
0.0
  0
LINE
  5
8B
330
7F
100
AcDbEntity
  8
중심선
100
AcDbLine
 10
7.28139805157953
 20
16.24717430164393
 30
0.0
 11
2.750260043222114
 21
10.84717430164391
 31
0.0
  0
LINE
  5
8C
330
7F
100
AcDbEntity
  8
중심선
100
AcDbLine
 10
5.714909304380834
 20
16.24717430164393
 30
0.0
 11
3.58671253028996
 21
13.71088815037384
 31
0.0
  0
LINE
  5
8D
330
7F
100
AcDbEntity
  8
중심선
100
AcDbLine
 10
2.268634060543552
 20
16.24717430164393
 30
0.0
 11
0.1404042013395286
 21
13.71084872107135
 31
0.0
  0
LINE
  5
8E
330
7F
100
AcDbEntity
  8
중심선
100
AcDbLine
 10
7.28139805157953
 20
16.24717430164393
 30
0.0
 11
10.72767329541681
 21
16.24717430164393
 31
0.0
  0
LINE
  5
8F
330
7F
100
AcDbEntity
  8
중심선
100
AcDbLine
 10
12.29416204261559
 20
16.24717430164393
 30
0.0
 11
15.74043728645272
 21
16.24717430164393
 31
0.0
  0
LINE
  5
90
330
7F
100
AcDbEntity
  8
중심선
100
AcDbLine
 10
19.22036997980202
 20
11.08717430171403
 30
0.0
 11
23.66174974927406
 21
11.08717430171406
 31
0.0
  0
LINE
  5
91
330
7F
100
AcDbEntity
  8
중심선
100
AcDbLine
 10
19.22039502424796
 20
13.00717430171391
 30
0.0
 11
19.22036997980202
 21
11.08717430171403
 31
0.0
  0
LINE
  5
92
330
7F
100
AcDbEntity
  8
중심선
100
AcDbLine
 10
19.22039502424796
 20
13.00717430171391
 30
0.0
 11
26.96566020931264
 21
13.00717430171391
 31
0.0
  0
LINE
  5
93
330
7F
100
AcDbEntity
  8
중심선
100
AcDbLine
 10
22.22332737316547
 20
13.45928029700563
 30
0.0
 11
24.52862924686651
 21
15.39360700705356
 31
0.0
  0
ATTDEF
  5
95
330
7F
100
AcDbEntity
  8
FORMAT
 62
     2
100
AcDbText
 10
3.448148490846466
 20
2.075366912832191
 30
0.0
 40
4.233333333333333
  1
EM637024
 41
0.75
  7
SLDTEXTSTYLE0
 11
3.448148490846466
 21
-0.0412997538344756
 31
0.0
100
AcDbAttributeDefinition
  3

  2
AUTOATTR0
 70
     0
 74
     1
  0
ENDBLK
  5
81
330
7F
100
AcDbEntity
  8
0
100
AcDbBlockEnd
  0
BLOCK
  5
DD
330
DC
100
AcDbEntity
  8
0
100
AcDbBlockBegin
  2
_D
 70
     0
 10
0.0
 20
0.0
 30
0.0
  3
_D
  1
_D
  0
LINE
  5
DF
330
DC
100
AcDbEntity
  8
치수문자_일반주서
 62
     0
370
    -2
100
AcDbLine
 10
-39.8625
 20
4.763574928723896
 30
0.0
 11
-53.30000000000003
 21
4.763574928723846
 31
0.0
  0
LINE
  5
E0
330
DC
100
AcDbEntity
  8
치수문자_일반주서
 62
     0
370
    -2
100
AcDbLine
 10
-39.8625
 20
-4.761425071276109
 30
0.0
 11
-53.29999999999999
 21
-4.76142507127616
 31
0.0
  0
LINE
  5
E1
330
DC
100
AcDbEntity
  8
치수문자_일반주서
 62
     0
370
    -2
100
AcDbLine
 10
-53.30000000000001
 20
1.461574928723846
 30
0.0
 11
-53.3
 21
-1.459425071276161
 31
0.0
  0
SOLID
  5
E2
330
DC
100
AcDbEntity
  8
치수문자_일반주서
 62
     0
100
AcDbTrace
 10
-52.74966666666668
 20
1.461574928723848
 30
0.0
 11
-53.85033333333335
 21
1.461574928723844
 31
0.0
 12
-53.30000000000003
 22
4.763574928723846
 32
0.0
 13
-53.30000000000003
 23
4.763574928723846
 33
0.0
  0
SOLID
  5
E3
330
DC
100
AcDbEntity
  8
치수문자_일반주서
 62
     0
100
AcDbTrace
 10
-53.85033333333334
 20
-1.459425071276162
 30
0.0
 11
-52.74966666666667
 21
-1.459425071276159
 31
0.0
 12
-53.29999999999999
 22
-4.76142507127616
 32
0.0
 13
-53.29999999999999
 23
-4.76142507127616
 33
0.0
  0
MTEXT
  5
E4
330
DC
100
AcDbEntity
  8
치수문자_일반주서
 62
     0
100
AcDbMText
 10
-57.67500000000001
 20
0.0010749287238821
 30
0.0
 40
3.5
 41
0.0
 71
     2
 72
     1
  1
\A1;%%c9.53 [3/8]
  7
SLDTEXTSTYLE0
 11
-3.729883127349605E-15
 21
1.0
 31
0.0
 73
     1
 44
1.0
  0
POINT
  5
E5
330
DC
100
AcDbEntity
  8
Defpoints
 62
     0
100
AcDbPoint
 10
-39.8
 20
4.763574928723896
 30
0.0
  0
POINT
  5
E6
330
DC
100
AcDbEntity
  8
Defpoints
 62
     0
100
AcDbPoint
 10
-39.8
 20
-4.761425071276109
 30
0.0
  0
POINT
  5
E7
330
DC
100
AcDbEntity
  8
Defpoints
 62
     0
100
AcDbPoint
 10
-53.29999999999999
 20
-4.76142507127616
 30
0.0
  0
ENDBLK
  5
DE
330
DC
100
AcDbEntity
  8
0
100
AcDbBlockEnd
  0
BLOCK
  5
F1
330
F0
100
AcDbEntity
  8
0
100
AcDbBlockBegin
  2
_D_1
 70
     0
 10
0.0
 20
0.0
 30
0.0
  3
_D_1
  1
_D_1
  0
LINE
  5
F3
330
F0
100
AcDbEntity
  8
치수문자_일반주서
 62
     0
370
    -2
100
AcDbLine
 10
35.46250000000001
 20
4.763574928723899
 30
0.0
 11
48.05000000000006
 21
4.763574928723948
 31
0.0
  0
LINE
  5
F4
330
F0
100
AcDbEntity
  8
치수문자_일반주서
 62
     0
370
    -2
100
AcDbLine
 10
35.46250000000001
 20
-4.7614250712761
 30
0.0
 11
48.0500000000001
 21
-4.761425071276051
 31
0.0
  0
LINE
  5
F5
330
F0
100
AcDbEntity
  8
치수문자_일반주서
 62
     0
370
    -2
100
AcDbLine
 10
48.05000000000006
 20
4.763574928723948
 30
0.0
 11
48.04999999999993
 21
39.14882492872394
 31
0.0
  0
LINE
  5
F6
330
F0
100
AcDbEntity
  8
치수문자_일반주서
 62
     0
370
    -2
100
AcDbLine
 10
48.05000000000006
 20
4.763574928723948
 30
0.0
 11
48.0500000000001
 21
-4.761425071276051
 31
0.0
  0
LINE
  5
F7
330
F0
100
AcDbEntity
  8
치수문자_일반주서
 62
     0
370
    -2
100
AcDbLine
 10
48.05000000000005
 20
8.065574928723947
 30
0.0
 11
48.05000000000003
 21
11.36757492872395
 31
0.0
  0
LINE
  5
F8
330
F0
100
AcDbEntity
  8
치수문자_일반주서
 62
     0
370
    -2
100
AcDbLine
 10
48.05000000000011
 20
-8.06342507127605
 30
0.0
 11
48.05000000000013
 21
-11.36542507127605
 31
0.0
  0
SOLID
  5
F9
330
F0
100
AcDbEntity
  8
치수문자_일반주서
 62
     0
100
AcDbTrace
 10
47.49966666666671
 20
8.065574928723946
 30
0.0
 11
48.60033333333338
 21
8.065574928723949
 31
0.0
 12
48.05000000000006
 22
4.763574928723948
 32
0.0
 13
48.05000000000006
 23
4.763574928723948
 33
0.0
  0
SOLID
  5
FA
330
F0
100
AcDbEntity
  8
치수문자_일반주서
 62
     0
100
AcDbTrace
 10
48.60033333333345
 20
-8.063425071276049
 30
0.0
 11
47.49966666666678
 21
-8.063425071276052
 31
0.0
 12
48.0500000000001
 22
-4.761425071276051
 32
0.0
 13
48.0500000000001
 23
-4.761425071276051
 33
0.0
  0
MTEXT
  5
FB
330
F0
100
AcDbEntity
  8
치수문자_일반주서
 62
     0
100
AcDbMText
 10
43.67499999999998
 20
26.02382492872392
 30
0.0
 40
3.5
 41
0.0
 71
     2
 72
     1
  1
\A1;%%c9.53 [3/8]
  7
SLDTEXTSTYLE0
 11
-3.729883127349607E-15
 21
1.0
 31
0.0
 73
     1
 44
1.0
  0
POINT
  5
FC
330
F0
100
AcDbEntity
  8
Defpoints
 62
     0
100
AcDbPoint
 10
35.40000000000001
 20
4.763574928723899
 30
0.0
  0
POINT
  5
FD
330
F0
100
AcDbEntity
  8
Defpoints
 62
     0
100
AcDbPoint
 10
35.40000000000001
 20
-4.7614250712761
 30
0.0
  0
POINT
  5
FE
330
F0
100
AcDbEntity
  8
Defpoints
 62
     0
100
AcDbPoint
 10
48.0500000000001
 20
-4.761425071276053
 30
0.0
  0
ENDBLK
  5
F2
330
F0
100
AcDbEntity
  8
0
100
AcDbBlockEnd
  0
BLOCK
  5
106
330
105
100
AcDbEntity
  8
0
100
AcDbBlockBegin
  2
_D_2
 70
     0
 10
0.0
 20
0.0
 30
0.0
  3
_D_2
  1
_D_2
  0
LINE
  5
108
330
105
100
AcDbEntity
  8
치수문자_일반주서
 62
     0
370
    -2
100
AcDbLine
 10
35.40000000000001
 20
4.826074928723899
 30
0.0
 11
35.40000000000001
 21
14.30755048907219
 31
0.0
  0
LINE
  5
109
330
105
100
AcDbEntity
  8
치수문자_일반주서
 62
     0
370
    -2
100
AcDbLine
 10
10.00000000000001
 20
4.824988711969003
 30
0.0
 11
10.00000000000001
 21
14.30755048907219
 31
0.0
  0
LINE
  5
10A
330
105
100
AcDbEntity
  8
치수문자_일반주서
 62
     0
370
    -2
100
AcDbLine
 10
32.09800000000001
 20
14.30755048907219
 30
0.0
 11
13.30200000000001
 21
14.30755048907219
 31
0.0
  0
SOLID
  5
10B
330
105
100
AcDbEntity
  8
치수문자_일반주서
 62
     0
100
AcDbTrace
 10
32.09800000000001
 20
13.75721715573886
 30
0.0
 11
32.09800000000001
 21
14.85788382240553
 31
0.0
 12
35.40000000000001
 22
14.30755048907219
 32
0.0
 13
35.40000000000001
 23
14.30755048907219
 33
0.0
  0
SOLID
  5
10C
330
105
100
AcDbEntity
  8
치수문자_일반주서
 62
     0
100
AcDbTrace
 10
13.30200000000001
 20
14.85788382240553
 30
0.0
 11
13.30200000000001
 21
13.75721715573886
 31
0.0
 12
10.00000000000001
 22
14.30755048907219
 32
0.0
 13
10.00000000000001
 23
14.30755048907219
 33
0.0
  0
MTEXT
  5
10D
330
105
100
AcDbEntity
  8
치수문자_일반주서
 62
     0
100
AcDbMText
 10
22.75340701373266
 20
18.68255048907219
 30
0.0
 40
3.5
 41
0.0
 71
     2
 72
     1
  1
\A1;25.4 [1]
  7
SLDTEXTSTYLE0
 73
     1
 44
1.0
  0
POINT
  5
10E
330
105
100
AcDbEntity
  8
Defpoints
 62
     0
100
AcDbPoint
 10
35.40000000000001
 20
4.763574928723899
 30
0.0
  0
POINT
  5
10F
330
105
100
AcDbEntity
  8
Defpoints
 62
     0
100
AcDbPoint
 10
10.00000000000001
 20
4.762488711969003
 30
0.0
  0
POINT
  5
110
330
105
100
AcDbEntity
  8
Defpoints
 62
     0
100
AcDbPoint
 10
10.00000000000001
 20
14.30755048907219
 30
0.0
  0
ENDBLK
  5
107
330
105
100
AcDbEntity
  8
0
100
AcDbBlockEnd
  0
BLOCK
  5
11C
330
11B
100
AcDbEntity
  8
0
100
AcDbBlockBegin
  2
_D_3
 70
     0
 10
0.0
 20
0.0
 30
0.0
  3
_D_3
  1
_D_3
  0
LINE
  5
11E
330
11B
100
AcDbEntity
  8
치수문자_일반주서
 62
     0
370
    -2
100
AcDbLine
 10
35.40000000000001
 20
4.826074928723899
 30
0.0
 11
35.40000000000001
 21
26.30755048907215
 31
0.0
  0
LINE
  5
11F
330
11B
100
AcDbEntity
  8
치수문자_일반주서
 62
     0
370
    -2
100
AcDbLine
 10
-40.8
 20
3.826074928723887
 30
0.0
 11
-40.8
 21
26.30755048907215
 31
0.0
  0
LINE
  5
120
330
11B
100
AcDbEntity
  8
치수문자_일반주서
 62
     0
370
    -2
100
AcDbLine
 10
32.09800000000001
 20
26.30755048907215
 30
0.0
 11
-37.498
 21
26.30755048907215
 31
0.0
  0
SOLID
  5
121
330
11B
100
AcDbEntity
  8
치수문자_일반주서
 62
     0
100
AcDbTrace
 10
32.09800000000001
 20
25.75721715573881
 30
0.0
 11
32.09800000000001
 21
26.85788382240548
 31
0.0
 12
35.40000000000001
 22
26.30755048907215
 32
0.0
 13
35.40000000000001
 23
26.30755048907215
 33
0.0
  0
SOLID
  5
122
330
11B
100
AcDbEntity
  8
치수문자_일반주서
 62
     0
100
AcDbTrace
 10
-37.498
 20
26.85788382240548
 30
0.0
 11
-37.498
 21
25.75721715573881
 31
0.0
 12
-40.8
 22
26.30755048907215
 32
0.0
 13
-40.8
 23
26.30755048907215
 33
0.0
  0
MTEXT
  5
123
330
11B
100
AcDbEntity
  8
치수문자_일반주서
 62
     0
100
AcDbMText
 10
-3.042888962897313
 20
30.68255048907215
 30
0.0
 40
3.5
 41
0.0
 71
     2
 72
     1
  1
\A1;76.2 [3]
  7
SLDTEXTSTYLE0
 73
     1
 44
1.0
  0
POINT
  5
124
330
11B
100
AcDbEntity
  8
Defpoints
 62
     0
100
AcDbPoint
 10
35.40000000000001
 20
4.763574928723899
 30
0.0
  0
POINT
  5
125
330
11B
100
AcDbEntity
  8
Defpoints
 62
     0
100
AcDbPoint
 10
-40.8
 20
3.763574928723887
 30
0.0
  0
POINT
  5
126
330
11B
100
AcDbEntity
  8
Defpoints
 62
     0
100
AcDbPoint
 10
-40.8
 20
26.30755048907215
 30
0.0
  0
ENDBLK
  5
11D
330
11B
100
AcDbEntity
  8
0
100
AcDbBlockEnd
  0
BLOCK
  5
135
330
134
100
AcDbEntity
  8
0
100
AcDbBlockBegin
  2
SW_DOWELSYMBOL_0
 70
     0
 10
0.0
 20
0.0
 30
0.0
  3
SW_DOWELSYMBOL_0
  1
SW_DOWELSYMBOL_0
  0
CIRCLE
  5
137
330
134
100
AcDbEntity
  8
해칭선
 62
     0
100
AcDbCircle
 10
0.0
 20
0.0
 30
0.0
 40
3.000000000000002
  0
HATCH
  5
138
330
134
100
AcDbEntity
  8
0
  6
Continuous
 62
     0
370
     0
100
AcDbHatch
 10
0.0
 20
0.0
 30
0.0
210
0.0
220
0.0
230
1.0
  2
SOLID
 70
     1
 71
     0
 91
        1
 92
        0
 93
        3
 72
     2
 10
0.0000000000000069
 20
0.0
 40
3.000000000000002
 50
0.0
 51
90.0
 73
     1
 72
     1
 10
0.0000000000000069
 20
3.000000000000002
 11
0.0000000000000069
 21
0.0
 72
     1
 10
0.0000000000000069
 20
0.0
 11
3.000000000000009
 21
0.0
 97
        0
 75
     0
 76
     1
 98
        1
 10
0.0
 20
0.0
  0
HATCH
  5
139
330
134
100
AcDbEntity
  8
0
  6
Continuous
 62
     0
370
     0
100
AcDbHatch
 10
0.0
 20
0.0
 30
0.0
210
0.0
220
0.0
230
1.0
  2
SOLID
 70
     1
 71
     0
 91
        1
 92
        0
 93
        3
 72
     2
 10
0.0000000000000069
 20
0.0
 40
3.000000000000002
 50
180.0
 51
270.0000000000008
 73
     1
 72
     1
 10
0.0000000000000069
 20
-3.000000000000002
 11
0.0000000000000069
 21
0.0
 72
     1
 10
0.0000000000000069
 20
0.0
 11
-2.999999999999995
 21
0.0
 97
        0
 75
     0
 76
     1
 98
        1
 10
0.0
 20
0.0
  0
ENDBLK
  5
136
330
134
100
AcDbEntity
  8
0
100
AcDbBlockEnd
  0
BLOCK
  5
1B9
330
1B8
100
AcDbEntity
  8
0
100
AcDbBlockBegin
  2
*D8
 70
     1
 10
0.0
 20
0.0
 30
0.0
  3
*D8
  1
*D8
  0
LINE
  5
1BA
330
1B8
100
AcDbEntity
  8
치수문자_일반주서
 62
     0
370
    -2
100
AcDbLine
 10
17.81250000000005
 20
37.96249465740846
 30
0.0
 11
4.375000000000036
 21
37.96249465740841
 31
0.0
  0
LINE
  5
1BB
330
1B8
100
AcDbEntity
  8
치수문자_일반주서
 62
     0
370
    -2
100
AcDbLine
 10
17.81250000000005
 20
30.02499465740847
 30
0.0
 11
4.375000000000064
 21
30.02499465740842
 31
0.0
  0
LINE
  5
1BC
330
1B8
100
AcDbEntity
  8
치수문자_일반주서
 62
     0
370
    -2
100
AcDbLine
 10
4.375000000000048
 20
34.66049465740841
 30
0.0
 11
4.375000000000052
 21
33.32699465740842
 31
0.0
  0
SOLID
  5
1BD
330
1B8
100
AcDbEntity
  8
치수문자_일반주서
 62
     0
100
AcDbTrace
 10
4.925333333333382
 20
34.66049465740841
 30
0.0
 11
3.824666666666715
 21
34.66049465740841
 31
0.0
 12
4.375000000000036
 22
37.96249465740841
 32
0.0
 13
4.375000000000036
 23
37.96249465740841
 33
0.0
  0
SOLID
  5
1BE
330
1B8
100
AcDbEntity
  8
치수문자_일반주서
 62
     0
100
AcDbTrace
 10
3.824666666666719
 20
33.32699465740842
 30
0.0
 11
4.925333333333386
 21
33.32699465740842
 31
0.0
 12
4.375000000000064
 22
30.02499465740842
 32
0.0
 13
4.375000000000064
 23
30.02499465740842
 33
0.0
  0
MTEXT
  5
1BF
330
1B8
100
AcDbEntity
  8
치수문자_일반주서
 62
     0
100
AcDbMText
 10
0.0000000000000497
 20
33.99374465740844
 30
0.0
 40
3.5
 41
0.0
 71
     2
 72
     1
  1
\A1;%%c7.94 [5/16]
  7
SLDTEXTSTYLE0
 11
-3.468791308435139E-15
 21
1.0
 31
0.0
 73
     1
 44
1.0
  0
POINT
  5
1C0
330
1B8
100
AcDbEntity
  8
Defpoints
 62
     0
100
AcDbPoint
 10
17.87500000000005
 20
37.96249465740846
 30
0.0
  0
POINT
  5
1C1
330
1B8
100
AcDbEntity
  8
Defpoints
 62
     0
100
AcDbPoint
 10
17.87500000000005
 20
30.02499465740847
 30
0.0
  0
POINT
  5
1C2
330
1B8
100
AcDbEntity
  8
Defpoints
 62
     0
100
AcDbPoint
 10
4.375000000000064
 20
30.02499465740842
 30
0.0
  0
ENDBLK
  5
1C3
330
1B8
100
AcDbEntity
  8
0
100
AcDbBlockEnd
  0
BLOCK
  5
1C6
330
1C5
100
AcDbEntity
  8
0
100
AcDbBlockBegin
  2
*D9
 70
     1
 10
0.0
 20
0.0
 30
0.0
  3
*D9
  1
*D9
  0
LINE
  5
1C7
330
1C5
100
AcDbEntity
  8
치수문자_일반주서
 62
     0
370
    -2
100
AcDbLine
 10
93.32750000000007
 20
37.96249465740846
 30
0.0
 11
110.6775000000001
 21
37.96249465740852
 31
0.0
  0
LINE
  5
1C8
330
1C5
100
AcDbEntity
  8
치수문자_일반주서
 62
     0
370
    -2
100
AcDbLine
 10
93.32750000000007
 20
30.02499465740847
 30
0.0
 11
110.6775000000001
 21
30.02499465740853
 31
0.0
  0
LINE
  5
1C9
330
1C5
100
AcDbEntity
  8
치수문자_일반주서
 62
     0
370
    -2
100
AcDbLine
 10
110.6775000000001
 20
37.96249465740852
 30
0.0
 11
110.6775
 21
72.56649465740853
 31
0.0
  0
LINE
  5
1CA
330
1C5
100
AcDbEntity
  8
치수문자_일반주서
 62
     0
370
    -2
100
AcDbLine
 10
110.6775000000001
 20
37.96249465740852
 30
0.0
 11
110.6775000000001
 21
30.02499465740853
 31
0.0
  0
LINE
  5
1CB
330
1C5
100
AcDbEntity
  8
치수문자_일반주서
 62
     0
370
    -2
100
AcDbLine
 10
110.6775000000001
 20
41.26449465740852
 30
0.0
 11
110.6775000000001
 21
44.56649465740852
 31
0.0
  0
LINE
  5
1CC
330
1C5
100
AcDbEntity
  8
치수문자_일반주서
 62
     0
370
    -2
100
AcDbLine
 10
110.6775000000002
 20
26.72299465740853
 30
0.0
 11
110.6775000000002
 21
23.42099465740853
 31
0.0
  0
SOLID
  5
1CD
330
1C5
100
AcDbEntity
  8
치수문자_일반주서
 62
     0
100
AcDbTrace
 10
110.1271666666668
 20
41.26449465740852
 30
0.0
 11
111.2278333333334
 21
41.26449465740852
 31
0.0
 12
110.6775000000001
 22
37.96249465740852
 32
0.0
 13
110.6775000000001
 23
37.96249465740852
 33
0.0
  0
SOLID
  5
1CE
330
1C5
100
AcDbEntity
  8
치수문자_일반주서
 62
     0
100
AcDbTrace
 10
111.2278333333335
 20
26.72299465740853
 30
0.0
 11
110.1271666666668
 21
26.72299465740853
 31
0.0
 12
110.6775000000001
 22
30.02499465740853
 32
0.0
 13
110.6775000000001
 23
30.02499465740853
 33
0.0
  0
MTEXT
  5
1CF
330
1C5
100
AcDbEntity
  8
치수문자_일반주서
 62
     0
100
AcDbMText
 10
106.3025
 20
58.56649465740851
 30
0.0
 40
3.5
 41
0.0
 71
     2
 72
     1
  1
\A1;%%c7.94 [5/16]
  7
SLDTEXTSTYLE0
 11
-3.580687802255628E-15
 21
1.0
 31
0.0
 73
     1
 44
1.0
  0
POINT
  5
1D0
330
1C5
100
AcDbEntity
  8
Defpoints
 62
     0
100
AcDbPoint
 10
93.26500000000007
 20
37.96249465740846
 30
0.0
  0
POINT
  5
1D1
330
1C5
100
AcDbEntity
  8
Defpoints
 62
     0
100
AcDbPoint
 10
93.26500000000007
 20
30.02499465740847
 30
0.0
  0
POINT
  5
1D2
330
1C5
100
AcDbEntity
  8
Defpoints
 62
     0
100
AcDbPoint
 10
110.6775000000001
 20
30.02499465740853
 30
0.0
  0
ENDBLK
  5
1D3
330
1C5
100
AcDbEntity
  8
0
100
AcDbBlockEnd
  0
BLOCK
  5
1D6
330
1D5
100
AcDbEntity
  8
0
100
AcDbBlockBegin
  2
*D10
 70
     1
 10
0.0
 20
0.0
 30
0.0
  3
*D10
  1
*D10
  0
LINE
  5
1D7
330
1D5
100
AcDbEntity
  8
치수문자_일반주서
 62
     0
370
    -2
100
AcDbLine
 10
93.26500000000007
 20
38.02499465740847
 30
0.0
 11
93.26500000000007
 21
47.74459521775675
 31
0.0
  0
LINE
  5
1D8
330
1D5
100
AcDbEntity
  8
치수문자_일반주서
 62
     0
370
    -2
100
AcDbLine
 10
72.62750000000008
 20
38.00587024675683
 30
0.0
 11
72.62750000000008
 21
47.74459521775675
 31
0.0
  0
LINE
  5
1D9
330
1D5
100
AcDbEntity
  8
치수문자_일반주서
 62
     0
370
    -2
100
AcDbLine
 10
72.62750000000008
 20
47.74459521775675
 30
0.0
 11
36.71100000000006
 21
47.74459521775675
 31
0.0
  0
LINE
  5
1DA
330
1D5
100
AcDbEntity
  8
치수문자_일반주서
 62
     0
370
    -2
100
AcDbLine
 10
93.26500000000007
 20
47.74459521775675
 30
0.0
 11
72.62750000000008
 21
47.74459521775675
 31
0.0
  0
LINE
  5
1DB
330
1D5
100
AcDbEntity
  8
치수문자_일반주서
 62
     0
370
    -2
100
AcDbLine
 10
96.56700000000006
 20
47.74459521775675
 30
0.0
 11
99.86900000000006
 21
47.74459521775675
 31
0.0
  0
LINE
  5
1DC
330
1D5
100
AcDbEntity
  8
치수문자_일반주서
 62
     0
370
    -2
100
AcDbLine
 10
69.32550000000009
 20
47.74459521775675
 30
0.0
 11
66.0235000000001
 21
47.74459521775675
 31
0.0
  0
SOLID
  5
1DD
330
1D5
100
AcDbEntity
  8
치수문자_일반주서
 62
     0
100
AcDbTrace
 10
96.56700000000006
 20
48.29492855109009
 30
0.0
 11
96.56700000000006
 21
47.19426188442342
 31
0.0
 12
93.26500000000007
 22
47.74459521775675
 32
0.0
 13
93.26500000000007
 23
47.74459521775675
 33
0.0
  0
SOLID
  5
1DE
330
1D5
100
AcDbEntity
  8
치수문자_일반주서
 62
     0
100
AcDbTrace
 10
69.32550000000009
 20
47.19426188442342
 30
0.0
 11
69.32550000000009
 21
48.29492855109009
 31
0.0
 12
72.62750000000008
 22
47.74459521775675
 32
0.0
 13
72.62750000000008
 23
47.74459521775675
 33
0.0
  0
MTEXT
  5
1DF
330
1D5
100
AcDbEntity
  8
치수문자_일반주서
 62
     0
100
AcDbMText
 10
51.36725000000006
 20
52.11959521775675
 30
0.0
 40
3.5
 41
0.0
 71
     2
 72
     1
  1
\A1;20.64 [13/16]
  7
SLDTEXTSTYLE0
 73
     1
 44
1.0
  0
POINT
  5
1E0
330
1D5
100
AcDbEntity
  8
Defpoints
 62
     0
100
AcDbPoint
 10
93.26500000000007
 20
37.96249465740847
 30
0.0
  0
POINT
  5
1E1
330
1D5
100
AcDbEntity
  8
Defpoints
 62
     0
100
AcDbPoint
 10
72.62750000000008
 20
37.94337024675683
 30
0.0
  0
POINT
  5
1E2
330
1D5
100
AcDbEntity
  8
Defpoints
 62
     0
100
AcDbPoint
 10
72.62750000000008
 20
47.74459521775675
 30
0.0
  0
ENDBLK
  5
1E3
330
1D5
100
AcDbEntity
  8
0
100
AcDbBlockEnd
  0
BLOCK
  5
1E6
330
1E5
100
AcDbEntity
  8
0
100
AcDbBlockBegin
  2
*D11
 70
     1
 10
0.0
 20
0.0
 30
0.0
  3
*D11
  1
*D11
  0
LINE
  5
1E7
330
1E5
100
AcDbEntity
  8
치수문자_일반주서
 62
     0
370
    -2
100
AcDbLine
 10
93.26500000000007
 20
38.02499465740847
 30
0.0
 11
93.26500000000007
 21
59.74459521775671
 31
0.0
  0
LINE
  5
1E8
330
1E5
100
AcDbEntity
  8
치수문자_일반주서
 62
     0
370
    -2
100
AcDbLine
 10
17.06500000000005
 20
37.21499465740845
 30
0.0
 11
17.06500000000005
 21
59.74459521775671
 31
0.0
  0
LINE
  5
1E9
330
1E5
100
AcDbEntity
  8
치수문자_일반주서
 62
     0
370
    -2
100
AcDbLine
 10
89.96300000000008
 20
59.74459521775671
 30
0.0
 11
20.36700000000005
 21
59.74459521775671
 31
0.0
  0
SOLID
  5
1EA
330
1E5
100
AcDbEntity
  8
치수문자_일반주서
 62
     0
100
AcDbTrace
 10
89.96300000000008
 20
59.19426188442338
 30
0.0
 11
89.96300000000008
 21
60.29492855109005
 31
0.0
 12
93.26500000000007
 22
59.74459521775671
 32
0.0
 13
93.26500000000007
 23
59.74459521775671
 33
0.0
  0
SOLID
  5
1EB
330
1E5
100
AcDbEntity
  8
치수문자_일반주서
 62
     0
100
AcDbTrace
 10
20.36700000000005
 20
60.29492855109005
 30
0.0
 11
20.36700000000005
 21
59.19426188442338
 31
0.0
 12
17.06500000000005
 22
59.74459521775671
 32
0.0
 13
17.06500000000005
 23
59.74459521775671
 33
0.0
  0
MTEXT
  5
1EC
330
1E5
100
AcDbEntity
  8
치수문자_일반주서
 62
     0
100
AcDbMText
 10
54.82211103710275
 20
64.11959521775671
 30
0.0
 40
3.5
 41
0.0
 71
     2
 72
     1
  1
\A1;76.2 [3]
  7
SLDTEXTSTYLE0
 73
     1
 44
1.0
  0
POINT
  5
1ED
330
1E5
100
AcDbEntity
  8
Defpoints
 62
     0
100
AcDbPoint
 10
93.26500000000007
 20
37.96249465740847
 30
0.0
  0
POINT
  5
1EE
330
1E5
100
AcDbEntity
  8
Defpoints
 62
     0
100
AcDbPoint
 10
17.06500000000005
 20
37.15249465740845
 30
0.0
  0
POINT
  5
1EF
330
1E5
100
AcDbEntity
  8
Defpoints
 62
     0
100
AcDbPoint
 10
17.06500000000005
 20
59.74459521775671
 30
0.0
  0
ENDBLK
  5
1F0
330
1E5
100
AcDbEntity
  8
0
100
AcDbBlockEnd
  0
BLOCK
  5
205
330
204
100
AcDbEntity
  8
0
100
AcDbBlockBegin
  2
*D12
 70
     1
 10
0.0
 20
0.0
 30
0.0
  3
*D12
  1
*D12
  0
LINE
  5
206
330
204
100
AcDbEntity
  8
치수문자_일반주서
 62
     0
370
    -2
100
AcDbLine
 10
94.47956652894813
 20
27.57526475132208
 30
0.0
 11
113.4835499046643
 21
0.0000000000000195
 31
0.0
  0
MTEXT
  5
207
330
204
100
AcDbEntity
  8
치수문자_일반주서
 62
     0
100
AcDbMText
 10
107.079862059071
 20
13.91778344560304
 30
0.0
 40
3.5
 41
0.0
 71
     5
 72
     1
  1
\A1;R1.52 [R0.060]
  7
SLDTEXTSTYLE0
 11
0.5674609467360257
 21
-0.8234003120775782
 31
0.0
 73
     1
 44
1.0
  0
LINE
  5
208
330
204
100
AcDbEntity
  8
치수문자_일반주서
 62
     0
370
    -2
100
AcDbLine
 10
91.74100000000007
 20
31.54899465740847
 30
0.0
 11
92.60581048282577
 21
30.29413258180224
 31
0.0
  0
SOLID
  5
209
330
204
100
AcDbEntity
  8
치수문자_일반주서
 62
     0
100
AcDbTrace
 10
94.93271116736149
 20
27.88755742567581
 30
0.0
 11
94.02642189053476
 21
27.26297207696835
 31
0.0
 12
92.60581048282577
 22
30.29413258180224
 32
0.0
 13
92.60581048282577
 23
30.29413258180224
 33
0.0
  0
POINT
  5
20A
330
204
100
AcDbEntity
  8
Defpoints
 62
     0
100
AcDbPoint
 10
92.60581048282577
 20
30.29413258180224
 30
0.0
  0
POINT
  5
20B
330
204
100
AcDbEntity
  8
Defpoints
 62
     0
100
AcDbPoint
 10
91.74100000000007
 20
31.54899465740847
 30
0.0
  0
ENDBLK
  5
20C
330
204
100
AcDbEntity
  8
0
100
AcDbBlockEnd
  0
BLOCK
  5
251
330
250
100
AcDbEntity
  8
0
100
AcDbBlockBegin
  2
*D13
 70
     1
 10
0.0
 20
0.0
 30
0.0
  3
*D13
  1
*D13
  0
LINE
  5
253
330
250
100
AcDbEntity
  8
치수문자_일반주서
 62
     0
370
    -2
100
AcDbLine
 10
85.10728372484238
 20
4.888815414224744
 30
0.0
 11
71.66978372484236
 21
4.888815414224694
 31
0.0
  0
LINE
  5
254
330
250
100
AcDbEntity
  8
치수문자_일반주서
 62
     0
370
    -2
100
AcDbLine
 10
85.10728372484238
 20
-3.048684585775245
 30
0.0
 11
71.66978372484239
 21
-3.048684585775296
 31
0.0
  0
LINE
  5
255
330
250
100
AcDbEntity
  8
치수문자_일반주서
 62
     0
370
    -2
100
AcDbLine
 10
71.66978372484238
 20
1.586815414224694
 30
0.0
 11
71.66978372484238
 21
0.253315414224704
 31
0.0
  0
SOLID
  5
256
330
250
100
AcDbEntity
  8
치수문자_일반주서
 62
     0
100
AcDbTrace
 10
72.2201170581757
 20
1.586815414224696
 30
0.0
 11
71.11945039150905
 21
1.586815414224692
 31
0.0
 12
71.66978372484236
 22
4.888815414224694
 32
0.0
 13
71.66978372484236
 23
4.888815414224694
 33
0.0
  0
SOLID
  5
257
330
250
100
AcDbEntity
  8
치수문자_일반주서
 62
     0
100
AcDbTrace
 10
71.11945039150905
 20
0.2533154142247021
 30
0.0
 11
72.2201170581757
 21
0.253315414224706
 31
0.0
 12
71.66978372484239
 22
-3.048684585775296
 32
0.0
 13
71.66978372484239
 23
-3.048684585775296
 33
0.0
  0
MTEXT
  5
258
330
250
100
AcDbEntity
  8
치수문자_일반주서
 62
     0
100
AcDbMText
 10
67.29478372484238
 20
0.9200654142247289
 30
0.0
 40
3.5
 41
0.0
 71
     2
 72
     1
  1
\A1;%%c7.94 [5/16]
  7
SLDTEXTSTYLE0
 11
-3.580687802255628E-15
 21
1.0
 31
0.0
 73
     1
 44
1.0
  0
POINT
  5
259
330
250
100
AcDbEntity
  8
Defpoints
 62
     0
100
AcDbPoint
 10
85.16978372484238
 20
4.888815414224744
 30
0.0
  0
POINT
  5
25A
330
250
100
AcDbEntity
  8
Defpoints
 62
     0
100
AcDbPoint
 10
85.16978372484238
 20
-3.048684585775245
 30
0.0
  0
POINT
  5
25B
330
250
100
AcDbEntity
  8
Defpoints
 62
     0
100
AcDbPoint
 10
71.66978372484238
 20
-3.048684585775296
 30
0.0
  0
ENDBLK
  5
252
330
250
100
AcDbEntity
  8
0
100
AcDbBlockEnd
  0
BLOCK
  5
25D
330
25C
100
AcDbEntity
  8
0
100
AcDbBlockBegin
  2
*D14
 70
     1
 10
0.0
 20
0.0
 30
0.0
  3
*D14
  1
*D14
  0
LINE
  5
25F
330
25C
100
AcDbEntity
  8
치수문자_일반주서
 62
     0
370
    -2
100
AcDbLine
 10
160.6222837248424
 20
4.888815414224744
 30
0.0
 11
177.9722837248424
 21
4.888815414224808
 31
0.0
  0
LINE
  5
260
330
25C
100
AcDbEntity
  8
치수문자_일반주서
 62
     0
370
    -2
100
AcDbLine
 10
160.6222837248424
 20
-3.048684585775244
 30
0.0
 11
177.9722837248425
 21
-3.048684585775181
 31
0.0
  0
LINE
  5
261
330
25C
100
AcDbEntity
  8
치수문자_일반주서
 62
     0
370
    -2
100
AcDbLine
 10
177.9722837248424
 20
4.888815414224808
 30
0.0
 11
177.9722837248423
 21
39.49281541422481
 31
0.0
  0
LINE
  5
262
330
25C
100
AcDbEntity
  8
치수문자_일반주서
 62
     0
370
    -2
100
AcDbLine
 10
177.9722837248424
 20
4.888815414224808
 30
0.0
 11
177.9722837248425
 21
-3.048684585775181
 31
0.0
  0
LINE
  5
263
330
25C
100
AcDbEntity
  8
치수문자_일반주서
 62
     0
370
    -2
100
AcDbLine
 10
177.9722837248424
 20
8.190815414224808
 30
0.0
 11
177.9722837248424
 21
11.49281541422481
 31
0.0
  0
LINE
  5
264
330
25C
100
AcDbEntity
  8
치수문자_일반주서
 62
     0
370
    -2
100
AcDbLine
 10
177.9722837248425
 20
-6.350684585775181
 30
0.0
 11
177.9722837248425
 21
-9.65268458577518
 31
0.0
  0
SOLID
  5
265
330
25C
100
AcDbEntity
  8
치수문자_일반주서
 62
     0
100
AcDbTrace
 10
177.4219503915091
 20
8.190815414224806
 30
0.0
 11
178.5226170581758
 21
8.19081541422481
 31
0.0
 12
177.9722837248424
 22
4.888815414224808
 32
0.0
 13
177.9722837248424
 23
4.888815414224808
 33
0.0
  0
SOLID
  5
266
330
25C
100
AcDbEntity
  8
치수문자_일반주서
 62
     0
100
AcDbTrace
 10
178.5226170581758
 20
-6.350684585775179
 30
0.0
 11
177.4219503915091
 21
-6.350684585775182
 31
0.0
 12
177.9722837248425
 22
-3.048684585775181
 32
0.0
 13
177.9722837248425
 23
-3.048684585775181
 33
0.0
  0
MTEXT
  5
267
330
25C
100
AcDbEntity
  8
치수문자_일반주서
 62
     0
100
AcDbMText
 10
173.5972837248424
 20
25.4928154142248
 30
0.0
 40
3.5
 41
0.0
 71
     2
 72
     1
  1
\A1;%%c7.94 [5/16]
  7
SLDTEXTSTYLE0
 11
-3.580687802255628E-15
 21
1.0
 31
0.0
 73
     1
 44
1.0
  0
POINT
  5
268
330
25C
100
AcDbEntity
  8
Defpoints
 62
     0
100
AcDbPoint
 10
160.5597837248424
 20
4.888815414224744
 30
0.0
  0
POINT
  5
269
330
25C
100
AcDbEntity
  8
Defpoints
 62
     0
100
AcDbPoint
 10
160.5597837248424
 20
-3.048684585775245
 30
0.0
  0
POINT
  5
26A
330
25C
100
AcDbEntity
  8
Defpoints
 62
     0
100
AcDbPoint
 10
177.9722837248424
 20
-3.04868458577518
 30
0.0
  0
ENDBLK
  5
25E
330
25C
100
AcDbEntity
  8
0
100
AcDbBlockEnd
  0
BLOCK
  5
26C
330
26B
100
AcDbEntity
  8
0
100
AcDbBlockBegin
  2
*D15
 70
     1
 10
0.0
 20
0.0
 30
0.0
  3
*D15
  1
*D15
  0
LINE
  5
26E
330
26B
100
AcDbEntity
  8
치수문자_일반주서
 62
     0
370
    -2
100
AcDbLine
 10
160.5597837248424
 20
4.951315414224759
 30
0.0
 11
160.5597837248424
 21
14.67091597457304
 31
0.0
  0
LINE
  5
26F
330
26B
100
AcDbEntity
  8
치수문자_일반주서
 62
     0
370
    -2
100
AcDbLine
 10
139.9222837248424
 20
4.932191003573116
 30
0.0
 11
139.9222837248424
 21
14.67091597457304
 31
0.0
  0
LINE
  5
270
330
26B
100
AcDbEntity
  8
치수문자_일반주서
 62
     0
370
    -2
100
AcDbLine
 10
139.9222837248424
 20
14.67091597457304
 30
0.0
 11
104.0057837248424
 21
14.67091597457304
 31
0.0
  0
LINE
  5
271
330
26B
100
AcDbEntity
  8
치수문자_일반주서
 62
     0
370
    -2
100
AcDbLine
 10
160.5597837248424
 20
14.67091597457304
 30
0.0
 11
139.9222837248424
 21
14.67091597457304
 31
0.0
  0
LINE
  5
272
330
26B
100
AcDbEntity
  8
치수문자_일반주서
 62
     0
370
    -2
100
AcDbLine
 10
163.8617837248424
 20
14.67091597457304
 30
0.0
 11
167.1637837248424
 21
14.67091597457304
 31
0.0
  0
LINE
  5
273
330
26B
100
AcDbEntity
  8
치수문자_일반주서
 62
     0
370
    -2
100
AcDbLine
 10
136.6202837248424
 20
14.67091597457304
 30
0.0
 11
133.3182837248424
 21
14.67091597457304
 31
0.0
  0
SOLID
  5
274
330
26B
100
AcDbEntity
  8
치수문자_일반주서
 62
     0
100
AcDbTrace
 10
163.8617837248424
 20
15.22124930790637
 30
0.0
 11
163.8617837248424
 21
14.12058264123971
 31
0.0
 12
160.5597837248424
 22
14.67091597457304
 32
0.0
 13
160.5597837248424
 23
14.67091597457304
 33
0.0
  0
SOLID
  5
275
330
26B
100
AcDbEntity
  8
치수문자_일반주서
 62
     0
100
AcDbTrace
 10
136.6202837248424
 20
14.12058264123971
 30
0.0
 11
136.6202837248424
 21
15.22124930790637
 31
0.0
 12
139.9222837248424
 22
14.67091597457304
 32
0.0
 13
139.9222837248424
 23
14.67091597457304
 33
0.0
  0
MTEXT
  5
276
330
26B
100
AcDbEntity
  8
치수문자_일반주서
 62
     0
100
AcDbMText
 10
118.6620337248424
 20
19.04591597457304
 30
0.0
 40
3.5
 41
0.0
 71
     2
 72
     1
  1
\A1;20.64 [13/16]
  7
SLDTEXTSTYLE0
 73
     1
 44
1.0
  0
POINT
  5
277
330
26B
100
AcDbEntity
  8
Defpoints
 62
     0
100
AcDbPoint
 10
160.5597837248424
 20
4.888815414224759
 30
0.0
  0
POINT
  5
278
330
26B
100
AcDbEntity
  8
Defpoints
 62
     0
100
AcDbPoint
 10
139.9222837248424
 20
4.869691003573116
 30
0.0
  0
POINT
  5
279
330
26B
100
AcDbEntity
  8
Defpoints
 62
     0
100
AcDbPoint
 10
139.9222837248424
 20
14.67091597457304
 30
0.0
  0
ENDBLK
  5
26D
330
26B
100
AcDbEntity
  8
0
100
AcDbBlockEnd
  0
BLOCK
  5
27B
330
27A
100
AcDbEntity
  8
0
100
AcDbBlockBegin
  2
*D16
 70
     1
 10
0.0
 20
0.0
 30
0.0
  3
*D16
  1
*D16
  0
LINE
  5
27D
330
27A
100
AcDbEntity
  8
치수문자_일반주서
 62
     0
370
    -2
100
AcDbLine
 10
160.5597837248424
 20
4.951315414224759
 30
0.0
 11
160.5597837248424
 21
26.670915974573
 31
0.0
  0
LINE
  5
27E
330
27A
100
AcDbEntity
  8
치수문자_일반주서
 62
     0
370
    -2
100
AcDbLine
 10
84.35978372484237
 20
4.141315414224742
 30
0.0
 11
84.35978372484237
 21
26.670915974573
 31
0.0
  0
LINE
  5
27F
330
27A
100
AcDbEntity
  8
치수문자_일반주서
 62
     0
370
    -2
100
AcDbLine
 10
157.2577837248424
 20
26.670915974573
 30
0.0
 11
87.66178372484237
 21
26.670915974573
 31
0.0
  0
SOLID
  5
280
330
27A
100
AcDbEntity
  8
치수문자_일반주서
 62
     0
100
AcDbTrace
 10
157.2577837248424
 20
26.12058264123966
 30
0.0
 11
157.2577837248424
 21
27.22124930790633
 31
0.0
 12
160.5597837248424
 22
26.670915974573
 32
0.0
 13
160.5597837248424
 23
26.670915974573
 33
0.0
  0
SOLID
  5
281
330
27A
100
AcDbEntity
  8
치수문자_일반주서
 62
     0
100
AcDbTrace
 10
87.66178372484237
 20
27.22124930790633
 30
0.0
 11
87.66178372484237
 21
26.12058264123966
 31
0.0
 12
84.35978372484237
 22
26.670915974573
 32
0.0
 13
84.35978372484237
 23
26.670915974573
 33
0.0
  0
MTEXT
  5
282
330
27A
100
AcDbEntity
  8
치수문자_일반주서
 62
     0
100
AcDbMText
 10
122.1168947619451
 20
31.045915974573
 30
0.0
 40
3.5
 41
0.0
 71
     2
 72
     1
  1
\A1;76.2 [3]
  7
SLDTEXTSTYLE0
 73
     1
 44
1.0
  0
POINT
  5
283
330
27A
100
AcDbEntity
  8
Defpoints
 62
     0
100
AcDbPoint
 10
160.5597837248424
 20
4.888815414224759
 30
0.0
  0
POINT
  5
284
330
27A
100
AcDbEntity
  8
Defpoints
 62
     0
100
AcDbPoint
 10
84.35978372484237
 20
4.078815414224742
 30
0.0
  0
POINT
  5
285
330
27A
100
AcDbEntity
  8
Defpoints
 62
     0
100
AcDbPoint
 10
84.35978372484237
 20
26.670915974573
 30
0.0
  0
ENDBLK
  5
27C
330
27A
100
AcDbEntity
  8
0
100
AcDbBlockEnd
  0
BLOCK
  5
287
330
286
100
AcDbEntity
  8
0
100
AcDbBlockBegin
  2
*D17
 70
     1
 10
0.0
 20
0.0
 30
0.0
  3
*D17
  1
*D17
  0
LINE
  5
289
330
286
100
AcDbEntity
  8
치수문자_일반주서
 62
     0
370
    -2
100
AcDbLine
 10
161.7743502537905
 20
-5.49841449186163
 30
0.0
 11
180.7783336295066
 21
-33.0736792431837
 31
0.0
  0
MTEXT
  5
28A
330
286
100
AcDbEntity
  8
치수문자_일반주서
 62
     0
100
AcDbMText
 10
174.3746457839134
 20
-19.15589579758068
 30
0.0
 40
3.5
 41
0.0
 71
     5
 72
     1
  1
\A1;R1.52 [R0.060]
  7
SLDTEXTSTYLE0
 11
0.5674609467360257
 21
-0.8234003120775782
 31
0.0
 73
     1
 44
1.0
  0
LINE
  5
28B
330
286
100
AcDbEntity
  8
치수문자_일반주서
 62
     0
370
    -2
100
AcDbLine
 10
159.0357837248424
 20
-1.524684585775237
 30
0.0
 11
159.9005942076681
 21
-2.779546661381467
 31
0.0
  0
SOLID
  5
28C
330
286
100
AcDbEntity
  8
치수문자_일반주서
 62
     0
100
AcDbTrace
 10
162.2274948922038
 20
-5.186121817507905
 30
0.0
 11
161.3212056153771
 21
-5.810707166215357
 31
0.0
 12
159.9005942076681
 22
-2.779546661381467
 32
0.0
 13
159.9005942076681
 23
-2.779546661381467
 33
0.0
  0
POINT
  5
28D
330
286
100
AcDbEntity
  8
Defpoints
 62
     0
100
AcDbPoint
 10
159.9005942076681
 20
-2.779546661381467
 30
0.0
  0
POINT
  5
28E
330
286
100
AcDbEntity
  8
Defpoints
 62
     0
100
AcDbPoint
 10
159.0357837248424
 20
-1.524684585775237
 30
0.0
  0
ENDBLK
  5
288
330
286
100
AcDbEntity
  8
0
100
AcDbBlockEnd
  0
BLOCK
  5
298
330
297
100
AcDbEntity
  8
0
100
AcDbBlockBegin
  2
*D18
 70
     1
 10
0.0
 20
0.0
 30
0.0
  3
*D18
  1
*D18
  0
LINE
  5
29A
330
297
100
AcDbEntity
  8
치수문자_일반주서
 62
     0
370
    -2
100
AcDbLine
 10
36.45801806636934
 20
-7.726707008551683
 30
0.0
 11
49.14420300323455
 21
-35.86348137942892
 31
0.0
  0
MTEXT
  5
29B
330
297
100
AcDbEntity
  8
치수문자_일반주서
 62
     0
100
AcDbMText
 10
45.87272757231486
 20
-22.22123357830067
 30
0.0
 40
3.5
 41
0.0
 71
     5
 72
     1
  1
\A1;R.51 [R0.020]
  7
SLDTEXTSTYLE0
 11
0.4110283638764668
 21
-0.9116225557153766
 31
0.0
 73
     1
 44
1.0
  0
LINE
  5
29C
330
297
100
AcDbEntity
  8
치수문자_일반주서
 62
     0
370
    -2
100
AcDbLine
 10
34.892
 20
-4.253425071276101
 30
0.0
 11
35.10080240884925
 21
-4.716529329579511
 31
0.0
  0
SOLID
  5
29D
330
297
100
AcDbEntity
  8
치수문자_일반주서
 62
     0
100
AcDbTrace
 10
36.95971434619803
 20
-7.500504398965002
 30
0.0
 11
35.95632178654065
 21
-7.952909618138366
 31
0.0
 12
35.10080240884925
 22
-4.716529329579511
 32
0.0
 13
35.10080240884925
 23
-4.716529329579511
 33
0.0
  0
POINT
  5
29E
330
297
100
AcDbEntity
  8
Defpoints
 62
     0
100
AcDbPoint
 10
35.10080240884925
 20
-4.716529329579511
 30
0.0
  0
POINT
  5
29F
330
297
100
AcDbEntity
  8
Defpoints
 62
     0
100
AcDbPoint
 10
34.892
 20
-4.253425071276101
 30
0.0
  0
ENDBLK
  5
299
330
297
100
AcDbEntity
  8
0
100
AcDbBlockEnd
  0
ENDSEC
  0
SECTION
  2
ENTITIES
  0
LINE
  5
96
330
1F
100
AcDbEntity
  8
외형선
  6
Continuous
370
    15
100
AcDbLine
 10
8.479976710176384
 20
4.763574928723894
 30
0.0
 11
-39.8
 21
4.763574928723891
 31
0.0
  0
LINE
  5
97
330
1F
100
AcDbEntity
  8
외형선
  6
Continuous
370
    15
100
AcDbLine
 10
10.00000000000001
 20
4.763574928723894
 30
0.0
 11
9.823933129051353
 21
4.763574928723894
 31
0.0
  0
LINE
  5
98
330
1F
100
AcDbEntity
  8
외형선
  6
Continuous
370
    15
100
AcDbLine
 10
9.82393312905136
 20
-4.761425071276107
 30
0.0
 11
10.00000000000001
 21
-4.761425071276107
 31
0.0
  0
LINE
  5
99
330
1F
100
AcDbEntity
  8
외형선
  6
Continuous
370
    15
100
AcDbLine
 10
-39.8
 20
-4.761425071276109
 30
0.0
 11
8.479976710176384
 21
-4.761425071276107
 31
0.0
  0
LINE
  5
9A
330
1F
100
AcDbEntity
  8
외형선
  6
Continuous
370
    15
100
AcDbLine
 10
-39.8
 20
4.763574928723887
 30
0.0
 11
-40.8
 21
3.763574928723888
 31
0.0
  0
LINE
  5
9B
330
1F
100
AcDbEntity
  8
외형선
  6
Continuous
370
    15
100
AcDbLine
 10
-40.8
 20
-3.761425071276107
 30
0.0
 11
-39.8
 21
-4.761425071276106
 31
0.0
  0
SPLINE
  5
9C
330
1F
100
AcDbEntity
  8
0
  6
Continuous
 62
     1
370
    15
100
AcDbSpline
210
0.0
220
0.0
230
1.0
 70
     8
 71
     3
 72
    10
 73
     6
 74
     0
 42
0.000000001
 43
0.00000001
 40
0.0
 40
0.0
 40
0.0
 40
0.0
 40
0.4989010261485621
 40
0.68629028290119
 40
1.0
 40
1.0
 40
1.0
 40
1.0
 10
23.06081597032137
 20
1.221475599235776
 30
0.0
 10
22.84131264862287
 20
1.32632293757974
 30
0.0
 10
22.53936298556215
 20
1.470551363103341
 30
0.0
 10
22.09969741281308
 20
1.694081554606127
 30
0.0
 10
21.87902484862051
 20
1.809806643953671
 30
0.0
 10
21.74087424106241
 20
1.882255575072846
 30
0.0
  0
LINE
  5
9D
330
1F
100
AcDbEntity
  8
0
  6
Continuous
 62
     1
370
    15
100
AcDbLine
 10
12.13207662970084
 20
4.763574928723896
 30
0.0
 11
10.00000000000001
 21
4.763574928723896
 31
0.0
  0
SPLINE
  5
9E
330
1F
100
AcDbEntity
  8
0
  6
Continuous
 62
     1
370
    15
100
AcDbSpline
210
0.0
220
0.0
230
1.0
 70
     8
 71
     3
 72
    18
 73
    14
 74
     0
 42
0.000000001
 43
0.00000001
 40
0.0
 40
0.0
 40
0.0
 40
0.0
 40
0.1469647227151449
 40
0.2623222127945558
 40
0.3523496492818046
 40
0.4211451201772563
 40
0.4868891496243286
 40
0.5589895028668714
 40
0.676664455861633
 40
0.7972214303119298
 40
0.8904947192468335
 40
0.9639866134451494
 40
1.0
 40
1.0
 40
1.0
 40
1.0
 10
21.4870907295887
 20
3.785542330313783
 30
0.0
 10
21.3016174117882
 20
3.776158200383763
 30
0.0
 10
20.97055992914266
 20
3.759408155319101
 30
0.0
 10
20.50985083877043
 20
3.74300197896126
 30
0.0
 10
20.15010349062579
 20
3.733172323253293
 30
0.0
 10
19.85908909986664
 20
3.727168706670897
 30
0.0
 10
19.59182019489286
 20
3.723210454683923
 30
0.0
 10
19.26099518458127
 20
3.720270023018773
 30
0.0
 10
18.85939602658611
 20
3.719997219488124
 30
0.0
 10
18.43065608802107
 20
3.724137218080359
 30
0.0
 10
18.05885525765246
 20
3.731228534665483
 30
0.0
 10
17.79648187000779
 20
3.737899801457898
 30
0.0
 10
17.65508353804297
 20
3.742458454205563
 30
0.0
 10
17.60858137164298
 20
3.74395767435679
 30
0.0
  0
SPLINE
  5
9F
330
1F
100
AcDbEntity
  8
0
  6
Continuous
 62
     1
370
    15
100
AcDbSpline
210
0.0
220
0.0
230
1.0
 70
     8
 71
     3
 72
    30
 73
    26
 74
     0
 42
0.000000001
 43
0.00000001
 40
0.0
 40
0.0
 40
0.0
 40
0.0
 40
0.0537839027626986
 40
0.1023868902498892
 40
0.1445305542543438
 40
0.1764678713362389
 40
0.2190448022365545
 40
0.2791537044004052
 40
0.3268915429305038
 40
0.3632281799608619
 40
0.3949763150898029
 40
0.4244395079840626
 40
0.4655324541741034
 40
0.5181875977307122
 40
0.5551949086839832
 40
0.598567519334774
 40
0.6585153544172199
 40
0.7085731979200321
 40
0.7464393603184062
 40
0.7725290840118253
 40
0.7962093576802756
 40
0.8252007063026798
 40
0.865541945813569
 40
0.9224554167047674
 40
1.0
 40
1.0
 40
1.0
 40
1.0
 10
33.63343509636437
 20
3.258694322019021
 30
0.0
 10
33.4986924408193
 20
3.246967968735201
 30
0.0
 10
33.24218666908048
 20
3.224644842576073
 30
0.0
 10
32.82382027516062
 20
3.197430114358176
 30
0.0
 10
32.47120151176745
 20
3.17810903138813
 30
0.0
 10
32.14534066783658
 20
3.16284145948799
 30
0.0
 10
31.77578835026577
 20
3.149137046097815
 30
0.0
 10
31.35626998360493
 20
3.138945720500614
 30
0.0
 10
30.95587256506233
 20
3.134898107357552
 30
0.0
 10
30.63386782593793
 20
3.135095736712803
 30
0.0
 10
30.36270436602965
 20
3.137639800548779
 30
0.0
 10
30.07817833562773
 20
3.142549663925315
 30
0.0
 10
29.73578211735768
 20
3.151613082457311
 30
0.0
 10
29.37231917834713
 20
3.165583731646156
 30
0.0
 10
29.0023212256975
 20
3.183964993803673
 30
0.0
 10
28.61221908361052
 20
3.207273112911362
 30
0.0
 10
28.18588448714398
 20
3.238255526169161
 30
0.0
 10
27.77490810977921
 20
3.273866344547395
 30
0.0
 10
27.45772872355812
 20
3.304566280569631
 30
0.0
 10
27.21387693595102
 20
3.329986910444999
 30
0.0
 10
26.99538959428662
 20
3.354013991007328
 30
0.0
 10
26.73488000737614
 20
3.384256793414338
 30
0.0
 10
26.37787762934399
 20
3.428502660991462
 30
0.0
 10
25.89175444813403
 20
3.494239602303699
 30
0.0
 10
25.52328198484958
 20
3.550607229669258
 30
0.0
 10
25.31077672591177
 20
3.583115540174351
 30
0.0
  0
SPLINE
  5
A0
330
1F
100
AcDbEntity
  8
0
  6
Continuous
 62
     1
370
    15
100
AcDbSpline
210
0.0
220
0.0
230
1.0
 70
     8
 71
     3
 72
    24
 73
    20
 74
     0
 42
0.000000001
 43
0.00000001
 40
0.0
 40
0.0
 40
0.0
 40
0.0
 40
0.0769202742284361
 40
0.1342919408836964
 40
0.1785824607053774
 40
0.2352080600228934
 40
0.2799039964083428
 40
0.3280666206799954
 40
0.3920189247378526
 40
0.4409619371013195
 40
0.4778699601659172
 40
0.5299786195568006
 40
0.6019973379790069
 40
0.6871750773090601
 40
0.746572483548436
 40
0.7881278107425498
 40
0.8390896377024007
 40
0.9080260467683494
 40
1.0
 40
1.0
 40
1.0
 40
1.0
 10
14.32460881008669
 20
-3.96198766699333
 30
0.0
 10
14.50564207243712
 20
-3.944357781649376
 30
0.0
 10
14.82170059419106
 20
-3.913578490439814
 30
0.0
 10
15.24919034826168
 20
-3.87700310455042
 30
0.0
 10
15.63208871320434
 20
-3.847163339580014
 30
0.0
 10
15.98046377616358
 20
-3.822518627967474
 30
0.0
 10
16.33739405718409
 20
-3.799971738292239
 30
0.0
 10
16.71245534229783
 20
-3.778862796781006
 30
0.0
 10
17.09766957015039
 20
-3.760416605817913
 30
0.0
 10
17.45556489633378
 20
-3.746533525269155
 30
0.0
 10
17.78421578719415
 20
-3.736000943243005
 30
0.0
 10
18.16904544815597
 20
-3.726359715813643
 30
0.0
 10
18.66894286339559
 20
-3.718729126162736
 30
0.0
 10
19.18614383574447
 20
-3.717350306755038
 30
0.0
 10
19.63134189405903
 20
-3.721325511837151
 30
0.0
 10
19.99344450264437
 20
-3.727437458477825
 30
0.0
 10
20.38275947106908
 20
-3.736942550839085
 30
0.0
 10
20.89721918532288
 20
-3.753800649999397
 30
0.0
 10
21.27255461764581
 20
-3.772629935352843
 30
0.0
 10
21.4870907295887
 20
-3.783392472865997
 30
0.0
  0
SPLINE
  5
A1
330
1F
100
AcDbEntity
  8
0
  6
Continuous
 62
     1
370
    15
100
AcDbSpline
210
0.0
220
0.0
230
1.0
 70
     8
 71
     3
 72
    18
 73
    14
 74
     0
 42
0.000000001
 43
0.00000001
 40
0.0
 40
0.0
 40
0.0
 40
0.0
 40
0.1585942180557602
 40
0.2816138316737149
 40
0.3722756884839852
 40
0.4419340052874794
 40
0.4928980656227226
 40
0.5571950960963217
 40
0.6286403877428977
 40
0.7139922128906091
 40
0.8106897819694863
 40
0.9230319332192018
 40
1.0
 40
1.0
 40
1.0
 40
1.0
 10
25.31077672591176
 20
-3.580965682726565
 30
0.0
 10
25.49613918584767
 20
-3.552531660021533
 30
0.0
 10
25.82528506033765
 20
-3.502041710375032
 30
0.0
 10
26.26440938907419
 20
-3.441379397945956
 30
0.0
 10
26.60529032084097
 20
-3.397925640171854
 30
0.0
 10
26.85878398135283
 20
-3.367586720096354
 30
0.0
 10
27.07846731331644
 20
-3.342591725981138
 30
0.0
 10
27.29952354512361
 20
-3.318697211313316
 30
0.0
 10
27.56178169821873
 20
-3.29210641195408
 30
0.0
 10
27.86236055904909
 20
-3.263947779489877
 30
0.0
 10
28.21111048854159
 20
-3.23453609131018
 30
0.0
 10
28.5500180996113
 20
-3.209454312192114
 30
0.0
 10
28.77436607826666
 20
-3.195870997249101
 30
0.0
 10
28.86557948651756
 20
-3.190348413721835
 30
0.0
  0
LINE
  5
A2
330
1F
100
AcDbEntity
  8
0
  6
Continuous
 62
     1
370
    15
100
AcDbLine
 10
10.00000000000001
 20
-4.761425071276109
 30
0.0
 11
12.13207662970083
 21
-4.761425071276109
 31
0.0
  0
LINE
  5
A3
330
1F
100
AcDbEntity
  8
외형선
  6
Continuous
370
    15
100
AcDbLine
 10
10.00000000000001
 20
4.763574928723894
 30
0.0
 11
10.00000000000001
 21
4.762488711983016
 31
0.0
  0
SPLINE
  5
A4
330
1F
100
AcDbEntity
  8
외형선
  6
Continuous
370
    15
100
AcDbSpline
210
0.0
220
0.0
230
1.0
 70
     8
 71
     3
 72
    10
 73
     6
 74
     0
 42
0.000000001
 43
0.00000001
 40
0.0
 40
0.0
 40
0.0
 40
0.0
 40
0.5
 40
0.5
 40
1.0
 40
1.0
 40
1.0
 40
1.0
 10
8.479976710176384
 20
4.700466283358537
 30
0.0
 10
8.734227074134825
 20
4.724235126503009
 30
0.0
 10
8.98864570563226
 20
4.741325624486789
 30
0.0
 10
9.494585882619509
 20
4.761999902712399
 30
0.0
 10
9.746203068525663
 20
4.76561538352267
 30
0.0
 10
10.00000000000001
 20
4.762488711983018
 30
0.0
  0
SPLINE
  5
A5
330
1F
100
AcDbEntity
  8
외형선
  6
Continuous
370
    15
100
AcDbSpline
210
0.0
220
0.0
230
1.0
 70
     8
 71
     3
 72
    10
 73
     6
 74
     0
 42
0.000000001
 43
0.00000001
 40
0.0
 40
0.0
 40
0.0
 40
0.0
 40
0.5
 40
0.5
 40
1.0
 40
1.0
 40
1.0
 40
1.0
 10
10.00000000000001
 20
-4.603237527050997
 30
0.0
 10
9.746199006658726
 20
-4.565817397056397
 30
0.0
 10
9.494577831626364
 20
-4.521993259381958
 30
0.0
 10
8.988629464820333
 20
-4.421543340397652
 30
0.0
 10
8.734206717633606
 20
-4.364882480906775
 30
0.0
 10
8.479952295433826
 20
-4.302114954106356
 30
0.0
  0
LINE
  5
A6
330
1F
100
AcDbEntity
  8
외형선
  6
Continuous
370
    15
100
AcDbLine
 10
10.00000000000001
 20
-4.603237527050996
 30
0.0
 11
10.00000000000001
 21
-4.761425071276107
 31
0.0
  0
SPLINE
  5
A7
330
1F
100
AcDbEntity
  8
외형선
  6
Continuous
370
    15
100
AcDbSpline
210
0.0
220
0.0
230
1.0
 70
     8
 71
     3
 72
    11
 73
     7
 74
     0
 42
0.000000001
 43
0.00000001
 40
0.0
 40
0.0
 40
0.0
 40
0.0
 40
0.2823797819217966
 40
0.5649086356315082
 40
0.8478874297396004
 40
0.9999999999999999
 40
0.9999999999999999
 40
0.9999999999999999
 40
0.9999999999999999
 10
8.479976710176384
 20
-4.698316425910749
 30
0.0
 10
8.606554369766512
 20
-4.709220181733404
 30
0.0
 10
8.859776510862616
 20
-4.731033449606597
 30
0.0
 10
9.239752026486741
 20
-4.750679222020097
 30
0.0
 10
9.560858412295715
 20
-4.76098013095192
 30
0.0
 10
9.755784792542823
 20
-4.76037540637765
 30
0.0
 10
9.823933129051364
 20
-4.760163988232346
 30
0.0
  0
LINE
  5
A8
330
1F
100
AcDbEntity
  8
외형선
  6
Continuous
370
    15
100
AcDbLine
 10
8.479976710176384
 20
-4.761425071276107
 30
0.0
 11
8.479976710176384
 21
-4.698316998021752
 31
0.0
  0
LINE
  5
A9
330
1F
100
AcDbEntity
  8
외형선
  6
Continuous
370
    15
100
AcDbLine
 10
-39.8
 20
4.763574928723887
 30
0.0
 11
-39.8
 21
-4.761425071276109
 31
0.0
  0
LINE
  5
AA
330
1F
100
AcDbEntity
  8
외형선
  6
Continuous
370
    15
100
AcDbLine
 10
8.479976710176382
 20
-4.302027496674516
 30
0.0
 11
8.479976710176384
 21
4.763574928723894
 31
0.0
  0
LINE
  5
AB
330
1F
100
AcDbEntity
  8
외형선
  6
Continuous
370
    15
100
AcDbLine
 10
-40.8
 20
3.763574928723887
 30
0.0
 11
-40.8
 21
-3.761425071276109
 31
0.0
  0
SPLINE
  5
AC
330
1F
100
AcDbEntity
  8
외형선
  6
Continuous
370
    15
100
AcDbSpline
210
0.0
220
0.0
230
1.0
 70
     8
 71
     3
 72
    10
 73
     6
 74
     0
 42
0.000000001
 43
0.00000001
 40
0.0
 40
0.0
 40
0.0
 40
0.0
 40
0.5
 40
0.5
 40
1.0
 40
1.0
 40
1.0
 40
1.0
 10
10.00000000000002
 20
-3.843114147398447
 30
0.0
 10
9.746199006658737
 20
-3.804113457927128
 30
0.0
 10
9.494577831626371
 20
-3.75978822724381
 30
0.0
 10
8.988629464820336
 20
-3.660487622566294
 30
0.0
 10
8.734206717633608
 20
-3.605482113026156
 30
0.0
 10
8.479952295433826
 20
-3.545445515779148
 30
0.0
  0
SPLINE
  5
AD
330
1F
100
AcDbEntity
  8
외형선
  6
Continuous
370
    15
100
AcDbSpline
210
0.0
220
0.0
230
1.0
 70
     8
 71
     3
 72
    10
 73
     6
 74
     0
 42
0.000000001
 43
0.00000001
 40
0.0
 40
0.0
 40
0.0
 40
0.0
 40
0.5
 40
0.5
 40
1.0
 40
1.0
 40
1.0
 40
1.0
 10
10.00000000000001
 20
-0.2368006489119145
 30
0.0
 10
9.74620158567647
 20
-0.1199057147760661
 30
0.0
 10
9.494582943476471
 20
-0.0030093698947233
 30
0.0
 10
8.98863977666565
 20
0.2308803580454118
 30
0.0
 10
8.734219642670285
 20
0.3478881335307383
 30
0.0
 10
8.47996779718581
 20
0.4642121916435513
 30
0.0
  0
SPLINE
  5
AE
330
1F
100
AcDbEntity
  8
외형선
  6
Continuous
370
    15
100
AcDbSpline
210
0.0
220
0.0
230
1.0
 70
    24
 71
     3
 72
    14
 73
    10
 74
     0
 42
0.000000001
 43
0.00000001
 40
0.0
 40
0.0
 40
0.0
 40
0.0
 40
0.25
 40
0.25
 40
0.5
 40
0.5
 40
0.75
 40
0.75
 40
1.0
 40
1.0
 40
1.0
 40
1.0
 10
10.00000000000001
 20
-0.2368006489119145
 30
0.0
 10
10.00000000000001
 20
-0.5982694794274471
 30
0.0
 10
10.00000000000001
 20
-0.9613932883322015
 30
0.0
 10
10.00000000000001
 20
-1.664493157324676
 30
0.0
 10
10.00000000000001
 20
-2.004254695435597
 30
0.0
 10
10.00000000000001
 20
-2.634547330290016
 30
0.0
 10
10.00000000000001
 20
-2.924896417653795
 30
0.0
 10
10.00000000000001
 20
-3.437304170267387
 30
0.0
 10
10.00000000000001
 20
-3.659298472480452
 30
0.0
 10
10.00000000000001
 20
-3.843114147398443
 30
0.0
  0
SPLINE
  5
AF
330
1F
100
AcDbEntity
  8
외형선
  6
Continuous
370
    15
100
AcDbSpline
210
0.0
220
0.0
230
1.0
 70
     8
 71
     3
 72
    10
 73
     6
 74
     0
 42
0.000000001
 43
0.00000001
 40
0.0
 40
0.0
 40
0.0
 40
0.0
 40
0.5
 40
0.5
 40
1.0
 40
1.0
 40
1.0
 40
1.0
 10
10.00000000000001
 20
3.328320987001333
 30
0.0
 10
9.746202090222504
 20
3.334719453051194
 30
0.0
 10
9.494583943532987
 20
3.336394434690832
 30
0.0
 10
8.98864179402295
 20
3.330329536403805
 30
0.0
 10
8.73422217125918
 20
3.322567965315106
 30
0.0
 10
8.47997082987047
 20
3.310102950864658
 30
0.0
  0
SPLINE
  5
B0
330
1F
100
AcDbEntity
  8
외형선
  6
Continuous
370
    15
100
AcDbSpline
210
0.0
220
0.0
230
1.0
 70
    24
 71
     3
 72
    14
 73
    10
 74
     0
 42
0.000000001
 43
0.00000001
 40
0.0
 40
0.0
 40
0.0
 40
0.0
 40
0.25
 40
0.25
 40
0.4999999999999999
 40
0.4999999999999999
 40
0.75
 40
0.75
 40
1.0
 40
1.0
 40
1.0
 40
1.0
 10
10.00000000000001
 20
3.328320987001333
 30
0.0
 10
10.00000000000001
 20
3.212942873400789
 30
0.0
 10
10.00000000000001
 20
3.044118473698933
 30
0.0
 10
10.00000000000001
 20
2.60043617295635
 30
0.0
 10
10.00000000000001
 20
2.32558777509879
 30
0.0
 10
10.00000000000001
 20
1.691962873982651
 30
0.0
 10
10.00000000000001
 20
1.333523992562117
 30
0.0
 10
10.00000000000001
 20
0.5713349408192112
 30
0.0
 10
10.00000000000001
 20
0.1680416335976097
 30
0.0
 10
10.00000000000001
 20
-0.2368006489119155
 30
0.0
  0
SPLINE
  5
B1
330
1F
100
AcDbEntity
  8
외형선
  6
Continuous
370
    15
100
AcDbSpline
210
0.0
220
0.0
230
1.0
 70
    24
 71
     3
 72
     8
 73
     4
 74
     0
 42
0.000000001
 43
0.00000001
 40
0.0
 40
0.0
 40
0.0
 40
0.0
 40
1.0
 40
1.0
 40
1.0
 40
1.0
 10
10.00000000000001
 20
-3.843114147398444
 30
0.0
 10
10.00000000000001
 20
-4.096486090043518
 30
0.0
 10
10.00000000000001
 20
-4.351488984198325
 30
0.0
 10
10.00000000000001
 20
-4.603237527049716
 30
0.0
  0
SPLINE
  5
B2
330
1F
100
AcDbEntity
  8
외형선
  6
Continuous
370
    15
100
AcDbSpline
210
0.0
220
0.0
230
1.0
 70
    24
 71
     3
 72
    10
 73
     6
 74
     0
 42
0.000000001
 43
0.00000001
 40
0.0
 40
0.0
 40
0.0
 40
0.0
 40
0.5
 40
0.5
 40
1.0
 40
1.0
 40
1.0
 40
1.0
 10
10.00000000000001
 20
4.762488711969016
 30
0.0
 10
10.00000000000001
 20
4.528251780094206
 30
0.0
 10
10.00000000000001
 20
4.273060898805988
 30
0.0
 10
10.00000000000001
 20
3.776937187746943
 30
0.0
 10
10.00000000000001
 20
3.537294783906649
 30
0.0
 10
10.00000000000001
 20
3.328320987001333
 30
0.0
  0
SPLINE
  5
B3
330
1F
100
AcDbEntity
  8
0
  6
Continuous
 62
     1
370
    15
100
AcDbSpline
210
0.0
220
0.0
230
1.0
 70
     8
 71
     3
 72
    15
 73
    11
 74
     0
 42
0.000000001
 43
0.00000001
 40
0.0
 40
0.0
 40
0.0
 40
0.0
 40
0.1362255833044935
 40
0.2724178169125163
 40
0.4085840576089666
 40
0.544731714296434
 40
0.6808682332235717
 40
0.8170010830547294
 40
0.9531377398441198
 40
1.0
 40
1.0
 40
1.0
 40
1.0
 10
35.40000000000001
 20
-3.756405480329736
 30
0.0
 10
34.83890345200765
 20
-3.638892267049517
 30
0.0
 10
33.71684771935158
 20
-3.403894609167468
 30
0.0
 10
32.03402091810805
 20
-2.868450134463342
 30
0.0
 10
30.35155746674486
 20
-2.22518920146387
 30
0.0
 10
28.66935890879636
 20
-1.486939031755726
 30
0.0
 10
26.98731844199731
 20
-0.686849153026806
 30
0.0
 10
25.30532829858587
 20
0.1382901329321145
 30
0.0
 10
23.99100745053412
 20
0.7892703198290684
 30
0.0
 10
23.23732589739689
 20
1.135035195593686
 30
0.0
 10
23.04432354739737
 20
1.223578471320794
 30
0.0
  0
LINE
  5
B4
330
1F
100
AcDbEntity
  8
0
  6
Continuous
 62
     1
370
    15
100
AcDbLine
 10
35.40000000000001
 20
-3.973572247295049
 30
0.0
 11
35.40000000000001
 21
-3.756405480329736
 31
0.0
  0
SPLINE
  5
B5
330
1F
100
AcDbEntity
  8
0
  6
Continuous
 62
     1
370
    15
100
AcDbSpline
210
0.0
220
0.0
230
1.0
 70
     8
 71
     3
 72
    14
 73
    10
 74
     0
 42
0.000000001
 43
0.00000001
 40
0.0
 40
0.0
 40
0.0
 40
0.0
 40
0.25
 40
0.25
 40
0.5
 40
0.5
 40
0.75
 40
0.75
 40
1.0
 40
1.0
 40
1.0
 40
1.0
 10
34.892
 20
-4.417075946245422
 30
0.0
 10
34.95257194843491
 20
-4.430121282100477
 30
0.0
 10
35.01447260783613
 20
-4.431394221522154
 30
0.0
 10
35.13547126984771
 20
-4.405354170952929
 30
0.0
 10
35.19379563325234
 20
-4.377652228427555
 30
0.0
 10
35.29289222001456
 20
-4.29447375369172
 30
0.0
 10
35.33352164003846
 20
-4.23870167185933
 30
0.0
 10
35.3868697312605
 20
-4.113159975444217
 30
0.0
 10
35.40000000000001
 20
-4.043627750483275
 30
0.0
 10
35.40000000000001
 20
-3.97357224729505
 30
0.0
  0
SPLINE
  5
B6
330
1F
100
AcDbEntity
  8
0
  6
Continuous
 62
     1
370
    15
100
AcDbSpline
210
0.0
220
0.0
230
1.0
 70
     8
 71
     3
 72
    22
 73
    18
 74
     0
 42
0.000000001
 43
0.00000001
 40
0.0
 40
0.0
 40
0.0
 40
0.0
 40
0.0685945718848195
 40
0.1372332941460744
 40
0.2058499190718339
 40
0.2744281868742994
 40
0.3429877392924146
 40
0.4103223216891465
 40
0.4776841448399086
 40
0.5450976312474469
 40
0.6124955637859112
 40
0.681223969999581
 40
0.7499338832666214
 40
0.8186443644414007
 40
0.8873744711430739
 40
0.9561431493131123
 40
1.0
 40
1.0
 40
1.0
 40
1.0
 10
34.892
 20
-4.417075946245422
 30
0.0
 10
34.37161463554673
 20
-4.289616418703595
 30
0.0
 10
33.33050896454347
 20
-4.034615325260831
 30
0.0
 10
31.76850274794324
 20
-3.465995221711974
 30
0.0
 10
30.20680807682042
 20
-2.784764299974162
 30
0.0
 10
28.64591256133756
 20
-2.001000641786297
 30
0.0
 10
27.09480730408644
 20
-1.151757463798254
 30
0.0
 10
25.5529825591851
 20
-0.267211170003535
 30
0.0
 10
24.01974262350798
 20
0.6213626815069271
 30
0.0
 10
22.48566072238192
 20
1.488254295313158
 30
0.0
 10
20.94135568982625
 20
2.309619843271345
 30
0.0
 10
19.3874224595182
 20
3.055506608625422
 30
0.0
 10
17.82360615832988
 20
3.696214006096692
 30
0.0
 10
16.25977393936709
 20
4.206303908215559
 30
0.0
 10
14.69541824433514
 20
4.558630979385424
 30
0.0
 10
13.31941266021955
 20
4.747625861089308
 30
0.0
 10
12.46484776442813
 20
4.744864340149423
 30
0.0
 10
12.13207662970084
 20
4.7437889923774
 30
0.0
  0
SPLINE
  5
B7
330
1F
100
AcDbEntity
  8
0
  6
Continuous
 62
     1
370
    15
100
AcDbSpline
210
0.0
220
0.0
230
1.0
 70
     8
 71
     3
 72
    15
 73
    11
 74
     0
 42
0.000000001
 43
0.00000001
 40
0.0
 40
0.0
 40
0.0
 40
0.0
 40
0.1203155836693313
 40
0.2442610779415654
 40
0.3682313342405755
 40
0.4922333091497231
 40
0.6162339984096478
 40
0.7441676396725754
 40
0.872088905533175
 40
1.0
 40
1.0
 40
1.0
 40
1.0
 10
23.57430686012437
 20
-0.4544935506041404
 30
0.0
 10
23.02992772497059
 20
-0.2348517816182865
 30
0.0
 10
21.92474558391886
 20
0.2110583292525171
 30
0.0
 10
20.25861861281381
 20
0.8800717438387609
 30
0.0
 10
18.57578307942292
 20
1.517912278660105
 30
0.0
 10
16.89263567427212
 20
2.093000140776547
 30
0.0
 10
15.19156559491349
 20
2.587191258001767
 30
0.0
 10
13.47279031425267
 20
2.972833447345052
 30
0.0
 10
11.73633521993861
 20
3.241787737280361
 30
0.0
 10
10.57876306571203
 20
3.299477334969496
 30
0.0
 10
10.00000000000001
 20
3.328320987001334
 30
0.0
  0
SPLINE
  5
B8
330
1F
100
AcDbEntity
  8
외형선
  6
Continuous
370
    15
100
AcDbSpline
210
0.0
220
0.0
230
1.0
 70
    24
 71
     3
 72
    10
 73
     6
 74
     0
 42
0.000000001
 43
0.00000001
 40
0.0
 40
0.0
 40
0.0
 40
0.0
 40
0.4999999999999996
 40
0.4999999999999996
 40
1.0
 40
1.0
 40
1.0
 40
1.0
 10
10.00000000000001
 20
4.762488711969001
 30
0.0
 10
10.00000000000001
 20
4.528251780094194
 30
0.0
 10
10.00000000000001
 20
4.273060898805977
 30
0.0
 10
10.00000000000001
 20
3.776937187746939
 30
0.0
 10
10.00000000000001
 20
3.537294783906648
 30
0.0
 10
10.00000000000001
 20
3.328320987001334
 30
0.0
  0
SPLINE
  5
B9
330
1F
100
AcDbEntity
  8
0
  6
Continuous
 62
     1
370
    15
100
AcDbSpline
210
0.0
220
0.0
230
1.0
 70
     8
 71
     3
 72
    54
 73
    50
 74
     0
 42
0.000000001
 43
0.00000001
 40
0.0
 40
0.0
 40
0.0
 40
0.0
 40
0.0312500000000001
 40
0.0312500000000001
 40
0.0625000000000002
 40
0.0625000000000002
 40
0.1250000000000002
 40
0.1250000000000002
 40
0.1875000000000003
 40
0.1875000000000003
 40
0.2187500000000003
 40
0.2187500000000003
 40
0.2500000000000003
 40
0.2500000000000003
 40
0.3125000000000003
 40
0.3125000000000003
 40
0.3437500000000003
 40
0.3437500000000003
 40
0.3750000000000003
 40
0.3750000000000003
 40
0.4062500000000003
 40
0.4062500000000003
 40
0.4375000000000004
 40
0.4375000000000004
 40
0.5000000000000007
 40
0.5000000000000007
 40
0.5625000000000009
 40
0.5625000000000009
 40
0.5937500000000011
 40
0.5937500000000011
 40
0.6250000000000009
 40
0.6250000000000009
 40
0.6562500000000009
 40
0.6562500000000009
 40
0.6875000000000008
 40
0.6875000000000008
 40
0.7500000000000007
 40
0.7500000000000007
 40
0.7812500000000006
 40
0.7812500000000006
 40
0.8125000000000004
 40
0.8125000000000004
 40
0.8750000000000003
 40
0.8750000000000003
 40
0.9375000000000002
 40
0.9375000000000002
 40
0.9687500000000001
 40
0.9687500000000001
 40
1.0
 40
1.0
 40
1.0
 40
1.0
 10
10.00000000000001
 20
4.762488711983018
 30
0.0
 10
10.25960562474688
 20
4.759290479783303
 30
0.0
 10
10.52012592803086
 20
4.749010982410361
 30
0.0
 10
11.03952382604395
 20
4.714421404451342
 30
0.0
 10
11.29706397418335
 20
4.690171312238167
 30
0.0
 10
12.07305331296367
 20
4.596654378190545
 30
0.0
 10
12.59665565380349
 20
4.506250435278427
 30
0.0
 10
13.62873345682288
 20
4.27423579152037
 30
0.0
 10
14.15060791614181
 20
4.131682462951969
 30
0.0
 10
14.92822175372202
 20
3.882904218376334
 30
0.0
 10
15.18526922410029
 20
3.794351659231964
 30
0.0
 10
15.70390358240394
 20
3.605766090523632
 30
0.0
 10
15.96437678971624
 20
3.505839261895031
 30
0.0
 10
16.7440595197561
 20
3.191118897467441
 30
0.0
 10
17.25885583089136
 20
2.961822506430846
 30
0.0
 10
18.03910761274265
 20
2.5924536924935
 30
0.0
 10
18.29926951904072
 20
2.465279395256331
 30
0.0
 10
18.81629305174264
 20
2.204565965142221
 30
0.0
 10
19.07407331862692
 20
2.07088519108372
 30
0.0
 10
19.59361821306309
 20
1.797095506206729
 30
0.0
 10
19.85413020981434
 20
1.657196934562073
 30
0.0
 10
20.37316160388901
 20
1.373261822440136
 30
0.0
 10
20.63034569504544
 20
1.229480664017875
 30
0.0
 10
21.40723109868017
 20
0.792343229395999
 30
0.0
 10
21.93066064966483
 20
0.4934359363523059
 30
0.0
 10
22.96128935223656
 20
-0.1035851640503519
 30
0.0
 10
23.48480019814927
 20
-0.4048167121150202
 30
0.0
 10
24.26161372857423
 20
-0.8487925734553398
 30
0.0
 10
24.51881961742555
 20
-0.995419032649837
 30
0.0
 10
25.03788479303331
 20
-1.286164019725799
 30
0.0
 10
25.29839887346804
 20
-1.430022273609444
 30
0.0
 10
25.81791822901102
 20
-1.712789558574364
 30
0.0
 10
26.07565142234466
 20
-1.851475662996109
 30
0.0
 10
26.59273101717297
 20
-2.123256585034217
 30
0.0
 10
26.85290633732838
 20
-2.256485564919325
 30
0.0
 10
27.63315362126063
 20
-2.645470381624366
 30
0.0
 10
28.14792864954898
 20
-2.889737530537986
 30
0.0
 10
28.9276407209645
 20
-3.229515507209686
 30
0.0
 10
29.18810883030414
 20
-3.338219018799342
 30
0.0
 10
29.7067034610745
 20
-3.545088658107292
 30
0.0
 10
29.96374743453205
 20
-3.643137689656471
 30
0.0
 10
30.74142426459115
 20
-3.921504567255291
 30
0.0
 10
31.26316231229329
 20
-4.085166886877762
 30
0.0
 10
32.29536843645288
 20
-4.361236712478624
 30
0.0
 10
32.81897618386292
 20
-4.474750109597269
 30
0.0
 10
33.59488480112496
 20
-4.603649393588708
 30
0.0
 10
33.85246503791203
 20
-4.639822230315222
 30
0.0
 10
34.11619714761868
 20
-4.698499422846645
 30
0.0
 10
34.53746488389674
 20
-4.739425898417182
 30
0.0
 10
34.90199010056308
 20
-4.761425071276101
 30
0.0
  0
SPLINE
  5
BB
330
1F
100
AcDbEntity
  8
0
  6
Continuous
 62
     1
370
    15
100
AcDbSpline
210
0.0
220
0.0
230
1.0
 70
     8
 71
     3
 72
    15
 73
    11
 74
     0
 42
0.000000001
 43
0.00000001
 40
0.0
 40
0.0
 40
0.0
 40
0.0
 40
0.1329640505391092
 40
0.2659254011857846
 40
0.398889637192789
 40
0.531862338946722
 40
0.664849072565808
 40
0.7978553805485713
 40
0.9308867725066065
 40
1.0
 40
1.0
 40
1.0
 40
1.0
 10
34.24552765837812
 20
0.5323576126639907
 30
0.0
 10
33.67995431385835
 20
0.7889047097034444
 30
0.0
 10
32.54881910902967
 20
1.30199369448282
 30
0.0
 10
30.85211810647207
 20
2.010739359650266
 30
0.0
 10
29.15537441787253
 20
2.636493214512733
 30
0.0
 10
27.45850863214894
 20
3.150098530400427
 30
0.0
 10
25.7614402135565
 20
3.533175057488009
 30
0.0
 10
24.06408835782371
 20
3.759173809270978
 30
0.0
 10
22.6384051026377
 20
3.841126235771414
 30
0.0
 10
21.77848793097629
 20
3.78470242791489
 30
0.0
 10
21.48448232611877
 20
3.765411133004276
 30
0.0
  0
SPLINE
  5
BC
330
1F
100
AcDbEntity
  8
0
  6
Continuous
 62
     1
370
    15
100
AcDbSpline
210
0.0
220
0.0
230
1.0
 70
    24
 71
     3
 72
     8
 73
     4
 74
     0
 42
0.000000001
 43
0.00000001
 40
0.0
 40
0.0
 40
0.0
 40
0.0
 40
1.0
 40
1.0
 40
1.0
 40
1.0
 10
34.24552765837765
 20
0.5323576126642044
 30
0.0
 10
34.07901577711768
 20
0.3926375545123213
 30
0.0
 10
33.91259687325874
 20
0.252995513663361
 30
0.0
 10
33.74626864107709
 20
0.1134295553853733
 30
0.0
  0
SPLINE
  5
BD
330
1F
100
AcDbEntity
  8
0
  6
Continuous
 62
     1
370
    15
100
AcDbSpline
210
0.0
220
0.0
230
1.0
 70
     8
 71
     3
 72
     8
 73
     4
 74
     0
 42
0.000000001
 43
0.00000001
 40
0.0
 40
0.0
 40
0.0
 40
0.0
 40
1.0
 40
1.0
 40
1.0
 40
1.0
 10
35.40000000000001
 20
-1.271669601742287
 30
0.0
 10
34.84051019568364
 20
-0.8318162005510502
 30
0.0
 10
34.28907819674813
 20
-0.370615116472391
 30
0.0
 10
33.74626864107709
 20
0.1134295553853698
 30
0.0
  0
SPLINE
  5
BE
330
1F
100
AcDbEntity
  8
0
  6
Continuous
 62
     1
370
    15
100
AcDbSpline
210
0.0
220
0.0
230
1.0
 70
    24
 71
     3
 72
    10
 73
     6
 74
     0
 42
0.000000001
 43
0.00000001
 40
0.0
 40
0.0
 40
0.0
 40
0.0
 40
0.5
 40
0.5
 40
1.0
 40
1.0
 40
1.0
 40
1.0
 10
35.40000000000001
 20
-3.756405480329733
 30
0.0
 10
35.40000000000001
 20
-3.468365311406726
 30
0.0
 10
35.4
 20
-3.104415513380661
 30
0.0
 10
35.40000000000001
 20
-2.258267259231218
 30
0.0
 10
35.40000000000001
 20
-1.776801768807966
 30
0.0
 10
35.40000000000001
 20
-1.271669601742439
 30
0.0
  0
LINE
  5
BF
330
1F
100
AcDbEntity
  8
0
  6
Continuous
 62
     1
370
    15
100
AcDbLine
 10
34.3485810710064
 20
0.6188296931925461
 30
0.0
 11
35.40000000000001
 21
0.0010749287238964
 31
0.0
  0
LINE
  5
C0
330
1F
100
AcDbEntity
  8
0
  6
Continuous
 62
     1
370
    15
100
AcDbLine
 10
35.40000000000001
 20
0.0010749287238964
 30
0.0
 11
35.40000000000001
 21
-1.271669601742287
 31
0.0
  0
SPLINE
  5
C1
330
1F
100
AcDbEntity
  8
0
  6
Continuous
 62
     1
370
    15
100
AcDbSpline
210
0.0
220
0.0
230
1.0
 70
     8
 71
     3
 72
     9
 73
     5
 74
     0
 42
0.000000001
 43
0.00000001
 40
0.0
 40
0.0
 40
0.0
 40
0.0
 40
0.9524308942241454
 40
0.9999999999999999
 40
0.9999999999999999
 40
0.9999999999999999
 40
0.9999999999999999
 10
35.40000000000001
 20
3.334824928723893
 30
0.0
 10
34.83890132358709
 20
3.333278033623881
 30
0.0
 10
34.24977860632159
 20
3.33165387893781
 30
0.0
 10
33.66067909450322
 20
3.258941677023104
 30
0.0
 10
33.63265615751303
 20
3.255482822599028
 30
0.0
  0
SPLINE
  5
C2
330
1F
100
AcDbEntity
  8
0
  6
Continuous
 62
     1
370
    15
100
AcDbSpline
210
0.0
220
0.0
230
1.0
 70
    24
 71
     3
 72
    10
 73
     6
 74
     0
 42
0.000000001
 43
0.00000001
 40
0.0
 40
0.0
 40
0.0
 40
0.0
 40
0.5
 40
0.5
 40
1.0
 40
1.0
 40
1.0
 40
1.0
 10
35.40000000000001
 20
1.501074928723957
 30
0.0
 10
35.40000000000001
 20
1.966775327254041
 30
0.0
 10
35.40000000000001
 20
2.373179306812605
 30
0.0
 10
35.40000000000001
 20
2.997286459812504
 30
0.0
 10
35.40000000000001
 20
3.214561818410357
 30
0.0
 10
35.40000000000001
 20
3.334824928723893
 30
0.0
  0
SPLINE
  5
C3
330
1F
100
AcDbEntity
  8
0
  6
Continuous
 62
     1
370
    15
100
AcDbSpline
210
0.0
220
0.0
230
1.0
 70
    24
 71
     3
 72
     8
 73
     4
 74
     0
 42
0.000000001
 43
0.00000001
 40
0.0
 40
0.0
 40
0.0
 40
0.0
 40
1.0
 40
1.0
 40
1.0
 40
1.0
 10
35.40000000000001
 20
1.501074928723898
 30
0.0
 10
35.02524444710682
 20
1.186617682509586
 30
0.0
 10
34.63995761033166
 20
0.8633236398740869
 30
0.0
 10
34.24552765837765
 20
0.5323576126642017
 30
0.0
  0
SPLINE
  5
C4
330
1F
100
AcDbEntity
  8
0
  6
Continuous
 62
     1
370
    15
100
AcDbSpline
210
0.0
220
0.0
230
1.0
 70
     8
 71
     3
 72
    10
 73
     6
 74
     0
 42
0.000000001
 43
0.00000001
 40
0.0
 40
0.0
 40
0.0
 40
0.0
 40
0.1978928371272244
 40
0.598961735647435
 40
1.0
 40
1.0
 40
1.0
 40
1.0
 10
14.32952224823699
 20
-3.939470497072224
 30
0.0
 10
14.04392341181463
 20
-3.972240096563768
 30
0.0
 10
13.17950215612034
 20
-4.071423758149804
 30
0.0
 10
11.73632857725464
 20
-4.05558283135047
 30
0.0
 10
10.57876145577334
 20
-3.913935238775487
 30
0.0
 10
10.00000000000002
 20
-3.843114147398447
 30
0.0
  0
SPLINE
  5
C5
330
1F
100
AcDbEntity
  8
0
  6
Continuous
 62
     1
370
    15
100
AcDbSpline
210
0.0
220
0.0
230
1.0
 70
     8
 71
     3
 72
    16
 73
    12
 74
     0
 42
0.000000001
 43
0.00000001
 40
0.0
 40
0.0
 40
0.0
 40
0.0
 40
0.0818349197415613
 40
0.1926671950792526
 40
0.303517934547033
 40
0.4196097656436572
 40
0.5356963488461479
 40
0.651778172720516
 40
0.7678557276373882
 40
0.8839295055881862
 40
1.0
 40
1.0
 40
1.0
 40
1.0
 10
25.31767718784143
 20
-3.565172024638101
 30
0.0
 10
24.89984937554608
 20
-3.628984225036083
 30
0.0
 10
23.91614079643004
 20
-3.779219817633242
 30
0.0
 10
22.36641039694313
 20
-3.832510369279608
 30
0.0
 10
20.64171745138086
 20
-3.747067668725698
 30
0.0
 10
18.8902302699069
 20
-3.487805061111545
 30
0.0
 10
17.11203764922479
 20
-3.064569173393891
 30
0.0
 10
15.33392929261345
 20
-2.499118927041473
 30
0.0
 10
13.5558946330161
 20
-1.817861819274324
 30
0.0
 10
11.77792521098765
 20
-1.053198051360602
 30
0.0
 10
10.59263614859921
 20
-0.5089305502843212
 30
0.0
 10
10.00000000000001
 20
-0.2368006489119159
 30
0.0
  0
SPLINE
  5
C6
330
1F
100
AcDbEntity
  8
외형선
  6
Continuous
370
    15
100
AcDbSpline
210
0.0
220
0.0
230
1.0
 70
    24
 71
     3
 72
    14
 73
    10
 74
     0
 42
0.000000001
 43
0.00000001
 40
0.0
 40
0.0
 40
0.0
 40
0.0
 40
0.2499999999999998
 40
0.2499999999999998
 40
0.4999999999999999
 40
0.4999999999999999
 40
0.75
 40
0.75
 40
1.0
 40
1.0
 40
1.0
 40
1.0
 10
10.00000000000001
 20
-0.2368006489119159
 30
0.0
 10
10.00000000000001
 20
-0.5982694794274485
 30
0.0
 10
10.00000000000001
 20
-0.9613932883322028
 30
0.0
 10
10.00000000000001
 20
-1.664493157324677
 30
0.0
 10
10.00000000000001
 20
-2.004254695435598
 30
0.0
 10
10.00000000000001
 20
-2.634547330290018
 30
0.0
 10
10.00000000000001
 20
-2.924896417653797
 30
0.0
 10
10.00000000000001
 20
-3.437304170267387
 30
0.0
 10
10.00000000000001
 20
-3.659298472480451
 30
0.0
 10
10.00000000000001
 20
-3.843114147398443
 30
0.0
  0
SPLINE
  5
C7
330
1F
100
AcDbEntity
  8
외형선
  6
Continuous
370
    15
100
AcDbSpline
210
0.0
220
0.0
230
1.0
 70
    24
 71
     3
 72
    14
 73
    10
 74
     0
 42
0.000000001
 43
0.00000001
 40
0.0
 40
0.0
 40
0.0
 40
0.0
 40
0.25
 40
0.25
 40
0.4999999999999999
 40
0.4999999999999999
 40
0.75
 40
0.75
 40
1.0
 40
1.0
 40
1.0
 40
1.0
 10
10.00000000000001
 20
3.328320987001333
 30
0.0
 10
10.00000000000001
 20
3.212942873400789
 30
0.0
 10
10.00000000000001
 20
3.044118473698931
 30
0.0
 10
10.00000000000001
 20
2.600436172956349
 30
0.0
 10
10.00000000000001
 20
2.325587775098788
 30
0.0
 10
10.00000000000001
 20
1.69196287398265
 30
0.0
 10
10.00000000000001
 20
1.333523992562115
 30
0.0
 10
10.00000000000001
 20
0.5713349408192098
 30
0.0
 10
10.00000000000001
 20
0.1680416335976083
 30
0.0
 10
10.00000000000001
 20
-0.2368006489119168
 30
0.0
  0
LINE
  5
C8
330
1F
100
AcDbEntity
  8
0
  6
Continuous
 62
     1
370
    15
100
AcDbLine
 10
35.40000000000001
 20
-3.973572247295049
 30
0.0
 11
35.40000000000001
 21
-4.253425071276101
 31
0.0
  0
SPLINE
  5
C9
330
1F
100
AcDbEntity
  8
0
  6
Continuous
 62
     1
370
    15
100
AcDbSpline
210
0.0
220
0.0
230
1.0
 70
     8
 71
     3
 72
    12
 73
     8
 74
     0
 42
0.000000001
 43
0.00000001
 40
0.0
 40
0.0
 40
0.0
 40
0.0
 40
0.1772476773319028
 40
0.3828545427096918
 40
0.5885767950566589
 40
0.7943536965662736
 40
1.0
 40
1.0
 40
1.0
 40
1.0
 10
17.60831510955511
 20
-3.741893893090385
 30
0.0
 10
17.15885041693851
 20
-3.895469271159358
 30
0.0
 10
16.18800779746849
 20
-4.227191706268989
 30
0.0
 10
14.69541462414282
 20
-4.559145540712734
 30
0.0
 10
13.13027215027092
 20
-4.753703725199978
 30
0.0
 10
11.56487117995033
 20
-4.786033506984796
 30
0.0
 10
10.52151332894922
 20
-4.664156624568556
 30
0.0
 10
10.00000000000006
 20
-4.603237527051007
 30
0.0
  0
SPLINE
  5
CA
330
1F
100
AcDbEntity
  8
외형선
  6
Continuous
370
    15
100
AcDbSpline
210
0.0
220
0.0
230
1.0
 70
    24
 71
     3
 72
     8
 73
     4
 74
     0
 42
0.000000001
 43
0.00000001
 40
0.0
 40
0.0
 40
0.0
 40
0.0
 40
1.0
 40
1.0
 40
1.0
 40
1.0
 10
10.00000000000001
 20
-3.843114147398445
 30
0.0
 10
10.00000000000001
 20
-4.096486090043519
 30
0.0
 10
10.00000000000001
 20
-4.351488984198325
 30
0.0
 10
10.00000000000001
 20
-4.603237527049717
 30
0.0
  0
SPLINE
  5
CB
330
1F
100
AcDbEntity
  8
0
  6
Continuous
 62
     1
370
    15
100
AcDbSpline
210
0.0
220
0.0
230
1.0
 70
     8
 71
     3
 72
    12
 73
     8
 74
     0
 42
0.000000001
 43
0.00000001
 40
0.0
 40
0.0
 40
0.0
 40
0.0
 40
0.1066866379890855
 40
0.3463293952739591
 40
0.587823602463658
 40
0.7933314445931139
 40
1.0
 40
1.0
 40
1.0
 40
1.0
 10
28.86617677897334
 20
3.19275427943741
 30
0.0
 10
29.08051981531207
 20
3.286581195938954
 30
0.0
 10
29.77632667131188
 20
3.591164973859902
 30
0.0
 10
30.95686542422124
 20
4.002965120765339
 30
0.0
 10
32.33590933045551
 20
4.38286223370675
 30
0.0
 10
33.64874570452236
 20
4.633566043272812
 30
0.0
 10
34.38819319493658
 20
4.727868446634598
 30
0.0
 10
34.90542492128748
 20
4.763574928723899
 30
0.0
  0
LINE
  5
CC
330
1F
100
AcDbEntity
  8
0
  6
Continuous
 62
     1
370
    15
100
AcDbLine
 10
35.40000000000001
 20
0.0010749287238964
 30
0.0
 11
35.40000000000001
 21
1.501074928723897
 31
0.0
  0
SPLINE
  5
CE
330
1F
100
AcDbEntity
  8
0
  6
Continuous
 62
     1
370
    15
100
AcDbSpline
210
0.0
220
0.0
230
1.0
 70
    24
 71
     3
 72
     8
 73
     4
 74
     0
 42
0.000000001
 43
0.00000001
 40
0.0
 40
0.0
 40
0.0
 40
0.0
 40
1.0
 40
1.0
 40
1.0
 40
1.0
 10
35.40000000000001
 20
3.334824928723893
 30
0.0
 10
35.40000000000001
 20
3.599178288631198
 30
0.0
 10
35.40000000000001
 20
3.920877329051569
 30
0.0
 10
35.40000000000001
 20
4.255574928723899
 30
0.0
  0
LINE
  5
CF
330
1F
100
AcDbEntity
  8
중심선
 48
0.8
100
AcDbLine
 10
-43.80000000000001
 20
0.0010749287238892
 30
0.0
 11
38.40000000000001
 21
0.0010749287238993
 31
0.0
  0
LINE
  5
D0
330
1F
100
AcDbEntity
  8
참조1
100
AcDbLine
 10
-2.699999999999994
 20
0.0010749287238892
 30
0.0
 11
-2.699999999999989
 21
-39.99892507127611
 31
0.0
  0
LINE
  5
D1
330
1F
100
AcDbEntity
  8
참조1
100
AcDbLine
 10
-2.699999999999989
 20
-39.99892507127611
 30
0.0
 11
-14.66672777521594
 21
-39.9989250712761
 31
0.0
  0
CIRCLE
  5
D2
330
1F
100
AcDbEntity
  8
해칭선
100
AcDbCircle
 10
0.0
 20
0.0
 30
0.0
 40
3.000000000000001
  0
INSERT
  5
D3
330
1F
100
AcDbEntity
  8
0
  6
Continuous
 62
     7
100
AcDbBlockReference
 66
     1
  2
블럭10
 10
-16.64027293212521
 20
-52.04609937292004
 30
0.0
  0
ATTRIB
  5
D4
330
D3
100
AcDbEntity
  8
FORMAT
 62
     2
100
AcDbText
 10
-26.78190894426184
 20
-49.97073246008785
 30
0.0
 40
4.233333333333333
  1
EM637024 [ 2 FLUTE ]
 41
0.75
  7
SLDTEXTSTYLE0
 11
-26.78190894426184
 21
-52.08739912675452
 31
0.0
100
AcDbAttribute
  2
AUTOATTR0
 70
     0
 74
     1
  0
SEQEND
  5
D5
330
D3
100
AcDbEntity
  8
0
  6
Continuous
 62
     7
  0
HATCH
  5
D6
330
1F
100
AcDbEntity
  8
중심선
100
AcDbHatch
 10
0.0
 20
0.0
 30
0.0
210
0.0
220
0.0
230
1.0
  2
SOLID
 70
     1
 71
     0
 91
        1
 92
        0
 93
        4
 72
     1
 10
-10.92536362774436
 20
-35.7989250712761
 11
-14.37163887158164
 21
-35.7989250712761
 72
     1
 10
-14.37163887158164
 20
-35.7989250712761
 11
-16.49986873078569
 21
-38.33525065184867
 72
     1
 10
-16.49986873078569
 20
-38.33525065184867
 11
-13.05356040183523
 21
-38.33521122254619
 72
     1
 10
-13.05356040183523
 20
-38.33521122254619
 11
-10.92536362774436
 21
-35.7989250712761
 97
        0
 75
     0
 76
     1
 98
        1
 10
-0.0000000000000069
 20
0.0
  0
HATCH
  5
D7
330
1F
100
AcDbEntity
  8
중심선
100
AcDbHatch
 10
0.0
 20
0.0
 30
0.0
210
0.0
220
0.0
230
1.0
  2
SOLID
 70
     1
 71
     0
 91
        1
 92
        0
 93
        4
 72
     1
 10
-5.912599636708379
 20
-35.79892507127613
 11
-9.35887488054566
 21
-35.79892507127608
 72
     1
 10
-9.35887488054566
 20
-35.79892507127608
 11
-13.89001288890308
 21
-41.19892507127612
 72
     1
 10
-13.89001288890308
 20
-41.19892507127612
 11
-10.4437376450658
 21
-41.19892507127612
 72
     1
 10
-10.4437376450658
 20
-41.19892507127612
 11
-5.912599636708379
 21
-35.79892507127613
 97
        0
 75
     0
 76
     1
 98
        1
 10
-0.0000000000000069
 20
0.0
  0
HATCH
  5
D8
330
1F
100
AcDbEntity
  8
중심선
100
AcDbHatch
 10
0.0
 20
0.0
 30
0.0
210
0.0
220
0.0
230
1.0
  2
SOLID
 70
     1
 71
     0
 91
        1
 92
        0
 93
        4
 72
     1
 10
-0.8998356456725101
 20
-35.79892507127613
 11
-4.346110889509598
 21
-35.79892507127608
 72
     1
 10
-4.346110889509598
 20
-35.79892507127608
 11
-11.39454779139887
 21
-44.19892507127612
 72
     1
 10
-11.39454779139887
 20
-44.19892507127612
 11
-7.948272547561593
 21
-44.19892507127612
 72
     1
 10
-7.948272547561593
 20
-44.19892507127612
 11
-0.8998356456725105
 21
-35.79892507127613
 97
        0
 75
     0
 76
     1
 98
        1
 10
-0.0000000000000069
 20
0.0
  0
HATCH
  5
D9
330
1F
100
AcDbEntity
  8
중심선
100
AcDbHatch
 10
0.0
 20
0.0
 30
0.0
210
0.0
220
0.0
230
1.0
  2
SOLID
 70
     1
 71
     0
 91
        1
 92
        0
 93
        6
 72
     3
 10
3.900054785339689
 20
-39.99892507132738
 11
3.960054785062283
 21
1.540882976769353E-10
 40
0.3939339440162628
 50
17.09539180608437
 51
320.0019657685075
 73
     0
 72
     1
 10
5.583054441040284
 20
-38.58681907591438
 11
7.88835631474135
 21
-36.65249236586643
 72
     3
 10
3.900054785286843
 20
-39.99892507127625
 11
6.600054785286829
 21
-1.278976924368180E-13
 40
0.636358354079598
 50
39.99873849337434
 51
368.4976242363725
 73
     1
 72
     1
 10
10.32538727718745
 20
-39.03892507120613
 11
2.580122092122765
 21
-39.03892507120613
 72
     1
 10
2.580122092122765
 20
-39.03892507120613
 11
2.580097047676831
 21
-40.95892507120602
 72
     1
 10
2.580097047676831
 20
-40.95892507120602
 11
7.021476817148868
 21
-40.95892507120599
 97
        0
 75
     0
 76
     1
 98
        1
 10
-0.0000000000000069
 20
0.0
  0
DIMENSION
  5
DA
330
1F
100
AcDbEntity
  8
치수문자_일반주서
100
AcDbDimension
  2
_D
 10
-53.29999999999999
 20
-4.76142507127616
 30
0.0
 11
-53.30000000000001
 21
0.0010749287238984
 31
0.0
 70
   160
  1
%%c<>
 71
     2
 42
9.525000000000006
 52
-270.0
  3
SLDDIMSTYLE0
100
AcDbAlignedDimension
 13
-39.8
 23
4.763574928723896
 33
0.0
 14
-39.8
 24
-4.761425071276109
 34
0.0
 50
90.0000000000002
100
AcDbRotatedDimension
1001
ACAD
1000
DSTYLE
1002
{
1070
   273
1070
     7
1070
   171
1070
     6
1002
}
  0
DIMENSION
  5
EF
330
1F
100
AcDbEntity
  8
치수문자_일반주서
100
AcDbDimension
  2
_D_1
 10
48.0500000000001
 20
-4.761425071276051
 30
0.0
 11
48.04999999999998
 21
26.02382492872394
 31
0.0
 70
   160
  1
%%c<>
 71
     2
 42
9.524999999999999
 52
-270.0
  3
SLDDIMSTYLE0
100
AcDbAlignedDimension
 13
35.40000000000001
 23
4.763574928723899
 33
0.0
 14
35.40000000000001
 24
-4.7614250712761
 34
0.0
 50
90.0000000000002
100
AcDbRotatedDimension
1001
ACAD
1000
DSTYLE
1002
{
1070
   273
1070
     7
1070
   171
1070
     6
1002
}
  0
DIMENSION
  5
103
330
1F
100
AcDbEntity
  8
치수문자_일반주서
100
AcDbDimension
  2
_D_2
 10
10.00000000000001
 20
14.30755048907219
 30
0.0
 11
22.75340701373266
 21
14.30755048907219
 31
0.0
 70
   160
  1
<>
 71
     2
 42
25.40000000000001
  3
SLDDIMSTYLE0
100
AcDbAlignedDimension
 13
35.40000000000001
 23
4.763574928723899
 33
0.0
 14
10.00000000000001
 24
4.762488711969003
 34
0.0
 50
-0.000000000000008
100
AcDbRotatedDimension
1001
ACAD
1000
DSTYLE
1002
{
1070
   273
1070
     7
1070
   171
1070
     6
1002
}
  0
DIMENSION
  5
119
330
1F
100
AcDbEntity
  8
치수문자_일반주서
100
AcDbDimension
  2
_D_3
 10
-40.8
 20
26.30755048907215
 30
0.0
 11
-3.042888962897313
 21
26.30755048907215
 31
0.0
 70
   160
  1
<>
 71
     2
 42
76.20000000000002
  3
SLDDIMSTYLE0
100
AcDbAlignedDimension
 13
35.40000000000001
 23
4.763574928723899
 33
0.0
 14
-40.8
 24
3.763574928723887
 34
0.0
 50
0.0000000000000053
100
AcDbRotatedDimension
1001
ACAD
1000
DSTYLE
1002
{
1070
   273
1070
     7
1070
   171
1070
     6
1002
}
  0
LINE
  5
12D
330
1F
100
AcDbEntity
  8
참조1
100
AcDbLine
 10
83.30561285443832
 20
7.441074928723896
 30
0.0
 11
83.30561285443832
 21
-7.438925071276109
 31
0.0
  0
LINE
  5
12E
330
1F
100
AcDbEntity
  8
참조1
100
AcDbLine
 10
96.00561285443833
 20
5.441074928723896
 30
0.0
 11
83.30561285443832
 21
5.441074928723896
 31
0.0
  0
SOLID
  5
12F
330
1F
100
AcDbEntity
  8
참조1
100
AcDbTrace
 10
83.30561285443832
 20
5.441074928723896
 30
0.0
 11
89.65561285443832
 21
4.425074928723896
 31
0.0
 12
89.65561285443832
 22
6.457074928723896
 32
0.0
 13
89.65561285443832
 23
6.457074928723896
 33
0.0
  0
LINE
  5
130
330
1F
100
AcDbEntity
  8
참조1
100
AcDbLine
 10
96.00561285443833
 20
-5.438925071276109
 30
0.0
 11
83.30561285443832
 21
-5.438925071276109
 31
0.0
  0
SOLID
  5
131
330
1F
100
AcDbEntity
  8
참조1
100
AcDbTrace
 10
83.30561285443832
 20
-5.438925071276109
 30
0.0
 11
89.65561285443832
 21
-6.454925071276109
 31
0.0
 12
89.65561285443832
 22
-4.422925071276109
 32
0.0
 13
89.65561285443832
 23
-4.422925071276109
 33
0.0
  0
MTEXT
  5
132
330
1F
100
AcDbEntity
  8
참조1
100
AcDbMText
 10
92.7031029469086
 20
10.98929157337383
 30
0.0
 40
3.5
 41
0.0
 71
     1
 72
     1
  1
A
  7
SLDTEXTSTYLE0
 73
     1
 44
1.0
  0
MTEXT
  5
133
330
1F
100
AcDbEntity
  8
참조1
100
AcDbMText
 10
92.7031029469086
 20
0.1092915733738251
 30
0.0
 40
3.5
 41
0.0
 71
     1
 72
     1
  1
A
  7
SLDTEXTSTYLE0
 73
     1
 44
1.0
  0
INSERT
  5
13A
330
1F
100
AcDbEntity
  8
해칭선
100
AcDbBlockReference
  2
SW_DOWELSYMBOL_0
 10
0.0
 20
0.0
 30
0.0
  0
ARC
  5
292
330
1F
100
AcDbEntity
  8
0
  6
Continuous
 62
     1
370
    15
100
AcDbCircle
 10
34.892
 20
4.255574928723899
 30
0.0
 40
0.508
100
AcDbArc
 50
0.0
 51
90.0
  0
ARC
  5
293
102
{ACAD_REACTORS
102
}
330
1F
100
AcDbEntity
  8
0
  6
Continuous
 62
     1
370
    15
100
AcDbCircle
 10
34.892
 20
-4.253425071276101
 30
0.0
 40
0.508
100
AcDbArc
 50
270.0
 51
0.0
  0
DIMENSION
  5
294
102
{ACAD_REACTORS
102
}
102
{ACAD_XDICTIONARY
360
295
102
}
330
1F
100
AcDbEntity
  8
치수문자_일반주서
100
AcDbDimension
  2
*D18
 10
34.892
 20
-4.253425071276101
 30
0.0
 11
43.47971836356199
 21
-23.30018303347639
 31
0.0
 70
   164
  1
<>
 71
     5
 42
0.5079999999999988
  3
SLDDIMSTYLE0
100
AcDbRadialDimension
 15
35.10080240884925
 25
-4.716529329579511
 35
0.0
 40
0.0
1001
ACAD_DSTYLE_DIMRADIAL_EXTENSION
1070
   387
1070
     1
1070
   388
1040
4.71238898038469
1070
   390
1040
0.0
1001
ACAD
1000
DSTYLE
1002
{
1070
   171
1070
     3
1002
}
  0
ENDSEC
  0
SECTION
  2
OBJECTS
  0
DICTIONARY
  5
C
330
0
100
AcDbDictionary
281
     1
  3
ACAD_GROUP
350
D
  3
ACAD_IMAGE_VARS
350
15E
  3
ACAD_LAYOUT
350
1A
  3
ACAD_MLINESTYLE
350
17
  3
ACAD_PLOTSETTINGS
350
19
  3
ACAD_PLOTSTYLENAME
350
E
  3
ACAD_SCALELIST
350
47
  3
APPDATA
350
15C
  3
DWGPROPS
350
2A1
  0
DICTIONARY
  5
20D
330
2
100
AcDbDictionary
280
     1
281
     1
  3
ACAD_LAYERSTATES
360
20E
  0
DICTIONARY
  5
295
330
294
100
AcDbDictionary
280
     1
281
     1
  0
DICTIONARY
  5
D
102
{ACAD_REACTORS
330
C
102
}
330
C
100
AcDbDictionary
281
     1
  0
RASTERVARIABLES
  5
15E
102
{ACAD_REACTORS
330
C
102
}
330
C
100
AcDbRasterVariables
 90
        0
 70
     1
 71
     1
 72
     1
  0
DICTIONARY
  5
1A
102
{ACAD_REACTORS
330
C
102
}
330
C
100
AcDbDictionary
281
     1
  3
Layout1
350
1E
  3
Layout2
350
26
  3
Model
350
22
  0
DICTIONARY
  5
17
102
{ACAD_REACTORS
330
C
102
}
330
C
100
AcDbDictionary
281
     1
  3
Standard
350
18
  0
DICTIONARY
  5
19
102
{ACAD_REACTORS
330
C
102
}
330
C
100
AcDbDictionary
281
     1
  0
ACDBDICTIONARYWDFLT
  5
E
102
{ACAD_REACTORS
330
C
102
}
330
C
100
AcDbDictionary
281
     1
  3
Normal
350
F
100
AcDbDictionaryWithDefault
340
F
  0
DICTIONARY
  5
47
102
{ACAD_REACTORS
330
C
102
}
330
C
100
AcDbDictionary
281
     1
  3
A0
350
48
  3
A1
350
49
  3
A2
350
4A
  3
A3
350
4B
  3
A4
350
4C
  3
A5
350
4D
  3
A6
350
4E
  3
A7
350
4F
  3
A8
350
50
  3
A9
350
51
  3
B0
350
52
  3
B1
350
53
  3
B2
350
54
  3
B3
350
55
  3
B4
350
56
  3
B5
350
57
  3
B6
350
58
  3
B7
350
59
  3
B8
350
5A
  3
B9
350
5B
  3
C0
350
5C
  3
C1
350
5D
  3
C2
350
5E
  3
C3
350
5F
  3
C4
350
60
  3
C5
350
61
  3
C6
350
62
  3
C7
350
63
  3
C8
350
64
  3
C9
350
65
  3
D0
350
66
  3
D1
350
67
  3
D2
350
68
  0
DICTIONARY
  5
15C
102
{ACAD_REACTORS
330
C
102
}
330
C
100
AcDbDictionary
281
     1
  0
XRECORD
  5
2A1
102
{ACAD_REACTORS
330
C
102
}
330
C
100
AcDbXrecord
280
     1
  1
DWGPROPS COOKIE
  2

  3

  4

  6

  7

  8
12017012
  9

300
=
301
=
302
=
303
=
304
=
305
=
306
=
307
=
308
=
309
=
 40
0.0
 41
2458288.280030764
 42
2458295.328946377
  1

 90
        0
  0
DICTIONARY
  5
20E
102
{ACAD_REACTORS
330
20D
102
}
330
20D
100
AcDbDictionary
281
     1
  0
LAYOUT
  5
1E
102
{ACAD_REACTORS
330
1A
102
}
330
1A
100
AcDbPlotSettings
  1

  2
none_device
  4

  6

 40
0.0
 41
0.0
 42
0.0
 43
0.0
 44
0.0
 45
0.0
 46
0.0
 47
0.0
 48
0.0
 49
0.0
140
0.0
141
0.0
142
1.0
143
1.0
 70
   688
 72
     1
 73
     0
 74
     5
  7

 75
    16
147
1.0
148
0.0
149
0.0
100
AcDbLayout
  1
Layout1
 70
     1
 71
     1
 10
0.0
 20
0.0
 11
420.0
 21
297.0
 12
0.0
 22
0.0
 32
0.0
 14
1.000000000000000E+20
 24
1.000000000000000E+20
 34
1.000000000000000E+20
 15
-1.000000000000000E+20
 25
-1.000000000000000E+20
 35
-1.000000000000000E+20
146
0.0
 13
0.0
 23
0.0
 33
0.0
 16
1.0
 26
0.0
 36
0.0
 17
0.0
 27
1.0
 37
0.0
 76
     0
330
1B
  0
LAYOUT
  5
26
102
{ACAD_REACTORS
330
1A
102
}
330
1A
100
AcDbPlotSettings
  1

  2
none_device
  4

  6

 40
0.0
 41
0.0
 42
0.0
 43
0.0
 44
0.0
 45
0.0
 46
0.0
 47
0.0
 48
0.0
 49
0.0
140
0.0
141
0.0
142
1.0
143
1.0
 70
   688
 72
     1
 73
     0
 74
     5
  7

 75
    16
147
1.0
148
0.0
149
0.0
100
AcDbLayout
  1
Layout2
 70
     1
 71
     2
 10
0.0
 20
0.0
 11
0.0
 21
0.0
 12
0.0
 22
0.0
 32
0.0
 14
0.0
 24
0.0
 34
0.0
 15
0.0
 25
0.0
 35
0.0
146
0.0
 13
0.0
 23
0.0
 33
0.0
 16
1.0
 26
0.0
 36
0.0
 17
0.0
 27
1.0
 37
0.0
 76
     0
330
23
  0
LAYOUT
  5
22
102
{ACAD_REACTORS
330
1A
102
}
330
1A
100
AcDbPlotSettings
  1

  2
none_device
  4
ANSI_A_(11.00_x_8.50_Inches)
  6

 40
6.35
 41
19.05
 42
6.35000508
 43
19.05000254
 44
279.4
 45
215.9
 46
105.7818028528328
 47
100.6608452929876
 48
0.0
 49
0.0
140
0.0
141
0.0
142
0.0680206271096811
143
1.0
 70
  1696
 72
     0
 73
     0
 74
     0
  7

 75
     0
147
0.0235690232323232
148
0.0
149
0.0
100
AcDbLayout
  1
Model
 70
     1
 71
     0
 10
0.0
 20
0.0
 11
420.0
 21
297.0
 12
0.0
 22
0.0
 32
0.0
 14
1.000000000000000E+20
 24
1.000000000000000E+20
 34
1.000000000000000E+20
 15
-1.000000000000000E+20
 25
-1.000000000000000E+20
 35
-1.000000000000000E+20
146
0.0
 13
0.0
 23
0.0
 33
0.0
 16
1.0
 26
0.0
 36
0.0
 17
0.0
 27
1.0
 37
0.0
 76
     0
330
1F
331
29
  0
MLINESTYLE
  5
18
102
{ACAD_REACTORS
330
17
102
}
330
17
100
AcDbMlineStyle
  2
Standard
 70
     0
  3

 62
   256
 51
90.0
 52
90.0
 71
     2
 49
0.5
 62
   256
  6
BYLAYER
 49
-0.5
 62
   256
  6
BYLAYER
  0
ACDBPLACEHOLDER
  5
F
102
{ACAD_REACTORS
330
E
102
}
330
E
  0
SCALE
  5
48
102
{ACAD_REACTORS
330
47
102
}
330
47
100
AcDbScale
 70
     0
300
1:1
140
1.0
141
1.0
290
     1
  0
SCALE
  5
49
102
{ACAD_REACTORS
330
47
102
}
330
47
100
AcDbScale
 70
     0
300
1:2
140
1.0
141
2.0
290
     0
  0
SCALE
  5
4A
102
{ACAD_REACTORS
330
47
102
}
330
47
100
AcDbScale
 70
     0
300
1:4
140
1.0
141
4.0
290
     0
  0
SCALE
  5
4B
102
{ACAD_REACTORS
330
47
102
}
330
47
100
AcDbScale
 70
     0
300
1:5
140
1.0
141
5.0
290
     0
  0
SCALE
  5
4C
102
{ACAD_REACTORS
330
47
102
}
330
47
100
AcDbScale
 70
     0
300
1:8
140
1.0
141
8.0
290
     0
  0
SCALE
  5
4D
102
{ACAD_REACTORS
330
47
102
}
330
47
100
AcDbScale
 70
     0
300
1:10
140
1.0
141
10.0
290
     0
  0
SCALE
  5
4E
102
{ACAD_REACTORS
330
47
102
}
330
47
100
AcDbScale
 70
     0
300
1:16
140
1.0
141
16.0
290
     0
  0
SCALE
  5
4F
102
{ACAD_REACTORS
330
47
102
}
330
47
100
AcDbScale
 70
     0
300
1:20
140
1.0
141
20.0
290
     0
  0
SCALE
  5
50
102
{ACAD_REACTORS
330
47
102
}
330
47
100
AcDbScale
 70
     0
300
1:30
140
1.0
141
30.0
290
     0
  0
SCALE
  5
51
102
{ACAD_REACTORS
330
47
102
}
330
47
100
AcDbScale
 70
     0
300
1:40
140
1.0
141
40.0
290
     0
  0
SCALE
  5
52
102
{ACAD_REACTORS
330
47
102
}
330
47
100
AcDbScale
 70
     0
300
1:50
140
1.0
141
50.0
290
     0
  0
SCALE
  5
53
102
{ACAD_REACTORS
330
47
102
}
330
47
100
AcDbScale
 70
     0
300
1:100
140
1.0
141
100.0
290
     0
  0
SCALE
  5
54
102
{ACAD_REACTORS
330
47
102
}
330
47
100
AcDbScale
 70
     0
300
2:1
140
2.0
141
1.0
290
     0
  0
SCALE
  5
55
102
{ACAD_REACTORS
330
47
102
}
330
47
100
AcDbScale
 70
     0
300
4:1
140
4.0
141
1.0
290
     0
  0
SCALE
  5
56
102
{ACAD_REACTORS
330
47
102
}
330
47
100
AcDbScale
 70
     0
300
8:1
140
8.0
141
1.0
290
     0
  0
SCALE
  5
57
102
{ACAD_REACTORS
330
47
102
}
330
47
100
AcDbScale
 70
     0
300
10:1
140
10.0
141
1.0
290
     0
  0
SCALE
  5
58
102
{ACAD_REACTORS
330
47
102
}
330
47
100
AcDbScale
 70
     0
300
100:1
140
100.0
141
1.0
290
     0
  0
SCALE
  5
59
102
{ACAD_REACTORS
330
47
102
}
330
47
100
AcDbScale
 70
     0
300
1/128" = 1'-0"
140
0.0078125
141
12.0
290
     0
  0
SCALE
  5
5A
102
{ACAD_REACTORS
330
47
102
}
330
47
100
AcDbScale
 70
     0
300
1/64" = 1'-0"
140
0.015625
141
12.0
290
     0
  0
SCALE
  5
5B
102
{ACAD_REACTORS
330
47
102
}
330
47
100
AcDbScale
 70
     0
300
1/32" = 1'-0"
140
0.03125
141
12.0
290
     0
  0
SCALE
  5
5C
102
{ACAD_REACTORS
330
47
102
}
330
47
100
AcDbScale
 70
     0
300
1/16" = 1'-0"
140
0.0625
141
12.0
290
     0
  0
SCALE
  5
5D
102
{ACAD_REACTORS
330
47
102
}
330
47
100
AcDbScale
 70
     0
300
3/32" = 1'-0"
140
0.09375
141
12.0
290
     0
  0
SCALE
  5
5E
102
{ACAD_REACTORS
330
47
102
}
330
47
100
AcDbScale
 70
     0
300
1/8" = 1'-0"
140
0.125
141
12.0
290
     0
  0
SCALE
  5
5F
102
{ACAD_REACTORS
330
47
102
}
330
47
100
AcDbScale
 70
     0
300
3/16" = 1'-0"
140
0.1875
141
12.0
290
     0
  0
SCALE
  5
60
102
{ACAD_REACTORS
330
47
102
}
330
47
100
AcDbScale
 70
     0
300
1/4" = 1'-0"
140
0.25
141
12.0
290
     0
  0
SCALE
  5
61
102
{ACAD_REACTORS
330
47
102
}
330
47
100
AcDbScale
 70
     0
300
3/8" = 1'-0"
140
0.375
141
12.0
290
     0
  0
SCALE
  5
62
102
{ACAD_REACTORS
330
47
102
}
330
47
100
AcDbScale
 70
     0
300
1/2" = 1'-0"
140
0.5
141
12.0
290
     0
  0
SCALE
  5
63
102
{ACAD_REACTORS
330
47
102
}
330
47
100
AcDbScale
 70
     0
300
3/4" = 1'-0"
140
0.75
141
12.0
290
     0
  0
SCALE
  5
64
102
{ACAD_REACTORS
330
47
102
}
330
47
100
AcDbScale
 70
     0
300
1" = 1'-0"
140
1.0
141
12.0
290
     0
  0
SCALE
  5
65
102
{ACAD_REACTORS
330
47
102
}
330
47
100
AcDbScale
 70
     0
300
1-1/2" = 1'-0"
140
1.5
141
12.0
290
     0
  0
SCALE
  5
66
102
{ACAD_REACTORS
330
47
102
}
330
47
100
AcDbScale
 70
     0
300
3" = 1'-0"
140
3.0
141
12.0
290
     0
  0
SCALE
  5
67
102
{ACAD_REACTORS
330
47
102
}
330
47
100
AcDbScale
 70
     0
300
6" = 1'-0"
140
6.0
141
12.0
290
     0
  0
SCALE
  5
68
102
{ACAD_REACTORS
330
47
102
}
330
47
100
AcDbScale
 70
     0
300
1'-0" = 1'-0"
140
12.0
141
12.0
290
     0
  0
ENDSEC
  0
EOF
