  0
SECTION
  2
HEADER
  9
$ACADVER
  1
AC1015
  9
$ACADMAINTVER
 70
     6
  9
$DWGCODEPAGE
  3
ANSI_949
  9
$INSBASE
 10
0.0
 20
0.0
 30
0.0
  9
$EXTMIN
 10
1.000000000000000E+20
 20
1.000000000000000E+20
 30
1.000000000000000E+20
  9
$EXTMAX
 10
-1.000000000000000E+20
 20
-1.000000000000000E+20
 30
-1.000000000000000E+20
  9
$LIMMIN
 10
0.0
 20
0.0
  9
$LIMMAX
 10
420.0
 20
297.0
  9
$ORTHOMODE
 70
     0
  9
$REGENMODE
 70
     1
  9
$FILLMODE
 70
     1
  9
$QTEXTMODE
 70
     0
  9
$MIRRTEXT
 70
     1
  9
$LTSCALE
 40
1.0
  9
$ATTMODE
 70
     1
  9
$TEXTSIZE
 40
3.5
  9
$TRACEWID
 40
1.0
  9
$TEXTSTYLE
  7
Standard
  9
$CLAYER
  8
0
  9
$CELTYPE
  6
ByLayer
  9
$CECOLOR
 62
   256
  9
$CELTSCALE
 40
1.0
  9
$DISPSILH
 70
     0
  9
$DIMSCALE
 40
1.0
  9
$DIMASZ
 40
3.302
  9
$DIMEXO
 40
1.0
  9
$DIMDLI
 40
3.75
  9
$DIMRND
 40
0.0
  9
$DIMDLE
 40
0.0
  9
$DIMEXE
 40
1.0
  9
$DIMTP
 40
0.0
  9
$DIMTM
 40
0.0
  9
$DIMTXT
 40
3.5
  9
$DIMCEN
 40
2.5
  9
$DIMTSZ
 40
0.0
  9
$DIMTOL
 70
     0
  9
$DIMLIM
 70
     0
  9
$DIMTIH
 70
     1
  9
$DIMTOH
 70
     1
  9
$DIMSE1
 70
     0
  9
$DIMSE2
 70
     0
  9
$DIMTAD
 70
     1
  9
$DIMZIN
 70
     0
  9
$DIMBLK
  1

  9
$DIMASO
 70
     1
  9
$DIMSHO
 70
     1
  9
$DIMPOST
  1

  9
$DIMAPOST
  1

  9
$DIMALT
 70
     0
  9
$DIMALTD
 70
     3
  9
$DIMALTF
 40
0.0393700787401575
  9
$DIMLFAC
 40
1.0
  9
$DIMTOFL
 70
     1
  9
$DIMTVP
 40
0.0
  9
$DIMTIX
 70
     0
  9
$DIMSOXD
 70
     0
  9
$DIMSAH
 70
     0
  9
$DIMBLK1
  1

  9
$DIMBLK2
  1

  9
$DIMSTYLE
  2
ISO-25
  9
$DIMCLRD
 70
     0
  9
$DIMCLRE
 70
     0
  9
$DIMCLRT
 70
     0
  9
$DIMTFAC
 40
1.0
  9
$DIMGAP
 40
1.524
  9
$DIMJUST
 70
     0
  9
$DIMSD1
 70
     0
  9
$DIMSD2
 70
     0
  9
$DIMTOLJ
 70
     0
  9
$DIMTZIN
 70
     0
  9
$DIMALTZ
 70
     0
  9
$DIMALTTZ
 70
     0
  9
$DIMUPT
 70
     0
  9
$DIMDEC
 70
     2
  9
$DIMTDEC
 70
     2
  9
$DIMALTU
 70
     2
  9
$DIMALTTD
 70
     3
  9
$DIMTXSTY
  7
Standard
  9
$DIMAUNIT
 70
     0
  9
$DIMADEC
 70
     2
  9
$DIMALTRND
 40
0.0
  9
$DIMAZIN
 70
     0
  9
$DIMDSEP
 70
    44
  9
$DIMATFIT
 70
     3
  9
$DIMFRAC
 70
     0
  9
$DIMLDRBLK
  1

  9
$DIMLUNIT
 70
     2
  9
$DIMLWD
 70
    -2
  9
$DIMLWE
 70
    -2
  9
$DIMTMOVE
 70
     0
  9
$LUNITS
 70
     2
  9
$LUPREC
 70
     2
  9
$SKETCHINC
 40
1.0
  9
$FILLETRAD
 40
10.0
  9
$AUNITS
 70
     0
  9
$AUPREC
 70
     2
  9
$MENU
  1
.
  9
$ELEVATION
 40
0.0
  9
$PELEVATION
 40
0.0
  9
$THICKNESS
 40
0.0
  9
$LIMCHECK
 70
     0
  9
$CHAMFERA
 40
0.0
  9
$CHAMFERB
 40
0.0
  9
$CHAMFERC
 40
0.0
  9
$CHAMFERD
 40
0.0
  9
$SKPOLY
 70
     0
  9
$TDCREATE
 40
2458288.655408854
  9
$TDUCREATE
 40
2458288.280408854
  9
$TDUPDATE
 40
2458295.660328426
  9
$TDUUPDATE
 40
2458295.285328426
  9
$TDINDWG
 40
0.0020537963
  9
$TDUSRTIMER
 40
2458295.28327522
  9
$USRTIMER
 70
     1
  9
$ANGBASE
 50
0.0
  9
$ANGDIR
 70
     0
  9
$PDMODE
 70
     0
  9
$PDSIZE
 40
-1.0
  9
$PLINEWID
 40
0.0
  9
$SPLFRAME
 70
     0
  9
$SPLINETYPE
 70
     6
  9
$SPLINESEGS
 70
     8
  9
$HANDSEED
  5
433
  9
$SURFTAB1
 70
     6
  9
$SURFTAB2
 70
     6
  9
$SURFTYPE
 70
     6
  9
$SURFU
 70
     6
  9
$SURFV
 70
     6
  9
$UCSBASE
  2

  9
$UCSNAME
  2

  9
$UCSORG
 10
0.0
 20
0.0
 30
0.0
  9
$UCSXDIR
 10
1.0
 20
0.0
 30
0.0
  9
$UCSYDIR
 10
0.0
 20
1.0
 30
0.0
  9
$UCSORTHOREF
  2

  9
$UCSORTHOVIEW
 70
     0
  9
$UCSORGTOP
 10
0.0
 20
0.0
 30
0.0
  9
$UCSORGBOTTOM
 10
0.0
 20
0.0
 30
0.0
  9
$UCSORGLEFT
 10
0.0
 20
0.0
 30
0.0
  9
$UCSORGRIGHT
 10
0.0
 20
0.0
 30
0.0
  9
$UCSORGFRONT
 10
0.0
 20
0.0
 30
0.0
  9
$UCSORGBACK
 10
0.0
 20
0.0
 30
0.0
  9
$PUCSBASE
  2

  9
$PUCSNAME
  2

  9
$PUCSORG
 10
0.0
 20
0.0
 30
0.0
  9
$PUCSXDIR
 10
1.0
 20
0.0
 30
0.0
  9
$PUCSYDIR
 10
0.0
 20
1.0
 30
0.0
  9
$PUCSORTHOREF
  2

  9
$PUCSORTHOVIEW
 70
     0
  9
$PUCSORGTOP
 10
0.0
 20
0.0
 30
0.0
  9
$PUCSORGBOTTOM
 10
0.0
 20
0.0
 30
0.0
  9
$PUCSORGLEFT
 10
0.0
 20
0.0
 30
0.0
  9
$PUCSORGRIGHT
 10
0.0
 20
0.0
 30
0.0
  9
$PUCSORGFRONT
 10
0.0
 20
0.0
 30
0.0
  9
$PUCSORGBACK
 10
0.0
 20
0.0
 30
0.0
  9
$USERI1
 70
     0
  9
$USERI2
 70
     0
  9
$USERI3
 70
     0
  9
$USERI4
 70
     0
  9
$USERI5
 70
     0
  9
$USERR1
 40
0.0
  9
$USERR2
 40
0.0
  9
$USERR3
 40
0.0
  9
$USERR4
 40
0.0
  9
$USERR5
 40
0.0
  9
$WORLDVIEW
 70
     1
  9
$SHADEDGE
 70
     3
  9
$SHADEDIF
 70
    70
  9
$TILEMODE
 70
     1
  9
$MAXACTVP
 70
    64
  9
$PINSBASE
 10
0.0
 20
0.0
 30
0.0
  9
$PLIMCHECK
 70
     0
  9
$PEXTMIN
 10
1.000000000000000E+20
 20
1.000000000000000E+20
 30
1.000000000000000E+20
  9
$PEXTMAX
 10
-1.000000000000000E+20
 20
-1.000000000000000E+20
 30
-1.000000000000000E+20
  9
$PLIMMIN
 10
0.0
 20
0.0
  9
$PLIMMAX
 10
0.0
 20
0.0
  9
$UNITMODE
 70
     0
  9
$VISRETAIN
 70
     1
  9
$PLINEGEN
 70
     0
  9
$PSLTSCALE
 70
     1
  9
$TREEDEPTH
 70
  3020
  9
$CMLSTYLE
  2
Standard
  9
$CMLJUST
 70
     0
  9
$CMLSCALE
 40
20.0
  9
$PROXYGRAPHICS
 70
     1
  9
$MEASUREMENT
 70
     1
  9
$CELWEIGHT
370
    -1
  9
$ENDCAPS
280
     0
  9
$JOINSTYLE
280
     0
  9
$LWDISPLAY
290
     1
  9
$INSUNITS
 70
     4
  9
$HYPERLINKBASE
  1

  9
$STYLESHEET
  1

  9
$XEDIT
290
     1
  9
$CEPSNTYPE
380
     0
  9
$PSTYLEMODE
290
     1
  9
$FINGERPRINTGUID
  2
{467E8162-A5CA-451C-A697-FEF028FD8F3E}
  9
$VERSIONGUID
  2
{FAEB1C32-E019-11D5-929B-00C0DF256EC4}
  9
$EXTNAMES
290
     1
  9
$PSVPSCALE
 40
0.0
  9
$OLESTARTUP
290
     0
  0
ENDSEC
  0
SECTION
  2
CLASSES
  0
CLASS
  1
ACDBDICTIONARYWDFLT
  2
AcDbDictionaryWithDefault
  3
ObjectDBX Classes
 90
        0
280
     0
281
     0
  0
CLASS
  1
VISUALSTYLE
  2
AcDbVisualStyle
  3
ObjectDBX Classes
 90
     4095
280
     0
281
     0
  0
CLASS
  1
MATERIAL
  2
AcDbMaterial
  3
ObjectDBX Classes
 90
     1153
280
     0
281
     0
  0
CLASS
  1
SCALE
  2
AcDbScale
  3
ObjectDBX Classes
 90
     1153
280
     0
281
     0
  0
CLASS
  1
SUN
  2
AcDbSun
  3
SCENEOE
 90
     1153
280
     0
281
     0
  0
CLASS
  1
ACDBPLACEHOLDER
  2
AcDbPlaceHolder
  3
ObjectDBX Classes
 90
        0
280
     0
281
     0
  0
CLASS
  1
LAYOUT
  2
AcDbLayout
  3
ObjectDBX Classes
 90
        0
280
     0
281
     0
  0
CLASS
  1
TABLESTYLE
  2
AcDbTableStyle
  3
ObjectDBX Classes
 90
     4095
280
     0
281
     0
  0
CLASS
  1
MLEADERSTYLE
  2
AcDbMLeaderStyle
  3
ACDB_MLEADERSTYLE_CLASS
 90
     4095
280
     0
281
     0
  0
CLASS
  1
RASTERVARIABLES
  2
AcDbRasterVariables
  3
ISM
 90
        0
280
     0
281
     0
  0
CLASS
  1
DIMASSOC
  2
AcDbDimAssoc
  3
"AcDbDimAssoc|Product Desc:     AcDim ARX App For Dimension|Company:          Autodesk, Inc.|WEB Address:      www.autodesk.com"
 90
        0
280
     0
281
     0
  0
ENDSEC
  0
SECTION
  2
TABLES
  0
TABLE
  2
VPORT
  5
8
330
0
100
AcDbSymbolTable
 70
     1
  0
VPORT
  5
29
330
8
100
AcDbSymbolTableRecord
100
AcDbViewportTableRecord
  2
*Active
 70
     0
 10
0.0
 20
0.0
 11
1.0
 21
1.0
 12
-12.77266708556968
 22
7.666967822688864
 13
0.0
 23
0.0
 14
10.0
 24
10.0
 15
10.0
 25
10.0
 16
0.0
 26
0.0
 36
1.0
 17
0.0
 27
0.0
 37
0.0
 40
110.8403161981335
 41
1.859099804305284
 42
50.0
 43
0.0
 44
0.0
 50
0.0
 51
0.0
 71
    16
 72
  2000
 73
     1
 74
     3
 75
     0
 76
     0
 77
     0
 78
     0
281
     0
 65
     1
110
0.0
120
0.0
130
0.0
111
1.0
121
0.0
131
0.0
112
0.0
122
1.0
132
0.0
 79
     0
146
0.0
  0
ENDTAB
  0
TABLE
  2
LTYPE
  5
5
330
0
100
AcDbSymbolTable
 70
     6
  0
LTYPE
  5
14
330
5
100
AcDbSymbolTableRecord
100
AcDbLinetypeTableRecord
  2
ByBlock
 70
     0
  3

 72
    65
 73
     0
 40
0.0
  0
LTYPE
  5
15
330
5
100
AcDbSymbolTableRecord
100
AcDbLinetypeTableRecord
  2
ByLayer
 70
     0
  3

 72
    65
 73
     0
 40
0.0
  0
LTYPE
  5
16
330
5
100
AcDbSymbolTableRecord
100
AcDbLinetypeTableRecord
  2
Continuous
 70
     0
  3
Solid line
 72
    65
 73
     0
 40
0.0
  0
LTYPE
  5
6A
330
5
100
AcDbSymbolTableRecord
100
AcDbLinetypeTableRecord
  2
HIDDEN
 70
     0
  3
Hidden __ __ __ __ __ __ __ __ __ __ __ __ __ __
 72
    65
 73
     2
 40
1.905
 49
1.27
 74
     0
 49
-0.635
 74
     0
  0
LTYPE
  5
6B
330
5
100
AcDbSymbolTableRecord
100
AcDbLinetypeTableRecord
  2
PHANTOM
 70
     0
  3
Phantom ______  __  __  ______  __  __  ______
 72
    65
 73
     6
 40
12.7
 49
6.35
 74
     0
 49
-1.27
 74
     0
 49
1.27
 74
     0
 49
-1.27
 74
     0
 49
1.27
 74
     0
 49
-1.27
 74
     0
  0
LTYPE
  5
6C
330
5
100
AcDbSymbolTableRecord
100
AcDbLinetypeTableRecord
  2
CENTER
 70
     0
  3
Center ____ _ ____ _ ____ _ ____ _ ____ _ ____
 72
    65
 73
     4
 40
10.16
 49
6.35
 74
     0
 49
-1.27
 74
     0
 49
1.27
 74
     0
 49
-1.27
 74
     0
  0
LTYPE
  5
6D
330
5
100
AcDbSymbolTableRecord
100
AcDbLinetypeTableRecord
  2
CENTERX2
 70
     0
  3
Center (2x) ________  __  ________  __  _____
 72
    65
 73
     4
 40
20.32
 49
12.7
 74
     0
 49
-2.54
 74
     0
 49
2.54
 74
     0
 49
-2.54
 74
     0
  0
LTYPE
  5
6E
330
5
100
AcDbSymbolTableRecord
100
AcDbLinetypeTableRecord
  2
DOT2
 70
     0
  3
Dot (.5x) ........................................
 72
    65
 73
     2
 40
0.635
 49
0.0
 74
     0
 49
-0.635
 74
     0
  0
ENDTAB
  0
TABLE
  2
LAYER
  5
2
102
{ACAD_XDICTIONARY
360
242
102
}
330
0
100
AcDbSymbolTable
 70
    18
  0
LAYER
  5
10
330
2
100
AcDbSymbolTableRecord
100
AcDbLayerTableRecord
  2
0
 70
     0
 62
     7
  6
Continuous
370
    -3
390
F
  0
LAYER
  5
6F
330
2
100
AcDbSymbolTableRecord
100
AcDbLayerTableRecord
  2
FORMAT
 70
     0
 62
     2
  6
Continuous
370
    -3
390
F
  0
LAYER
  5
70
330
2
100
AcDbSymbolTableRecord
100
AcDbLayerTableRecord
  2
외형선
 70
     0
 62
     4
  6
Continuous
370
    30
390
F
  0
LAYER
  5
71
330
2
100
AcDbSymbolTableRecord
100
AcDbLayerTableRecord
  2
숨은선
 70
     0
 62
     2
  6
HIDDEN
370
    15
390
F
  0
LAYER
  5
72
330
2
100
AcDbSymbolTableRecord
100
AcDbLayerTableRecord
  2
중심선
 70
     0
 62
     1
  6
CENTERX2
370
    -3
390
F
  0
LAYER
  5
73
330
2
100
AcDbSymbolTableRecord
100
AcDbLayerTableRecord
  2
파단선
 70
     0
 62
     4
  6
Continuous
370
    -3
390
F
  0
LAYER
  5
74
330
2
100
AcDbSymbolTableRecord
100
AcDbLayerTableRecord
  2
해칭선
 70
     0
 62
   100
  6
Continuous
370
    -3
390
F
  0
LAYER
  5
75
330
2
100
AcDbSymbolTableRecord
100
AcDbLayerTableRecord
  2
가는실선
 70
     0
 62
     4
  6
Continuous
370
    -3
390
F
  0
LAYER
  5
76
330
2
100
AcDbSymbolTableRecord
100
AcDbLayerTableRecord
  2
치수_보조선
 70
     0
 62
     4
  6
Continuous
370
    -3
390
F
  0
LAYER
  5
77
330
2
100
AcDbSymbolTableRecord
100
AcDbLayerTableRecord
  2
치수문자_일반주서
 70
     0
 62
     7
  6
Continuous
370
    15
390
F
  0
LAYER
  5
78
330
2
100
AcDbSymbolTableRecord
100
AcDbLayerTableRecord
  2
개별주서
 70
     0
 62
   100
  6
Continuous
370
    30
390
F
  0
LAYER
  5
79
330
2
100
AcDbSymbolTableRecord
100
AcDbLayerTableRecord
  2
중간선
 70
     0
 62
     2
  6
Continuous
370
    15
390
F
  0
LAYER
  5
7A
330
2
100
AcDbSymbolTableRecord
100
AcDbLayerTableRecord
  2
윤곽선
 70
     0
 62
     3
  6
Continuous
370
    40
390
F
  0
LAYER
  5
7B
330
2
100
AcDbSymbolTableRecord
100
AcDbLayerTableRecord
  2
중심마크
 70
     0
 62
   100
  6
Continuous
370
    30
390
F
  0
LAYER
  5
7C
330
2
100
AcDbSymbolTableRecord
100
AcDbLayerTableRecord
  2
가상선
 70
     0
 62
     4
  6
PHANTOM
370
    -3
390
F
  0
LAYER
  5
7D
330
2
100
AcDbSymbolTableRecord
100
AcDbLayerTableRecord
  2
특수지정선
 70
     0
 62
     5
  6
CENTERX2
370
    60
390
F
  0
LAYER
  5
7E
330
2
100
AcDbSymbolTableRecord
100
AcDbLayerTableRecord
  2
참조1
 70
     0
 62
    -4
  6
Continuous
370
    -3
390
F
  0
LAYER
  5
16A
330
2
100
AcDbSymbolTableRecord
100
AcDbLayerTableRecord
  2
Defpoints
 70
     0
 62
     7
  6
Continuous
290
     0
370
    -3
390
F
  0
ENDTAB
  0
TABLE
  2
STYLE
  5
3
330
0
100
AcDbSymbolTable
 70
     2
  0
STYLE
  5
11
330
3
100
AcDbSymbolTableRecord
100
AcDbTextStyleTableRecord
  2
Standard
 70
     0
 40
0.0
 41
1.0
 50
0.0
 71
     0
 42
3.5
  3
txt
  4

  0
STYLE
  5
94
330
3
100
AcDbSymbolTableRecord
100
AcDbTextStyleTableRecord
  2
SLDTEXTSTYLE0
 70
     0
 40
0.0
 41
0.75
 50
0.0
 71
     0
 42
3.5
  3
TXT
  4

  0
ENDTAB
  0
TABLE
  2
VIEW
  5
6
330
0
100
AcDbSymbolTable
 70
     0
  0
ENDTAB
  0
TABLE
  2
UCS
  5
7
330
0
100
AcDbSymbolTable
 70
     0
  0
ENDTAB
  0
TABLE
  2
APPID
  5
9
330
0
100
AcDbSymbolTable
 70
     2
  0
APPID
  5
12
330
9
100
AcDbSymbolTableRecord
100
AcDbRegAppTableRecord
  2
ACAD
 70
     0
  0
APPID
  5
176
330
9
100
AcDbSymbolTableRecord
100
AcDbRegAppTableRecord
  2
ACAD_DSTYLE_DIMRADIAL_EXTENSION
 70
     0
  0
ENDTAB
  0
TABLE
  2
DIMSTYLE
  5
A
330
0
100
AcDbSymbolTable
 70
     4
100
AcDbDimStyleTable
  0
DIMSTYLE
105
27
330
A
100
AcDbSymbolTableRecord
100
AcDbDimStyleTableRecord
  2
ISO-25
 70
     0
 41
2.5
 42
0.625
 43
3.75
 44
1.25
 73
     0
 74
     0
 77
     1
 78
     8
140
2.5
141
2.5
143
0.03937007874016
147
0.625
171
     3
172
     1
178
     0
271
     2
272
     2
274
     3
278
    44
283
     0
284
     8
340
11
  0
DIMSTYLE
105
E5
102
{ACAD_REACTORS
330
1F3
330
200
330
210
330
220
330
236
330
305
330
312
330
322
330
332
330
348
330
3D5
330
3D6
330
3D7
330
3D8
330
425
102
}
330
A
100
AcDbSymbolTableRecord
100
AcDbDimStyleTableRecord
  2
SLDDIMSTYLE0
 70
     0
 41
3.302
 44
0.0
 45
0.000000001
 73
     0
 74
     0
 77
     1
 78
    12
 79
     3
140
3.5
143
0.0393700787401575
147
0.875
148
0.000000001
170
     1
172
     1
173
     1
178
     0
271
     2
272
     2
276
     2
284
    12
289
     0
340
94
  0
DIMSTYLE
105
10E
330
A
100
AcDbSymbolTableRecord
100
AcDbDimStyleTableRecord
  2
SLDDIMSTYLE1
 70
     0
 41
3.302
 44
0.0
 45
0.000000001
 73
     0
 74
     0
 77
     1
 78
     4
 79
     1
140
3.5
143
0.0393700787401575
147
0.875
148
0.000000001
170
     1
172
     1
173
     1
178
     0
271
     2
272
     2
276
     2
284
    12
289
     0
340
94
  0
DIMSTYLE
105
124
330
A
100
AcDbSymbolTableRecord
100
AcDbDimStyleTableRecord
  2
SLDDIMSTYLE2
 70
     0
 41
3.302
 44
0.0
 45
0.000000001
 73
     0
 74
     0
 77
     1
 78
    12
 79
     3
140
3.5
143
0.0393700787401575
147
0.875
148
0.000000001
170
     1
173
     1
178
     0
271
     2
272
     2
276
     2
284
    12
340
94
  0
ENDTAB
  0
TABLE
  2
BLOCK_RECORD
  5
1
330
0
100
AcDbSymbolTable
 70
    25
  0
BLOCK_RECORD
  5
1F
330
1
100
AcDbSymbolTableRecord
100
AcDbBlockTableRecord
  2
*Model_Space
340
22
  0
BLOCK_RECORD
  5
1B
330
1
100
AcDbSymbolTableRecord
100
AcDbBlockTableRecord
  2
*Paper_Space
340
1E
  0
BLOCK_RECORD
  5
23
330
1
100
AcDbSymbolTableRecord
100
AcDbBlockTableRecord
  2
*Paper_Space0
340
26
  0
BLOCK_RECORD
  5
7F
330
1
100
AcDbSymbolTableRecord
100
AcDbBlockTableRecord
  2
블럭10
340
0
102
{BLKREFS
331
DD
331
1D6
331
2E8
331
0
102
}
  0
BLOCK_RECORD
  5
E6
330
1
100
AcDbSymbolTableRecord
100
AcDbBlockTableRecord
  2
_D
340
0
  0
BLOCK_RECORD
  5
FA
330
1
100
AcDbSymbolTableRecord
100
AcDbBlockTableRecord
  2
_D_1
340
0
  0
BLOCK_RECORD
  5
10F
330
1
100
AcDbSymbolTableRecord
100
AcDbBlockTableRecord
  2
_D_2
340
0
  0
BLOCK_RECORD
  5
125
330
1
100
AcDbSymbolTableRecord
100
AcDbBlockTableRecord
  2
_D_3
340
0
  0
BLOCK_RECORD
  5
13E
330
1
100
AcDbSymbolTableRecord
100
AcDbBlockTableRecord
  2
SW_DOWELSYMBOL_0
340
0
102
{BLKREFS
331
0
331
22D
331
33F
331
3D9
102
}
  0
BLOCK_RECORD
  5
239
330
1
100
AcDbSymbolTableRecord
100
AcDbBlockTableRecord
  2
*D8
340
0
  0
BLOCK_RECORD
  5
246
330
1
100
AcDbSymbolTableRecord
100
AcDbBlockTableRecord
  2
*D9
340
0
  0
BLOCK_RECORD
  5
252
330
1
100
AcDbSymbolTableRecord
100
AcDbBlockTableRecord
  2
*D10
340
0
  0
BLOCK_RECORD
  5
261
330
1
100
AcDbSymbolTableRecord
100
AcDbBlockTableRecord
  2
*D11
340
0
  0
BLOCK_RECORD
  5
270
330
1
100
AcDbSymbolTableRecord
100
AcDbBlockTableRecord
  2
*D12
340
0
  0
BLOCK_RECORD
  5
34B
330
1
100
AcDbSymbolTableRecord
100
AcDbBlockTableRecord
  2
*D14
340
0
  0
BLOCK_RECORD
  5
356
330
1
100
AcDbSymbolTableRecord
100
AcDbBlockTableRecord
  2
*D15
340
0
  0
BLOCK_RECORD
  5
362
330
1
100
AcDbSymbolTableRecord
100
AcDbBlockTableRecord
  2
*D16
340
0
  0
BLOCK_RECORD
  5
371
330
1
100
AcDbSymbolTableRecord
100
AcDbBlockTableRecord
  2
*D17
340
0
  0
BLOCK_RECORD
  5
380
330
1
100
AcDbSymbolTableRecord
100
AcDbBlockTableRecord
  2
*D18
340
0
  0
BLOCK_RECORD
  5
3DF
330
1
100
AcDbSymbolTableRecord
100
AcDbBlockTableRecord
  2
*D19
340
0
  0
BLOCK_RECORD
  5
3EB
330
1
100
AcDbSymbolTableRecord
100
AcDbBlockTableRecord
  2
*D20
340
0
  0
BLOCK_RECORD
  5
3FA
330
1
100
AcDbSymbolTableRecord
100
AcDbBlockTableRecord
  2
*D21
340
0
  0
BLOCK_RECORD
  5
409
330
1
100
AcDbSymbolTableRecord
100
AcDbBlockTableRecord
  2
*D22
340
0
  0
BLOCK_RECORD
  5
415
330
1
100
AcDbSymbolTableRecord
100
AcDbBlockTableRecord
  2
*D23
340
0
  0
BLOCK_RECORD
  5
428
330
1
100
AcDbSymbolTableRecord
100
AcDbBlockTableRecord
  2
*D24
340
0
  0
ENDTAB
  0
ENDSEC
  0
SECTION
  2
BLOCKS
  0
BLOCK
  5
20
330
1F
100
AcDbEntity
  8
0
100
AcDbBlockBegin
  2
*Model_Space
 70
     0
 10
0.0
 20
0.0
 30
0.0
  3
*Model_Space
  1
*Model_Space
  0
ENDBLK
  5
21
330
1F
100
AcDbEntity
  8
0
100
AcDbBlockEnd
  0
BLOCK
  5
1C
330
1B
100
AcDbEntity
 67
     1
  8
0
100
AcDbBlockBegin
  2
*Paper_Space
 70
     0
 10
0.0
 20
0.0
 30
0.0
  3
*Paper_Space
  1
*Paper_Space
  0
ENDBLK
  5
1D
330
1B
100
AcDbEntity
 67
     1
  8
0
100
AcDbBlockEnd
  0
BLOCK
  5
24
330
23
100
AcDbEntity
  8
0
100
AcDbBlockBegin
  2
*Paper_Space0
 70
     0
 10
0.0
 20
0.0
 30
0.0
  3
*Paper_Space0
  1
*Paper_Space0
  0
ENDBLK
  5
25
330
23
100
AcDbEntity
  8
0
100
AcDbBlockEnd
  0
BLOCK
  5
80
330
7F
100
AcDbEntity
  8
0
100
AcDbBlockBegin
  2
블럭10
 70
     2
 10
0.0
 20
0.0
 30
0.0
  3
블럭10
  1
블럭10
  0
ELLIPSE
  5
82
330
7F
100
AcDbEntity
  8
중심선
100
AcDbEllipse
 10
20.54032771741204
 20
12.0471743016438
 30
0.0
 11
6.600054785286829
 21
-1.261213355974178E-13
 31
0.0
210
0.0
220
0.0
230
1.0
 40
0.636358354079598
 41
0.9219305317359503
 42
6.513795318482858
  0
ELLIPSE
  5
83
330
7F
100
AcDbEntity
  8
중심선
100
AcDbEllipse
 10
20.54032771746488
 20
12.04717430159265
 30
0.0
 11
3.960054785062283
 21
1.540847449632565E-10
 31
0.0
210
0.0
220
0.0
230
1.0
 40
0.3939339440162632
 41
1.131841032648279
 42
5.62031148352944
  0
LINE
  5
84
330
7F
100
AcDbEntity
  8
중심선
100
AcDbLine
 10
2.268634060543552
 20
16.24717430164393
 30
0.0
 11
5.714909304380834
 21
16.24717430164393
 31
0.0
  0
LINE
  5
85
330
7F
100
AcDbEntity
  8
중심선
100
AcDbLine
 10
5.245725140726316
 20
7.84717430164391
 30
0.0
 11
8.692000384563599
 21
7.84717430164391
 31
0.0
  0
LINE
  5
86
330
7F
100
AcDbEntity
  8
중심선
100
AcDbLine
 10
15.74043728645272
 20
16.24717430164393
 30
0.0
 11
8.692000384563599
 21
7.84717430164391
 31
0.0
  0
LINE
  5
87
330
7F
100
AcDbEntity
  8
중심선
100
AcDbLine
 10
0.1404042013395286
 20
13.71084872107135
 30
0.0
 11
3.58671253028996
 21
13.71088815037384
 31
0.0
  0
LINE
  5
88
330
7F
100
AcDbEntity
  8
중심선
100
AcDbLine
 10
2.750260043222114
 20
10.84717430164391
 30
0.0
 11
6.196535287059397
 21
10.84717430164391
 31
0.0
  0
LINE
  5
89
330
7F
100
AcDbEntity
  8
중심선
100
AcDbLine
 10
12.29416204261559
 20
16.24717430164393
 30
0.0
 11
5.245725140726316
 21
7.84717430164391
 31
0.0
  0
LINE
  5
8A
330
7F
100
AcDbEntity
  8
중심선
100
AcDbLine
 10
10.72767329541681
 20
16.24717430164393
 30
0.0
 11
6.196535287059397
 21
10.84717430164391
 31
0.0
  0
LINE
  5
8B
330
7F
100
AcDbEntity
  8
중심선
100
AcDbLine
 10
7.28139805157953
 20
16.24717430164393
 30
0.0
 11
2.750260043222114
 21
10.84717430164391
 31
0.0
  0
LINE
  5
8C
330
7F
100
AcDbEntity
  8
중심선
100
AcDbLine
 10
5.714909304380834
 20
16.24717430164393
 30
0.0
 11
3.58671253028996
 21
13.71088815037384
 31
0.0
  0
LINE
  5
8D
330
7F
100
AcDbEntity
  8
중심선
100
AcDbLine
 10
2.268634060543552
 20
16.24717430164393
 30
0.0
 11
0.1404042013395286
 21
13.71084872107135
 31
0.0
  0
LINE
  5
8E
330
7F
100
AcDbEntity
  8
중심선
100
AcDbLine
 10
7.28139805157953
 20
16.24717430164393
 30
0.0
 11
10.72767329541681
 21
16.24717430164393
 31
0.0
  0
LINE
  5
8F
330
7F
100
AcDbEntity
  8
중심선
100
AcDbLine
 10
12.29416204261559
 20
16.24717430164393
 30
0.0
 11
15.74043728645272
 21
16.24717430164393
 31
0.0
  0
LINE
  5
90
330
7F
100
AcDbEntity
  8
중심선
100
AcDbLine
 10
19.22036997980202
 20
11.08717430171403
 30
0.0
 11
23.66174974927406
 21
11.08717430171406
 31
0.0
  0
LINE
  5
91
330
7F
100
AcDbEntity
  8
중심선
100
AcDbLine
 10
19.22039502424796
 20
13.00717430171391
 30
0.0
 11
19.22036997980202
 21
11.08717430171403
 31
0.0
  0
LINE
  5
92
330
7F
100
AcDbEntity
  8
중심선
100
AcDbLine
 10
19.22039502424796
 20
13.00717430171391
 30
0.0
 11
26.96566020931264
 21
13.00717430171391
 31
0.0
  0
LINE
  5
93
330
7F
100
AcDbEntity
  8
중심선
100
AcDbLine
 10
22.22332737316547
 20
13.45928029700563
 30
0.0
 11
24.52862924686651
 21
15.39360700705356
 31
0.0
  0
ATTDEF
  5
95
330
7F
100
AcDbEntity
  8
FORMAT
 62
     2
100
AcDbText
 10
3.448148490846466
 20
2.075366912832191
 30
0.0
 40
4.233333333333333
  1
EM637901
 41
0.75
  7
SLDTEXTSTYLE0
 11
3.448148490846466
 21
-0.0412997538344756
 31
0.0
100
AcDbAttributeDefinition
  3

  2
AUTOATTR0
 70
     0
 74
     1
  0
ENDBLK
  5
81
330
7F
100
AcDbEntity
  8
0
100
AcDbBlockEnd
  0
BLOCK
  5
E7
330
E6
100
AcDbEntity
  8
0
100
AcDbBlockBegin
  2
_D
 70
     0
 10
0.0
 20
0.0
 30
0.0
  3
_D
  1
_D
  0
SOLID
  5
E9
330
E6
100
AcDbEntity
  8
치수문자_일반주서
100
AcDbTrace
 10
-47.14
 20
3.176074928723876
 30
0.0
 11
-46.632
 21
6.478074928723876
 31
0.0
 12
-47.648
 22
6.478074928723876
 32
0.0
 13
-47.648
 23
6.478074928723876
 33
0.0
  0
SOLID
  5
EA
330
E6
100
AcDbEntity
  8
치수문자_일반주서
100
AcDbTrace
 10
-47.14
 20
-3.173925071276119
 30
0.0
 11
-47.648
 21
-6.475925071276118
 31
0.0
 12
-46.632
 22
-6.475925071276118
 32
0.0
 13
-46.632
 23
-6.475925071276118
 33
0.0
  0
LINE
  5
EB
330
E6
100
AcDbEntity
  8
치수문자_일반주서
100
AcDbLine
 10
-57.93288171604273
 20
-5.413291502344828
 30
0.0
 11
-57.93288171604272
 21
-6.124228987909328
 31
0.0
  0
LINE
  5
EC
330
E6
100
AcDbEntity
  8
치수문자_일반주서
100
AcDbLine
 10
-57.93288171604272
 20
-6.124228987909328
 30
0.0
 11
-52.37663172498342
 21
-6.124228987909289
 31
0.0
  0
LINE
  5
ED
330
E6
100
AcDbEntity
  8
치수문자_일반주서
100
AcDbLine
 10
-52.37663172498342
 20
-6.124228987909289
 30
0.0
 11
-52.37663172498343
 21
-5.413291502344789
 31
0.0
  0
LINE
  5
EE
330
E6
100
AcDbEntity
  8
치수문자_일반주서
100
AcDbLine
 10
-57.9328817160428
 20
5.41544135979243
 30
0.0
 11
-57.93288171604281
 21
6.12637884535693
 31
0.0
  0
LINE
  5
EF
330
E6
100
AcDbEntity
  8
치수문자_일반주서
100
AcDbLine
 10
-57.93288171604281
 20
6.12637884535693
 30
0.0
 11
-52.3766317249835
 21
6.126378845356969
 31
0.0
  0
LINE
  5
F0
330
E6
100
AcDbEntity
  8
치수문자_일반주서
100
AcDbLine
 10
-52.3766317249835
 20
6.126378845356969
 30
0.0
 11
-52.3766317249835
 21
5.415441359792469
 31
0.0
  0
LINE
  5
F1
330
E6
100
AcDbEntity
  8
치수문자_일반주서
100
AcDbLine
 10
-34.64
 20
3.176074928723876
 30
0.0
 11
-48.14
 21
3.176074928723876
 31
0.0
  0
LINE
  5
F2
330
E6
100
AcDbEntity
  8
치수문자_일반주서
100
AcDbLine
 10
-34.64
 20
-3.173925071276118
 30
0.0
 11
-48.14
 21
-3.173925071276119
 31
0.0
  0
LINE
  5
F3
330
E6
100
AcDbEntity
  8
치수문자_일반주서
100
AcDbLine
 10
-47.14
 20
3.176074928723876
 30
0.0
 11
-47.14
 21
9.526074928723874
 31
0.0
  0
LINE
  5
F4
330
E6
100
AcDbEntity
  8
치수문자_일반주서
100
AcDbLine
 10
-47.14
 20
3.176074928723876
 30
0.0
 11
-47.14
 21
-3.173925071276119
 31
0.0
  0
LINE
  5
F5
330
E6
100
AcDbEntity
  8
치수문자_일반주서
100
AcDbLine
 10
-47.14
 20
-3.173925071276119
 30
0.0
 11
-47.14
 21
-9.52392507127612
 31
0.0
  0
MTEXT
  5
F6
330
E6
100
AcDbEntity
  8
치수문자_일반주서
100
AcDbMText
 10
-56.88836863956232
 20
-4.52461960173345
 30
0.0
 40
3.5
 41
0.0
 71
     1
 72
     1
  1
0.25
  7
SLDTEXTSTYLE0
 11
-7.044195017643634E-15
 21
1.0
 31
0.0
 73
     1
 44
1.0
  0
MTEXT
  5
F7
330
E6
100
AcDbEntity
  8
치수문자_일반주서
100
AcDbMText
 10
-51.65173708920184
 20
-7.163838766581741
 30
0.0
 40
3.5
 41
0.0
 71
     1
 72
     1
  1
%%c
  7
SLDTEXTSTYLE0
 11
-7.044195017643634E-15
 21
1.0
 31
0.0
 73
     1
 44
1.0
  0
MTEXT
  5
F8
330
E6
100
AcDbEntity
  8
치수문자_일반주서
100
AcDbMText
 10
-51.65173708920187
 20
-1.88540136820766
 30
0.0
 40
3.5
 41
0.0
 71
     1
 72
     1
  1
6.35
  7
SLDTEXTSTYLE0
 11
-7.044195017643634E-15
 21
1.0
 31
0.0
 73
     1
 44
1.0
  0
ENDBLK
  5
E8
330
E6
100
AcDbEntity
  8
0
100
AcDbBlockEnd
  0
BLOCK
  5
FB
330
FA
100
AcDbEntity
  8
0
100
AcDbBlockBegin
  2
_D_1
 70
     0
 10
0.0
 20
0.0
 30
0.0
  3
_D_1
  1
_D_1
  0
SOLID
  5
FD
330
FA
100
AcDbEntity
  8
치수문자_일반주서
100
AcDbTrace
 10
49.45641258506883
 20
1.588574928723892
 30
0.0
 11
49.96441258506884
 21
4.890574928723892
 31
0.0
 12
48.94841258506883
 22
4.890574928723892
 32
0.0
 13
48.94841258506883
 23
4.890574928723892
 33
0.0
  0
SOLID
  5
FE
330
FA
100
AcDbEntity
  8
치수문자_일반주서
100
AcDbTrace
 10
49.45641258506883
 20
-1.58642507127611
 30
0.0
 11
48.94841258506883
 21
-4.88842507127611
 31
0.0
 12
49.96441258506884
 22
-4.88842507127611
 32
0.0
 13
49.96441258506884
 23
-4.88842507127611
 33
0.0
  0
LINE
  5
FF
330
FA
100
AcDbEntity
  8
치수문자_일반주서
100
AcDbLine
 10
38.66353086902613
 20
1.184321277829294
 30
0.0
 11
38.66353086902614
 21
0.4733837922647943
 31
0.0
  0
LINE
  5
100
330
FA
100
AcDbEntity
  8
치수문자_일반주서
100
AcDbLine
 10
38.66353086902614
 20
0.4733837922647943
 30
0.0
 11
44.21978086008544
 21
0.4733837922648335
 31
0.0
  0
LINE
  5
101
330
FA
100
AcDbEntity
  8
치수문자_일반주서
100
AcDbLine
 10
44.21978086008544
 20
0.4733837922648335
 30
0.0
 11
44.21978086008544
 21
1.184321277829333
 31
0.0
  0
LINE
  5
102
330
FA
100
AcDbEntity
  8
치수문자_일반주서
100
AcDbLine
 10
38.66353086902606
 20
12.01305413996655
 30
0.0
 11
38.66353086902605
 21
12.72399162553105
 31
0.0
  0
LINE
  5
103
330
FA
100
AcDbEntity
  8
치수문자_일반주서
100
AcDbLine
 10
38.66353086902605
 20
12.72399162553105
 30
0.0
 11
44.21978086008536
 21
12.72399162553109
 31
0.0
  0
LINE
  5
104
330
FA
100
AcDbEntity
  8
치수문자_일반주서
100
AcDbLine
 10
44.21978086008536
 20
12.72399162553109
 30
0.0
 11
44.21978086008536
 21
12.01305413996659
 31
0.0
  0
LINE
  5
105
330
FA
100
AcDbEntity
  8
치수문자_일반주서
100
AcDbLine
 10
15.9440896545906
 20
1.588574928723894
 30
0.0
 11
50.45641258506883
 21
1.588574928723892
 31
0.0
  0
LINE
  5
106
330
FA
100
AcDbEntity
  8
치수문자_일반주서
100
AcDbLine
 10
15.9440896545906
 20
-1.586425071276108
 30
0.0
 11
50.45641258506883
 21
-1.58642507127611
 31
0.0
  0
LINE
  5
107
330
FA
100
AcDbEntity
  8
치수문자_일반주서
100
AcDbLine
 10
49.45641258506883
 20
1.588574928723892
 30
0.0
 11
49.45641258506883
 21
13.7636014042036
 31
0.0
  0
LINE
  5
108
330
FA
100
AcDbEntity
  8
치수문자_일반주서
100
AcDbLine
 10
49.45641258506883
 20
1.588574928723892
 30
0.0
 11
49.45641258506883
 21
-1.58642507127611
 31
0.0
  0
LINE
  5
109
330
FA
100
AcDbEntity
  8
치수문자_일반주서
100
AcDbLine
 10
49.45641258506883
 20
-1.58642507127611
 30
0.0
 11
49.45641258506883
 21
-7.93642507127611
 31
0.0
  0
MTEXT
  5
10A
330
FA
100
AcDbEntity
  8
치수문자_일반주서
100
AcDbMText
 10
39.70804394550654
 20
2.072993178440673
 30
0.0
 40
3.5
 41
0.0
 71
     1
 72
     1
  1
0.13
  7
SLDTEXTSTYLE0
 11
-7.044195017643634E-15
 21
1.0
 31
0.0
 73
     1
 44
1.0
  0
MTEXT
  5
10B
330
FA
100
AcDbEntity
  8
치수문자_일반주서
100
AcDbMText
 10
44.94467549586702
 20
-0.5662259864076179
 30
0.0
 40
3.5
 41
0.0
 71
     1
 72
     1
  1
%%c
  7
SLDTEXTSTYLE0
 11
-7.044195017643634E-15
 21
1.0
 31
0.0
 73
     1
 44
1.0
  0
MTEXT
  5
10C
330
FA
100
AcDbEntity
  8
치수문자_일반주서
100
AcDbMText
 10
44.94467549586699
 20
4.712211411966462
 30
0.0
 40
3.5
 41
0.0
 71
     1
 72
     1
  1
3.18
  7
SLDTEXTSTYLE0
 11
-7.044195017643634E-15
 21
1.0
 31
0.0
 73
     1
 44
1.0
  0
ENDBLK
  5
FC
330
FA
100
AcDbEntity
  8
0
100
AcDbBlockEnd
  0
BLOCK
  5
110
330
10F
100
AcDbEntity
  8
0
100
AcDbBlockBegin
  2
_D_2
 70
     0
 10
0.0
 20
0.0
 30
0.0
  3
_D_2
  1
_D_2
  0
SOLID
  5
112
330
10F
100
AcDbEntity
  8
치수문자_일반주서
100
AcDbTrace
 10
22.70000000000001
 20
12.05330048907219
 30
0.0
 11
26.00200000000001
 21
11.54530048907219
 31
0.0
 12
26.00200000000001
 22
12.56130048907219
 32
0.0
 13
26.00200000000001
 23
12.56130048907219
 33
0.0
  0
SOLID
  5
113
330
10F
100
AcDbEntity
  8
치수문자_일반주서
100
AcDbTrace
 10
10.00000000000002
 20
12.05330048907219
 30
0.0
 11
6.69800000000002
 21
12.56130048907219
 31
0.0
 12
6.69800000000002
 22
11.54530048907219
 32
0.0
 13
6.69800000000002
 23
11.54530048907219
 33
0.0
  0
LINE
  5
114
330
10F
100
AcDbEntity
  8
치수문자_일반주서
100
AcDbLine
 10
10.96233742504367
 20
22.84618220511493
 30
0.0
 11
10.25139993947917
 21
22.84618220511494
 31
0.0
  0
LINE
  5
115
330
10F
100
AcDbEntity
  8
치수문자_일반주서
100
AcDbLine
 10
10.25139993947917
 20
22.84618220511494
 30
0.0
 11
10.25139993947914
 21
17.28993221405563
 31
0.0
  0
LINE
  5
116
330
10F
100
AcDbEntity
  8
치수문자_일반주서
100
AcDbLine
 10
10.25139993947914
 20
17.28993221405563
 30
0.0
 11
10.96233742504364
 21
17.28993221405563
 31
0.0
  0
LINE
  5
117
330
10F
100
AcDbEntity
  8
치수문자_일반주서
100
AcDbLine
 10
21.79107028718093
 20
22.84618220511485
 30
0.0
 11
22.50200777274543
 21
22.84618220511485
 31
0.0
  0
LINE
  5
118
330
10F
100
AcDbEntity
  8
치수문자_일반주서
100
AcDbLine
 10
22.50200777274543
 20
22.84618220511485
 30
0.0
 11
22.5020077727454
 21
17.28993221405554
 31
0.0
  0
LINE
  5
119
330
10F
100
AcDbEntity
  8
치수문자_일반주서
100
AcDbLine
 10
22.5020077727454
 20
17.28993221405554
 30
0.0
 11
21.7910702871809
 21
17.28993221405555
 31
0.0
  0
LINE
  5
11A
330
10F
100
AcDbEntity
  8
치수문자_일반주서
100
AcDbLine
 10
22.70000000000001
 20
2.080574928723896
 30
0.0
 11
22.70000000000001
 21
13.05330048907219
 31
0.0
  0
LINE
  5
11B
330
10F
100
AcDbEntity
  8
치수문자_일반주서
100
AcDbLine
 10
10.00000000000002
 20
2.265491372658009
 30
0.0
 11
10.00000000000002
 21
13.05330048907219
 31
0.0
  0
LINE
  5
11C
330
10F
100
AcDbEntity
  8
치수문자_일반주서
100
AcDbLine
 10
22.70000000000001
 20
12.05330048907219
 30
0.0
 11
29.05000000000001
 21
12.05330048907219
 31
0.0
  0
LINE
  5
11D
330
10F
100
AcDbEntity
  8
치수문자_일반주서
100
AcDbLine
 10
22.70000000000001
 20
12.05330048907219
 30
0.0
 11
10.00000000000002
 21
12.05330048907219
 31
0.0
  0
LINE
  5
11E
330
10F
100
AcDbEntity
  8
치수문자_일반주서
100
AcDbLine
 10
10.00000000000002
 20
12.05330048907219
 30
0.0
 11
3.650000000000019
 21
12.05330048907219
 31
0.0
  0
MTEXT
  5
11F
330
10F
100
AcDbEntity
  8
치수문자_일반주서
100
AcDbMText
 10
9.737641213992433
 20
16.61850975493391
 30
0.0
 40
3.5
 41
0.0
 71
     1
 72
     1
  1

  7
SLDTEXTSTYLE0
 73
     1
 44
1.0
  0
MTEXT
  5
120
330
10F
100
AcDbEntity
  8
치수문자_일반주서
100
AcDbMText
 10
11.85100932565504
 20
21.80166912863452
 30
0.0
 40
3.5
 41
0.0
 71
     1
 72
     1
  1
0.50
  7
SLDTEXTSTYLE0
 73
     1
 44
1.0
  0
MTEXT
  5
121
330
10F
100
AcDbEntity
  8
치수문자_일반주서
100
AcDbMText
 10
10.55795361247828
 20
16.56503757827405
 30
0.0
 40
3.5
 41
0.0
 71
     1
 72
     1
  1
12.70
  7
SLDTEXTSTYLE0
 73
     1
 44
1.0
  0
MTEXT
  5
122
330
10F
100
AcDbEntity
  8
치수문자_일반주서
100
AcDbMText
 10
24.347711017886
 20
16.6185097549338
 30
0.0
 40
3.5
 41
0.0
 71
     1
 72
     1
  1

  7
SLDTEXTSTYLE0
 73
     1
 44
1.0
  0
ENDBLK
  5
111
330
10F
100
AcDbEntity
  8
0
100
AcDbBlockEnd
  0
BLOCK
  5
126
330
125
100
AcDbEntity
  8
0
100
AcDbBlockBegin
  2
_D_3
 70
     0
 10
0.0
 20
0.0
 30
0.0
  3
_D_3
  1
_D_3
  0
SOLID
  5
128
330
125
100
AcDbEntity
  8
치수문자_일반주서
100
AcDbTrace
 10
22.70000000000001
 20
24.05330048907216
 30
0.0
 11
19.39800000000001
 21
24.56130048907216
 31
0.0
 12
19.39800000000001
 22
23.54530048907216
 32
0.0
 13
19.39800000000001
 23
23.54530048907216
 33
0.0
  0
SOLID
  5
129
330
125
100
AcDbEntity
  8
치수문자_일반주서
100
AcDbTrace
 10
-34.45
 20
24.05330048907216
 30
0.0
 11
-31.148
 21
23.54530048907216
 31
0.0
 12
-31.148
 22
24.56130048907216
 32
0.0
 13
-31.148
 23
24.56130048907216
 33
0.0
  0
LINE
  5
12A
330
125
100
AcDbEntity
  8
치수문자_일반주서
100
AcDbLine
 10
-11.54653280399565
 20
34.84618220511489
 30
0.0
 11
-12.25747028956015
 21
34.84618220511489
 31
0.0
  0
LINE
  5
12B
330
125
100
AcDbEntity
  8
치수문자_일반주서
100
AcDbLine
 10
-12.25747028956015
 20
34.84618220511489
 30
0.0
 11
-12.25747028956019
 21
29.28993221405559
 31
0.0
  0
LINE
  5
12C
330
125
100
AcDbEntity
  8
치수문자_일반주서
100
AcDbLine
 10
-12.25747028956019
 20
29.28993221405559
 30
0.0
 11
-11.54653280399569
 21
29.28993221405558
 31
0.0
  0
LINE
  5
12D
330
125
100
AcDbEntity
  8
치수문자_일반주서
100
AcDbLine
 10
-0.717799941858388
 20
34.84618220511481
 30
0.0
 11
-0.0068624562938879
 21
34.8461822051148
 31
0.0
  0
LINE
  5
12E
330
125
100
AcDbEntity
  8
치수문자_일반주서
100
AcDbLine
 10
-0.0068624562938879
 20
34.8461822051148
 30
0.0
 11
-0.0068624562939274
 21
29.2899322140555
 31
0.0
  0
LINE
  5
12F
330
125
100
AcDbEntity
  8
치수문자_일반주서
100
AcDbLine
 10
-0.0068624562939274
 20
29.2899322140555
 30
0.0
 11
-0.7177999418584274
 21
29.2899322140555
 31
0.0
  0
LINE
  5
130
330
125
100
AcDbEntity
  8
치수문자_일반주서
100
AcDbLine
 10
22.70000000000001
 20
2.080574928723896
 30
0.0
 11
22.70000000000001
 21
25.05330048907216
 31
0.0
  0
LINE
  5
131
330
125
100
AcDbEntity
  8
치수문자_일반주서
100
AcDbLine
 10
-34.45
 20
3.366074928723888
 30
0.0
 11
-34.45
 21
25.05330048907216
 31
0.0
  0
LINE
  5
132
330
125
100
AcDbEntity
  8
치수문자_일반주서
100
AcDbLine
 10
22.70000000000001
 20
24.05330048907216
 30
0.0
 11
-34.45
 21
24.05330048907216
 31
0.0
  0
MTEXT
  5
133
330
125
100
AcDbEntity
  8
치수문자_일반주서
100
AcDbMText
 10
-12.77122901504689
 20
28.61850975493387
 30
0.0
 40
3.5
 41
0.0
 71
     1
 72
     1
  1

  7
SLDTEXTSTYLE0
 73
     1
 44
1.0
  0
MTEXT
  5
134
330
125
100
AcDbEntity
  8
치수문자_일반주서
100
AcDbMText
 10
-10.65786090338428
 20
33.80166912863448
 30
0.0
 40
3.5
 41
0.0
 71
     1
 72
     1
  1
2.25
  7
SLDTEXTSTYLE0
 73
     1
 44
1.0
  0
MTEXT
  5
135
330
125
100
AcDbEntity
  8
치수문자_일반주서
100
AcDbMText
 10
-11.95091661656105
 20
28.56503757827401
 30
0.0
 40
3.5
 41
0.0
 71
     1
 72
     1
  1
57.15
  7
SLDTEXTSTYLE0
 73
     1
 44
1.0
  0
MTEXT
  5
136
330
125
100
AcDbEntity
  8
치수문자_일반주서
100
AcDbMText
 10
1.83884078884668
 20
28.61850975493377
 30
0.0
 40
3.5
 41
0.0
 71
     1
 72
     1
  1

  7
SLDTEXTSTYLE0
 73
     1
 44
1.0
  0
ENDBLK
  5
127
330
125
100
AcDbEntity
  8
0
100
AcDbBlockEnd
  0
BLOCK
  5
13F
330
13E
100
AcDbEntity
  8
0
100
AcDbBlockBegin
  2
SW_DOWELSYMBOL_0
 70
     0
 10
0.0
 20
0.0
 30
0.0
  3
SW_DOWELSYMBOL_0
  1
SW_DOWELSYMBOL_0
  0
CIRCLE
  5
141
330
13E
100
AcDbEntity
  8
해칭선
 62
     0
100
AcDbCircle
 10
0.0
 20
0.0
 30
0.0
 40
3.000000000000002
  0
HATCH
  5
142
330
13E
100
AcDbEntity
  8
0
  6
Continuous
 62
     0
370
     0
100
AcDbHatch
 10
0.0
 20
0.0
 30
0.0
210
0.0
220
0.0
230
1.0
  2
SOLID
 70
     1
 71
     0
 91
        1
 92
        0
 93
        3
 72
     2
 10
0.0000000000000069
 20
0.0
 40
3.000000000000002
 50
0.0
 51
90.0
 73
     1
 72
     1
 10
0.0000000000000069
 20
3.000000000000002
 11
0.0000000000000069
 21
0.0
 72
     1
 10
0.0000000000000069
 20
0.0
 11
3.000000000000009
 21
0.0
 97
        0
 75
     0
 76
     1
 98
        1
 10
0.0
 20
0.0
  0
HATCH
  5
143
330
13E
100
AcDbEntity
  8
0
  6
Continuous
 62
     0
370
     0
100
AcDbHatch
 10
0.0
 20
0.0
 30
0.0
210
0.0
220
0.0
230
1.0
  2
SOLID
 70
     1
 71
     0
 91
        1
 92
        0
 93
        3
 72
     2
 10
0.0000000000000069
 20
0.0
 40
3.000000000000002
 50
180.0
 51
270.0000000000008
 73
     1
 72
     1
 10
0.0000000000000069
 20
-3.000000000000002
 11
0.0000000000000069
 21
0.0
 72
     1
 10
0.0000000000000069
 20
0.0
 11
-2.999999999999995
 21
0.0
 97
        0
 75
     0
 76
     1
 98
        1
 10
0.0
 20
0.0
  0
ENDBLK
  5
140
330
13E
100
AcDbEntity
  8
0
100
AcDbBlockEnd
  0
BLOCK
  5
23A
330
239
100
AcDbEntity
  8
0
100
AcDbBlockBegin
  2
*D8
 70
     1
 10
0.0
 20
0.0
 30
0.0
  3
*D8
  1
*D8
  0
LINE
  5
23B
330
239
100
AcDbEntity
  8
치수문자_일반주서
 62
     0
370
    -2
100
AcDbLine
 10
76.22960833996387
 20
45.899958944978
 30
0.0
 11
95.92012074401697
 21
22.13231115400317
 31
0.0
  0
MTEXT
  5
23C
330
239
100
AcDbEntity
  8
치수문자_일반주서
 62
     0
100
AcDbMText
 10
89.14956562026484
 20
34.41942065456243
 30
0.0
 40
3.5
 41
0.0
 71
     5
 72
     1
  1
\A1;R.25 [R0.010]
  7
SLDTEXTSTYLE0
 11
0.6379663498210919
 21
-0.7700642417980155
 31
0.0
 73
     1
 44
1.0
  0
LINE
  5
23D
330
239
100
AcDbEntity
  8
치수문자_일반주서
 62
     0
370
    -2
100
AcDbLine
 10
73.96100000000007
 20
48.63830738881175
 30
0.0
 11
74.12304345285463
 21
48.44271107139505
 31
0.0
  0
SOLID
  5
23E
330
239
100
AcDbEntity
  8
치수문자_일반주서
 62
     0
100
AcDbTrace
 10
76.65340036103338
 20
46.25105309282954
 30
0.0
 11
75.80581631889437
 21
45.54886479712646
 31
0.0
 12
74.12304345285463
 22
48.44271107139505
 32
0.0
 13
74.12304345285463
 23
48.44271107139505
 33
0.0
  0
POINT
  5
23F
330
239
100
AcDbEntity
  8
Defpoints
 62
     0
100
AcDbPoint
 10
74.12304345285463
 20
48.44271107139505
 30
0.0
  0
POINT
  5
240
330
239
100
AcDbEntity
  8
Defpoints
 62
     0
100
AcDbPoint
 10
73.96100000000007
 20
48.63830738881175
 30
0.0
  0
ENDBLK
  5
241
330
239
100
AcDbEntity
  8
0
100
AcDbBlockEnd
  0
BLOCK
  5
247
330
246
100
AcDbEntity
  8
0
100
AcDbBlockBegin
  2
*D9
 70
     1
 10
0.0
 20
0.0
 30
0.0
  3
*D9
  1
*D9
  0
LINE
  5
249
330
246
100
AcDbEntity
  8
치수문자_일반주서
 62
     0
370
    -2
100
AcDbLine
 10
17.81250000000005
 20
53.14680738881173
 30
0.0
 11
4.375000000000025
 21
53.14680738881168
 31
0.0
  0
LINE
  5
24A
330
246
100
AcDbEntity
  8
치수문자_일반주서
 62
     0
370
    -2
100
AcDbLine
 10
17.81250000000005
 20
46.79680738881174
 30
0.0
 11
4.375000000000047
 21
46.79680738881169
 31
0.0
  0
LINE
  5
24B
330
246
100
AcDbEntity
  8
치수문자_일반주서
 62
     0
370
    -2
100
AcDbLine
 10
4.375000000000036
 20
49.84480738881168
 30
0.0
 11
4.375000000000036
 21
50.09880738881169
 31
0.0
  0
SOLID
  5
24C
330
246
100
AcDbEntity
  8
치수문자_일반주서
 62
     0
100
AcDbTrace
 10
4.92533333333337
 20
49.84480738881168
 30
0.0
 11
3.824666666666703
 21
49.84480738881168
 31
0.0
 12
4.375000000000025
 22
53.14680738881168
 32
0.0
 13
4.375000000000025
 23
53.14680738881168
 33
0.0
  0
SOLID
  5
24D
330
246
100
AcDbEntity
  8
치수문자_일반주서
 62
     0
100
AcDbTrace
 10
3.824666666666702
 20
50.09880738881169
 30
0.0
 11
4.925333333333369
 21
50.09880738881169
 31
0.0
 12
4.375000000000047
 22
46.79680738881169
 32
0.0
 13
4.375000000000047
 23
46.79680738881169
 33
0.0
  0
MTEXT
  5
24E
330
246
100
AcDbEntity
  8
치수문자_일반주서
 62
     0
100
AcDbMText
 10
0.0000000000000355
 20
49.97180738881172
 30
0.0
 40
3.5
 41
0.0
 71
     2
 72
     1
  1
\A1;%%c6.35 [1/4]
  7
SLDTEXTSTYLE0
 11
-3.496765431890260E-15
 21
1.0
 31
0.0
 73
     1
 44
1.0
  0
POINT
  5
24F
330
246
100
AcDbEntity
  8
Defpoints
 62
     0
100
AcDbPoint
 10
17.87500000000005
 20
53.14680738881173
 30
0.0
  0
POINT
  5
250
330
246
100
AcDbEntity
  8
Defpoints
 62
     0
100
AcDbPoint
 10
17.87500000000005
 20
46.79680738881174
 30
0.0
  0
POINT
  5
251
330
246
100
AcDbEntity
  8
Defpoints
 62
     0
100
AcDbPoint
 10
4.37500000000005
 20
46.79680738881169
 30
0.0
  0
ENDBLK
  5
248
330
246
100
AcDbEntity
  8
0
100
AcDbBlockEnd
  0
BLOCK
  5
253
330
252
100
AcDbEntity
  8
0
100
AcDbBlockBegin
  2
*D10
 70
     1
 10
0.0
 20
0.0
 30
0.0
  3
*D10
  1
*D10
  0
LINE
  5
255
330
252
100
AcDbEntity
  8
치수문자_일반주서
 62
     0
370
    -2
100
AcDbLine
 10
74.27750000000006
 20
51.55930738881175
 30
0.0
 11
88.56686652211077
 21
51.55930738881181
 31
0.0
  0
LINE
  5
256
330
252
100
AcDbEntity
  8
치수문자_일반주서
 62
     0
370
    -2
100
AcDbLine
 10
74.27750000000006
 20
48.38430738881175
 30
0.0
 11
88.56686652211079
 21
48.38430738881181
 31
0.0
  0
LINE
  5
257
330
252
100
AcDbEntity
  8
치수문자_일반주서
 62
     0
370
    -2
100
AcDbLine
 10
88.56686652211077
 20
51.55930738881181
 30
0.0
 11
88.56686652211062
 21
86.00654842974495
 31
0.0
  0
LINE
  5
258
330
252
100
AcDbEntity
  8
치수문자_일반주서
 62
     0
370
    -2
100
AcDbLine
 10
88.56686652211077
 20
51.55930738881181
 30
0.0
 11
88.56686652211079
 21
48.38430738881181
 31
0.0
  0
LINE
  5
259
330
252
100
AcDbEntity
  8
치수문자_일반주서
 62
     0
370
    -2
100
AcDbLine
 10
88.56686652211076
 20
54.86130738881181
 30
0.0
 11
88.56686652211074
 21
58.16330738881181
 31
0.0
  0
LINE
  5
25A
330
252
100
AcDbEntity
  8
치수문자_일반주서
 62
     0
370
    -2
100
AcDbLine
 10
88.5668665221108
 20
45.08230738881181
 30
0.0
 11
88.56686652211081
 21
41.78030738881181
 31
0.0
  0
SOLID
  5
25B
330
252
100
AcDbEntity
  8
치수문자_일반주서
 62
     0
100
AcDbTrace
 10
88.01653318877743
 20
54.86130738881181
 30
0.0
 11
89.11719985544408
 21
54.86130738881181
 31
0.0
 12
88.56686652211077
 22
51.55930738881181
 32
0.0
 13
88.56686652211077
 23
51.55930738881181
 33
0.0
  0
SOLID
  5
25C
330
252
100
AcDbEntity
  8
치수문자_일반주서
 62
     0
100
AcDbTrace
 10
89.11719985544413
 20
45.08230738881181
 30
0.0
 11
88.01653318877747
 21
45.08230738881181
 31
0.0
 12
88.56686652211079
 22
48.38430738881181
 32
0.0
 13
88.56686652211079
 23
48.38430738881181
 33
0.0
  0
MTEXT
  5
25D
330
252
100
AcDbEntity
  8
치수문자_일반주서
 62
     0
100
AcDbMText
 10
84.19186652211067
 20
73.75654842974492
 30
0.0
 40
3.5
 41
0.0
 71
     2
 72
     1
  1
\A1;%%c3.18 [1/8]
  7
SLDTEXTSTYLE0
 11
-4.475859752819522E-15
 21
1.0
 31
0.0
 73
     1
 44
1.0
  0
POINT
  5
25E
330
252
100
AcDbEntity
  8
Defpoints
 62
     0
100
AcDbPoint
 10
74.21500000000006
 20
51.55930738881175
 30
0.0
  0
POINT
  5
25F
330
252
100
AcDbEntity
  8
Defpoints
 62
     0
100
AcDbPoint
 10
74.21500000000006
 20
48.38430738881175
 30
0.0
  0
POINT
  5
260
330
252
100
AcDbEntity
  8
Defpoints
 62
     0
100
AcDbPoint
 10
88.56686652211079
 20
48.38430738881181
 30
0.0
  0
ENDBLK
  5
254
330
252
100
AcDbEntity
  8
0
100
AcDbBlockEnd
  0
BLOCK
  5
262
330
261
100
AcDbEntity
  8
0
100
AcDbBlockBegin
  2
*D11
 70
     1
 10
0.0
 20
0.0
 30
0.0
  3
*D11
  1
*D11
  0
LINE
  5
264
330
261
100
AcDbEntity
  8
치수문자_일반주서
 62
     0
370
    -2
100
AcDbLine
 10
74.21500000000006
 20
51.62180738881175
 30
0.0
 11
74.21500000000006
 21
60.69343428775669
 31
0.0
  0
LINE
  5
265
330
261
100
AcDbEntity
  8
치수문자_일반주서
 62
     0
370
    -2
100
AcDbLine
 10
61.51500000000006
 20
51.29872383274586
 30
0.0
 11
61.51500000000006
 21
60.69343428775669
 31
0.0
  0
LINE
  5
266
330
261
100
AcDbEntity
  8
치수문자_일반주서
 62
     0
370
    -2
100
AcDbLine
 10
61.51500000000006
 20
60.69343428775669
 30
0.0
 11
32.71287910182971
 21
60.69343428775669
 31
0.0
  0
LINE
  5
267
330
261
100
AcDbEntity
  8
치수문자_일반주서
 62
     0
370
    -2
100
AcDbLine
 10
74.21500000000006
 20
60.69343428775669
 30
0.0
 11
61.51500000000006
 21
60.69343428775669
 31
0.0
  0
LINE
  5
268
330
261
100
AcDbEntity
  8
치수문자_일반주서
 62
     0
370
    -2
100
AcDbLine
 10
77.51700000000005
 20
60.69343428775669
 30
0.0
 11
80.81900000000005
 21
60.69343428775669
 31
0.0
  0
LINE
  5
269
330
261
100
AcDbEntity
  8
치수문자_일반주서
 62
     0
370
    -2
100
AcDbLine
 10
58.21300000000006
 20
60.69343428775669
 30
0.0
 11
54.91100000000007
 21
60.69343428775669
 31
0.0
  0
SOLID
  5
26A
330
261
100
AcDbEntity
  8
치수문자_일반주서
 62
     0
100
AcDbTrace
 10
77.51700000000005
 20
61.24376762109003
 30
0.0
 11
77.51700000000005
 21
60.14310095442336
 31
0.0
 12
74.21500000000006
 22
60.69343428775669
 32
0.0
 13
74.21500000000006
 23
60.69343428775669
 33
0.0
  0
SOLID
  5
26B
330
261
100
AcDbEntity
  8
치수문자_일반주서
 62
     0
100
AcDbTrace
 10
58.21300000000006
 20
60.14310095442336
 30
0.0
 11
58.21300000000006
 21
61.24376762109003
 31
0.0
 12
61.51500000000006
 22
60.69343428775669
 32
0.0
 13
61.51500000000006
 23
60.69343428775669
 33
0.0
  0
MTEXT
  5
26C
330
261
100
AcDbEntity
  8
치수문자_일반주서
 62
     0
100
AcDbMText
 10
43.65037910182971
 20
65.0684342877567
 30
0.0
 40
3.5
 41
0.0
 71
     2
 72
     1
  1
\A1;12.7 [1/2]
  7
SLDTEXTSTYLE0
 73
     1
 44
1.0
  0
POINT
  5
26D
330
261
100
AcDbEntity
  8
Defpoints
 62
     0
100
AcDbPoint
 10
74.21500000000006
 20
51.55930738881175
 30
0.0
  0
POINT
  5
26E
330
261
100
AcDbEntity
  8
Defpoints
 62
     0
100
AcDbPoint
 10
61.51500000000006
 20
51.23622383274586
 30
0.0
  0
POINT
  5
26F
330
261
100
AcDbEntity
  8
Defpoints
 62
     0
100
AcDbPoint
 10
61.51500000000006
 20
60.69343428775669
 30
0.0
  0
ENDBLK
  5
263
330
261
100
AcDbEntity
  8
0
100
AcDbBlockEnd
  0
BLOCK
  5
271
330
270
100
AcDbEntity
  8
0
100
AcDbBlockBegin
  2
*D12
 70
     1
 10
0.0
 20
0.0
 30
0.0
  3
*D12
  1
*D12
  0
LINE
  5
273
330
270
100
AcDbEntity
  8
치수문자_일반주서
 62
     0
370
    -2
100
AcDbLine
 10
74.21500000000006
 20
51.62180738881175
 30
0.0
 11
74.21500000000006
 21
74.05578294916
 31
0.0
  0
LINE
  5
274
330
270
100
AcDbEntity
  8
치수문자_일반주서
 62
     0
370
    -2
100
AcDbLine
 10
17.06500000000005
 20
52.39930738881174
 30
0.0
 11
17.06500000000005
 21
74.05578294916
 31
0.0
  0
LINE
  5
275
330
270
100
AcDbEntity
  8
치수문자_일반주서
 62
     0
370
    -2
100
AcDbLine
 10
70.91300000000007
 20
74.05578294916
 30
0.0
 11
20.36700000000005
 21
74.05578294916
 31
0.0
  0
SOLID
  5
276
330
270
100
AcDbEntity
  8
치수문자_일반주서
 62
     0
100
AcDbTrace
 10
70.91300000000007
 20
73.50544961582668
 30
0.0
 11
70.91300000000007
 21
74.60611628249333
 31
0.0
 12
74.21500000000006
 22
74.05578294916
 32
0.0
 13
74.21500000000006
 23
74.05578294916
 33
0.0
  0
SOLID
  5
277
330
270
100
AcDbEntity
  8
치수문자_일반주서
 62
     0
100
AcDbTrace
 10
20.36700000000005
 20
74.60611628249333
 30
0.0
 11
20.36700000000005
 21
73.50544961582668
 31
0.0
 12
17.06500000000005
 22
74.05578294916
 32
0.0
 13
17.06500000000005
 23
74.05578294916
 33
0.0
  0
MTEXT
  5
278
330
270
100
AcDbEntity
  8
치수문자_일반주서
 62
     0
100
AcDbMText
 10
45.38283327782707
 20
78.43078294916
 30
0.0
 40
3.5
 41
0.0
 71
     2
 72
     1
  1
\A1;57.15 [2 1/4]
  7
SLDTEXTSTYLE0
 73
     1
 44
1.0
  0
POINT
  5
279
330
270
100
AcDbEntity
  8
Defpoints
 62
     0
100
AcDbPoint
 10
74.21500000000006
 20
51.55930738881175
 30
0.0
  0
POINT
  5
27A
330
270
100
AcDbEntity
  8
Defpoints
 62
     0
100
AcDbPoint
 10
17.06500000000005
 20
52.33680738881174
 30
0.0
  0
POINT
  5
27B
330
270
100
AcDbEntity
  8
Defpoints
 62
     0
100
AcDbPoint
 10
17.06500000000005
 20
74.05578294916
 30
0.0
  0
ENDBLK
  5
272
330
270
100
AcDbEntity
  8
0
100
AcDbBlockEnd
  0
BLOCK
  5
34C
330
34B
100
AcDbEntity
  8
0
100
AcDbBlockBegin
  2
*D14
 70
     1
 10
0.0
 20
0.0
 30
0.0
  3
*D14
  1
*D14
  0
LINE
  5
34D
330
34B
100
AcDbEntity
  8
치수문자_일반주서
 62
     0
370
    -2
100
AcDbLine
 10
76.22960833996387
 20
45.899958944978
 30
0.0
 11
95.92012074401697
 21
22.13231115400317
 31
0.0
  0
MTEXT
  5
34E
330
34B
100
AcDbEntity
  8
치수문자_일반주서
 62
     0
100
AcDbMText
 10
89.14956562026484
 20
34.41942065456243
 30
0.0
 40
3.5
 41
0.0
 71
     5
 72
     1
  1
\A1;R.25 [R0.010]
  7
SLDTEXTSTYLE0
 11
0.6379663498210919
 21
-0.7700642417980155
 31
0.0
 73
     1
 44
1.0
  0
LINE
  5
34F
330
34B
100
AcDbEntity
  8
치수문자_일반주서
 62
     0
370
    -2
100
AcDbLine
 10
73.96100000000007
 20
48.63830738881175
 30
0.0
 11
74.12304345285463
 21
48.44271107139505
 31
0.0
  0
SOLID
  5
350
330
34B
100
AcDbEntity
  8
치수문자_일반주서
 62
     0
100
AcDbTrace
 10
76.65340036103338
 20
46.25105309282954
 30
0.0
 11
75.80581631889437
 21
45.54886479712646
 31
0.0
 12
74.12304345285463
 22
48.44271107139505
 32
0.0
 13
74.12304345285463
 23
48.44271107139505
 33
0.0
  0
POINT
  5
351
330
34B
100
AcDbEntity
  8
Defpoints
 62
     0
100
AcDbPoint
 10
74.12304345285463
 20
48.44271107139505
 30
0.0
  0
POINT
  5
352
330
34B
100
AcDbEntity
  8
Defpoints
 62
     0
100
AcDbPoint
 10
73.96100000000007
 20
48.63830738881175
 30
0.0
  0
ENDBLK
  5
353
330
34B
100
AcDbEntity
  8
0
100
AcDbBlockEnd
  0
BLOCK
  5
357
330
356
100
AcDbEntity
  8
0
100
AcDbBlockBegin
  2
*D15
 70
     1
 10
0.0
 20
0.0
 30
0.0
  3
*D15
  1
*D15
  0
LINE
  5
359
330
356
100
AcDbEntity
  8
치수문자_일반주서
 62
     0
370
    -2
100
AcDbLine
 10
17.81250000000005
 20
53.14680738881173
 30
0.0
 11
4.375000000000025
 21
53.14680738881168
 31
0.0
  0
LINE
  5
35A
330
356
100
AcDbEntity
  8
치수문자_일반주서
 62
     0
370
    -2
100
AcDbLine
 10
17.81250000000005
 20
46.79680738881174
 30
0.0
 11
4.375000000000047
 21
46.79680738881169
 31
0.0
  0
LINE
  5
35B
330
356
100
AcDbEntity
  8
치수문자_일반주서
 62
     0
370
    -2
100
AcDbLine
 10
4.375000000000036
 20
49.84480738881168
 30
0.0
 11
4.375000000000036
 21
50.09880738881169
 31
0.0
  0
SOLID
  5
35C
330
356
100
AcDbEntity
  8
치수문자_일반주서
 62
     0
100
AcDbTrace
 10
4.92533333333337
 20
49.84480738881168
 30
0.0
 11
3.824666666666703
 21
49.84480738881168
 31
0.0
 12
4.375000000000025
 22
53.14680738881168
 32
0.0
 13
4.375000000000025
 23
53.14680738881168
 33
0.0
  0
SOLID
  5
35D
330
356
100
AcDbEntity
  8
치수문자_일반주서
 62
     0
100
AcDbTrace
 10
3.824666666666702
 20
50.09880738881169
 30
0.0
 11
4.925333333333369
 21
50.09880738881169
 31
0.0
 12
4.375000000000047
 22
46.79680738881169
 32
0.0
 13
4.375000000000047
 23
46.79680738881169
 33
0.0
  0
MTEXT
  5
35E
330
356
100
AcDbEntity
  8
치수문자_일반주서
 62
     0
100
AcDbMText
 10
0.0000000000000355
 20
49.97180738881172
 30
0.0
 40
3.5
 41
0.0
 71
     2
 72
     1
  1
\A1;%%c6.35 [1/4]
  7
SLDTEXTSTYLE0
 11
-3.496765431890260E-15
 21
1.0
 31
0.0
 73
     1
 44
1.0
  0
POINT
  5
35F
330
356
100
AcDbEntity
  8
Defpoints
 62
     0
100
AcDbPoint
 10
17.87500000000005
 20
53.14680738881173
 30
0.0
  0
POINT
  5
360
330
356
100
AcDbEntity
  8
Defpoints
 62
     0
100
AcDbPoint
 10
17.87500000000005
 20
46.79680738881174
 30
0.0
  0
POINT
  5
361
330
356
100
AcDbEntity
  8
Defpoints
 62
     0
100
AcDbPoint
 10
4.37500000000005
 20
46.79680738881169
 30
0.0
  0
ENDBLK
  5
358
330
356
100
AcDbEntity
  8
0
100
AcDbBlockEnd
  0
BLOCK
  5
363
330
362
100
AcDbEntity
  8
0
100
AcDbBlockBegin
  2
*D16
 70
     1
 10
0.0
 20
0.0
 30
0.0
  3
*D16
  1
*D16
  0
LINE
  5
365
330
362
100
AcDbEntity
  8
치수문자_일반주서
 62
     0
370
    -2
100
AcDbLine
 10
74.27750000000006
 20
51.55930738881175
 30
0.0
 11
88.56686652211077
 21
51.55930738881181
 31
0.0
  0
LINE
  5
366
330
362
100
AcDbEntity
  8
치수문자_일반주서
 62
     0
370
    -2
100
AcDbLine
 10
74.27750000000006
 20
48.38430738881175
 30
0.0
 11
88.56686652211079
 21
48.38430738881181
 31
0.0
  0
LINE
  5
367
330
362
100
AcDbEntity
  8
치수문자_일반주서
 62
     0
370
    -2
100
AcDbLine
 10
88.56686652211077
 20
51.55930738881181
 30
0.0
 11
88.56686652211062
 21
86.00654842974495
 31
0.0
  0
LINE
  5
368
330
362
100
AcDbEntity
  8
치수문자_일반주서
 62
     0
370
    -2
100
AcDbLine
 10
88.56686652211077
 20
51.55930738881181
 30
0.0
 11
88.56686652211079
 21
48.38430738881181
 31
0.0
  0
LINE
  5
369
330
362
100
AcDbEntity
  8
치수문자_일반주서
 62
     0
370
    -2
100
AcDbLine
 10
88.56686652211076
 20
54.86130738881181
 30
0.0
 11
88.56686652211074
 21
58.16330738881181
 31
0.0
  0
LINE
  5
36A
330
362
100
AcDbEntity
  8
치수문자_일반주서
 62
     0
370
    -2
100
AcDbLine
 10
88.5668665221108
 20
45.08230738881181
 30
0.0
 11
88.56686652211081
 21
41.78030738881181
 31
0.0
  0
SOLID
  5
36B
330
362
100
AcDbEntity
  8
치수문자_일반주서
 62
     0
100
AcDbTrace
 10
88.01653318877743
 20
54.86130738881181
 30
0.0
 11
89.11719985544408
 21
54.86130738881181
 31
0.0
 12
88.56686652211077
 22
51.55930738881181
 32
0.0
 13
88.56686652211077
 23
51.55930738881181
 33
0.0
  0
SOLID
  5
36C
330
362
100
AcDbEntity
  8
치수문자_일반주서
 62
     0
100
AcDbTrace
 10
89.11719985544413
 20
45.08230738881181
 30
0.0
 11
88.01653318877747
 21
45.08230738881181
 31
0.0
 12
88.56686652211079
 22
48.38430738881181
 32
0.0
 13
88.56686652211079
 23
48.38430738881181
 33
0.0
  0
MTEXT
  5
36D
330
362
100
AcDbEntity
  8
치수문자_일반주서
 62
     0
100
AcDbMText
 10
84.19186652211067
 20
73.75654842974492
 30
0.0
 40
3.5
 41
0.0
 71
     2
 72
     1
  1
\A1;%%c3.18 [1/8]
  7
SLDTEXTSTYLE0
 11
-4.475859752819522E-15
 21
1.0
 31
0.0
 73
     1
 44
1.0
  0
POINT
  5
36E
330
362
100
AcDbEntity
  8
Defpoints
 62
     0
100
AcDbPoint
 10
74.21500000000006
 20
51.55930738881175
 30
0.0
  0
POINT
  5
36F
330
362
100
AcDbEntity
  8
Defpoints
 62
     0
100
AcDbPoint
 10
74.21500000000006
 20
48.38430738881175
 30
0.0
  0
POINT
  5
370
330
362
100
AcDbEntity
  8
Defpoints
 62
     0
100
AcDbPoint
 10
88.56686652211079
 20
48.38430738881181
 30
0.0
  0
ENDBLK
  5
364
330
362
100
AcDbEntity
  8
0
100
AcDbBlockEnd
  0
BLOCK
  5
372
330
371
100
AcDbEntity
  8
0
100
AcDbBlockBegin
  2
*D17
 70
     1
 10
0.0
 20
0.0
 30
0.0
  3
*D17
  1
*D17
  0
LINE
  5
374
330
371
100
AcDbEntity
  8
치수문자_일반주서
 62
     0
370
    -2
100
AcDbLine
 10
74.21500000000006
 20
51.62180738881175
 30
0.0
 11
74.21500000000006
 21
60.69343428775669
 31
0.0
  0
LINE
  5
375
330
371
100
AcDbEntity
  8
치수문자_일반주서
 62
     0
370
    -2
100
AcDbLine
 10
61.51500000000006
 20
51.29872383274586
 30
0.0
 11
61.51500000000006
 21
60.69343428775669
 31
0.0
  0
LINE
  5
376
330
371
100
AcDbEntity
  8
치수문자_일반주서
 62
     0
370
    -2
100
AcDbLine
 10
61.51500000000006
 20
60.69343428775669
 30
0.0
 11
32.71287910182971
 21
60.69343428775669
 31
0.0
  0
LINE
  5
377
330
371
100
AcDbEntity
  8
치수문자_일반주서
 62
     0
370
    -2
100
AcDbLine
 10
74.21500000000006
 20
60.69343428775669
 30
0.0
 11
61.51500000000006
 21
60.69343428775669
 31
0.0
  0
LINE
  5
378
330
371
100
AcDbEntity
  8
치수문자_일반주서
 62
     0
370
    -2
100
AcDbLine
 10
77.51700000000005
 20
60.69343428775669
 30
0.0
 11
80.81900000000005
 21
60.69343428775669
 31
0.0
  0
LINE
  5
379
330
371
100
AcDbEntity
  8
치수문자_일반주서
 62
     0
370
    -2
100
AcDbLine
 10
58.21300000000006
 20
60.69343428775669
 30
0.0
 11
54.91100000000007
 21
60.69343428775669
 31
0.0
  0
SOLID
  5
37A
330
371
100
AcDbEntity
  8
치수문자_일반주서
 62
     0
100
AcDbTrace
 10
77.51700000000005
 20
61.24376762109003
 30
0.0
 11
77.51700000000005
 21
60.14310095442336
 31
0.0
 12
74.21500000000006
 22
60.69343428775669
 32
0.0
 13
74.21500000000006
 23
60.69343428775669
 33
0.0
  0
SOLID
  5
37B
330
371
100
AcDbEntity
  8
치수문자_일반주서
 62
     0
100
AcDbTrace
 10
58.21300000000006
 20
60.14310095442336
 30
0.0
 11
58.21300000000006
 21
61.24376762109003
 31
0.0
 12
61.51500000000006
 22
60.69343428775669
 32
0.0
 13
61.51500000000006
 23
60.69343428775669
 33
0.0
  0
MTEXT
  5
37C
330
371
100
AcDbEntity
  8
치수문자_일반주서
 62
     0
100
AcDbMText
 10
43.65037910182971
 20
65.0684342877567
 30
0.0
 40
3.5
 41
0.0
 71
     2
 72
     1
  1
\A1;12.7 [1/2]
  7
SLDTEXTSTYLE0
 73
     1
 44
1.0
  0
POINT
  5
37D
330
371
100
AcDbEntity
  8
Defpoints
 62
     0
100
AcDbPoint
 10
74.21500000000006
 20
51.55930738881175
 30
0.0
  0
POINT
  5
37E
330
371
100
AcDbEntity
  8
Defpoints
 62
     0
100
AcDbPoint
 10
61.51500000000006
 20
51.23622383274586
 30
0.0
  0
POINT
  5
37F
330
371
100
AcDbEntity
  8
Defpoints
 62
     0
100
AcDbPoint
 10
61.51500000000006
 20
60.69343428775669
 30
0.0
  0
ENDBLK
  5
373
330
371
100
AcDbEntity
  8
0
100
AcDbBlockEnd
  0
BLOCK
  5
381
330
380
100
AcDbEntity
  8
0
100
AcDbBlockBegin
  2
*D18
 70
     1
 10
0.0
 20
0.0
 30
0.0
  3
*D18
  1
*D18
  0
LINE
  5
383
330
380
100
AcDbEntity
  8
치수문자_일반주서
 62
     0
370
    -2
100
AcDbLine
 10
74.21500000000006
 20
51.62180738881175
 30
0.0
 11
74.21500000000006
 21
74.05578294916
 31
0.0
  0
LINE
  5
384
330
380
100
AcDbEntity
  8
치수문자_일반주서
 62
     0
370
    -2
100
AcDbLine
 10
17.06500000000005
 20
52.39930738881174
 30
0.0
 11
17.06500000000005
 21
74.05578294916
 31
0.0
  0
LINE
  5
385
330
380
100
AcDbEntity
  8
치수문자_일반주서
 62
     0
370
    -2
100
AcDbLine
 10
70.91300000000007
 20
74.05578294916
 30
0.0
 11
20.36700000000005
 21
74.05578294916
 31
0.0
  0
SOLID
  5
386
330
380
100
AcDbEntity
  8
치수문자_일반주서
 62
     0
100
AcDbTrace
 10
70.91300000000007
 20
73.50544961582668
 30
0.0
 11
70.91300000000007
 21
74.60611628249333
 31
0.0
 12
74.21500000000006
 22
74.05578294916
 32
0.0
 13
74.21500000000006
 23
74.05578294916
 33
0.0
  0
SOLID
  5
387
330
380
100
AcDbEntity
  8
치수문자_일반주서
 62
     0
100
AcDbTrace
 10
20.36700000000005
 20
74.60611628249333
 30
0.0
 11
20.36700000000005
 21
73.50544961582668
 31
0.0
 12
17.06500000000005
 22
74.05578294916
 32
0.0
 13
17.06500000000005
 23
74.05578294916
 33
0.0
  0
MTEXT
  5
388
330
380
100
AcDbEntity
  8
치수문자_일반주서
 62
     0
100
AcDbMText
 10
45.38283327782707
 20
78.43078294916
 30
0.0
 40
3.5
 41
0.0
 71
     2
 72
     1
  1
\A1;57.15 [2 1/4]
  7
SLDTEXTSTYLE0
 73
     1
 44
1.0
  0
POINT
  5
389
330
380
100
AcDbEntity
  8
Defpoints
 62
     0
100
AcDbPoint
 10
74.21500000000006
 20
51.55930738881175
 30
0.0
  0
POINT
  5
38A
330
380
100
AcDbEntity
  8
Defpoints
 62
     0
100
AcDbPoint
 10
17.06500000000005
 20
52.33680738881174
 30
0.0
  0
POINT
  5
38B
330
380
100
AcDbEntity
  8
Defpoints
 62
     0
100
AcDbPoint
 10
17.06500000000005
 20
74.05578294916
 30
0.0
  0
ENDBLK
  5
382
330
380
100
AcDbEntity
  8
0
100
AcDbBlockEnd
  0
BLOCK
  5
3E0
330
3DF
100
AcDbEntity
  8
0
100
AcDbBlockBegin
  2
*D19
 70
     1
 10
0.0
 20
0.0
 30
0.0
  3
*D19
  1
*D19
  0
LINE
  5
3E2
330
3DF
100
AcDbEntity
  8
치수문자_일반주서
 62
     0
370
    -2
100
AcDbLine
 10
-34.77786934298445
 20
3.174999999999983
 30
0.0
 11
-48.21536934298445
 21
3.174999999999932
 31
0.0
  0
LINE
  5
3E3
330
3DF
100
AcDbEntity
  8
치수문자_일반주서
 62
     0
370
    -2
100
AcDbLine
 10
-34.77786934298445
 20
-3.175000000000012
 30
0.0
 11
-48.21536934298443
 21
-3.175000000000062
 31
0.0
  0
LINE
  5
3E4
330
3DF
100
AcDbEntity
  8
치수문자_일반주서
 62
     0
370
    -2
100
AcDbLine
 10
-48.21536934298444
 20
-0.1270000000000673
 30
0.0
 11
-48.21536934298445
 21
0.1269999999999376
 31
0.0
  0
SOLID
  5
3E5
330
3DF
100
AcDbEntity
  8
치수문자_일반주서
 62
     0
100
AcDbTrace
 10
-47.6650360096511
 20
-0.1270000000000654
 30
0.0
 11
-48.76570267631777
 21
-0.1270000000000691
 31
0.0
 12
-48.21536934298445
 22
3.174999999999932
 32
0.0
 13
-48.21536934298445
 23
3.174999999999932
 33
0.0
  0
SOLID
  5
3E6
330
3DF
100
AcDbEntity
  8
치수문자_일반주서
 62
     0
100
AcDbTrace
 10
-48.76570267631778
 20
0.1269999999999357
 30
0.0
 11
-47.66503600965111
 21
0.1269999999999395
 31
0.0
 12
-48.21536934298443
 22
-3.175000000000062
 32
0.0
 13
-48.21536934298443
 23
-3.175000000000062
 33
0.0
  0
MTEXT
  5
3E7
330
3DF
100
AcDbEntity
  8
치수문자_일반주서
 62
     0
100
AcDbMText
 10
-52.59036934298445
 20
-0.0000000000000287
 30
0.0
 40
3.5
 41
0.0
 71
     2
 72
     1
  1
\A1;%%c6.35 [1/4]
  7
SLDTEXTSTYLE0
 11
-3.356894814614650E-15
 21
1.0
 31
0.0
 73
     1
 44
1.0
  0
POINT
  5
3E8
330
3DF
100
AcDbEntity
  8
Defpoints
 62
     0
100
AcDbPoint
 10
-34.71536934298445
 20
3.174999999999983
 30
0.0
  0
POINT
  5
3E9
330
3DF
100
AcDbEntity
  8
Defpoints
 62
     0
100
AcDbPoint
 10
-34.71536934298445
 20
-3.175000000000011
 30
0.0
  0
POINT
  5
3EA
330
3DF
100
AcDbEntity
  8
Defpoints
 62
     0
100
AcDbPoint
 10
-48.21536934298443
 20
-3.175000000000062
 30
0.0
  0
ENDBLK
  5
3E1
330
3DF
100
AcDbEntity
  8
0
100
AcDbBlockEnd
  0
BLOCK
  5
3EC
330
3EB
100
AcDbEntity
  8
0
100
AcDbBlockBegin
  2
*D20
 70
     1
 10
0.0
 20
0.0
 30
0.0
  3
*D20
  1
*D20
  0
LINE
  5
3EE
330
3EB
100
AcDbEntity
  8
치수문자_일반주서
 62
     0
370
    -2
100
AcDbLine
 10
21.68713065701556
 20
1.587500000000006
 30
0.0
 11
35.9764971791263
 21
1.587500000000059
 31
0.0
  0
LINE
  5
3EF
330
3EB
100
AcDbEntity
  8
치수문자_일반주서
 62
     0
370
    -2
100
AcDbLine
 10
21.68713065701556
 20
-1.587499999999998
 30
0.0
 11
35.97649717912631
 21
-1.587499999999945
 31
0.0
  0
LINE
  5
3F0
330
3EB
100
AcDbEntity
  8
치수문자_일반주서
 62
     0
370
    -2
100
AcDbLine
 10
35.9764971791263
 20
1.587500000000059
 30
0.0
 11
35.97649717912614
 21
36.03474104093321
 31
0.0
  0
LINE
  5
3F1
330
3EB
100
AcDbEntity
  8
치수문자_일반주서
 62
     0
370
    -2
100
AcDbLine
 10
35.9764971791263
 20
1.587500000000059
 30
0.0
 11
35.97649717912631
 21
-1.587499999999945
 31
0.0
  0
LINE
  5
3F2
330
3EB
100
AcDbEntity
  8
치수문자_일반주서
 62
     0
370
    -2
100
AcDbLine
 10
35.97649717912628
 20
4.889500000000059
 30
0.0
 11
35.97649717912627
 21
8.191500000000058
 31
0.0
  0
LINE
  5
3F3
330
3EB
100
AcDbEntity
  8
치수문자_일반주서
 62
     0
370
    -2
100
AcDbLine
 10
35.97649717912633
 20
-4.889499999999945
 30
0.0
 11
35.97649717912634
 21
-8.191499999999944
 31
0.0
  0
SOLID
  5
3F4
330
3EB
100
AcDbEntity
  8
치수문자_일반주서
 62
     0
100
AcDbTrace
 10
35.42616384579295
 20
4.889500000000056
 30
0.0
 11
36.52683051245962
 21
4.889500000000061
 31
0.0
 12
35.9764971791263
 22
1.587500000000059
 32
0.0
 13
35.9764971791263
 23
1.587500000000059
 33
0.0
  0
SOLID
  5
3F5
330
3EB
100
AcDbEntity
  8
치수문자_일반주서
 62
     0
100
AcDbTrace
 10
36.52683051245966
 20
-4.889499999999942
 30
0.0
 11
35.42616384579299
 21
-4.889499999999948
 31
0.0
 12
35.97649717912631
 22
-1.587499999999945
 32
0.0
 13
35.97649717912631
 23
-1.587499999999945
 33
0.0
  0
MTEXT
  5
3F6
330
3EB
100
AcDbEntity
  8
치수문자_일반주서
 62
     0
100
AcDbMText
 10
31.6014971791262
 20
23.78474104093319
 30
0.0
 40
3.5
 41
0.0
 71
     2
 72
     1
  1
\A1;%%c3.18 [1/8]
  7
SLDTEXTSTYLE0
 11
-4.475859752819522E-15
 21
1.0
 31
0.0
 73
     1
 44
1.0
  0
POINT
  5
3F7
330
3EB
100
AcDbEntity
  8
Defpoints
 62
     0
100
AcDbPoint
 10
21.62463065701556
 20
1.587500000000006
 30
0.0
  0
POINT
  5
3F8
330
3EB
100
AcDbEntity
  8
Defpoints
 62
     0
100
AcDbPoint
 10
21.62463065701556
 20
-1.587499999999999
 30
0.0
  0
POINT
  5
3F9
330
3EB
100
AcDbEntity
  8
Defpoints
 62
     0
100
AcDbPoint
 10
35.9764971791262
 20
-1.587499999999945
 30
0.0
  0
ENDBLK
  5
3ED
330
3EB
100
AcDbEntity
  8
0
100
AcDbBlockEnd
  0
BLOCK
  5
3FB
330
3FA
100
AcDbEntity
  8
0
100
AcDbBlockBegin
  2
*D21
 70
     1
 10
0.0
 20
0.0
 30
0.0
  3
*D21
  1
*D21
  0
LINE
  5
3FD
330
3FA
100
AcDbEntity
  8
치수문자_일반주서
 62
     0
370
    -2
100
AcDbLine
 10
21.62463065701556
 20
1.650000000000006
 30
0.0
 11
21.62463065701556
 21
10.72162689894495
 31
0.0
  0
LINE
  5
3FE
330
3FA
100
AcDbEntity
  8
치수문자_일반주서
 62
     0
370
    -2
100
AcDbLine
 10
8.92463065701557
 20
1.326916443934117
 30
0.0
 11
8.92463065701557
 21
10.72162689894495
 31
0.0
  0
LINE
  5
3FF
330
3FA
100
AcDbEntity
  8
치수문자_일반주서
 62
     0
370
    -2
100
AcDbLine
 10
8.92463065701557
 20
10.72162689894495
 30
0.0
 11
-19.87749024115477
 21
10.72162689894495
 31
0.0
  0
LINE
  5
400
330
3FA
100
AcDbEntity
  8
치수문자_일반주서
 62
     0
370
    -2
100
AcDbLine
 10
21.62463065701556
 20
10.72162689894495
 30
0.0
 11
8.92463065701557
 21
10.72162689894495
 31
0.0
  0
LINE
  5
401
330
3FA
100
AcDbEntity
  8
치수문자_일반주서
 62
     0
370
    -2
100
AcDbLine
 10
24.92663065701556
 20
10.72162689894495
 30
0.0
 11
28.22863065701556
 21
10.72162689894495
 31
0.0
  0
LINE
  5
402
330
3FA
100
AcDbEntity
  8
치수문자_일반주서
 62
     0
370
    -2
100
AcDbLine
 10
5.62263065701557
 20
10.72162689894495
 30
0.0
 11
2.32063065701557
 21
10.72162689894495
 31
0.0
  0
SOLID
  5
403
330
3FA
100
AcDbEntity
  8
치수문자_일반주서
 62
     0
100
AcDbTrace
 10
24.92663065701556
 20
11.27196023227828
 30
0.0
 11
24.92663065701556
 21
10.17129356561161
 31
0.0
 12
21.62463065701556
 22
10.72162689894495
 32
0.0
 13
21.62463065701556
 23
10.72162689894495
 33
0.0
  0
SOLID
  5
404
330
3FA
100
AcDbEntity
  8
치수문자_일반주서
 62
     0
100
AcDbTrace
 10
5.62263065701557
 20
10.17129356561161
 30
0.0
 11
5.62263065701557
 21
11.27196023227828
 31
0.0
 12
8.92463065701557
 22
10.72162689894495
 32
0.0
 13
8.92463065701557
 23
10.72162689894495
 33
0.0
  0
MTEXT
  5
405
330
3FA
100
AcDbEntity
  8
치수문자_일반주서
 62
     0
100
AcDbMText
 10
-8.939990241154774
 20
15.09662689894495
 30
0.0
 40
3.5
 41
0.0
 71
     2
 72
     1
  1
\A1;12.7 [1/2]
  7
SLDTEXTSTYLE0
 73
     1
 44
1.0
  0
POINT
  5
406
330
3FA
100
AcDbEntity
  8
Defpoints
 62
     0
100
AcDbPoint
 10
21.62463065701556
 20
1.587500000000006
 30
0.0
  0
POINT
  5
407
330
3FA
100
AcDbEntity
  8
Defpoints
 62
     0
100
AcDbPoint
 10
8.92463065701557
 20
1.264416443934117
 30
0.0
  0
POINT
  5
408
330
3FA
100
AcDbEntity
  8
Defpoints
 62
     0
100
AcDbPoint
 10
8.92463065701557
 20
10.72162689894495
 30
0.0
  0
ENDBLK
  5
3FC
330
3FA
100
AcDbEntity
  8
0
100
AcDbBlockEnd
  0
BLOCK
  5
40A
330
409
100
AcDbEntity
  8
0
100
AcDbBlockBegin
  2
*D22
 70
     1
 10
0.0
 20
0.0
 30
0.0
  3
*D22
  1
*D22
  0
LINE
  5
40C
330
409
100
AcDbEntity
  8
치수문자_일반주서
 62
     0
370
    -2
100
AcDbLine
 10
21.62463065701556
 20
1.650000000000006
 30
0.0
 11
21.62463065701556
 21
24.08397556034826
 31
0.0
  0
LINE
  5
40D
330
409
100
AcDbEntity
  8
치수문자_일반주서
 62
     0
370
    -2
100
AcDbLine
 10
-35.52536934298445
 20
2.427499999999995
 30
0.0
 11
-35.52536934298445
 21
24.08397556034826
 31
0.0
  0
LINE
  5
40E
330
409
100
AcDbEntity
  8
치수문자_일반주서
 62
     0
370
    -2
100
AcDbLine
 10
18.32263065701556
 20
24.08397556034826
 30
0.0
 11
-32.22336934298445
 21
24.08397556034826
 31
0.0
  0
SOLID
  5
40F
330
409
100
AcDbEntity
  8
치수문자_일반주서
 62
     0
100
AcDbTrace
 10
18.32263065701556
 20
23.53364222701492
 30
0.0
 11
18.32263065701556
 21
24.63430889368159
 31
0.0
 12
21.62463065701556
 22
24.08397556034826
 32
0.0
 13
21.62463065701556
 23
24.08397556034826
 33
0.0
  0
SOLID
  5
410
330
409
100
AcDbEntity
  8
치수문자_일반주서
 62
     0
100
AcDbTrace
 10
-32.22336934298445
 20
24.63430889368159
 30
0.0
 11
-32.22336934298445
 21
23.53364222701492
 31
0.0
 12
-35.52536934298445
 22
24.08397556034826
 32
0.0
 13
-35.52536934298445
 23
24.08397556034826
 33
0.0
  0
MTEXT
  5
411
330
409
100
AcDbEntity
  8
치수문자_일반주서
 62
     0
100
AcDbMText
 10
-7.207536065157427
 20
28.45897556034826
 30
0.0
 40
3.5
 41
0.0
 71
     2
 72
     1
  1
\A1;57.15 [2 1/4]
  7
SLDTEXTSTYLE0
 73
     1
 44
1.0
  0
POINT
  5
412
330
409
100
AcDbEntity
  8
Defpoints
 62
     0
100
AcDbPoint
 10
21.62463065701556
 20
1.587500000000006
 30
0.0
  0
POINT
  5
413
330
409
100
AcDbEntity
  8
Defpoints
 62
     0
100
AcDbPoint
 10
-35.52536934298445
 20
2.364999999999995
 30
0.0
  0
POINT
  5
414
330
409
100
AcDbEntity
  8
Defpoints
 62
     0
100
AcDbPoint
 10
-35.52536934298445
 20
24.08397556034826
 30
0.0
  0
ENDBLK
  5
40B
330
409
100
AcDbEntity
  8
0
100
AcDbBlockEnd
  0
BLOCK
  5
416
330
415
100
AcDbEntity
  8
0
100
AcDbBlockBegin
  2
*D23
 70
     1
 10
0.0
 20
0.0
 30
0.0
  3
*D23
  1
*D23
  0
LINE
  5
418
330
415
100
AcDbEntity
  8
치수문자_일반주서
 62
     0
370
    -2
100
AcDbLine
 10
157.9471488080963
 20
-9.563426492286371
 30
0.0
 11
177.6376612121494
 21
-33.33107428326122
 31
0.0
  0
MTEXT
  5
419
330
415
100
AcDbEntity
  8
치수문자_일반주서
 62
     0
100
AcDbMText
 10
170.8671060883973
 20
-21.04396478270195
 30
0.0
 40
3.5
 41
0.0
 71
     5
 72
     1
  1
\A1;R.25 [R0.010]
  7
SLDTEXTSTYLE0
 11
0.6379663498210919
 21
-0.7700642417980155
 31
0.0
 73
     1
 44
1.0
  0
LINE
  5
41A
330
415
100
AcDbEntity
  8
치수문자_일반주서
 62
     0
370
    -2
100
AcDbLine
 10
155.6785404681325
 20
-6.825078048452625
 30
0.0
 11
155.8405839209871
 21
-7.020674365869326
 31
0.0
  0
SOLID
  5
41B
330
415
100
AcDbEntity
  8
치수문자_일반주서
 62
     0
100
AcDbTrace
 10
158.3709408291658
 20
-9.21233234443483
 30
0.0
 11
157.5233567870268
 21
-9.914520640137912
 31
0.0
 12
155.8405839209871
 22
-7.020674365869326
 32
0.0
 13
155.8405839209871
 23
-7.020674365869326
 33
0.0
  0
POINT
  5
41C
330
415
100
AcDbEntity
  8
Defpoints
 62
     0
100
AcDbPoint
 10
155.8405839209871
 20
-7.020674365869326
 30
0.0
  0
POINT
  5
41D
330
415
100
AcDbEntity
  8
Defpoints
 62
     0
100
AcDbPoint
 10
155.6785404681325
 20
-6.825078048452625
 30
0.0
  0
ENDBLK
  5
417
330
415
100
AcDbEntity
  8
0
100
AcDbBlockEnd
  0
BLOCK
  5
429
330
428
100
AcDbEntity
  8
0
100
AcDbBlockBegin
  2
*D24
 70
     1
 10
0.0
 20
0.0
 30
0.0
  3
*D24
  1
*D24
  0
LINE
  5
42B
330
428
100
AcDbEntity
  8
치수문자_일반주서
 62
     0
370
    -2
100
AcDbLine
 10
23.2220143519017
 20
-4.254946346154755
 30
0.0
 11
40.27755635998923
 21
-29.97897882670418
 31
0.0
  0
MTEXT
  5
42C
330
428
100
AcDbEntity
  8
치수문자_일반주서
 62
     0
100
AcDbMText
 10
34.84992581235314
 20
-17.04242970412641
 30
0.0
 40
3.5
 41
0.0
 71
     5
 72
     1
  1
\A1;R.51 [R0.020]
  7
SLDTEXTSTYLE0
 11
0.5525941456394088
 21
-0.8334504845550527
 31
0.0
 73
     1
 44
1.0
  0
LINE
  5
42D
330
428
100
AcDbEntity
  8
치수문자_일반주서
 62
     0
370
    -2
100
AcDbLine
 10
21.11663065701555
 20
-1.079499999999999
 30
0.0
 11
21.39734848300037
 21
-1.502892846153971
 31
0.0
  0
SOLID
  5
42E
330
428
100
AcDbEntity
  8
치수문자_일반주서
 62
     0
100
AcDbTrace
 10
23.68068993523516
 20
-3.950835368004534
 30
0.0
 11
22.76333876856824
 21
-4.559057324304976
 31
0.0
 12
21.39734848300037
 22
-1.502892846153971
 32
0.0
 13
21.39734848300037
 23
-1.502892846153971
 33
0.0
  0
POINT
  5
42F
330
428
100
AcDbEntity
  8
Defpoints
 62
     0
100
AcDbPoint
 10
21.39734848300037
 20
-1.502892846153971
 30
0.0
  0
POINT
  5
430
330
428
100
AcDbEntity
  8
Defpoints
 62
     0
100
AcDbPoint
 10
21.11663065701555
 20
-1.079499999999999
 30
0.0
  0
ENDBLK
  5
42A
330
428
100
AcDbEntity
  8
0
100
AcDbBlockEnd
  0
ENDSEC
  0
SECTION
  2
ENTITIES
  0
LINE
  5
DA
330
1F
100
AcDbEntity
  8
참조1
100
AcDbLine
 10
-5.875000000000005
 20
0.0010749287238892
 30
0.0
 11
-5.874999999999993
 21
-39.99892507127611
 31
0.0
  0
LINE
  5
DB
330
1F
100
AcDbEntity
  8
참조1
100
AcDbLine
 10
-5.874999999999993
 20
-39.99892507127611
 30
0.0
 11
-14.66672777521594
 21
-39.9989250712761
 31
0.0
  0
INSERT
  5
DD
330
1F
100
AcDbEntity
  8
0
  6
Continuous
 62
     7
100
AcDbBlockReference
 66
     1
  2
블럭10
 10
-19.8152729321252
 20
-52.04609937292004
 30
0.0
  0
ATTRIB
  5
DE
330
DD
100
AcDbEntity
  8
FORMAT
 62
     2
100
AcDbText
 10
-29.95690894426183
 20
-49.97073246008785
 30
0.0
 40
4.233333333333333
  1
EM637901 [ 2 FLUTE ]
 41
0.75
  7
SLDTEXTSTYLE0
 11
-29.95690894426183
 21
-52.08739912675452
 31
0.0
100
AcDbAttribute
  2
AUTOATTR0
 70
     0
 74
     1
  0
SEQEND
  5
DF
330
DD
100
AcDbEntity
  8
0
  6
Continuous
 62
     7
  0
HATCH
  5
E0
330
1F
100
AcDbEntity
  8
중심선
100
AcDbHatch
 10
0.0
 20
0.0
 30
0.0
210
0.0
220
0.0
230
1.0
  2
SOLID
 70
     1
 71
     0
 91
        1
 92
        0
 93
        4
 72
     1
 10
-14.10036362774436
 20
-35.7989250712761
 11
-17.54663887158164
 21
-35.7989250712761
 72
     1
 10
-17.54663887158164
 20
-35.7989250712761
 11
-19.67486873078566
 21
-38.3352506518487
 72
     1
 10
-19.67486873078566
 20
-38.3352506518487
 11
-16.22856040183524
 21
-38.33521122254621
 72
     1
 10
-16.22856040183524
 20
-38.33521122254621
 11
-14.10036362774436
 21
-35.7989250712761
 97
        0
 75
     0
 76
     1
 98
        1
 10
0.0
 20
0.0
  0
HATCH
  5
E1
330
1F
100
AcDbEntity
  8
중심선
100
AcDbHatch
 10
0.0
 20
0.0
 30
0.0
210
0.0
220
0.0
230
1.0
  2
SOLID
 70
     1
 71
     0
 91
        1
 92
        0
 93
        4
 72
     1
 10
-9.087599636708383
 20
-35.7989250712761
 11
-12.53387488054564
 21
-35.7989250712761
 72
     1
 10
-12.53387488054564
 20
-35.7989250712761
 11
-17.06501288890308
 21
-41.19892507127612
 72
     1
 10
-17.06501288890308
 20
-41.19892507127612
 11
-13.6187376450658
 21
-41.19892507127612
 72
     1
 10
-13.6187376450658
 20
-41.19892507127612
 11
-9.087599636708383
 21
-35.7989250712761
 97
        0
 75
     0
 76
     1
 98
        1
 10
0.0
 20
0.0
  0
HATCH
  5
E2
330
1F
100
AcDbEntity
  8
중심선
100
AcDbHatch
 10
0.0
 20
0.0
 30
0.0
210
0.0
220
0.0
230
1.0
  2
SOLID
 70
     1
 71
     0
 91
        1
 92
        0
 93
        4
 72
     1
 10
-4.074835645672515
 20
-35.79892507127613
 11
-7.521110889509602
 21
-35.7989250712761
 72
     1
 10
-7.521110889509602
 20
-35.7989250712761
 11
-14.56954779139888
 21
-44.19892507127612
 72
     1
 10
-14.56954779139888
 20
-44.19892507127612
 11
-11.1232725475616
 21
-44.19892507127612
 72
     1
 10
-11.1232725475616
 20
-44.19892507127612
 11
-4.074835645672515
 21
-35.79892507127613
 97
        0
 75
     0
 76
     1
 98
        1
 10
0.0
 20
0.0
  0
HATCH
  5
E3
330
1F
100
AcDbEntity
  8
중심선
100
AcDbHatch
 10
0.0
 20
0.0
 30
0.0
210
0.0
220
0.0
230
1.0
  2
SOLID
 70
     1
 71
     0
 91
        1
 92
        0
 93
        6
 72
     3
 10
0.7250547853396849
 20
-39.99892507132738
 11
3.960054785062284
 21
1.540850780301639E-10
 40
0.3939339440162633
 50
17.09539180608433
 51
320.0019657685086
 73
     0
 72
     1
 10
2.408054441040281
 20
-38.58681907591443
 11
4.713356314741318
 21
-36.65249236586649
 72
     3
 10
0.7250547852868383
 20
-39.99892507127625
 11
6.600054785286829
 21
-1.249000902703301E-13
 40
0.6363583540795982
 50
39.99873849337408
 51
368.4976242363725
 73
     1
 72
     1
 10
7.150387277187447
 20
-39.03892507120613
 11
-0.5948779078772395
 21
-39.03892507120613
 72
     1
 10
-0.5948779078772393
 20
-39.03892507120613
 11
-0.594902952323173
 21
-40.95892507120602
 72
     1
 10
-0.594902952323173
 20
-40.95892507120602
 11
3.846476817148865
 21
-40.95892507120599
 97
        0
 75
     0
 76
     1
 98
        1
 10
0.0
 20
0.0
  0
LINE
  5
137
330
1F
100
AcDbEntity
  8
참조1
100
AcDbLine
 10
83.30561285443832
 20
7.441074928723896
 30
0.0
 11
83.30561285443832
 21
-7.438925071276109
 31
0.0
  0
LINE
  5
138
330
1F
100
AcDbEntity
  8
참조1
100
AcDbLine
 10
96.00561285443833
 20
5.441074928723896
 30
0.0
 11
83.30561285443832
 21
5.441074928723896
 31
0.0
  0
SOLID
  5
139
330
1F
100
AcDbEntity
  8
참조1
100
AcDbTrace
 10
83.30561285443832
 20
5.441074928723896
 30
0.0
 11
89.65561285443832
 21
4.425074928723896
 31
0.0
 12
89.65561285443832
 22
6.457074928723896
 32
0.0
 13
89.65561285443832
 23
6.457074928723896
 33
0.0
  0
LINE
  5
13A
330
1F
100
AcDbEntity
  8
참조1
100
AcDbLine
 10
96.00561285443833
 20
-5.438925071276109
 30
0.0
 11
83.30561285443832
 21
-5.438925071276109
 31
0.0
  0
SOLID
  5
13B
330
1F
100
AcDbEntity
  8
참조1
100
AcDbTrace
 10
83.30561285443832
 20
-5.438925071276109
 30
0.0
 11
89.65561285443832
 21
-6.454925071276109
 31
0.0
 12
89.65561285443832
 22
-4.422925071276109
 32
0.0
 13
89.65561285443832
 23
-4.422925071276109
 33
0.0
  0
MTEXT
  5
13C
330
1F
100
AcDbEntity
  8
참조1
100
AcDbMText
 10
92.7031029469086
 20
10.98929157337383
 30
0.0
 40
3.5
 41
0.0
 71
     1
 72
     1
  1
A
  7
SLDTEXTSTYLE0
 73
     1
 44
1.0
  0
MTEXT
  5
13D
330
1F
100
AcDbEntity
  8
참조1
100
AcDbMText
 10
92.7031029469086
 20
0.1092915733738251
 30
0.0
 40
3.5
 41
0.0
 71
     1
 72
     1
  1
A
  7
SLDTEXTSTYLE0
 73
     1
 44
1.0
  0
LINE
  5
38D
330
1F
100
AcDbEntity
  8
외형선
  6
Continuous
370
    15
100
AcDbLine
 10
2.0
 20
3.174999999999997
 30
0.0
 11
-34.71536934298445
 21
3.174999999999997
 31
0.0
  0
LINE
  5
38E
330
1F
100
AcDbEntity
  8
외형선
  6
Continuous
370
    15
100
AcDbLine
 10
-34.71536934298445
 20
-3.175000000000004
 30
0.0
 11
2.0
 21
-3.174999999999997
 31
0.0
  0
LINE
  5
38F
330
1F
100
AcDbEntity
  8
외형선
  6
Continuous
370
    15
100
AcDbLine
 10
2.0
 20
-3.175000000000004
 30
0.0
 11
7.92463065701557
 21
-1.587499999999999
 31
0.0
  0
LINE
  5
390
330
1F
100
AcDbEntity
  8
외형선
  6
Continuous
370
    15
100
AcDbLine
 10
7.92463065701557
 20
1.587499999999999
 30
0.0
 11
2.0
 21
3.174999999999997
 31
0.0
  0
LINE
  5
391
330
1F
100
AcDbEntity
  8
외형선
  6
Continuous
370
    15
100
AcDbLine
 10
-34.71536934298445
 20
3.17499999999999
 30
0.0
 11
-35.52536934298445
 21
2.364999999999995
 31
0.0
  0
LINE
  5
392
330
1F
100
AcDbEntity
  8
외형선
  6
Continuous
370
    15
100
AcDbLine
 10
-35.52536934298445
 20
-2.365000000000002
 30
0.0
 11
-34.71536934298445
 21
-3.174999999999997
 31
0.0
  0
LINE
  5
393
330
1F
100
AcDbEntity
  8
외형선
  6
Continuous
370
    15
100
AcDbLine
 10
8.034539777172853
 20
1.587499999999999
 30
0.0
 11
7.92463065701557
 21
1.587499999999999
 31
0.0
  0
LINE
  5
394
330
1F
100
AcDbEntity
  8
외형선
  6
Continuous
370
    15
100
AcDbLine
 10
7.92463065701557
 20
-1.587499999999999
 30
0.0
 11
8.034539777172853
 21
-1.587499999999999
 31
0.0
  0
SPLINE
  5
395
330
1F
100
AcDbEntity
  8
외형선
  6
Continuous
370
    15
100
AcDbSpline
210
0.0
220
0.0
230
1.0
 70
     8
 71
     3
 72
     9
 73
     5
 74
     0
 42
0.000000001
 43
0.00000001
 40
0.0
 40
0.0
 40
0.0
 40
0.0
 40
0.4980319532561457
 40
1.0
 40
1.0
 40
1.0
 40
1.0
 10
8.791780800326649
 20
0.4445814142969908
 30
0.0
 10
8.736231086708614
 20
0.4720491538572062
 30
0.0
 10
8.624692633694025
 20
0.5272017186286604
 30
0.0
 10
8.497624498476767
 20
0.5936960519243613
 30
0.0
 10
8.433840354838395
 20
0.6270740825283454
 30
0.0
  0
SPLINE
  5
396
330
1F
100
AcDbEntity
  8
외형선
  6
Continuous
370
    15
100
AcDbSpline
210
0.0
220
0.0
230
1.0
 70
     8
 71
     3
 72
     9
 73
     5
 74
     0
 42
0.000000001
 43
0.00000001
 40
0.0
 40
0.0
 40
0.0
 40
0.0
 40
0.5000610736432285
 40
1.0
 40
1.0
 40
1.0
 40
1.0
 10
8.338891843569115
 20
1.260930175161718
 30
0.0
 10
8.287201004755218
 20
1.258343167952418
 30
0.0
 10
8.18383195337654
 20
1.253169785448449
 30
0.0
 10
8.080667859715135
 20
1.249556770088326
 30
0.0
 10
8.029092113491458
 20
1.247750483068273
 30
0.0
  0
LINE
  5
397
330
1F
100
AcDbEntity
  8
외형선
  6
Continuous
370
    15
100
AcDbLine
 10
8.029092113491458
 20
-1.247448850268363
 30
0.0
 11
8.152094379966172
 21
-1.239969279448772
 31
0.0
  0
SPLINE
  5
398
330
1F
100
AcDbEntity
  8
0
  6
Continuous
 62
     1
370
    15
100
AcDbSpline
210
0.0
220
0.0
230
1.0
 70
     8
 71
     3
 72
     9
 73
     5
 74
     0
 42
0.000000001
 43
0.00000001
 40
0.0
 40
0.0
 40
0.0
 40
0.0
 40
0.4550382045017807
 40
1.0
 40
1.0
 40
1.0
 40
1.0
 10
17.51051828506129
 20
0.407064808493395
 30
0.0
 10
17.44335914707474
 20
0.4391540593216021
 30
0.0
 10
17.29576903854738
 20
0.5096739640477139
 30
0.0
 10
17.1512682350762
 20
0.5855049472742735
 30
0.0
 10
17.07252081776562
 20
0.6268299360478125
 30
0.0
  0
LINE
  5
399
330
1F
100
AcDbEntity
  8
0
  6
Continuous
 62
     1
370
    15
100
AcDbLine
 10
13.86880785089997
 20
1.587499999999999
 30
0.0
 11
13.09897069308983
 21
1.587499999999999
 31
0.0
  0
LINE
  5
39A
330
1F
100
AcDbEntity
  8
0
  6
Continuous
 62
     1
370
    15
100
AcDbLine
 10
13.0989706930898
 20
-1.587499999999999
 30
0.0
 11
13.86880785089997
 21
-1.587499999999999
 31
0.0
  0
SPLINE
  5
39B
330
1F
100
AcDbEntity
  8
0
  6
Continuous
 62
     1
370
    15
100
AcDbSpline
210
0.0
220
0.0
230
1.0
 70
     8
 71
     3
 72
    14
 73
    10
 74
     0
 42
0.000000001
 43
0.00000001
 40
0.0
 40
0.0
 40
0.0
 40
0.0
 40
0.2412791395815019
 40
0.4097570442161599
 40
0.5206300506240426
 40
0.6423103830568364
 40
0.780739513419935
 40
0.9194633442454405
 40
1.0
 40
1.0
 40
1.0
 40
1.0
 10
16.98771246764468
 20
1.261503059483616
 30
0.0
 10
16.88238386072524
 20
1.256499358377923
 30
0.0
 10
16.70350748244587
 20
1.248001724563551
 30
0.0
 10
16.47686326066739
 20
1.242382856846106
 30
0.0
 10
16.30224092082645
 20
1.239998553034454
 30
0.0
 10
16.1405209090988
 20
1.239460543158224
 30
0.0
 10
15.96662490793005
 20
1.241000045412605
 30
0.0
 10
15.81068275040693
 20
1.243700845217624
 30
0.0
 10
15.71517280584712
 20
1.247273091752774
 30
0.0
 10
15.68009101046246
 20
1.248585215035718
 30
0.0
  0
SPLINE
  5
39C
330
1F
100
AcDbEntity
  8
0
  6
Continuous
 62
     1
370
    15
100
AcDbSpline
210
0.0
220
0.0
230
1.0
 70
     8
 71
     3
 72
    11
 73
     7
 74
     0
 42
0.000000001
 43
0.00000001
 40
0.0
 40
0.0
 40
0.0
 40
0.0
 40
0.4340795689894085
 40
0.6036151591816225
 40
0.7332181986650106
 40
1.0
 40
1.0
 40
1.0
 40
1.0
 10
14.60022580215033
 20
-1.320994411084236
 30
0.0
 10
14.94569984802797
 20
-1.291886937392825
 30
0.0
 10
15.42610341016987
 20
-1.251411149954784
 30
0.0
 10
16.00964243994795
 20
-1.239530794792763
 30
0.0
 10
16.45946629132737
 20
-1.239211591752643
 30
0.0
 10
16.77520710698806
 20
-1.252535542817881
 30
0.0
 10
16.98771246764468
 20
-1.261503059483623
 30
0.0
  0
SPLINE
  5
39D
330
1F
100
AcDbEntity
  8
0
  6
Continuous
 62
     1
370
    15
100
AcDbSpline
210
0.0
220
0.0
230
1.0
 70
     8
 71
     3
 72
    13
 73
     9
 74
     0
 42
0.000000001
 43
0.00000001
 40
0.0
 40
0.0
 40
0.0
 40
0.0
 40
0.3129504852689672
 40
0.5271487599645799
 40
0.659767697343907
 40
0.7865643186287751
 40
0.9156902848925105
 40
1.0
 40
1.0
 40
1.0
 40
1.0
 10
9.622668185445576
 20
-1.194024826807066
 30
0.0
 10
9.7460768208704
 20
-1.175561260163484
 30
0.0
 10
9.953952226710356
 20
-1.144460345741443
 30
0.0
 10
10.21340636731892
 20
-1.114094670975007
 30
0.0
 10
10.39966213620647
 20
-1.094949456208667
 30
0.0
 10
10.55242860704661
 20
-1.081440164260094
 30
0.0
 10
10.68632775982726
 20
-1.071174889852493
 30
0.0
 10
10.77034378017521
 20
-1.066221102823789
 30
0.0
 10
10.80353113991984
 20
-1.064264296115503
 30
0.0
  0
SPLINE
  5
39E
330
1F
100
AcDbEntity
  8
0
  6
Continuous
 62
     1
370
    15
100
AcDbSpline
210
0.0
220
0.0
230
1.0
 70
     8
 71
     3
 72
    19
 73
    15
 74
     0
 42
0.000000001
 43
0.00000001
 40
0.0
 40
0.0
 40
0.0
 40
0.0
 40
0.1263183041086837
 40
0.2216122229784324
 40
0.3039881254069099
 40
0.3933308101507207
 40
0.4828043725531436
 40
0.545697848553367
 40
0.6060097825993329
 40
0.6636035606413091
 40
0.7189362338813889
 40
0.7755694354643219
 40
0.8666878154852173
 40
1.0
 40
1.0
 40
1.0
 40
1.0
 10
21.03867949771248
 20
1.086160342402984
 30
0.0
 10
20.92082637381907
 20
1.076975930398639
 30
0.0
 10
20.71406542214814
 20
1.060862842312197
 30
0.0
 10
20.43310208784905
 20
1.049292180188765
 30
0.0
 10
20.18733474035858
 20
1.044253262656888
 30
0.0
 10
19.94543930496147
 20
1.044668412252634
 30
0.0
 10
19.72199872193667
 20
1.050263259703478
 30
0.0
 10
19.52500918455553
 20
1.058961486376155
 30
0.0
 10
19.35760054893856
 20
1.068925761579877
 30
0.0
 10
19.19720808942529
 20
1.080826780298693
 30
0.0
 10
19.0403798317364
 20
1.094712905133512
 30
0.0
 10
18.85251915111135
 20
1.113987353772259
 30
0.0
 10
18.59252395332877
 20
1.14441228204241
 30
0.0
 10
18.38434120483768
 20
1.175557347259328
 30
0.0
 10
18.26068025412425
 20
1.194057575557167
 30
0.0
  0
SPLINE
  5
39F
330
1F
100
AcDbEntity
  8
0
  6
Continuous
 62
     1
370
    15
100
AcDbSpline
210
0.0
220
0.0
230
1.0
 70
     8
 71
     3
 72
    14
 73
    10
 74
     0
 42
0.000000001
 43
0.00000001
 40
0.0
 40
0.0
 40
0.0
 40
0.0
 40
0.2790779957624213
 40
0.4827851168239682
 40
0.6122598046418465
 40
0.7239339182336366
 40
0.8396146881189738
 40
0.959490590714515
 40
0.9999999999999999
 40
0.9999999999999999
 40
0.9999999999999999
 40
0.9999999999999999
 10
18.26068025412425
 20
-1.194057575557167
 30
0.0
 10
18.37098085066984
 20
-1.177463001145647
 30
0.0
 10
18.56179305083467
 20
-1.148755565706232
 30
0.0
 10
18.80317827504965
 20
-1.119589584111814
 30
0.0
 10
18.97852077133578
 20
-1.100879830787171
 30
0.0
 10
19.11910256299899
 20
-1.087529110631209
 30
0.0
 10
19.2560163946408
 20
-1.076365292992762
 30
0.0
 10
19.36491956409444
 20
-1.068473341509673
 30
0.0
 10
19.42819720700564
 20
-1.064976789100278
 30
0.0
 10
19.44417959283166
 20
-1.064093645432202
 30
0.0
  0
SPLINE
  5
3A0
330
1F
100
AcDbEntity
  8
0
  6
Continuous
 62
     1
370
    15
100
AcDbSpline
210
0.0
220
0.0
230
1.0
 70
     8
 71
     3
 72
    21
 73
    17
 74
     0
 42
0.000000001
 43
0.00000001
 40
0.0
 40
0.0
 40
0.0
 40
0.0
 40
0.1196969312929303
 40
0.2097434524690673
 40
0.2720286269933698
 40
0.3290734789607906
 40
0.3866692493490227
 40
0.4432851906648688
 40
0.4991690881024498
 40
0.5546842781791267
 40
0.6101077011098448
 40
0.6650883213737028
 40
0.7190771284844635
 40
0.7755450229508362
 40
0.8667486308925548
 40
1.0
 40
1.0
 40
1.0
 40
1.0
 10
12.39569552774046
 20
1.085752878658305
 30
0.0
 10
12.28458737503519
 20
1.07708355575064
 30
0.0
 10
12.08989393307192
 20
1.061892408428967
 30
0.0
 10
11.83844555017649
 20
1.050974522064919
 30
0.0
 10
11.64562708784425
 20
1.046020198464134
 30
0.0
 10
11.48251225084439
 20
1.044345310986074
 30
0.0
 10
11.32426801808052
 20
1.045023883422004
 30
0.0
 10
11.16729202950344
 20
1.048049810940483
 30
0.0
 10
11.0120072958988
 20
1.053260844584337
 30
0.0
 10
10.85776240671495
 20
1.060587147006068
 30
0.0
 10
10.70437689039488
 20
1.069988555419464
 30
0.0
 10
10.55242800093288
 20
1.081388699312043
 30
0.0
 10
10.39966230286828
 20
1.094963607414016
 30
0.0
 10
10.21340629082883
 20
1.114088176220399
 30
0.0
 10
9.953952261745002
 20
1.1444633205207
 30
0.0
 10
9.746076833921364
 20
1.175562368316612
 30
0.0
 10
9.622668185445576
 20
1.194024826807059
 30
0.0
  0
LINE
  5
3A1
330
1F
100
AcDbEntity
  8
외형선
  6
Continuous
370
    15
100
AcDbLine
 10
2.0
 20
3.174999999999997
 30
0.0
 11
2.0
 21
-3.175000000000004
 31
0.0
  0
LINE
  5
3A2
330
1F
100
AcDbEntity
  8
외형선
  6
Continuous
370
    15
100
AcDbLine
 10
-34.71536934298445
 20
3.17499999999999
 30
0.0
 11
-34.71536934298445
 21
-3.175000000000004
 31
0.0
  0
LINE
  5
3A3
330
1F
100
AcDbEntity
  8
외형선
  6
Continuous
370
    15
100
AcDbLine
 10
7.92463065701557
 20
1.587499999999999
 30
0.0
 11
7.92463065701557
 21
-1.587499999999999
 31
0.0
  0
LINE
  5
3A4
330
1F
100
AcDbEntity
  8
외형선
  6
Continuous
370
    15
100
AcDbLine
 10
-35.52536934298445
 20
2.364999999999995
 30
0.0
 11
-35.52536934298445
 21
-2.365000000000002
 31
0.0
  0
SPLINE
  5
3A5
330
1F
100
AcDbEntity
  8
외형선
  6
Continuous
370
    15
100
AcDbSpline
210
0.0
220
0.0
230
1.0
 70
     8
 71
     3
 72
    12
 73
     8
 74
     0
 42
0.000000001
 43
0.00000001
 40
0.0
 40
0.0
 40
0.0
 40
0.0
 40
0.2500000000000001
 40
0.2500000000000001
 40
0.5000000000000002
 40
0.5000000000000002
 40
1.0
 40
1.0
 40
1.0
 40
1.0
 10
8.330317434839543
 20
-1.260453259042393
 30
0.0
 10
8.268973803743592
 20
-1.256997915332668
 30
0.0
 10
8.225587485791237
 20
-1.252739237651809
 30
0.0
 10
8.154955088471155
 20
-1.240650817712599
 30
0.0
 10
8.127657050985903
 20
-1.233090641430373
 30
0.0
 10
8.06111032822784
 20
-1.208035421913387
 30
0.0
 10
8.034539777172824
 20
-1.186844352158758
 30
0.0
 10
8.034539777172824
 20
-1.171695051288559
 30
0.0
  0
SPLINE
  5
3A6
330
1F
100
AcDbEntity
  8
외형선
  6
Continuous
370
    15
100
AcDbSpline
210
0.0
220
0.0
230
1.0
 70
     8
 71
     3
 72
    14
 73
    10
 74
     0
 42
0.000000001
 43
0.00000001
 40
0.0
 40
0.0
 40
0.0
 40
0.0
 40
0.25
 40
0.25
 40
0.5
 40
0.5
 40
0.75
 40
0.75
 40
1.0
 40
1.0
 40
1.0
 40
1.0
 10
8.03453977717561
 20
0.4249195227667499
 30
0.0
 10
8.034539777175496
 20
0.4234689345631395
 30
0.0
 10
8.048950369374893
 20
0.4057404164804268
 30
0.0
 10
8.091974955888219
 20
0.3558752887080345
 30
0.0
 10
8.120632572869596
 20
0.3237697858547435
 30
0.0
 10
8.1865128677739
 20
0.256802377358909
 30
0.0
 10
8.224469789009305
 20
0.2210833116430138
 30
0.0
 10
8.310330589818363
 20
0.1551556394416096
 30
0.0
 10
8.359948109433162
 20
0.1241794979863826
 30
0.0
 10
8.414483395102593
 20
0.1022768871165169
 30
0.0
  0
SPLINE
  5
3A7
330
1F
100
AcDbEntity
  8
외형선
  6
Continuous
370
    15
100
AcDbSpline
210
0.0
220
0.0
230
1.0
 70
     8
 71
     3
 72
    10
 73
     6
 74
     0
 42
0.000000001
 43
0.00000001
 40
0.0
 40
0.0
 40
0.0
 40
0.0
 40
0.5
 40
0.5
 40
1.0
 40
1.0
 40
1.0
 40
1.0
 10
8.034539777172853
 20
0.4249771815671082
 30
0.0
 10
8.183202604642531
 20
0.3424001969148733
 30
0.0
 10
8.333183599075397
 20
0.2577118062117876
 30
0.0
 10
8.62991377596694
 20
0.087431159018422
 30
0.0
 10
8.775822892474508
 20
0.0020097880603274
 30
0.0
 10
8.92463065702546
 20
-0.0836041339793141
 30
0.0
  0
SPLINE
  5
3A8
330
1F
100
AcDbEntity
  8
외형선
  6
Continuous
370
    15
100
AcDbSpline
210
0.0
220
0.0
230
1.0
 70
     8
 71
     3
 72
     8
 73
     4
 74
     0
 42
0.000000001
 43
0.00000001
 40
0.0
 40
0.0
 40
0.0
 40
0.0
 40
1.0
 40
1.0
 40
1.0
 40
1.0
 10
8.924630657015598
 20
-0.1040884358926775
 30
0.0
 10
8.75343437671296
 20
-0.0353498373726424
 30
0.0
 10
8.58565270259382
 20
0.0335314007983811
 30
0.0
 10
8.4144833951012
 20
0.1022768871170854
 30
0.0
  0
LINE
  5
3A9
330
1F
100
AcDbEntity
  8
외형선
  6
Continuous
370
    15
100
AcDbLine
 10
8.034539777172853
 20
0.8309875311806536
 30
0.0
 11
8.034539777172853
 21
1.587499999999999
 31
0.0
  0
SPLINE
  5
3AA
330
1F
100
AcDbEntity
  8
외형선
  6
Continuous
370
    15
100
AcDbSpline
210
0.0
220
0.0
230
1.0
 70
     8
 71
     3
 72
    10
 73
     6
 74
     0
 42
0.000000001
 43
0.00000001
 40
0.0
 40
0.0
 40
0.0
 40
0.0
 40
0.5
 40
0.5
 40
1.0
 40
1.0
 40
1.0
 40
1.0
 10
8.924630657024721
 20
0.357476145688139
 30
0.0
 10
8.775807004004605
 20
0.4410160604576632
 30
0.0
 10
8.629882437540346
 20
0.5224581421384684
 30
0.0
 10
8.33311989016741
 20
0.6809890196254926
 30
0.0
 10
8.183122677362576
 20
0.7578947306296016
 30
0.0
 10
8.034444539388574
 20
0.8309295603734483
 30
0.0
  0
LINE
  5
3AB
330
1F
100
AcDbEntity
  8
외형선
  6
Continuous
370
    15
100
AcDbLine
 10
8.92463065701557
 20
0.3574761456932762
 30
0.0
 11
8.92463065701557
 21
-0.0836041339736724
 31
0.0
  0
LINE
  5
3AC
330
1F
100
AcDbEntity
  8
외형선
  6
Continuous
370
    15
100
AcDbLine
 10
8.034539777172853
 20
-1.587499999999999
 30
0.0
 11
8.034539777172853
 21
0.4254997147976525
 31
0.0
  0
LINE
  5
3AD
330
1F
100
AcDbEntity
  8
외형선
  6
Continuous
370
    15
100
AcDbLine
 10
8.924630657015598
 20
0.3825429610750817
 30
0.0
 11
8.776309225740562
 21
0.4478177205537008
 31
0.0
  0
LINE
  5
3AE
330
1F
100
AcDbEntity
  8
외형선
  6
Continuous
370
    15
100
AcDbLine
 10
8.92463065701557
 20
1.264416443934117
 30
0.0
 11
8.335740179791827
 21
1.2460032878395
 31
0.0
  0
SPLINE
  5
3AF
330
1F
100
AcDbEntity
  8
외형선
  6
Continuous
370
    15
100
AcDbSpline
210
0.0
220
0.0
230
1.0
 70
    24
 71
     3
 72
    13
 73
     9
 74
     0
 42
0.000000001
 43
0.00000001
 40
0.0
 40
0.0
 40
0.0
 40
0.0
 40
0.1345280325237934
 40
0.2708351083768174
 40
0.4673665584108469
 40
0.6695974338098493
 40
0.8460721455025979
 40
1.0
 40
1.0
 40
1.0
 40
1.0
 10
8.92463065701557
 20
1.264416443934117
 30
0.0
 10
8.92463065701557
 20
1.248503662805838
 30
0.0
 10
8.92463065701557
 20
1.216467664652868
 30
0.0
 10
8.92463065701557
 20
1.12940092955786
 30
0.0
 10
8.92463065701557
 20
0.9982639871255046
 30
0.0
 10
8.92463065701557
 20
0.8165006577600096
 30
0.0
 10
8.92463065701557
 20
0.6204406081486766
 30
0.0
 10
8.92463065701557
 20
0.4807337093253139
 30
0.0
 10
8.92463065701557
 20
0.4156470986420615
 30
0.0
  0
SPLINE
  5
3B0
330
1F
100
AcDbEntity
  8
외형선
  6
Continuous
370
    15
100
AcDbSpline
210
0.0
220
0.0
230
1.0
 70
     8
 71
     3
 72
     8
 73
     4
 74
     0
 42
0.000000001
 43
0.00000001
 40
0.0
 40
0.0
 40
0.0
 40
0.0
 40
1.0
 40
1.0
 40
1.0
 40
1.0
 10
8.924630657015626
 20
-1.264416443934117
 30
0.0
 10
8.725409803793696
 20
-1.273017214964433
 30
0.0
 10
8.529960518794354
 20
-1.27169868847016
 30
0.0
 10
8.330317434839543
 20
-1.260453259042393
 30
0.0
  0
SPLINE
  5
3B1
330
1F
100
AcDbEntity
  8
외형선
  6
Continuous
370
    15
100
AcDbSpline
210
0.0
220
0.0
230
1.0
 70
    24
 71
     3
 72
    10
 73
     6
 74
     0
 42
0.000000001
 43
0.00000001
 40
0.0
 40
0.0
 40
0.0
 40
0.0
 40
0.5
 40
0.5
 40
1.0
 40
1.0
 40
1.0
 40
1.0
 10
8.924630657015513
 20
-0.1040884358926419
 30
0.0
 10
8.924630657015513
 20
-0.3720797519980508
 30
0.0
 10
8.924630657015513
 20
-0.6358683564110024
 30
0.0
 10
8.924630657015513
 20
-1.048315837558022
 30
0.0
 10
8.924630657015513
 20
-1.193779035633426
 30
0.0
 10
8.924630657015513
 20
-1.264416443934117
 30
0.0
  0
SPLINE
  5
3B2
330
1F
100
AcDbEntity
  8
0
  6
Continuous
 62
     1
370
    15
100
AcDbSpline
210
0.0
220
0.0
230
1.0
 70
     8
 71
     3
 72
    14
 73
    10
 74
     0
 42
0.000000001
 43
0.00000001
 40
0.0
 40
0.0
 40
0.0
 40
0.0
 40
0.0556671564701356
 40
0.2166260047907895
 40
0.3775823879277994
 40
0.5385364070240203
 40
0.6994881635411332
 40
0.8604377592463075
 40
1.0
 40
1.0
 40
1.0
 40
1.0
 10
17.67110870055882
 20
-0.1455237682018407
 30
0.0
 10
17.57318644779227
 20
-0.1068770021529915
 30
0.0
 10
17.19212681151802
 20
0.0435149894289353
 30
0.0
 10
16.52793557002155
 20
0.3156019273390527
 30
0.0
 10
15.67853907368365
 20
0.6292625157426954
 30
0.0
 10
14.82915642509229
 20
0.8852096523676636
 30
0.0
 10
13.97978694703724
 20
1.054373620470884
 30
0.0
 10
13.16804782589085
 20
1.130318352525812
 30
0.0
 10
12.63943232282452
 20
1.095668221668937
 30
0.0
 10
12.39393529024696
 20
1.079576176970207
 30
0.0
  0
SPLINE
  5
3B3
330
1F
100
AcDbEntity
  8
0
  6
Continuous
 62
     1
370
    15
100
AcDbSpline
210
0.0
220
0.0
230
1.0
 70
     8
 71
     3
 72
    32
 73
    28
 74
     0
 42
0.000000001
 43
0.00000001
 40
0.0
 40
0.0
 40
0.0
 40
0.0
 40
0.0040587791201747
 40
0.0473609761343704
 40
0.0909635515080477
 40
0.134254724852904
 40
0.17784594702124
 40
0.221117604008186
 40
0.2646890087903566
 40
0.3079316631277311
 40
0.3514737658995637
 40
0.394676923093294
 40
0.4381791884021539
 40
0.4813312422484219
 40
0.5247819639439534
 40
0.5678702353137604
 40
0.6112565640988553
 40
0.6542802944119739
 40
0.6976014934598905
 40
0.7406253837430218
 40
0.7839472258611246
 40
0.8269708449739667
 40
0.8702918247955442
 40
0.908213844748182
 40
0.9463385918600612
 40
0.9731336354091864
 40
0.9999999999999999
 40
0.9999999999999999
 40
0.9999999999999999
 40
0.9999999999999999
 10
10.80353113991984
 20
1.064264296115503
 30
0.0
 10
10.81782808526313
 20
1.070773715079802
 30
0.0
 10
10.98465590888918
 20
1.146730653629177
 30
0.0
 10
11.30482292694856
 20
1.265489325509279
 30
0.0
 10
11.76389745214794
 20
1.410663097317702
 30
0.0
 10
12.22288447224545
 20
1.51464401321838
 30
0.0
 10
12.68209910884227
 20
1.576464965449958
 30
0.0
 10
13.14068035565077
 20
1.594669939459926
 30
0.0
 10
13.59983004152028
 20
1.568748608080405
 30
0.0
 10
14.0580273514301
 20
1.498549974695685
 30
0.0
 10
14.51688255785413
 20
1.388169462238352
 30
0.0
 10
14.97470783228411
 20
1.237456875275534
 30
0.0
 10
15.433031376061
 20
1.054928239007076
 30
0.0
 10
15.89047993374206
 20
0.8406872417191593
 30
0.0
 10
16.34802922955819
 20
0.6061100991464983
 30
0.0
 10
16.80507751530362
 20
0.3523624933323859
 30
0.0
 10
17.2616529174505
 20
0.0914028393362329
 30
0.0
 10
17.71834810363086
 20
-0.1736893019102865
 30
0.0
 10
18.17408092342785
 20
-0.4327580031580709
 30
0.0
 10
18.63094709719752
 20
-0.6804021647713725
 30
0.0
 10
19.08629928991522
 20
-0.9094868194052523
 30
0.0
 10
19.54351788149418
 20
-1.112992131439846
 30
0.0
 10
19.98065095075074
 20
-1.279918544310242
 30
0.0
 10
20.24139284385345
 20
-1.360514595022692
 30
0.0
 10
20.50222390718497
 20
-1.463687776778166
 30
0.0
 10
20.77028570026224
 20
-1.528769491977569
 30
0.0
 10
20.93110427028938
 20
-1.552328900325493
 30
0.0
 10
21.11663065701555
 20
-1.587499999999999
 30
0.0
  0
SPLINE
  5
3B4
330
1F
100
AcDbEntity
  8
0
  6
Continuous
 62
     1
370
    15
100
AcDbSpline
210
0.0
220
0.0
230
1.0
 70
     8
 71
     3
 72
    14
 73
    10
 74
     0
 42
0.000000001
 43
0.00000001
 40
0.0
 40
0.0
 40
0.0
 40
0.0
 40
0.1096417046824683
 40
0.2592372065469635
 40
0.4088308712162342
 40
0.5584227899859621
 40
0.708013054385914
 40
0.8576017561678819
 40
0.9999999999999999
 40
0.9999999999999999
 40
0.9999999999999999
 40
0.9999999999999999
 10
14.60225888594911
 20
-1.308251577196259
 30
0.0
 10
14.39475347837063
 20
-1.327551793534653
 30
0.0
 10
13.90412701137231
 20
-1.373185288415165
 30
0.0
 10
13.13038473004468
 20
-1.294917033826032
 30
0.0
 10
12.28103572267528
 20
-1.102449489517518
 30
0.0
 10
11.4316957783424
 20
-0.8011668444425339
 30
0.0
 10
10.58237547026854
 20
-0.4258772203429046
 30
0.0
 10
9.746638277276162
 20
-0.0141372108959885
 30
0.0
 10
9.194097582651239
 20
0.2525050103711948
 30
0.0
 10
8.924630657015598
 20
0.3825429610750817
 30
0.0
  0
SPLINE
  5
3B5
330
1F
100
AcDbEntity
  8
0
  6
Continuous
 62
     1
370
    15
100
AcDbSpline
210
0.0
220
0.0
230
1.0
 70
     8
 71
     3
 72
    17
 73
    13
 74
     0
 42
0.000000001
 43
0.00000001
 40
0.0
 40
0.0
 40
0.0
 40
0.0
 40
0.0251693608236776
 40
0.1259566575971955
 40
0.2265306296145305
 40
0.3269944251565924
 40
0.4275024811033962
 40
0.5282083050079044
 40
0.6289448184719335
 40
0.752634158533214
 40
0.8763190390473055
 40
0.9999999999999999
 40
0.9999999999999999
 40
0.9999999999999999
 40
0.9999999999999999
 10
15.68015390436702
 20
-1.248561329976127
 30
0.0
 10
15.62348455753698
 20
-1.270654260942159
 30
0.0
 10
15.33989048596206
 20
-1.381215341952554
 30
0.0
 10
14.82949688626363
 20
-1.502935570624508
 30
0.0
 10
14.15005935881251
 20
-1.596328853547874
 30
0.0
 10
13.47132539982479
 20
-1.586718507949087
 30
0.0
 10
12.79228901150657
 20
-1.482238016095309
 30
0.0
 10
12.11222581779023
 20
-1.287394553906523
 30
0.0
 10
11.38001297525093
 20
-0.993561154585116
 30
0.0
 10
10.59597672118571
 20
-0.5994609306069165
 30
0.0
 10
9.76029409902958
 20
-0.1222231898076984
 30
0.0
 10
9.203182195173326
 20
0.1975780562962015
 30
0.0
 10
8.924630657020174
 20
0.3574761456906899
 30
0.0
  0
SPLINE
  5
3B7
330
1F
100
AcDbEntity
  8
0
  6
Continuous
 62
     1
370
    15
100
AcDbSpline
210
0.0
220
0.0
230
1.0
 70
     8
 71
     3
 72
     8
 73
     4
 74
     0
 42
0.000000001
 43
0.00000001
 40
0.0
 40
0.0
 40
0.0
 40
0.0
 40
0.2461389354989401
 40
0.2461389354989401
 40
0.2461389354989401
 40
0.2461389354989401
 10
21.37063065701557
 20
-1.453685101208322
 30
0.0
 10
21.39922151431404
 20
-1.460304866117075
 30
0.0
 10
21.42886320869434
 20
-1.461336596197191
 30
0.0
 10
21.45743163279428
 20
-1.456220977526176
 30
0.0
  0
SPLINE
  5
3B8
330
1F
100
AcDbEntity
  8
0
  6
Continuous
 62
     1
370
    15
100
AcDbSpline
210
0.0
220
0.0
230
1.0
 70
     8
 71
     3
 72
    18
 73
    14
 74
     0
 42
0.000000001
 43
0.00000001
 40
0.0
 40
0.0
 40
0.0
 40
0.0
 40
0.1046979554299161
 40
0.2094304293125192
 40
0.3142077837117926
 40
0.4190085142526208
 40
0.5096328352409327
 40
0.6001144997085117
 40
0.6905922331549775
 40
0.7812048436437573
 40
0.8719615609344232
 40
0.9625261840306045
 40
0.9999999999999999
 40
0.9999999999999999
 40
0.9999999999999999
 40
0.9999999999999999
 10
21.3706306570152
 20
-1.453685101208237
 30
0.0
 10
21.1088066302373
 20
-1.381436513044868
 30
0.0
 10
20.5850722544582
 20
-1.236915516678266
 30
0.0
 10
19.79925141913483
 20
-0.8882390473736663
 30
0.0
 10
19.01311864297335
 20
-0.4759974250984484
 30
0.0
 10
18.26215833295524
 20
-0.0432162637772961
 30
0.0
 10
17.54723246521294
 20
0.3698225099787464
 30
0.0
 10
16.86838421407859
 20
0.7405231990488161
 30
0.0
 10
16.18955943435506
 20
1.065713493364576
 30
0.0
 10
15.50984352222079
 20
1.327720295639836
 30
0.0
 10
14.82951473068789
 20
1.502989858527009
 30
0.0
 10
14.28252713841607
 20
1.588330979083899
 30
0.0
 10
13.96247850048476
 20
1.57861219692289
 30
0.0
 10
13.86880785089997
 20
1.575767739767635
 30
0.0
  0
SPLINE
  5
3B9
330
1F
100
AcDbEntity
  8
0
  6
Continuous
 62
     1
370
    15
100
AcDbSpline
210
0.0
220
0.0
230
1.0
 70
     8
 71
     3
 72
    16
 73
    12
 74
     0
 42
0.000000001
 43
0.00000001
 40
0.0
 40
0.0
 40
0.0
 40
0.0
 40
0.1195923667775201
 40
0.2401763065038391
 40
0.3498740907978935
 40
0.4603346702508717
 40
0.5699537718125957
 40
0.6803332783460155
 40
0.7899244735932283
 40
0.9002752395948698
 40
1.0
 40
1.0
 40
1.0
 40
1.0
 10
8.92463065701557
 20
-0.0836041339736155
 30
0.0
 10
9.0911888516832
 20
-0.1790329593294473
 30
0.0
 10
9.42568622046295
 20
-0.3706818364739348
 30
0.0
 10
9.912127404670656
 20
-0.6386787919966892
 30
0.0
 10
10.38640894087206
 20
-0.8794073147143706
 30
0.0
 10
10.84530052041177
 20
-1.08821798278754
 30
0.0
 10
11.30484012964999
 20
-1.267288378659487
 30
0.0
 10
11.76388814688192
 20
-1.41034652043745
 30
0.0
 10
12.2229044732417
 20
-1.514125296100836
 30
0.0
 10
12.66834839395381
 20
-1.576942520809261
 30
0.0
 10
12.96035330816622
 20
-1.582884641396362
 30
0.0
 10
13.0989706930898
 20
-1.585705420008615
 30
0.0
  0
SPLINE
  5
3BA
330
1F
100
AcDbEntity
  8
0
  6
Continuous
 62
     1
370
    15
100
AcDbSpline
210
0.0
220
0.0
230
1.0
 70
     8
 71
     3
 72
    13
 73
     9
 74
     0
 42
0.000000001
 43
0.00000001
 40
0.0
 40
0.0
 40
0.0
 40
0.0
 40
0.0508113477919596
 40
0.2884579018827322
 40
0.496487300179424
 40
0.7056288019191299
 40
0.8526187775011254
 40
1.0
 40
1.0
 40
1.0
 40
1.0
 10
19.44437537264506
 20
1.064180617240538
 30
0.0
 10
19.47701710627197
 20
1.078839724677273
 30
0.0
 10
19.66232543610377
 20
1.162060020111817
 30
0.0
 10
19.98063495152221
 20
1.278623122640951
 30
0.0
 10
20.28947669733265
 20
1.40891918214033
 30
0.0
 10
20.56725192323677
 20
1.492582493951154
 30
0.0
 10
20.77531735022251
 20
1.54677864741128
 30
0.0
 10
20.8585435210168
 20
1.572620595582343
 30
0.0
 10
21.11663065701555
 20
1.587499999999999
 30
0.0
  0
LINE
  5
3BB
330
1F
100
AcDbEntity
  8
0
  6
Continuous
 62
     1
370
    15
100
AcDbLine
 10
21.62364133106496
 20
1.111188742480135
 30
0.0
 11
21.03580119991958
 21
1.074790598381917
 31
0.0
  0
LINE
  5
3BC
330
1F
100
AcDbEntity
  8
0
  6
Continuous
 62
     1
370
    15
100
AcDbLine
 10
9.039587416690154
 20
-0.1490487362113271
 30
0.0
 11
8.92463065701557
 21
-0.1040884358926704
 31
0.0
  0
SPLINE
  5
3BE
330
1F
100
AcDbEntity
  8
0
  6
Continuous
 62
     1
370
    15
100
AcDbSpline
210
0.0
220
0.0
230
1.0
 70
     8
 71
     3
 72
     8
 73
     4
 74
     0
 42
0.000000001
 43
0.00000001
 40
0.0
 40
0.0
 40
0.0
 40
0.0
 40
1.0
 40
1.0
 40
1.0
 40
1.0
 10
20.64183608069237
 20
0.4445952940610169
 30
0.0
 10
20.57081138594387
 20
0.5287363700798338
 30
0.0
 10
20.50920048241343
 20
0.6091412587436622
 30
0.0
 10
20.46056508670677
 20
0.683939609971155
 30
0.0
  0
LINE
  5
3BF
330
1F
100
AcDbEntity
  8
0
  6
Continuous
 62
     1
370
    15
100
AcDbLine
 10
20.46056508670677
 20
0.683939609971155
 30
0.0
 11
21.62463065701556
 21
0.0
 31
0.0
  0
LINE
  5
3C0
330
1F
100
AcDbEntity
  8
0
  6
Continuous
 62
     1
370
    15
100
AcDbLine
 10
21.62463065701556
 20
0.0
 30
0.0
 11
21.62463065701556
 21
-0.4242481768220614
 31
0.0
  0
SPLINE
  5
3C1
330
1F
100
AcDbEntity
  8
0
  6
Continuous
 62
     1
370
    15
100
AcDbSpline
210
0.0
220
0.0
230
1.0
 70
     8
 71
     3
 72
    10
 73
     6
 74
     0
 42
0.000000001
 43
0.00000001
 40
0.0
 40
0.0
 40
0.0
 40
0.0
 40
0.5
 40
0.5
 40
1.0
 40
1.0
 40
1.0
 40
1.0
 10
21.62463065701556
 20
-0.4242481768220614
 30
0.0
 10
21.45449758385044
 20
-0.2904929793873734
 30
0.0
 10
21.28720938773424
 20
-0.1512488725093704
 30
0.0
 10
20.95845881070412
 20
0.1384796766033816
 30
0.0
 10
20.79546699851204
 20
0.2904950568622482
 30
0.0
 10
20.64183608069223
 20
0.4445952940610809
 30
0.0
  0
SPLINE
  5
3C3
330
1F
100
AcDbEntity
  8
0
  6
Continuous
 62
     1
370
    15
100
AcDbSpline
210
0.0
220
0.0
230
1.0
 70
     8
 71
     3
 72
    12
 73
     8
 74
     0
 42
0.000000001
 43
0.00000001
 40
0.0
 40
0.0
 40
0.0
 40
0.0
 40
0.1958406670319282
 40
0.4281247662410865
 40
0.6604049771818401
 40
0.8926814405694392
 40
1.0
 40
1.0
 40
1.0
 40
1.0
 10
20.64183608035498
 20
0.4445952942073816
 30
0.0
 10
20.40311326238097
 20
0.5447211800159479
 30
0.0
 10
19.88124437687063
 20
0.7636050926686906
 30
0.0
 10
19.07620944760012
 20
1.032518889437206
 30
0.0
 10
18.22676929764762
 20
1.214486901896109
 30
0.0
 10
17.52965994459331
 20
1.289159629562036
 30
0.0
 10
17.11569887342313
 20
1.256733561163749
 30
0.0
 10
16.98487921225836
 20
1.246486299823978
 30
0.0
  0
LINE
  5
3C4
330
1F
100
AcDbEntity
  8
0
  6
Continuous
 62
     1
370
    15
100
AcDbLine
 10
9.625510364476384
 20
-1.187474925915815
 30
0.0
 11
8.92463065701557
 21
-1.264416443934117
 31
0.0
  0
SPLINE
  5
3C5
330
1F
100
AcDbEntity
  8
0
  6
Continuous
 62
     1
370
    15
100
AcDbSpline
210
0.0
220
0.0
230
1.0
 70
    24
 71
     3
 72
    10
 73
     6
 74
     0
 42
0.000000001
 43
0.00000001
 40
0.2037185514639999
 40
0.2037185514639999
 40
0.2037185514639999
 40
0.2037185514639999
 40
0.4999999999999998
 40
0.4999999999999998
 40
1.0
 40
1.0
 40
1.0
 40
1.0
 10
21.62463065701559
 20
-1.079499999963576
 30
0.0
 10
21.62463065701556
 20
-1.013133621759023
 30
0.0
 10
21.62463065701556
 20
-0.9400597385611533
 30
0.0
 10
21.62463065701556
 20
-0.7284762699622789
 30
0.0
 10
21.62463065701556
 20
-0.5797022157431471
 30
0.0
 10
21.62463065701556
 20
-0.4242481768221111
 30
0.0
  0
SPLINE
  5
3C6
330
1F
100
AcDbEntity
  8
0
  6
Continuous
 62
     1
370
    15
100
AcDbSpline
210
0.0
220
0.0
230
1.0
 70
     8
 71
     3
 72
    19
 73
    15
 74
     0
 42
0.000000001
 43
0.00000001
 40
0.0
 40
0.0
 40
0.0
 40
0.0
 40
0.003761996832016
 40
0.0947322254480517
 40
0.185701041655169
 40
0.2766685009487906
 40
0.36763465900598
 40
0.4585995716781958
 40
0.5495632949839971
 40
0.6405258851017007
 40
0.7314873983619938
 40
0.8224478912405025
 40
0.9134074203503187
 40
1.0
 40
1.0
 40
1.0
 40
1.0
 10
18.26189198180717
 20
-1.191725314860271
 30
0.0
 10
18.25018285482301
 20
-1.194286121204648
 30
0.0
 10
17.95533102299183
 20
-1.258770727326528
 30
0.0
 10
17.37734256962764
 20
-1.282066350190973
 30
0.0
 10
16.5279309030704
 20
-1.241272173279945
 30
0.0
 10
15.67853379684439
 20
-1.070565664323155
 30
0.0
 10
14.8291503801259
 20
-0.8018446006445075
 30
0.0
 10
13.97978018717427
 20
-0.45634417210659
 30
0.0
 10
13.13042241113968
 20
-0.0678448775714529
 30
0.0
 10
12.28107719362114
 20
0.3269772841792573
 30
0.0
 10
11.43174121317085
 20
0.6914318333802427
 30
0.0
 10
10.58242404193774
 20
0.9881972795761484
 30
0.0
 10
9.746676473169458
 20
1.196415829795775
 30
0.0
 10
9.194115795027216
 20
1.242124310666306
 30
0.0
 10
8.92463065701557
 20
1.264416443934117
 30
0.0
  0
SPLINE
  5
3C7
330
1F
100
AcDbEntity
  8
외형선
  6
Continuous
370
    15
100
AcDbSpline
210
0.0
220
0.0
230
1.0
 70
    24
 71
     3
 72
    13
 73
     9
 74
     0
 42
0.000000001
 43
0.00000001
 40
0.0
 40
0.0
 40
0.0
 40
0.0
 40
0.1345280325237933
 40
0.2708351083768171
 40
0.467366558410846
 40
0.6695974338098486
 40
0.8460721455025976
 40
1.0
 40
1.0
 40
1.0
 40
1.0
 10
8.92463065701557
 20
1.264416443934117
 30
0.0
 10
8.92463065701557
 20
1.248503662805831
 30
0.0
 10
8.92463065701557
 20
1.216467664652868
 30
0.0
 10
8.92463065701557
 20
1.12940092955786
 30
0.0
 10
8.92463065701557
 20
0.9982639871255046
 30
0.0
 10
8.92463065701557
 20
0.8165006577600096
 30
0.0
 10
8.92463065701557
 20
0.6204406081486766
 30
0.0
 10
8.92463065701557
 20
0.4807337093253139
 30
0.0
 10
8.92463065701557
 20
0.4156470986420615
 30
0.0
  0
SPLINE
  5
3C8
330
1F
100
AcDbEntity
  8
0
  6
Continuous
 62
     1
370
    15
100
AcDbSpline
210
0.0
220
0.0
230
1.0
 70
     8
 71
     3
 72
    10
 73
     6
 74
     0
 42
0.000000001
 43
0.00000001
 40
0.0008239322863127
 40
0.0008239322863127
 40
0.0008239322863127
 40
0.0008239322863127
 40
0.5
 40
0.5
 40
1.0
 40
1.0
 40
1.0
 40
1.0
 10
21.6236540449614
 20
1.110984664138136
 30
0.0
 10
21.42643094811785
 20
1.057387754264086
 30
0.0
 10
21.23066233304013
 20
0.9961033476182273
 30
0.0
 10
20.84221339432972
 20
0.8554026879690753
 30
0.0
 10
20.64940488802998
 20
0.7765027748540803
 30
0.0
 10
20.46056508670571
 20
0.683939609971965
 30
0.0
  0
SPLINE
  5
3C9
330
1F
100
AcDbEntity
  8
외형선
  6
Continuous
370
    15
100
AcDbSpline
210
0.0
220
0.0
230
1.0
 70
    24
 71
     3
 72
    10
 73
     6
 74
     0
 42
0.000000001
 43
0.00000001
 40
0.0
 40
0.0
 40
0.0
 40
0.0
 40
0.5
 40
0.5
 40
1.0
 40
1.0
 40
1.0
 40
1.0
 10
8.924630657015513
 20
-0.1040884358926419
 30
0.0
 10
8.924630657015513
 20
-0.3720797519980508
 30
0.0
 10
8.924630657015513
 20
-0.6358683564110024
 30
0.0
 10
8.924630657015513
 20
-1.048315837558022
 30
0.0
 10
8.924630657015513
 20
-1.193779035633426
 30
0.0
 10
8.924630657015513
 20
-1.264416443934117
 30
0.0
  0
LINE
  5
3CA
330
1F
100
AcDbEntity
  8
0
  6
Continuous
 62
     1
370
    15
100
AcDbLine
 10
21.62463065701556
 20
0.0
 30
0.0
 11
21.62463065701556
 21
1.079499999999999
 31
0.0
  0
LINE
  5
3CC
330
1F
100
AcDbEntity
  8
중심선
 48
0.8
100
AcDbLine
 10
-38.52536934298445
 20
-0.0000000000000071
 30
0.0
 11
24.62463065701556
 21
0.0
 31
0.0
  0
CIRCLE
  5
3CD
330
1F
100
AcDbEntity
  8
해칭선
100
AcDbCircle
 10
0.0
 20
0.0
 30
0.0
 40
3.000000000000001
  0
DIMENSION
  5
3D5
330
1F
100
AcDbEntity
  8
치수문자_일반주서
100
AcDbDimension
  2
*D19
 10
-48.21536934298443
 20
-3.175000000000062
 30
0.0
 11
-48.21536934298445
 21
-0.0000000000000142
 31
0.0
 70
   160
  1
%%c<>
 71
     2
 42
6.349999999999994
 52
-270.0
  3
SLDDIMSTYLE0
100
AcDbAlignedDimension
 13
-34.71536934298445
 23
3.174999999999983
 33
0.0
 14
-34.71536934298445
 24
-3.175000000000011
 34
0.0
 50
90.0000000000002
100
AcDbRotatedDimension
1001
ACAD
1000
DSTYLE
1002
{
1070
   171
1070
     6
1070
   273
1070
     7
1002
}
  0
DIMENSION
  5
3D6
330
1F
100
AcDbEntity
  8
치수문자_일반주서
100
AcDbDimension
  2
*D20
 10
35.97649717912631
 20
-1.587499999999945
 30
0.0
 11
35.9764971791262
 21
23.78474104093321
 31
0.0
 70
   160
  1
%%c<>
 71
     2
 42
3.175000000000004
 52
-270.0
  3
SLDDIMSTYLE0
100
AcDbAlignedDimension
 13
21.62463065701556
 23
1.587500000000006
 33
0.0
 14
21.62463065701556
 24
-1.587499999999999
 34
0.0
 50
90.0000000000002
100
AcDbRotatedDimension
1001
ACAD
1000
DSTYLE
1002
{
1070
   171
1070
     6
1070
   273
1070
     7
1002
}
  0
DIMENSION
  5
3D7
330
1F
100
AcDbEntity
  8
치수문자_일반주서
100
AcDbDimension
  2
*D21
 10
8.92463065701557
 20
10.72162689894495
 30
0.0
 11
-8.939990241154774
 21
10.72162689894495
 31
0.0
 70
   160
  1
<>
 71
     2
 42
12.69999999999999
  3
SLDDIMSTYLE0
100
AcDbAlignedDimension
 13
21.62463065701556
 23
1.587500000000006
 33
0.0
 14
8.92463065701557
 24
1.264416443934117
 34
0.0
 50
0.000000000000008
100
AcDbRotatedDimension
1001
ACAD
1000
DSTYLE
1002
{
1070
   171
1070
     6
1070
   273
1070
     7
1002
}
  0
DIMENSION
  5
3D8
330
1F
100
AcDbEntity
  8
치수문자_일반주서
100
AcDbDimension
  2
*D22
 10
-35.52536934298445
 20
24.08397556034826
 30
0.0
 11
-7.207536065157427
 21
24.08397556034826
 31
0.0
 70
   160
  1
<>
 71
     2
 42
57.15000000000001
  3
SLDDIMSTYLE0
100
AcDbAlignedDimension
 13
21.62463065701556
 23
1.587500000000006
 33
0.0
 14
-35.52536934298445
 24
2.364999999999995
 34
0.0
 50
-0.0000000000000036
100
AcDbRotatedDimension
1001
ACAD
1000
DSTYLE
1002
{
1070
   171
1070
     6
1070
   273
1070
     7
1002
}
  0
INSERT
  5
3D9
330
1F
100
AcDbEntity
  8
해칭선
100
AcDbBlockReference
  2
SW_DOWELSYMBOL_0
 10
0.0
 20
0.0
 30
0.0
  0
ARC
  5
422
330
1F
100
AcDbEntity
  8
0
  6
Continuous
 62
     1
370
    15
100
AcDbCircle
 10
21.11663065701555
 20
1.079499999999999
 30
0.0
 40
0.5080000000000002
100
AcDbArc
 50
0.0
 51
90.0
  0
ARC
  5
423
102
{ACAD_REACTORS
102
}
330
1F
100
AcDbEntity
  8
0
  6
Continuous
 62
     1
370
    15
100
AcDbCircle
 10
21.11663065701555
 20
-1.079499999999999
 30
0.0
 40
0.5080000000000002
100
AcDbArc
 50
270.0
 51
0.0
  0
SPLINE
  5
424
330
1F
100
AcDbEntity
  8
0
  6
Continuous
 62
     1
370
    15
100
AcDbSpline
210
0.0
220
0.0
230
1.0
 70
     8
 71
     3
 72
    12
 73
     8
 74
     0
 42
0.000000001
 43
0.00000001
 40
0.0068155381887365
 40
0.0068155381887365
 40
0.0068155381887365
 40
0.0068155381887365
 40
0.2058047672527509
 40
0.4116058942888648
 40
0.6174035030621524
 40
0.8231977159931161
 40
1.0
 40
1.0
 40
1.0
 40
1.0
 10
21.59649830306253
 20
-1.246206455415963
 30
0.0
 10
21.32271041509969
 20
-1.18500475423249
 30
0.0
 10
20.76576222605729
 20
-1.059114283913183
 30
0.0
 10
19.92566130851495
 20
-0.7402449103305315
 30
0.0
 10
19.07619952713648
 20
-0.357208990120121
 30
0.0
 10
18.2666386573994
 20
0.0456480466102889
 30
0.0
 10
17.74023257739796
 20
0.2959903511506639
 30
0.0
 10
17.49697421511743
 20
0.4116764370937815
 30
0.0
  0
DIMENSION
  5
425
102
{ACAD_REACTORS
102
}
102
{ACAD_XDICTIONARY
360
426
102
}
330
1F
100
AcDbEntity
  8
치수문자_일반주서
100
AcDbDimension
  2
*D24
 10
21.11663065701555
 20
-1.079499999999999
 30
0.0
 11
32.66211829039613
 21
-18.49298933642986
 31
0.0
 70
   164
  1
<>
 71
     5
 42
0.5080000000000058
  3
SLDDIMSTYLE0
100
AcDbRadialDimension
 15
21.39734848300037
 25
-1.502892846153971
 35
0.0
 40
0.0
1001
ACAD
1000
DSTYLE
1002
{
1070
   171
1070
     3
1002
}
1001
ACAD_DSTYLE_DIMRADIAL_EXTENSION
1070
   387
1070
     1
1070
   388
1040
4.71238898038469
1070
   390
1040
0.0
  0
ENDSEC
  0
SECTION
  2
OBJECTS
  0
DICTIONARY
  5
C
330
0
100
AcDbDictionary
281
     1
  3
ACAD_GROUP
350
D
  3
ACAD_IMAGE_VARS
350
168
  3
ACAD_LAYOUT
350
1A
  3
ACAD_MLINESTYLE
350
17
  3
ACAD_PLOTSETTINGS
350
19
  3
ACAD_PLOTSTYLENAME
350
E
  3
ACAD_SCALELIST
350
47
  3
APPDATA
350
166
  3
DWGPROPS
350
432
  0
DICTIONARY
  5
242
330
2
100
AcDbDictionary
280
     1
281
     1
  3
ACAD_LAYERSTATES
360
243
  0
DICTIONARY
  5
426
330
425
100
AcDbDictionary
280
     1
281
     1
  0
DICTIONARY
  5
D
102
{ACAD_REACTORS
330
C
102
}
330
C
100
AcDbDictionary
281
     1
  0
RASTERVARIABLES
  5
168
102
{ACAD_REACTORS
330
C
102
}
330
C
100
AcDbRasterVariables
 90
        0
 70
     1
 71
     1
 72
     1
  0
DICTIONARY
  5
1A
102
{ACAD_REACTORS
330
C
102
}
330
C
100
AcDbDictionary
281
     1
  3
Layout1
350
1E
  3
Layout2
350
26
  3
Model
350
22
  0
DICTIONARY
  5
17
102
{ACAD_REACTORS
330
C
102
}
330
C
100
AcDbDictionary
281
     1
  3
Standard
350
18
  0
DICTIONARY
  5
19
102
{ACAD_REACTORS
330
C
102
}
330
C
100
AcDbDictionary
281
     1
  0
ACDBDICTIONARYWDFLT
  5
E
102
{ACAD_REACTORS
330
C
102
}
330
C
100
AcDbDictionary
281
     1
  3
Normal
350
F
100
AcDbDictionaryWithDefault
340
F
  0
DICTIONARY
  5
47
102
{ACAD_REACTORS
330
C
102
}
330
C
100
AcDbDictionary
281
     1
  3
A0
350
48
  3
A1
350
49
  3
A2
350
4A
  3
A3
350
4B
  3
A4
350
4C
  3
A5
350
4D
  3
A6
350
4E
  3
A7
350
4F
  3
A8
350
50
  3
A9
350
51
  3
B0
350
52
  3
B1
350
53
  3
B2
350
54
  3
B3
350
55
  3
B4
350
56
  3
B5
350
57
  3
B6
350
58
  3
B7
350
59
  3
B8
350
5A
  3
B9
350
5B
  3
C0
350
5C
  3
C1
350
5D
  3
C2
350
5E
  3
C3
350
5F
  3
C4
350
60
  3
C5
350
61
  3
C6
350
62
  3
C7
350
63
  3
C8
350
64
  3
C9
350
65
  3
D0
350
66
  3
D1
350
67
  3
D2
350
68
  0
DICTIONARY
  5
166
102
{ACAD_REACTORS
330
C
102
}
330
C
100
AcDbDictionary
281
     1
  0
XRECORD
  5
432
102
{ACAD_REACTORS
330
C
102
}
330
C
100
AcDbXrecord
280
     1
  1
DWGPROPS COOKIE
  2

  3

  4

  6

  7

  8
12017012
  9

300
=
301
=
302
=
303
=
304
=
305
=
306
=
307
=
308
=
309
=
 40
0.0
 41
2458288.280408854
 42
2458295.285328426
  1

 90
        0
  0
DICTIONARY
  5
243
102
{ACAD_REACTORS
330
242
102
}
330
242
100
AcDbDictionary
281
     1
  0
LAYOUT
  5
1E
102
{ACAD_REACTORS
330
1A
102
}
330
1A
100
AcDbPlotSettings
  1

  2
none_device
  4

  6

 40
0.0
 41
0.0
 42
0.0
 43
0.0
 44
0.0
 45
0.0
 46
0.0
 47
0.0
 48
0.0
 49
0.0
140
0.0
141
0.0
142
1.0
143
1.0
 70
   688
 72
     1
 73
     0
 74
     5
  7

 75
    16
147
1.0
148
0.0
149
0.0
100
AcDbLayout
  1
Layout1
 70
     1
 71
     1
 10
0.0
 20
0.0
 11
420.0
 21
297.0
 12
0.0
 22
0.0
 32
0.0
 14
1.000000000000000E+20
 24
1.000000000000000E+20
 34
1.000000000000000E+20
 15
-1.000000000000000E+20
 25
-1.000000000000000E+20
 35
-1.000000000000000E+20
146
0.0
 13
0.0
 23
0.0
 33
0.0
 16
1.0
 26
0.0
 36
0.0
 17
0.0
 27
1.0
 37
0.0
 76
     0
330
1B
  0
LAYOUT
  5
26
102
{ACAD_REACTORS
330
1A
102
}
330
1A
100
AcDbPlotSettings
  1

  2
none_device
  4

  6

 40
0.0
 41
0.0
 42
0.0
 43
0.0
 44
0.0
 45
0.0
 46
0.0
 47
0.0
 48
0.0
 49
0.0
140
0.0
141
0.0
142
1.0
143
1.0
 70
   688
 72
     1
 73
     0
 74
     5
  7

 75
    16
147
1.0
148
0.0
149
0.0
100
AcDbLayout
  1
Layout2
 70
     1
 71
     2
 10
0.0
 20
0.0
 11
0.0
 21
0.0
 12
0.0
 22
0.0
 32
0.0
 14
0.0
 24
0.0
 34
0.0
 15
0.0
 25
0.0
 35
0.0
146
0.0
 13
0.0
 23
0.0
 33
0.0
 16
1.0
 26
0.0
 36
0.0
 17
0.0
 27
1.0
 37
0.0
 76
     0
330
23
  0
LAYOUT
  5
22
102
{ACAD_REACTORS
330
1A
102
}
330
1A
100
AcDbPlotSettings
  1

  2
none_device
  4
ANSI_A_(11.00_x_8.50_Inches)
  6

 40
6.35
 41
19.05
 42
6.35000508
 43
19.05000254
 44
279.4
 45
215.9
 46
99.14430414511142
 47
103.1567535039262
 48
0.0
 49
0.0
140
0.0
141
0.0
142
0.0707425392874294
143
1.0
 70
  1696
 72
     0
 73
     0
 74
     0
  7

 75
     0
147
0.0235690232323232
148
0.0
149
0.0
100
AcDbLayout
  1
Model
 70
     1
 71
     0
 10
0.0
 20
0.0
 11
420.0
 21
297.0
 12
0.0
 22
0.0
 32
0.0
 14
1.000000000000000E+20
 24
1.000000000000000E+20
 34
1.000000000000000E+20
 15
-1.000000000000000E+20
 25
-1.000000000000000E+20
 35
-1.000000000000000E+20
146
0.0
 13
0.0
 23
0.0
 33
0.0
 16
1.0
 26
0.0
 36
0.0
 17
0.0
 27
1.0
 37
0.0
 76
     0
330
1F
331
29
  0
MLINESTYLE
  5
18
102
{ACAD_REACTORS
330
17
102
}
330
17
100
AcDbMlineStyle
  2
Standard
 70
     0
  3

 62
   256
 51
90.0
 52
90.0
 71
     2
 49
0.5
 62
   256
  6
BYLAYER
 49
-0.5
 62
   256
  6
BYLAYER
  0
ACDBPLACEHOLDER
  5
F
102
{ACAD_REACTORS
330
E
102
}
330
E
  0
SCALE
  5
48
102
{ACAD_REACTORS
330
47
102
}
330
47
100
AcDbScale
 70
     0
300
1:1
140
1.0
141
1.0
290
     1
  0
SCALE
  5
49
102
{ACAD_REACTORS
330
47
102
}
330
47
100
AcDbScale
 70
     0
300
1:2
140
1.0
141
2.0
290
     0
  0
SCALE
  5
4A
102
{ACAD_REACTORS
330
47
102
}
330
47
100
AcDbScale
 70
     0
300
1:4
140
1.0
141
4.0
290
     0
  0
SCALE
  5
4B
102
{ACAD_REACTORS
330
47
102
}
330
47
100
AcDbScale
 70
     0
300
1:5
140
1.0
141
5.0
290
     0
  0
SCALE
  5
4C
102
{ACAD_REACTORS
330
47
102
}
330
47
100
AcDbScale
 70
     0
300
1:8
140
1.0
141
8.0
290
     0
  0
SCALE
  5
4D
102
{ACAD_REACTORS
330
47
102
}
330
47
100
AcDbScale
 70
     0
300
1:10
140
1.0
141
10.0
290
     0
  0
SCALE
  5
4E
102
{ACAD_REACTORS
330
47
102
}
330
47
100
AcDbScale
 70
     0
300
1:16
140
1.0
141
16.0
290
     0
  0
SCALE
  5
4F
102
{ACAD_REACTORS
330
47
102
}
330
47
100
AcDbScale
 70
     0
300
1:20
140
1.0
141
20.0
290
     0
  0
SCALE
  5
50
102
{ACAD_REACTORS
330
47
102
}
330
47
100
AcDbScale
 70
     0
300
1:30
140
1.0
141
30.0
290
     0
  0
SCALE
  5
51
102
{ACAD_REACTORS
330
47
102
}
330
47
100
AcDbScale
 70
     0
300
1:40
140
1.0
141
40.0
290
     0
  0
SCALE
  5
52
102
{ACAD_REACTORS
330
47
102
}
330
47
100
AcDbScale
 70
     0
300
1:50
140
1.0
141
50.0
290
     0
  0
SCALE
  5
53
102
{ACAD_REACTORS
330
47
102
}
330
47
100
AcDbScale
 70
     0
300
1:100
140
1.0
141
100.0
290
     0
  0
SCALE
  5
54
102
{ACAD_REACTORS
330
47
102
}
330
47
100
AcDbScale
 70
     0
300
2:1
140
2.0
141
1.0
290
     0
  0
SCALE
  5
55
102
{ACAD_REACTORS
330
47
102
}
330
47
100
AcDbScale
 70
     0
300
4:1
140
4.0
141
1.0
290
     0
  0
SCALE
  5
56
102
{ACAD_REACTORS
330
47
102
}
330
47
100
AcDbScale
 70
     0
300
8:1
140
8.0
141
1.0
290
     0
  0
SCALE
  5
57
102
{ACAD_REACTORS
330
47
102
}
330
47
100
AcDbScale
 70
     0
300
10:1
140
10.0
141
1.0
290
     0
  0
SCALE
  5
58
102
{ACAD_REACTORS
330
47
102
}
330
47
100
AcDbScale
 70
     0
300
100:1
140
100.0
141
1.0
290
     0
  0
SCALE
  5
59
102
{ACAD_REACTORS
330
47
102
}
330
47
100
AcDbScale
 70
     0
300
1/128" = 1'-0"
140
0.0078125
141
12.0
290
     0
  0
SCALE
  5
5A
102
{ACAD_REACTORS
330
47
102
}
330
47
100
AcDbScale
 70
     0
300
1/64" = 1'-0"
140
0.015625
141
12.0
290
     0
  0
SCALE
  5
5B
102
{ACAD_REACTORS
330
47
102
}
330
47
100
AcDbScale
 70
     0
300
1/32" = 1'-0"
140
0.03125
141
12.0
290
     0
  0
SCALE
  5
5C
102
{ACAD_REACTORS
330
47
102
}
330
47
100
AcDbScale
 70
     0
300
1/16" = 1'-0"
140
0.0625
141
12.0
290
     0
  0
SCALE
  5
5D
102
{ACAD_REACTORS
330
47
102
}
330
47
100
AcDbScale
 70
     0
300
3/32" = 1'-0"
140
0.09375
141
12.0
290
     0
  0
SCALE
  5
5E
102
{ACAD_REACTORS
330
47
102
}
330
47
100
AcDbScale
 70
     0
300
1/8" = 1'-0"
140
0.125
141
12.0
290
     0
  0
SCALE
  5
5F
102
{ACAD_REACTORS
330
47
102
}
330
47
100
AcDbScale
 70
     0
300
3/16" = 1'-0"
140
0.1875
141
12.0
290
     0
  0
SCALE
  5
60
102
{ACAD_REACTORS
330
47
102
}
330
47
100
AcDbScale
 70
     0
300
1/4" = 1'-0"
140
0.25
141
12.0
290
     0
  0
SCALE
  5
61
102
{ACAD_REACTORS
330
47
102
}
330
47
100
AcDbScale
 70
     0
300
3/8" = 1'-0"
140
0.375
141
12.0
290
     0
  0
SCALE
  5
62
102
{ACAD_REACTORS
330
47
102
}
330
47
100
AcDbScale
 70
     0
300
1/2" = 1'-0"
140
0.5
141
12.0
290
     0
  0
SCALE
  5
63
102
{ACAD_REACTORS
330
47
102
}
330
47
100
AcDbScale
 70
     0
300
3/4" = 1'-0"
140
0.75
141
12.0
290
     0
  0
SCALE
  5
64
102
{ACAD_REACTORS
330
47
102
}
330
47
100
AcDbScale
 70
     0
300
1" = 1'-0"
140
1.0
141
12.0
290
     0
  0
SCALE
  5
65
102
{ACAD_REACTORS
330
47
102
}
330
47
100
AcDbScale
 70
     0
300
1-1/2" = 1'-0"
140
1.5
141
12.0
290
     0
  0
SCALE
  5
66
102
{ACAD_REACTORS
330
47
102
}
330
47
100
AcDbScale
 70
     0
300
3" = 1'-0"
140
3.0
141
12.0
290
     0
  0
SCALE
  5
67
102
{ACAD_REACTORS
330
47
102
}
330
47
100
AcDbScale
 70
     0
300
6" = 1'-0"
140
6.0
141
12.0
290
     0
  0
SCALE
  5
68
102
{ACAD_REACTORS
330
47
102
}
330
47
100
AcDbScale
 70
     0
300
1'-0" = 1'-0"
140
12.0
141
12.0
290
     0
  0
ENDSEC
  0
EOF
