  0
SECTION
  2
HEADER
  9
$ACADVER
  1
AC1015
  9
$ACADMAINTVER
 70
     6
  9
$DWGCODEPAGE
  3
ANSI_949
  9
$INSBASE
 10
0.0
 20
0.0
 30
0.0
  9
$EXTMIN
 10
1.000000000000000E+20
 20
1.000000000000000E+20
 30
1.000000000000000E+20
  9
$EXTMAX
 10
-1.000000000000000E+20
 20
-1.000000000000000E+20
 30
-1.000000000000000E+20
  9
$LIMMIN
 10
0.0
 20
0.0
  9
$LIMMAX
 10
420.0
 20
297.0
  9
$ORTHOMODE
 70
     0
  9
$REGENMODE
 70
     1
  9
$FILLMODE
 70
     1
  9
$QTEXTMODE
 70
     0
  9
$MIRRTEXT
 70
     1
  9
$LTSCALE
 40
1.0
  9
$ATTMODE
 70
     1
  9
$TEXTSIZE
 40
3.5
  9
$TRACEWID
 40
1.0
  9
$TEXTSTYLE
  7
Standard
  9
$CLAYER
  8
0
  9
$CELTYPE
  6
ByLayer
  9
$CECOLOR
 62
   256
  9
$CELTSCALE
 40
1.0
  9
$DISPSILH
 70
     0
  9
$DIMSCALE
 40
1.0
  9
$DIMASZ
 40
3.302
  9
$DIMEXO
 40
1.0
  9
$DIMDLI
 40
3.75
  9
$DIMRND
 40
0.0
  9
$DIMDLE
 40
0.0
  9
$DIMEXE
 40
1.0
  9
$DIMTP
 40
0.0
  9
$DIMTM
 40
0.0
  9
$DIMTXT
 40
3.5
  9
$DIMCEN
 40
2.5
  9
$DIMTSZ
 40
0.0
  9
$DIMTOL
 70
     0
  9
$DIMLIM
 70
     0
  9
$DIMTIH
 70
     1
  9
$DIMTOH
 70
     1
  9
$DIMSE1
 70
     0
  9
$DIMSE2
 70
     0
  9
$DIMTAD
 70
     1
  9
$DIMZIN
 70
     0
  9
$DIMBLK
  1

  9
$DIMASO
 70
     1
  9
$DIMSHO
 70
     1
  9
$DIMPOST
  1

  9
$DIMAPOST
  1

  9
$DIMALT
 70
     0
  9
$DIMALTD
 70
     3
  9
$DIMALTF
 40
0.0393700787401575
  9
$DIMLFAC
 40
1.0
  9
$DIMTOFL
 70
     1
  9
$DIMTVP
 40
0.0
  9
$DIMTIX
 70
     0
  9
$DIMSOXD
 70
     0
  9
$DIMSAH
 70
     0
  9
$DIMBLK1
  1

  9
$DIMBLK2
  1

  9
$DIMSTYLE
  2
ISO-25
  9
$DIMCLRD
 70
     0
  9
$DIMCLRE
 70
     0
  9
$DIMCLRT
 70
     0
  9
$DIMTFAC
 40
1.0
  9
$DIMGAP
 40
1.524
  9
$DIMJUST
 70
     0
  9
$DIMSD1
 70
     0
  9
$DIMSD2
 70
     0
  9
$DIMTOLJ
 70
     0
  9
$DIMTZIN
 70
     0
  9
$DIMALTZ
 70
     0
  9
$DIMALTTZ
 70
     0
  9
$DIMUPT
 70
     0
  9
$DIMDEC
 70
     2
  9
$DIMTDEC
 70
     2
  9
$DIMALTU
 70
     2
  9
$DIMALTTD
 70
     3
  9
$DIMTXSTY
  7
Standard
  9
$DIMAUNIT
 70
     0
  9
$DIMADEC
 70
     2
  9
$DIMALTRND
 40
0.0
  9
$DIMAZIN
 70
     0
  9
$DIMDSEP
 70
    44
  9
$DIMATFIT
 70
     3
  9
$DIMFRAC
 70
     0
  9
$DIMLDRBLK
  1

  9
$DIMLUNIT
 70
     2
  9
$DIMLWD
 70
    -2
  9
$DIMLWE
 70
    -2
  9
$DIMTMOVE
 70
     0
  9
$LUNITS
 70
     2
  9
$LUPREC
 70
     2
  9
$SKETCHINC
 40
1.0
  9
$FILLETRAD
 40
10.0
  9
$AUNITS
 70
     0
  9
$AUPREC
 70
     2
  9
$MENU
  1
.
  9
$ELEVATION
 40
0.0
  9
$PELEVATION
 40
0.0
  9
$THICKNESS
 40
0.0
  9
$LIMCHECK
 70
     0
  9
$CHAMFERA
 40
0.0
  9
$CHAMFERB
 40
0.0
  9
$CHAMFERC
 40
0.0
  9
$CHAMFERD
 40
0.0
  9
$SKPOLY
 70
     0
  9
$TDCREATE
 40
2458288.655597894
  9
$TDUCREATE
 40
2458288.280597894
  9
$TDUPDATE
 40
2458295.662139757
  9
$TDUUPDATE
 40
2458295.287139757
  9
$TDINDWG
 40
0.0002339931
  9
$TDUSRTIMER
 40
2458295.285334132
  9
$USRTIMER
 70
     1
  9
$ANGBASE
 50
0.0
  9
$ANGDIR
 70
     0
  9
$PDMODE
 70
     0
  9
$PDSIZE
 40
-1.0
  9
$PLINEWID
 40
0.0
  9
$SPLFRAME
 70
     0
  9
$SPLINETYPE
 70
     6
  9
$SPLINESEGS
 70
     8
  9
$HANDSEED
  5
2BD
  9
$SURFTAB1
 70
     6
  9
$SURFTAB2
 70
     6
  9
$SURFTYPE
 70
     6
  9
$SURFU
 70
     6
  9
$SURFV
 70
     6
  9
$UCSBASE
  2

  9
$UCSNAME
  2

  9
$UCSORG
 10
0.0
 20
0.0
 30
0.0
  9
$UCSXDIR
 10
1.0
 20
0.0
 30
0.0
  9
$UCSYDIR
 10
0.0
 20
1.0
 30
0.0
  9
$UCSORTHOREF
  2

  9
$UCSORTHOVIEW
 70
     0
  9
$UCSORGTOP
 10
0.0
 20
0.0
 30
0.0
  9
$UCSORGBOTTOM
 10
0.0
 20
0.0
 30
0.0
  9
$UCSORGLEFT
 10
0.0
 20
0.0
 30
0.0
  9
$UCSORGRIGHT
 10
0.0
 20
0.0
 30
0.0
  9
$UCSORGFRONT
 10
0.0
 20
0.0
 30
0.0
  9
$UCSORGBACK
 10
0.0
 20
0.0
 30
0.0
  9
$PUCSBASE
  2

  9
$PUCSNAME
  2

  9
$PUCSORG
 10
0.0
 20
0.0
 30
0.0
  9
$PUCSXDIR
 10
1.0
 20
0.0
 30
0.0
  9
$PUCSYDIR
 10
0.0
 20
1.0
 30
0.0
  9
$PUCSORTHOREF
  2

  9
$PUCSORTHOVIEW
 70
     0
  9
$PUCSORGTOP
 10
0.0
 20
0.0
 30
0.0
  9
$PUCSORGBOTTOM
 10
0.0
 20
0.0
 30
0.0
  9
$PUCSORGLEFT
 10
0.0
 20
0.0
 30
0.0
  9
$PUCSORGRIGHT
 10
0.0
 20
0.0
 30
0.0
  9
$PUCSORGFRONT
 10
0.0
 20
0.0
 30
0.0
  9
$PUCSORGBACK
 10
0.0
 20
0.0
 30
0.0
  9
$USERI1
 70
     0
  9
$USERI2
 70
     0
  9
$USERI3
 70
     0
  9
$USERI4
 70
     0
  9
$USERI5
 70
     0
  9
$USERR1
 40
0.0
  9
$USERR2
 40
0.0
  9
$USERR3
 40
0.0
  9
$USERR4
 40
0.0
  9
$USERR5
 40
0.0
  9
$WORLDVIEW
 70
     1
  9
$SHADEDGE
 70
     3
  9
$SHADEDIF
 70
    70
  9
$TILEMODE
 70
     1
  9
$MAXACTVP
 70
    64
  9
$PINSBASE
 10
0.0
 20
0.0
 30
0.0
  9
$PLIMCHECK
 70
     0
  9
$PEXTMIN
 10
1.000000000000000E+20
 20
1.000000000000000E+20
 30
1.000000000000000E+20
  9
$PEXTMAX
 10
-1.000000000000000E+20
 20
-1.000000000000000E+20
 30
-1.000000000000000E+20
  9
$PLIMMIN
 10
0.0
 20
0.0
  9
$PLIMMAX
 10
0.0
 20
0.0
  9
$UNITMODE
 70
     0
  9
$VISRETAIN
 70
     1
  9
$PLINEGEN
 70
     0
  9
$PSLTSCALE
 70
     1
  9
$TREEDEPTH
 70
  3020
  9
$CMLSTYLE
  2
Standard
  9
$CMLJUST
 70
     0
  9
$CMLSCALE
 40
20.0
  9
$PROXYGRAPHICS
 70
     1
  9
$MEASUREMENT
 70
     1
  9
$CELWEIGHT
370
    -1
  9
$ENDCAPS
280
     0
  9
$JOINSTYLE
280
     0
  9
$LWDISPLAY
290
     1
  9
$INSUNITS
 70
     4
  9
$HYPERLINKBASE
  1

  9
$STYLESHEET
  1

  9
$XEDIT
290
     1
  9
$CEPSNTYPE
380
     0
  9
$PSTYLEMODE
290
     1
  9
$FINGERPRINTGUID
  2
{54545342-7DC4-4FE1-A541-71E4E56396C2}
  9
$VERSIONGUID
  2
{FAEB1C32-E019-11D5-929B-00C0DF256EC4}
  9
$EXTNAMES
290
     1
  9
$PSVPSCALE
 40
0.0
  9
$OLESTARTUP
290
     0
  0
ENDSEC
  0
SECTION
  2
CLASSES
  0
CLASS
  1
ACDBDICTIONARYWDFLT
  2
AcDbDictionaryWithDefault
  3
ObjectDBX Classes
 90
        0
280
     0
281
     0
  0
CLASS
  1
VISUALSTYLE
  2
AcDbVisualStyle
  3
ObjectDBX Classes
 90
     4095
280
     0
281
     0
  0
CLASS
  1
MATERIAL
  2
AcDbMaterial
  3
ObjectDBX Classes
 90
     1153
280
     0
281
     0
  0
CLASS
  1
SCALE
  2
AcDbScale
  3
ObjectDBX Classes
 90
     1153
280
     0
281
     0
  0
CLASS
  1
SUN
  2
AcDbSun
  3
SCENEOE
 90
     1153
280
     0
281
     0
  0
CLASS
  1
ACDBPLACEHOLDER
  2
AcDbPlaceHolder
  3
ObjectDBX Classes
 90
        0
280
     0
281
     0
  0
CLASS
  1
LAYOUT
  2
AcDbLayout
  3
ObjectDBX Classes
 90
        0
280
     0
281
     0
  0
CLASS
  1
TABLESTYLE
  2
AcDbTableStyle
  3
ObjectDBX Classes
 90
     4095
280
     0
281
     0
  0
CLASS
  1
MLEADERSTYLE
  2
AcDbMLeaderStyle
  3
ACDB_MLEADERSTYLE_CLASS
 90
     4095
280
     0
281
     0
  0
CLASS
  1
RASTERVARIABLES
  2
AcDbRasterVariables
  3
ISM
 90
        0
280
     0
281
     0
  0
CLASS
  1
DIMASSOC
  2
AcDbDimAssoc
  3
"AcDbDimAssoc|Product Desc:     AcDim ARX App For Dimension|Company:          Autodesk, Inc.|WEB Address:      www.autodesk.com"
 90
        0
280
     0
281
     0
  0
ENDSEC
  0
SECTION
  2
TABLES
  0
TABLE
  2
VPORT
  5
8
330
0
100
AcDbSymbolTable
 70
     1
  0
VPORT
  5
29
330
8
100
AcDbSymbolTableRecord
100
AcDbViewportTableRecord
  2
*Active
 70
     0
 10
0.0
 20
0.0
 11
1.0
 21
1.0
 12
17.63243469800369
 22
-7.985054196529529
 13
0.0
 23
0.0
 14
10.0
 24
10.0
 15
10.0
 25
10.0
 16
0.0
 26
0.0
 36
1.0
 17
0.0
 27
0.0
 37
0.0
 40
88.7046379585067
 41
1.859099804305284
 42
50.0
 43
0.0
 44
0.0
 50
0.0
 51
0.0
 71
    16
 72
  2000
 73
     1
 74
     3
 75
     0
 76
     0
 77
     0
 78
     0
281
     0
 65
     1
110
0.0
120
0.0
130
0.0
111
1.0
121
0.0
131
0.0
112
0.0
122
1.0
132
0.0
 79
     0
146
0.0
  0
ENDTAB
  0
TABLE
  2
LTYPE
  5
5
330
0
100
AcDbSymbolTable
 70
     6
  0
LTYPE
  5
14
330
5
100
AcDbSymbolTableRecord
100
AcDbLinetypeTableRecord
  2
ByBlock
 70
     0
  3

 72
    65
 73
     0
 40
0.0
  0
LTYPE
  5
15
330
5
100
AcDbSymbolTableRecord
100
AcDbLinetypeTableRecord
  2
ByLayer
 70
     0
  3

 72
    65
 73
     0
 40
0.0
  0
LTYPE
  5
16
330
5
100
AcDbSymbolTableRecord
100
AcDbLinetypeTableRecord
  2
Continuous
 70
     0
  3
Solid line
 72
    65
 73
     0
 40
0.0
  0
LTYPE
  5
6A
330
5
100
AcDbSymbolTableRecord
100
AcDbLinetypeTableRecord
  2
HIDDEN
 70
     0
  3
Hidden __ __ __ __ __ __ __ __ __ __ __ __ __ __
 72
    65
 73
     2
 40
1.905
 49
1.27
 74
     0
 49
-0.635
 74
     0
  0
LTYPE
  5
6B
330
5
100
AcDbSymbolTableRecord
100
AcDbLinetypeTableRecord
  2
PHANTOM
 70
     0
  3
Phantom ______  __  __  ______  __  __  ______
 72
    65
 73
     6
 40
12.7
 49
6.35
 74
     0
 49
-1.27
 74
     0
 49
1.27
 74
     0
 49
-1.27
 74
     0
 49
1.27
 74
     0
 49
-1.27
 74
     0
  0
LTYPE
  5
6C
330
5
100
AcDbSymbolTableRecord
100
AcDbLinetypeTableRecord
  2
CENTER
 70
     0
  3
Center ____ _ ____ _ ____ _ ____ _ ____ _ ____
 72
    65
 73
     4
 40
10.16
 49
6.35
 74
     0
 49
-1.27
 74
     0
 49
1.27
 74
     0
 49
-1.27
 74
     0
  0
LTYPE
  5
6D
330
5
100
AcDbSymbolTableRecord
100
AcDbLinetypeTableRecord
  2
CENTERX2
 70
     0
  3
Center (2x) ________  __  ________  __  _____
 72
    65
 73
     4
 40
20.32
 49
12.7
 74
     0
 49
-2.54
 74
     0
 49
2.54
 74
     0
 49
-2.54
 74
     0
  0
LTYPE
  5
6E
330
5
100
AcDbSymbolTableRecord
100
AcDbLinetypeTableRecord
  2
DOT2
 70
     0
  3
Dot (.5x) ........................................
 72
    65
 73
     2
 40
0.635
 49
0.0
 74
     0
 49
-0.635
 74
     0
  0
ENDTAB
  0
TABLE
  2
LAYER
  5
2
102
{ACAD_XDICTIONARY
360
21C
102
}
330
0
100
AcDbSymbolTable
 70
    18
  0
LAYER
  5
10
330
2
100
AcDbSymbolTableRecord
100
AcDbLayerTableRecord
  2
0
 70
     0
 62
     7
  6
Continuous
370
    -3
390
F
  0
LAYER
  5
6F
330
2
100
AcDbSymbolTableRecord
100
AcDbLayerTableRecord
  2
FORMAT
 70
     0
 62
     2
  6
Continuous
370
    -3
390
F
  0
LAYER
  5
70
330
2
100
AcDbSymbolTableRecord
100
AcDbLayerTableRecord
  2
외형선
 70
     0
 62
     4
  6
Continuous
370
    30
390
F
  0
LAYER
  5
71
330
2
100
AcDbSymbolTableRecord
100
AcDbLayerTableRecord
  2
숨은선
 70
     0
 62
     2
  6
HIDDEN
370
    15
390
F
  0
LAYER
  5
72
330
2
100
AcDbSymbolTableRecord
100
AcDbLayerTableRecord
  2
중심선
 70
     0
 62
     1
  6
CENTERX2
370
    -3
390
F
  0
LAYER
  5
73
330
2
100
AcDbSymbolTableRecord
100
AcDbLayerTableRecord
  2
파단선
 70
     0
 62
     4
  6
Continuous
370
    -3
390
F
  0
LAYER
  5
74
330
2
100
AcDbSymbolTableRecord
100
AcDbLayerTableRecord
  2
해칭선
 70
     0
 62
   100
  6
Continuous
370
    -3
390
F
  0
LAYER
  5
75
330
2
100
AcDbSymbolTableRecord
100
AcDbLayerTableRecord
  2
가는실선
 70
     0
 62
     4
  6
Continuous
370
    -3
390
F
  0
LAYER
  5
76
330
2
100
AcDbSymbolTableRecord
100
AcDbLayerTableRecord
  2
치수_보조선
 70
     0
 62
     4
  6
Continuous
370
    -3
390
F
  0
LAYER
  5
77
330
2
100
AcDbSymbolTableRecord
100
AcDbLayerTableRecord
  2
치수문자_일반주서
 70
     0
 62
     7
  6
Continuous
370
    15
390
F
  0
LAYER
  5
78
330
2
100
AcDbSymbolTableRecord
100
AcDbLayerTableRecord
  2
개별주서
 70
     0
 62
   100
  6
Continuous
370
    30
390
F
  0
LAYER
  5
79
330
2
100
AcDbSymbolTableRecord
100
AcDbLayerTableRecord
  2
중간선
 70
     0
 62
     2
  6
Continuous
370
    15
390
F
  0
LAYER
  5
7A
330
2
100
AcDbSymbolTableRecord
100
AcDbLayerTableRecord
  2
윤곽선
 70
     0
 62
     3
  6
Continuous
370
    40
390
F
  0
LAYER
  5
7B
330
2
100
AcDbSymbolTableRecord
100
AcDbLayerTableRecord
  2
중심마크
 70
     0
 62
   100
  6
Continuous
370
    30
390
F
  0
LAYER
  5
7C
330
2
100
AcDbSymbolTableRecord
100
AcDbLayerTableRecord
  2
가상선
 70
     0
 62
     4
  6
PHANTOM
370
    -3
390
F
  0
LAYER
  5
7D
330
2
100
AcDbSymbolTableRecord
100
AcDbLayerTableRecord
  2
특수지정선
 70
     0
 62
     5
  6
CENTERX2
370
    60
390
F
  0
LAYER
  5
7E
330
2
100
AcDbSymbolTableRecord
100
AcDbLayerTableRecord
  2
참조1
 70
     0
 62
    -4
  6
Continuous
370
    -3
390
F
  0
LAYER
  5
165
330
2
100
AcDbSymbolTableRecord
100
AcDbLayerTableRecord
  2
Defpoints
 70
     0
 62
     7
  6
Continuous
290
     0
370
    -3
390
F
  0
ENDTAB
  0
TABLE
  2
STYLE
  5
3
330
0
100
AcDbSymbolTable
 70
     2
  0
STYLE
  5
11
330
3
100
AcDbSymbolTableRecord
100
AcDbTextStyleTableRecord
  2
Standard
 70
     0
 40
0.0
 41
1.0
 50
0.0
 71
     0
 42
3.5
  3
txt
  4

  0
STYLE
  5
94
330
3
100
AcDbSymbolTableRecord
100
AcDbTextStyleTableRecord
  2
SLDTEXTSTYLE0
 70
     0
 40
0.0
 41
0.75
 50
0.0
 71
     0
 42
3.5
  3
TXT
  4

  0
ENDTAB
  0
TABLE
  2
VIEW
  5
6
330
0
100
AcDbSymbolTable
 70
     0
  0
ENDTAB
  0
TABLE
  2
UCS
  5
7
330
0
100
AcDbSymbolTable
 70
     0
  0
ENDTAB
  0
TABLE
  2
APPID
  5
9
330
0
100
AcDbSymbolTable
 70
     2
  0
APPID
  5
12
330
9
100
AcDbSymbolTableRecord
100
AcDbRegAppTableRecord
  2
ACAD
 70
     0
  0
APPID
  5
170
330
9
100
AcDbSymbolTableRecord
100
AcDbRegAppTableRecord
  2
ACAD_DSTYLE_DIMRADIAL_EXTENSION
 70
     0
  0
ENDTAB
  0
TABLE
  2
DIMSTYLE
  5
A
330
0
100
AcDbSymbolTable
 70
     4
100
AcDbDimStyleTable
  0
DIMSTYLE
105
27
330
A
100
AcDbSymbolTableRecord
100
AcDbDimStyleTableRecord
  2
ISO-25
 70
     0
 41
2.5
 42
0.625
 43
3.75
 44
1.25
 73
     0
 74
     0
 77
     1
 78
     8
140
2.5
141
2.5
143
0.03937007874016
147
0.625
171
     3
172
     1
178
     0
271
     2
272
     2
274
     3
278
    44
283
     0
284
     8
340
11
  0
DIMSTYLE
105
E0
102
{ACAD_REACTORS
330
1C7
330
1D4
330
1E4
330
1F4
330
20F
330
259
330
25A
330
25B
330
25C
330
2AF
102
}
330
A
100
AcDbSymbolTableRecord
100
AcDbDimStyleTableRecord
  2
SLDDIMSTYLE0
 70
     0
 41
3.302
 44
0.0
 45
0.000000001
 73
     0
 74
     0
 77
     1
 78
    12
 79
     3
140
3.5
143
0.0393700787401575
147
0.875
148
0.000000001
170
     1
172
     1
173
     1
178
     0
271
     2
272
     2
276
     2
284
    12
289
     0
340
94
  0
DIMSTYLE
105
109
330
A
100
AcDbSymbolTableRecord
100
AcDbDimStyleTableRecord
  2
SLDDIMSTYLE1
 70
     0
 41
3.302
 44
0.0
 45
0.000000001
 73
     0
 74
     0
 77
     1
 78
     4
 79
     1
140
3.5
143
0.0393700787401575
147
0.875
148
0.000000001
170
     1
172
     1
173
     1
178
     0
271
     2
272
     2
276
     2
284
    12
289
     0
340
94
  0
DIMSTYLE
105
11F
330
A
100
AcDbSymbolTableRecord
100
AcDbDimStyleTableRecord
  2
SLDDIMSTYLE2
 70
     0
 41
3.302
 44
0.0
 45
0.000000001
 73
     0
 74
     0
 77
     1
 78
    12
 79
     3
140
3.5
143
0.0393700787401575
147
0.875
148
0.000000001
170
     1
173
     1
178
     0
271
     2
272
     2
276
     2
284
    12
340
94
  0
ENDTAB
  0
TABLE
  2
BLOCK_RECORD
  5
1
330
0
100
AcDbSymbolTable
 70
    19
  0
BLOCK_RECORD
  5
1F
330
1
100
AcDbSymbolTableRecord
100
AcDbBlockTableRecord
  2
*Model_Space
340
22
  0
BLOCK_RECORD
  5
1B
330
1
100
AcDbSymbolTableRecord
100
AcDbBlockTableRecord
  2
*Paper_Space
340
1E
  0
BLOCK_RECORD
  5
23
330
1
100
AcDbSymbolTableRecord
100
AcDbBlockTableRecord
  2
*Paper_Space0
340
26
  0
BLOCK_RECORD
  5
7F
330
1
100
AcDbSymbolTableRecord
100
AcDbBlockTableRecord
  2
블럭10
340
0
102
{BLKREFS
331
D8
102
}
  0
BLOCK_RECORD
  5
E1
330
1
100
AcDbSymbolTableRecord
100
AcDbBlockTableRecord
  2
_D
340
0
  0
BLOCK_RECORD
  5
F5
330
1
100
AcDbSymbolTableRecord
100
AcDbBlockTableRecord
  2
_D_1
340
0
  0
BLOCK_RECORD
  5
10A
330
1
100
AcDbSymbolTableRecord
100
AcDbBlockTableRecord
  2
_D_2
340
0
  0
BLOCK_RECORD
  5
120
330
1
100
AcDbSymbolTableRecord
100
AcDbBlockTableRecord
  2
_D_3
340
0
  0
BLOCK_RECORD
  5
139
330
1
100
AcDbSymbolTableRecord
100
AcDbBlockTableRecord
  2
SW_DOWELSYMBOL_0
340
0
102
{BLKREFS
331
0
331
201
331
25D
102
}
  0
BLOCK_RECORD
  5
1C8
330
1
100
AcDbSymbolTableRecord
100
AcDbBlockTableRecord
  2
*D8
340
0
  0
BLOCK_RECORD
  5
1D5
330
1
100
AcDbSymbolTableRecord
100
AcDbBlockTableRecord
  2
*D9
340
0
  0
BLOCK_RECORD
  5
1E5
330
1
100
AcDbSymbolTableRecord
100
AcDbBlockTableRecord
  2
*D10
340
0
  0
BLOCK_RECORD
  5
1F5
330
1
100
AcDbSymbolTableRecord
100
AcDbBlockTableRecord
  2
*D11
340
0
  0
BLOCK_RECORD
  5
212
330
1
100
AcDbSymbolTableRecord
100
AcDbBlockTableRecord
  2
*D12
340
0
  0
BLOCK_RECORD
  5
269
330
1
100
AcDbSymbolTableRecord
100
AcDbBlockTableRecord
  2
*D13
340
0
  0
BLOCK_RECORD
  5
275
330
1
100
AcDbSymbolTableRecord
100
AcDbBlockTableRecord
  2
*D14
340
0
  0
BLOCK_RECORD
  5
284
330
1
100
AcDbSymbolTableRecord
100
AcDbBlockTableRecord
  2
*D15
340
0
  0
BLOCK_RECORD
  5
293
330
1
100
AcDbSymbolTableRecord
100
AcDbBlockTableRecord
  2
*D16
340
0
  0
BLOCK_RECORD
  5
29F
330
1
100
AcDbSymbolTableRecord
100
AcDbBlockTableRecord
  2
*D17
340
0
  0
BLOCK_RECORD
  5
2B2
330
1
100
AcDbSymbolTableRecord
100
AcDbBlockTableRecord
  2
*D18
340
0
  0
ENDTAB
  0
ENDSEC
  0
SECTION
  2
BLOCKS
  0
BLOCK
  5
20
330
1F
100
AcDbEntity
  8
0
100
AcDbBlockBegin
  2
*Model_Space
 70
     0
 10
0.0
 20
0.0
 30
0.0
  3
*Model_Space
  1
*Model_Space
  0
ENDBLK
  5
21
330
1F
100
AcDbEntity
  8
0
100
AcDbBlockEnd
  0
BLOCK
  5
1C
330
1B
100
AcDbEntity
 67
     1
  8
0
100
AcDbBlockBegin
  2
*Paper_Space
 70
     0
 10
0.0
 20
0.0
 30
0.0
  3
*Paper_Space
  1
*Paper_Space
  0
ENDBLK
  5
1D
330
1B
100
AcDbEntity
 67
     1
  8
0
100
AcDbBlockEnd
  0
BLOCK
  5
24
330
23
100
AcDbEntity
  8
0
100
AcDbBlockBegin
  2
*Paper_Space0
 70
     0
 10
0.0
 20
0.0
 30
0.0
  3
*Paper_Space0
  1
*Paper_Space0
  0
ENDBLK
  5
25
330
23
100
AcDbEntity
  8
0
100
AcDbBlockEnd
  0
BLOCK
  5
80
330
7F
100
AcDbEntity
  8
0
100
AcDbBlockBegin
  2
블럭10
 70
     2
 10
0.0
 20
0.0
 30
0.0
  3
블럭10
  1
블럭10
  0
ELLIPSE
  5
82
330
7F
100
AcDbEntity
  8
중심선
100
AcDbEllipse
 10
20.54032771741204
 20
12.0471743016438
 30
0.0
 11
6.600054785286829
 21
-1.261213355974178E-13
 31
0.0
210
0.0
220
0.0
230
1.0
 40
0.636358354079598
 41
0.9219305317359503
 42
6.513795318482858
  0
ELLIPSE
  5
83
330
7F
100
AcDbEntity
  8
중심선
100
AcDbEllipse
 10
20.54032771746488
 20
12.04717430159265
 30
0.0
 11
3.960054785062283
 21
1.540847449632565E-10
 31
0.0
210
0.0
220
0.0
230
1.0
 40
0.3939339440162632
 41
1.131841032648279
 42
5.62031148352944
  0
LINE
  5
84
330
7F
100
AcDbEntity
  8
중심선
100
AcDbLine
 10
2.268634060543552
 20
16.24717430164393
 30
0.0
 11
5.714909304380834
 21
16.24717430164393
 31
0.0
  0
LINE
  5
85
330
7F
100
AcDbEntity
  8
중심선
100
AcDbLine
 10
5.245725140726316
 20
7.84717430164391
 30
0.0
 11
8.692000384563599
 21
7.84717430164391
 31
0.0
  0
LINE
  5
86
330
7F
100
AcDbEntity
  8
중심선
100
AcDbLine
 10
15.74043728645272
 20
16.24717430164393
 30
0.0
 11
8.692000384563599
 21
7.84717430164391
 31
0.0
  0
LINE
  5
87
330
7F
100
AcDbEntity
  8
중심선
100
AcDbLine
 10
0.1404042013395286
 20
13.71084872107135
 30
0.0
 11
3.58671253028996
 21
13.71088815037384
 31
0.0
  0
LINE
  5
88
330
7F
100
AcDbEntity
  8
중심선
100
AcDbLine
 10
2.750260043222114
 20
10.84717430164391
 30
0.0
 11
6.196535287059397
 21
10.84717430164391
 31
0.0
  0
LINE
  5
89
330
7F
100
AcDbEntity
  8
중심선
100
AcDbLine
 10
12.29416204261559
 20
16.24717430164393
 30
0.0
 11
5.245725140726316
 21
7.84717430164391
 31
0.0
  0
LINE
  5
8A
330
7F
100
AcDbEntity
  8
중심선
100
AcDbLine
 10
10.72767329541681
 20
16.24717430164393
 30
0.0
 11
6.196535287059397
 21
10.84717430164391
 31
0.0
  0
LINE
  5
8B
330
7F
100
AcDbEntity
  8
중심선
100
AcDbLine
 10
7.28139805157953
 20
16.24717430164393
 30
0.0
 11
2.750260043222114
 21
10.84717430164391
 31
0.0
  0
LINE
  5
8C
330
7F
100
AcDbEntity
  8
중심선
100
AcDbLine
 10
5.714909304380834
 20
16.24717430164393
 30
0.0
 11
3.58671253028996
 21
13.71088815037384
 31
0.0
  0
LINE
  5
8D
330
7F
100
AcDbEntity
  8
중심선
100
AcDbLine
 10
2.268634060543552
 20
16.24717430164393
 30
0.0
 11
0.1404042013395286
 21
13.71084872107135
 31
0.0
  0
LINE
  5
8E
330
7F
100
AcDbEntity
  8
중심선
100
AcDbLine
 10
7.28139805157953
 20
16.24717430164393
 30
0.0
 11
10.72767329541681
 21
16.24717430164393
 31
0.0
  0
LINE
  5
8F
330
7F
100
AcDbEntity
  8
중심선
100
AcDbLine
 10
12.29416204261559
 20
16.24717430164393
 30
0.0
 11
15.74043728645272
 21
16.24717430164393
 31
0.0
  0
LINE
  5
90
330
7F
100
AcDbEntity
  8
중심선
100
AcDbLine
 10
19.22036997980202
 20
11.08717430171403
 30
0.0
 11
23.66174974927406
 21
11.08717430171406
 31
0.0
  0
LINE
  5
91
330
7F
100
AcDbEntity
  8
중심선
100
AcDbLine
 10
19.22039502424796
 20
13.00717430171391
 30
0.0
 11
19.22036997980202
 21
11.08717430171403
 31
0.0
  0
LINE
  5
92
330
7F
100
AcDbEntity
  8
중심선
100
AcDbLine
 10
19.22039502424796
 20
13.00717430171391
 30
0.0
 11
26.96566020931264
 21
13.00717430171391
 31
0.0
  0
LINE
  5
93
330
7F
100
AcDbEntity
  8
중심선
100
AcDbLine
 10
22.22332737316547
 20
13.45928029700563
 30
0.0
 11
24.52862924686651
 21
15.39360700705356
 31
0.0
  0
ATTDEF
  5
95
330
7F
100
AcDbEntity
  8
FORMAT
 62
     2
100
AcDbText
 10
3.448148490846466
 20
2.075366912832191
 30
0.0
 40
4.233333333333333
  1
EM637902
 41
0.75
  7
SLDTEXTSTYLE0
 11
3.448148490846466
 21
-0.0412997538344756
 31
0.0
100
AcDbAttributeDefinition
  3

  2
AUTOATTR0
 70
     0
 74
     1
  0
ENDBLK
  5
81
330
7F
100
AcDbEntity
  8
0
100
AcDbBlockEnd
  0
BLOCK
  5
E2
330
E1
100
AcDbEntity
  8
0
100
AcDbBlockBegin
  2
_D
 70
     0
 10
0.0
 20
0.0
 30
0.0
  3
_D
  1
_D
  0
SOLID
  5
E4
330
E1
100
AcDbEntity
  8
치수문자_일반주서
100
AcDbTrace
 10
-47.14
 20
3.176074928723876
 30
0.0
 11
-46.632
 21
6.478074928723876
 31
0.0
 12
-47.648
 22
6.478074928723876
 32
0.0
 13
-47.648
 23
6.478074928723876
 33
0.0
  0
SOLID
  5
E5
330
E1
100
AcDbEntity
  8
치수문자_일반주서
100
AcDbTrace
 10
-47.14
 20
-3.173925071276119
 30
0.0
 11
-47.648
 21
-6.475925071276118
 31
0.0
 12
-46.632
 22
-6.475925071276118
 32
0.0
 13
-46.632
 23
-6.475925071276118
 33
0.0
  0
LINE
  5
E6
330
E1
100
AcDbEntity
  8
치수문자_일반주서
100
AcDbLine
 10
-57.93288171604273
 20
-5.413291502344828
 30
0.0
 11
-57.93288171604272
 21
-6.124228987909328
 31
0.0
  0
LINE
  5
E7
330
E1
100
AcDbEntity
  8
치수문자_일반주서
100
AcDbLine
 10
-57.93288171604272
 20
-6.124228987909328
 30
0.0
 11
-52.37663172498342
 21
-6.124228987909289
 31
0.0
  0
LINE
  5
E8
330
E1
100
AcDbEntity
  8
치수문자_일반주서
100
AcDbLine
 10
-52.37663172498342
 20
-6.124228987909289
 30
0.0
 11
-52.37663172498343
 21
-5.413291502344789
 31
0.0
  0
LINE
  5
E9
330
E1
100
AcDbEntity
  8
치수문자_일반주서
100
AcDbLine
 10
-57.9328817160428
 20
5.41544135979243
 30
0.0
 11
-57.93288171604281
 21
6.12637884535693
 31
0.0
  0
LINE
  5
EA
330
E1
100
AcDbEntity
  8
치수문자_일반주서
100
AcDbLine
 10
-57.93288171604281
 20
6.12637884535693
 30
0.0
 11
-52.3766317249835
 21
6.126378845356969
 31
0.0
  0
LINE
  5
EB
330
E1
100
AcDbEntity
  8
치수문자_일반주서
100
AcDbLine
 10
-52.3766317249835
 20
6.126378845356969
 30
0.0
 11
-52.3766317249835
 21
5.415441359792469
 31
0.0
  0
LINE
  5
EC
330
E1
100
AcDbEntity
  8
치수문자_일반주서
100
AcDbLine
 10
-34.64
 20
3.176074928723876
 30
0.0
 11
-48.14
 21
3.176074928723876
 31
0.0
  0
LINE
  5
ED
330
E1
100
AcDbEntity
  8
치수문자_일반주서
100
AcDbLine
 10
-34.64
 20
-3.173925071276118
 30
0.0
 11
-48.14
 21
-3.173925071276119
 31
0.0
  0
LINE
  5
EE
330
E1
100
AcDbEntity
  8
치수문자_일반주서
100
AcDbLine
 10
-47.14
 20
3.176074928723876
 30
0.0
 11
-47.14
 21
9.526074928723874
 31
0.0
  0
LINE
  5
EF
330
E1
100
AcDbEntity
  8
치수문자_일반주서
100
AcDbLine
 10
-47.14
 20
3.176074928723876
 30
0.0
 11
-47.14
 21
-3.173925071276119
 31
0.0
  0
LINE
  5
F0
330
E1
100
AcDbEntity
  8
치수문자_일반주서
100
AcDbLine
 10
-47.14
 20
-3.173925071276119
 30
0.0
 11
-47.14
 21
-9.52392507127612
 31
0.0
  0
MTEXT
  5
F1
330
E1
100
AcDbEntity
  8
치수문자_일반주서
100
AcDbMText
 10
-56.88836863956232
 20
-4.52461960173345
 30
0.0
 40
3.5
 41
0.0
 71
     1
 72
     1
  1
0.25
  7
SLDTEXTSTYLE0
 11
-7.044195017643634E-15
 21
1.0
 31
0.0
 73
     1
 44
1.0
  0
MTEXT
  5
F2
330
E1
100
AcDbEntity
  8
치수문자_일반주서
100
AcDbMText
 10
-51.65173708920184
 20
-7.163838766581741
 30
0.0
 40
3.5
 41
0.0
 71
     1
 72
     1
  1
%%c
  7
SLDTEXTSTYLE0
 11
-7.044195017643634E-15
 21
1.0
 31
0.0
 73
     1
 44
1.0
  0
MTEXT
  5
F3
330
E1
100
AcDbEntity
  8
치수문자_일반주서
100
AcDbMText
 10
-51.65173708920187
 20
-1.88540136820766
 30
0.0
 40
3.5
 41
0.0
 71
     1
 72
     1
  1
6.35
  7
SLDTEXTSTYLE0
 11
-7.044195017643634E-15
 21
1.0
 31
0.0
 73
     1
 44
1.0
  0
ENDBLK
  5
E3
330
E1
100
AcDbEntity
  8
0
100
AcDbBlockEnd
  0
BLOCK
  5
F6
330
F5
100
AcDbEntity
  8
0
100
AcDbBlockBegin
  2
_D_1
 70
     0
 10
0.0
 20
0.0
 30
0.0
  3
_D_1
  1
_D_1
  0
SOLID
  5
F8
330
F5
100
AcDbEntity
  8
치수문자_일반주서
100
AcDbTrace
 10
49.45641258506883
 20
1.588574928723892
 30
0.0
 11
49.96441258506884
 21
4.890574928723892
 31
0.0
 12
48.94841258506883
 22
4.890574928723892
 32
0.0
 13
48.94841258506883
 23
4.890574928723892
 33
0.0
  0
SOLID
  5
F9
330
F5
100
AcDbEntity
  8
치수문자_일반주서
100
AcDbTrace
 10
49.45641258506883
 20
-1.58642507127611
 30
0.0
 11
48.94841258506883
 21
-4.88842507127611
 31
0.0
 12
49.96441258506884
 22
-4.88842507127611
 32
0.0
 13
49.96441258506884
 23
-4.88842507127611
 33
0.0
  0
LINE
  5
FA
330
F5
100
AcDbEntity
  8
치수문자_일반주서
100
AcDbLine
 10
38.66353086902613
 20
1.184321277829294
 30
0.0
 11
38.66353086902614
 21
0.4733837922647943
 31
0.0
  0
LINE
  5
FB
330
F5
100
AcDbEntity
  8
치수문자_일반주서
100
AcDbLine
 10
38.66353086902614
 20
0.4733837922647943
 30
0.0
 11
44.21978086008544
 21
0.4733837922648335
 31
0.0
  0
LINE
  5
FC
330
F5
100
AcDbEntity
  8
치수문자_일반주서
100
AcDbLine
 10
44.21978086008544
 20
0.4733837922648335
 30
0.0
 11
44.21978086008544
 21
1.184321277829333
 31
0.0
  0
LINE
  5
FD
330
F5
100
AcDbEntity
  8
치수문자_일반주서
100
AcDbLine
 10
38.66353086902606
 20
12.01305413996655
 30
0.0
 11
38.66353086902605
 21
12.72399162553105
 31
0.0
  0
LINE
  5
FE
330
F5
100
AcDbEntity
  8
치수문자_일반주서
100
AcDbLine
 10
38.66353086902605
 20
12.72399162553105
 30
0.0
 11
44.21978086008536
 21
12.72399162553109
 31
0.0
  0
LINE
  5
FF
330
F5
100
AcDbEntity
  8
치수문자_일반주서
100
AcDbLine
 10
44.21978086008536
 20
12.72399162553109
 30
0.0
 11
44.21978086008536
 21
12.01305413996659
 31
0.0
  0
LINE
  5
100
330
F5
100
AcDbEntity
  8
치수문자_일반주서
100
AcDbLine
 10
15.9440896545906
 20
1.588574928723894
 30
0.0
 11
50.45641258506883
 21
1.588574928723892
 31
0.0
  0
LINE
  5
101
330
F5
100
AcDbEntity
  8
치수문자_일반주서
100
AcDbLine
 10
15.9440896545906
 20
-1.586425071276108
 30
0.0
 11
50.45641258506883
 21
-1.58642507127611
 31
0.0
  0
LINE
  5
102
330
F5
100
AcDbEntity
  8
치수문자_일반주서
100
AcDbLine
 10
49.45641258506883
 20
1.588574928723892
 30
0.0
 11
49.45641258506883
 21
13.7636014042036
 31
0.0
  0
LINE
  5
103
330
F5
100
AcDbEntity
  8
치수문자_일반주서
100
AcDbLine
 10
49.45641258506883
 20
1.588574928723892
 30
0.0
 11
49.45641258506883
 21
-1.58642507127611
 31
0.0
  0
LINE
  5
104
330
F5
100
AcDbEntity
  8
치수문자_일반주서
100
AcDbLine
 10
49.45641258506883
 20
-1.58642507127611
 30
0.0
 11
49.45641258506883
 21
-7.93642507127611
 31
0.0
  0
MTEXT
  5
105
330
F5
100
AcDbEntity
  8
치수문자_일반주서
100
AcDbMText
 10
39.70804394550654
 20
2.072993178440673
 30
0.0
 40
3.5
 41
0.0
 71
     1
 72
     1
  1
0.13
  7
SLDTEXTSTYLE0
 11
-7.044195017643634E-15
 21
1.0
 31
0.0
 73
     1
 44
1.0
  0
MTEXT
  5
106
330
F5
100
AcDbEntity
  8
치수문자_일반주서
100
AcDbMText
 10
44.94467549586702
 20
-0.5662259864076179
 30
0.0
 40
3.5
 41
0.0
 71
     1
 72
     1
  1
%%c
  7
SLDTEXTSTYLE0
 11
-7.044195017643634E-15
 21
1.0
 31
0.0
 73
     1
 44
1.0
  0
MTEXT
  5
107
330
F5
100
AcDbEntity
  8
치수문자_일반주서
100
AcDbMText
 10
44.94467549586699
 20
4.712211411966462
 30
0.0
 40
3.5
 41
0.0
 71
     1
 72
     1
  1
3.18
  7
SLDTEXTSTYLE0
 11
-7.044195017643634E-15
 21
1.0
 31
0.0
 73
     1
 44
1.0
  0
ENDBLK
  5
F7
330
F5
100
AcDbEntity
  8
0
100
AcDbBlockEnd
  0
BLOCK
  5
10B
330
10A
100
AcDbEntity
  8
0
100
AcDbBlockBegin
  2
_D_2
 70
     0
 10
0.0
 20
0.0
 30
0.0
  3
_D_2
  1
_D_2
  0
SOLID
  5
10D
330
10A
100
AcDbEntity
  8
치수문자_일반주서
100
AcDbTrace
 10
22.69999999999999
 20
12.08505048907218
 30
0.0
 11
26.00199999999999
 21
11.57705048907219
 31
0.0
 12
26.00199999999999
 22
12.59305048907219
 32
0.0
 13
26.00199999999999
 23
12.59305048907219
 33
0.0
  0
SOLID
  5
10E
330
10A
100
AcDbEntity
  8
치수문자_일반주서
100
AcDbTrace
 10
9.999999999999998
 20
12.08505048907216
 30
0.0
 11
6.697999999999998
 21
12.59305048907215
 31
0.0
 12
6.698
 22
11.57705048907215
 32
0.0
 13
6.698
 23
11.57705048907215
 33
0.0
  0
LINE
  5
10F
330
10A
100
AcDbEntity
  8
치수문자_일반주서
100
AcDbLine
 10
10.96233742504367
 20
22.87793220511495
 30
0.0
 11
10.25139993947917
 21
22.87793220511494
 31
0.0
  0
LINE
  5
110
330
10A
100
AcDbEntity
  8
치수문자_일반주서
100
AcDbLine
 10
10.25139993947917
 20
22.87793220511494
 30
0.0
 11
10.25139993947921
 21
17.32168221405564
 31
0.0
  0
LINE
  5
111
330
10A
100
AcDbEntity
  8
치수문자_일반주서
100
AcDbLine
 10
10.25139993947921
 20
17.32168221405564
 30
0.0
 11
10.96233742504371
 21
17.32168221405565
 31
0.0
  0
LINE
  5
112
330
10A
100
AcDbEntity
  8
치수문자_일반주서
100
AcDbLine
 10
21.79107028718093
 20
22.87793220511505
 30
0.0
 11
22.50200777274543
 21
22.87793220511506
 31
0.0
  0
LINE
  5
113
330
10A
100
AcDbEntity
  8
치수문자_일반주서
100
AcDbLine
 10
22.50200777274543
 20
22.87793220511506
 30
0.0
 11
22.50200777274547
 21
17.32168221405575
 31
0.0
  0
LINE
  5
114
330
10A
100
AcDbEntity
  8
치수문자_일반주서
100
AcDbLine
 10
22.50200777274547
 20
17.32168221405575
 30
0.0
 11
21.79107028718097
 21
17.32168221405574
 31
0.0
  0
LINE
  5
115
330
10A
100
AcDbEntity
  8
치수문자_일반주서
100
AcDbLine
 10
22.70000000000001
 20
2.112324928723894
 30
0.0
 11
22.69999999999999
 21
13.08505048907218
 31
0.0
  0
LINE
  5
116
330
10A
100
AcDbEntity
  8
치수문자_일반주서
100
AcDbLine
 10
10.00000000000002
 20
2.265491372658009
 30
0.0
 11
9.999999999999996
 21
13.08505048907216
 31
0.0
  0
LINE
  5
117
330
10A
100
AcDbEntity
  8
치수문자_일반주서
100
AcDbLine
 10
22.69999999999999
 20
12.08505048907218
 30
0.0
 11
29.04999999999999
 21
12.0850504890722
 31
0.0
  0
LINE
  5
118
330
10A
100
AcDbEntity
  8
치수문자_일반주서
100
AcDbLine
 10
22.69999999999999
 20
12.08505048907218
 30
0.0
 11
9.999999999999998
 21
12.08505048907216
 31
0.0
  0
LINE
  5
119
330
10A
100
AcDbEntity
  8
치수문자_일반주서
100
AcDbLine
 10
9.999999999999998
 20
12.08505048907216
 30
0.0
 11
3.649999999999999
 21
12.08505048907215
 31
0.0
  0
MTEXT
  5
11A
330
10A
100
AcDbEntity
  8
치수문자_일반주서
100
AcDbMText
 10
9.737641213992525
 20
16.65025975493391
 30
0.0
 40
3.5
 41
0.0
 71
     1
 72
     1
  1

  7
SLDTEXTSTYLE0
 73
     1
 44
1.0
  0
MTEXT
  5
11B
330
10A
100
AcDbEntity
  8
치수문자_일반주서
100
AcDbMText
 10
11.85100932565505
 20
21.83341912863455
 30
0.0
 40
3.5
 41
0.0
 71
     1
 72
     1
  1
0.50
  7
SLDTEXTSTYLE0
 73
     1
 44
1.0
  0
MTEXT
  5
11C
330
10A
100
AcDbEntity
  8
치수문자_일반주서
100
AcDbMText
 10
10.55795361247836
 20
16.59678757827407
 30
0.0
 40
3.5
 41
0.0
 71
     1
 72
     1
  1
12.70
  7
SLDTEXTSTYLE0
 73
     1
 44
1.0
  0
MTEXT
  5
11D
330
10A
100
AcDbEntity
  8
치수문자_일반주서
100
AcDbMText
 10
24.34771101788609
 20
16.65025975493404
 30
0.0
 40
3.5
 41
0.0
 71
     1
 72
     1
  1

  7
SLDTEXTSTYLE0
 73
     1
 44
1.0
  0
ENDBLK
  5
10C
330
10A
100
AcDbEntity
  8
0
100
AcDbBlockEnd
  0
BLOCK
  5
121
330
120
100
AcDbEntity
  8
0
100
AcDbBlockBegin
  2
_D_3
 70
     0
 10
0.0
 20
0.0
 30
0.0
  3
_D_3
  1
_D_3
  0
SOLID
  5
123
330
120
100
AcDbEntity
  8
치수문자_일반주서
100
AcDbTrace
 10
22.70000000000001
 20
24.08505048907216
 30
0.0
 11
19.39800000000001
 21
24.59305048907216
 31
0.0
 12
19.39800000000001
 22
23.57705048907216
 32
0.0
 13
19.39800000000001
 23
23.57705048907216
 33
0.0
  0
SOLID
  5
124
330
120
100
AcDbEntity
  8
치수문자_일반주서
100
AcDbTrace
 10
-34.45
 20
24.08505048907216
 30
0.0
 11
-31.148
 21
23.57705048907216
 31
0.0
 12
-31.148
 22
24.59305048907216
 32
0.0
 13
-31.148
 23
24.59305048907216
 33
0.0
  0
LINE
  5
125
330
120
100
AcDbEntity
  8
치수문자_일반주서
100
AcDbLine
 10
-11.54653280399565
 20
34.87793220511488
 30
0.0
 11
-12.25747028956015
 21
34.87793220511489
 31
0.0
  0
LINE
  5
126
330
120
100
AcDbEntity
  8
치수문자_일반주서
100
AcDbLine
 10
-12.25747028956015
 20
34.87793220511489
 30
0.0
 11
-12.25747028956019
 21
29.32168221405559
 31
0.0
  0
LINE
  5
127
330
120
100
AcDbEntity
  8
치수문자_일반주서
100
AcDbLine
 10
-12.25747028956019
 20
29.32168221405559
 30
0.0
 11
-11.54653280399569
 21
29.32168221405558
 31
0.0
  0
LINE
  5
128
330
120
100
AcDbEntity
  8
치수문자_일반주서
100
AcDbLine
 10
-0.7177999418583915
 20
34.87793220511481
 30
0.0
 11
-0.0068624562938914
 21
34.8779322051148
 31
0.0
  0
LINE
  5
129
330
120
100
AcDbEntity
  8
치수문자_일반주서
100
AcDbLine
 10
-0.0068624562938914
 20
34.8779322051148
 30
0.0
 11
-0.0068624562939309
 21
29.3216822140555
 31
0.0
  0
LINE
  5
12A
330
120
100
AcDbEntity
  8
치수문자_일반주서
100
AcDbLine
 10
-0.0068624562939309
 20
29.3216822140555
 30
0.0
 11
-0.717799941858431
 21
29.3216822140555
 31
0.0
  0
LINE
  5
12B
330
120
100
AcDbEntity
  8
치수문자_일반주서
100
AcDbLine
 10
22.70000000000001
 20
2.112324928723894
 30
0.0
 11
22.70000000000001
 21
25.08505048907216
 31
0.0
  0
LINE
  5
12C
330
120
100
AcDbEntity
  8
치수문자_일반주서
100
AcDbLine
 10
-34.45
 20
3.366074928723888
 30
0.0
 11
-34.45
 21
25.08505048907216
 31
0.0
  0
LINE
  5
12D
330
120
100
AcDbEntity
  8
치수문자_일반주서
100
AcDbLine
 10
22.70000000000001
 20
24.08505048907216
 30
0.0
 11
-34.45
 21
24.08505048907216
 31
0.0
  0
MTEXT
  5
12E
330
120
100
AcDbEntity
  8
치수문자_일반주서
100
AcDbMText
 10
-12.77122901504689
 20
28.65025975493387
 30
0.0
 40
3.5
 41
0.0
 71
     1
 72
     1
  1

  7
SLDTEXTSTYLE0
 73
     1
 44
1.0
  0
MTEXT
  5
12F
330
120
100
AcDbEntity
  8
치수문자_일반주서
100
AcDbMText
 10
-10.65786090338429
 20
33.83341912863447
 30
0.0
 40
3.5
 41
0.0
 71
     1
 72
     1
  1
2.25
  7
SLDTEXTSTYLE0
 73
     1
 44
1.0
  0
MTEXT
  5
130
330
120
100
AcDbEntity
  8
치수문자_일반주서
100
AcDbMText
 10
-11.95091661656105
 20
28.59678757827401
 30
0.0
 40
3.5
 41
0.0
 71
     1
 72
     1
  1
57.15
  7
SLDTEXTSTYLE0
 73
     1
 44
1.0
  0
MTEXT
  5
131
330
120
100
AcDbEntity
  8
치수문자_일반주서
100
AcDbMText
 10
1.838840788846676
 20
28.65025975493377
 30
0.0
 40
3.5
 41
0.0
 71
     1
 72
     1
  1

  7
SLDTEXTSTYLE0
 73
     1
 44
1.0
  0
ENDBLK
  5
122
330
120
100
AcDbEntity
  8
0
100
AcDbBlockEnd
  0
BLOCK
  5
13A
330
139
100
AcDbEntity
  8
0
100
AcDbBlockBegin
  2
SW_DOWELSYMBOL_0
 70
     0
 10
0.0
 20
0.0
 30
0.0
  3
SW_DOWELSYMBOL_0
  1
SW_DOWELSYMBOL_0
  0
CIRCLE
  5
13C
330
139
100
AcDbEntity
  8
해칭선
 62
     0
100
AcDbCircle
 10
0.0
 20
0.0
 30
0.0
 40
3.000000000000002
  0
HATCH
  5
13D
330
139
100
AcDbEntity
  8
0
  6
Continuous
 62
     0
370
     0
100
AcDbHatch
 10
0.0
 20
0.0
 30
0.0
210
0.0
220
0.0
230
1.0
  2
SOLID
 70
     1
 71
     0
 91
        1
 92
        0
 93
        3
 72
     2
 10
0.0000000000000069
 20
0.0
 40
3.000000000000002
 50
0.0
 51
90.0
 73
     1
 72
     1
 10
0.0000000000000069
 20
3.000000000000002
 11
0.0000000000000069
 21
0.0
 72
     1
 10
0.0000000000000069
 20
0.0
 11
3.000000000000009
 21
0.0
 97
        0
 75
     0
 76
     1
 98
        1
 10
0.0
 20
0.0
  0
HATCH
  5
13E
330
139
100
AcDbEntity
  8
0
  6
Continuous
 62
     0
370
     0
100
AcDbHatch
 10
0.0
 20
0.0
 30
0.0
210
0.0
220
0.0
230
1.0
  2
SOLID
 70
     1
 71
     0
 91
        1
 92
        0
 93
        3
 72
     2
 10
0.0000000000000069
 20
0.0
 40
3.000000000000002
 50
180.0
 51
270.0000000000008
 73
     1
 72
     1
 10
0.0000000000000069
 20
-3.000000000000002
 11
0.0000000000000069
 21
0.0
 72
     1
 10
0.0000000000000069
 20
0.0
 11
-2.999999999999995
 21
0.0
 97
        0
 75
     0
 76
     1
 98
        1
 10
0.0
 20
0.0
  0
ENDBLK
  5
13B
330
139
100
AcDbEntity
  8
0
100
AcDbBlockEnd
  0
BLOCK
  5
1C9
330
1C8
100
AcDbEntity
  8
0
100
AcDbBlockBegin
  2
*D8
 70
     1
 10
0.0
 20
0.0
 30
0.0
  3
*D8
  1
*D8
  0
LINE
  5
1CA
330
1C8
100
AcDbEntity
  8
치수문자_일반주서
 62
     0
370
    -2
100
AcDbLine
 10
17.81250000000004
 20
33.15397882670416
 30
0.0
 11
4.375000000000025
 21
33.15397882670411
 31
0.0
  0
LINE
  5
1CB
330
1C8
100
AcDbEntity
  8
치수문자_일반주서
 62
     0
370
    -2
100
AcDbLine
 10
17.81250000000004
 20
26.80397882670417
 30
0.0
 11
4.375000000000047
 21
26.80397882670412
 31
0.0
  0
LINE
  5
1CC
330
1C8
100
AcDbEntity
  8
치수문자_일반주서
 62
     0
370
    -2
100
AcDbLine
 10
4.375000000000036
 20
29.85197882670411
 30
0.0
 11
4.375000000000036
 21
30.10597882670412
 31
0.0
  0
SOLID
  5
1CD
330
1C8
100
AcDbEntity
  8
치수문자_일반주서
 62
     0
100
AcDbTrace
 10
4.92533333333337
 20
29.85197882670412
 30
0.0
 11
3.824666666666703
 21
29.85197882670411
 31
0.0
 12
4.375000000000025
 22
33.15397882670411
 32
0.0
 13
4.375000000000025
 23
33.15397882670411
 33
0.0
  0
SOLID
  5
1CE
330
1C8
100
AcDbEntity
  8
치수문자_일반주서
 62
     0
100
AcDbTrace
 10
3.824666666666702
 20
30.10597882670411
 30
0.0
 11
4.925333333333369
 21
30.10597882670412
 31
0.0
 12
4.375000000000047
 22
26.80397882670412
 32
0.0
 13
4.375000000000047
 23
26.80397882670412
 33
0.0
  0
MTEXT
  5
1CF
330
1C8
100
AcDbEntity
  8
치수문자_일반주서
 62
     0
100
AcDbMText
 10
0.0000000000000355
 20
29.97897882670415
 30
0.0
 40
3.5
 41
0.0
 71
     2
 72
     1
  1
\A1;%%c6.35 [1/4]
  7
SLDTEXTSTYLE0
 11
-3.496765431890260E-15
 21
1.0
 31
0.0
 73
     1
 44
1.0
  0
POINT
  5
1D0
330
1C8
100
AcDbEntity
  8
Defpoints
 62
     0
100
AcDbPoint
 10
17.87500000000004
 20
33.15397882670416
 30
0.0
  0
POINT
  5
1D1
330
1C8
100
AcDbEntity
  8
Defpoints
 62
     0
100
AcDbPoint
 10
17.87500000000004
 20
26.80397882670417
 30
0.0
  0
POINT
  5
1D2
330
1C8
100
AcDbEntity
  8
Defpoints
 62
     0
100
AcDbPoint
 10
4.37500000000005
 20
26.80397882670412
 30
0.0
  0
ENDBLK
  5
1D3
330
1C8
100
AcDbEntity
  8
0
100
AcDbBlockEnd
  0
BLOCK
  5
1D6
330
1D5
100
AcDbEntity
  8
0
100
AcDbBlockBegin
  2
*D9
 70
     1
 10
0.0
 20
0.0
 30
0.0
  3
*D9
  1
*D9
  0
LINE
  5
1D7
330
1D5
100
AcDbEntity
  8
치수문자_일반주서
 62
     0
370
    -2
100
AcDbLine
 10
74.27750000000003
 20
31.56647882670418
 30
0.0
 11
88.56686652211077
 21
31.56647882670424
 31
0.0
  0
LINE
  5
1D8
330
1D5
100
AcDbEntity
  8
치수문자_일반주서
 62
     0
370
    -2
100
AcDbLine
 10
74.27750000000003
 20
28.39147882670418
 30
0.0
 11
88.56686652211079
 21
28.39147882670423
 31
0.0
  0
LINE
  5
1D9
330
1D5
100
AcDbEntity
  8
치수문자_일반주서
 62
     0
370
    -2
100
AcDbLine
 10
88.56686652211077
 20
31.56647882670424
 30
0.0
 11
88.56686652211062
 21
66.01371986763738
 31
0.0
  0
LINE
  5
1DA
330
1D5
100
AcDbEntity
  8
치수문자_일반주서
 62
     0
370
    -2
100
AcDbLine
 10
88.56686652211077
 20
31.56647882670424
 30
0.0
 11
88.56686652211079
 21
28.39147882670423
 31
0.0
  0
LINE
  5
1DB
330
1D5
100
AcDbEntity
  8
치수문자_일반주서
 62
     0
370
    -2
100
AcDbLine
 10
88.56686652211076
 20
34.86847882670423
 30
0.0
 11
88.56686652211074
 21
38.17047882670423
 31
0.0
  0
LINE
  5
1DC
330
1D5
100
AcDbEntity
  8
치수문자_일반주서
 62
     0
370
    -2
100
AcDbLine
 10
88.5668665221108
 20
25.08947882670423
 30
0.0
 11
88.56686652211081
 21
21.78747882670423
 31
0.0
  0
SOLID
  5
1DD
330
1D5
100
AcDbEntity
  8
치수문자_일반주서
 62
     0
100
AcDbTrace
 10
88.01653318877743
 20
34.86847882670423
 30
0.0
 11
89.11719985544408
 21
34.86847882670423
 31
0.0
 12
88.56686652211077
 22
31.56647882670424
 32
0.0
 13
88.56686652211077
 23
31.56647882670424
 33
0.0
  0
SOLID
  5
1DE
330
1D5
100
AcDbEntity
  8
치수문자_일반주서
 62
     0
100
AcDbTrace
 10
89.11719985544413
 20
25.08947882670424
 30
0.0
 11
88.01653318877747
 21
25.08947882670423
 31
0.0
 12
88.56686652211079
 22
28.39147882670423
 32
0.0
 13
88.56686652211079
 23
28.39147882670423
 33
0.0
  0
MTEXT
  5
1DF
330
1D5
100
AcDbEntity
  8
치수문자_일반주서
 62
     0
100
AcDbMText
 10
84.19186652211067
 20
53.76371986763736
 30
0.0
 40
3.5
 41
0.0
 71
     2
 72
     1
  1
\A1;%%c3.18 [1/8]
  7
SLDTEXTSTYLE0
 11
-4.475859752819522E-15
 21
1.0
 31
0.0
 73
     1
 44
1.0
  0
POINT
  5
1E0
330
1D5
100
AcDbEntity
  8
Defpoints
 62
     0
100
AcDbPoint
 10
74.21500000000003
 20
31.56647882670418
 30
0.0
  0
POINT
  5
1E1
330
1D5
100
AcDbEntity
  8
Defpoints
 62
     0
100
AcDbPoint
 10
74.21500000000003
 20
28.39147882670418
 30
0.0
  0
POINT
  5
1E2
330
1D5
100
AcDbEntity
  8
Defpoints
 62
     0
100
AcDbPoint
 10
88.56686652211079
 20
28.39147882670423
 30
0.0
  0
ENDBLK
  5
1E3
330
1D5
100
AcDbEntity
  8
0
100
AcDbBlockEnd
  0
BLOCK
  5
1E6
330
1E5
100
AcDbEntity
  8
0
100
AcDbBlockBegin
  2
*D10
 70
     1
 10
0.0
 20
0.0
 30
0.0
  3
*D10
  1
*D10
  0
LINE
  5
1E7
330
1E5
100
AcDbEntity
  8
치수문자_일반주서
 62
     0
370
    -2
100
AcDbLine
 10
74.21500000000003
 20
31.62897882670418
 30
0.0
 11
74.21500000000003
 21
40.70060572564913
 31
0.0
  0
LINE
  5
1E8
330
1E5
100
AcDbEntity
  8
치수문자_일반주서
 62
     0
370
    -2
100
AcDbLine
 10
61.51500000000005
 20
31.3058952706383
 30
0.0
 11
61.51500000000005
 21
40.70060572564913
 31
0.0
  0
LINE
  5
1E9
330
1E5
100
AcDbEntity
  8
치수문자_일반주서
 62
     0
370
    -2
100
AcDbLine
 10
61.51500000000005
 20
40.70060572564913
 30
0.0
 11
32.71287910182971
 21
40.70060572564913
 31
0.0
  0
LINE
  5
1EA
330
1E5
100
AcDbEntity
  8
치수문자_일반주서
 62
     0
370
    -2
100
AcDbLine
 10
74.21500000000003
 20
40.70060572564913
 30
0.0
 11
61.51500000000005
 21
40.70060572564913
 31
0.0
  0
LINE
  5
1EB
330
1E5
100
AcDbEntity
  8
치수문자_일반주서
 62
     0
370
    -2
100
AcDbLine
 10
77.51700000000002
 20
40.70060572564913
 30
0.0
 11
80.81900000000002
 21
40.70060572564913
 31
0.0
  0
LINE
  5
1EC
330
1E5
100
AcDbEntity
  8
치수문자_일반주서
 62
     0
370
    -2
100
AcDbLine
 10
58.21300000000005
 20
40.70060572564913
 30
0.0
 11
54.91100000000005
 21
40.70060572564913
 31
0.0
  0
SOLID
  5
1ED
330
1E5
100
AcDbEntity
  8
치수문자_일반주서
 62
     0
100
AcDbTrace
 10
77.51700000000002
 20
41.25093905898246
 30
0.0
 11
77.51700000000002
 21
40.15027239231579
 31
0.0
 12
74.21500000000003
 22
40.70060572564913
 32
0.0
 13
74.21500000000003
 23
40.70060572564913
 33
0.0
  0
SOLID
  5
1EE
330
1E5
100
AcDbEntity
  8
치수문자_일반주서
 62
     0
100
AcDbTrace
 10
58.21300000000005
 20
40.15027239231579
 30
0.0
 11
58.21300000000005
 21
41.25093905898246
 31
0.0
 12
61.51500000000005
 22
40.70060572564913
 32
0.0
 13
61.51500000000005
 23
40.70060572564913
 33
0.0
  0
MTEXT
  5
1EF
330
1E5
100
AcDbEntity
  8
치수문자_일반주서
 62
     0
100
AcDbMText
 10
43.65037910182971
 20
45.07560572564913
 30
0.0
 40
3.5
 41
0.0
 71
     2
 72
     1
  1
\A1;12.7 [1/2]
  7
SLDTEXTSTYLE0
 73
     1
 44
1.0
  0
POINT
  5
1F0
330
1E5
100
AcDbEntity
  8
Defpoints
 62
     0
100
AcDbPoint
 10
74.21500000000003
 20
31.56647882670418
 30
0.0
  0
POINT
  5
1F1
330
1E5
100
AcDbEntity
  8
Defpoints
 62
     0
100
AcDbPoint
 10
61.51500000000005
 20
31.2433952706383
 30
0.0
  0
POINT
  5
1F2
330
1E5
100
AcDbEntity
  8
Defpoints
 62
     0
100
AcDbPoint
 10
61.51500000000005
 20
40.70060572564913
 30
0.0
  0
ENDBLK
  5
1F3
330
1E5
100
AcDbEntity
  8
0
100
AcDbBlockEnd
  0
BLOCK
  5
1F6
330
1F5
100
AcDbEntity
  8
0
100
AcDbBlockBegin
  2
*D11
 70
     1
 10
0.0
 20
0.0
 30
0.0
  3
*D11
  1
*D11
  0
LINE
  5
1F7
330
1F5
100
AcDbEntity
  8
치수문자_일반주서
 62
     0
370
    -2
100
AcDbLine
 10
74.21500000000003
 20
31.62897882670418
 30
0.0
 11
74.21500000000003
 21
54.06295438705244
 31
0.0
  0
LINE
  5
1F8
330
1F5
100
AcDbEntity
  8
치수문자_일반주서
 62
     0
370
    -2
100
AcDbLine
 10
17.06500000000003
 20
32.40647882670417
 30
0.0
 11
17.06500000000003
 21
54.06295438705244
 31
0.0
  0
LINE
  5
1F9
330
1F5
100
AcDbEntity
  8
치수문자_일반주서
 62
     0
370
    -2
100
AcDbLine
 10
70.91300000000004
 20
54.06295438705244
 30
0.0
 11
20.36700000000003
 21
54.06295438705244
 31
0.0
  0
SOLID
  5
1FA
330
1F5
100
AcDbEntity
  8
치수문자_일반주서
 62
     0
100
AcDbTrace
 10
70.91300000000004
 20
53.5126210537191
 30
0.0
 11
70.91300000000004
 21
54.61328772038577
 31
0.0
 12
74.21500000000003
 22
54.06295438705244
 32
0.0
 13
74.21500000000003
 23
54.06295438705244
 33
0.0
  0
SOLID
  5
1FB
330
1F5
100
AcDbEntity
  8
치수문자_일반주서
 62
     0
100
AcDbTrace
 10
20.36700000000003
 20
54.61328772038577
 30
0.0
 11
20.36700000000003
 21
53.5126210537191
 31
0.0
 12
17.06500000000003
 22
54.06295438705244
 32
0.0
 13
17.06500000000003
 23
54.06295438705244
 33
0.0
  0
MTEXT
  5
1FC
330
1F5
100
AcDbEntity
  8
치수문자_일반주서
 62
     0
100
AcDbMText
 10
45.38283327782705
 20
58.43795438705244
 30
0.0
 40
3.5
 41
0.0
 71
     2
 72
     1
  1
\A1;57.15 [2 1/4]
  7
SLDTEXTSTYLE0
 73
     1
 44
1.0
  0
POINT
  5
1FD
330
1F5
100
AcDbEntity
  8
Defpoints
 62
     0
100
AcDbPoint
 10
74.21500000000003
 20
31.56647882670418
 30
0.0
  0
POINT
  5
1FE
330
1F5
100
AcDbEntity
  8
Defpoints
 62
     0
100
AcDbPoint
 10
17.06500000000003
 20
32.34397882670417
 30
0.0
  0
POINT
  5
1FF
330
1F5
100
AcDbEntity
  8
Defpoints
 62
     0
100
AcDbPoint
 10
17.06500000000003
 20
54.06295438705244
 30
0.0
  0
ENDBLK
  5
200
330
1F5
100
AcDbEntity
  8
0
100
AcDbBlockEnd
  0
BLOCK
  5
213
330
212
100
AcDbEntity
  8
0
100
AcDbBlockBegin
  2
*D12
 70
     1
 10
0.0
 20
0.0
 30
0.0
  3
*D12
  1
*D12
  0
LINE
  5
214
330
212
100
AcDbEntity
  8
치수문자_일반주서
 62
     0
370
    -2
100
AcDbLine
 10
75.81238369488618
 20
25.72403248054943
 30
0.0
 11
92.86792570297376
 21
0.0000000000000338
 31
0.0
  0
MTEXT
  5
215
330
212
100
AcDbEntity
  8
치수문자_일반주서
 62
     0
100
AcDbMText
 10
87.44029515533765
 20
12.93654912257779
 30
0.0
 40
3.5
 41
0.0
 71
     5
 72
     1
  1
\A1;R.51 [R0.020]
  7
SLDTEXTSTYLE0
 11
0.5525941456394103
 21
-0.8334504845550514
 31
0.0
 73
     1
 44
1.0
  0
LINE
  5
216
330
212
100
AcDbEntity
  8
치수문자_일반주서
 62
     0
370
    -2
100
AcDbLine
 10
73.70700000000002
 20
28.89947882670418
 30
0.0
 11
73.98771782598484
 21
28.47608598055021
 31
0.0
  0
SOLID
  5
217
330
212
100
AcDbEntity
  8
치수문자_일반주서
 62
     0
100
AcDbTrace
 10
76.27105927821964
 20
26.02814345869965
 30
0.0
 11
75.35370811155272
 21
25.41992150239921
 31
0.0
 12
73.98771782598484
 22
28.47608598055021
 32
0.0
 13
73.98771782598484
 23
28.47608598055021
 33
0.0
  0
POINT
  5
218
330
212
100
AcDbEntity
  8
Defpoints
 62
     0
100
AcDbPoint
 10
73.98771782598484
 20
28.47608598055021
 30
0.0
  0
POINT
  5
219
330
212
100
AcDbEntity
  8
Defpoints
 62
     0
100
AcDbPoint
 10
73.70700000000002
 20
28.89947882670418
 30
0.0
  0
ENDBLK
  5
21A
330
212
100
AcDbEntity
  8
0
100
AcDbBlockEnd
  0
BLOCK
  5
26A
330
269
100
AcDbEntity
  8
0
100
AcDbBlockBegin
  2
*D13
 70
     1
 10
0.0
 20
0.0
 30
0.0
  3
*D13
  1
*D13
  0
LINE
  5
26C
330
269
100
AcDbEntity
  8
치수문자_일반주서
 62
     0
370
    -2
100
AcDbLine
 10
-34.77786934298445
 20
3.174999999999983
 30
0.0
 11
-48.21536934298445
 21
3.174999999999932
 31
0.0
  0
LINE
  5
26D
330
269
100
AcDbEntity
  8
치수문자_일반주서
 62
     0
370
    -2
100
AcDbLine
 10
-34.77786934298445
 20
-3.175000000000012
 30
0.0
 11
-48.21536934298443
 21
-3.175000000000062
 31
0.0
  0
LINE
  5
26E
330
269
100
AcDbEntity
  8
치수문자_일반주서
 62
     0
370
    -2
100
AcDbLine
 10
-48.21536934298444
 20
-0.1270000000000673
 30
0.0
 11
-48.21536934298445
 21
0.1269999999999376
 31
0.0
  0
SOLID
  5
26F
330
269
100
AcDbEntity
  8
치수문자_일반주서
 62
     0
100
AcDbTrace
 10
-47.6650360096511
 20
-0.1270000000000654
 30
0.0
 11
-48.76570267631777
 21
-0.1270000000000691
 31
0.0
 12
-48.21536934298445
 22
3.174999999999932
 32
0.0
 13
-48.21536934298445
 23
3.174999999999932
 33
0.0
  0
SOLID
  5
270
330
269
100
AcDbEntity
  8
치수문자_일반주서
 62
     0
100
AcDbTrace
 10
-48.76570267631778
 20
0.1269999999999357
 30
0.0
 11
-47.66503600965111
 21
0.1269999999999395
 31
0.0
 12
-48.21536934298443
 22
-3.175000000000062
 32
0.0
 13
-48.21536934298443
 23
-3.175000000000062
 33
0.0
  0
MTEXT
  5
271
330
269
100
AcDbEntity
  8
치수문자_일반주서
 62
     0
100
AcDbMText
 10
-52.59036934298445
 20
-0.0000000000000287
 30
0.0
 40
3.5
 41
0.0
 71
     2
 72
     1
  1
\A1;%%c6.35 [1/4]
  7
SLDTEXTSTYLE0
 11
-3.356894814614650E-15
 21
1.0
 31
0.0
 73
     1
 44
1.0
  0
POINT
  5
272
330
269
100
AcDbEntity
  8
Defpoints
 62
     0
100
AcDbPoint
 10
-34.71536934298445
 20
3.174999999999983
 30
0.0
  0
POINT
  5
273
330
269
100
AcDbEntity
  8
Defpoints
 62
     0
100
AcDbPoint
 10
-34.71536934298445
 20
-3.175000000000011
 30
0.0
  0
POINT
  5
274
330
269
100
AcDbEntity
  8
Defpoints
 62
     0
100
AcDbPoint
 10
-48.21536934298443
 20
-3.175000000000062
 30
0.0
  0
ENDBLK
  5
26B
330
269
100
AcDbEntity
  8
0
100
AcDbBlockEnd
  0
BLOCK
  5
276
330
275
100
AcDbEntity
  8
0
100
AcDbBlockBegin
  2
*D14
 70
     1
 10
0.0
 20
0.0
 30
0.0
  3
*D14
  1
*D14
  0
LINE
  5
278
330
275
100
AcDbEntity
  8
치수문자_일반주서
 62
     0
370
    -2
100
AcDbLine
 10
21.68713065701553
 20
1.587500000000006
 30
0.0
 11
35.97649717912627
 21
1.587500000000059
 31
0.0
  0
LINE
  5
279
330
275
100
AcDbEntity
  8
치수문자_일반주서
 62
     0
370
    -2
100
AcDbLine
 10
21.68713065701553
 20
-1.587499999999998
 30
0.0
 11
35.97649717912628
 21
-1.587499999999945
 31
0.0
  0
LINE
  5
27A
330
275
100
AcDbEntity
  8
치수문자_일반주서
 62
     0
370
    -2
100
AcDbLine
 10
35.97649717912627
 20
1.587500000000059
 30
0.0
 11
35.97649717912611
 21
36.03474104093321
 31
0.0
  0
LINE
  5
27B
330
275
100
AcDbEntity
  8
치수문자_일반주서
 62
     0
370
    -2
100
AcDbLine
 10
35.97649717912627
 20
1.587500000000059
 30
0.0
 11
35.97649717912628
 21
-1.587499999999945
 31
0.0
  0
LINE
  5
27C
330
275
100
AcDbEntity
  8
치수문자_일반주서
 62
     0
370
    -2
100
AcDbLine
 10
35.97649717912626
 20
4.889500000000059
 30
0.0
 11
35.97649717912624
 21
8.191500000000058
 31
0.0
  0
LINE
  5
27D
330
275
100
AcDbEntity
  8
치수문자_일반주서
 62
     0
370
    -2
100
AcDbLine
 10
35.9764971791263
 20
-4.889499999999945
 30
0.0
 11
35.97649717912631
 21
-8.191499999999944
 31
0.0
  0
SOLID
  5
27E
330
275
100
AcDbEntity
  8
치수문자_일반주서
 62
     0
100
AcDbTrace
 10
35.42616384579292
 20
4.889500000000056
 30
0.0
 11
36.52683051245959
 21
4.889500000000061
 31
0.0
 12
35.97649717912627
 22
1.587500000000059
 32
0.0
 13
35.97649717912627
 23
1.587500000000059
 33
0.0
  0
SOLID
  5
27F
330
275
100
AcDbEntity
  8
치수문자_일반주서
 62
     0
100
AcDbTrace
 10
36.52683051245963
 20
-4.889499999999942
 30
0.0
 11
35.42616384579296
 21
-4.889499999999948
 31
0.0
 12
35.97649717912628
 22
-1.587499999999945
 32
0.0
 13
35.97649717912628
 23
-1.587499999999945
 33
0.0
  0
MTEXT
  5
280
330
275
100
AcDbEntity
  8
치수문자_일반주서
 62
     0
100
AcDbMText
 10
31.60149717912617
 20
23.78474104093319
 30
0.0
 40
3.5
 41
0.0
 71
     2
 72
     1
  1
\A1;%%c3.18 [1/8]
  7
SLDTEXTSTYLE0
 11
-4.475859752819522E-15
 21
1.0
 31
0.0
 73
     1
 44
1.0
  0
POINT
  5
281
330
275
100
AcDbEntity
  8
Defpoints
 62
     0
100
AcDbPoint
 10
21.62463065701553
 20
1.587500000000006
 30
0.0
  0
POINT
  5
282
330
275
100
AcDbEntity
  8
Defpoints
 62
     0
100
AcDbPoint
 10
21.62463065701553
 20
-1.587499999999999
 30
0.0
  0
POINT
  5
283
330
275
100
AcDbEntity
  8
Defpoints
 62
     0
100
AcDbPoint
 10
35.97649717912617
 20
-1.587499999999945
 30
0.0
  0
ENDBLK
  5
277
330
275
100
AcDbEntity
  8
0
100
AcDbBlockEnd
  0
BLOCK
  5
285
330
284
100
AcDbEntity
  8
0
100
AcDbBlockBegin
  2
*D15
 70
     1
 10
0.0
 20
0.0
 30
0.0
  3
*D15
  1
*D15
  0
LINE
  5
287
330
284
100
AcDbEntity
  8
치수문자_일반주서
 62
     0
370
    -2
100
AcDbLine
 10
21.62463065701553
 20
1.650000000000006
 30
0.0
 11
21.62463065701553
 21
10.72162689894495
 31
0.0
  0
LINE
  5
288
330
284
100
AcDbEntity
  8
치수문자_일반주서
 62
     0
370
    -2
100
AcDbLine
 10
8.92463065701557
 20
1.326916443934117
 30
0.0
 11
8.92463065701557
 21
10.72162689894495
 31
0.0
  0
LINE
  5
289
330
284
100
AcDbEntity
  8
치수문자_일반주서
 62
     0
370
    -2
100
AcDbLine
 10
8.92463065701557
 20
10.72162689894495
 30
0.0
 11
-19.87749024115479
 21
10.72162689894495
 31
0.0
  0
LINE
  5
28A
330
284
100
AcDbEntity
  8
치수문자_일반주서
 62
     0
370
    -2
100
AcDbLine
 10
21.62463065701553
 20
10.72162689894495
 30
0.0
 11
8.92463065701557
 21
10.72162689894495
 31
0.0
  0
LINE
  5
28B
330
284
100
AcDbEntity
  8
치수문자_일반주서
 62
     0
370
    -2
100
AcDbLine
 10
24.92663065701553
 20
10.72162689894495
 30
0.0
 11
28.22863065701553
 21
10.72162689894495
 31
0.0
  0
LINE
  5
28C
330
284
100
AcDbEntity
  8
치수문자_일반주서
 62
     0
370
    -2
100
AcDbLine
 10
5.62263065701557
 20
10.72162689894495
 30
0.0
 11
2.32063065701557
 21
10.72162689894495
 31
0.0
  0
SOLID
  5
28D
330
284
100
AcDbEntity
  8
치수문자_일반주서
 62
     0
100
AcDbTrace
 10
24.92663065701553
 20
11.27196023227828
 30
0.0
 11
24.92663065701553
 21
10.17129356561161
 31
0.0
 12
21.62463065701553
 22
10.72162689894495
 32
0.0
 13
21.62463065701553
 23
10.72162689894495
 33
0.0
  0
SOLID
  5
28E
330
284
100
AcDbEntity
  8
치수문자_일반주서
 62
     0
100
AcDbTrace
 10
5.62263065701557
 20
10.17129356561161
 30
0.0
 11
5.62263065701557
 21
11.27196023227828
 31
0.0
 12
8.92463065701557
 22
10.72162689894495
 32
0.0
 13
8.92463065701557
 23
10.72162689894495
 33
0.0
  0
MTEXT
  5
28F
330
284
100
AcDbEntity
  8
치수문자_일반주서
 62
     0
100
AcDbMText
 10
-8.939990241154788
 20
15.09662689894495
 30
0.0
 40
3.5
 41
0.0
 71
     2
 72
     1
  1
\A1;12.7 [1/2]
  7
SLDTEXTSTYLE0
 73
     1
 44
1.0
  0
POINT
  5
290
330
284
100
AcDbEntity
  8
Defpoints
 62
     0
100
AcDbPoint
 10
21.62463065701553
 20
1.587500000000006
 30
0.0
  0
POINT
  5
291
330
284
100
AcDbEntity
  8
Defpoints
 62
     0
100
AcDbPoint
 10
8.92463065701557
 20
1.264416443934117
 30
0.0
  0
POINT
  5
292
330
284
100
AcDbEntity
  8
Defpoints
 62
     0
100
AcDbPoint
 10
8.92463065701557
 20
10.72162689894495
 30
0.0
  0
ENDBLK
  5
286
330
284
100
AcDbEntity
  8
0
100
AcDbBlockEnd
  0
BLOCK
  5
294
330
293
100
AcDbEntity
  8
0
100
AcDbBlockBegin
  2
*D16
 70
     1
 10
0.0
 20
0.0
 30
0.0
  3
*D16
  1
*D16
  0
LINE
  5
296
330
293
100
AcDbEntity
  8
치수문자_일반주서
 62
     0
370
    -2
100
AcDbLine
 10
21.62463065701553
 20
1.650000000000006
 30
0.0
 11
21.62463065701553
 21
24.08397556034826
 31
0.0
  0
LINE
  5
297
330
293
100
AcDbEntity
  8
치수문자_일반주서
 62
     0
370
    -2
100
AcDbLine
 10
-35.52536934298445
 20
2.427499999999995
 30
0.0
 11
-35.52536934298445
 21
24.08397556034826
 31
0.0
  0
LINE
  5
298
330
293
100
AcDbEntity
  8
치수문자_일반주서
 62
     0
370
    -2
100
AcDbLine
 10
18.32263065701553
 20
24.08397556034826
 30
0.0
 11
-32.22336934298445
 21
24.08397556034826
 31
0.0
  0
SOLID
  5
299
330
293
100
AcDbEntity
  8
치수문자_일반주서
 62
     0
100
AcDbTrace
 10
18.32263065701553
 20
23.53364222701492
 30
0.0
 11
18.32263065701553
 21
24.63430889368159
 31
0.0
 12
21.62463065701553
 22
24.08397556034826
 32
0.0
 13
21.62463065701553
 23
24.08397556034826
 33
0.0
  0
SOLID
  5
29A
330
293
100
AcDbEntity
  8
치수문자_일반주서
 62
     0
100
AcDbTrace
 10
-32.22336934298445
 20
24.63430889368159
 30
0.0
 11
-32.22336934298445
 21
23.53364222701492
 31
0.0
 12
-35.52536934298445
 22
24.08397556034826
 32
0.0
 13
-35.52536934298445
 23
24.08397556034826
 33
0.0
  0
MTEXT
  5
29B
330
293
100
AcDbEntity
  8
치수문자_일반주서
 62
     0
100
AcDbMText
 10
-7.207536065157427
 20
28.45897556034826
 30
0.0
 40
3.5
 41
0.0
 71
     2
 72
     1
  1
\A1;57.15 [2 1/4]
  7
SLDTEXTSTYLE0
 73
     1
 44
1.0
  0
POINT
  5
29C
330
293
100
AcDbEntity
  8
Defpoints
 62
     0
100
AcDbPoint
 10
21.62463065701553
 20
1.587500000000006
 30
0.0
  0
POINT
  5
29D
330
293
100
AcDbEntity
  8
Defpoints
 62
     0
100
AcDbPoint
 10
-35.52536934298445
 20
2.364999999999995
 30
0.0
  0
POINT
  5
29E
330
293
100
AcDbEntity
  8
Defpoints
 62
     0
100
AcDbPoint
 10
-35.52536934298445
 20
24.08397556034826
 30
0.0
  0
ENDBLK
  5
295
330
293
100
AcDbEntity
  8
0
100
AcDbBlockEnd
  0
BLOCK
  5
2A0
330
29F
100
AcDbEntity
  8
0
100
AcDbBlockBegin
  2
*D17
 70
     1
 10
0.0
 20
0.0
 30
0.0
  3
*D17
  1
*D17
  0
LINE
  5
2A2
330
29F
100
AcDbEntity
  8
치수문자_일반주서
 62
     0
370
    -2
100
AcDbLine
 10
139.765236684365
 20
-14.95150697407496
 30
0.0
 11
156.8207786924526
 21
-40.67553945462436
 31
0.0
  0
MTEXT
  5
2A3
330
29F
100
AcDbEntity
  8
치수문자_일반주서
 62
     0
100
AcDbMText
 10
151.3931481448165
 20
-27.7389903320466
 30
0.0
 40
3.5
 41
0.0
 71
     5
 72
     1
  1
\A1;R.51 [R0.020]
  7
SLDTEXTSTYLE0
 11
0.5525941456394103
 21
-0.8334504845550514
 31
0.0
 73
     1
 44
1.0
  0
LINE
  5
2A4
330
29F
100
AcDbEntity
  8
치수문자_일반주서
 62
     0
370
    -2
100
AcDbLine
 10
137.6598529894788
 20
-11.77606062792021
 30
0.0
 11
137.9405708154637
 21
-12.19945347407418
 31
0.0
  0
SOLID
  5
2A5
330
29F
100
AcDbEntity
  8
치수문자_일반주서
 62
     0
100
AcDbTrace
 10
140.2239122676985
 20
-14.64739599592473
 30
0.0
 11
139.3065611010315
 21
-15.25561795222518
 31
0.0
 12
137.9405708154637
 22
-12.19945347407418
 32
0.0
 13
137.9405708154637
 23
-12.19945347407418
 33
0.0
  0
POINT
  5
2A6
330
29F
100
AcDbEntity
  8
Defpoints
 62
     0
100
AcDbPoint
 10
137.9405708154637
 20
-12.19945347407418
 30
0.0
  0
POINT
  5
2A7
330
29F
100
AcDbEntity
  8
Defpoints
 62
     0
100
AcDbPoint
 10
137.6598529894788
 20
-11.77606062792021
 30
0.0
  0
ENDBLK
  5
2A1
330
29F
100
AcDbEntity
  8
0
100
AcDbBlockEnd
  0
BLOCK
  5
2B3
330
2B2
100
AcDbEntity
  8
0
100
AcDbBlockBegin
  2
*D18
 70
     1
 10
0.0
 20
0.0
 30
0.0
  3
*D18
  1
*D18
  0
LINE
  5
2B5
330
2B2
100
AcDbEntity
  8
치수문자_일반주서
 62
     0
370
    -2
100
AcDbLine
 10
23.04271516806915
 20
-4.255270768530182
 30
0.0
 11
40.06899281043788
 21
-31.04149353126728
 31
0.0
  0
MTEXT
  5
2B6
330
2B2
100
AcDbEntity
  8
치수문자_일반주서
 62
     0
100
AcDbMText
 10
34.65685492309733
 20
-17.63357646518602
 30
0.0
 40
3.5
 41
0.0
 71
     5
 72
     1
  1
\A1;R.76 [R0.030]
  7
SLDTEXTSTYLE0
 11
0.5364381178773679
 21
-0.8439396576107719
 31
0.0
 73
     1
 44
1.0
  0
LINE
  5
2B7
330
2B2
100
AcDbEntity
  8
치수문자_일반주서
 62
     0
370
    -2
100
AcDbLine
 10
20.86263065701553
 20
-0.8254999999999999
 30
0.0
 11
21.27139650283809
 21
-1.468582019099413
 31
0.0
  0
SOLID
  5
2B8
330
2B2
100
AcDbEntity
  8
치수문자_일반주서
 62
     0
100
AcDbTrace
 10
23.50716329297428
 20
-3.960050990991671
 30
0.0
 11
22.57826704316403
 21
-4.550490546068693
 31
0.0
 12
21.27139650283809
 22
-1.468582019099413
 32
0.0
 13
21.27139650283809
 23
-1.468582019099413
 33
0.0
  0
POINT
  5
2B9
330
2B2
100
AcDbEntity
  8
Defpoints
 62
     0
100
AcDbPoint
 10
21.27139650283809
 20
-1.468582019099413
 30
0.0
  0
POINT
  5
2BA
330
2B2
100
AcDbEntity
  8
Defpoints
 62
     0
100
AcDbPoint
 10
20.86263065701553
 20
-0.8254999999999999
 30
0.0
  0
ENDBLK
  5
2B4
330
2B2
100
AcDbEntity
  8
0
100
AcDbBlockEnd
  0
ENDSEC
  0
SECTION
  2
ENTITIES
  0
LINE
  5
D5
330
1F
100
AcDbEntity
  8
참조1
100
AcDbLine
 10
-5.875000000000005
 20
0.0010749287238892
 30
0.0
 11
-5.874999999999993
 21
-39.99892507127611
 31
0.0
  0
LINE
  5
D6
330
1F
100
AcDbEntity
  8
참조1
100
AcDbLine
 10
-5.874999999999993
 20
-39.99892507127611
 30
0.0
 11
-14.66672777521594
 21
-39.9989250712761
 31
0.0
  0
INSERT
  5
D8
330
1F
100
AcDbEntity
  8
0
  6
Continuous
 62
     7
100
AcDbBlockReference
 66
     1
  2
블럭10
 10
-19.8152729321252
 20
-52.04609937292004
 30
0.0
  0
ATTRIB
  5
D9
330
D8
100
AcDbEntity
  8
FORMAT
 62
     2
100
AcDbText
 10
-29.95690894426183
 20
-49.97073246008785
 30
0.0
 40
4.233333333333333
  1
EM637902 [ 2 FLUTE ]
 41
0.75
  7
SLDTEXTSTYLE0
 11
-29.95690894426183
 21
-52.08739912675452
 31
0.0
100
AcDbAttribute
  2
AUTOATTR0
 70
     0
 74
     1
  0
SEQEND
  5
DA
330
D8
100
AcDbEntity
  8
0
  6
Continuous
 62
     7
  0
HATCH
  5
DB
330
1F
100
AcDbEntity
  8
중심선
100
AcDbHatch
 10
0.0
 20
0.0
 30
0.0
210
0.0
220
0.0
230
1.0
  2
SOLID
 70
     1
 71
     0
 91
        1
 92
        0
 93
        4
 72
     1
 10
-14.10036362774436
 20
-35.7989250712761
 11
-17.54663887158164
 21
-35.7989250712761
 72
     1
 10
-17.54663887158164
 20
-35.7989250712761
 11
-19.67486873078566
 21
-38.3352506518487
 72
     1
 10
-19.67486873078566
 20
-38.3352506518487
 11
-16.22856040183524
 21
-38.33521122254621
 72
     1
 10
-16.22856040183524
 20
-38.33521122254621
 11
-14.10036362774436
 21
-35.7989250712761
 97
        0
 75
     0
 76
     1
 98
        1
 10
0.0
 20
0.0
  0
HATCH
  5
DC
330
1F
100
AcDbEntity
  8
중심선
100
AcDbHatch
 10
0.0
 20
0.0
 30
0.0
210
0.0
220
0.0
230
1.0
  2
SOLID
 70
     1
 71
     0
 91
        1
 92
        0
 93
        4
 72
     1
 10
-9.087599636708383
 20
-35.7989250712761
 11
-12.53387488054564
 21
-35.7989250712761
 72
     1
 10
-12.53387488054564
 20
-35.7989250712761
 11
-17.06501288890308
 21
-41.19892507127612
 72
     1
 10
-17.06501288890308
 20
-41.19892507127612
 11
-13.6187376450658
 21
-41.19892507127612
 72
     1
 10
-13.6187376450658
 20
-41.19892507127612
 11
-9.087599636708383
 21
-35.7989250712761
 97
        0
 75
     0
 76
     1
 98
        1
 10
0.0
 20
0.0
  0
HATCH
  5
DD
330
1F
100
AcDbEntity
  8
중심선
100
AcDbHatch
 10
0.0
 20
0.0
 30
0.0
210
0.0
220
0.0
230
1.0
  2
SOLID
 70
     1
 71
     0
 91
        1
 92
        0
 93
        4
 72
     1
 10
-4.074835645672515
 20
-35.79892507127613
 11
-7.521110889509602
 21
-35.7989250712761
 72
     1
 10
-7.521110889509602
 20
-35.7989250712761
 11
-14.56954779139888
 21
-44.19892507127612
 72
     1
 10
-14.56954779139888
 20
-44.19892507127612
 11
-11.1232725475616
 21
-44.19892507127612
 72
     1
 10
-11.1232725475616
 20
-44.19892507127612
 11
-4.074835645672515
 21
-35.79892507127613
 97
        0
 75
     0
 76
     1
 98
        1
 10
0.0
 20
0.0
  0
HATCH
  5
DE
330
1F
100
AcDbEntity
  8
중심선
100
AcDbHatch
 10
0.0
 20
0.0
 30
0.0
210
0.0
220
0.0
230
1.0
  2
SOLID
 70
     1
 71
     0
 91
        1
 92
        0
 93
        6
 72
     3
 10
0.7250547853396849
 20
-39.99892507132738
 11
3.960054785062284
 21
1.540850780301639E-10
 40
0.3939339440162633
 50
17.09539180608433
 51
320.0019657685086
 73
     0
 72
     1
 10
2.408054441040281
 20
-38.58681907591443
 11
4.713356314741318
 21
-36.65249236586649
 72
     3
 10
0.7250547852868383
 20
-39.99892507127625
 11
6.600054785286829
 21
-1.249000902703301E-13
 40
0.6363583540795982
 50
39.99873849337408
 51
368.4976242363725
 73
     1
 72
     1
 10
7.150387277187447
 20
-39.03892507120613
 11
-0.5948779078772395
 21
-39.03892507120613
 72
     1
 10
-0.5948779078772393
 20
-39.03892507120613
 11
-0.594902952323173
 21
-40.95892507120602
 72
     1
 10
-0.594902952323173
 20
-40.95892507120602
 11
3.846476817148865
 21
-40.95892507120599
 97
        0
 75
     0
 76
     1
 98
        1
 10
0.0
 20
0.0
  0
LINE
  5
132
330
1F
100
AcDbEntity
  8
참조1
100
AcDbLine
 10
83.30561285443832
 20
7.441074928723896
 30
0.0
 11
83.30561285443832
 21
-7.438925071276109
 31
0.0
  0
LINE
  5
133
330
1F
100
AcDbEntity
  8
참조1
100
AcDbLine
 10
96.00561285443833
 20
5.441074928723896
 30
0.0
 11
83.30561285443832
 21
5.441074928723896
 31
0.0
  0
SOLID
  5
134
330
1F
100
AcDbEntity
  8
참조1
100
AcDbTrace
 10
83.30561285443832
 20
5.441074928723896
 30
0.0
 11
89.65561285443832
 21
4.425074928723896
 31
0.0
 12
89.65561285443832
 22
6.457074928723896
 32
0.0
 13
89.65561285443832
 23
6.457074928723896
 33
0.0
  0
LINE
  5
135
330
1F
100
AcDbEntity
  8
참조1
100
AcDbLine
 10
96.00561285443833
 20
-5.438925071276109
 30
0.0
 11
83.30561285443832
 21
-5.438925071276109
 31
0.0
  0
SOLID
  5
136
330
1F
100
AcDbEntity
  8
참조1
100
AcDbTrace
 10
83.30561285443832
 20
-5.438925071276109
 30
0.0
 11
89.65561285443832
 21
-6.454925071276109
 31
0.0
 12
89.65561285443832
 22
-4.422925071276109
 32
0.0
 13
89.65561285443832
 23
-4.422925071276109
 33
0.0
  0
MTEXT
  5
137
330
1F
100
AcDbEntity
  8
참조1
100
AcDbMText
 10
92.7031029469086
 20
10.98929157337383
 30
0.0
 40
3.5
 41
0.0
 71
     1
 72
     1
  1
A
  7
SLDTEXTSTYLE0
 73
     1
 44
1.0
  0
MTEXT
  5
138
330
1F
100
AcDbEntity
  8
참조1
100
AcDbMText
 10
92.7031029469086
 20
0.1092915733738251
 30
0.0
 40
3.5
 41
0.0
 71
     1
 72
     1
  1
A
  7
SLDTEXTSTYLE0
 73
     1
 44
1.0
  0
LINE
  5
221
330
1F
100
AcDbEntity
  8
외형선
  6
Continuous
370
    15
100
AcDbLine
 10
2.0
 20
3.174999999999997
 30
0.0
 11
-34.71536934298445
 21
3.174999999999997
 31
0.0
  0
LINE
  5
222
330
1F
100
AcDbEntity
  8
외형선
  6
Continuous
370
    15
100
AcDbLine
 10
-34.71536934298445
 20
-3.175000000000004
 30
0.0
 11
2.0
 21
-3.174999999999997
 31
0.0
  0
LINE
  5
223
330
1F
100
AcDbEntity
  8
외형선
  6
Continuous
370
    15
100
AcDbLine
 10
2.0
 20
-3.175000000000004
 30
0.0
 11
7.92463065701557
 21
-1.587499999999999
 31
0.0
  0
LINE
  5
224
330
1F
100
AcDbEntity
  8
외형선
  6
Continuous
370
    15
100
AcDbLine
 10
7.92463065701557
 20
1.587499999999999
 30
0.0
 11
2.0
 21
3.174999999999997
 31
0.0
  0
LINE
  5
225
330
1F
100
AcDbEntity
  8
외형선
  6
Continuous
370
    15
100
AcDbLine
 10
-34.71536934298445
 20
3.17499999999999
 30
0.0
 11
-35.52536934298445
 21
2.364999999999995
 31
0.0
  0
LINE
  5
226
330
1F
100
AcDbEntity
  8
외형선
  6
Continuous
370
    15
100
AcDbLine
 10
-35.52536934298445
 20
-2.365000000000002
 30
0.0
 11
-34.71536934298445
 21
-3.174999999999997
 31
0.0
  0
LINE
  5
227
330
1F
100
AcDbEntity
  8
외형선
  6
Continuous
370
    15
100
AcDbLine
 10
8.034539777172853
 20
1.587499999999999
 30
0.0
 11
7.92463065701557
 21
1.587499999999999
 31
0.0
  0
LINE
  5
228
330
1F
100
AcDbEntity
  8
외형선
  6
Continuous
370
    15
100
AcDbLine
 10
7.92463065701557
 20
-1.587499999999999
 30
0.0
 11
8.034539777172853
 21
-1.587499999999999
 31
0.0
  0
SPLINE
  5
229
330
1F
100
AcDbEntity
  8
외형선
  6
Continuous
370
    15
100
AcDbSpline
210
0.0
220
0.0
230
1.0
 70
     8
 71
     3
 72
     9
 73
     5
 74
     0
 42
0.000000001
 43
0.00000001
 40
0.0
 40
0.0
 40
0.0
 40
0.0
 40
0.4980319532561457
 40
1.0
 40
1.0
 40
1.0
 40
1.0
 10
8.791780800326649
 20
0.4445814142969908
 30
0.0
 10
8.736231086708614
 20
0.4720491538572062
 30
0.0
 10
8.624692633694025
 20
0.5272017186286604
 30
0.0
 10
8.497624498476767
 20
0.5936960519243613
 30
0.0
 10
8.433840354838395
 20
0.6270740825283454
 30
0.0
  0
SPLINE
  5
22A
330
1F
100
AcDbEntity
  8
외형선
  6
Continuous
370
    15
100
AcDbSpline
210
0.0
220
0.0
230
1.0
 70
     8
 71
     3
 72
     9
 73
     5
 74
     0
 42
0.000000001
 43
0.00000001
 40
0.0
 40
0.0
 40
0.0
 40
0.0
 40
0.5000610736432285
 40
1.0
 40
1.0
 40
1.0
 40
1.0
 10
8.338891843569115
 20
1.260930175161718
 30
0.0
 10
8.287201004755218
 20
1.258343167952418
 30
0.0
 10
8.18383195337654
 20
1.253169785448449
 30
0.0
 10
8.080667859715135
 20
1.249556770088326
 30
0.0
 10
8.029092113491458
 20
1.247750483068273
 30
0.0
  0
LINE
  5
22B
330
1F
100
AcDbEntity
  8
외형선
  6
Continuous
370
    15
100
AcDbLine
 10
8.029092113491458
 20
-1.247448850268363
 30
0.0
 11
8.152094379966172
 21
-1.239969279448772
 31
0.0
  0
SPLINE
  5
22C
330
1F
100
AcDbEntity
  8
0
  6
Continuous
 62
     1
370
    15
100
AcDbSpline
210
0.0
220
0.0
230
1.0
 70
     8
 71
     3
 72
     9
 73
     5
 74
     0
 42
0.000000001
 43
0.00000001
 40
0.0
 40
0.0
 40
0.0
 40
0.0
 40
0.4550382045017807
 40
1.0
 40
1.0
 40
1.0
 40
1.0
 10
17.51051828506127
 20
0.407064808493395
 30
0.0
 10
17.44335914707472
 20
0.4391540593216021
 30
0.0
 10
17.29576903854735
 20
0.5096739640477139
 30
0.0
 10
17.1512682350762
 20
0.5855049472742735
 30
0.0
 10
17.07252081776562
 20
0.6268299360478125
 30
0.0
  0
LINE
  5
22D
330
1F
100
AcDbEntity
  8
0
  6
Continuous
 62
     1
370
    15
100
AcDbLine
 10
13.86880785089994
 20
1.587499999999999
 30
0.0
 11
13.09897069308983
 21
1.587499999999999
 31
0.0
  0
LINE
  5
22E
330
1F
100
AcDbEntity
  8
0
  6
Continuous
 62
     1
370
    15
100
AcDbLine
 10
13.09897069308977
 20
-1.587499999999999
 30
0.0
 11
13.86880785089994
 21
-1.587499999999999
 31
0.0
  0
SPLINE
  5
22F
330
1F
100
AcDbEntity
  8
0
  6
Continuous
 62
     1
370
    15
100
AcDbSpline
210
0.0
220
0.0
230
1.0
 70
     8
 71
     3
 72
    14
 73
    10
 74
     0
 42
0.000000001
 43
0.00000001
 40
0.0
 40
0.0
 40
0.0
 40
0.0
 40
0.2412791395815019
 40
0.4097570442161599
 40
0.5206300506240426
 40
0.6423103830568364
 40
0.780739513419935
 40
0.9194633442454405
 40
1.0
 40
1.0
 40
1.0
 40
1.0
 10
16.98771246764466
 20
1.261503059483616
 30
0.0
 10
16.88238386072521
 20
1.256499358377923
 30
0.0
 10
16.70350748244584
 20
1.248001724563551
 30
0.0
 10
16.47686326066736
 20
1.242382856846106
 30
0.0
 10
16.30224092082642
 20
1.239998553034454
 30
0.0
 10
16.14052090909877
 20
1.239460543158224
 30
0.0
 10
15.96662490793005
 20
1.241000045412605
 30
0.0
 10
15.8106827504069
 20
1.243700845217624
 30
0.0
 10
15.71517280584709
 20
1.247273091752774
 30
0.0
 10
15.68009101046243
 20
1.248585215035718
 30
0.0
  0
SPLINE
  5
230
330
1F
100
AcDbEntity
  8
0
  6
Continuous
 62
     1
370
    15
100
AcDbSpline
210
0.0
220
0.0
230
1.0
 70
     8
 71
     3
 72
    11
 73
     7
 74
     0
 42
0.000000001
 43
0.00000001
 40
0.0
 40
0.0
 40
0.0
 40
0.0
 40
0.4340795689894085
 40
0.6036151591816225
 40
0.7332181986650106
 40
1.0
 40
1.0
 40
1.0
 40
1.0
 10
14.60022580215031
 20
-1.320994411084236
 30
0.0
 10
14.94569984802797
 20
-1.291886937392825
 30
0.0
 10
15.42610341016984
 20
-1.251411149954784
 30
0.0
 10
16.00964243994792
 20
-1.239530794792763
 30
0.0
 10
16.45946629132737
 20
-1.239211591752643
 30
0.0
 10
16.77520710698803
 20
-1.252535542817881
 30
0.0
 10
16.98771246764466
 20
-1.261503059483623
 30
0.0
  0
SPLINE
  5
231
330
1F
100
AcDbEntity
  8
0
  6
Continuous
 62
     1
370
    15
100
AcDbSpline
210
0.0
220
0.0
230
1.0
 70
     8
 71
     3
 72
    13
 73
     9
 74
     0
 42
0.000000001
 43
0.00000001
 40
0.0
 40
0.0
 40
0.0
 40
0.0
 40
0.3129504852689672
 40
0.5271487599645799
 40
0.659767697343907
 40
0.7865643186287751
 40
0.9156902848925105
 40
1.0
 40
1.0
 40
1.0
 40
1.0
 10
9.622668185445576
 20
-1.194024826807066
 30
0.0
 10
9.7460768208704
 20
-1.175561260163484
 30
0.0
 10
9.953952226710356
 20
-1.144460345741443
 30
0.0
 10
10.21340636731892
 20
-1.114094670975007
 30
0.0
 10
10.39966213620647
 20
-1.094949456208667
 30
0.0
 10
10.55242860704661
 20
-1.081440164260094
 30
0.0
 10
10.68632775982726
 20
-1.071174889852493
 30
0.0
 10
10.77034378017521
 20
-1.066221102823789
 30
0.0
 10
10.80353113991984
 20
-1.064264296115503
 30
0.0
  0
SPLINE
  5
232
330
1F
100
AcDbEntity
  8
0
  6
Continuous
 62
     1
370
    15
100
AcDbSpline
210
0.0
220
0.0
230
1.0
 70
     8
 71
     3
 72
    19
 73
    15
 74
     0
 42
0.000000001
 43
0.00000001
 40
0.0
 40
0.0
 40
0.0
 40
0.0
 40
0.1263183041086837
 40
0.2216122229784324
 40
0.3039881254069099
 40
0.3933308101507207
 40
0.4828043725531436
 40
0.545697848553367
 40
0.6060097825993329
 40
0.6636035606413091
 40
0.7189362338813889
 40
0.7755694354643219
 40
0.8666878154852173
 40
1.0
 40
1.0
 40
1.0
 40
1.0
 10
21.03867949771245
 20
1.086160342402984
 30
0.0
 10
20.92082637381907
 20
1.076975930398639
 30
0.0
 10
20.71406542214811
 20
1.060862842312197
 30
0.0
 10
20.43310208784902
 20
1.049292180188765
 30
0.0
 10
20.18733474035855
 20
1.044253262656888
 30
0.0
 10
19.94543930496144
 20
1.044668412252634
 30
0.0
 10
19.72199872193664
 20
1.050263259703478
 30
0.0
 10
19.52500918455553
 20
1.058961486376155
 30
0.0
 10
19.35760054893854
 20
1.068925761579877
 30
0.0
 10
19.19720808942526
 20
1.080826780298693
 30
0.0
 10
19.0403798317364
 20
1.094712905133512
 30
0.0
 10
18.85251915111132
 20
1.113987353772259
 30
0.0
 10
18.59252395332874
 20
1.14441228204241
 30
0.0
 10
18.38434120483765
 20
1.175557347259328
 30
0.0
 10
18.26068025412422
 20
1.194057575557167
 30
0.0
  0
SPLINE
  5
233
330
1F
100
AcDbEntity
  8
0
  6
Continuous
 62
     1
370
    15
100
AcDbSpline
210
0.0
220
0.0
230
1.0
 70
     8
 71
     3
 72
    14
 73
    10
 74
     0
 42
0.000000001
 43
0.00000001
 40
0.0
 40
0.0
 40
0.0
 40
0.0
 40
0.2790779957624213
 40
0.4827851168239682
 40
0.6122598046418465
 40
0.7239339182336366
 40
0.8396146881189738
 40
0.959490590714515
 40
0.9999999999999999
 40
0.9999999999999999
 40
0.9999999999999999
 40
0.9999999999999999
 10
18.26068025412422
 20
-1.194057575557167
 30
0.0
 10
18.37098085066981
 20
-1.177463001145647
 30
0.0
 10
18.56179305083464
 20
-1.148755565706232
 30
0.0
 10
18.80317827504962
 20
-1.119589584111814
 30
0.0
 10
18.97852077133575
 20
-1.100879830787171
 30
0.0
 10
19.11910256299899
 20
-1.087529110631209
 30
0.0
 10
19.25601639464077
 20
-1.076365292992762
 30
0.0
 10
19.36491956409441
 20
-1.068473341509673
 30
0.0
 10
19.42819720700561
 20
-1.064976789100278
 30
0.0
 10
19.44417959283163
 20
-1.064093645432202
 30
0.0
  0
SPLINE
  5
234
330
1F
100
AcDbEntity
  8
0
  6
Continuous
 62
     1
370
    15
100
AcDbSpline
210
0.0
220
0.0
230
1.0
 70
     8
 71
     3
 72
    21
 73
    17
 74
     0
 42
0.000000001
 43
0.00000001
 40
0.0
 40
0.0
 40
0.0
 40
0.0
 40
0.1196969312929303
 40
0.2097434524690673
 40
0.2720286269933698
 40
0.3290734789607906
 40
0.3866692493490227
 40
0.4432851906648688
 40
0.4991690881024498
 40
0.5546842781791267
 40
0.6101077011098448
 40
0.6650883213737028
 40
0.7190771284844635
 40
0.7755450229508362
 40
0.8667486308925548
 40
1.0
 40
1.0
 40
1.0
 40
1.0
 10
12.39569552774043
 20
1.085752878658305
 30
0.0
 10
12.28458737503519
 20
1.07708355575064
 30
0.0
 10
12.08989393307189
 20
1.061892408428967
 30
0.0
 10
11.83844555017646
 20
1.050974522064919
 30
0.0
 10
11.64562708784422
 20
1.046020198464134
 30
0.0
 10
11.48251225084437
 20
1.044345310986074
 30
0.0
 10
11.32426801808052
 20
1.045023883422004
 30
0.0
 10
11.16729202950344
 20
1.048049810940483
 30
0.0
 10
11.0120072958988
 20
1.053260844584337
 30
0.0
 10
10.85776240671495
 20
1.060587147006068
 30
0.0
 10
10.70437689039488
 20
1.069988555419464
 30
0.0
 10
10.55242800093288
 20
1.081388699312043
 30
0.0
 10
10.39966230286828
 20
1.094963607414016
 30
0.0
 10
10.21340629082883
 20
1.114088176220399
 30
0.0
 10
9.953952261745002
 20
1.1444633205207
 30
0.0
 10
9.746076833921364
 20
1.175562368316612
 30
0.0
 10
9.622668185445576
 20
1.194024826807059
 30
0.0
  0
LINE
  5
235
330
1F
100
AcDbEntity
  8
외형선
  6
Continuous
370
    15
100
AcDbLine
 10
2.0
 20
3.174999999999997
 30
0.0
 11
2.0
 21
-3.175000000000004
 31
0.0
  0
LINE
  5
236
330
1F
100
AcDbEntity
  8
외형선
  6
Continuous
370
    15
100
AcDbLine
 10
-34.71536934298445
 20
3.17499999999999
 30
0.0
 11
-34.71536934298445
 21
-3.175000000000004
 31
0.0
  0
LINE
  5
237
330
1F
100
AcDbEntity
  8
외형선
  6
Continuous
370
    15
100
AcDbLine
 10
7.92463065701557
 20
1.587499999999999
 30
0.0
 11
7.92463065701557
 21
-1.587499999999999
 31
0.0
  0
LINE
  5
238
330
1F
100
AcDbEntity
  8
외형선
  6
Continuous
370
    15
100
AcDbLine
 10
-35.52536934298445
 20
2.364999999999995
 30
0.0
 11
-35.52536934298445
 21
-2.365000000000002
 31
0.0
  0
SPLINE
  5
239
330
1F
100
AcDbEntity
  8
외형선
  6
Continuous
370
    15
100
AcDbSpline
210
0.0
220
0.0
230
1.0
 70
     8
 71
     3
 72
    12
 73
     8
 74
     0
 42
0.000000001
 43
0.00000001
 40
0.0
 40
0.0
 40
0.0
 40
0.0
 40
0.2500000000000001
 40
0.2500000000000001
 40
0.5000000000000002
 40
0.5000000000000002
 40
1.0
 40
1.0
 40
1.0
 40
1.0
 10
8.330317434839543
 20
-1.260453259042393
 30
0.0
 10
8.268973803743592
 20
-1.256997915332668
 30
0.0
 10
8.225587485791237
 20
-1.252739237651809
 30
0.0
 10
8.154955088471155
 20
-1.240650817712599
 30
0.0
 10
8.127657050985903
 20
-1.233090641430373
 30
0.0
 10
8.06111032822784
 20
-1.208035421913387
 30
0.0
 10
8.034539777172824
 20
-1.186844352158758
 30
0.0
 10
8.034539777172824
 20
-1.171695051288559
 30
0.0
  0
SPLINE
  5
23A
330
1F
100
AcDbEntity
  8
외형선
  6
Continuous
370
    15
100
AcDbSpline
210
0.0
220
0.0
230
1.0
 70
     8
 71
     3
 72
    14
 73
    10
 74
     0
 42
0.000000001
 43
0.00000001
 40
0.0
 40
0.0
 40
0.0
 40
0.0
 40
0.25
 40
0.25
 40
0.5
 40
0.5
 40
0.75
 40
0.75
 40
1.0
 40
1.0
 40
1.0
 40
1.0
 10
8.03453977717561
 20
0.4249195227667499
 30
0.0
 10
8.034539777175496
 20
0.4234689345631395
 30
0.0
 10
8.048950369374893
 20
0.4057404164804268
 30
0.0
 10
8.091974955888219
 20
0.3558752887080345
 30
0.0
 10
8.120632572869596
 20
0.3237697858547435
 30
0.0
 10
8.1865128677739
 20
0.256802377358909
 30
0.0
 10
8.224469789009305
 20
0.2210833116430138
 30
0.0
 10
8.310330589818363
 20
0.1551556394416096
 30
0.0
 10
8.359948109433162
 20
0.1241794979863826
 30
0.0
 10
8.414483395102593
 20
0.1022768871165169
 30
0.0
  0
SPLINE
  5
23B
330
1F
100
AcDbEntity
  8
외형선
  6
Continuous
370
    15
100
AcDbSpline
210
0.0
220
0.0
230
1.0
 70
     8
 71
     3
 72
    10
 73
     6
 74
     0
 42
0.000000001
 43
0.00000001
 40
0.0
 40
0.0
 40
0.0
 40
0.0
 40
0.5
 40
0.5
 40
1.0
 40
1.0
 40
1.0
 40
1.0
 10
8.034539777172853
 20
0.4249771815671082
 30
0.0
 10
8.183202604642531
 20
0.3424001969148733
 30
0.0
 10
8.333183599075397
 20
0.2577118062117876
 30
0.0
 10
8.62991377596694
 20
0.087431159018422
 30
0.0
 10
8.775822892474508
 20
0.0020097880603274
 30
0.0
 10
8.92463065702546
 20
-0.0836041339793141
 30
0.0
  0
SPLINE
  5
23C
330
1F
100
AcDbEntity
  8
외형선
  6
Continuous
370
    15
100
AcDbSpline
210
0.0
220
0.0
230
1.0
 70
     8
 71
     3
 72
     8
 73
     4
 74
     0
 42
0.000000001
 43
0.00000001
 40
0.0
 40
0.0
 40
0.0
 40
0.0
 40
1.0
 40
1.0
 40
1.0
 40
1.0
 10
8.924630657015598
 20
-0.1040884358926775
 30
0.0
 10
8.75343437671296
 20
-0.0353498373726424
 30
0.0
 10
8.58565270259382
 20
0.0335314007983811
 30
0.0
 10
8.4144833951012
 20
0.1022768871170854
 30
0.0
  0
LINE
  5
23D
330
1F
100
AcDbEntity
  8
외형선
  6
Continuous
370
    15
100
AcDbLine
 10
8.034539777172853
 20
0.8309875311806536
 30
0.0
 11
8.034539777172853
 21
1.587499999999999
 31
0.0
  0
SPLINE
  5
23E
330
1F
100
AcDbEntity
  8
외형선
  6
Continuous
370
    15
100
AcDbSpline
210
0.0
220
0.0
230
1.0
 70
     8
 71
     3
 72
    10
 73
     6
 74
     0
 42
0.000000001
 43
0.00000001
 40
0.0
 40
0.0
 40
0.0
 40
0.0
 40
0.5
 40
0.5
 40
1.0
 40
1.0
 40
1.0
 40
1.0
 10
8.924630657024721
 20
0.357476145688139
 30
0.0
 10
8.775807004004605
 20
0.4410160604576632
 30
0.0
 10
8.629882437540346
 20
0.5224581421384684
 30
0.0
 10
8.33311989016741
 20
0.6809890196254926
 30
0.0
 10
8.183122677362576
 20
0.7578947306296016
 30
0.0
 10
8.034444539388574
 20
0.8309295603734483
 30
0.0
  0
LINE
  5
23F
330
1F
100
AcDbEntity
  8
외형선
  6
Continuous
370
    15
100
AcDbLine
 10
8.92463065701557
 20
0.3574761456932762
 30
0.0
 11
8.92463065701557
 21
-0.0836041339736724
 31
0.0
  0
LINE
  5
240
330
1F
100
AcDbEntity
  8
외형선
  6
Continuous
370
    15
100
AcDbLine
 10
8.034539777172853
 20
-1.587499999999999
 30
0.0
 11
8.034539777172853
 21
0.4254997147976525
 31
0.0
  0
LINE
  5
241
330
1F
100
AcDbEntity
  8
외형선
  6
Continuous
370
    15
100
AcDbLine
 10
8.924630657015598
 20
0.3825429610750817
 30
0.0
 11
8.776309225740562
 21
0.4478177205537008
 31
0.0
  0
LINE
  5
242
330
1F
100
AcDbEntity
  8
외형선
  6
Continuous
370
    15
100
AcDbLine
 10
8.92463065701557
 20
1.264416443934117
 30
0.0
 11
8.335740179791827
 21
1.2460032878395
 31
0.0
  0
SPLINE
  5
243
330
1F
100
AcDbEntity
  8
외형선
  6
Continuous
370
    15
100
AcDbSpline
210
0.0
220
0.0
230
1.0
 70
    24
 71
     3
 72
    13
 73
     9
 74
     0
 42
0.000000001
 43
0.00000001
 40
0.0
 40
0.0
 40
0.0
 40
0.0
 40
0.1345280325237934
 40
0.2708351083768174
 40
0.4673665584108469
 40
0.6695974338098493
 40
0.8460721455025979
 40
1.0
 40
1.0
 40
1.0
 40
1.0
 10
8.92463065701557
 20
1.264416443934117
 30
0.0
 10
8.92463065701557
 20
1.248503662805838
 30
0.0
 10
8.92463065701557
 20
1.216467664652868
 30
0.0
 10
8.92463065701557
 20
1.12940092955786
 30
0.0
 10
8.92463065701557
 20
0.9982639871255046
 30
0.0
 10
8.92463065701557
 20
0.8165006577600096
 30
0.0
 10
8.92463065701557
 20
0.6204406081486766
 30
0.0
 10
8.92463065701557
 20
0.4807337093253139
 30
0.0
 10
8.92463065701557
 20
0.4156470986420615
 30
0.0
  0
SPLINE
  5
244
330
1F
100
AcDbEntity
  8
외형선
  6
Continuous
370
    15
100
AcDbSpline
210
0.0
220
0.0
230
1.0
 70
     8
 71
     3
 72
     8
 73
     4
 74
     0
 42
0.000000001
 43
0.00000001
 40
0.0
 40
0.0
 40
0.0
 40
0.0
 40
1.0
 40
1.0
 40
1.0
 40
1.0
 10
8.924630657015626
 20
-1.264416443934117
 30
0.0
 10
8.725409803793696
 20
-1.273017214964433
 30
0.0
 10
8.529960518794354
 20
-1.27169868847016
 30
0.0
 10
8.330317434839543
 20
-1.260453259042393
 30
0.0
  0
SPLINE
  5
245
330
1F
100
AcDbEntity
  8
외형선
  6
Continuous
370
    15
100
AcDbSpline
210
0.0
220
0.0
230
1.0
 70
    24
 71
     3
 72
    10
 73
     6
 74
     0
 42
0.000000001
 43
0.00000001
 40
0.0
 40
0.0
 40
0.0
 40
0.0
 40
0.5
 40
0.5
 40
1.0
 40
1.0
 40
1.0
 40
1.0
 10
8.924630657015513
 20
-0.1040884358926419
 30
0.0
 10
8.924630657015513
 20
-0.3720797519980508
 30
0.0
 10
8.924630657015513
 20
-0.6358683564110024
 30
0.0
 10
8.924630657015513
 20
-1.048315837558022
 30
0.0
 10
8.924630657015513
 20
-1.193779035633426
 30
0.0
 10
8.924630657015513
 20
-1.264416443934117
 30
0.0
  0
SPLINE
  5
246
330
1F
100
AcDbEntity
  8
0
  6
Continuous
 62
     1
370
    15
100
AcDbSpline
210
0.0
220
0.0
230
1.0
 70
     8
 71
     3
 72
    14
 73
    10
 74
     0
 42
0.000000001
 43
0.00000001
 40
0.0
 40
0.0
 40
0.0
 40
0.0
 40
0.0556671564701356
 40
0.2166260047907895
 40
0.3775823879277994
 40
0.5385364070240203
 40
0.6994881635411332
 40
0.8604377592463075
 40
1.0
 40
1.0
 40
1.0
 40
1.0
 10
17.67110870055882
 20
-0.1455237682018407
 30
0.0
 10
17.57318644779224
 20
-0.1068770021529915
 30
0.0
 10
17.19212681151799
 20
0.0435149894289353
 30
0.0
 10
16.52793557002155
 20
0.3156019273390527
 30
0.0
 10
15.67853907368362
 20
0.6292625157426954
 30
0.0
 10
14.82915642509226
 20
0.8852096523676636
 30
0.0
 10
13.97978694703721
 20
1.054373620470884
 30
0.0
 10
13.16804782589082
 20
1.130318352525812
 30
0.0
 10
12.63943232282452
 20
1.095668221668937
 30
0.0
 10
12.39393529024693
 20
1.079576176970207
 30
0.0
  0
SPLINE
  5
247
330
1F
100
AcDbEntity
  8
0
  6
Continuous
 62
     1
370
    15
100
AcDbSpline
210
0.0
220
0.0
230
1.0
 70
     8
 71
     3
 72
    32
 73
    28
 74
     0
 42
0.000000001
 43
0.00000001
 40
0.0
 40
0.0
 40
0.0
 40
0.0
 40
0.0040587791201747
 40
0.0473609761343704
 40
0.0909635515080477
 40
0.134254724852904
 40
0.17784594702124
 40
0.221117604008186
 40
0.2646890087903566
 40
0.3079316631277311
 40
0.3514737658995637
 40
0.394676923093294
 40
0.4381791884021539
 40
0.4813312422484219
 40
0.5247819639439534
 40
0.5678702353137604
 40
0.6112565640988553
 40
0.6542802944119739
 40
0.6976014934598905
 40
0.7406253837430218
 40
0.7839472258611246
 40
0.8269708449739667
 40
0.8702918247955442
 40
0.908213844748182
 40
0.9463385918600612
 40
0.9731336354091864
 40
0.9999999999999999
 40
0.9999999999999999
 40
0.9999999999999999
 40
0.9999999999999999
 10
10.80353113991984
 20
1.064264296115503
 30
0.0
 10
10.81782808526313
 20
1.070773715079802
 30
0.0
 10
10.98465590888918
 20
1.146730653629177
 30
0.0
 10
11.30482292694856
 20
1.265489325509279
 30
0.0
 10
11.76389745214794
 20
1.410663097317702
 30
0.0
 10
12.22288447224543
 20
1.51464401321838
 30
0.0
 10
12.68209910884224
 20
1.576464965449958
 30
0.0
 10
13.14068035565077
 20
1.594669939459926
 30
0.0
 10
13.59983004152025
 20
1.568748608080405
 30
0.0
 10
14.0580273514301
 20
1.498549974695685
 30
0.0
 10
14.5168825578541
 20
1.388169462238352
 30
0.0
 10
14.97470783228408
 20
1.237456875275534
 30
0.0
 10
15.43303137606097
 20
1.054928239007076
 30
0.0
 10
15.89047993374203
 20
0.8406872417191593
 30
0.0
 10
16.34802922955816
 20
0.6061100991464983
 30
0.0
 10
16.80507751530359
 20
0.3523624933323859
 30
0.0
 10
17.26165291745048
 20
0.0914028393362329
 30
0.0
 10
17.71834810363083
 20
-0.1736893019102865
 30
0.0
 10
18.17408092342782
 20
-0.4327580031580709
 30
0.0
 10
18.63094709719752
 20
-0.6804021647713725
 30
0.0
 10
19.08629928991519
 20
-0.9094868194052523
 30
0.0
 10
19.50433308708318
 20
-1.106121772583087
 30
0.0
 10
19.6936119466308
 20
-1.253143747531276
 30
0.0
 10
20.05225405530337
 20
-1.391440835322394
 30
0.0
 10
20.30577725798949
 20
-1.463687776778166
 30
0.0
 10
20.57956327563306
 20
-1.52876949197757
 30
0.0
 10
20.68683615973904
 20
-1.552328900325492
 30
0.0
 10
20.86263065701553
 20
-1.5875
 30
0.0
  0
SPLINE
  5
248
330
1F
100
AcDbEntity
  8
0
  6
Continuous
 62
     1
370
    15
100
AcDbSpline
210
0.0
220
0.0
230
1.0
 70
     8
 71
     3
 72
    14
 73
    10
 74
     0
 42
0.000000001
 43
0.00000001
 40
0.0
 40
0.0
 40
0.0
 40
0.0
 40
0.1096417046824683
 40
0.2592372065469635
 40
0.4088308712162342
 40
0.5584227899859621
 40
0.708013054385914
 40
0.8576017561678819
 40
0.9999999999999999
 40
0.9999999999999999
 40
0.9999999999999999
 40
0.9999999999999999
 10
14.60225888594908
 20
-1.308251577196259
 30
0.0
 10
14.3947534783706
 20
-1.327551793534653
 30
0.0
 10
13.90412701137228
 20
-1.373185288415165
 30
0.0
 10
13.13038473004468
 20
-1.294917033826032
 30
0.0
 10
12.28103572267526
 20
-1.102449489517518
 30
0.0
 10
11.43169577834239
 20
-0.8011668444425339
 30
0.0
 10
10.58237547026854
 20
-0.4258772203429046
 30
0.0
 10
9.746638277276162
 20
-0.0141372108959885
 30
0.0
 10
9.194097582651239
 20
0.2525050103711948
 30
0.0
 10
8.924630657015598
 20
0.3825429610750817
 30
0.0
  0
SPLINE
  5
249
330
1F
100
AcDbEntity
  8
0
  6
Continuous
 62
     1
370
    15
100
AcDbSpline
210
0.0
220
0.0
230
1.0
 70
     8
 71
     3
 72
    17
 73
    13
 74
     0
 42
0.000000001
 43
0.00000001
 40
0.0
 40
0.0
 40
0.0
 40
0.0
 40
0.0251693608236776
 40
0.1259566575971955
 40
0.2265306296145305
 40
0.3269944251565924
 40
0.4275024811033962
 40
0.5282083050079044
 40
0.6289448184719335
 40
0.752634158533214
 40
0.8763190390473055
 40
0.9999999999999999
 40
0.9999999999999999
 40
0.9999999999999999
 40
0.9999999999999999
 10
15.68015390436699
 20
-1.248561329976127
 30
0.0
 10
15.62348455753698
 20
-1.270654260942159
 30
0.0
 10
15.33989048596203
 20
-1.381215341952554
 30
0.0
 10
14.8294968862636
 20
-1.502935570624508
 30
0.0
 10
14.15005935881248
 20
-1.596328853547874
 30
0.0
 10
13.47132539982476
 20
-1.586718507949087
 30
0.0
 10
12.79228901150657
 20
-1.482238016095309
 30
0.0
 10
12.1122258177902
 20
-1.287394553906523
 30
0.0
 10
11.38001297525093
 20
-0.993561154585116
 30
0.0
 10
10.59597672118571
 20
-0.5994609306069165
 30
0.0
 10
9.76029409902958
 20
-0.1222231898076984
 30
0.0
 10
9.203182195173326
 20
0.1975780562962015
 30
0.0
 10
8.924630657020174
 20
0.3574761456906899
 30
0.0
  0
SPLINE
  5
24A
330
1F
100
AcDbEntity
  8
0
  6
Continuous
 62
     1
370
    15
100
AcDbSpline
210
0.0
220
0.0
230
1.0
 70
     8
 71
     3
 72
     8
 73
     4
 74
     0
 42
0.000000001
 43
0.00000001
 40
0.0
 40
0.0
 40
0.0
 40
0.0
 40
0.000963816925651
 40
0.000963816925651
 40
0.000963816925651
 40
0.000963816925651
 10
21.37063065701517
 20
-1.453685101208237
 30
0.0
 10
21.36822038617927
 20
-1.453020003099677
 30
0.0
 10
21.36581011534338
 20
-1.45235490499112
 30
0.0
 10
21.36339984449918
 20
-1.451689789747894
 30
0.0
  0
SPLINE
  5
24B
330
1F
100
AcDbEntity
  8
0
  6
Continuous
 62
     1
370
    15
100
AcDbSpline
210
0.0
220
0.0
230
1.0
 70
     8
 71
     3
 72
    16
 73
    12
 74
     0
 42
0.000000001
 43
0.00000001
 40
0.0
 40
0.0
 40
0.0
 40
0.0
 40
0.1195923667775201
 40
0.2401763065038391
 40
0.3498740907978935
 40
0.4603346702508717
 40
0.5699537718125957
 40
0.6803332783460155
 40
0.7899244735932283
 40
0.9002752395948698
 40
1.0
 40
1.0
 40
1.0
 40
1.0
 10
8.92463065701557
 20
-0.0836041339736155
 30
0.0
 10
9.0911888516832
 20
-0.1790329593294473
 30
0.0
 10
9.42568622046295
 20
-0.3706818364739348
 30
0.0
 10
9.912127404670656
 20
-0.6386787919966892
 30
0.0
 10
10.38640894087206
 20
-0.8794073147143706
 30
0.0
 10
10.84530052041177
 20
-1.08821798278754
 30
0.0
 10
11.30484012964999
 20
-1.267288378659487
 30
0.0
 10
11.76388814688192
 20
-1.41034652043745
 30
0.0
 10
12.22290447324167
 20
-1.514125296100836
 30
0.0
 10
12.66834839395381
 20
-1.576942520809261
 30
0.0
 10
12.96035330816619
 20
-1.582884641396362
 30
0.0
 10
13.09897069308977
 20
-1.585705420008615
 30
0.0
  0
SPLINE
  5
24C
330
1F
100
AcDbEntity
  8
0
  6
Continuous
 62
     1
370
    15
100
AcDbSpline
210
0.0
220
0.0
230
1.0
 70
     8
 71
     3
 72
    13
 73
     9
 74
     0
 42
0.000000001
 43
0.00000001
 40
0.0
 40
0.0
 40
0.0
 40
0.0
 40
0.0508113477919596
 40
0.2884579018827322
 40
0.496487300179424
 40
0.7056288019191299
 40
0.8526187775011254
 40
1.0
 40
1.0
 40
1.0
 40
1.0
 10
19.44437537264503
 20
1.064180617240538
 30
0.0
 10
19.47701710627194
 20
1.078839724677273
 30
0.0
 10
19.55236199296672
 20
1.162060020111817
 30
0.0
 10
19.78502006717042
 20
1.278623122640951
 30
0.0
 10
19.94941003701373
 20
1.396773721670682
 30
0.0
 10
20.13183001955207
 20
1.464919150495996
 30
0.0
 10
20.36291270309576
 20
1.54677864741128
 30
0.0
 10
20.513014686453
 20
1.572620595582343
 30
0.0
 10
20.86263065701553
 20
1.5875
 30
0.0
  0
LINE
  5
24D
330
1F
100
AcDbEntity
  8
0
  6
Continuous
 62
     1
370
    15
100
AcDbLine
 10
9.039587416690154
 20
-0.1490487362113271
 30
0.0
 11
8.92463065701557
 21
-0.1040884358926704
 31
0.0
  0
SPLINE
  5
24E
330
1F
100
AcDbEntity
  8
0
  6
Continuous
 62
     1
370
    15
100
AcDbSpline
210
0.0
220
0.0
230
1.0
 70
     8
 71
     3
 72
     8
 73
     4
 74
     0
 42
0.000000001
 43
0.00000001
 40
0.0
 40
0.0
 40
0.0
 40
0.0
 40
1.0
 40
1.0
 40
1.0
 40
1.0
 10
20.64183608069237
 20
0.4445952940610169
 30
0.0
 10
20.57081138594384
 20
0.5287363700798338
 30
0.0
 10
20.50920048241341
 20
0.6091412587436622
 30
0.0
 10
20.46056508670677
 20
0.683939609971155
 30
0.0
  0
LINE
  5
24F
330
1F
100
AcDbEntity
  8
0
  6
Continuous
 62
     1
370
    15
100
AcDbLine
 10
20.46056508670677
 20
0.683939609971155
 30
0.0
 11
21.62463065701553
 21
0.0
 31
0.0
  0
LINE
  5
250
330
1F
100
AcDbEntity
  8
0
  6
Continuous
 62
     1
370
    15
100
AcDbLine
 10
21.62463065701553
 20
0.0
 30
0.0
 11
21.62463065701553
 21
-0.4242481768220614
 31
0.0
  0
SPLINE
  5
251
330
1F
100
AcDbEntity
  8
0
  6
Continuous
 62
     1
370
    15
100
AcDbSpline
210
0.0
220
0.0
230
1.0
 70
     8
 71
     3
 72
    10
 73
     6
 74
     0
 42
0.000000001
 43
0.00000001
 40
0.0
 40
0.0
 40
0.0
 40
0.0
 40
0.5
 40
0.5
 40
1.0
 40
1.0
 40
1.0
 40
1.0
 10
21.62463065701553
 20
-0.4242481768220614
 30
0.0
 10
21.45449758385041
 20
-0.2904929793873734
 30
0.0
 10
21.28720938773421
 20
-0.1512488725093704
 30
0.0
 10
20.95845881070409
 20
0.1384796766033816
 30
0.0
 10
20.79546699851204
 20
0.2904950568622482
 30
0.0
 10
20.6418360806922
 20
0.4445952940610809
 30
0.0
  0
SPLINE
  5
252
330
1F
100
AcDbEntity
  8
0
  6
Continuous
 62
     1
370
    15
100
AcDbSpline
210
0.0
220
0.0
230
1.0
 70
     8
 71
     3
 72
    12
 73
     8
 74
     0
 42
0.000000001
 43
0.00000001
 40
0.0
 40
0.0
 40
0.0
 40
0.0
 40
0.1958406670319282
 40
0.4281247662410865
 40
0.6604049771818401
 40
0.8926814405694392
 40
1.0
 40
1.0
 40
1.0
 40
1.0
 10
20.64183608035495
 20
0.4445952942073816
 30
0.0
 10
20.40311326238094
 20
0.5447211800159479
 30
0.0
 10
19.8812443768706
 20
0.7636050926686906
 30
0.0
 10
19.07620944760009
 20
1.032518889437206
 30
0.0
 10
18.22676929764759
 20
1.214486901896109
 30
0.0
 10
17.52965994459328
 20
1.289159629562036
 30
0.0
 10
17.11569887342313
 20
1.256733561163749
 30
0.0
 10
16.98487921225836
 20
1.246486299823978
 30
0.0
  0
LINE
  5
253
330
1F
100
AcDbEntity
  8
0
  6
Continuous
 62
     1
370
    15
100
AcDbLine
 10
9.625510364476384
 20
-1.187474925915815
 30
0.0
 11
8.92463065701557
 21
-1.264416443934117
 31
0.0
  0
SPLINE
  5
254
330
1F
100
AcDbEntity
  8
0
  6
Continuous
 62
     1
370
    15
100
AcDbSpline
210
0.0
220
0.0
230
1.0
 70
     8
 71
     3
 72
    19
 73
    15
 74
     0
 42
0.000000001
 43
0.00000001
 40
0.0
 40
0.0
 40
0.0
 40
0.0
 40
0.003761996832016
 40
0.0947322254480517
 40
0.185701041655169
 40
0.2766685009487906
 40
0.36763465900598
 40
0.4585995716781958
 40
0.5495632949839971
 40
0.6405258851017007
 40
0.7314873983619938
 40
0.8224478912405025
 40
0.9134074203503187
 40
1.0
 40
1.0
 40
1.0
 40
1.0
 10
18.26189198180714
 20
-1.191725314860271
 30
0.0
 10
18.25018285482298
 20
-1.194286121204648
 30
0.0
 10
17.9553310229918
 20
-1.258770727326528
 30
0.0
 10
17.37734256962761
 20
-1.282066350190973
 30
0.0
 10
16.5279309030704
 20
-1.241272173279945
 30
0.0
 10
15.67853379684436
 20
-1.070565664323155
 30
0.0
 10
14.8291503801259
 20
-0.8018446006445075
 30
0.0
 10
13.97978018717424
 20
-0.45634417210659
 30
0.0
 10
13.13042241113965
 20
-0.0678448775714529
 30
0.0
 10
12.28107719362112
 20
0.3269772841792573
 30
0.0
 10
11.43174121317084
 20
0.6914318333802427
 30
0.0
 10
10.58242404193774
 20
0.9881972795761484
 30
0.0
 10
9.746676473169458
 20
1.196415829795775
 30
0.0
 10
9.194115795027216
 20
1.242124310666306
 30
0.0
 10
8.92463065701557
 20
1.264416443934117
 30
0.0
  0
SPLINE
  5
255
330
1F
100
AcDbEntity
  8
외형선
  6
Continuous
370
    15
100
AcDbSpline
210
0.0
220
0.0
230
1.0
 70
    24
 71
     3
 72
    13
 73
     9
 74
     0
 42
0.000000001
 43
0.00000001
 40
0.0
 40
0.0
 40
0.0
 40
0.0
 40
0.1345280325237933
 40
0.2708351083768171
 40
0.467366558410846
 40
0.6695974338098486
 40
0.8460721455025976
 40
1.0
 40
1.0
 40
1.0
 40
1.0
 10
8.92463065701557
 20
1.264416443934117
 30
0.0
 10
8.92463065701557
 20
1.248503662805831
 30
0.0
 10
8.92463065701557
 20
1.216467664652868
 30
0.0
 10
8.92463065701557
 20
1.12940092955786
 30
0.0
 10
8.92463065701557
 20
0.9982639871255046
 30
0.0
 10
8.92463065701557
 20
0.8165006577600096
 30
0.0
 10
8.92463065701557
 20
0.6204406081486766
 30
0.0
 10
8.92463065701557
 20
0.4807337093253139
 30
0.0
 10
8.92463065701557
 20
0.4156470986420615
 30
0.0
  0
SPLINE
  5
256
330
1F
100
AcDbEntity
  8
외형선
  6
Continuous
370
    15
100
AcDbSpline
210
0.0
220
0.0
230
1.0
 70
    24
 71
     3
 72
    10
 73
     6
 74
     0
 42
0.000000001
 43
0.00000001
 40
0.0
 40
0.0
 40
0.0
 40
0.0
 40
0.5
 40
0.5
 40
1.0
 40
1.0
 40
1.0
 40
1.0
 10
8.924630657015513
 20
-0.1040884358926419
 30
0.0
 10
8.924630657015513
 20
-0.3720797519980508
 30
0.0
 10
8.924630657015513
 20
-0.6358683564110024
 30
0.0
 10
8.924630657015513
 20
-1.048315837558022
 30
0.0
 10
8.924630657015513
 20
-1.193779035633426
 30
0.0
 10
8.924630657015513
 20
-1.264416443934117
 30
0.0
  0
LINE
  5
257
330
1F
100
AcDbEntity
  8
중심선
 48
0.8
100
AcDbLine
 10
-38.52536934298445
 20
-0.0000000000000071
 30
0.0
 11
24.62463065701553
 21
0.0
 31
0.0
  0
CIRCLE
  5
258
330
1F
100
AcDbEntity
  8
해칭선
100
AcDbCircle
 10
0.0
 20
0.0
 30
0.0
 40
3.000000000000001
  0
DIMENSION
  5
259
330
1F
100
AcDbEntity
  8
치수문자_일반주서
100
AcDbDimension
  2
*D13
 10
-48.21536934298443
 20
-3.175000000000062
 30
0.0
 11
-48.21536934298445
 21
-0.0000000000000142
 31
0.0
 70
   160
  1
%%c<>
 71
     2
 42
6.349999999999994
 52
-270.0
  3
SLDDIMSTYLE0
100
AcDbAlignedDimension
 13
-34.71536934298445
 23
3.174999999999983
 33
0.0
 14
-34.71536934298445
 24
-3.175000000000011
 34
0.0
 50
90.0000000000002
100
AcDbRotatedDimension
1001
ACAD
1000
DSTYLE
1002
{
1070
   171
1070
     6
1070
   273
1070
     7
1002
}
  0
DIMENSION
  5
25A
330
1F
100
AcDbEntity
  8
치수문자_일반주서
100
AcDbDimension
  2
*D14
 10
35.97649717912628
 20
-1.587499999999945
 30
0.0
 11
35.97649717912617
 21
23.78474104093321
 31
0.0
 70
   160
  1
%%c<>
 71
     2
 42
3.175000000000004
 52
-270.0
  3
SLDDIMSTYLE0
100
AcDbAlignedDimension
 13
21.62463065701553
 23
1.587500000000006
 33
0.0
 14
21.62463065701553
 24
-1.587499999999999
 34
0.0
 50
90.0000000000002
100
AcDbRotatedDimension
1001
ACAD
1000
DSTYLE
1002
{
1070
   171
1070
     6
1070
   273
1070
     7
1002
}
  0
DIMENSION
  5
25B
330
1F
100
AcDbEntity
  8
치수문자_일반주서
100
AcDbDimension
  2
*D15
 10
8.92463065701557
 20
10.72162689894495
 30
0.0
 11
-8.939990241154788
 21
10.72162689894495
 31
0.0
 70
   160
  1
<>
 71
     2
 42
12.69999999999996
  3
SLDDIMSTYLE0
100
AcDbAlignedDimension
 13
21.62463065701553
 23
1.587500000000006
 33
0.0
 14
8.92463065701557
 24
1.264416443934117
 34
0.0
 50
0.000000000000008
100
AcDbRotatedDimension
1001
ACAD
1000
DSTYLE
1002
{
1070
   171
1070
     6
1070
   273
1070
     7
1002
}
  0
DIMENSION
  5
25C
330
1F
100
AcDbEntity
  8
치수문자_일반주서
100
AcDbDimension
  2
*D16
 10
-35.52536934298445
 20
24.08397556034826
 30
0.0
 11
-7.207536065157427
 21
24.08397556034826
 31
0.0
 70
   160
  1
<>
 71
     2
 42
57.14999999999998
  3
SLDDIMSTYLE0
100
AcDbAlignedDimension
 13
21.62463065701553
 23
1.587500000000006
 33
0.0
 14
-35.52536934298445
 24
2.364999999999995
 34
0.0
 50
-0.0000000000000036
100
AcDbRotatedDimension
1001
ACAD
1000
DSTYLE
1002
{
1070
   171
1070
     6
1070
   273
1070
     7
1002
}
  0
INSERT
  5
25D
330
1F
100
AcDbEntity
  8
해칭선
100
AcDbBlockReference
  2
SW_DOWELSYMBOL_0
 10
0.0
 20
0.0
 30
0.0
  0
SPLINE
  5
260
330
1F
100
AcDbEntity
  8
0
  6
Continuous
 62
     1
370
    15
100
AcDbSpline
210
0.0
220
0.0
230
1.0
 70
     8
 71
     3
 72
    12
 73
     8
 74
     0
 42
0.000000001
 43
0.00000001
 40
0.0276898863434082
 40
0.0276898863434082
 40
0.0276898863434082
 40
0.0276898863434082
 40
0.2058047672527509
 40
0.4116058942888648
 40
0.6174035030621524
 40
0.8231977159931161
 40
1.0
 40
1.0
 40
1.0
 40
1.0
 10
21.51033569532336
 20
-1.226900278214497
 30
0.0
 10
21.26526868385767
 20
-1.171793459351532
 30
0.0
 10
20.73704145190726
 20
-1.048213003994558
 30
0.0
 10
19.92566130851492
 20
-0.7402449103305315
 30
0.0
 10
19.07619952713645
 20
-0.357208990120121
 30
0.0
 10
18.26663865739937
 20
0.0456480466102889
 30
0.0
 10
17.74023257739793
 20
0.2959903511506639
 30
0.0
 10
17.4969742151174
 20
0.4116764370937815
 30
0.0
  0
LINE
  5
261
330
1F
100
AcDbEntity
  8
0
  6
Continuous
 62
     1
370
    15
100
AcDbLine
 10
21.62463065701553
 20
0.0
 30
0.0
 11
21.62463065701553
 21
0.8254999999999999
 31
0.0
  0
LINE
  5
263
330
1F
100
AcDbEntity
  8
0
  6
Continuous
 62
     1
370
    15
100
AcDbLine
 10
21.57037328226522
 20
1.107890467977736
 30
0.0
 11
21.03580119991955
 21
1.074790598381917
 31
0.0
  0
SPLINE
  5
264
330
1F
100
AcDbEntity
  8
0
  6
Continuous
 62
     1
370
    15
100
AcDbSpline
210
0.0
220
0.0
230
1.0
 70
     8
 71
     3
 72
    10
 73
     6
 74
     0
 42
0.000000001
 43
0.00000001
 40
0.0423598587931677
 40
0.0423598587931677
 40
0.0423598587931677
 40
0.0423598587931677
 40
0.5
 40
0.5
 40
1.0
 40
1.0
 40
1.0
 40
1.0
 10
21.57445220789668
 20
1.097444993888713
 30
0.0
 10
21.39386333858567
 20
1.047126561168994
 30
0.0
 10
21.21451444170114
 20
0.9902543962196759
 30
0.0
 10
20.84221339432969
 20
0.8554026879690753
 30
0.0
 10
20.64940488802995
 20
0.7765027748540803
 30
0.0
 10
20.46056508670569
 20
0.683939609971965
 30
0.0
  0
SPLINE
  5
268
330
1F
100
AcDbEntity
  8
0
  6
Continuous
 62
     1
370
    15
100
AcDbSpline
210
0.0
220
0.0
230
1.0
 70
    24
 71
     3
 72
     8
 73
     4
 74
     0
 42
0.000000001
 43
0.00000001
 40
0.5444863429183678
 40
0.5444863429183678
 40
0.5444863429183678
 40
0.5444863429183678
 40
1.0
 40
1.0
 40
1.0
 40
1.0
 10
21.6246306570155
 20
-0.82549999994092
 30
0.0
 10
21.62463065701553
 20
-0.7019497359026357
 30
0.0
 10
21.62463065701553
 20
-0.5658710523761723
 30
0.0
 10
21.62463065701553
 20
-0.4242481768221111
 30
0.0
  0
ARC
  5
2AC
330
1F
100
AcDbEntity
  8
0
  6
Continuous
 62
     1
370
    15
100
AcDbCircle
 10
20.86263065701553
 20
0.8254999999999999
 30
0.0
 40
0.762
100
AcDbArc
 50
0.0
 51
90.0
  0
ARC
  5
2AD
102
{ACAD_REACTORS
102
}
330
1F
100
AcDbEntity
  8
0
  6
Continuous
 62
     1
370
    15
100
AcDbCircle
 10
20.86263065701553
 20
-0.8254999999999999
 30
0.0
 40
0.762
100
AcDbArc
 50
270.0
 51
0.0
  0
SPLINE
  5
2AE
330
1F
100
AcDbEntity
  8
0
  6
Continuous
 62
     1
370
    15
100
AcDbSpline
210
0.0
220
0.0
230
1.0
 70
     8
 71
     3
 72
    18
 73
    14
 74
     0
 42
0.000000001
 43
0.00000001
 40
0.0073669781517486
 40
0.0073669781517486
 40
0.0073669781517486
 40
0.0073669781517486
 40
0.1046979554299161
 40
0.2094304293125192
 40
0.3142077837117926
 40
0.4190085142526208
 40
0.5096328352409327
 40
0.6001144997085117
 40
0.6905922331549775
 40
0.7812048436437573
 40
0.8719615609344232
 40
0.9625261840306045
 40
0.9999999999999999
 40
0.9999999999999999
 40
0.9999999999999999
 40
0.9999999999999999
 10
21.3153616117032
 20
-1.438426327275659
 30
0.0
 10
21.07196054981941
 20
-1.371160353306557
 30
0.0
 10
20.56664774295618
 20
-1.228740378872796
 30
0.0
 10
19.79925141913481
 20
-0.8882390473736663
 30
0.0
 10
19.01311864297332
 20
-0.4759974250984484
 30
0.0
 10
18.26215833295521
 20
-0.0432162637772961
 30
0.0
 10
17.54723246521291
 20
0.3698225099787464
 30
0.0
 10
16.86838421407856
 20
0.7405231990488161
 30
0.0
 10
16.18955943435503
 20
1.065713493364576
 30
0.0
 10
15.50984352222076
 20
1.327720295639836
 30
0.0
 10
14.82951473068789
 20
1.502989858527009
 30
0.0
 10
14.28252713841607
 20
1.588330979083899
 30
0.0
 10
13.96247850048474
 20
1.57861219692289
 30
0.0
 10
13.86880785089994
 20
1.575767739767635
 30
0.0
  0
DIMENSION
  5
2AF
102
{ACAD_REACTORS
102
}
102
{ACAD_XDICTIONARY
360
2B0
102
}
330
1F
100
AcDbEntity
  8
치수문자_일반주서
100
AcDbDimension
  2
*D18
 10
20.86263065701553
 20
-0.8254999999999999
 30
0.0
 11
32.44151332186905
 21
-19.04172652461411
 31
0.0
 70
   164
  1
<>
 71
     5
 42
0.762000000000006
  3
SLDDIMSTYLE0
100
AcDbRadialDimension
 15
21.27139650283809
 25
-1.468582019099413
 35
0.0
 40
0.0
1001
ACAD
1000
DSTYLE
1002
{
1070
   171
1070
     3
1002
}
1001
ACAD_DSTYLE_DIMRADIAL_EXTENSION
1070
   387
1070
     1
1070
   388
1040
4.71238898038469
1070
   390
1040
0.0
  0
ENDSEC
  0
SECTION
  2
OBJECTS
  0
DICTIONARY
  5
C
330
0
100
AcDbDictionary
281
     1
  3
ACAD_GROUP
350
D
  3
ACAD_IMAGE_VARS
350
163
  3
ACAD_LAYOUT
350
1A
  3
ACAD_MLINESTYLE
350
17
  3
ACAD_PLOTSETTINGS
350
19
  3
ACAD_PLOTSTYLENAME
350
E
  3
ACAD_SCALELIST
350
47
  3
APPDATA
350
161
  3
DWGPROPS
350
2BC
  0
DICTIONARY
  5
21C
330
2
100
AcDbDictionary
280
     1
281
     1
  3
ACAD_LAYERSTATES
360
21D
  0
DICTIONARY
  5
2B0
330
2AF
100
AcDbDictionary
280
     1
281
     1
  0
DICTIONARY
  5
D
102
{ACAD_REACTORS
330
C
102
}
330
C
100
AcDbDictionary
281
     1
  0
RASTERVARIABLES
  5
163
102
{ACAD_REACTORS
330
C
102
}
330
C
100
AcDbRasterVariables
 90
        0
 70
     1
 71
     1
 72
     1
  0
DICTIONARY
  5
1A
102
{ACAD_REACTORS
330
C
102
}
330
C
100
AcDbDictionary
281
     1
  3
Layout1
350
1E
  3
Layout2
350
26
  3
Model
350
22
  0
DICTIONARY
  5
17
102
{ACAD_REACTORS
330
C
102
}
330
C
100
AcDbDictionary
281
     1
  3
Standard
350
18
  0
DICTIONARY
  5
19
102
{ACAD_REACTORS
330
C
102
}
330
C
100
AcDbDictionary
281
     1
  0
ACDBDICTIONARYWDFLT
  5
E
102
{ACAD_REACTORS
330
C
102
}
330
C
100
AcDbDictionary
281
     1
  3
Normal
350
F
100
AcDbDictionaryWithDefault
340
F
  0
DICTIONARY
  5
47
102
{ACAD_REACTORS
330
C
102
}
330
C
100
AcDbDictionary
281
     1
  3
A0
350
48
  3
A1
350
49
  3
A2
350
4A
  3
A3
350
4B
  3
A4
350
4C
  3
A5
350
4D
  3
A6
350
4E
  3
A7
350
4F
  3
A8
350
50
  3
A9
350
51
  3
B0
350
52
  3
B1
350
53
  3
B2
350
54
  3
B3
350
55
  3
B4
350
56
  3
B5
350
57
  3
B6
350
58
  3
B7
350
59
  3
B8
350
5A
  3
B9
350
5B
  3
C0
350
5C
  3
C1
350
5D
  3
C2
350
5E
  3
C3
350
5F
  3
C4
350
60
  3
C5
350
61
  3
C6
350
62
  3
C7
350
63
  3
C8
350
64
  3
C9
350
65
  3
D0
350
66
  3
D1
350
67
  3
D2
350
68
  0
DICTIONARY
  5
161
102
{ACAD_REACTORS
330
C
102
}
330
C
100
AcDbDictionary
281
     1
  0
XRECORD
  5
2BC
102
{ACAD_REACTORS
330
C
102
}
330
C
100
AcDbXrecord
280
     1
  1
DWGPROPS COOKIE
  2

  3

  4

  6

  7

  8
12017012
  9

300
=
301
=
302
=
303
=
304
=
305
=
306
=
307
=
308
=
309
=
 40
0.0
 41
2458288.280597894
 42
2458295.287139757
  1

 90
        0
  0
DICTIONARY
  5
21D
102
{ACAD_REACTORS
330
21C
102
}
330
21C
100
AcDbDictionary
281
     1
  0
LAYOUT
  5
1E
102
{ACAD_REACTORS
330
1A
102
}
330
1A
100
AcDbPlotSettings
  1

  2
none_device
  4

  6

 40
0.0
 41
0.0
 42
0.0
 43
0.0
 44
0.0
 45
0.0
 46
0.0
 47
0.0
 48
0.0
 49
0.0
140
0.0
141
0.0
142
1.0
143
1.0
 70
   688
 72
     1
 73
     0
 74
     5
  7

 75
    16
147
1.0
148
0.0
149
0.0
100
AcDbLayout
  1
Layout1
 70
     1
 71
     1
 10
0.0
 20
0.0
 11
420.0
 21
297.0
 12
0.0
 22
0.0
 32
0.0
 14
1.000000000000000E+20
 24
1.000000000000000E+20
 34
1.000000000000000E+20
 15
-1.000000000000000E+20
 25
-1.000000000000000E+20
 35
-1.000000000000000E+20
146
0.0
 13
0.0
 23
0.0
 33
0.0
 16
1.0
 26
0.0
 36
0.0
 17
0.0
 27
1.0
 37
0.0
 76
     0
330
1B
  0
LAYOUT
  5
26
102
{ACAD_REACTORS
330
1A
102
}
330
1A
100
AcDbPlotSettings
  1

  2
none_device
  4

  6

 40
0.0
 41
0.0
 42
0.0
 43
0.0
 44
0.0
 45
0.0
 46
0.0
 47
0.0
 48
0.0
 49
0.0
140
0.0
141
0.0
142
1.0
143
1.0
 70
   688
 72
     1
 73
     0
 74
     5
  7

 75
    16
147
1.0
148
0.0
149
0.0
100
AcDbLayout
  1
Layout2
 70
     1
 71
     2
 10
0.0
 20
0.0
 11
0.0
 21
0.0
 12
0.0
 22
0.0
 32
0.0
 14
0.0
 24
0.0
 34
0.0
 15
0.0
 25
0.0
 35
0.0
146
0.0
 13
0.0
 23
0.0
 33
0.0
 16
1.0
 26
0.0
 36
0.0
 17
0.0
 27
1.0
 37
0.0
 76
     0
330
23
  0
LAYOUT
  5
22
102
{ACAD_REACTORS
330
1A
102
}
330
1A
100
AcDbPlotSettings
  1

  2
none_device
  4
ANSI_A_(11.00_x_8.50_Inches)
  6

 40
6.35
 41
19.05
 42
6.35000508
 43
19.05000254
 44
279.4
 45
215.9
 46
99.14430414511142
 47
103.1282283435221
 48
0.0
 49
0.0
140
0.0
141
0.0
142
0.0707425392874294
143
1.0
 70
  1696
 72
     0
 73
     0
 74
     0
  7

 75
     0
147
0.0235690232323232
148
0.0
149
0.0
100
AcDbLayout
  1
Model
 70
     1
 71
     0
 10
0.0
 20
0.0
 11
420.0
 21
297.0
 12
0.0
 22
0.0
 32
0.0
 14
1.000000000000000E+20
 24
1.000000000000000E+20
 34
1.000000000000000E+20
 15
-1.000000000000000E+20
 25
-1.000000000000000E+20
 35
-1.000000000000000E+20
146
0.0
 13
0.0
 23
0.0
 33
0.0
 16
1.0
 26
0.0
 36
0.0
 17
0.0
 27
1.0
 37
0.0
 76
     0
330
1F
331
29
  0
MLINESTYLE
  5
18
102
{ACAD_REACTORS
330
17
102
}
330
17
100
AcDbMlineStyle
  2
Standard
 70
     0
  3

 62
   256
 51
90.0
 52
90.0
 71
     2
 49
0.5
 62
   256
  6
BYLAYER
 49
-0.5
 62
   256
  6
BYLAYER
  0
ACDBPLACEHOLDER
  5
F
102
{ACAD_REACTORS
330
E
102
}
330
E
  0
SCALE
  5
48
102
{ACAD_REACTORS
330
47
102
}
330
47
100
AcDbScale
 70
     0
300
1:1
140
1.0
141
1.0
290
     1
  0
SCALE
  5
49
102
{ACAD_REACTORS
330
47
102
}
330
47
100
AcDbScale
 70
     0
300
1:2
140
1.0
141
2.0
290
     0
  0
SCALE
  5
4A
102
{ACAD_REACTORS
330
47
102
}
330
47
100
AcDbScale
 70
     0
300
1:4
140
1.0
141
4.0
290
     0
  0
SCALE
  5
4B
102
{ACAD_REACTORS
330
47
102
}
330
47
100
AcDbScale
 70
     0
300
1:5
140
1.0
141
5.0
290
     0
  0
SCALE
  5
4C
102
{ACAD_REACTORS
330
47
102
}
330
47
100
AcDbScale
 70
     0
300
1:8
140
1.0
141
8.0
290
     0
  0
SCALE
  5
4D
102
{ACAD_REACTORS
330
47
102
}
330
47
100
AcDbScale
 70
     0
300
1:10
140
1.0
141
10.0
290
     0
  0
SCALE
  5
4E
102
{ACAD_REACTORS
330
47
102
}
330
47
100
AcDbScale
 70
     0
300
1:16
140
1.0
141
16.0
290
     0
  0
SCALE
  5
4F
102
{ACAD_REACTORS
330
47
102
}
330
47
100
AcDbScale
 70
     0
300
1:20
140
1.0
141
20.0
290
     0
  0
SCALE
  5
50
102
{ACAD_REACTORS
330
47
102
}
330
47
100
AcDbScale
 70
     0
300
1:30
140
1.0
141
30.0
290
     0
  0
SCALE
  5
51
102
{ACAD_REACTORS
330
47
102
}
330
47
100
AcDbScale
 70
     0
300
1:40
140
1.0
141
40.0
290
     0
  0
SCALE
  5
52
102
{ACAD_REACTORS
330
47
102
}
330
47
100
AcDbScale
 70
     0
300
1:50
140
1.0
141
50.0
290
     0
  0
SCALE
  5
53
102
{ACAD_REACTORS
330
47
102
}
330
47
100
AcDbScale
 70
     0
300
1:100
140
1.0
141
100.0
290
     0
  0
SCALE
  5
54
102
{ACAD_REACTORS
330
47
102
}
330
47
100
AcDbScale
 70
     0
300
2:1
140
2.0
141
1.0
290
     0
  0
SCALE
  5
55
102
{ACAD_REACTORS
330
47
102
}
330
47
100
AcDbScale
 70
     0
300
4:1
140
4.0
141
1.0
290
     0
  0
SCALE
  5
56
102
{ACAD_REACTORS
330
47
102
}
330
47
100
AcDbScale
 70
     0
300
8:1
140
8.0
141
1.0
290
     0
  0
SCALE
  5
57
102
{ACAD_REACTORS
330
47
102
}
330
47
100
AcDbScale
 70
     0
300
10:1
140
10.0
141
1.0
290
     0
  0
SCALE
  5
58
102
{ACAD_REACTORS
330
47
102
}
330
47
100
AcDbScale
 70
     0
300
100:1
140
100.0
141
1.0
290
     0
  0
SCALE
  5
59
102
{ACAD_REACTORS
330
47
102
}
330
47
100
AcDbScale
 70
     0
300
1/128" = 1'-0"
140
0.0078125
141
12.0
290
     0
  0
SCALE
  5
5A
102
{ACAD_REACTORS
330
47
102
}
330
47
100
AcDbScale
 70
     0
300
1/64" = 1'-0"
140
0.015625
141
12.0
290
     0
  0
SCALE
  5
5B
102
{ACAD_REACTORS
330
47
102
}
330
47
100
AcDbScale
 70
     0
300
1/32" = 1'-0"
140
0.03125
141
12.0
290
     0
  0
SCALE
  5
5C
102
{ACAD_REACTORS
330
47
102
}
330
47
100
AcDbScale
 70
     0
300
1/16" = 1'-0"
140
0.0625
141
12.0
290
     0
  0
SCALE
  5
5D
102
{ACAD_REACTORS
330
47
102
}
330
47
100
AcDbScale
 70
     0
300
3/32" = 1'-0"
140
0.09375
141
12.0
290
     0
  0
SCALE
  5
5E
102
{ACAD_REACTORS
330
47
102
}
330
47
100
AcDbScale
 70
     0
300
1/8" = 1'-0"
140
0.125
141
12.0
290
     0
  0
SCALE
  5
5F
102
{ACAD_REACTORS
330
47
102
}
330
47
100
AcDbScale
 70
     0
300
3/16" = 1'-0"
140
0.1875
141
12.0
290
     0
  0
SCALE
  5
60
102
{ACAD_REACTORS
330
47
102
}
330
47
100
AcDbScale
 70
     0
300
1/4" = 1'-0"
140
0.25
141
12.0
290
     0
  0
SCALE
  5
61
102
{ACAD_REACTORS
330
47
102
}
330
47
100
AcDbScale
 70
     0
300
3/8" = 1'-0"
140
0.375
141
12.0
290
     0
  0
SCALE
  5
62
102
{ACAD_REACTORS
330
47
102
}
330
47
100
AcDbScale
 70
     0
300
1/2" = 1'-0"
140
0.5
141
12.0
290
     0
  0
SCALE
  5
63
102
{ACAD_REACTORS
330
47
102
}
330
47
100
AcDbScale
 70
     0
300
3/4" = 1'-0"
140
0.75
141
12.0
290
     0
  0
SCALE
  5
64
102
{ACAD_REACTORS
330
47
102
}
330
47
100
AcDbScale
 70
     0
300
1" = 1'-0"
140
1.0
141
12.0
290
     0
  0
SCALE
  5
65
102
{ACAD_REACTORS
330
47
102
}
330
47
100
AcDbScale
 70
     0
300
1-1/2" = 1'-0"
140
1.5
141
12.0
290
     0
  0
SCALE
  5
66
102
{ACAD_REACTORS
330
47
102
}
330
47
100
AcDbScale
 70
     0
300
3" = 1'-0"
140
3.0
141
12.0
290
     0
  0
SCALE
  5
67
102
{ACAD_REACTORS
330
47
102
}
330
47
100
AcDbScale
 70
     0
300
6" = 1'-0"
140
6.0
141
12.0
290
     0
  0
SCALE
  5
68
102
{ACAD_REACTORS
330
47
102
}
330
47
100
AcDbScale
 70
     0
300
1'-0" = 1'-0"
140
12.0
141
12.0
290
     0
  0
ENDSEC
  0
EOF
