  0
SECTION
  2
HEADER
  9
$ACADVER
  1
AC1015
  9
$ACADMAINTVER
 70
     6
  9
$DWGCODEPAGE
  3
ANSI_949
  9
$INSBASE
 10
0.0
 20
0.0
 30
0.0
  9
$EXTMIN
 10
1.000000000000000E+20
 20
1.000000000000000E+20
 30
1.000000000000000E+20
  9
$EXTMAX
 10
-1.000000000000000E+20
 20
-1.000000000000000E+20
 30
-1.000000000000000E+20
  9
$LIMMIN
 10
0.0
 20
0.0
  9
$LIMMAX
 10
420.0
 20
297.0
  9
$ORTHOMODE
 70
     0
  9
$REGENMODE
 70
     1
  9
$FILLMODE
 70
     1
  9
$QTEXTMODE
 70
     0
  9
$MIRRTEXT
 70
     1
  9
$LTSCALE
 40
1.0
  9
$ATTMODE
 70
     1
  9
$TEXTSIZE
 40
3.5
  9
$TRACEWID
 40
1.0
  9
$TEXTSTYLE
  7
Standard
  9
$CLAYER
  8
0
  9
$CELTYPE
  6
ByLayer
  9
$CECOLOR
 62
   256
  9
$CELTSCALE
 40
1.0
  9
$DISPSILH
 70
     0
  9
$DIMSCALE
 40
1.0
  9
$DIMASZ
 40
3.302
  9
$DIMEXO
 40
1.0
  9
$DIMDLI
 40
3.75
  9
$DIMRND
 40
0.0
  9
$DIMDLE
 40
0.0
  9
$DIMEXE
 40
1.0
  9
$DIMTP
 40
0.0
  9
$DIMTM
 40
0.0
  9
$DIMTXT
 40
3.5
  9
$DIMCEN
 40
2.5
  9
$DIMTSZ
 40
0.0
  9
$DIMTOL
 70
     0
  9
$DIMLIM
 70
     0
  9
$DIMTIH
 70
     1
  9
$DIMTOH
 70
     1
  9
$DIMSE1
 70
     0
  9
$DIMSE2
 70
     0
  9
$DIMTAD
 70
     1
  9
$DIMZIN
 70
     0
  9
$DIMBLK
  1

  9
$DIMASO
 70
     1
  9
$DIMSHO
 70
     1
  9
$DIMPOST
  1

  9
$DIMAPOST
  1

  9
$DIMALT
 70
     0
  9
$DIMALTD
 70
     3
  9
$DIMALTF
 40
0.0393700787401575
  9
$DIMLFAC
 40
1.0
  9
$DIMTOFL
 70
     1
  9
$DIMTVP
 40
0.0
  9
$DIMTIX
 70
     0
  9
$DIMSOXD
 70
     0
  9
$DIMSAH
 70
     0
  9
$DIMBLK1
  1

  9
$DIMBLK2
  1

  9
$DIMSTYLE
  2
ISO-25
  9
$DIMCLRD
 70
     0
  9
$DIMCLRE
 70
     0
  9
$DIMCLRT
 70
     0
  9
$DIMTFAC
 40
1.0
  9
$DIMGAP
 40
1.524
  9
$DIMJUST
 70
     0
  9
$DIMSD1
 70
     0
  9
$DIMSD2
 70
     0
  9
$DIMTOLJ
 70
     0
  9
$DIMTZIN
 70
     0
  9
$DIMALTZ
 70
     0
  9
$DIMALTTZ
 70
     0
  9
$DIMUPT
 70
     0
  9
$DIMDEC
 70
     2
  9
$DIMTDEC
 70
     2
  9
$DIMALTU
 70
     2
  9
$DIMALTTD
 70
     3
  9
$DIMTXSTY
  7
Standard
  9
$DIMAUNIT
 70
     0
  9
$DIMADEC
 70
     2
  9
$DIMALTRND
 40
0.0
  9
$DIMAZIN
 70
     0
  9
$DIMDSEP
 70
    44
  9
$DIMATFIT
 70
     3
  9
$DIMFRAC
 70
     0
  9
$DIMLDRBLK
  1

  9
$DIMLUNIT
 70
     2
  9
$DIMLWD
 70
    -2
  9
$DIMLWE
 70
    -2
  9
$DIMTMOVE
 70
     0
  9
$LUNITS
 70
     2
  9
$LUPREC
 70
     2
  9
$SKETCHINC
 40
1.0
  9
$FILLETRAD
 40
10.0
  9
$AUNITS
 70
     0
  9
$AUPREC
 70
     2
  9
$MENU
  1
.
  9
$ELEVATION
 40
0.0
  9
$PELEVATION
 40
0.0
  9
$THICKNESS
 40
0.0
  9
$LIMCHECK
 70
     0
  9
$CHAMFERA
 40
0.0
  9
$CHAMFERB
 40
0.0
  9
$CHAMFERC
 40
0.0
  9
$CHAMFERD
 40
0.0
  9
$SKPOLY
 70
     0
  9
$TDCREATE
 40
2458288.657866574
  9
$TDUCREATE
 40
2458288.282866574
  9
$TDUPDATE
 40
2458295.751441528
  9
$TDUUPDATE
 40
2458295.376441528
  9
$TDINDWG
 40
0.0016885532
  9
$TDUSRTIMER
 40
2458295.374753345
  9
$USRTIMER
 70
     1
  9
$ANGBASE
 50
0.0
  9
$ANGDIR
 70
     0
  9
$PDMODE
 70
     0
  9
$PDSIZE
 40
-1.0
  9
$PLINEWID
 40
0.0
  9
$SPLFRAME
 70
     0
  9
$SPLINETYPE
 70
     6
  9
$SPLINESEGS
 70
     8
  9
$HANDSEED
  5
293
  9
$SURFTAB1
 70
     6
  9
$SURFTAB2
 70
     6
  9
$SURFTYPE
 70
     6
  9
$SURFU
 70
     6
  9
$SURFV
 70
     6
  9
$UCSBASE
  2

  9
$UCSNAME
  2

  9
$UCSORG
 10
0.0
 20
0.0
 30
0.0
  9
$UCSXDIR
 10
1.0
 20
0.0
 30
0.0
  9
$UCSYDIR
 10
0.0
 20
1.0
 30
0.0
  9
$UCSORTHOREF
  2

  9
$UCSORTHOVIEW
 70
     0
  9
$UCSORGTOP
 10
0.0
 20
0.0
 30
0.0
  9
$UCSORGBOTTOM
 10
0.0
 20
0.0
 30
0.0
  9
$UCSORGLEFT
 10
0.0
 20
0.0
 30
0.0
  9
$UCSORGRIGHT
 10
0.0
 20
0.0
 30
0.0
  9
$UCSORGFRONT
 10
0.0
 20
0.0
 30
0.0
  9
$UCSORGBACK
 10
0.0
 20
0.0
 30
0.0
  9
$PUCSBASE
  2

  9
$PUCSNAME
  2

  9
$PUCSORG
 10
0.0
 20
0.0
 30
0.0
  9
$PUCSXDIR
 10
1.0
 20
0.0
 30
0.0
  9
$PUCSYDIR
 10
0.0
 20
1.0
 30
0.0
  9
$PUCSORTHOREF
  2

  9
$PUCSORTHOVIEW
 70
     0
  9
$PUCSORGTOP
 10
0.0
 20
0.0
 30
0.0
  9
$PUCSORGBOTTOM
 10
0.0
 20
0.0
 30
0.0
  9
$PUCSORGLEFT
 10
0.0
 20
0.0
 30
0.0
  9
$PUCSORGRIGHT
 10
0.0
 20
0.0
 30
0.0
  9
$PUCSORGFRONT
 10
0.0
 20
0.0
 30
0.0
  9
$PUCSORGBACK
 10
0.0
 20
0.0
 30
0.0
  9
$USERI1
 70
     0
  9
$USERI2
 70
     0
  9
$USERI3
 70
     0
  9
$USERI4
 70
     0
  9
$USERI5
 70
     0
  9
$USERR1
 40
0.0
  9
$USERR2
 40
0.0
  9
$USERR3
 40
0.0
  9
$USERR4
 40
0.0
  9
$USERR5
 40
0.0
  9
$WORLDVIEW
 70
     1
  9
$SHADEDGE
 70
     3
  9
$SHADEDIF
 70
    70
  9
$TILEMODE
 70
     1
  9
$MAXACTVP
 70
    64
  9
$PINSBASE
 10
0.0
 20
0.0
 30
0.0
  9
$PLIMCHECK
 70
     0
  9
$PEXTMIN
 10
1.000000000000000E+20
 20
1.000000000000000E+20
 30
1.000000000000000E+20
  9
$PEXTMAX
 10
-1.000000000000000E+20
 20
-1.000000000000000E+20
 30
-1.000000000000000E+20
  9
$PLIMMIN
 10
0.0
 20
0.0
  9
$PLIMMAX
 10
0.0
 20
0.0
  9
$UNITMODE
 70
     0
  9
$VISRETAIN
 70
     1
  9
$PLINEGEN
 70
     0
  9
$PSLTSCALE
 70
     1
  9
$TREEDEPTH
 70
  3020
  9
$CMLSTYLE
  2
Standard
  9
$CMLJUST
 70
     0
  9
$CMLSCALE
 40
20.0
  9
$PROXYGRAPHICS
 70
     1
  9
$MEASUREMENT
 70
     1
  9
$CELWEIGHT
370
    -1
  9
$ENDCAPS
280
     0
  9
$JOINSTYLE
280
     0
  9
$LWDISPLAY
290
     1
  9
$INSUNITS
 70
     4
  9
$HYPERLINKBASE
  1

  9
$STYLESHEET
  1

  9
$XEDIT
290
     1
  9
$CEPSNTYPE
380
     0
  9
$PSTYLEMODE
290
     1
  9
$FINGERPRINTGUID
  2
{9F2F132A-2D88-4A22-B0AF-6FF29C90E242}
  9
$VERSIONGUID
  2
{FAEB1C32-E019-11D5-929B-00C0DF256EC4}
  9
$EXTNAMES
290
     1
  9
$PSVPSCALE
 40
0.0
  9
$OLESTARTUP
290
     0
  0
ENDSEC
  0
SECTION
  2
CLASSES
  0
CLASS
  1
ACDBDICTIONARYWDFLT
  2
AcDbDictionaryWithDefault
  3
ObjectDBX Classes
 90
        0
280
     0
281
     0
  0
CLASS
  1
VISUALSTYLE
  2
AcDbVisualStyle
  3
ObjectDBX Classes
 90
     4095
280
     0
281
     0
  0
CLASS
  1
MATERIAL
  2
AcDbMaterial
  3
ObjectDBX Classes
 90
     1153
280
     0
281
     0
  0
CLASS
  1
SCALE
  2
AcDbScale
  3
ObjectDBX Classes
 90
     1153
280
     0
281
     0
  0
CLASS
  1
SUN
  2
AcDbSun
  3
SCENEOE
 90
     1153
280
     0
281
     0
  0
CLASS
  1
ACDBPLACEHOLDER
  2
AcDbPlaceHolder
  3
ObjectDBX Classes
 90
        0
280
     0
281
     0
  0
CLASS
  1
LAYOUT
  2
AcDbLayout
  3
ObjectDBX Classes
 90
        0
280
     0
281
     0
  0
CLASS
  1
TABLESTYLE
  2
AcDbTableStyle
  3
ObjectDBX Classes
 90
     4095
280
     0
281
     0
  0
CLASS
  1
MLEADERSTYLE
  2
AcDbMLeaderStyle
  3
ACDB_MLEADERSTYLE_CLASS
 90
     4095
280
     0
281
     0
  0
CLASS
  1
RASTERVARIABLES
  2
AcDbRasterVariables
  3
ISM
 90
        0
280
     0
281
     0
  0
CLASS
  1
DIMASSOC
  2
AcDbDimAssoc
  3
"AcDbDimAssoc|Product Desc:     AcDim ARX App For Dimension|Company:          Autodesk, Inc.|WEB Address:      www.autodesk.com"
 90
        0
280
     0
281
     0
  0
ENDSEC
  0
SECTION
  2
TABLES
  0
TABLE
  2
VPORT
  5
8
330
0
100
AcDbSymbolTable
 70
     1
  0
VPORT
  5
29
330
8
100
AcDbSymbolTableRecord
100
AcDbViewportTableRecord
  2
*Active
 70
     0
 10
0.0
 20
0.0
 11
1.0
 21
1.0
 12
42.55761696934414
 22
-2.924588564172005
 13
0.0
 23
0.0
 14
10.0
 24
10.0
 15
10.0
 25
10.0
 16
0.0
 26
0.0
 36
1.0
 17
0.0
 27
0.0
 37
0.0
 40
310.5903234864123
 41
1.859099804305284
 42
50.0
 43
0.0
 44
0.0
 50
0.0
 51
0.0
 71
    16
 72
  2000
 73
     1
 74
     3
 75
     0
 76
     0
 77
     0
 78
     0
281
     0
 65
     1
110
0.0
120
0.0
130
0.0
111
1.0
121
0.0
131
0.0
112
0.0
122
1.0
132
0.0
 79
     0
146
0.0
  0
ENDTAB
  0
TABLE
  2
LTYPE
  5
5
330
0
100
AcDbSymbolTable
 70
     6
  0
LTYPE
  5
14
330
5
100
AcDbSymbolTableRecord
100
AcDbLinetypeTableRecord
  2
ByBlock
 70
     0
  3

 72
    65
 73
     0
 40
0.0
  0
LTYPE
  5
15
330
5
100
AcDbSymbolTableRecord
100
AcDbLinetypeTableRecord
  2
ByLayer
 70
     0
  3

 72
    65
 73
     0
 40
0.0
  0
LTYPE
  5
16
330
5
100
AcDbSymbolTableRecord
100
AcDbLinetypeTableRecord
  2
Continuous
 70
     0
  3
Solid line
 72
    65
 73
     0
 40
0.0
  0
LTYPE
  5
6A
330
5
100
AcDbSymbolTableRecord
100
AcDbLinetypeTableRecord
  2
HIDDEN
 70
     0
  3
Hidden __ __ __ __ __ __ __ __ __ __ __ __ __ __
 72
    65
 73
     2
 40
1.905
 49
1.27
 74
     0
 49
-0.635
 74
     0
  0
LTYPE
  5
6B
330
5
100
AcDbSymbolTableRecord
100
AcDbLinetypeTableRecord
  2
PHANTOM
 70
     0
  3
Phantom ______  __  __  ______  __  __  ______
 72
    65
 73
     6
 40
12.7
 49
6.35
 74
     0
 49
-1.27
 74
     0
 49
1.27
 74
     0
 49
-1.27
 74
     0
 49
1.27
 74
     0
 49
-1.27
 74
     0
  0
LTYPE
  5
6C
330
5
100
AcDbSymbolTableRecord
100
AcDbLinetypeTableRecord
  2
CENTER
 70
     0
  3
Center ____ _ ____ _ ____ _ ____ _ ____ _ ____
 72
    65
 73
     4
 40
10.16
 49
6.35
 74
     0
 49
-1.27
 74
     0
 49
1.27
 74
     0
 49
-1.27
 74
     0
  0
LTYPE
  5
6D
330
5
100
AcDbSymbolTableRecord
100
AcDbLinetypeTableRecord
  2
CENTERX2
 70
     0
  3
Center (2x) ________  __  ________  __  _____
 72
    65
 73
     4
 40
20.32
 49
12.7
 74
     0
 49
-2.54
 74
     0
 49
2.54
 74
     0
 49
-2.54
 74
     0
  0
LTYPE
  5
6E
330
5
100
AcDbSymbolTableRecord
100
AcDbLinetypeTableRecord
  2
DOT2
 70
     0
  3
Dot (.5x) ........................................
 72
    65
 73
     2
 40
0.635
 49
0.0
 74
     0
 49
-0.635
 74
     0
  0
ENDTAB
  0
TABLE
  2
LAYER
  5
2
102
{ACAD_XDICTIONARY
360
201
102
}
330
0
100
AcDbSymbolTable
 70
    18
  0
LAYER
  5
10
330
2
100
AcDbSymbolTableRecord
100
AcDbLayerTableRecord
  2
0
 70
     0
 62
     7
  6
Continuous
370
    -3
390
F
  0
LAYER
  5
6F
330
2
100
AcDbSymbolTableRecord
100
AcDbLayerTableRecord
  2
FORMAT
 70
     0
 62
     2
  6
Continuous
370
    -3
390
F
  0
LAYER
  5
70
330
2
100
AcDbSymbolTableRecord
100
AcDbLayerTableRecord
  2
외형선
 70
     0
 62
     4
  6
Continuous
370
    30
390
F
  0
LAYER
  5
71
330
2
100
AcDbSymbolTableRecord
100
AcDbLayerTableRecord
  2
숨은선
 70
     0
 62
     2
  6
HIDDEN
370
    15
390
F
  0
LAYER
  5
72
330
2
100
AcDbSymbolTableRecord
100
AcDbLayerTableRecord
  2
중심선
 70
     0
 62
     1
  6
CENTERX2
370
    -3
390
F
  0
LAYER
  5
73
330
2
100
AcDbSymbolTableRecord
100
AcDbLayerTableRecord
  2
파단선
 70
     0
 62
     4
  6
Continuous
370
    -3
390
F
  0
LAYER
  5
74
330
2
100
AcDbSymbolTableRecord
100
AcDbLayerTableRecord
  2
해칭선
 70
     0
 62
   100
  6
Continuous
370
    -3
390
F
  0
LAYER
  5
75
330
2
100
AcDbSymbolTableRecord
100
AcDbLayerTableRecord
  2
가는실선
 70
     0
 62
     4
  6
Continuous
370
    -3
390
F
  0
LAYER
  5
76
330
2
100
AcDbSymbolTableRecord
100
AcDbLayerTableRecord
  2
치수_보조선
 70
     0
 62
     4
  6
Continuous
370
    -3
390
F
  0
LAYER
  5
77
330
2
100
AcDbSymbolTableRecord
100
AcDbLayerTableRecord
  2
치수문자_일반주서
 70
     0
 62
     7
  6
Continuous
370
    15
390
F
  0
LAYER
  5
78
330
2
100
AcDbSymbolTableRecord
100
AcDbLayerTableRecord
  2
개별주서
 70
     0
 62
   100
  6
Continuous
370
    30
390
F
  0
LAYER
  5
79
330
2
100
AcDbSymbolTableRecord
100
AcDbLayerTableRecord
  2
중간선
 70
     0
 62
     2
  6
Continuous
370
    15
390
F
  0
LAYER
  5
7A
330
2
100
AcDbSymbolTableRecord
100
AcDbLayerTableRecord
  2
윤곽선
 70
     0
 62
     3
  6
Continuous
370
    40
390
F
  0
LAYER
  5
7B
330
2
100
AcDbSymbolTableRecord
100
AcDbLayerTableRecord
  2
중심마크
 70
     0
 62
   100
  6
Continuous
370
    30
390
F
  0
LAYER
  5
7C
330
2
100
AcDbSymbolTableRecord
100
AcDbLayerTableRecord
  2
가상선
 70
     0
 62
     4
  6
PHANTOM
370
    -3
390
F
  0
LAYER
  5
7D
330
2
100
AcDbSymbolTableRecord
100
AcDbLayerTableRecord
  2
특수지정선
 70
     0
 62
     5
  6
CENTERX2
370
    60
390
F
  0
LAYER
  5
7E
330
2
100
AcDbSymbolTableRecord
100
AcDbLayerTableRecord
  2
참조1
 70
     0
 62
    -4
  6
Continuous
370
    -3
390
F
  0
LAYER
  5
15A
330
2
100
AcDbSymbolTableRecord
100
AcDbLayerTableRecord
  2
Defpoints
 70
     0
 62
     7
  6
Continuous
290
     0
370
    -3
390
F
  0
ENDTAB
  0
TABLE
  2
STYLE
  5
3
330
0
100
AcDbSymbolTable
 70
     2
  0
STYLE
  5
11
330
3
100
AcDbSymbolTableRecord
100
AcDbTextStyleTableRecord
  2
Standard
 70
     0
 40
0.0
 41
1.0
 50
0.0
 71
     0
 42
3.5
  3
txt
  4

  0
STYLE
  5
94
330
3
100
AcDbSymbolTableRecord
100
AcDbTextStyleTableRecord
  2
SLDTEXTSTYLE0
 70
     0
 40
0.0
 41
0.75
 50
0.0
 71
     0
 42
3.5
  3
TXT
  4

  0
ENDTAB
  0
TABLE
  2
VIEW
  5
6
330
0
100
AcDbSymbolTable
 70
     0
  0
ENDTAB
  0
TABLE
  2
UCS
  5
7
330
0
100
AcDbSymbolTable
 70
     0
  0
ENDTAB
  0
TABLE
  2
APPID
  5
9
330
0
100
AcDbSymbolTable
 70
     2
  0
APPID
  5
12
330
9
100
AcDbSymbolTableRecord
100
AcDbRegAppTableRecord
  2
ACAD
 70
     0
  0
APPID
  5
165
330
9
100
AcDbSymbolTableRecord
100
AcDbRegAppTableRecord
  2
ACAD_DSTYLE_DIMRADIAL_EXTENSION
 70
     0
  0
ENDTAB
  0
TABLE
  2
DIMSTYLE
  5
A
330
0
100
AcDbSymbolTable
 70
     4
100
AcDbDimStyleTable
  0
DIMSTYLE
105
27
330
A
100
AcDbSymbolTableRecord
100
AcDbDimStyleTableRecord
  2
ISO-25
 70
     0
 41
2.5
 42
0.625
 43
3.75
 44
1.25
 73
     0
 74
     0
 77
     1
 78
     8
140
2.5
141
2.5
143
0.03937007874016
147
0.625
171
     3
172
     1
178
     0
271
     2
272
     2
274
     3
278
    44
283
     0
284
     8
340
11
  0
DIMSTYLE
105
D5
102
{ACAD_REACTORS
330
1B0
330
1BD
330
1CD
330
1DA
330
1F5
330
232
330
233
330
234
330
235
330
285
102
}
330
A
100
AcDbSymbolTableRecord
100
AcDbDimStyleTableRecord
  2
SLDDIMSTYLE0
 70
     0
 41
3.302
 44
0.0
 45
0.000000001
 73
     0
 74
     0
 77
     1
 78
     4
 79
     1
140
3.5
143
0.0393700787401575
147
0.875
148
0.000000001
170
     1
172
     1
173
     1
178
     0
271
     2
272
     2
276
     2
284
    12
289
     0
340
94
  0
DIMSTYLE
105
EA
330
A
100
AcDbSymbolTableRecord
100
AcDbDimStyleTableRecord
  2
SLDDIMSTYLE1
 70
     0
 41
3.302
 44
0.0
 45
0.000000001
 73
     0
 74
     0
 77
     1
 78
    12
 79
     3
140
3.5
143
0.0393700787401575
147
0.875
148
0.000000001
170
     1
172
     1
173
     1
178
     0
271
     2
272
     2
276
     2
284
    12
289
     0
340
94
  0
DIMSTYLE
105
114
330
A
100
AcDbSymbolTableRecord
100
AcDbDimStyleTableRecord
  2
SLDDIMSTYLE2
 70
     0
 41
3.302
 44
0.0
 45
0.000000001
 73
     0
 74
     0
 77
     1
 78
     4
 79
     1
140
3.5
143
0.0393700787401575
147
0.875
148
0.000000001
170
     1
173
     1
178
     0
271
     2
272
     2
276
     2
284
    12
340
94
  0
ENDTAB
  0
TABLE
  2
BLOCK_RECORD
  5
1
330
0
100
AcDbSymbolTable
 70
    19
  0
BLOCK_RECORD
  5
1F
330
1
100
AcDbSymbolTableRecord
100
AcDbBlockTableRecord
  2
*Model_Space
340
22
  0
BLOCK_RECORD
  5
1B
330
1
100
AcDbSymbolTableRecord
100
AcDbBlockTableRecord
  2
*Paper_Space
340
1E
  0
BLOCK_RECORD
  5
23
330
1
100
AcDbSymbolTableRecord
100
AcDbBlockTableRecord
  2
*Paper_Space0
340
26
  0
BLOCK_RECORD
  5
7F
330
1
100
AcDbSymbolTableRecord
100
AcDbBlockTableRecord
  2
블럭10
340
0
102
{BLKREFS
331
CD
102
}
  0
BLOCK_RECORD
  5
D6
330
1
100
AcDbSymbolTableRecord
100
AcDbBlockTableRecord
  2
_D
340
0
  0
BLOCK_RECORD
  5
EB
330
1
100
AcDbSymbolTableRecord
100
AcDbBlockTableRecord
  2
_D_1
340
0
  0
BLOCK_RECORD
  5
FF
330
1
100
AcDbSymbolTableRecord
100
AcDbBlockTableRecord
  2
_D_2
340
0
  0
BLOCK_RECORD
  5
115
330
1
100
AcDbSymbolTableRecord
100
AcDbBlockTableRecord
  2
_D_3
340
0
  0
BLOCK_RECORD
  5
12E
330
1
100
AcDbSymbolTableRecord
100
AcDbBlockTableRecord
  2
SW_DOWELSYMBOL_0
340
0
102
{BLKREFS
331
0
331
1E7
331
236
102
}
  0
BLOCK_RECORD
  5
1B1
330
1
100
AcDbSymbolTableRecord
100
AcDbBlockTableRecord
  2
*D8
340
0
  0
BLOCK_RECORD
  5
1BE
330
1
100
AcDbSymbolTableRecord
100
AcDbBlockTableRecord
  2
*D9
340
0
  0
BLOCK_RECORD
  5
1CE
330
1
100
AcDbSymbolTableRecord
100
AcDbBlockTableRecord
  2
*D10
340
0
  0
BLOCK_RECORD
  5
1DB
330
1
100
AcDbSymbolTableRecord
100
AcDbBlockTableRecord
  2
*D11
340
0
  0
BLOCK_RECORD
  5
1F8
330
1
100
AcDbSymbolTableRecord
100
AcDbBlockTableRecord
  2
*D12
340
0
  0
BLOCK_RECORD
  5
241
330
1
100
AcDbSymbolTableRecord
100
AcDbBlockTableRecord
  2
*D13
340
0
  0
BLOCK_RECORD
  5
24D
330
1
100
AcDbSymbolTableRecord
100
AcDbBlockTableRecord
  2
*D14
340
0
  0
BLOCK_RECORD
  5
25C
330
1
100
AcDbSymbolTableRecord
100
AcDbBlockTableRecord
  2
*D15
340
0
  0
BLOCK_RECORD
  5
268
330
1
100
AcDbSymbolTableRecord
100
AcDbBlockTableRecord
  2
*D16
340
0
  0
BLOCK_RECORD
  5
274
330
1
100
AcDbSymbolTableRecord
100
AcDbBlockTableRecord
  2
*D17
340
0
  0
BLOCK_RECORD
  5
288
330
1
100
AcDbSymbolTableRecord
100
AcDbBlockTableRecord
  2
*D18
340
0
  0
ENDTAB
  0
ENDSEC
  0
SECTION
  2
BLOCKS
  0
BLOCK
  5
20
330
1F
100
AcDbEntity
  8
0
100
AcDbBlockBegin
  2
*Model_Space
 70
     0
 10
0.0
 20
0.0
 30
0.0
  3
*Model_Space
  1
*Model_Space
  0
ENDBLK
  5
21
330
1F
100
AcDbEntity
  8
0
100
AcDbBlockEnd
  0
BLOCK
  5
1C
330
1B
100
AcDbEntity
 67
     1
  8
0
100
AcDbBlockBegin
  2
*Paper_Space
 70
     0
 10
0.0
 20
0.0
 30
0.0
  3
*Paper_Space
  1
*Paper_Space
  0
ENDBLK
  5
1D
330
1B
100
AcDbEntity
 67
     1
  8
0
100
AcDbBlockEnd
  0
BLOCK
  5
24
330
23
100
AcDbEntity
  8
0
100
AcDbBlockBegin
  2
*Paper_Space0
 70
     0
 10
0.0
 20
0.0
 30
0.0
  3
*Paper_Space0
  1
*Paper_Space0
  0
ENDBLK
  5
25
330
23
100
AcDbEntity
  8
0
100
AcDbBlockEnd
  0
BLOCK
  5
80
330
7F
100
AcDbEntity
  8
0
100
AcDbBlockBegin
  2
블럭10
 70
     2
 10
0.0
 20
0.0
 30
0.0
  3
블럭10
  1
블럭10
  0
ELLIPSE
  5
82
330
7F
100
AcDbEntity
  8
중심선
100
AcDbEllipse
 10
20.54032771741204
 20
12.0471743016438
 30
0.0
 11
6.600054785286829
 21
-1.261213355974178E-13
 31
0.0
210
0.0
220
0.0
230
1.0
 40
0.636358354079598
 41
0.9219305317359503
 42
6.513795318482858
  0
ELLIPSE
  5
83
330
7F
100
AcDbEntity
  8
중심선
100
AcDbEllipse
 10
20.54032771746488
 20
12.04717430159265
 30
0.0
 11
3.960054785062283
 21
1.540847449632565E-10
 31
0.0
210
0.0
220
0.0
230
1.0
 40
0.3939339440162632
 41
1.131841032648279
 42
5.62031148352944
  0
LINE
  5
84
330
7F
100
AcDbEntity
  8
중심선
100
AcDbLine
 10
2.268634060543552
 20
16.24717430164393
 30
0.0
 11
5.714909304380834
 21
16.24717430164393
 31
0.0
  0
LINE
  5
85
330
7F
100
AcDbEntity
  8
중심선
100
AcDbLine
 10
5.245725140726316
 20
7.84717430164391
 30
0.0
 11
8.692000384563599
 21
7.84717430164391
 31
0.0
  0
LINE
  5
86
330
7F
100
AcDbEntity
  8
중심선
100
AcDbLine
 10
15.74043728645272
 20
16.24717430164393
 30
0.0
 11
8.692000384563599
 21
7.84717430164391
 31
0.0
  0
LINE
  5
87
330
7F
100
AcDbEntity
  8
중심선
100
AcDbLine
 10
0.1404042013395286
 20
13.71084872107135
 30
0.0
 11
3.58671253028996
 21
13.71088815037384
 31
0.0
  0
LINE
  5
88
330
7F
100
AcDbEntity
  8
중심선
100
AcDbLine
 10
2.750260043222114
 20
10.84717430164391
 30
0.0
 11
6.196535287059397
 21
10.84717430164391
 31
0.0
  0
LINE
  5
89
330
7F
100
AcDbEntity
  8
중심선
100
AcDbLine
 10
12.29416204261559
 20
16.24717430164393
 30
0.0
 11
5.245725140726316
 21
7.84717430164391
 31
0.0
  0
LINE
  5
8A
330
7F
100
AcDbEntity
  8
중심선
100
AcDbLine
 10
10.72767329541681
 20
16.24717430164393
 30
0.0
 11
6.196535287059397
 21
10.84717430164391
 31
0.0
  0
LINE
  5
8B
330
7F
100
AcDbEntity
  8
중심선
100
AcDbLine
 10
7.28139805157953
 20
16.24717430164393
 30
0.0
 11
2.750260043222114
 21
10.84717430164391
 31
0.0
  0
LINE
  5
8C
330
7F
100
AcDbEntity
  8
중심선
100
AcDbLine
 10
5.714909304380834
 20
16.24717430164393
 30
0.0
 11
3.58671253028996
 21
13.71088815037384
 31
0.0
  0
LINE
  5
8D
330
7F
100
AcDbEntity
  8
중심선
100
AcDbLine
 10
2.268634060543552
 20
16.24717430164393
 30
0.0
 11
0.1404042013395286
 21
13.71084872107135
 31
0.0
  0
LINE
  5
8E
330
7F
100
AcDbEntity
  8
중심선
100
AcDbLine
 10
7.28139805157953
 20
16.24717430164393
 30
0.0
 11
10.72767329541681
 21
16.24717430164393
 31
0.0
  0
LINE
  5
8F
330
7F
100
AcDbEntity
  8
중심선
100
AcDbLine
 10
12.29416204261559
 20
16.24717430164393
 30
0.0
 11
15.74043728645272
 21
16.24717430164393
 31
0.0
  0
LINE
  5
90
330
7F
100
AcDbEntity
  8
중심선
100
AcDbLine
 10
19.22036997980202
 20
11.08717430171403
 30
0.0
 11
23.66174974927406
 21
11.08717430171406
 31
0.0
  0
LINE
  5
91
330
7F
100
AcDbEntity
  8
중심선
100
AcDbLine
 10
19.22039502424796
 20
13.00717430171391
 30
0.0
 11
19.22036997980202
 21
11.08717430171403
 31
0.0
  0
LINE
  5
92
330
7F
100
AcDbEntity
  8
중심선
100
AcDbLine
 10
19.22039502424796
 20
13.00717430171391
 30
0.0
 11
26.96566020931264
 21
13.00717430171391
 31
0.0
  0
LINE
  5
93
330
7F
100
AcDbEntity
  8
중심선
100
AcDbLine
 10
22.22332737316547
 20
13.45928029700563
 30
0.0
 11
24.52862924686651
 21
15.39360700705356
 31
0.0
  0
ATTDEF
  5
95
330
7F
100
AcDbEntity
  8
FORMAT
 62
     2
100
AcDbText
 10
3.448148490846466
 20
2.075366912832191
 30
0.0
 40
4.233333333333333
  1
EM637914
 41
0.75
  7
SLDTEXTSTYLE0
 11
3.448148490846466
 21
-0.0412997538344756
 31
0.0
100
AcDbAttributeDefinition
  3

  2
AUTOATTR0
 70
     0
 74
     1
  0
ENDBLK
  5
81
330
7F
100
AcDbEntity
  8
0
100
AcDbBlockEnd
  0
BLOCK
  5
D7
330
D6
100
AcDbEntity
  8
0
100
AcDbBlockBegin
  2
_D
 70
     0
 10
0.0
 20
0.0
 30
0.0
  3
_D
  1
_D
  0
SOLID
  5
D9
330
D6
100
AcDbEntity
  8
치수문자_일반주서
100
AcDbTrace
 10
-78.7
 20
6.351074928723887
 30
0.0
 11
-78.19200000000001
 21
9.653074928723886
 31
0.0
 12
-79.208
 22
9.653074928723886
 32
0.0
 13
-79.208
 23
9.653074928723886
 33
0.0
  0
SOLID
  5
DA
330
D6
100
AcDbEntity
  8
치수문자_일반주서
100
AcDbTrace
 10
-78.7
 20
-6.348925071276102
 30
0.0
 11
-79.208
 21
-9.650925071276102
 31
0.0
 12
-78.19200000000001
 22
-9.650925071276102
 32
0.0
 13
-78.19200000000001
 23
-9.650925071276102
 33
0.0
  0
LINE
  5
DB
330
D6
100
AcDbEntity
  8
치수문자_일반주서
100
AcDbLine
 10
-89.4928817160427
 20
-5.413291502344828
 30
0.0
 11
-89.4928817160427
 21
-6.124228987909328
 31
0.0
  0
LINE
  5
DC
330
D6
100
AcDbEntity
  8
치수문자_일반주서
100
AcDbLine
 10
-89.4928817160427
 20
-6.124228987909328
 30
0.0
 11
-83.9366317249834
 21
-6.124228987909289
 31
0.0
  0
LINE
  5
DD
330
D6
100
AcDbEntity
  8
치수문자_일반주서
100
AcDbLine
 10
-83.9366317249834
 20
-6.124228987909289
 30
0.0
 11
-83.9366317249834
 21
-5.413291502344789
 31
0.0
  0
LINE
  5
DE
330
D6
100
AcDbEntity
  8
치수문자_일반주서
100
AcDbLine
 10
-89.49288171604279
 20
5.41544135979243
 30
0.0
 11
-89.49288171604279
 21
6.12637884535693
 31
0.0
  0
LINE
  5
DF
330
D6
100
AcDbEntity
  8
치수문자_일반주서
100
AcDbLine
 10
-89.49288171604279
 20
6.12637884535693
 30
0.0
 11
-83.93663172498349
 21
6.126378845356969
 31
0.0
  0
LINE
  5
E0
330
D6
100
AcDbEntity
  8
치수문자_일반주서
100
AcDbLine
 10
-83.93663172498349
 20
6.126378845356969
 30
0.0
 11
-83.93663172498349
 21
5.415441359792469
 31
0.0
  0
LINE
  5
E1
330
D6
100
AcDbEntity
  8
치수문자_일반주서
100
AcDbLine
 10
-66.19999999999997
 20
6.351074928723888
 30
0.0
 11
-79.7
 21
6.351074928723887
 31
0.0
  0
LINE
  5
E2
330
D6
100
AcDbEntity
  8
치수문자_일반주서
100
AcDbLine
 10
-66.19999999999997
 20
-6.348925071276101
 30
0.0
 11
-79.7
 21
-6.348925071276102
 31
0.0
  0
LINE
  5
E3
330
D6
100
AcDbEntity
  8
치수문자_일반주서
100
AcDbLine
 10
-78.7
 20
6.351074928723887
 30
0.0
 11
-78.7
 21
12.70107492872389
 31
0.0
  0
LINE
  5
E4
330
D6
100
AcDbEntity
  8
치수문자_일반주서
100
AcDbLine
 10
-78.7
 20
6.351074928723887
 30
0.0
 11
-78.7
 21
-6.348925071276102
 31
0.0
  0
LINE
  5
E5
330
D6
100
AcDbEntity
  8
치수문자_일반주서
100
AcDbLine
 10
-78.7
 20
-6.348925071276102
 30
0.0
 11
-78.7
 21
-12.6989250712761
 31
0.0
  0
MTEXT
  5
E6
330
D6
100
AcDbEntity
  8
치수문자_일반주서
100
AcDbMText
 10
-88.44836863956232
 20
-4.52461960173345
 30
0.0
 40
3.5
 41
0.0
 71
     1
 72
     1
  1
0.50
  7
SLDTEXTSTYLE0
 11
-7.044195017643634E-15
 21
1.0
 31
0.0
 73
     1
 44
1.0
  0
MTEXT
  5
E7
330
D6
100
AcDbEntity
  8
치수문자_일반주서
100
AcDbMText
 10
-83.21173708920182
 20
-8.45689401409718
 30
0.0
 40
3.5
 41
0.0
 71
     1
 72
     1
  1
%%c
  7
SLDTEXTSTYLE0
 11
-7.044195017643634E-15
 21
1.0
 31
0.0
 73
     1
 44
1.0
  0
MTEXT
  5
E8
330
D6
100
AcDbEntity
  8
치수문자_일반주서
100
AcDbMText
 10
-83.21173708920186
 20
-3.178456615723101
 30
0.0
 40
3.5
 41
0.0
 71
     1
 72
     1
  1
12.70
  7
SLDTEXTSTYLE0
 11
-7.044195017643634E-15
 21
1.0
 31
0.0
 73
     1
 44
1.0
  0
ENDBLK
  5
D8
330
D6
100
AcDbEntity
  8
0
100
AcDbBlockEnd
  0
BLOCK
  5
EC
330
EB
100
AcDbEntity
  8
0
100
AcDbBlockBegin
  2
_D_1
 70
     0
 10
0.0
 20
0.0
 30
0.0
  3
_D_1
  1
_D_1
  0
SOLID
  5
EE
330
EB
100
AcDbEntity
  8
치수문자_일반주서
100
AcDbTrace
 10
48.05000000000007
 20
3.176074928723893
 30
0.0
 11
48.55800000000007
 21
6.478074928723892
 31
0.0
 12
47.54200000000007
 22
6.478074928723892
 32
0.0
 13
47.54200000000007
 23
6.478074928723892
 33
0.0
  0
SOLID
  5
EF
330
EB
100
AcDbEntity
  8
치수문자_일반주서
100
AcDbTrace
 10
48.05000000000007
 20
-3.17392507127611
 30
0.0
 11
47.54200000000007
 21
-6.475925071276111
 31
0.0
 12
48.55800000000007
 22
-6.475925071276111
 32
0.0
 13
48.55800000000007
 23
-6.475925071276111
 33
0.0
  0
LINE
  5
F0
330
EB
100
AcDbEntity
  8
치수문자_일반주서
100
AcDbLine
 10
37.25711828395732
 20
7.781934058003486
 30
0.0
 11
37.25711828395733
 21
7.070996572438986
 31
0.0
  0
LINE
  5
F1
330
EB
100
AcDbEntity
  8
치수문자_일반주서
100
AcDbLine
 10
37.25711828395733
 20
7.070996572438986
 30
0.0
 11
42.81336827501663
 21
7.070996572439025
 31
0.0
  0
LINE
  5
F2
330
EB
100
AcDbEntity
  8
치수문자_일반주서
100
AcDbLine
 10
42.81336827501663
 20
7.070996572439025
 30
0.0
 11
42.81336827501662
 21
7.781934058003525
 31
0.0
  0
LINE
  5
F3
330
EB
100
AcDbEntity
  8
치수문자_일반주서
100
AcDbLine
 10
37.25711828395725
 20
18.61066692014075
 30
0.0
 11
37.25711828395725
 21
19.32160440570525
 31
0.0
  0
LINE
  5
F4
330
EB
100
AcDbEntity
  8
치수문자_일반주서
100
AcDbLine
 10
37.25711828395725
 20
19.32160440570525
 30
0.0
 11
42.81336827501655
 21
19.32160440570528
 31
0.0
  0
LINE
  5
F5
330
EB
100
AcDbEntity
  8
치수문자_일반주서
100
AcDbLine
 10
42.81336827501655
 20
19.32160440570528
 30
0.0
 11
42.81336827501656
 21
18.61066692014078
 31
0.0
  0
LINE
  5
F6
330
EB
100
AcDbEntity
  8
치수문자_일반주서
100
AcDbLine
 10
14.53767706952182
 20
3.176074928723895
 30
0.0
 11
49.05000000000007
 21
3.176074928723893
 31
0.0
  0
LINE
  5
F7
330
EB
100
AcDbEntity
  8
치수문자_일반주서
100
AcDbLine
 10
14.53767706952182
 20
-3.173925071276109
 30
0.0
 11
49.05000000000007
 21
-3.17392507127611
 31
0.0
  0
LINE
  5
F8
330
EB
100
AcDbEntity
  8
치수문자_일반주서
100
AcDbLine
 10
48.05000000000007
 20
3.176074928723893
 30
0.0
 11
48.05000000000007
 21
20.36121418437776
 31
0.0
  0
LINE
  5
F9
330
EB
100
AcDbEntity
  8
치수문자_일반주서
100
AcDbLine
 10
48.05000000000007
 20
3.176074928723893
 30
0.0
 11
48.05000000000007
 21
-3.17392507127611
 31
0.0
  0
LINE
  5
FA
330
EB
100
AcDbEntity
  8
치수문자_일반주서
100
AcDbLine
 10
48.05000000000007
 20
-3.17392507127611
 30
0.0
 11
48.05000000000007
 21
-9.52392507127611
 31
0.0
  0
MTEXT
  5
FB
330
EB
100
AcDbEntity
  8
치수문자_일반주서
100
AcDbMText
 10
38.30163136043773
 20
8.670605958614866
 30
0.0
 40
3.5
 41
0.0
 71
     1
 72
     1
  1
0.25
  7
SLDTEXTSTYLE0
 11
-7.044195017643634E-15
 21
1.0
 31
0.0
 73
     1
 44
1.0
  0
MTEXT
  5
FC
330
EB
100
AcDbEntity
  8
치수문자_일반주서
100
AcDbMText
 10
43.53826291079822
 20
6.031386793766572
 30
0.0
 40
3.5
 41
0.0
 71
     1
 72
     1
  1
%%c
  7
SLDTEXTSTYLE0
 11
-7.044195017643634E-15
 21
1.0
 31
0.0
 73
     1
 44
1.0
  0
MTEXT
  5
FD
330
EB
100
AcDbEntity
  8
치수문자_일반주서
100
AcDbMText
 10
43.53826291079818
 20
11.30982419214065
 30
0.0
 40
3.5
 41
0.0
 71
     1
 72
     1
  1
6.35
  7
SLDTEXTSTYLE0
 11
-7.044195017643634E-15
 21
1.0
 31
0.0
 73
     1
 44
1.0
  0
ENDBLK
  5
ED
330
EB
100
AcDbEntity
  8
0
100
AcDbBlockEnd
  0
BLOCK
  5
100
330
FF
100
AcDbEntity
  8
0
100
AcDbBlockBegin
  2
_D_2
 70
     0
 10
0.0
 20
0.0
 30
0.0
  3
_D_2
  1
_D_2
  0
SOLID
  5
102
330
FF
100
AcDbEntity
  8
치수문자_일반주서
100
AcDbTrace
 10
35.40000000000001
 20
15.41880048907218
 30
0.0
 11
38.70200000000001
 21
14.91080048907218
 31
0.0
 12
38.70200000000001
 22
15.92680048907218
 32
0.0
 13
38.70200000000001
 23
15.92680048907218
 33
0.0
  0
SOLID
  5
103
330
FF
100
AcDbEntity
  8
치수문자_일반주서
100
AcDbTrace
 10
10.00000000000001
 20
15.41880048907218
 30
0.0
 11
6.698000000000013
 21
15.92680048907218
 31
0.0
 12
6.698000000000013
 22
14.91080048907218
 32
0.0
 13
6.698000000000013
 23
14.91080048907218
 33
0.0
  0
LINE
  5
104
330
FF
100
AcDbEntity
  8
치수문자_일반주서
100
AcDbLine
 10
17.33904093191
 20
26.21168220511492
 30
0.0
 11
16.6281034463455
 21
26.21168220511493
 31
0.0
  0
LINE
  5
105
330
FF
100
AcDbEntity
  8
치수문자_일반주서
100
AcDbLine
 10
16.6281034463455
 20
26.21168220511493
 30
0.0
 11
16.62810344634546
 21
20.65543221405562
 31
0.0
  0
LINE
  5
106
330
FF
100
AcDbEntity
  8
치수문자_일반주서
100
AcDbLine
 10
16.62810344634546
 20
20.65543221405562
 30
0.0
 11
17.33904093190996
 21
20.65543221405562
 31
0.0
  0
LINE
  5
107
330
FF
100
AcDbEntity
  8
치수문자_일반주서
100
AcDbLine
 10
28.16777379404726
 20
26.21168220511484
 30
0.0
 11
28.87871127961176
 21
26.21168220511484
 31
0.0
  0
LINE
  5
108
330
FF
100
AcDbEntity
  8
치수문자_일반주서
100
AcDbLine
 10
28.87871127961176
 20
26.21168220511484
 30
0.0
 11
28.87871127961172
 21
20.65543221405553
 31
0.0
  0
LINE
  5
109
330
FF
100
AcDbEntity
  8
치수문자_일반주서
100
AcDbLine
 10
28.87871127961172
 20
20.65543221405553
 30
0.0
 11
28.16777379404722
 21
20.65543221405554
 31
0.0
  0
LINE
  5
10A
330
FF
100
AcDbEntity
  8
치수문자_일반주서
100
AcDbLine
 10
35.40000000000001
 20
5.446074928723893
 30
0.0
 11
35.40000000000001
 21
16.41880048907218
 31
0.0
  0
LINE
  5
10B
330
FF
100
AcDbEntity
  8
치수문자_일반주서
100
AcDbLine
 10
10.00000000000001
 20
6.539161516029121
 30
0.0
 11
10.00000000000001
 21
16.41880048907218
 31
0.0
  0
LINE
  5
10C
330
FF
100
AcDbEntity
  8
치수문자_일반주서
100
AcDbLine
 10
35.40000000000001
 20
15.41880048907218
 30
0.0
 11
41.75000000000001
 21
15.41880048907218
 31
0.0
  0
LINE
  5
10D
330
FF
100
AcDbEntity
  8
치수문자_일반주서
100
AcDbLine
 10
35.40000000000001
 20
15.41880048907218
 30
0.0
 11
10.00000000000001
 21
15.41880048907218
 31
0.0
  0
LINE
  5
10E
330
FF
100
AcDbEntity
  8
치수문자_일반주서
100
AcDbLine
 10
10.00000000000001
 20
15.41880048907218
 30
0.0
 11
3.650000000000013
 21
15.41880048907218
 31
0.0
  0
MTEXT
  5
10F
330
FF
100
AcDbEntity
  8
치수문자_일반주서
100
AcDbMText
 10
16.11434472085876
 20
19.9840097549339
 30
0.0
 40
3.5
 41
0.0
 71
     1
 72
     1
  1

  7
SLDTEXTSTYLE0
 73
     1
 44
1.0
  0
MTEXT
  5
110
330
FF
100
AcDbEntity
  8
치수문자_일반주서
100
AcDbMText
 10
18.22771283252137
 20
25.16716912863451
 30
0.0
 40
3.5
 41
0.0
 71
     1
 72
     1
  1
1.00
  7
SLDTEXTSTYLE0
 73
     1
 44
1.0
  0
MTEXT
  5
111
330
FF
100
AcDbEntity
  8
치수문자_일반주서
100
AcDbMText
 10
16.9346571193446
 20
19.93053757827404
 30
0.0
 40
3.5
 41
0.0
 71
     1
 72
     1
  1
25.40
  7
SLDTEXTSTYLE0
 73
     1
 44
1.0
  0
MTEXT
  5
112
330
FF
100
AcDbEntity
  8
치수문자_일반주서
100
AcDbMText
 10
30.72441452475233
 20
19.9840097549338
 30
0.0
 40
3.5
 41
0.0
 71
     1
 72
     1
  1

  7
SLDTEXTSTYLE0
 73
     1
 44
1.0
  0
ENDBLK
  5
101
330
FF
100
AcDbEntity
  8
0
100
AcDbBlockEnd
  0
BLOCK
  5
116
330
115
100
AcDbEntity
  8
0
100
AcDbBlockBegin
  2
_D_3
 70
     0
 10
0.0
 20
0.0
 30
0.0
  3
_D_3
  1
_D_3
  0
SOLID
  5
118
330
115
100
AcDbEntity
  8
치수문자_일반주서
100
AcDbTrace
 10
35.40000000000001
 20
27.41880048907214
 30
0.0
 11
32.09800000000001
 21
27.92680048907214
 31
0.0
 12
32.09800000000001
 22
26.91080048907214
 32
0.0
 13
32.09800000000001
 23
26.91080048907214
 33
0.0
  0
SOLID
  5
119
330
115
100
AcDbEntity
  8
치수문자_일반주서
100
AcDbTrace
 10
-66.19999999999997
 20
27.41880048907213
 30
0.0
 11
-62.89799999999997
 21
26.91080048907213
 31
0.0
 12
-62.89799999999997
 22
27.92680048907213
 32
0.0
 13
-62.89799999999997
 23
27.92680048907213
 33
0.0
  0
LINE
  5
11A
330
115
100
AcDbEntity
  8
치수문자_일반주서
100
AcDbLine
 10
-21.27155136568573
 20
38.21168220511487
 30
0.0
 11
-21.98248885125023
 21
38.21168220511488
 31
0.0
  0
LINE
  5
11B
330
115
100
AcDbEntity
  8
치수문자_일반주서
100
AcDbLine
 10
-21.98248885125023
 20
38.21168220511488
 30
0.0
 11
-21.98248885125027
 21
32.65543221405557
 31
0.0
  0
LINE
  5
11C
330
115
100
AcDbEntity
  8
치수문자_일반주서
100
AcDbLine
 10
-21.98248885125027
 20
32.65543221405557
 30
0.0
 11
-21.27155136568577
 21
32.65543221405557
 31
0.0
  0
LINE
  5
11D
330
115
100
AcDbEntity
  8
치수문자_일반주서
100
AcDbLine
 10
-10.44281850354848
 20
38.21168220511479
 30
0.0
 11
-9.731881017983977
 21
38.21168220511478
 31
0.0
  0
LINE
  5
11E
330
115
100
AcDbEntity
  8
치수문자_일반주서
100
AcDbLine
 10
-9.731881017983977
 20
38.21168220511478
 30
0.0
 11
-9.731881017984017
 21
32.65543221405548
 31
0.0
  0
LINE
  5
11F
330
115
100
AcDbEntity
  8
치수문자_일반주서
100
AcDbLine
 10
-9.731881017984017
 20
32.65543221405548
 30
0.0
 11
-10.44281850354852
 21
32.65543221405549
 31
0.0
  0
LINE
  5
120
330
115
100
AcDbEntity
  8
치수문자_일반주서
100
AcDbLine
 10
35.40000000000001
 20
5.446074928723893
 30
0.0
 11
35.40000000000001
 21
28.41880048907214
 31
0.0
  0
LINE
  5
121
330
115
100
AcDbEntity
  8
치수문자_일반주서
100
AcDbLine
 10
-66.19999999999997
 20
6.351074928723882
 30
0.0
 11
-66.19999999999997
 21
28.41880048907213
 31
0.0
  0
LINE
  5
122
330
115
100
AcDbEntity
  8
치수문자_일반주서
100
AcDbLine
 10
35.40000000000001
 20
27.41880048907214
 30
0.0
 11
-66.19999999999997
 21
27.41880048907213
 31
0.0
  0
MTEXT
  5
123
330
115
100
AcDbEntity
  8
치수문자_일반주서
100
AcDbMText
 10
-22.94954648818927
 20
31.98400975493386
 30
0.0
 40
3.5
 41
0.0
 71
     1
 72
     1
  1

  7
SLDTEXTSTYLE0
 73
     1
 44
1.0
  0
MTEXT
  5
124
330
115
100
AcDbEntity
  8
치수문자_일반주서
100
AcDbMText
 10
-20.38287946507437
 20
37.16716912863446
 30
0.0
 40
3.5
 41
0.0
 71
     1
 72
     1
  1
4.00
  7
SLDTEXTSTYLE0
 73
     1
 44
1.0
  0
MTEXT
  5
125
330
115
100
AcDbEntity
  8
치수문자_일반주서
100
AcDbMText
 10
-22.96899089142786
 20
31.930537578274
 30
0.0
 40
3.5
 41
0.0
 71
     1
 72
     1
  1
101.60
  7
SLDTEXTSTYLE0
 73
     1
 44
1.0
  0
MTEXT
  5
126
330
115
100
AcDbEntity
  8
치수문자_일반주서
100
AcDbMText
 10
-7.432878861391117
 20
31.98400975493375
 30
0.0
 40
3.5
 41
0.0
 71
     1
 72
     1
  1

  7
SLDTEXTSTYLE0
 73
     1
 44
1.0
  0
ENDBLK
  5
117
330
115
100
AcDbEntity
  8
0
100
AcDbBlockEnd
  0
BLOCK
  5
12F
330
12E
100
AcDbEntity
  8
0
100
AcDbBlockBegin
  2
SW_DOWELSYMBOL_0
 70
     0
 10
0.0
 20
0.0
 30
0.0
  3
SW_DOWELSYMBOL_0
  1
SW_DOWELSYMBOL_0
  0
CIRCLE
  5
131
330
12E
100
AcDbEntity
  8
해칭선
 62
     0
100
AcDbCircle
 10
0.0
 20
0.0
 30
0.0
 40
3.000000000000002
  0
HATCH
  5
132
330
12E
100
AcDbEntity
  8
0
  6
Continuous
 62
     0
370
     0
100
AcDbHatch
 10
0.0
 20
0.0
 30
0.0
210
0.0
220
0.0
230
1.0
  2
SOLID
 70
     1
 71
     0
 91
        1
 92
        0
 93
        3
 72
     2
 10
0.0000000000000069
 20
0.0
 40
3.000000000000002
 50
0.0
 51
90.0
 73
     1
 72
     1
 10
0.0000000000000069
 20
3.000000000000002
 11
0.0000000000000069
 21
0.0
 72
     1
 10
0.0000000000000069
 20
0.0
 11
3.000000000000009
 21
0.0
 97
        0
 75
     0
 76
     1
 98
        1
 10
0.0
 20
0.0
  0
HATCH
  5
133
330
12E
100
AcDbEntity
  8
0
  6
Continuous
 62
     0
370
     0
100
AcDbHatch
 10
0.0
 20
0.0
 30
0.0
210
0.0
220
0.0
230
1.0
  2
SOLID
 70
     1
 71
     0
 91
        1
 92
        0
 93
        3
 72
     2
 10
0.0000000000000069
 20
0.0
 40
3.000000000000002
 50
180.0
 51
270.0000000000008
 73
     1
 72
     1
 10
0.0000000000000069
 20
-3.000000000000002
 11
0.0000000000000069
 21
0.0
 72
     1
 10
0.0000000000000069
 20
0.0
 11
-2.999999999999995
 21
0.0
 97
        0
 75
     0
 76
     1
 98
        1
 10
0.0
 20
0.0
  0
ENDBLK
  5
130
330
12E
100
AcDbEntity
  8
0
100
AcDbBlockEnd
  0
BLOCK
  5
1B2
330
1B1
100
AcDbEntity
  8
0
100
AcDbBlockBegin
  2
*D8
 70
     1
 10
0.0
 20
0.0
 30
0.0
  3
*D8
  1
*D8
  0
LINE
  5
1B3
330
1B1
100
AcDbEntity
  8
치수문자_일반주서
 62
     0
370
    -2
100
AcDbLine
 10
17.81250000000006
 20
44.43054137150003
 30
0.0
 11
4.37500000000002
 21
44.43054137149998
 31
0.0
  0
LINE
  5
1B4
330
1B1
100
AcDbEntity
  8
치수문자_일반주서
 62
     0
370
    -2
100
AcDbLine
 10
17.81250000000006
 20
31.73054137150005
 30
0.0
 11
4.375000000000065
 21
31.7305413715
 31
0.0
  0
LINE
  5
1B5
330
1B1
100
AcDbEntity
  8
치수문자_일반주서
 62
     0
370
    -2
100
AcDbLine
 10
4.375000000000032
 20
41.12854137149998
 30
0.0
 11
4.375000000000053
 21
35.0325413715
 31
0.0
  0
SOLID
  5
1B6
330
1B1
100
AcDbEntity
  8
치수문자_일반주서
 62
     0
100
AcDbTrace
 10
4.925333333333366
 20
41.12854137149998
 30
0.0
 11
3.824666666666699
 21
41.12854137149998
 31
0.0
 12
4.37500000000002
 22
44.43054137149998
 32
0.0
 13
4.37500000000002
 23
44.43054137149998
 33
0.0
  0
SOLID
  5
1B7
330
1B1
100
AcDbEntity
  8
치수문자_일반주서
 62
     0
100
AcDbTrace
 10
3.82466666666672
 20
35.0325413715
 30
0.0
 11
4.925333333333387
 21
35.0325413715
 31
0.0
 12
4.375000000000065
 22
31.7305413715
 32
0.0
 13
4.375000000000065
 23
31.7305413715
 33
0.0
  0
MTEXT
  5
1B8
330
1B1
100
AcDbEntity
  8
치수문자_일반주서
 62
     0
100
AcDbMText
 10
0.0000000000000426
 20
38.08054137150003
 30
0.0
 40
3.5
 41
0.0
 71
     2
 72
     1
  1
\A1;%%c12.70 [1/2]
  7
SLDTEXTSTYLE0
 11
-3.496765431890260E-15
 21
1.0
 31
0.0
 73
     1
 44
1.0
  0
POINT
  5
1B9
330
1B1
100
AcDbEntity
  8
Defpoints
 62
     0
100
AcDbPoint
 10
17.87500000000006
 20
44.43054137150003
 30
0.0
  0
POINT
  5
1BA
330
1B1
100
AcDbEntity
  8
Defpoints
 62
     0
100
AcDbPoint
 10
17.87500000000006
 20
31.73054137150005
 30
0.0
  0
POINT
  5
1BB
330
1B1
100
AcDbEntity
  8
Defpoints
 62
     0
100
AcDbPoint
 10
4.375000000000071
 20
31.7305413715
 30
0.0
  0
ENDBLK
  5
1BC
330
1B1
100
AcDbEntity
  8
0
100
AcDbBlockEnd
  0
BLOCK
  5
1BF
330
1BE
100
AcDbEntity
  8
0
100
AcDbBlockBegin
  2
*D9
 70
     1
 10
0.0
 20
0.0
 30
0.0
  3
*D9
  1
*D9
  0
LINE
  5
1C0
330
1BE
100
AcDbEntity
  8
치수문자_일반주서
 62
     0
370
    -2
100
AcDbLine
 10
118.5375000000001
 20
44.43054137150004
 30
0.0
 11
131.1250000000001
 21
44.43054137150009
 31
0.0
  0
LINE
  5
1C1
330
1BE
100
AcDbEntity
  8
치수문자_일반주서
 62
     0
370
    -2
100
AcDbLine
 10
118.5375000000001
 20
31.73054137150005
 30
0.0
 11
131.1250000000002
 21
31.7305413715001
 31
0.0
  0
LINE
  5
1C2
330
1BE
100
AcDbEntity
  8
치수문자_일반주서
 62
     0
370
    -2
100
AcDbLine
 10
131.1250000000001
 20
44.43054137150009
 30
0.0
 11
131.125
 21
78.37292444820832
 31
0.0
  0
LINE
  5
1C3
330
1BE
100
AcDbEntity
  8
치수문자_일반주서
 62
     0
370
    -2
100
AcDbLine
 10
131.1250000000001
 20
44.43054137150009
 30
0.0
 11
131.1250000000002
 21
31.7305413715001
 31
0.0
  0
LINE
  5
1C4
330
1BE
100
AcDbEntity
  8
치수문자_일반주서
 62
     0
370
    -2
100
AcDbLine
 10
131.1250000000001
 20
47.73254137150009
 30
0.0
 11
131.1250000000001
 21
51.03454137150009
 31
0.0
  0
LINE
  5
1C5
330
1BE
100
AcDbEntity
  8
치수문자_일반주서
 62
     0
370
    -2
100
AcDbLine
 10
131.1250000000002
 20
28.4285413715001
 30
0.0
 11
131.1250000000003
 21
25.1265413715001
 31
0.0
  0
SOLID
  5
1C6
330
1BE
100
AcDbEntity
  8
치수문자_일반주서
 62
     0
100
AcDbTrace
 10
130.5746666666668
 20
47.73254137150009
 30
0.0
 11
131.6753333333334
 21
47.73254137150009
 31
0.0
 12
131.1250000000001
 22
44.43054137150009
 32
0.0
 13
131.1250000000001
 23
44.43054137150009
 33
0.0
  0
SOLID
  5
1C7
330
1BE
100
AcDbEntity
  8
치수문자_일반주서
 62
     0
100
AcDbTrace
 10
131.6753333333336
 20
28.4285413715001
 30
0.0
 11
130.5746666666669
 21
28.42854137150009
 31
0.0
 12
131.1250000000002
 22
31.7305413715001
 32
0.0
 13
131.1250000000002
 23
31.7305413715001
 33
0.0
  0
MTEXT
  5
1C8
330
1BE
100
AcDbEntity
  8
치수문자_일반주서
 62
     0
100
AcDbMText
 10
126.7500000000001
 20
65.0291744482083
 30
0.0
 40
3.5
 41
0.0
 71
     2
 72
     1
  1
\A1;%%c12.70 [1/2]
  7
SLDTEXTSTYLE0
 11
-4.475859752819529E-15
 21
1.0
 31
0.0
 73
     1
 44
1.0
  0
POINT
  5
1C9
330
1BE
100
AcDbEntity
  8
Defpoints
 62
     0
100
AcDbPoint
 10
118.4750000000001
 20
44.43054137150004
 30
0.0
  0
POINT
  5
1CA
330
1BE
100
AcDbEntity
  8
Defpoints
 62
     0
100
AcDbPoint
 10
118.4750000000001
 20
31.73054137150005
 30
0.0
  0
POINT
  5
1CB
330
1BE
100
AcDbEntity
  8
Defpoints
 62
     0
100
AcDbPoint
 10
131.1250000000002
 20
31.73054137150009
 30
0.0
  0
ENDBLK
  5
1CC
330
1BE
100
AcDbEntity
  8
0
100
AcDbBlockEnd
  0
BLOCK
  5
1CF
330
1CE
100
AcDbEntity
  8
0
100
AcDbBlockBegin
  2
*D10
 70
     1
 10
0.0
 20
0.0
 30
0.0
  3
*D10
  1
*D10
  0
LINE
  5
1D0
330
1CE
100
AcDbEntity
  8
치수문자_일반주서
 62
     0
370
    -2
100
AcDbLine
 10
118.4750000000001
 20
44.49304137150004
 30
0.0
 11
118.4750000000001
 21
53.49826693184833
 31
0.0
  0
LINE
  5
1D1
330
1CE
100
AcDbEntity
  8
치수문자_일반주서
 62
     0
370
    -2
100
AcDbLine
 10
93.07500000000005
 20
43.68112795880526
 30
0.0
 11
93.07500000000005
 21
53.49826693184833
 31
0.0
  0
LINE
  5
1D2
330
1CE
100
AcDbEntity
  8
치수문자_일반주서
 62
     0
370
    -2
100
AcDbLine
 10
115.1730000000001
 20
53.49826693184833
 30
0.0
 11
96.37700000000004
 21
53.49826693184833
 31
0.0
  0
SOLID
  5
1D3
330
1CE
100
AcDbEntity
  8
치수문자_일반주서
 62
     0
100
AcDbTrace
 10
115.1730000000001
 20
52.947933598515
 30
0.0
 11
115.1730000000001
 21
54.04860026518167
 31
0.0
 12
118.4750000000001
 22
53.49826693184833
 32
0.0
 13
118.4750000000001
 23
53.49826693184833
 33
0.0
  0
SOLID
  5
1D4
330
1CE
100
AcDbEntity
  8
치수문자_일반주서
 62
     0
100
AcDbTrace
 10
96.37700000000004
 20
54.04860026518167
 30
0.0
 11
96.37700000000004
 21
52.947933598515
 31
0.0
 12
93.07500000000005
 22
53.49826693184833
 32
0.0
 13
93.07500000000005
 23
53.49826693184833
 33
0.0
  0
MTEXT
  5
1D5
330
1CE
100
AcDbEntity
  8
치수문자_일반주서
 62
     0
100
AcDbMText
 10
105.8284070137327
 20
57.87326693184833
 30
0.0
 40
3.5
 41
0.0
 71
     2
 72
     1
  1
\A1;25.40 [1]
  7
SLDTEXTSTYLE0
 73
     1
 44
1.0
  0
POINT
  5
1D6
330
1CE
100
AcDbEntity
  8
Defpoints
 62
     0
100
AcDbPoint
 10
118.4750000000001
 20
44.43054137150004
 30
0.0
  0
POINT
  5
1D7
330
1CE
100
AcDbEntity
  8
Defpoints
 62
     0
100
AcDbPoint
 10
93.07500000000005
 20
43.61862795880526
 30
0.0
  0
POINT
  5
1D8
330
1CE
100
AcDbEntity
  8
Defpoints
 62
     0
100
AcDbPoint
 10
93.07500000000005
 20
53.49826693184833
 30
0.0
  0
ENDBLK
  5
1D9
330
1CE
100
AcDbEntity
  8
0
100
AcDbBlockEnd
  0
BLOCK
  5
1DC
330
1DB
100
AcDbEntity
  8
0
100
AcDbBlockBegin
  2
*D11
 70
     1
 10
0.0
 20
0.0
 30
0.0
  3
*D11
  1
*D11
  0
LINE
  5
1DD
330
1DB
100
AcDbEntity
  8
치수문자_일반주서
 62
     0
370
    -2
100
AcDbLine
 10
118.4750000000001
 20
44.49304137150004
 30
0.0
 11
118.4750000000001
 21
65.49826693184829
 31
0.0
  0
LINE
  5
1DE
330
1DB
100
AcDbEntity
  8
치수문자_일반주서
 62
     0
370
    -2
100
AcDbLine
 10
16.87500000000006
 20
43.49304137150003
 30
0.0
 11
16.87500000000006
 21
65.49826693184829
 31
0.0
  0
LINE
  5
1DF
330
1DB
100
AcDbEntity
  8
치수문자_일반주서
 62
     0
370
    -2
100
AcDbLine
 10
115.1730000000001
 20
65.49826693184829
 30
0.0
 11
20.17700000000006
 21
65.49826693184829
 31
0.0
  0
SOLID
  5
1E0
330
1DB
100
AcDbEntity
  8
치수문자_일반주서
 62
     0
100
AcDbTrace
 10
115.1730000000001
 20
64.94793359851496
 30
0.0
 11
115.1730000000001
 21
66.04860026518162
 31
0.0
 12
118.4750000000001
 22
65.49826693184829
 32
0.0
 13
118.4750000000001
 23
65.49826693184829
 33
0.0
  0
SOLID
  5
1E1
330
1DB
100
AcDbEntity
  8
치수문자_일반주서
 62
     0
100
AcDbTrace
 10
20.17700000000006
 20
66.04860026518162
 30
0.0
 11
20.17700000000006
 21
64.94793359851496
 31
0.0
 12
16.87500000000006
 22
65.49826693184829
 32
0.0
 13
16.87500000000006
 23
65.49826693184829
 33
0.0
  0
MTEXT
  5
1E2
330
1DB
100
AcDbEntity
  8
치수문자_일반주서
 62
     0
100
AcDbMText
 10
67.21781471613694
 20
69.87326693184829
 30
0.0
 40
3.5
 41
0.0
 71
     2
 72
     1
  1
\A1;101.60 [4]
  7
SLDTEXTSTYLE0
 73
     1
 44
1.0
  0
POINT
  5
1E3
330
1DB
100
AcDbEntity
  8
Defpoints
 62
     0
100
AcDbPoint
 10
118.4750000000001
 20
44.43054137150004
 30
0.0
  0
POINT
  5
1E4
330
1DB
100
AcDbEntity
  8
Defpoints
 62
     0
100
AcDbPoint
 10
16.87500000000006
 20
43.43054137150003
 30
0.0
  0
POINT
  5
1E5
330
1DB
100
AcDbEntity
  8
Defpoints
 62
     0
100
AcDbPoint
 10
16.87500000000006
 20
65.49826693184829
 30
0.0
  0
ENDBLK
  5
1E6
330
1DB
100
AcDbEntity
  8
0
100
AcDbBlockEnd
  0
BLOCK
  5
1F9
330
1F8
100
AcDbEntity
  8
0
100
AcDbBlockBegin
  2
*D12
 70
     1
 10
0.0
 20
0.0
 30
0.0
  3
*D12
  1
*D12
  0
LINE
  5
1FA
330
1F8
100
AcDbEntity
  8
치수문자_일반주서
 62
     0
370
    -2
100
AcDbLine
 10
119.4198794847119
 20
28.80436317289442
 30
0.0
 11
132.7504654603546
 21
-0.0000000000000409
 31
0.0
  0
MTEXT
  5
1FB
330
1F8
100
AcDbEntity
  8
치수문자_일반주서
 62
     0
100
AcDbMText
 10
129.1608431911846
 20
14.00635886043113
 30
0.0
 40
3.5
 41
0.0
 71
     5
 72
     1
  1
\A1;R.76 [R0.030]
  7
SLDTEXTSTYLE0
 11
0.4199998732066577
 21
-0.9075241630427212
 31
0.0
 73
     1
 44
1.0
  0
LINE
  5
1FC
330
1F8
100
AcDbEntity
  8
치수문자_일반주서
 62
     0
370
    -2
100
AcDbLine
 10
117.7130000000001
 20
32.49254137150004
 30
0.0
 11
118.0330399033836
 21
31.80100795926148
 31
0.0
  0
SOLID
  5
1FD
330
1F8
100
AcDbEntity
  8
치수문자_일반주서
 62
     0
100
AcDbTrace
 10
119.9193202824398
 20
29.03550310311581
 30
0.0
 11
118.9204386869841
 21
28.57322324267302
 31
0.0
 12
118.0330399033836
 22
31.80100795926148
 32
0.0
 13
118.0330399033836
 23
31.80100795926148
 33
0.0
  0
POINT
  5
1FE
330
1F8
100
AcDbEntity
  8
Defpoints
 62
     0
100
AcDbPoint
 10
118.0330399033836
 20
31.80100795926148
 30
0.0
  0
POINT
  5
1FF
330
1F8
100
AcDbEntity
  8
Defpoints
 62
     0
100
AcDbPoint
 10
117.7130000000001
 20
32.49254137150004
 30
0.0
  0
ENDBLK
  5
200
330
1F8
100
AcDbEntity
  8
0
100
AcDbBlockEnd
  0
BLOCK
  5
242
330
241
100
AcDbEntity
  8
0
100
AcDbBlockBegin
  2
*D13
 70
     1
 10
0.0
 20
0.0
 30
0.0
  3
*D13
  1
*D13
  0
LINE
  5
244
330
241
100
AcDbEntity
  8
치수문자_일반주서
 62
     0
370
    -2
100
AcDbLine
 10
-65.26249999999999
 20
6.351074928723889
 30
0.0
 11
-78.70000000000002
 21
6.351074928723839
 31
0.0
  0
LINE
  5
245
330
241
100
AcDbEntity
  8
치수문자_일반주서
 62
     0
370
    -2
100
AcDbLine
 10
-65.26249999999999
 20
-6.348925071276099
 30
0.0
 11
-78.69999999999997
 21
-6.34892507127615
 31
0.0
  0
LINE
  5
246
330
241
100
AcDbEntity
  8
치수문자_일반주서
 62
     0
370
    -2
100
AcDbLine
 10
-78.7
 20
3.049074928723839
 30
0.0
 11
-78.69999999999999
 21
-3.04692507127615
 31
0.0
  0
SOLID
  5
247
330
241
100
AcDbEntity
  8
치수문자_일반주서
 62
     0
100
AcDbTrace
 10
-78.14966666666668
 20
3.049074928723841
 30
0.0
 11
-79.25033333333333
 21
3.049074928723837
 31
0.0
 12
-78.70000000000002
 22
6.351074928723839
 32
0.0
 13
-78.70000000000002
 23
6.351074928723839
 33
0.0
  0
SOLID
  5
248
330
241
100
AcDbEntity
  8
치수문자_일반주서
 62
     0
100
AcDbTrace
 10
-79.25033333333332
 20
-3.046925071276152
 30
0.0
 11
-78.14966666666666
 21
-3.046925071276148
 31
0.0
 12
-78.69999999999997
 22
-6.34892507127615
 32
0.0
 13
-78.69999999999997
 23
-6.34892507127615
 33
0.0
  0
MTEXT
  5
249
330
241
100
AcDbEntity
  8
치수문자_일반주서
 62
     0
100
AcDbMText
 10
-83.075
 20
0.0010749287238806
 30
0.0
 40
3.5
 41
0.0
 71
     2
 72
     1
  1
\A1;%%c12.70 [1/2]
  7
SLDTEXTSTYLE0
 11
-3.356894814614650E-15
 21
1.0
 31
0.0
 73
     1
 44
1.0
  0
POINT
  5
24A
330
241
100
AcDbEntity
  8
Defpoints
 62
     0
100
AcDbPoint
 10
-65.19999999999999
 20
6.351074928723889
 30
0.0
  0
POINT
  5
24B
330
241
100
AcDbEntity
  8
Defpoints
 62
     0
100
AcDbPoint
 10
-65.19999999999999
 20
-6.348925071276099
 30
0.0
  0
POINT
  5
24C
330
241
100
AcDbEntity
  8
Defpoints
 62
     0
100
AcDbPoint
 10
-78.69999999999997
 20
-6.34892507127615
 30
0.0
  0
ENDBLK
  5
243
330
241
100
AcDbEntity
  8
0
100
AcDbBlockEnd
  0
BLOCK
  5
24E
330
24D
100
AcDbEntity
  8
0
100
AcDbBlockBegin
  2
*D14
 70
     1
 10
0.0
 20
0.0
 30
0.0
  3
*D14
  1
*D14
  0
LINE
  5
250
330
24D
100
AcDbEntity
  8
치수문자_일반주서
 62
     0
370
    -2
100
AcDbLine
 10
35.46250000000003
 20
6.351074928723897
 30
0.0
 11
48.05000000000008
 21
6.351074928723946
 31
0.0
  0
LINE
  5
251
330
24D
100
AcDbEntity
  8
치수문자_일반주서
 62
     0
370
    -2
100
AcDbLine
 10
35.46250000000003
 20
-6.348925071276099
 30
0.0
 11
48.05000000000013
 21
-6.348925071276049
 31
0.0
  0
LINE
  5
252
330
24D
100
AcDbEntity
  8
치수문자_일반주서
 62
     0
370
    -2
100
AcDbLine
 10
48.05000000000008
 20
6.351074928723946
 30
0.0
 11
48.04999999999997
 21
40.29345800543218
 31
0.0
  0
LINE
  5
253
330
24D
100
AcDbEntity
  8
치수문자_일반주서
 62
     0
370
    -2
100
AcDbLine
 10
48.05000000000008
 20
6.351074928723946
 30
0.0
 11
48.05000000000013
 21
-6.348925071276049
 31
0.0
  0
LINE
  5
254
330
24D
100
AcDbEntity
  8
치수문자_일반주서
 62
     0
370
    -2
100
AcDbLine
 10
48.05000000000007
 20
9.653074928723946
 30
0.0
 11
48.05000000000005
 21
12.95507492872395
 31
0.0
  0
LINE
  5
255
330
24D
100
AcDbEntity
  8
치수문자_일반주서
 62
     0
370
    -2
100
AcDbLine
 10
48.05000000000014
 20
-9.650925071276049
 30
0.0
 11
48.05000000000015
 21
-12.95292507127605
 31
0.0
  0
SOLID
  5
256
330
24D
100
AcDbEntity
  8
치수문자_일반주서
 62
     0
100
AcDbTrace
 10
47.49966666666673
 20
9.653074928723944
 30
0.0
 11
48.6003333333334
 21
9.653074928723948
 31
0.0
 12
48.05000000000008
 22
6.351074928723946
 32
0.0
 13
48.05000000000008
 23
6.351074928723946
 33
0.0
  0
SOLID
  5
257
330
24D
100
AcDbEntity
  8
치수문자_일반주서
 62
     0
100
AcDbTrace
 10
48.60033333333347
 20
-9.650925071276047
 30
0.0
 11
47.4996666666668
 21
-9.65092507127605
 31
0.0
 12
48.05000000000013
 22
-6.348925071276049
 32
0.0
 13
48.05000000000013
 23
-6.348925071276049
 33
0.0
  0
MTEXT
  5
258
330
24D
100
AcDbEntity
  8
치수문자_일반주서
 62
     0
100
AcDbMText
 10
43.67500000000001
 20
26.94970800543216
 30
0.0
 40
3.5
 41
0.0
 71
     2
 72
     1
  1
\A1;%%c12.70 [1/2]
  7
SLDTEXTSTYLE0
 11
-3.356894814614647E-15
 21
1.0
 31
0.0
 73
     1
 44
1.0
  0
POINT
  5
259
330
24D
100
AcDbEntity
  8
Defpoints
 62
     0
100
AcDbPoint
 10
35.40000000000003
 20
6.351074928723897
 30
0.0
  0
POINT
  5
25A
330
24D
100
AcDbEntity
  8
Defpoints
 62
     0
100
AcDbPoint
 10
35.40000000000003
 20
-6.348925071276099
 30
0.0
  0
POINT
  5
25B
330
24D
100
AcDbEntity
  8
Defpoints
 62
     0
100
AcDbPoint
 10
48.05000000000015
 20
-6.348925071276052
 30
0.0
  0
ENDBLK
  5
24F
330
24D
100
AcDbEntity
  8
0
100
AcDbBlockEnd
  0
BLOCK
  5
25D
330
25C
100
AcDbEntity
  8
0
100
AcDbBlockBegin
  2
*D15
 70
     1
 10
0.0
 20
0.0
 30
0.0
  3
*D15
  1
*D15
  0
LINE
  5
25F
330
25C
100
AcDbEntity
  8
치수문자_일반주서
 62
     0
370
    -2
100
AcDbLine
 10
35.40000000000003
 20
6.413574928723897
 30
0.0
 11
35.40000000000003
 21
15.41880048907219
 31
0.0
  0
LINE
  5
260
330
25C
100
AcDbEntity
  8
치수문자_일반주서
 62
     0
370
    -2
100
AcDbLine
 10
10.0
 20
5.601661516029118
 30
0.0
 11
10.0
 21
15.41880048907219
 31
0.0
  0
LINE
  5
261
330
25C
100
AcDbEntity
  8
치수문자_일반주서
 62
     0
370
    -2
100
AcDbLine
 10
32.09800000000003
 20
15.41880048907219
 30
0.0
 11
13.302
 21
15.41880048907219
 31
0.0
  0
SOLID
  5
262
330
25C
100
AcDbEntity
  8
치수문자_일반주서
 62
     0
100
AcDbTrace
 10
32.09800000000003
 20
14.86846715573886
 30
0.0
 11
32.09800000000003
 21
15.96913382240552
 31
0.0
 12
35.40000000000003
 22
15.41880048907219
 32
0.0
 13
35.40000000000003
 23
15.41880048907219
 33
0.0
  0
SOLID
  5
263
330
25C
100
AcDbEntity
  8
치수문자_일반주서
 62
     0
100
AcDbTrace
 10
13.302
 20
15.96913382240552
 30
0.0
 11
13.302
 21
14.86846715573886
 31
0.0
 12
10.0
 22
15.41880048907219
 32
0.0
 13
10.0
 23
15.41880048907219
 33
0.0
  0
MTEXT
  5
264
330
25C
100
AcDbEntity
  8
치수문자_일반주서
 62
     0
100
AcDbMText
 10
22.75340701373267
 20
19.79380048907219
 30
0.0
 40
3.5
 41
0.0
 71
     2
 72
     1
  1
\A1;25.40 [1]
  7
SLDTEXTSTYLE0
 73
     1
 44
1.0
  0
POINT
  5
265
330
25C
100
AcDbEntity
  8
Defpoints
 62
     0
100
AcDbPoint
 10
35.40000000000003
 20
6.351074928723897
 30
0.0
  0
POINT
  5
266
330
25C
100
AcDbEntity
  8
Defpoints
 62
     0
100
AcDbPoint
 10
10.0
 20
5.539161516029118
 30
0.0
  0
POINT
  5
267
330
25C
100
AcDbEntity
  8
Defpoints
 62
     0
100
AcDbPoint
 10
10.0
 20
15.41880048907219
 30
0.0
  0
ENDBLK
  5
25E
330
25C
100
AcDbEntity
  8
0
100
AcDbBlockEnd
  0
BLOCK
  5
269
330
268
100
AcDbEntity
  8
0
100
AcDbBlockBegin
  2
*D16
 70
     1
 10
0.0
 20
0.0
 30
0.0
  3
*D16
  1
*D16
  0
LINE
  5
26B
330
268
100
AcDbEntity
  8
치수문자_일반주서
 62
     0
370
    -2
100
AcDbLine
 10
35.40000000000003
 20
6.413574928723897
 30
0.0
 11
35.40000000000003
 21
27.41880048907215
 31
0.0
  0
LINE
  5
26C
330
268
100
AcDbEntity
  8
치수문자_일반주서
 62
     0
370
    -2
100
AcDbLine
 10
-66.19999999999999
 20
5.413574928723882
 30
0.0
 11
-66.19999999999999
 21
27.41880048907215
 31
0.0
  0
LINE
  5
26D
330
268
100
AcDbEntity
  8
치수문자_일반주서
 62
     0
370
    -2
100
AcDbLine
 10
32.09800000000003
 20
27.41880048907215
 30
0.0
 11
-62.89799999999999
 21
27.41880048907215
 31
0.0
  0
SOLID
  5
26E
330
268
100
AcDbEntity
  8
치수문자_일반주서
 62
     0
100
AcDbTrace
 10
32.09800000000003
 20
26.86846715573881
 30
0.0
 11
32.09800000000003
 21
27.96913382240548
 31
0.0
 12
35.40000000000003
 22
27.41880048907215
 32
0.0
 13
35.40000000000003
 23
27.41880048907215
 33
0.0
  0
SOLID
  5
26F
330
268
100
AcDbEntity
  8
치수문자_일반주서
 62
     0
100
AcDbTrace
 10
-62.89799999999999
 20
27.96913382240548
 30
0.0
 11
-62.89799999999999
 21
26.86846715573881
 31
0.0
 12
-66.19999999999999
 22
27.41880048907215
 32
0.0
 13
-66.19999999999999
 23
27.41880048907215
 33
0.0
  0
MTEXT
  5
270
330
268
100
AcDbEntity
  8
치수문자_일반주서
 62
     0
100
AcDbMText
 10
-15.85718528386309
 20
31.79380048907215
 30
0.0
 40
3.5
 41
0.0
 71
     2
 72
     1
  1
\A1;101.60 [4]
  7
SLDTEXTSTYLE0
 73
     1
 44
1.0
  0
POINT
  5
271
330
268
100
AcDbEntity
  8
Defpoints
 62
     0
100
AcDbPoint
 10
35.40000000000003
 20
6.351074928723897
 30
0.0
  0
POINT
  5
272
330
268
100
AcDbEntity
  8
Defpoints
 62
     0
100
AcDbPoint
 10
-66.19999999999999
 20
5.351074928723882
 30
0.0
  0
POINT
  5
273
330
268
100
AcDbEntity
  8
Defpoints
 62
     0
100
AcDbPoint
 10
-66.19999999999999
 20
27.41880048907215
 30
0.0
  0
ENDBLK
  5
26A
330
268
100
AcDbEntity
  8
0
100
AcDbBlockEnd
  0
BLOCK
  5
275
330
274
100
AcDbEntity
  8
0
100
AcDbBlockBegin
  2
*D17
 70
     1
 10
0.0
 20
0.0
 30
0.0
  3
*D17
  1
*D17
  0
LINE
  5
277
330
274
100
AcDbEntity
  8
치수문자_일반주서
 62
     0
370
    -2
100
AcDbLine
 10
220.0765925039177
 20
-25.87887424314795
 30
0.0
 11
233.4071784795604
 21
-54.6832374160424
 31
0.0
  0
MTEXT
  5
278
330
274
100
AcDbEntity
  8
치수문자_일반주서
 62
     0
100
AcDbMText
 10
229.8175562103904
 20
-40.67687855561123
 30
0.0
 40
3.5
 41
0.0
 71
     5
 72
     1
  1
\A1;R.76 [R0.030]
  7
SLDTEXTSTYLE0
 11
0.4199998732066577
 21
-0.9075241630427212
 31
0.0
 73
     1
 44
1.0
  0
LINE
  5
279
330
274
100
AcDbEntity
  8
치수문자_일반주서
 62
     0
370
    -2
100
AcDbLine
 10
218.3697130192058
 20
-22.19069604454233
 30
0.0
 11
218.6897529225893
 21
-22.88222945678088
 31
0.0
  0
SOLID
  5
27A
330
274
100
AcDbEntity
  8
치수문자_일반주서
 62
     0
100
AcDbTrace
 10
220.5760333016456
 20
-25.64773431292655
 30
0.0
 11
219.5771517061899
 21
-26.11001417336934
 31
0.0
 12
218.6897529225893
 22
-22.88222945678088
 32
0.0
 13
218.6897529225893
 23
-22.88222945678088
 33
0.0
  0
POINT
  5
27B
330
274
100
AcDbEntity
  8
Defpoints
 62
     0
100
AcDbPoint
 10
218.6897529225893
 20
-22.88222945678088
 30
0.0
  0
POINT
  5
27C
330
274
100
AcDbEntity
  8
Defpoints
 62
     0
100
AcDbPoint
 10
218.3697130192058
 20
-22.19069604454233
 30
0.0
  0
ENDBLK
  5
276
330
274
100
AcDbEntity
  8
0
100
AcDbBlockEnd
  0
BLOCK
  5
289
330
288
100
AcDbEntity
  8
0
100
AcDbBlockBegin
  2
*D18
 70
     1
 10
0.0
 20
0.0
 30
0.0
  3
*D18
  1
*D18
  0
LINE
  5
28B
330
288
100
AcDbEntity
  8
치수문자_일반주서
 62
     0
370
    -2
100
AcDbLine
 10
35.98026851791627
 20
-9.168003473113515
 30
0.0
 11
51.15659269599613
 21
-40.49098587574483
 31
0.0
  0
MTEXT
  5
28C
330
288
100
AcDbEntity
  8
치수문자_일반주서
 62
     0
100
AcDbMText
 10
46.93762830779161
 20
-25.76304462268567
 30
0.0
 40
3.5
 41
0.0
 71
     5
 72
     1
  1
\A1;R1.52 [R0.060]
  7
SLDTEXTSTYLE0
 11
0.4360274591620888
 21
-0.89993336134219
 31
0.0
 73
     1
 44
1.0
  0
LINE
  5
28D
330
288
100
AcDbEntity
  8
치수문자_일반주서
 62
     0
370
    -2
100
AcDbLine
 10
33.87600000000003
 20
-4.824925071276105
 30
0.0
 11
34.54050584776306
 21
-6.196423513961605
 31
0.0
  0
SOLID
  5
28E
330
288
100
AcDbEntity
  8
치수문자_일반주서
 62
     0
100
AcDbTrace
 10
36.47553184444159
 20
-8.928043028087979
 30
0.0
 11
35.48500519139095
 21
-9.407963918139052
 31
0.0
 12
34.54050584776306
 22
-6.196423513961605
 32
0.0
 13
34.54050584776306
 23
-6.196423513961605
 33
0.0
  0
POINT
  5
28F
330
288
100
AcDbEntity
  8
Defpoints
 62
     0
100
AcDbPoint
 10
34.54050584776306
 20
-6.196423513961605
 30
0.0
  0
POINT
  5
290
330
288
100
AcDbEntity
  8
Defpoints
 62
     0
100
AcDbPoint
 10
33.87600000000003
 20
-4.824925071276105
 30
0.0
  0
ENDBLK
  5
28A
330
288
100
AcDbEntity
  8
0
100
AcDbBlockEnd
  0
ENDSEC
  0
SECTION
  2
ENTITIES
  0
LINE
  5
CA
330
1F
100
AcDbEntity
  8
참조1
100
AcDbLine
 10
-15.4
 20
0.0010749287238892
 30
0.0
 11
-15.39999999999999
 21
-39.99892507127611
 31
0.0
  0
LINE
  5
CB
330
1F
100
AcDbEntity
  8
참조1
100
AcDbLine
 10
-15.39999999999999
 20
-39.99892507127611
 30
0.0
 11
-14.66672777521594
 21
-39.9989250712761
 31
0.0
  0
INSERT
  5
CD
330
1F
100
AcDbEntity
  8
0
  6
Continuous
 62
     7
100
AcDbBlockReference
 66
     1
  2
블럭10
 10
-29.3402729321252
 20
-52.04609937292004
 30
0.0
  0
ATTRIB
  5
CE
330
CD
100
AcDbEntity
  8
FORMAT
 62
     2
100
AcDbText
 10
-39.48190894426183
 20
-49.97073246008785
 30
0.0
 40
4.233333333333333
  1
EM637914 [ 2 FLUTE ]
 41
0.75
  7
SLDTEXTSTYLE0
 11
-39.48190894426183
 21
-52.08739912675452
 31
0.0
100
AcDbAttribute
  2
AUTOATTR0
 70
     0
 74
     1
  0
SEQEND
  5
CF
330
CD
100
AcDbEntity
  8
0
  6
Continuous
 62
     7
  0
HATCH
  5
D0
330
1F
100
AcDbEntity
  8
중심선
100
AcDbHatch
 10
0.0
 20
0.0
 30
0.0
210
0.0
220
0.0
230
1.0
  2
SOLID
 70
     1
 71
     0
 91
        1
 92
        0
 93
        4
 72
     1
 10
-23.62536362774437
 20
-35.7989250712761
 11
-27.07163887158165
 21
-35.7989250712761
 72
     1
 10
-27.07163887158165
 20
-35.7989250712761
 11
-29.1998687307857
 21
-38.3352506518487
 72
     1
 10
-29.1998687307857
 20
-38.3352506518487
 11
-25.75356040183524
 21
-38.33521122254621
 72
     1
 10
-25.75356040183524
 20
-38.33521122254621
 11
-23.62536362774437
 21
-35.7989250712761
 97
        0
 75
     0
 76
     1
 98
        1
 10
0.0
 20
0.0
  0
HATCH
  5
D1
330
1F
100
AcDbEntity
  8
중심선
100
AcDbHatch
 10
0.0
 20
0.0
 30
0.0
210
0.0
220
0.0
230
1.0
  2
SOLID
 70
     1
 71
     0
 91
        1
 92
        0
 93
        4
 72
     1
 10
-18.61259963670836
 20
-35.7989250712761
 11
-22.05887488054564
 21
-35.7989250712761
 72
     1
 10
-22.05887488054564
 20
-35.7989250712761
 11
-26.59001288890309
 21
-41.19892507127612
 72
     1
 10
-26.59001288890309
 20
-41.19892507127612
 11
-23.1437376450658
 21
-41.19892507127612
 72
     1
 10
-23.1437376450658
 20
-41.19892507127612
 11
-18.61259963670836
 21
-35.7989250712761
 97
        0
 75
     0
 76
     1
 98
        1
 10
0.0
 20
0.0
  0
HATCH
  5
D2
330
1F
100
AcDbEntity
  8
중심선
100
AcDbHatch
 10
0.0
 20
0.0
 30
0.0
210
0.0
220
0.0
230
1.0
  2
SOLID
 70
     1
 71
     0
 91
        1
 92
        0
 93
        4
 72
     1
 10
-13.59983564567255
 20
-35.7989250712761
 11
-17.04611088950963
 21
-35.7989250712761
 72
     1
 10
-17.04611088950963
 20
-35.7989250712761
 11
-24.09454779139888
 21
-44.19892507127612
 72
     1
 10
-24.09454779139888
 20
-44.19892507127612
 11
-20.6482725475616
 21
-44.19892507127612
 72
     1
 10
-20.6482725475616
 20
-44.19892507127612
 11
-13.59983564567255
 21
-35.7989250712761
 97
        0
 75
     0
 76
     1
 98
        1
 10
0.0
 20
0.0
  0
HATCH
  5
D3
330
1F
100
AcDbEntity
  8
중심선
100
AcDbHatch
 10
0.0
 20
0.0
 30
0.0
210
0.0
220
0.0
230
1.0
  2
SOLID
 70
     1
 71
     0
 91
        1
 92
        0
 93
        6
 72
     3
 10
-8.79994521466032
 20
-39.99892507132738
 11
3.960054785062284
 21
1.540850780301639E-10
 40
0.3939339440162633
 50
17.09539180608433
 51
320.0019657685074
 73
     0
 72
     1
 10
-7.116945558959725
 20
-38.58681907591438
 11
-4.811643685258687
 21
-36.65249236586649
 72
     3
 10
-8.799945214713167
 20
-39.99892507127625
 11
6.600054785286829
 21
-1.249000902703301E-13
 40
0.6363583540795982
 50
39.99873849337408
 51
368.4976242363725
 73
     1
 72
     1
 10
-2.374612722812558
 20
-39.03892507120613
 11
-10.11987790787724
 21
-39.03892507120613
 72
     1
 10
-10.11987790787724
 20
-39.03892507120613
 11
-10.11990295232318
 21
-40.95892507120602
 72
     1
 10
-10.11990295232318
 20
-40.95892507120602
 11
-5.678523182851142
 21
-40.95892507120599
 97
        0
 75
     0
 76
     1
 98
        1
 10
0.0
 20
0.0
  0
LINE
  5
127
330
1F
100
AcDbEntity
  8
참조1
100
AcDbLine
 10
83.30561285443832
 20
7.441074928723896
 30
0.0
 11
83.30561285443832
 21
-7.438925071276109
 31
0.0
  0
LINE
  5
128
330
1F
100
AcDbEntity
  8
참조1
100
AcDbLine
 10
96.00561285443833
 20
5.441074928723896
 30
0.0
 11
83.30561285443832
 21
5.441074928723896
 31
0.0
  0
SOLID
  5
129
330
1F
100
AcDbEntity
  8
참조1
100
AcDbTrace
 10
83.30561285443832
 20
5.441074928723896
 30
0.0
 11
89.65561285443832
 21
4.425074928723896
 31
0.0
 12
89.65561285443832
 22
6.457074928723896
 32
0.0
 13
89.65561285443832
 23
6.457074928723896
 33
0.0
  0
LINE
  5
12A
330
1F
100
AcDbEntity
  8
참조1
100
AcDbLine
 10
96.00561285443833
 20
-5.438925071276109
 30
0.0
 11
83.30561285443832
 21
-5.438925071276109
 31
0.0
  0
SOLID
  5
12B
330
1F
100
AcDbEntity
  8
참조1
100
AcDbTrace
 10
83.30561285443832
 20
-5.438925071276109
 30
0.0
 11
89.65561285443832
 21
-6.454925071276109
 31
0.0
 12
89.65561285443832
 22
-4.422925071276109
 32
0.0
 13
89.65561285443832
 23
-4.422925071276109
 33
0.0
  0
MTEXT
  5
12C
330
1F
100
AcDbEntity
  8
참조1
100
AcDbMText
 10
92.7031029469086
 20
10.98929157337383
 30
0.0
 40
3.5
 41
0.0
 71
     1
 72
     1
  1
A
  7
SLDTEXTSTYLE0
 73
     1
 44
1.0
  0
MTEXT
  5
12D
330
1F
100
AcDbEntity
  8
참조1
100
AcDbMText
 10
92.7031029469086
 20
0.1092915733738251
 30
0.0
 40
3.5
 41
0.0
 71
     1
 72
     1
  1
A
  7
SLDTEXTSTYLE0
 73
     1
 44
1.0
  0
LINE
  5
206
330
1F
100
AcDbEntity
  8
외형선
  6
Continuous
370
    15
100
AcDbLine
 10
7.969918989554742
 20
6.351074928723889
 30
0.0
 11
-65.19999999999999
 21
6.351074928723889
 31
0.0
  0
LINE
  5
207
330
1F
100
AcDbEntity
  8
외형선
  6
Continuous
370
    15
100
AcDbLine
 10
-65.19999999999999
 20
-6.348925071276113
 30
0.0
 11
7.969918989554742
 21
-6.348925071276106
 31
0.0
  0
LINE
  5
208
330
1F
100
AcDbEntity
  8
외형선
  6
Continuous
370
    15
100
AcDbLine
 10
-65.19999999999999
 20
6.351074928723882
 30
0.0
 11
-66.19999999999999
 21
5.351074928723882
 31
0.0
  0
LINE
  5
209
330
1F
100
AcDbEntity
  8
외형선
  6
Continuous
370
    15
100
AcDbLine
 10
-66.19999999999999
 20
-5.348925071276106
 30
0.0
 11
-65.19999999999999
 21
-6.348925071276106
 31
0.0
  0
SPLINE
  5
20A
330
1F
100
AcDbEntity
  8
외형선
  6
Continuous
370
    15
100
AcDbSpline
210
0.0
220
0.0
230
1.0
 70
     8
 71
     3
 72
     9
 73
     5
 74
     0
 42
0.000000001
 43
0.00000001
 40
0.0
 40
0.0
 40
0.0
 40
0.0
 40
0.5179580090336529
 40
1.0
 40
1.0
 40
1.0
 40
1.0
 10
7.969888033362906
 20
-5.217735088806037
 30
0.0
 10
8.322037599291207
 20
-5.187763030212942
 30
0.0
 10
9.001918129732871
 20
-5.129897222424745
 30
0.0
 10
9.675368596285693
 20
-5.087090014789098
 30
0.0
 10
10.0
 20
-5.066455143192705
 30
0.0
  0
SPLINE
  5
20B
330
1F
100
AcDbEntity
  8
0
  6
Continuous
 62
     1
370
    15
100
AcDbSpline
210
0.0
220
0.0
230
1.0
 70
     8
 71
     3
 72
     9
 73
     5
 74
     0
 42
0.000000001
 43
0.00000001
 40
0.0
 40
0.0
 40
0.0
 40
0.0
 40
0.4624067518754996
 40
1.0
 40
1.0
 40
1.0
 40
1.0
 10
18.94938472027377
 20
1.628214903258446
 30
0.0
 10
18.67796435613582
 20
1.757318276809144
 30
0.0
 10
18.09099117065125
 20
2.036516997474592
 30
0.0
 10
17.50280902211466
 20
2.344029125788424
 30
0.0
 10
17.18660627039401
 20
2.509345569686339
 30
0.0
  0
SPLINE
  5
20C
330
1F
100
AcDbEntity
  8
0
  6
Continuous
 62
     1
370
    15
100
AcDbSpline
210
0.0
220
0.0
230
1.0
 70
     8
 71
     3
 72
    17
 73
    13
 74
     0
 42
0.000000001
 43
0.00000001
 40
0.0
 40
0.0
 40
0.0
 40
0.0
 40
0.1351533192396601
 40
0.2378902934843657
 40
0.3207371538375427
 40
0.4201859832543111
 40
0.5327901750280633
 40
0.64151031777909
 40
0.7553711232471271
 40
0.8575339111616009
 40
0.9532326084578611
 40
1.0
 40
1.0
 40
1.0
 40
1.0
 10
16.85013530523611
 20
5.047043155532954
 30
0.0
 10
16.61802754526542
 20
5.035335863700361
 30
0.0
 10
16.20948276478907
 20
5.014729258508353
 30
0.0
 10
15.65204623756307
 20
4.993984069492669
 30
0.0
 10
15.15011707521381
 20
4.979175095221471
 30
0.0
 10
14.63600000269815
 20
4.967941995016261
 30
0.0
 10
14.07752066064563
 20
4.960919657119923
 30
0.0
 10
13.48661879480335
 20
4.959209229945053
 30
0.0
 10
12.90818153911448
 20
4.961319685918781
 30
0.0
 10
12.37687927102712
 20
4.971800231936285
 30
0.0
 10
11.97762252333052
 20
4.982064624209251
 30
0.0
 10
11.73027402287198
 20
4.989919931352041
 30
0.0
 10
11.64907684631845
 20
4.992498595705257
 30
0.0
  0
SPLINE
  5
20D
330
1F
100
AcDbEntity
  8
0
  6
Continuous
 62
     1
370
    15
100
AcDbSpline
210
0.0
220
0.0
230
1.0
 70
     8
 71
     3
 72
    27
 73
    23
 74
     0
 42
0.000000001
 43
0.00000001
 40
0.0
 40
0.0
 40
0.0
 40
0.0
 40
0.0659997343427766
 40
0.1161170487603131
 40
0.1500523286064308
 40
0.1807481138237718
 40
0.2193970890366736
 40
0.2651396178371608
 40
0.3077710785239918
 40
0.3717590367917254
 40
0.425618630669666
 40
0.4792298134030493
 40
0.5328164663797557
 40
0.5928399811770564
 40
0.6565789753944595
 40
0.7104282167338546
 40
0.7403665617279155
 40
0.7679588512286802
 40
0.7958349153744206
 40
0.841914846906986
 40
0.9100102111253275
 40
1.0
 40
1.0
 40
1.0
 40
1.0
 10
33.04057835346731
 20
4.344171716090798
 30
0.0
 10
32.79747262931676
 20
4.324326327579342
 30
0.0
 10
32.36976304069185
 20
4.289411218171708
 30
0.0
 10
31.81668921332181
 20
4.254659231830118
 30
0.0
 10
31.39062683745362
 20
4.231949235595629
 30
0.0
 10
31.0056357171373
 20
4.214643714519262
 30
0.0
 10
30.57928560696172
 20
4.199168318261208
 30
0.0
 10
30.10951981554865
 20
4.187280135815165
 30
0.0
 10
29.54622538945824
 20
4.179408869903376
 30
0.0
 10
28.9528578804717
 20
4.179208915886392
 30
0.0
 10
28.3191384242561
 20
4.188648364789017
 30
0.0
 10
27.7232691044473
 20
4.205739235258292
 30
0.0
 10
27.10520431739684
 20
4.231826352969279
 30
0.0
 10
26.44651614534149
 20
4.269078286036752
 30
0.0
 10
25.78391730801792
 20
4.317011992730194
 30
0.0
 10
25.2385337136709
 20
4.364256146141173
 30
0.0
 10
24.8330924058132
 20
4.403421088598307
 30
0.0
 10
24.52109537004304
 20
4.43560011589269
 30
0.0
 10
24.14958133361904
 20
4.476274078305906
 30
0.0
 10
23.62494702456564
 20
4.538608034218221
 30
0.0
 10
22.8688514494533
 20
4.636918549493728
 30
0.0
 10
22.28120223234578
 20
4.726266856647904
 30
0.0
 10
21.94668360143578
 20
4.77712827620438
 30
0.0
  0
SPLINE
  5
20E
330
1F
100
AcDbEntity
  8
0
  6
Continuous
 62
     1
370
    15
100
AcDbSpline
210
0.0
220
0.0
230
1.0
 70
     8
 71
     3
 72
    17
 73
    13
 74
     0
 42
0.000000001
 43
0.00000001
 40
0.0
 40
0.0
 40
0.0
 40
0.0
 40
0.1486350617453321
 40
0.2642807020114233
 40
0.346473364452533
 40
0.4218904174520295
 40
0.5146141636197598
 40
0.6224319881867078
 40
0.721025045831291
 40
0.8638317373068692
 40
0.9869409115846434
 40
0.9999999999999999
 40
0.9999999999999999
 40
0.9999999999999999
 40
0.9999999999999999
 10
21.94668360143578
 20
-4.774978418756589
 30
0.0
 10
22.17922446833802
 20
-4.739237704426358
 30
0.0
 10
22.59269396086313
 20
-4.675688895937498
 30
0.0
 10
23.13577996929502
 20
-4.600577315698686
 30
0.0
 10
23.56813057504769
 20
-4.544408107501773
 30
0.0
 10
23.96576050207494
 20
-4.495642297654321
 30
0.0
 10
24.40132757658358
 20
-4.445852351458683
 30
0.0
 10
24.87230832568093
 20
-4.39690796882121
 30
0.0
 10
25.42167989130246
 20
-4.3453500548246
 30
0.0
 10
25.99582033962753
 20
-4.299367792433692
 30
0.0
 10
26.4324436661982
 20
-4.267986601818535
 30
0.0
 10
26.64632770237847
 20
-4.256560794555078
 30
0.0
 10
26.66684004852925
 20
-4.255465013318549
 30
0.0
  0
SPLINE
  5
20F
330
1F
100
AcDbEntity
  8
0
  6
Continuous
 62
     1
370
    15
100
AcDbSpline
210
0.0
220
0.0
230
1.0
 70
     8
 71
     3
 72
    19
 73
    15
 74
     0
 42
0.000000001
 43
0.00000001
 40
0.0
 40
0.0
 40
0.0
 40
0.0
 40
0.1254606069647362
 40
0.2125439223489546
 40
0.268122369836177
 40
0.3220887822108799
 40
0.4116554735981012
 40
0.5125480729579553
 40
0.5951591263167627
 40
0.6807214762149745
 40
0.7562877176265003
 40
0.8192389447686425
 40
0.8973036846272708
 40
1.0
 40
1.0
 40
1.0
 40
1.0
 10
9.999999999999943
 20
-5.066455143192705
 30
0.0
 10
10.28726220188628
 20
-5.050450908105518
 30
0.0
 10
10.7739156352518
 20
-5.023337992092117
 30
0.0
 10
11.38697320331892
 20
-4.998791180739715
 30
0.0
 10
11.83846928428346
 20
-4.983978164155964
 30
0.0
 10
12.27828936405723
 20
-4.972255382825978
 30
0.0
 10
12.80929292895115
 20
-4.959912064306302
 30
0.0
 10
13.45400844612283
 20
-4.95690443837244
 30
0.0
 10
14.07733080049434
 20
-4.958784746791288
 30
0.0
 10
14.6360452366892
 20
-4.965788576432296
 30
0.0
 10
15.15010780289668
 20
-4.977025967755345
 30
0.0
 10
15.65204911881193
 20
-4.991833985212821
 30
0.0
 10
16.20948168980391
 20
-5.012579485690921
 30
0.0
 10
16.61802715579938
 20
-5.033186036914067
 30
0.0
 10
16.85013530523611
 20
-5.044893298085171
 30
0.0
  0
SPLINE
  5
210
330
1F
100
AcDbEntity
  8
외형선
  6
Continuous
370
    15
100
AcDbSpline
210
0.0
220
0.0
230
1.0
 70
     8
 71
     3
 72
     8
 73
     4
 74
     0
 42
0.000000001
 43
0.00000001
 40
0.0
 40
0.0
 40
0.0
 40
0.0
 40
1.0
 40
1.0
 40
1.0
 40
1.0
 10
10.0
 20
5.539161516029118
 30
0.0
 10
9.326798482932077
 20
5.729911745354421
 30
0.0
 10
8.64432116478423
 20
5.889946002706793
 30
0.0
 10
7.96983425473195
 20
6.015153348807118
 30
0.0
  0
LINE
  5
211
330
1F
100
AcDbEntity
  8
외형선
  6
Continuous
370
    15
100
AcDbLine
 10
10.0
 20
5.539161516029118
 30
0.0
 11
10.0
 21
4.465727977750547
 31
0.0
  0
SPLINE
  5
212
330
1F
100
AcDbEntity
  8
외형선
  6
Continuous
370
    15
100
AcDbSpline
210
0.0
220
0.0
230
1.0
 70
     8
 71
     3
 72
     8
 73
     4
 74
     0
 42
0.000000001
 43
0.00000001
 40
0.0
 40
0.0
 40
0.0
 40
0.0
 40
1.0
 40
1.0
 40
1.0
 40
1.0
 10
7.969918989554742
 20
5.218361301949514
 30
0.0
 10
8.64437832255112
 20
4.99598538834109
 30
0.0
 10
9.326826674031565
 20
4.742956545352975
 30
0.0
 10
9.999999999999773
 20
4.465727977750369
 30
0.0
  0
LINE
  5
213
330
1F
100
AcDbEntity
  8
외형선
  6
Continuous
370
    15
100
AcDbLine
 10
7.969918989554742
 20
-6.348925071276106
 30
0.0
 11
7.969918989554742
 21
5.218360036371294
 31
0.0
  0
SPLINE
  5
214
330
1F
100
AcDbEntity
  8
외형선
  6
Continuous
370
    15
100
AcDbSpline
210
0.0
220
0.0
230
1.0
 70
     8
 71
     3
 72
     8
 73
     4
 74
     0
 42
0.000000001
 43
0.00000001
 40
0.0
 40
0.0
 40
0.0
 40
0.0
 40
1.0
 40
1.0
 40
1.0
 40
1.0
 10
10.0
 20
-5.537011658581335
 30
0.0
 10
9.326798482932077
 20
-5.727761887906638
 30
0.0
 10
8.64432116478423
 20
-5.88779614525901
 30
0.0
 10
7.96983425473195
 20
-6.013003491359328
 30
0.0
  0
LINE
  5
215
330
1F
100
AcDbEntity
  8
외형선
  6
Continuous
370
    15
100
AcDbLine
 10
7.969918989554742
 20
6.015240685355458
 30
0.0
 11
7.969918989554742
 21
6.351074928723889
 31
0.0
  0
LINE
  5
216
330
1F
100
AcDbEntity
  8
외형선
  6
Continuous
370
    15
100
AcDbLine
 10
-65.19999999999999
 20
6.351074928723882
 30
0.0
 11
-65.19999999999999
 21
-6.348925071276113
 31
0.0
  0
LINE
  5
217
330
1F
100
AcDbEntity
  8
외형선
  6
Continuous
370
    15
100
AcDbLine
 10
-66.19999999999999
 20
5.351074928723882
 30
0.0
 11
-66.19999999999999
 21
-5.348925071276106
 31
0.0
  0
SPLINE
  5
218
330
1F
100
AcDbEntity
  8
외형선
  6
Continuous
370
    15
100
AcDbSpline
210
0.0
220
0.0
230
1.0
 70
    24
 71
     3
 72
    14
 73
    10
 74
     0
 42
0.000000001
 43
0.00000001
 40
0.0
 40
0.0
 40
0.0
 40
0.0
 40
0.2499999999999999
 40
0.2499999999999999
 40
0.4999999999999999
 40
0.4999999999999999
 40
0.7499999999999999
 40
0.7499999999999999
 40
1.0
 40
1.0
 40
1.0
 40
1.0
 10
10.0
 20
2.993763759578961
 30
0.0
 10
10.0
 20
2.506751394206809
 30
0.0
 10
10.0
 20
1.969595840225814
 30
0.0
 10
10.0
 20
0.8341502503824358
 30
0.0
 10
10.0
 20
0.2362933192245364
 30
0.0
 10
10.0
 20
-0.9631666293223731
 30
0.0
 10
10.0
 20
-1.564130524303515
 30
0.0
 10
10.0
 20
-2.711414650193525
 30
0.0
 10
10.0
 20
-3.257285148535253
 30
0.0
 10
10.0
 20
-3.755056569993577
 30
0.0
  0
SPLINE
  5
219
330
1F
100
AcDbEntity
  8
외형선
  6
Continuous
370
    15
100
AcDbSpline
210
0.0
220
0.0
230
1.0
 70
     8
 71
     3
 72
     8
 73
     4
 74
     0
 42
0.000000001
 43
0.00000001
 40
0.0
 40
0.0
 40
0.0
 40
0.0
 40
1.0
 40
1.0
 40
1.0
 40
1.0
 10
10.0
 20
-3.755056569993592
 30
0.0
 10
9.326816374974157
 20
-3.545067737911161
 30
0.0
 10
8.64435744110159
 20
-3.312706465068466
 30
0.0
 10
7.969888033362906
 20
-3.063814685414378
 30
0.0
  0
SPLINE
  5
21A
330
1F
100
AcDbEntity
  8
외형선
  6
Continuous
370
    15
100
AcDbSpline
210
0.0
220
0.0
230
1.0
 70
     8
 71
     3
 72
     8
 73
     4
 74
     0
 42
0.000000001
 43
0.00000001
 40
0.0
 40
0.0
 40
0.0
 40
0.0
 40
1.0
 40
1.0
 40
1.0
 40
1.0
 10
10.0
 20
2.993763759578954
 30
0.0
 10
9.32681987851231
 20
3.195548940806908
 30
0.0
 10
8.644364544563246
 20
3.381184986869656
 30
0.0
 10
7.969898564053267
 20
3.545940414099078
 30
0.0
  0
SPLINE
  5
21B
330
1F
100
AcDbEntity
  8
외형선
  6
Continuous
370
    15
100
AcDbSpline
210
0.0
220
0.0
230
1.0
 70
    24
 71
     3
 72
    10
 73
     6
 74
     0
 42
0.000000001
 43
0.00000001
 40
0.0
 40
0.0
 40
0.0
 40
0.0
 40
0.4999999999999994
 40
0.4999999999999994
 40
1.0
 40
1.0
 40
1.0
 40
1.0
 10
10.0
 20
4.465727977750277
 30
0.0
 10
10.0
 20
4.311782652413655
 30
0.0
 10
10.0
 20
4.095709800091583
 30
0.0
 10
10.0
 20
3.584078765007661
 30
0.0
 10
10.0
 20
3.290196531359747
 30
0.0
 10
10.0
 20
2.993763759578954
 30
0.0
  0
SPLINE
  5
21C
330
1F
100
AcDbEntity
  8
외형선
  6
Continuous
370
    15
100
AcDbSpline
210
0.0
220
0.0
230
1.0
 70
    24
 71
     3
 72
    12
 73
     8
 74
     0
 42
0.000000001
 43
0.00000001
 40
0.0
 40
0.0
 40
0.0
 40
0.0
 40
0.1812512022763804
 40
0.3648656382593811
 40
0.6314927177749575
 40
0.9058520006590876
 40
1.0
 40
1.0
 40
1.0
 40
1.0
 10
10.0
 20
-3.755056569993585
 30
0.0
 10
10.0
 20
-3.901389085963004
 30
0.0
 10
10.0
 20
-4.195962066261743
 30
0.0
 10
10.0
 20
-4.594262969717626
 30
0.0
 10
10.0
 20
-4.912027839607298
 30
0.0
 10
10.0
 20
-5.070977017707939
 30
0.0
 10
10.0
 20
-5.052467505460903
 30
0.0
 10
10.0
 20
-5.047738606926487
 30
0.0
  0
SPLINE
  5
21D
330
1F
100
AcDbEntity
  8
외형선
  6
Continuous
370
    15
100
AcDbSpline
210
0.0
220
0.0
230
1.0
 70
    24
 71
     3
 72
    10
 73
     6
 74
     0
 42
0.000000001
 43
0.00000001
 40
0.0
 40
0.0
 40
0.0
 40
0.0
 40
0.0958144675470574
 40
0.7681201013742384
 40
1.0
 40
1.0
 40
1.0
 40
1.0
 10
10.0
 20
-5.11824564423452
 30
0.0
 10
10.0
 20
-5.132780938555612
 30
0.0
 10
10.0
 20
-5.249306678699604
 30
0.0
 10
10.0
 20
-5.386762609729068
 30
0.0
 10
10.0
 20
-5.506344644801295
 30
0.0
 10
10.0
 20
-5.53701165856647
 30
0.0
  0
SPLINE
  5
21E
330
1F
100
AcDbEntity
  8
0
  6
Continuous
 62
     1
370
    15
100
AcDbSpline
210
0.0
220
0.0
230
1.0
 70
     8
 71
     3
 72
    12
 73
     8
 74
     0
 42
0.000000001
 43
0.00000001
 40
0.0
 40
0.0
 40
0.0
 40
0.0
 40
0.0228752424947215
 40
0.2605117307257366
 40
0.4981478478606966
 40
0.7490792477363496
 40
1.0
 40
1.0
 40
1.0
 40
1.0
 10
19.61907455583736
 20
-0.6000292724671752
 30
0.0
 10
19.54572857371045
 20
-0.5711926877063433
 30
0.0
 10
18.71043737406183
 20
-0.2427909841617151
 30
0.0
 10
17.1132005295554
 20
0.4144183642208006
 30
0.0
 10
14.78474731687561
 20
1.337312666691446
 30
0.0
 10
12.41365809872076
 20
2.230805094524158
 30
0.0
 10
10.80454131956117
 20
2.739447801788927
 30
0.0
 10
10.0
 20
2.993763759578961
 30
0.0
  0
SPLINE
  5
21F
330
1F
100
AcDbEntity
  8
외형선
  6
Continuous
370
    15
100
AcDbSpline
210
0.0
220
0.0
230
1.0
 70
    24
 71
     3
 72
    10
 73
     6
 74
     0
 42
0.000000001
 43
0.00000001
 40
0.0
 40
0.0
 40
0.0
 40
0.0
 40
0.5000000000000004
 40
0.5000000000000004
 40
1.0
 40
1.0
 40
1.0
 40
1.0
 10
10.0
 20
4.465727977750284
 30
0.0
 10
10.0
 20
4.311782652413655
 30
0.0
 10
10.0
 20
4.095709800091583
 30
0.0
 10
10.0
 20
3.584078765007661
 30
0.0
 10
10.0
 20
3.290196531359747
 30
0.0
 10
10.0
 20
2.993763759578954
 30
0.0
  0
SPLINE
  5
220
330
1F
100
AcDbEntity
  8
0
  6
Continuous
 62
     1
370
    15
100
AcDbSpline
210
0.0
220
0.0
230
1.0
 70
     8
 71
     3
 72
    15
 73
    11
 74
     0
 42
0.000000001
 43
0.00000001
 40
0.0006590577105063
 40
0.0006590577105063
 40
0.0006590577105063
 40
0.0006590577105063
 40
0.138602496385077
 40
0.2772047598293557
 40
0.4158067939177512
 40
0.5544086022380524
 40
0.6930101883808809
 40
0.8316115559396431
 40
0.9702127085104895
 40
0.9999999999999999
 40
0.9999999999999999
 40
0.9999999999999999
 40
0.9999999999999999
 10
35.38913063996532
 20
-5.006616200388383
 30
0.0
 10
34.63079699912717
 20
-4.847352665377727
 30
0.0
 10
33.11050787915451
 20
-4.5276672680905
 30
0.0
 10
30.82826526231372
 20
-3.796060893965759
 30
0.0
 10
28.54240382775231
 20
-2.915227353404795
 30
0.0
 10
26.25654668306152
 20
-1.905216685779038
 30
0.0
 10
23.97069373127056
 20
-0.8124841826071858
 30
0.0
 10
21.68484496374253
 20
0.3088694543727826
 30
0.0
 10
19.9971940704404
 20
1.145362778868623
 30
0.0
 10
19.07149291653201
 20
1.566023179540629
 30
0.0
 10
18.90773981424809
 20
1.640436444909483
 30
0.0
  0
SPLINE
  5
221
330
1F
100
AcDbEntity
  8
0
  6
Continuous
 62
     1
370
    15
100
AcDbSpline
210
0.0
220
0.0
230
1.0
 70
     8
 71
     3
 72
    16
 73
    12
 74
     0
 42
0.000000001
 43
0.00000001
 40
0.0
 40
0.0
 40
0.0
 40
0.0
 40
0.1092336760832187
 40
0.2185082491671264
 40
0.3278625072933544
 40
0.4592426745633941
 40
0.5906226281857988
 40
0.722002371616776
 40
0.8533819083151803
 40
0.98476124174247
 40
1.0
 40
1.0
 40
1.0
 40
1.0
 10
34.24627083110448
 20
0.5329812086251806
 30
0.0
 10
33.61286698872829
 20
0.8225029121905436
 30
0.0
 10
32.34582215808558
 20
1.401654716014804
 30
0.0
 10
30.44459798269156
 20
2.224533531967793
 30
0.0
 10
28.41466998903593
 20
3.032690415156395
 30
0.0
 10
26.25656599075774
 20
3.781669187819652
 30
0.0
 10
23.97071576709504
 20
4.410523310788093
 30
0.0
 10
21.68487190828188
 20
4.855475596998374
 30
0.0
 10
19.39903156806611
 20
5.069788220560284
 30
0.0
 10
17.78676105635924
 20
5.124229094281631
 30
0.0
 10
16.93643737684397
 20
5.044215103593764
 30
0.0
 10
16.8480589452065
 20
5.035898845707031
 30
0.0
  0
SPLINE
  5
222
330
1F
100
AcDbEntity
  8
0
  6
Continuous
 62
     1
370
    15
100
AcDbSpline
210
0.0
220
0.0
230
1.0
 70
    24
 71
     3
 72
     8
 73
     4
 74
     0
 42
0.000000001
 43
0.00000001
 40
0.0
 40
0.0
 40
0.0
 40
0.0
 40
1.0
 40
1.0
 40
1.0
 40
1.0
 10
34.24627083110448
 20
0.5329812086251806
 30
0.0
 10
33.99226809442524
 20
0.3198476059595947
 30
0.0
 10
33.73857374671343
 20
0.1069727723628304
 30
0.0
 10
33.48518188485775
 20
-0.1056482454635841
 30
0.0
  0
SPLINE
  5
223
330
1F
100
AcDbEntity
  8
0
  6
Continuous
 62
     1
370
    15
100
AcDbSpline
210
0.0
220
0.0
230
1.0
 70
     8
 71
     3
 72
     8
 73
     4
 74
     0
 42
0.000000001
 43
0.00000001
 40
0.0
 40
0.0
 40
0.0
 40
0.0
 40
1.0
 40
1.0
 40
1.0
 40
1.0
 10
35.40000000000003
 20
-1.69591777856435
 30
0.0
 10
34.7549523265634
 20
-1.188802411791912
 30
0.0
 10
34.11656081378368
 20
-0.6591154542675923
 30
0.0
 10
33.48518188486474
 20
-0.105648245457715
 30
0.0
  0
SPLINE
  5
224
330
1F
100
AcDbEntity
  8
0
  6
Continuous
 62
     1
370
    15
100
AcDbSpline
210
0.0
220
0.0
230
1.0
 70
    24
 71
     3
 72
    10
 73
     6
 74
     0
 42
0.000000001
 43
0.00000001
 40
0.0767676937047393
 40
0.0767676937047393
 40
0.0767676937047393
 40
0.0767676937047393
 40
0.5
 40
0.5
 40
1.0
 40
1.0
 40
1.0
 40
1.0
 10
35.40000000000009
 20
-4.824924810138334
 30
0.0
 10
35.40000000000009
 20
-4.473975936658153
 30
0.0
 10
35.40000000000003
 20
-4.052969860744387
 30
0.0
 10
35.40000000000003
 20
-3.011381321882922
 30
0.0
 10
35.40000000000003
 20
-2.369427334651924
 30
0.0
 10
35.40000000000003
 20
-1.695917778564549
 30
0.0
  0
LINE
  5
225
330
1F
100
AcDbEntity
  8
0
  6
Continuous
 62
     1
370
    15
100
AcDbLine
 10
34.34858107100638
 20
0.618829693192545
 30
0.0
 11
35.40000000000003
 21
0.0010749287238951
 31
0.0
  0
LINE
  5
226
330
1F
100
AcDbEntity
  8
0
  6
Continuous
 62
     1
370
    15
100
AcDbLine
 10
35.40000000000003
 20
0.0010749287238951
 30
0.0
 11
35.40000000000003
 21
-1.69591777856435
 31
0.0
  0
SPLINE
  5
227
330
1F
100
AcDbEntity
  8
0
  6
Continuous
 62
     1
370
    15
100
AcDbSpline
210
0.0
220
0.0
230
1.0
 70
     8
 71
     3
 72
     9
 73
     5
 74
     0
 42
0.000000001
 43
0.00000001
 40
0.0
 40
0.0
 40
0.0
 40
0.0
 40
0.9684108081136287
 40
1.0
 40
1.0
 40
1.0
 40
1.0
 10
35.40000000000003
 20
4.446074928723895
 30
0.0
 10
34.63804499476748
 20
4.444403383201184
 30
0.0
 10
33.85123530734074
 20
4.442677312499882
 30
0.0
 10
33.06442583275941
 20
4.344306138829424
 30
0.0
 10
33.03957115728883
 20
4.341198672948259
 30
0.0
  0
SPLINE
  5
228
330
1F
100
AcDbEntity
  8
0
  6
Continuous
 62
     1
370
    15
100
AcDbSpline
210
0.0
220
0.0
230
1.0
 70
    24
 71
     3
 72
    14
 73
    10
 74
     0
 42
0.000000001
 43
0.00000001
 40
0.0
 40
0.0
 40
0.0
 40
0.0
 40
0.25
 40
0.25
 40
0.5
 40
0.5
 40
0.75
 40
0.75
 40
1.0
 40
1.0
 40
1.0
 40
1.0
 10
35.40000000000003
 20
1.501074928723895
 30
0.0
 10
35.40000000000003
 20
1.872047473115018
 30
0.0
 10
35.40000000000003
 20
2.223826580286072
 30
0.0
 10
35.40000000000003
 20
2.866942738250764
 30
0.0
 10
35.40000000000003
 20
3.158151639872486
 30
0.0
 10
35.40000000000003
 20
3.664018533633765
 30
0.0
 10
35.40000000000003
 20
3.878622644865409
 30
0.0
 10
35.40000000000003
 20
4.224321507601424
 30
0.0
 10
35.40000000000003
 20
4.355450043679141
 30
0.0
 10
35.40000000000003
 20
4.446074928723895
 30
0.0
  0
SPLINE
  5
229
330
1F
100
AcDbEntity
  8
0
  6
Continuous
 62
     1
370
    15
100
AcDbSpline
210
0.0
220
0.0
230
1.0
 70
    24
 71
     3
 72
     8
 73
     4
 74
     0
 42
0.000000001
 43
0.00000001
 40
0.0
 40
0.0
 40
0.0
 40
0.0
 40
1.0
 40
1.0
 40
1.0
 40
1.0
 10
35.40000000000003
 20
1.501074928723895
 30
0.0
 10
35.02152726809084
 20
1.183498598968249
 30
0.0
 10
34.63681278668895
 20
0.8606848195153631
 30
0.0
 10
34.24627083110448
 20
0.5329812086251877
 30
0.0
  0
SPLINE
  5
22A
330
1F
100
AcDbEntity
  8
0
  6
Continuous
 62
     1
370
    15
100
AcDbSpline
210
0.0
220
0.0
230
1.0
 70
     8
 71
     3
 72
    13
 73
     9
 74
     0
 42
0.000000001
 43
0.00000001
 40
0.0
 40
0.0
 40
0.0
 40
0.0
 40
0.0223547214426021
 40
0.2136061611527481
 40
0.4048573049576543
 40
0.5961081578999539
 40
0.7980582516708372
 40
1.0
 40
1.0
 40
1.0
 40
1.0
 10
21.95205473591636
 20
-4.763787720885873
 30
0.0
 10
21.8629933872113
 20
-4.781194910015515
 30
0.0
 10
21.01198511798174
 20
-4.947525895440194
 30
0.0
 10
19.39903222702594
 20
-5.0684024900117
 30
0.0
 10
17.11319308042187
 20
-5.097993697460112
 30
0.0
 10
14.78474457878832
 20
-4.880786198883271
 30
0.0
 10
12.41365214218604
 20
-4.45355787866756
 30
0.0
 10
10.80453963126439
 20
-3.987887132234114
 30
0.0
 10
10.0
 20
-3.755056569993585
 30
0.0
  0
SPLINE
  5
22B
330
1F
100
AcDbEntity
  8
외형선
  6
Continuous
370
    15
100
AcDbSpline
210
0.0
220
0.0
230
1.0
 70
    24
 71
     3
 72
    14
 73
    10
 74
     0
 42
0.000000001
 43
0.00000001
 40
0.0
 40
0.0
 40
0.0
 40
0.0
 40
0.25
 40
0.25
 40
0.5
 40
0.5
 40
0.75
 40
0.75
 40
1.0
 40
1.0
 40
1.0
 40
1.0
 10
10.0
 20
2.993763759578961
 30
0.0
 10
10.0
 20
2.506751394206809
 30
0.0
 10
10.0
 20
1.969595840225807
 30
0.0
 10
10.0
 20
0.8341502503824358
 30
0.0
 10
10.0
 20
0.2362933192245293
 30
0.0
 10
10.0
 20
-0.9631666293223802
 30
0.0
 10
10.0
 20
-1.564130524303522
 30
0.0
 10
10.0
 20
-2.711414650193525
 30
0.0
 10
10.0
 20
-3.25728514853526
 30
0.0
 10
10.0
 20
-3.755056569993585
 30
0.0
  0
SPLINE
  5
22C
330
1F
100
AcDbEntity
  8
외형선
  6
Continuous
370
    15
100
AcDbSpline
210
0.0
220
0.0
230
1.0
 70
    24
 71
     3
 72
    12
 73
     8
 74
     0
 42
0.000000001
 43
0.00000001
 40
0.0
 40
0.0
 40
0.0
 40
0.0
 40
0.1814507489587261
 40
0.3652673334023762
 40
0.632187953310913
 40
0.9068492892792851
 40
1.0
 40
1.0
 40
1.0
 40
1.0
 10
10.0
 20
-3.755056569993585
 30
0.0
 10
10.0
 20
-3.901388443475263
 30
0.0
 10
10.0
 20
-4.195960130421476
 30
0.0
 10
10.0
 20
-4.594272313812326
 30
0.0
 10
10.0
 20
-4.91197405477206
 30
0.0
 10
10.0
 20
-5.070849032899339
 30
0.0
 10
10.0
 20
-5.052473589485572
 30
0.0
 10
10.0
 20
-5.0478198930414
 30
0.0
  0
LINE
  5
22D
330
1F
100
AcDbEntity
  8
0
  6
Continuous
 62
     1
370
    15
100
AcDbLine
 10
35.40000000000003
 20
0.0010749287238951
 30
0.0
 11
35.40000000000003
 21
1.501074928723895
 31
0.0
  0
LINE
  5
22E
330
1F
100
AcDbEntity
  8
0
  6
Continuous
 62
     1
370
    15
100
AcDbLine
 10
11.64836116834448
 20
-4.990585982878393
 30
0.0
 11
9.999999999995794
 21
-5.537011658582522
 31
0.0
  0
SPLINE
  5
22F
330
1F
100
AcDbEntity
  8
외형선
  6
Continuous
370
    15
100
AcDbSpline
210
0.0
220
0.0
230
1.0
 70
    24
 71
     3
 72
    11
 73
     7
 74
     0
 42
0.000000001
 43
0.00000001
 40
0.0
 40
0.0
 40
0.0
 40
0.0
 40
0.0973375108131627
 40
0.4327409413939685
 40
0.7685357770094844
 40
1.0
 40
1.0
 40
1.0
 40
1.0
 10
10.0
 20
-5.11824564423452
 30
0.0
 10
10.0
 20
-5.132776589236322
 30
0.0
 10
10.0
 20
-5.197377941447719
 30
0.0
 10
10.0
 20
-5.306589254781557
 30
0.0
 10
10.0
 20
-5.431518989506799
 30
0.0
 10
10.0
 20
-5.506440647006272
 30
0.0
 10
10.0
 20
-5.537011658566485
 30
0.0
  0
LINE
  5
230
330
1F
100
AcDbEntity
  8
중심선
 48
0.8
100
AcDbLine
 10
-69.20000000000002
 20
0.001074928723888
 30
0.0
 11
38.40000000000003
 21
0.0010749287238951
 31
0.0
  0
CIRCLE
  5
231
330
1F
100
AcDbEntity
  8
해칭선
100
AcDbCircle
 10
0.0
 20
0.0
 30
0.0
 40
3.000000000000001
  0
DIMENSION
  5
232
330
1F
100
AcDbEntity
  8
치수문자_일반주서
100
AcDbDimension
  2
*D13
 10
-78.69999999999997
 20
-6.34892507127615
 30
0.0
 11
-78.7
 21
0.0010749287238951
 31
0.0
 70
   160
  1
%%c<>
 71
     2
 42
12.69999999999999
 52
-270.0
  3
SLDDIMSTYLE0
100
AcDbAlignedDimension
 13
-65.19999999999999
 23
6.351074928723889
 33
0.0
 14
-65.19999999999999
 24
-6.348925071276099
 34
0.0
 50
90.0000000000002
100
AcDbRotatedDimension
1001
ACAD
1000
DSTYLE
1002
{
1070
   171
1070
     6
1070
   273
1070
     7
1002
}
  0
DIMENSION
  5
233
330
1F
100
AcDbEntity
  8
치수문자_일반주서
100
AcDbDimension
  2
*D14
 10
48.05000000000013
 20
-6.348925071276049
 30
0.0
 11
48.05000000000001
 21
26.94970800543218
 31
0.0
 70
   160
  1
%%c<>
 71
     2
 42
12.7
 52
-270.0
  3
SLDDIMSTYLE0
100
AcDbAlignedDimension
 13
35.40000000000003
 23
6.351074928723897
 33
0.0
 14
35.40000000000003
 24
-6.348925071276099
 34
0.0
 50
90.0000000000002
100
AcDbRotatedDimension
1001
ACAD
1000
DSTYLE
1002
{
1070
   171
1070
     6
1070
   273
1070
     7
1002
}
  0
DIMENSION
  5
234
330
1F
100
AcDbEntity
  8
치수문자_일반주서
100
AcDbDimension
  2
*D15
 10
10.0
 20
15.41880048907219
 30
0.0
 11
22.75340701373267
 21
15.41880048907219
 31
0.0
 70
   160
  1
<>
 71
     2
 42
25.40000000000003
  3
SLDDIMSTYLE0
100
AcDbAlignedDimension
 13
35.40000000000003
 23
6.351074928723897
 33
0.0
 14
10.0
 24
5.539161516029118
 34
0.0
100
AcDbRotatedDimension
1001
ACAD
1000
DSTYLE
1002
{
1070
   171
1070
     6
1070
   273
1070
     7
1002
}
  0
DIMENSION
  5
235
330
1F
100
AcDbEntity
  8
치수문자_일반주서
100
AcDbDimension
  2
*D16
 10
-66.19999999999999
 20
27.41880048907215
 30
0.0
 11
-15.85718528386309
 21
27.41880048907215
 31
0.0
 70
   160
  1
<>
 71
     2
 42
101.6
  3
SLDDIMSTYLE0
100
AcDbAlignedDimension
 13
35.40000000000003
 23
6.351074928723897
 33
0.0
 14
-66.19999999999999
 24
5.351074928723882
 34
0.0
 50
0.000000000000004
100
AcDbRotatedDimension
1001
ACAD
1000
DSTYLE
1002
{
1070
   171
1070
     6
1070
   273
1070
     7
1002
}
  0
INSERT
  5
236
330
1F
100
AcDbEntity
  8
해칭선
100
AcDbBlockReference
  2
SW_DOWELSYMBOL_0
 10
0.0
 20
0.0
 30
0.0
  0
SPLINE
  5
238
330
1F
100
AcDbEntity
  8
0
  6
Continuous
 62
     1
370
    15
100
AcDbSpline
210
0.0
220
0.0
230
1.0
 70
     8
 71
     3
 72
    36
 73
    32
 74
     0
 42
0.000000001
 43
0.00000001
 40
0.0
 40
0.0
 40
0.0
 40
0.0
 40
0.0625000000000001
 40
0.0625000000000001
 40
0.1250000000000002
 40
0.1250000000000002
 40
0.1875000000000003
 40
0.1875000000000003
 40
0.2500000000000004
 40
0.2500000000000004
 40
0.3125000000000006
 40
0.3125000000000006
 40
0.3437500000000007
 40
0.3437500000000007
 40
0.3750000000000008
 40
0.3750000000000008
 40
0.4375000000000008
 40
0.4375000000000008
 40
0.4687500000000007
 40
0.4687500000000007
 40
0.5000000000000006
 40
0.5000000000000006
 40
0.5312500000000004
 40
0.5312500000000004
 40
0.5625000000000003
 40
0.5625000000000003
 40
0.625
 40
0.625
 40
0.65625
 40
0.65625
 40
0.6596590356937257
 40
0.6596590356937257
 40
0.6596590356937257
 40
0.6596590356937257
 10
9.999999999999716
 20
4.465727977749694
 30
0.0
 10
10.52672504416302
 20
4.248810248123775
 30
0.0
 10
11.05796262565485
 20
4.015757266611942
 30
0.0
 10
12.11829303643543
 20
3.523660629276058
 30
0.0
 10
12.64363063229035
 20
3.265287345471776
 30
0.0
 10
13.7041140211266
 20
2.726103080852099
 30
0.0
 10
14.23484100343597
 20
2.445985906925756
 30
0.0
 10
15.28874679353692
 20
1.872119800047145
 30
0.0
 10
15.82121095990084
 20
1.576680216497593
 30
0.0
 10
16.88061608803338
 20
0.9779119424241998
 30
0.0
 10
17.40627602998131
 20
0.6748626121222969
 30
0.0
 10
18.20204433537253
 20
0.2169720008471998
 30
0.0
 10
18.46754366858289
 20
0.0639745448130355
 30
0.0
 10
18.9969554503927
 20
-0.2415591376957735
 30
0.0
 10
19.25987472276393
 20
-0.3939042077201194
 30
0.0
 10
20.05180097774195
 20
-0.8501264911549242
 30
0.0
 10
20.58445851055978
 20
-1.153266226408753
 30
0.0
 10
21.37808068859528
 20
-1.599380683133923
 30
0.0
 10
21.64078694418777
 20
-1.746484695383089
 30
0.0
 10
22.16917803608334
 20
-2.037963494313175
 30
0.0
 10
22.43444851950107
 20
-2.182256324981971
 30
0.0
 10
22.96507195190446
 20
-2.466807156585993
 30
0.0
 10
23.23042309971413
 20
-2.607064189485747
 30
0.0
 10
23.75913475685212
 20
-2.882462279240066
 30
0.0
 10
24.02178061545385
 20
-3.017488354544973
 30
0.0
 10
24.8149686966164
 20
-3.415261538968615
 30
0.0
 10
25.34765817508975
 20
-3.670096076602306
 30
0.0
 10
26.14011190912458
 20
-4.030898562449849
 30
0.0
 10
26.4028500055436
 20
-4.147567820001797
 30
0.0
 10
26.69628927467005
 20
-4.273161669347317
 30
0.0
 10
26.72516212630327
 20
-4.285472380078012
 30
0.0
 10
26.7540440271444
 20
-4.29773991921024
 30
0.0
  0
SPLINE
  5
239
330
1F
100
AcDbEntity
  8
0
  6
Continuous
 62
     1
370
    15
100
AcDbSpline
210
0.0
220
0.0
230
1.0
 70
    24
 71
     3
 72
     8
 73
     4
 74
     0
 42
0.000000001
 43
0.00000001
 40
0.0
 40
0.0
 40
0.0
 40
0.0
 40
0.2213111777059505
 40
0.2213111777059505
 40
0.2213111777059505
 40
0.2213111777059505
 10
35.40000000000003
 20
4.446074928723895
 30
0.0
 10
35.40000000000003
 20
4.565337234353594
 30
0.0
 10
35.40000000000003
 20
4.693156111039052
 30
0.0
 10
35.40000000000001
 20
4.82707466755547
 30
0.0
  0
SPLINE
  5
23D
330
1F
100
AcDbEntity
  8
0
  6
Continuous
 62
     1
370
    15
100
AcDbSpline
210
0.0
220
0.0
230
1.0
 70
     8
 71
     3
 72
    46
 73
    42
 74
     0
 42
0.000000001
 43
0.00000001
 40
0.0188156422577821
 40
0.0188156422577821
 40
0.0188156422577821
 40
0.0188156422577821
 40
0.0625000000000002
 40
0.0625000000000002
 40
0.1250000000000003
 40
0.1250000000000003
 40
0.1875000000000005
 40
0.1875000000000005
 40
0.2500000000000007
 40
0.2500000000000007
 40
0.3125000000000008
 40
0.3125000000000008
 40
0.3437500000000009
 40
0.3437500000000009
 40
0.375000000000001
 40
0.375000000000001
 40
0.4375000000000008
 40
0.4375000000000008
 40
0.4687500000000007
 40
0.4687500000000007
 40
0.5000000000000007
 40
0.5000000000000007
 40
0.5312500000000007
 40
0.5312500000000007
 40
0.5625000000000006
 40
0.5625000000000006
 40
0.6250000000000007
 40
0.6250000000000007
 40
0.6562500000000007
 40
0.6562500000000007
 40
0.6875000000000006
 40
0.6875000000000006
 40
0.7500000000000006
 40
0.7500000000000006
 40
0.8125000000000004
 40
0.8125000000000004
 40
0.8750000000000004
 40
0.8750000000000004
 40
0.9375000000000002
 40
0.9375000000000002
 40
1.0
 40
1.0
 40
1.0
 40
1.0
 10
34.92329043640481
 20
-5.932064963889015
 30
0.0
 10
34.55345173693965
 20
-5.855959968273673
 30
0.0
 10
34.18189960208213
 20
-5.769687362765669
 30
0.0
 10
33.28145434411067
 20
-5.536665804651101
 30
0.0
 10
32.75605296790235
 20
-5.380225317830366
 30
0.0
 10
31.69531744171127
 20
-5.030123744025424
 30
0.0
 10
31.16549580483479
 20
-4.836985893824767
 30
0.0
 10
30.11076289984686
 20
-4.419200797462885
 30
0.0
 10
29.57820292894496
 20
-4.193505242373334
 30
0.0
 10
28.51925150982458
 20
-3.715408169816946
 30
0.0
 10
27.9933167746737
 20
-3.463174563360674
 30
0.0
 10
27.1974538704269
 20
-3.066998061273765
 30
0.0
 10
26.93200362892838
 20
-2.932126010850489
 30
0.0
 10
26.40285000554223
 20
-2.657822881723611
 30
0.0
 10
26.14011190912322
 20
-2.518567490768248
 30
0.0
 10
25.34765817508816
 20
-2.093873245029258
 30
0.0
 10
24.81496869661476
 20
-1.801674269220293
 30
0.0
 10
24.02178061545209
 20
-1.356578821565243
 30
0.0
 10
23.75913475685036
 20
-1.207237329924382
 30
0.0
 10
23.23042309971225
 20
-0.906074772401837
 30
0.0
 10
22.96507195190253
 20
-0.7543858193921906
 30
0.0
 10
22.43444851949909
 20
-0.44997171396993
 30
0.0
 10
22.16917803608129
 20
-0.2972475954441762
 30
0.0
 10
21.64078694418566
 20
0.0080399617720346
 30
0.0
 10
21.37808068859312
 20
0.1605233985482215
 30
0.0
 10
20.58445851055751
 20
0.6182210058408657
 30
0.0
 10
20.05180097773962
 20
0.9229445630842079
 30
0.0
 10
19.25987472276142
 20
1.372317809847054
 30
0.0
 10
18.99695545039015
 20
1.520853064228525
 30
0.0
 10
18.46754366858028
 20
1.815697558158476
 30
0.0
 10
18.20204433536986
 20
1.961817365358989
 30
0.0
 10
17.40627602997853
 20
2.394547013677183
 30
0.0
 10
16.88061608803054
 20
2.674845940057615
 30
0.0
 10
15.82121095989783
 20
3.21639758908637
 30
0.0
 10
15.28874679353379
 20
3.477352938125115
 30
0.0
 10
14.23484100343273
 20
3.971629076477889
 30
0.0
 10
13.70411402112325
 20
4.206416932970598
 30
0.0
 10
12.64363063228689
 20
4.644991932585647
 30
0.0
 10
12.11829303643185
 20
4.8482551900508
 30
0.0
 10
11.0579626256511
 20
5.220994921297397
 30
0.0
 10
10.52672504415921
 20
5.389915086219702
 30
0.0
 10
9.999999999995794
 20
5.539161516030312
 30
0.0
  0
SPLINE
  5
280
330
1F
100
AcDbEntity
  8
0
  6
Continuous
 62
     1
370
    15
100
AcDbSpline
210
0.0
220
0.0
230
1.0
 70
     8
 71
     3
 72
    11
 73
     7
 74
     5
 42
0.000000001
 43
0.0000000001
 44
0.0
 40
0.0
 40
0.0
 40
0.0
 40
0.0
 40
1.490309289795714
 40
3.19032672012798
 40
5.48494433775643
 40
7.547387263871025
 40
7.547387263871025
 40
7.547387263871025
 40
7.547387263871025
 10
26.6890119413564
 20
4.25706723768473
 30
0.0
 10
27.12534216334239
 20
4.496055986484127
 30
0.0
 10
28.05940060042836
 20
5.007662668617325
 30
0.0
 10
29.78536490286403
 20
5.625042469305299
 30
0.0
 10
31.74207127428329
 20
6.151351114517633
 30
0.0
 10
33.19041641462582
 20
6.286908133002004
 30
0.0
 10
33.87600000000003
 20
6.351074928723897
 30
0.0
 11
26.6890119413564
 21
4.25706723768473
 31
0.0
 11
28.01324517478031
 21
4.940754390370122
 31
0.0
 11
29.60431691225585
 21
5.539544829205006
 31
0.0
 11
31.82839568507114
 21
6.104118671535041
 31
0.0
 11
33.87600000000003
 21
6.351074928723897
 31
0.0
  0
ARC
  5
281
330
1F
100
AcDbEntity
  8
0
  6
Continuous
 62
     1
370
    15
100
AcDbCircle
 10
33.87600000000003
 20
4.827074928723896
 30
0.0
 40
1.524
100
AcDbArc
 50
359.9999901812016
 51
90.0
  0
ARC
  5
282
102
{ACAD_REACTORS
102
}
330
1F
100
AcDbEntity
  8
0
  6
Continuous
 62
     1
370
    15
100
AcDbCircle
 10
33.87600000000003
 20
-4.824925071276105
 30
0.0
 40
1.524
100
AcDbArc
 50
270.0
 51
0.0000098187984459
  0
SPLINE
  5
283
330
1F
100
AcDbEntity
  8
0
  6
Continuous
 62
     1
370
    15
100
AcDbSpline
210
0.0
220
0.0
230
1.0
 70
     8
 71
     3
 72
    10
 73
     6
 74
     4
 42
0.000000001
 43
0.0000000001
 44
0.0
 40
0.0
 40
0.0
 40
0.0
 40
0.0
 40
3.594928413752144
 40
6.785752168902619
 40
7.56028330346982
 40
7.56028330346982
 40
7.56028330346982
 40
7.56028330346982
 10
26.66684004852925
 20
-4.255465013318549
 30
0.0
 10
27.74969269060221
 20
-4.780458640864603
 30
0.0
 10
29.79367488408327
 20
-5.771431544011348
 30
0.0
 10
32.30189923389023
 20
-6.221889227463269
 30
0.0
 10
33.61878072382933
 20
-6.328166509628222
 30
0.0
 10
33.87600000000003
 20
-6.348925071276106
 30
0.0
 11
26.66684004852925
 21
-4.255465013318549
 31
0.0
 11
29.9735740417218
 21
-5.665791428822189
 31
0.0
 11
33.10439262191562
 21
-6.281690165909499
 31
0.0
 11
33.87600000000003
 21
-6.348925071276106
 31
0.0
  0
DIMENSION
  5
285
102
{ACAD_REACTORS
102
}
102
{ACAD_XDICTIONARY
360
286
102
}
330
1F
100
AcDbEntity
  8
치수문자_일반주서
100
AcDbDimension
  2
*D18
 10
33.87600000000003
 20
-4.824925071276105
 30
0.0
 11
44.57530323426835
 21
-26.90761670298615
 31
0.0
 70
   164
  1
<>
 71
     5
 42
1.524000000000002
  3
SLDDIMSTYLE0
100
AcDbRadialDimension
 15
34.54050584776306
 25
-6.196423513961605
 35
0.0
 40
0.0
1001
ACAD
1000
DSTYLE
1002
{
1070
   171
1070
     3
1002
}
1001
ACAD_DSTYLE_DIMRADIAL_EXTENSION
1070
   387
1070
     1
1070
   388
1040
4.71238898038469
1070
   390
1040
0.0000001713703615
  0
ENDSEC
  0
SECTION
  2
OBJECTS
  0
DICTIONARY
  5
C
330
0
100
AcDbDictionary
281
     1
  3
ACAD_GROUP
350
D
  3
ACAD_IMAGE_VARS
350
158
  3
ACAD_LAYOUT
350
1A
  3
ACAD_MLINESTYLE
350
17
  3
ACAD_PLOTSETTINGS
350
19
  3
ACAD_PLOTSTYLENAME
350
E
  3
ACAD_SCALELIST
350
47
  3
APPDATA
350
156
  3
DWGPROPS
350
292
  0
DICTIONARY
  5
201
330
2
100
AcDbDictionary
280
     1
281
     1
  3
ACAD_LAYERSTATES
360
202
  0
DICTIONARY
  5
286
330
285
100
AcDbDictionary
280
     1
281
     1
  0
DICTIONARY
  5
D
102
{ACAD_REACTORS
330
C
102
}
330
C
100
AcDbDictionary
281
     1
  0
RASTERVARIABLES
  5
158
102
{ACAD_REACTORS
330
C
102
}
330
C
100
AcDbRasterVariables
 90
        0
 70
     1
 71
     1
 72
     1
  0
DICTIONARY
  5
1A
102
{ACAD_REACTORS
330
C
102
}
330
C
100
AcDbDictionary
281
     1
  3
Layout1
350
1E
  3
Layout2
350
26
  3
Model
350
22
  0
DICTIONARY
  5
17
102
{ACAD_REACTORS
330
C
102
}
330
C
100
AcDbDictionary
281
     1
  3
Standard
350
18
  0
DICTIONARY
  5
19
102
{ACAD_REACTORS
330
C
102
}
330
C
100
AcDbDictionary
281
     1
  0
ACDBDICTIONARYWDFLT
  5
E
102
{ACAD_REACTORS
330
C
102
}
330
C
100
AcDbDictionary
281
     1
  3
Normal
350
F
100
AcDbDictionaryWithDefault
340
F
  0
DICTIONARY
  5
47
102
{ACAD_REACTORS
330
C
102
}
330
C
100
AcDbDictionary
281
     1
  3
A0
350
48
  3
A1
350
49
  3
A2
350
4A
  3
A3
350
4B
  3
A4
350
4C
  3
A5
350
4D
  3
A6
350
4E
  3
A7
350
4F
  3
A8
350
50
  3
A9
350
51
  3
B0
350
52
  3
B1
350
53
  3
B2
350
54
  3
B3
350
55
  3
B4
350
56
  3
B5
350
57
  3
B6
350
58
  3
B7
350
59
  3
B8
350
5A
  3
B9
350
5B
  3
C0
350
5C
  3
C1
350
5D
  3
C2
350
5E
  3
C3
350
5F
  3
C4
350
60
  3
C5
350
61
  3
C6
350
62
  3
C7
350
63
  3
C8
350
64
  3
C9
350
65
  3
D0
350
66
  3
D1
350
67
  3
D2
350
68
  0
DICTIONARY
  5
156
102
{ACAD_REACTORS
330
C
102
}
330
C
100
AcDbDictionary
281
     1
  0
XRECORD
  5
292
102
{ACAD_REACTORS
330
C
102
}
330
C
100
AcDbXrecord
280
     1
  1
DWGPROPS COOKIE
  2

  3

  4

  6

  7

  8
12017012
  9

300
=
301
=
302
=
303
=
304
=
305
=
306
=
307
=
308
=
309
=
 40
0.0
 41
2458288.282866574
 42
2458295.376441528
  1

 90
        0
  0
DICTIONARY
  5
202
102
{ACAD_REACTORS
330
201
102
}
330
201
100
AcDbDictionary
281
     1
  0
LAYOUT
  5
1E
102
{ACAD_REACTORS
330
1A
102
}
330
1A
100
AcDbPlotSettings
  1

  2
none_device
  4

  6

 40
0.0
 41
0.0
 42
0.0
 43
0.0
 44
0.0
 45
0.0
 46
0.0
 47
0.0
 48
0.0
 49
0.0
140
0.0
141
0.0
142
1.0
143
1.0
 70
   688
 72
     1
 73
     0
 74
     5
  7

 75
    16
147
1.0
148
0.0
149
0.0
100
AcDbLayout
  1
Layout1
 70
     1
 71
     1
 10
0.0
 20
0.0
 11
420.0
 21
297.0
 12
0.0
 22
0.0
 32
0.0
 14
1.000000000000000E+20
 24
1.000000000000000E+20
 34
1.000000000000000E+20
 15
-1.000000000000000E+20
 25
-1.000000000000000E+20
 35
-1.000000000000000E+20
146
0.0
 13
0.0
 23
0.0
 33
0.0
 16
1.0
 26
0.0
 36
0.0
 17
0.0
 27
1.0
 37
0.0
 76
     0
330
1B
  0
LAYOUT
  5
26
102
{ACAD_REACTORS
330
1A
102
}
330
1A
100
AcDbPlotSettings
  1

  2
none_device
  4

  6

 40
0.0
 41
0.0
 42
0.0
 43
0.0
 44
0.0
 45
0.0
 46
0.0
 47
0.0
 48
0.0
 49
0.0
140
0.0
141
0.0
142
1.0
143
1.0
 70
   688
 72
     1
 73
     0
 74
     5
  7

 75
    16
147
1.0
148
0.0
149
0.0
100
AcDbLayout
  1
Layout2
 70
     1
 71
     2
 10
0.0
 20
0.0
 11
0.0
 21
0.0
 12
0.0
 22
0.0
 32
0.0
 14
0.0
 24
0.0
 34
0.0
 15
0.0
 25
0.0
 35
0.0
146
0.0
 13
0.0
 23
0.0
 33
0.0
 16
1.0
 26
0.0
 36
0.0
 17
0.0
 27
1.0
 37
0.0
 76
     0
330
23
  0
LAYOUT
  5
22
102
{ACAD_REACTORS
330
1A
102
}
330
1A
100
AcDbPlotSettings
  1

  2
none_device
  4
ANSI_A_(11.00_x_8.50_Inches)
  6

 40
6.35
 41
19.05
 42
6.35000508
 43
19.05000254
 44
279.4
 45
215.9
 46
128.4942693490029
 47
98.22193217675208
 48
0.0
 49
0.0
140
0.0
141
0.0
142
0.0587066758962957
143
1.0
 70
  1696
 72
     0
 73
     0
 74
     0
  7

 75
     0
147
0.0235690232323232
148
0.0
149
0.0
100
AcDbLayout
  1
Model
 70
     1
 71
     0
 10
0.0
 20
0.0
 11
420.0
 21
297.0
 12
0.0
 22
0.0
 32
0.0
 14
1.000000000000000E+20
 24
1.000000000000000E+20
 34
1.000000000000000E+20
 15
-1.000000000000000E+20
 25
-1.000000000000000E+20
 35
-1.000000000000000E+20
146
0.0
 13
0.0
 23
0.0
 33
0.0
 16
1.0
 26
0.0
 36
0.0
 17
0.0
 27
1.0
 37
0.0
 76
     0
330
1F
331
29
  0
MLINESTYLE
  5
18
102
{ACAD_REACTORS
330
17
102
}
330
17
100
AcDbMlineStyle
  2
Standard
 70
     0
  3

 62
   256
 51
90.0
 52
90.0
 71
     2
 49
0.5
 62
   256
  6
BYLAYER
 49
-0.5
 62
   256
  6
BYLAYER
  0
ACDBPLACEHOLDER
  5
F
102
{ACAD_REACTORS
330
E
102
}
330
E
  0
SCALE
  5
48
102
{ACAD_REACTORS
330
47
102
}
330
47
100
AcDbScale
 70
     0
300
1:1
140
1.0
141
1.0
290
     1
  0
SCALE
  5
49
102
{ACAD_REACTORS
330
47
102
}
330
47
100
AcDbScale
 70
     0
300
1:2
140
1.0
141
2.0
290
     0
  0
SCALE
  5
4A
102
{ACAD_REACTORS
330
47
102
}
330
47
100
AcDbScale
 70
     0
300
1:4
140
1.0
141
4.0
290
     0
  0
SCALE
  5
4B
102
{ACAD_REACTORS
330
47
102
}
330
47
100
AcDbScale
 70
     0
300
1:5
140
1.0
141
5.0
290
     0
  0
SCALE
  5
4C
102
{ACAD_REACTORS
330
47
102
}
330
47
100
AcDbScale
 70
     0
300
1:8
140
1.0
141
8.0
290
     0
  0
SCALE
  5
4D
102
{ACAD_REACTORS
330
47
102
}
330
47
100
AcDbScale
 70
     0
300
1:10
140
1.0
141
10.0
290
     0
  0
SCALE
  5
4E
102
{ACAD_REACTORS
330
47
102
}
330
47
100
AcDbScale
 70
     0
300
1:16
140
1.0
141
16.0
290
     0
  0
SCALE
  5
4F
102
{ACAD_REACTORS
330
47
102
}
330
47
100
AcDbScale
 70
     0
300
1:20
140
1.0
141
20.0
290
     0
  0
SCALE
  5
50
102
{ACAD_REACTORS
330
47
102
}
330
47
100
AcDbScale
 70
     0
300
1:30
140
1.0
141
30.0
290
     0
  0
SCALE
  5
51
102
{ACAD_REACTORS
330
47
102
}
330
47
100
AcDbScale
 70
     0
300
1:40
140
1.0
141
40.0
290
     0
  0
SCALE
  5
52
102
{ACAD_REACTORS
330
47
102
}
330
47
100
AcDbScale
 70
     0
300
1:50
140
1.0
141
50.0
290
     0
  0
SCALE
  5
53
102
{ACAD_REACTORS
330
47
102
}
330
47
100
AcDbScale
 70
     0
300
1:100
140
1.0
141
100.0
290
     0
  0
SCALE
  5
54
102
{ACAD_REACTORS
330
47
102
}
330
47
100
AcDbScale
 70
     0
300
2:1
140
2.0
141
1.0
290
     0
  0
SCALE
  5
55
102
{ACAD_REACTORS
330
47
102
}
330
47
100
AcDbScale
 70
     0
300
4:1
140
4.0
141
1.0
290
     0
  0
SCALE
  5
56
102
{ACAD_REACTORS
330
47
102
}
330
47
100
AcDbScale
 70
     0
300
8:1
140
8.0
141
1.0
290
     0
  0
SCALE
  5
57
102
{ACAD_REACTORS
330
47
102
}
330
47
100
AcDbScale
 70
     0
300
10:1
140
10.0
141
1.0
290
     0
  0
SCALE
  5
58
102
{ACAD_REACTORS
330
47
102
}
330
47
100
AcDbScale
 70
     0
300
100:1
140
100.0
141
1.0
290
     0
  0
SCALE
  5
59
102
{ACAD_REACTORS
330
47
102
}
330
47
100
AcDbScale
 70
     0
300
1/128" = 1'-0"
140
0.0078125
141
12.0
290
     0
  0
SCALE
  5
5A
102
{ACAD_REACTORS
330
47
102
}
330
47
100
AcDbScale
 70
     0
300
1/64" = 1'-0"
140
0.015625
141
12.0
290
     0
  0
SCALE
  5
5B
102
{ACAD_REACTORS
330
47
102
}
330
47
100
AcDbScale
 70
     0
300
1/32" = 1'-0"
140
0.03125
141
12.0
290
     0
  0
SCALE
  5
5C
102
{ACAD_REACTORS
330
47
102
}
330
47
100
AcDbScale
 70
     0
300
1/16" = 1'-0"
140
0.0625
141
12.0
290
     0
  0
SCALE
  5
5D
102
{ACAD_REACTORS
330
47
102
}
330
47
100
AcDbScale
 70
     0
300
3/32" = 1'-0"
140
0.09375
141
12.0
290
     0
  0
SCALE
  5
5E
102
{ACAD_REACTORS
330
47
102
}
330
47
100
AcDbScale
 70
     0
300
1/8" = 1'-0"
140
0.125
141
12.0
290
     0
  0
SCALE
  5
5F
102
{ACAD_REACTORS
330
47
102
}
330
47
100
AcDbScale
 70
     0
300
3/16" = 1'-0"
140
0.1875
141
12.0
290
     0
  0
SCALE
  5
60
102
{ACAD_REACTORS
330
47
102
}
330
47
100
AcDbScale
 70
     0
300
1/4" = 1'-0"
140
0.25
141
12.0
290
     0
  0
SCALE
  5
61
102
{ACAD_REACTORS
330
47
102
}
330
47
100
AcDbScale
 70
     0
300
3/8" = 1'-0"
140
0.375
141
12.0
290
     0
  0
SCALE
  5
62
102
{ACAD_REACTORS
330
47
102
}
330
47
100
AcDbScale
 70
     0
300
1/2" = 1'-0"
140
0.5
141
12.0
290
     0
  0
SCALE
  5
63
102
{ACAD_REACTORS
330
47
102
}
330
47
100
AcDbScale
 70
     0
300
3/4" = 1'-0"
140
0.75
141
12.0
290
     0
  0
SCALE
  5
64
102
{ACAD_REACTORS
330
47
102
}
330
47
100
AcDbScale
 70
     0
300
1" = 1'-0"
140
1.0
141
12.0
290
     0
  0
SCALE
  5
65
102
{ACAD_REACTORS
330
47
102
}
330
47
100
AcDbScale
 70
     0
300
1-1/2" = 1'-0"
140
1.5
141
12.0
290
     0
  0
SCALE
  5
66
102
{ACAD_REACTORS
330
47
102
}
330
47
100
AcDbScale
 70
     0
300
3" = 1'-0"
140
3.0
141
12.0
290
     0
  0
SCALE
  5
67
102
{ACAD_REACTORS
330
47
102
}
330
47
100
AcDbScale
 70
     0
300
6" = 1'-0"
140
6.0
141
12.0
290
     0
  0
SCALE
  5
68
102
{ACAD_REACTORS
330
47
102
}
330
47
100
AcDbScale
 70
     0
300
1'-0" = 1'-0"
140
12.0
141
12.0
290
     0
  0
ENDSEC
  0
EOF
