  0
SECTION
  2
HEADER
  9
$ACADVER
  1
AC1015
  9
$ACADMAINTVER
 70
     6
  9
$DWGCODEPAGE
  3
ANSI_949
  9
$INSBASE
 10
0.0
 20
0.0
 30
0.0
  9
$EXTMIN
 10
1.000000000000000E+20
 20
1.000000000000000E+20
 30
1.000000000000000E+20
  9
$EXTMAX
 10
-1.000000000000000E+20
 20
-1.000000000000000E+20
 30
-1.000000000000000E+20
  9
$LIMMIN
 10
0.0
 20
0.0
  9
$LIMMAX
 10
420.0
 20
297.0
  9
$ORTHOMODE
 70
     0
  9
$REGENMODE
 70
     1
  9
$FILLMODE
 70
     1
  9
$QTEXTMODE
 70
     0
  9
$MIRRTEXT
 70
     1
  9
$LTSCALE
 40
1.0
  9
$ATTMODE
 70
     1
  9
$TEXTSIZE
 40
3.5
  9
$TRACEWID
 40
1.0
  9
$TEXTSTYLE
  7
Standard
  9
$CLAYER
  8
0
  9
$CELTYPE
  6
ByLayer
  9
$CECOLOR
 62
   256
  9
$CELTSCALE
 40
1.0
  9
$DISPSILH
 70
     0
  9
$DIMSCALE
 40
1.0
  9
$DIMASZ
 40
3.302
  9
$DIMEXO
 40
1.0
  9
$DIMDLI
 40
3.75
  9
$DIMRND
 40
0.0
  9
$DIMDLE
 40
0.0
  9
$DIMEXE
 40
1.0
  9
$DIMTP
 40
0.0
  9
$DIMTM
 40
0.0
  9
$DIMTXT
 40
3.5
  9
$DIMCEN
 40
2.5
  9
$DIMTSZ
 40
0.0
  9
$DIMTOL
 70
     0
  9
$DIMLIM
 70
     0
  9
$DIMTIH
 70
     1
  9
$DIMTOH
 70
     1
  9
$DIMSE1
 70
     0
  9
$DIMSE2
 70
     0
  9
$DIMTAD
 70
     1
  9
$DIMZIN
 70
     0
  9
$DIMBLK
  1

  9
$DIMASO
 70
     1
  9
$DIMSHO
 70
     1
  9
$DIMPOST
  1

  9
$DIMAPOST
  1

  9
$DIMALT
 70
     0
  9
$DIMALTD
 70
     3
  9
$DIMALTF
 40
0.0393700787401575
  9
$DIMLFAC
 40
1.0
  9
$DIMTOFL
 70
     1
  9
$DIMTVP
 40
0.0
  9
$DIMTIX
 70
     0
  9
$DIMSOXD
 70
     0
  9
$DIMSAH
 70
     0
  9
$DIMBLK1
  1

  9
$DIMBLK2
  1

  9
$DIMSTYLE
  2
ISO-25
  9
$DIMCLRD
 70
     0
  9
$DIMCLRE
 70
     0
  9
$DIMCLRT
 70
     0
  9
$DIMTFAC
 40
1.0
  9
$DIMGAP
 40
1.524
  9
$DIMJUST
 70
     0
  9
$DIMSD1
 70
     0
  9
$DIMSD2
 70
     0
  9
$DIMTOLJ
 70
     0
  9
$DIMTZIN
 70
     0
  9
$DIMALTZ
 70
     0
  9
$DIMALTTZ
 70
     0
  9
$DIMUPT
 70
     0
  9
$DIMDEC
 70
     2
  9
$DIMTDEC
 70
     2
  9
$DIMALTU
 70
     2
  9
$DIMALTTD
 70
     3
  9
$DIMTXSTY
  7
Standard
  9
$DIMAUNIT
 70
     0
  9
$DIMADEC
 70
     2
  9
$DIMALTRND
 40
0.0
  9
$DIMAZIN
 70
     0
  9
$DIMDSEP
 70
    44
  9
$DIMATFIT
 70
     3
  9
$DIMFRAC
 70
     0
  9
$DIMLDRBLK
  1

  9
$DIMLUNIT
 70
     2
  9
$DIMLWD
 70
    -2
  9
$DIMLWE
 70
    -2
  9
$DIMTMOVE
 70
     0
  9
$LUNITS
 70
     2
  9
$LUPREC
 70
     2
  9
$SKETCHINC
 40
1.0
  9
$FILLETRAD
 40
10.0
  9
$AUNITS
 70
     0
  9
$AUPREC
 70
     2
  9
$MENU
  1
.
  9
$ELEVATION
 40
0.0
  9
$PELEVATION
 40
0.0
  9
$THICKNESS
 40
0.0
  9
$LIMCHECK
 70
     0
  9
$CHAMFERA
 40
0.0
  9
$CHAMFERB
 40
0.0
  9
$CHAMFERC
 40
0.0
  9
$CHAMFERD
 40
0.0
  9
$SKPOLY
 70
     0
  9
$TDCREATE
 40
2458296.688678542
  9
$TDUCREATE
 40
2458296.313678542
  9
$TDUPDATE
 40
2458296.730029386
  9
$TDUUPDATE
 40
2458296.355029386
  9
$TDINDWG
 40
0.0021747801
  9
$TDUSRTIMER
 40
2458296.354604884
  9
$USRTIMER
 70
     1
  9
$ANGBASE
 50
0.0
  9
$ANGDIR
 70
     0
  9
$PDMODE
 70
     0
  9
$PDSIZE
 40
-1.0
  9
$PLINEWID
 40
0.0
  9
$SPLFRAME
 70
     0
  9
$SPLINETYPE
 70
     6
  9
$SPLINESEGS
 70
     8
  9
$HANDSEED
  5
3A2
  9
$SURFTAB1
 70
     6
  9
$SURFTAB2
 70
     6
  9
$SURFTYPE
 70
     6
  9
$SURFU
 70
     6
  9
$SURFV
 70
     6
  9
$UCSBASE
  2

  9
$UCSNAME
  2

  9
$UCSORG
 10
0.0
 20
0.0
 30
0.0
  9
$UCSXDIR
 10
1.0
 20
0.0
 30
0.0
  9
$UCSYDIR
 10
0.0
 20
1.0
 30
0.0
  9
$UCSORTHOREF
  2

  9
$UCSORTHOVIEW
 70
     0
  9
$UCSORGTOP
 10
0.0
 20
0.0
 30
0.0
  9
$UCSORGBOTTOM
 10
0.0
 20
0.0
 30
0.0
  9
$UCSORGLEFT
 10
0.0
 20
0.0
 30
0.0
  9
$UCSORGRIGHT
 10
0.0
 20
0.0
 30
0.0
  9
$UCSORGFRONT
 10
0.0
 20
0.0
 30
0.0
  9
$UCSORGBACK
 10
0.0
 20
0.0
 30
0.0
  9
$PUCSBASE
  2

  9
$PUCSNAME
  2

  9
$PUCSORG
 10
0.0
 20
0.0
 30
0.0
  9
$PUCSXDIR
 10
1.0
 20
0.0
 30
0.0
  9
$PUCSYDIR
 10
0.0
 20
1.0
 30
0.0
  9
$PUCSORTHOREF
  2

  9
$PUCSORTHOVIEW
 70
     0
  9
$PUCSORGTOP
 10
0.0
 20
0.0
 30
0.0
  9
$PUCSORGBOTTOM
 10
0.0
 20
0.0
 30
0.0
  9
$PUCSORGLEFT
 10
0.0
 20
0.0
 30
0.0
  9
$PUCSORGRIGHT
 10
0.0
 20
0.0
 30
0.0
  9
$PUCSORGFRONT
 10
0.0
 20
0.0
 30
0.0
  9
$PUCSORGBACK
 10
0.0
 20
0.0
 30
0.0
  9
$USERI1
 70
     0
  9
$USERI2
 70
     0
  9
$USERI3
 70
     0
  9
$USERI4
 70
     0
  9
$USERI5
 70
     0
  9
$USERR1
 40
0.0
  9
$USERR2
 40
0.0
  9
$USERR3
 40
0.0
  9
$USERR4
 40
0.0
  9
$USERR5
 40
0.0
  9
$WORLDVIEW
 70
     1
  9
$SHADEDGE
 70
     3
  9
$SHADEDIF
 70
    70
  9
$TILEMODE
 70
     1
  9
$MAXACTVP
 70
    64
  9
$PINSBASE
 10
0.0
 20
0.0
 30
0.0
  9
$PLIMCHECK
 70
     0
  9
$PEXTMIN
 10
1.000000000000000E+20
 20
1.000000000000000E+20
 30
1.000000000000000E+20
  9
$PEXTMAX
 10
-1.000000000000000E+20
 20
-1.000000000000000E+20
 30
-1.000000000000000E+20
  9
$PLIMMIN
 10
0.0
 20
0.0
  9
$PLIMMAX
 10
0.0
 20
0.0
  9
$UNITMODE
 70
     0
  9
$VISRETAIN
 70
     1
  9
$PLINEGEN
 70
     0
  9
$PSLTSCALE
 70
     1
  9
$TREEDEPTH
 70
  3020
  9
$CMLSTYLE
  2
Standard
  9
$CMLJUST
 70
     0
  9
$CMLSCALE
 40
20.0
  9
$PROXYGRAPHICS
 70
     1
  9
$MEASUREMENT
 70
     1
  9
$CELWEIGHT
370
    -1
  9
$ENDCAPS
280
     0
  9
$JOINSTYLE
280
     0
  9
$LWDISPLAY
290
     1
  9
$INSUNITS
 70
     4
  9
$HYPERLINKBASE
  1

  9
$STYLESHEET
  1

  9
$XEDIT
290
     1
  9
$CEPSNTYPE
380
     0
  9
$PSTYLEMODE
290
     1
  9
$FINGERPRINTGUID
  2
{9C6B9EB7-964C-4699-99AB-8CE4CDB34D68}
  9
$VERSIONGUID
  2
{FAEB1C32-E019-11D5-929B-00C0DF256EC4}
  9
$EXTNAMES
290
     1
  9
$PSVPSCALE
 40
0.0
  9
$OLESTARTUP
290
     0
  0
ENDSEC
  0
SECTION
  2
CLASSES
  0
CLASS
  1
ACDBDICTIONARYWDFLT
  2
AcDbDictionaryWithDefault
  3
ObjectDBX Classes
 90
        0
280
     0
281
     0
  0
CLASS
  1
VISUALSTYLE
  2
AcDbVisualStyle
  3
ObjectDBX Classes
 90
     4095
280
     0
281
     0
  0
CLASS
  1
MATERIAL
  2
AcDbMaterial
  3
ObjectDBX Classes
 90
     1153
280
     0
281
     0
  0
CLASS
  1
SCALE
  2
AcDbScale
  3
ObjectDBX Classes
 90
     1153
280
     0
281
     0
  0
CLASS
  1
SUN
  2
AcDbSun
  3
SCENEOE
 90
     1153
280
     0
281
     0
  0
CLASS
  1
ACDBPLACEHOLDER
  2
AcDbPlaceHolder
  3
ObjectDBX Classes
 90
        0
280
     0
281
     0
  0
CLASS
  1
LAYOUT
  2
AcDbLayout
  3
ObjectDBX Classes
 90
        0
280
     0
281
     0
  0
CLASS
  1
TABLESTYLE
  2
AcDbTableStyle
  3
ObjectDBX Classes
 90
     4095
280
     0
281
     0
  0
CLASS
  1
MLEADERSTYLE
  2
AcDbMLeaderStyle
  3
ACDB_MLEADERSTYLE_CLASS
 90
     4095
280
     0
281
     0
  0
CLASS
  1
RASTERVARIABLES
  2
AcDbRasterVariables
  3
ISM
 90
        0
280
     0
281
     0
  0
CLASS
  1
DIMASSOC
  2
AcDbDimAssoc
  3
"AcDbDimAssoc|Product Desc:     AcDim ARX App For Dimension|Company:          Autodesk, Inc.|WEB Address:      www.autodesk.com"
 90
        0
280
     0
281
     0
  0
ENDSEC
  0
SECTION
  2
TABLES
  0
TABLE
  2
VPORT
  5
8
330
0
100
AcDbSymbolTable
 70
     1
  0
VPORT
  5
29
330
8
100
AcDbSymbolTableRecord
100
AcDbViewportTableRecord
  2
*Active
 70
     0
 10
0.0
 20
0.0
 11
1.0
 21
1.0
 12
0.3832194270822811
 22
13.96340265307729
 13
0.0
 23
0.0
 14
10.0
 24
10.0
 15
10.0
 25
10.0
 16
0.0
 26
0.0
 36
1.0
 17
0.0
 27
0.0
 37
0.0
 40
148.9767435226109
 41
1.798434442270059
 42
50.0
 43
0.0
 44
0.0
 50
0.0
 51
0.0
 71
    16
 72
  2000
 73
     1
 74
     3
 75
     0
 76
     0
 77
     0
 78
     0
281
     0
 65
     1
110
0.0
120
0.0
130
0.0
111
1.0
121
0.0
131
0.0
112
0.0
122
1.0
132
0.0
 79
     0
146
0.0
  0
ENDTAB
  0
TABLE
  2
LTYPE
  5
5
330
0
100
AcDbSymbolTable
 70
     6
  0
LTYPE
  5
14
330
5
100
AcDbSymbolTableRecord
100
AcDbLinetypeTableRecord
  2
ByBlock
 70
     0
  3

 72
    65
 73
     0
 40
0.0
  0
LTYPE
  5
15
330
5
100
AcDbSymbolTableRecord
100
AcDbLinetypeTableRecord
  2
ByLayer
 70
     0
  3

 72
    65
 73
     0
 40
0.0
  0
LTYPE
  5
16
330
5
100
AcDbSymbolTableRecord
100
AcDbLinetypeTableRecord
  2
Continuous
 70
     0
  3
Solid line
 72
    65
 73
     0
 40
0.0
  0
LTYPE
  5
6A
330
5
100
AcDbSymbolTableRecord
100
AcDbLinetypeTableRecord
  2
HIDDEN
 70
     0
  3
Hidden __ __ __ __ __ __ __ __ __ __ __ __ __ __
 72
    65
 73
     2
 40
1.905
 49
1.27
 74
     0
 49
-0.635
 74
     0
  0
LTYPE
  5
6B
330
5
100
AcDbSymbolTableRecord
100
AcDbLinetypeTableRecord
  2
PHANTOM
 70
     0
  3
Phantom ______  __  __  ______  __  __  ______
 72
    65
 73
     6
 40
12.7
 49
6.35
 74
     0
 49
-1.27
 74
     0
 49
1.27
 74
     0
 49
-1.27
 74
     0
 49
1.27
 74
     0
 49
-1.27
 74
     0
  0
LTYPE
  5
6C
330
5
100
AcDbSymbolTableRecord
100
AcDbLinetypeTableRecord
  2
CENTER
 70
     0
  3
Center ____ _ ____ _ ____ _ ____ _ ____ _ ____
 72
    65
 73
     4
 40
10.16
 49
6.35
 74
     0
 49
-1.27
 74
     0
 49
1.27
 74
     0
 49
-1.27
 74
     0
  0
LTYPE
  5
6D
330
5
100
AcDbSymbolTableRecord
100
AcDbLinetypeTableRecord
  2
CENTERX2
 70
     0
  3
Center (2x) ________  __  ________  __  _____
 72
    65
 73
     4
 40
20.32
 49
12.7
 74
     0
 49
-2.54
 74
     0
 49
2.54
 74
     0
 49
-2.54
 74
     0
  0
LTYPE
  5
6E
330
5
100
AcDbSymbolTableRecord
100
AcDbLinetypeTableRecord
  2
DOT2
 70
     0
  3
Dot (.5x) ........................................
 72
    65
 73
     2
 40
0.635
 49
0.0
 74
     0
 49
-0.635
 74
     0
  0
ENDTAB
  0
TABLE
  2
LAYER
  5
2
102
{ACAD_XDICTIONARY
360
1E7
102
}
330
0
100
AcDbSymbolTable
 70
    18
  0
LAYER
  5
10
330
2
100
AcDbSymbolTableRecord
100
AcDbLayerTableRecord
  2
0
 70
     0
 62
     7
  6
Continuous
370
    -3
390
F
  0
LAYER
  5
6F
330
2
100
AcDbSymbolTableRecord
100
AcDbLayerTableRecord
  2
FORMAT
 70
     0
 62
     2
  6
Continuous
370
    -3
390
F
  0
LAYER
  5
70
330
2
100
AcDbSymbolTableRecord
100
AcDbLayerTableRecord
  2
외형선
 70
     0
 62
     4
  6
Continuous
370
    30
390
F
  0
LAYER
  5
71
330
2
100
AcDbSymbolTableRecord
100
AcDbLayerTableRecord
  2
숨은선
 70
     0
 62
     2
  6
HIDDEN
370
    15
390
F
  0
LAYER
  5
72
330
2
100
AcDbSymbolTableRecord
100
AcDbLayerTableRecord
  2
중심선
 70
     0
 62
     1
  6
CENTERX2
370
    -3
390
F
  0
LAYER
  5
73
330
2
100
AcDbSymbolTableRecord
100
AcDbLayerTableRecord
  2
파단선
 70
     0
 62
     4
  6
Continuous
370
    -3
390
F
  0
LAYER
  5
74
330
2
100
AcDbSymbolTableRecord
100
AcDbLayerTableRecord
  2
해칭선
 70
     0
 62
   100
  6
Continuous
370
    -3
390
F
  0
LAYER
  5
75
330
2
100
AcDbSymbolTableRecord
100
AcDbLayerTableRecord
  2
가는실선
 70
     0
 62
     4
  6
Continuous
370
    -3
390
F
  0
LAYER
  5
76
330
2
100
AcDbSymbolTableRecord
100
AcDbLayerTableRecord
  2
치수_보조선
 70
     0
 62
     4
  6
Continuous
370
    -3
390
F
  0
LAYER
  5
77
330
2
100
AcDbSymbolTableRecord
100
AcDbLayerTableRecord
  2
치수문자_일반주서
 70
     0
 62
     7
  6
Continuous
370
    15
390
F
  0
LAYER
  5
78
330
2
100
AcDbSymbolTableRecord
100
AcDbLayerTableRecord
  2
개별주서
 70
     0
 62
   100
  6
Continuous
370
    30
390
F
  0
LAYER
  5
79
330
2
100
AcDbSymbolTableRecord
100
AcDbLayerTableRecord
  2
중간선
 70
     0
 62
     2
  6
Continuous
370
    15
390
F
  0
LAYER
  5
7A
330
2
100
AcDbSymbolTableRecord
100
AcDbLayerTableRecord
  2
윤곽선
 70
     0
 62
     3
  6
Continuous
370
    40
390
F
  0
LAYER
  5
7B
330
2
100
AcDbSymbolTableRecord
100
AcDbLayerTableRecord
  2
중심마크
 70
     0
 62
   100
  6
Continuous
370
    30
390
F
  0
LAYER
  5
7C
330
2
100
AcDbSymbolTableRecord
100
AcDbLayerTableRecord
  2
가상선
 70
     0
 62
     4
  6
PHANTOM
370
    -3
390
F
  0
LAYER
  5
7D
330
2
100
AcDbSymbolTableRecord
100
AcDbLayerTableRecord
  2
특수지정선
 70
     0
 62
     5
  6
CENTERX2
370
    60
390
F
  0
LAYER
  5
7E
330
2
100
AcDbSymbolTableRecord
100
AcDbLayerTableRecord
  2
참조1
 70
     0
 62
    -4
  6
Continuous
370
    -3
390
F
  0
LAYER
  5
148
330
2
100
AcDbSymbolTableRecord
100
AcDbLayerTableRecord
  2
Defpoints
 70
     0
 62
     7
  6
Continuous
290
     0
370
    -3
390
F
  0
ENDTAB
  0
TABLE
  2
STYLE
  5
3
330
0
100
AcDbSymbolTable
 70
     2
  0
STYLE
  5
11
330
3
100
AcDbSymbolTableRecord
100
AcDbTextStyleTableRecord
  2
Standard
 70
     0
 40
0.0
 41
1.0
 50
0.0
 71
     0
 42
3.5
  3
txt
  4

  0
STYLE
  5
94
330
3
100
AcDbSymbolTableRecord
100
AcDbTextStyleTableRecord
  2
SLDTEXTSTYLE0
 70
     0
 40
0.0
 41
0.75
 50
0.0
 71
     0
 42
3.5
  3
TXT
  4

  0
ENDTAB
  0
TABLE
  2
VIEW
  5
6
330
0
100
AcDbSymbolTable
 70
     0
  0
ENDTAB
  0
TABLE
  2
UCS
  5
7
330
0
100
AcDbSymbolTable
 70
     0
  0
ENDTAB
  0
TABLE
  2
APPID
  5
9
330
0
100
AcDbSymbolTable
 70
     2
  0
APPID
  5
12
330
9
100
AcDbSymbolTableRecord
100
AcDbRegAppTableRecord
  2
ACAD
 70
     0
  0
APPID
  5
154
330
9
100
AcDbSymbolTableRecord
100
AcDbRegAppTableRecord
  2
ACAD_DSTYLE_DIMRADIAL_EXTENSION
 70
     0
  0
ENDTAB
  0
TABLE
  2
DIMSTYLE
  5
A
330
0
100
AcDbSymbolTable
 70
     5
100
AcDbDimStyleTable
  0
DIMSTYLE
105
27
330
A
100
AcDbSymbolTableRecord
100
AcDbDimStyleTableRecord
  2
ISO-25
 70
     0
 41
2.5
 42
0.625
 43
3.75
 44
1.25
 73
     0
 74
     0
 77
     1
 78
     8
140
2.5
141
2.5
143
0.03937007874016
147
0.625
171
     3
172
     1
178
     0
271
     2
272
     2
274
     3
278
    44
283
     0
284
     8
340
11
  0
DIMSTYLE
105
CA
330
A
100
AcDbSymbolTableRecord
100
AcDbDimStyleTableRecord
  2
SLDDIMSTYLE0
 70
     0
 41
3.302
 44
0.0
 45
0.000000001
 73
     0
 74
     0
 77
     1
 78
    12
 79
     3
140
3.5
147
0.875
172
     1
173
     1
178
     0
271
     2
272
     2
276
     2
284
    12
289
     0
340
94
  0
DIMSTYLE
105
D8
102
{ACAD_REACTORS
102
}
330
A
100
AcDbSymbolTableRecord
100
AcDbDimStyleTableRecord
  2
SLDDIMSTYLE1
 70
     0
 41
3.302
 44
0.0
 45
0.000000001
 73
     0
 74
     0
 77
     1
 78
     4
 79
     1
140
3.5
143
0.0393700787401575
147
0.875
148
0.000000001
170
     1
173
     1
178
     0
271
     2
272
     2
276
     2
284
    12
340
94
  0
DIMSTYLE
105
EC
102
{ACAD_REACTORS
330
EB
330
D7
330
101
330
C9
330
2D2
330
2DF
330
2EC
330
2F9
330
315
330
394
102
}
330
A
100
AcDbSymbolTableRecord
100
AcDbDimStyleTableRecord
  2
SLDDIMSTYLE2
 70
     0
 41
3.302
 44
0.0
 45
0.000000001
 73
     0
 74
     0
 77
     1
 78
     4
 79
     1
140
3.5
143
0.0393700787401575
147
0.875
148
0.000000001
170
     1
172
     1
173
     1
178
     0
271
     2
272
     2
276
     2
284
    12
289
     0
340
94
  0
DIMSTYLE
105
102
102
{ACAD_REACTORS
102
}
330
A
100
AcDbSymbolTableRecord
100
AcDbDimStyleTableRecord
  2
SLDDIMSTYLE3
 70
     0
 41
3.302
 44
0.0
 45
0.000000001
 73
     0
 74
     0
 77
     1
 78
    12
 79
     3
140
3.5
143
0.0393700787401575
147
0.875
148
0.000000001
170
     1
173
     1
178
     0
271
     2
272
     2
276
     2
284
    12
340
94
  0
ENDTAB
  0
TABLE
  2
BLOCK_RECORD
  5
1
330
0
100
AcDbSymbolTable
 70
    29
  0
BLOCK_RECORD
  5
1F
330
1
100
AcDbSymbolTableRecord
100
AcDbBlockTableRecord
  2
*Model_Space
340
22
  0
BLOCK_RECORD
  5
1B
330
1
100
AcDbSymbolTableRecord
100
AcDbBlockTableRecord
  2
*Paper_Space
340
1E
  0
BLOCK_RECORD
  5
23
330
1
100
AcDbSymbolTableRecord
100
AcDbBlockTableRecord
  2
*Paper_Space0
340
26
  0
BLOCK_RECORD
  5
7F
330
1
100
AcDbSymbolTableRecord
100
AcDbBlockTableRecord
  2
블럭10
340
0
102
{BLKREFS
331
C2
102
}
  0
BLOCK_RECORD
  5
CB
330
1
100
AcDbSymbolTableRecord
100
AcDbBlockTableRecord
  2
_D
340
0
  0
BLOCK_RECORD
  5
D9
330
1
100
AcDbSymbolTableRecord
100
AcDbBlockTableRecord
  2
_D_1
340
0
  0
BLOCK_RECORD
  5
ED
330
1
100
AcDbSymbolTableRecord
100
AcDbBlockTableRecord
  2
_D_2
340
0
  0
BLOCK_RECORD
  5
103
330
1
100
AcDbSymbolTableRecord
100
AcDbBlockTableRecord
  2
_D_3
340
0
  0
BLOCK_RECORD
  5
11C
330
1
100
AcDbSymbolTableRecord
100
AcDbBlockTableRecord
  2
SW_DOWELSYMBOL_0
340
0
102
{BLKREFS
331
122
331
309
331
0
102
}
  0
BLOCK_RECORD
  5
19A
330
1
100
AcDbSymbolTableRecord
100
AcDbBlockTableRecord
  2
*D7
340
0
  0
BLOCK_RECORD
  5
1A7
330
1
100
AcDbSymbolTableRecord
100
AcDbBlockTableRecord
  2
*D8
340
0
  0
BLOCK_RECORD
  5
1B4
330
1
100
AcDbSymbolTableRecord
100
AcDbBlockTableRecord
  2
*D9
340
0
  0
BLOCK_RECORD
  5
1C1
330
1
100
AcDbSymbolTableRecord
100
AcDbBlockTableRecord
  2
*D10
340
0
  0
BLOCK_RECORD
  5
1DD
330
1
100
AcDbSymbolTableRecord
100
AcDbBlockTableRecord
  2
*D11
340
0
  0
BLOCK_RECORD
  5
21F
330
1
100
AcDbSymbolTableRecord
100
AcDbBlockTableRecord
  2
*D12
340
0
  0
BLOCK_RECORD
  5
22B
330
1
100
AcDbSymbolTableRecord
100
AcDbBlockTableRecord
  2
*D13
340
0
  0
BLOCK_RECORD
  5
237
330
1
100
AcDbSymbolTableRecord
100
AcDbBlockTableRecord
  2
*D14
340
0
  0
BLOCK_RECORD
  5
243
330
1
100
AcDbSymbolTableRecord
100
AcDbBlockTableRecord
  2
*D15
340
0
  0
BLOCK_RECORD
  5
251
330
1
100
AcDbSymbolTableRecord
100
AcDbBlockTableRecord
  2
*D16
340
0
  0
BLOCK_RECORD
  5
2D3
330
1
100
AcDbSymbolTableRecord
100
AcDbBlockTableRecord
  2
*D18
340
0
  0
BLOCK_RECORD
  5
2E0
330
1
100
AcDbSymbolTableRecord
100
AcDbBlockTableRecord
  2
*D19
340
0
  0
BLOCK_RECORD
  5
2ED
330
1
100
AcDbSymbolTableRecord
100
AcDbBlockTableRecord
  2
*D20
340
0
  0
BLOCK_RECORD
  5
2FA
330
1
100
AcDbSymbolTableRecord
100
AcDbBlockTableRecord
  2
*D21
340
0
  0
BLOCK_RECORD
  5
318
330
1
100
AcDbSymbolTableRecord
100
AcDbBlockTableRecord
  2
*D22
340
0
  0
BLOCK_RECORD
  5
358
330
1
100
AcDbSymbolTableRecord
100
AcDbBlockTableRecord
  2
*D23
340
0
  0
BLOCK_RECORD
  5
364
330
1
100
AcDbSymbolTableRecord
100
AcDbBlockTableRecord
  2
*D24
340
0
  0
BLOCK_RECORD
  5
370
330
1
100
AcDbSymbolTableRecord
100
AcDbBlockTableRecord
  2
*D25
340
0
  0
BLOCK_RECORD
  5
37C
330
1
100
AcDbSymbolTableRecord
100
AcDbBlockTableRecord
  2
*D26
340
0
  0
BLOCK_RECORD
  5
38B
330
1
100
AcDbSymbolTableRecord
100
AcDbBlockTableRecord
  2
*D27
340
0
  0
BLOCK_RECORD
  5
397
330
1
100
AcDbSymbolTableRecord
100
AcDbBlockTableRecord
  2
*D28
340
0
  0
ENDTAB
  0
ENDSEC
  0
SECTION
  2
BLOCKS
  0
BLOCK
  5
20
330
1F
100
AcDbEntity
  8
0
100
AcDbBlockBegin
  2
*Model_Space
 70
     0
 10
0.0
 20
0.0
 30
0.0
  3
*Model_Space
  1
*Model_Space
  0
ENDBLK
  5
21
330
1F
100
AcDbEntity
  8
0
100
AcDbBlockEnd
  0
BLOCK
  5
1C
330
1B
100
AcDbEntity
 67
     1
  8
0
100
AcDbBlockBegin
  2
*Paper_Space
 70
     0
 10
0.0
 20
0.0
 30
0.0
  3
*Paper_Space
  1
*Paper_Space
  0
ENDBLK
  5
1D
330
1B
100
AcDbEntity
 67
     1
  8
0
100
AcDbBlockEnd
  0
BLOCK
  5
24
330
23
100
AcDbEntity
  8
0
100
AcDbBlockBegin
  2
*Paper_Space0
 70
     0
 10
0.0
 20
0.0
 30
0.0
  3
*Paper_Space0
  1
*Paper_Space0
  0
ENDBLK
  5
25
330
23
100
AcDbEntity
  8
0
100
AcDbBlockEnd
  0
BLOCK
  5
80
330
7F
100
AcDbEntity
  8
0
100
AcDbBlockBegin
  2
블럭10
 70
     2
 10
0.0
 20
0.0
 30
0.0
  3
블럭10
  1
블럭10
  0
ELLIPSE
  5
82
330
7F
100
AcDbEntity
  8
중심선
100
AcDbEllipse
 10
20.54032771741204
 20
12.0471743016438
 30
0.0
 11
6.600054785286829
 21
-1.261213355974178E-13
 31
0.0
210
0.0
220
0.0
230
1.0
 40
0.636358354079598
 41
0.9219305317359503
 42
6.513795318482858
  0
ELLIPSE
  5
83
330
7F
100
AcDbEntity
  8
중심선
100
AcDbEllipse
 10
20.54032771746488
 20
12.04717430159265
 30
0.0
 11
3.960054785062283
 21
1.540847449632565E-10
 31
0.0
210
0.0
220
0.0
230
1.0
 40
0.3939339440162632
 41
1.131841032648279
 42
5.62031148352944
  0
LINE
  5
84
330
7F
100
AcDbEntity
  8
중심선
100
AcDbLine
 10
2.268634060543552
 20
16.24717430164393
 30
0.0
 11
5.714909304380834
 21
16.24717430164393
 31
0.0
  0
LINE
  5
85
330
7F
100
AcDbEntity
  8
중심선
100
AcDbLine
 10
5.245725140726316
 20
7.84717430164391
 30
0.0
 11
8.692000384563599
 21
7.84717430164391
 31
0.0
  0
LINE
  5
86
330
7F
100
AcDbEntity
  8
중심선
100
AcDbLine
 10
15.74043728645272
 20
16.24717430164393
 30
0.0
 11
8.692000384563599
 21
7.84717430164391
 31
0.0
  0
LINE
  5
87
330
7F
100
AcDbEntity
  8
중심선
100
AcDbLine
 10
0.1404042013395286
 20
13.71084872107135
 30
0.0
 11
3.58671253028996
 21
13.71088815037384
 31
0.0
  0
LINE
  5
88
330
7F
100
AcDbEntity
  8
중심선
100
AcDbLine
 10
2.750260043222114
 20
10.84717430164391
 30
0.0
 11
6.196535287059397
 21
10.84717430164391
 31
0.0
  0
LINE
  5
89
330
7F
100
AcDbEntity
  8
중심선
100
AcDbLine
 10
12.29416204261559
 20
16.24717430164393
 30
0.0
 11
5.245725140726316
 21
7.84717430164391
 31
0.0
  0
LINE
  5
8A
330
7F
100
AcDbEntity
  8
중심선
100
AcDbLine
 10
10.72767329541681
 20
16.24717430164393
 30
0.0
 11
6.196535287059397
 21
10.84717430164391
 31
0.0
  0
LINE
  5
8B
330
7F
100
AcDbEntity
  8
중심선
100
AcDbLine
 10
7.28139805157953
 20
16.24717430164393
 30
0.0
 11
2.750260043222114
 21
10.84717430164391
 31
0.0
  0
LINE
  5
8C
330
7F
100
AcDbEntity
  8
중심선
100
AcDbLine
 10
5.714909304380834
 20
16.24717430164393
 30
0.0
 11
3.58671253028996
 21
13.71088815037384
 31
0.0
  0
LINE
  5
8D
330
7F
100
AcDbEntity
  8
중심선
100
AcDbLine
 10
2.268634060543552
 20
16.24717430164393
 30
0.0
 11
0.1404042013395286
 21
13.71084872107135
 31
0.0
  0
LINE
  5
8E
330
7F
100
AcDbEntity
  8
중심선
100
AcDbLine
 10
7.28139805157953
 20
16.24717430164393
 30
0.0
 11
10.72767329541681
 21
16.24717430164393
 31
0.0
  0
LINE
  5
8F
330
7F
100
AcDbEntity
  8
중심선
100
AcDbLine
 10
12.29416204261559
 20
16.24717430164393
 30
0.0
 11
15.74043728645272
 21
16.24717430164393
 31
0.0
  0
LINE
  5
90
330
7F
100
AcDbEntity
  8
중심선
100
AcDbLine
 10
19.22036997980202
 20
11.08717430171403
 30
0.0
 11
23.66174974927406
 21
11.08717430171406
 31
0.0
  0
LINE
  5
91
330
7F
100
AcDbEntity
  8
중심선
100
AcDbLine
 10
19.22039502424796
 20
13.00717430171391
 30
0.0
 11
19.22036997980202
 21
11.08717430171403
 31
0.0
  0
LINE
  5
92
330
7F
100
AcDbEntity
  8
중심선
100
AcDbLine
 10
19.22039502424796
 20
13.00717430171391
 30
0.0
 11
26.96566020931264
 21
13.00717430171391
 31
0.0
  0
LINE
  5
93
330
7F
100
AcDbEntity
  8
중심선
100
AcDbLine
 10
22.22332737316547
 20
13.45928029700563
 30
0.0
 11
24.52862924686651
 21
15.39360700705356
 31
0.0
  0
ATTDEF
  5
95
330
7F
100
AcDbEntity
  8
FORMAT
 62
     2
100
AcDbText
 10
3.448148490846466
 20
2.075366912832191
 30
0.0
 40
4.233333333333333
  1
EM639020
 41
0.75
  7
SLDTEXTSTYLE0
 11
3.448148490846466
 21
-0.0412997538344756
 31
0.0
100
AcDbAttributeDefinition
  3

  2
AUTOATTR0
 70
     0
 74
     1
  0
ENDBLK
  5
81
330
7F
100
AcDbEntity
  8
0
100
AcDbBlockEnd
  0
BLOCK
  5
CC
330
CB
100
AcDbEntity
  8
0
100
AcDbBlockBegin
  2
_D
 70
     0
 10
0.0
 20
0.0
 30
0.0
  3
_D
  1
_D
  0
LINE
  5
CE
330
CB
100
AcDbEntity
  8
0
  6
Continuous
 62
     0
370
    -2
100
AcDbLine
 10
-52.76874999999998
 20
3.969824928723886
 30
0.0
 11
-66.34125
 21
3.969824928723836
 31
0.0
  0
LINE
  5
CF
330
CB
100
AcDbEntity
  8
0
  6
Continuous
 62
     0
370
    -2
100
AcDbLine
 10
-52.76874999999998
 20
-3.9676750712761
 30
0.0
 11
-66.34124999999997
 21
-3.96767507127615
 31
0.0
  0
LINE
  5
D0
330
CB
100
AcDbEntity
  8
0
  6
Continuous
 62
     0
370
    -2
100
AcDbLine
 10
-66.34124999999999
 20
0.667824928723836
 30
0.0
 11
-66.34124999999999
 21
-0.6656750712761506
 31
0.0
  0
SOLID
  5
D1
330
CB
100
AcDbEntity
  8
0
 62
     0
100
AcDbTrace
 10
-65.79091666666666
 20
0.667824928723838
 30
0.0
 11
-66.89158333333332
 21
0.667824928723834
 31
0.0
 12
-66.34125
 22
3.969824928723836
 32
0.0
 13
-66.34125
 23
3.969824928723836
 33
0.0
  0
SOLID
  5
D2
330
CB
100
AcDbEntity
  8
0
 62
     0
100
AcDbTrace
 10
-66.89158333333332
 20
-0.6656750712761526
 30
0.0
 11
-65.79091666666666
 21
-0.6656750712761486
 31
0.0
 12
-66.34124999999997
 22
-3.96767507127615
 32
0.0
 13
-66.34124999999997
 23
-3.96767507127615
 33
0.0
  0
MTEXT
  5
D3
330
CB
100
AcDbEntity
  8
0
 62
     0
370
    15
100
AcDbMText
 10
-70.71624999999999
 20
-1.647625843731261
 30
0.0
 40
3.5
 41
0.0
 71
     2
 72
     1
  1
\A1;%%c7.94 [5/16]
  7
SLDTEXTSTYLE0
 11
-3.580687802255629E-15
 21
1.0
 31
0.0
 73
     1
 44
1.0
  0
POINT
  5
D4
330
CB
100
AcDbEntity
  8
Defpoints
 62
     0
100
AcDbPoint
 10
-52.70624999999998
 20
3.969824928723886
 30
0.0
  0
POINT
  5
D5
330
CB
100
AcDbEntity
  8
Defpoints
 62
     0
100
AcDbPoint
 10
-52.70624999999998
 20
-3.9676750712761
 30
0.0
  0
POINT
  5
D6
330
CB
100
AcDbEntity
  8
Defpoints
 62
     0
100
AcDbPoint
 10
-66.34124999999997
 20
-3.967675071276151
 30
0.0
  0
ENDBLK
  5
CD
330
CB
100
AcDbEntity
  8
0
100
AcDbBlockEnd
  0
BLOCK
  5
DA
330
D9
100
AcDbEntity
  8
0
100
AcDbBlockBegin
  2
_D_1
 70
     0
 10
0.0
 20
0.0
 30
0.0
  3
_D_1
  1
_D_1
  0
LINE
  5
DC
330
D9
100
AcDbEntity
  8
0
  6
Continuous
 62
     0
370
    -2
100
AcDbLine
 10
22.70000000000002
 20
4.032324928723916
 30
0.0
 11
22.70000000000002
 21
30.59532293609584
 31
0.0
  0
LINE
  5
DD
330
D9
100
AcDbEntity
  8
0
  6
Continuous
 62
     0
370
    -2
100
AcDbLine
 10
-53.49999999999999
 20
3.238574928723895
 30
0.0
 11
-53.49999999999999
 21
30.59532293609584
 31
0.0
  0
LINE
  5
DE
330
D9
100
AcDbEntity
  8
0
  6
Continuous
 62
     0
370
    -2
100
AcDbLine
 10
19.39800000000002
 20
30.59532293609584
 30
0.0
 11
-50.19799999999999
 21
30.59532293609584
 31
0.0
  0
SOLID
  5
DF
330
D9
100
AcDbEntity
  8
0
 62
     0
100
AcDbTrace
 10
19.39800000000002
 20
30.04498960276251
 30
0.0
 11
19.39800000000002
 21
31.14565626942917
 31
0.0
 12
22.70000000000002
 22
30.59532293609584
 32
0.0
 13
22.70000000000002
 23
30.59532293609584
 33
0.0
  0
SOLID
  5
E0
330
D9
100
AcDbEntity
  8
0
 62
     0
100
AcDbTrace
 10
-50.19799999999999
 20
31.14565626942917
 30
0.0
 11
-50.19799999999999
 21
30.04498960276251
 31
0.0
 12
-53.49999999999999
 22
30.59532293609584
 32
0.0
 13
-53.49999999999999
 23
30.59532293609584
 33
0.0
  0
MTEXT
  5
E1
330
D9
100
AcDbEntity
  8
0
 62
     0
370
    15
100
AcDbMText
 10
-15.39999999999998
 20
34.97032293609584
 30
0.0
 40
3.5
 41
0.0
 71
     2
 72
     1
  1
\A1;76.20 [3]
  7
SLDTEXTSTYLE0
 73
     1
 44
1.0
  0
POINT
  5
E2
330
D9
100
AcDbEntity
  8
Defpoints
 62
     0
100
AcDbPoint
 10
22.70000000000002
 20
3.969824928723916
 30
0.0
  0
POINT
  5
E3
330
D9
100
AcDbEntity
  8
Defpoints
 62
     0
100
AcDbPoint
 10
-53.49999999999999
 20
3.176074928723895
 30
0.0
  0
POINT
  5
E4
330
D9
100
AcDbEntity
  8
Defpoints
 62
     0
100
AcDbPoint
 10
-53.49999999999999
 20
30.59532293609584
 30
0.0
  0
ENDBLK
  5
DB
330
D9
100
AcDbEntity
  8
0
100
AcDbBlockEnd
  0
BLOCK
  5
EE
330
ED
100
AcDbEntity
  8
0
100
AcDbBlockBegin
  2
_D_2
 70
     0
 10
0.0
 20
0.0
 30
0.0
  3
_D_2
  1
_D_2
  0
LINE
  5
F0
330
ED
100
AcDbEntity
  8
0
  6
Continuous
 62
     0
370
    -2
100
AcDbLine
 10
22.70000000000002
 20
4.032324928723916
 30
0.0
 11
22.70000000000002
 21
13.7337570371727
 31
0.0
  0
LINE
  5
F1
330
ED
100
AcDbEntity
  8
0
  6
Continuous
 62
     0
370
    -2
100
AcDbLine
 10
9.999999999999988
 20
3.774502986780216
 30
0.0
 11
9.999999999999988
 21
13.7337570371727
 31
0.0
  0
LINE
  5
F2
330
ED
100
AcDbEntity
  8
0
  6
Continuous
 62
     0
370
    -2
100
AcDbLine
 10
19.39800000000002
 20
13.7337570371727
 30
0.0
 11
13.30199999999999
 21
13.7337570371727
 31
0.0
  0
SOLID
  5
F3
330
ED
100
AcDbEntity
  8
0
 62
     0
100
AcDbTrace
 10
19.39800000000002
 20
13.18342370383936
 30
0.0
 11
19.39800000000002
 21
14.28409037050603
 31
0.0
 12
22.70000000000002
 22
13.7337570371727
 32
0.0
 13
22.70000000000002
 23
13.7337570371727
 33
0.0
  0
SOLID
  5
F4
330
ED
100
AcDbEntity
  8
0
 62
     0
100
AcDbTrace
 10
13.30199999999999
 20
14.28409037050603
 30
0.0
 11
13.30199999999999
 21
13.18342370383936
 31
0.0
 12
9.999999999999988
 22
13.7337570371727
 32
0.0
 13
9.999999999999988
 23
13.7337570371727
 33
0.0
  0
MTEXT
  5
F5
330
ED
100
AcDbEntity
  8
0
 62
     0
370
    15
100
AcDbMText
 10
16.34999999999994
 20
18.10875703717269
 30
0.0
 40
3.5
 41
0.0
 71
     2
 72
     1
  1
\A1;12.70 [1/2]
  7
SLDTEXTSTYLE0
 73
     1
 44
1.0
  0
POINT
  5
F6
330
ED
100
AcDbEntity
  8
Defpoints
 62
     0
100
AcDbPoint
 10
22.70000000000002
 20
3.969824928723916
 30
0.0
  0
POINT
  5
F7
330
ED
100
AcDbEntity
  8
Defpoints
 62
     0
100
AcDbPoint
 10
9.999999999999988
 20
3.712002986780216
 30
0.0
  0
POINT
  5
F8
330
ED
100
AcDbEntity
  8
Defpoints
 62
     0
100
AcDbPoint
 10
9.999999999999988
 20
13.7337570371727
 30
0.0
  0
ENDBLK
  5
EF
330
ED
100
AcDbEntity
  8
0
100
AcDbBlockEnd
  0
BLOCK
  5
104
330
103
100
AcDbEntity
  8
0
100
AcDbBlockBegin
  2
_D_3
 70
     0
 10
0.0
 20
0.0
 30
0.0
  3
_D_3
  1
_D_3
  0
LINE
  5
106
330
103
100
AcDbEntity
  8
0
  6
Continuous
 62
     0
370
    -2
100
AcDbLine
 10
22.76250000000002
 20
3.969824928723917
 30
0.0
 11
40.14107629384316
 21
3.96982492872398
 31
0.0
  0
LINE
  5
107
330
103
100
AcDbEntity
  8
0
  6
Continuous
 62
     0
370
    -2
100
AcDbLine
 10
22.76250000000002
 20
-3.96767507127608
 30
0.0
 11
40.14107629384319
 21
-3.967675071276016
 31
0.0
  0
LINE
  5
108
330
103
100
AcDbEntity
  8
0
  6
Continuous
 62
     0
370
    -2
100
AcDbLine
 10
40.14107629384316
 20
3.96982492872398
 30
0.0
 11
40.14107629384304
 21
38.57382492872398
 31
0.0
  0
LINE
  5
109
330
103
100
AcDbEntity
  8
0
  6
Continuous
 62
     0
370
    -2
100
AcDbLine
 10
40.14107629384316
 20
3.96982492872398
 30
0.0
 11
40.14107629384319
 21
-3.967675071276016
 31
0.0
  0
LINE
  5
10A
330
103
100
AcDbEntity
  8
0
  6
Continuous
 62
     0
370
    -2
100
AcDbLine
 10
40.14107629384315
 20
7.27182492872398
 30
0.0
 11
40.14107629384313
 21
10.57382492872398
 31
0.0
  0
LINE
  5
10B
330
103
100
AcDbEntity
  8
0
  6
Continuous
 62
     0
370
    -2
100
AcDbLine
 10
40.14107629384321
 20
-7.269675071276016
 30
0.0
 11
40.14107629384322
 21
-10.57167507127602
 31
0.0
  0
SOLID
  5
10C
330
103
100
AcDbEntity
  8
0
 62
     0
100
AcDbTrace
 10
39.59074296050981
 20
7.271824928723978
 30
0.0
 11
40.69140962717648
 21
7.271824928723982
 31
0.0
 12
40.14107629384316
 22
3.96982492872398
 32
0.0
 13
40.14107629384316
 23
3.96982492872398
 33
0.0
  0
SOLID
  5
10D
330
103
100
AcDbEntity
  8
0
 62
     0
100
AcDbTrace
 10
40.69140962717654
 20
-7.269675071276014
 30
0.0
 11
39.59074296050987
 21
-7.269675071276017
 31
0.0
 12
40.14107629384319
 22
-3.967675071276016
 32
0.0
 13
40.14107629384319
 23
-3.967675071276016
 33
0.0
  0
MTEXT
  5
10E
330
103
100
AcDbEntity
  8
0
 62
     0
370
    15
100
AcDbMText
 10
35.76607629384309
 20
24.57382492872396
 30
0.0
 40
3.5
 41
0.0
 71
     2
 72
     1
  1
\A1;%%c7.94 [5/16]
  7
SLDTEXTSTYLE0
 11
-3.580687802255625E-15
 21
1.0
 31
0.0
 73
     1
 44
1.0
  0
POINT
  5
10F
330
103
100
AcDbEntity
  8
Defpoints
 62
     0
100
AcDbPoint
 10
22.70000000000002
 20
3.969824928723916
 30
0.0
  0
POINT
  5
110
330
103
100
AcDbEntity
  8
Defpoints
 62
     0
100
AcDbPoint
 10
22.70000000000002
 20
-3.96767507127608
 30
0.0
  0
POINT
  5
25B
330
103
100
AcDbEntity
  8
Defpoints
 62
     0
100
AcDbPoint
 10
40.14107629384319
 20
-3.967675071276015
 30
0.0
  0
ENDBLK
  5
105
330
103
100
AcDbEntity
  8
0
100
AcDbBlockEnd
  0
BLOCK
  5
11D
330
11C
100
AcDbEntity
  8
0
100
AcDbBlockBegin
  2
SW_DOWELSYMBOL_0
 70
     0
 10
0.0
 20
0.0
 30
0.0
  3
SW_DOWELSYMBOL_0
  1
SW_DOWELSYMBOL_0
  0
CIRCLE
  5
11F
330
11C
100
AcDbEntity
  8
해칭선
 62
     0
100
AcDbCircle
 10
0.0
 20
0.0
 30
0.0
 40
3.000000000000001
  0
HATCH
  5
120
330
11C
100
AcDbEntity
  8
0
  6
Continuous
 62
     0
370
     0
100
AcDbHatch
 10
0.0
 20
0.0
 30
0.0
210
0.0
220
0.0
230
1.0
  2
SOLID
 70
     1
 71
     0
 91
        1
 92
        0
 93
        3
 72
     2
 10
-0.0000000000000069
 20
0.0
 40
3.000000000000001
 50
0.0
 51
90.0
 73
     1
 72
     1
 10
-0.0000000000000069
 20
3.000000000000001
 11
-0.0000000000000069
 21
0.0
 72
     1
 10
-0.0000000000000069
 20
0.0
 11
2.999999999999994
 21
0.0
 97
        0
 75
     0
 76
     1
 98
        1
 10
0.0
 20
0.0
  0
HATCH
  5
121
330
11C
100
AcDbEntity
  8
0
  6
Continuous
 62
     0
370
     0
100
AcDbHatch
 10
0.0
 20
0.0
 30
0.0
210
0.0
220
0.0
230
1.0
  2
SOLID
 70
     1
 71
     0
 91
        1
 92
        0
 93
        3
 72
     2
 10
-0.0000000000000069
 20
0.0
 40
3.000000000000001
 50
180.0
 51
270.0000000000007
 73
     1
 72
     1
 10
-0.0000000000000069
 20
-3.000000000000001
 11
-0.0000000000000069
 21
0.0
 72
     1
 10
-0.0000000000000069
 20
0.0
 11
-3.000000000000008
 21
0.0
 97
        0
 75
     0
 76
     1
 98
        1
 10
0.0
 20
0.0
  0
ENDBLK
  5
11E
330
11C
100
AcDbEntity
  8
0
100
AcDbBlockEnd
  0
BLOCK
  5
19B
330
19A
100
AcDbEntity
  8
0
100
AcDbBlockBegin
  2
*D7
 70
     1
 10
0.0
 20
0.0
 30
0.0
  3
*D7
  1
*D8
  0
LINE
  5
19C
330
19A
100
AcDbEntity
  8
0
  6
Continuous
 62
     0
370
    -2
100
AcDbLine
 10
17.94750000000006
 20
36.13369536143481
 30
0.0
 11
4.375000000000027
 21
36.13369536143476
 31
0.0
  0
LINE
  5
19D
330
19A
100
AcDbEntity
  8
0
  6
Continuous
 62
     0
370
    -2
100
AcDbLine
 10
17.94750000000006
 20
29.78369536143478
 30
0.0
 11
4.375000000000049
 21
29.78369536143473
 31
0.0
  0
LINE
  5
19E
330
19A
100
AcDbEntity
  8
0
  6
Continuous
 62
     0
370
    -2
100
AcDbLine
 10
4.375000000000038
 20
32.83169536143476
 30
0.0
 11
4.375000000000037
 21
33.08569536143473
 31
0.0
  0
SOLID
  5
19F
330
19A
100
AcDbEntity
  8
0
 62
     0
100
AcDbTrace
 10
4.925333333333372
 20
32.83169536143476
 30
0.0
 11
3.824666666666705
 21
32.83169536143476
 31
0.0
 12
4.375000000000027
 22
36.13369536143476
 32
0.0
 13
4.375000000000027
 23
36.13369536143476
 33
0.0
  0
SOLID
  5
1A0
330
19A
100
AcDbEntity
  8
0
 62
     0
100
AcDbTrace
 10
3.824666666666704
 20
33.08569536143473
 30
0.0
 11
4.925333333333371
 21
33.08569536143473
 31
0.0
 12
4.375000000000049
 22
29.78369536143473
 32
0.0
 13
4.375000000000049
 23
29.78369536143473
 33
0.0
  0
MTEXT
  5
1A1
330
19A
100
AcDbEntity
  8
0
 62
     0
370
    15
100
AcDbMText
 10
0.0000000000000426
 20
31.63973474347069
 30
0.0
 40
3.5
 41
0.0
 71
     2
 72
     1
  1
\A1;%%c6.35 [1/4]
  7
SLDTEXTSTYLE0
 11
-3.496765431890242E-15
 21
1.0
 31
0.0
 73
     1
 44
1.0
  0
POINT
  5
1A2
330
19A
100
AcDbEntity
  8
Defpoints
 62
     0
100
AcDbPoint
 10
18.01000000000006
 20
36.13369536143481
 30
0.0
  0
POINT
  5
1A3
330
19A
100
AcDbEntity
  8
Defpoints
 62
     0
100
AcDbPoint
 10
18.01000000000006
 20
29.78369536143478
 30
0.0
  0
POINT
  5
1A4
330
19A
100
AcDbEntity
  8
Defpoints
 62
     0
100
AcDbPoint
 10
4.375000000000057
 20
29.78369536143473
 30
0.0
  0
ENDBLK
  5
1A5
330
19A
100
AcDbEntity
  8
0
100
AcDbBlockEnd
  0
BLOCK
  5
1A8
330
1A7
100
AcDbEntity
  8
0
100
AcDbBlockBegin
  2
*D8
 70
     1
 10
0.0
 20
0.0
 30
0.0
  3
*D8
  1
*D9
  0
LINE
  5
1A9
330
1A7
100
AcDbEntity
  8
0
  6
Continuous
 62
     0
370
    -2
100
AcDbLine
 10
93.57500000000007
 20
36.1961953614348
 30
0.0
 11
93.57500000000007
 21
63.01940000797347
 31
0.0
  0
LINE
  5
1AA
330
1A7
100
AcDbEntity
  8
0
  6
Continuous
 62
     0
370
    -2
100
AcDbLine
 10
17.37500000000006
 20
35.5611953614348
 30
0.0
 11
17.37500000000006
 21
63.01940000797347
 31
0.0
  0
LINE
  5
1AB
330
1A7
100
AcDbEntity
  8
0
  6
Continuous
 62
     0
370
    -2
100
AcDbLine
 10
90.27300000000008
 20
63.01940000797347
 30
0.0
 11
20.67700000000006
 21
63.01940000797347
 31
0.0
  0
SOLID
  5
1AC
330
1A7
100
AcDbEntity
  8
0
 62
     0
100
AcDbTrace
 10
90.27300000000008
 20
62.46906667464013
 30
0.0
 11
90.27300000000008
 21
63.5697333413068
 31
0.0
 12
93.57500000000007
 22
63.01940000797347
 32
0.0
 13
93.57500000000007
 23
63.01940000797347
 33
0.0
  0
SOLID
  5
1AD
330
1A7
100
AcDbEntity
  8
0
 62
     0
100
AcDbTrace
 10
20.67700000000006
 20
63.5697333413068
 30
0.0
 11
20.67700000000006
 21
62.46906667464013
 31
0.0
 12
17.37500000000006
 22
63.01940000797347
 32
0.0
 13
17.37500000000006
 23
63.01940000797347
 33
0.0
  0
MTEXT
  5
1AE
330
1A7
100
AcDbEntity
  8
0
 62
     0
370
    15
100
AcDbMText
 10
55.47500000000008
 20
67.39440000797347
 30
0.0
 40
3.5
 41
0.0
 71
     2
 72
     1
  1
\A1;76.20 [3]
  7
SLDTEXTSTYLE0
 73
     1
 44
1.0
  0
POINT
  5
1AF
330
1A7
100
AcDbEntity
  8
Defpoints
 62
     0
100
AcDbPoint
 10
93.57500000000007
 20
36.1336953614348
 30
0.0
  0
POINT
  5
1B0
330
1A7
100
AcDbEntity
  8
Defpoints
 62
     0
100
AcDbPoint
 10
17.37500000000006
 20
35.4986953614348
 30
0.0
  0
POINT
  5
1B1
330
1A7
100
AcDbEntity
  8
Defpoints
 62
     0
100
AcDbPoint
 10
17.37500000000006
 20
63.01940000797347
 30
0.0
  0
ENDBLK
  5
1B2
330
1A7
100
AcDbEntity
  8
0
100
AcDbBlockEnd
  0
BLOCK
  5
1B5
330
1B4
100
AcDbEntity
  8
0
100
AcDbBlockBegin
  2
*D9
 70
     1
 10
0.0
 20
0.0
 30
0.0
  3
*D9
  1
*D10
  0
LINE
  5
1B6
330
1B4
100
AcDbEntity
  8
0
  6
Continuous
 62
     0
370
    -2
100
AcDbLine
 10
93.57500000000007
 20
36.1961953614348
 30
0.0
 11
93.57500000000007
 21
46.15783410905038
 31
0.0
  0
LINE
  5
1B7
330
1B4
100
AcDbEntity
  8
0
  6
Continuous
 62
     0
370
    -2
100
AcDbLine
 10
80.87500000000006
 20
35.95229471864221
 30
0.0
 11
80.87500000000006
 21
46.15783410905038
 31
0.0
  0
LINE
  5
1B8
330
1B4
100
AcDbEntity
  8
0
  6
Continuous
 62
     0
370
    -2
100
AcDbLine
 10
90.27300000000008
 20
46.15783410905038
 30
0.0
 11
84.17700000000005
 21
46.15783410905038
 31
0.0
  0
SOLID
  5
1B9
330
1B4
100
AcDbEntity
  8
0
 62
     0
100
AcDbTrace
 10
90.27300000000008
 20
45.60750077571704
 30
0.0
 11
90.27300000000008
 21
46.70816744238371
 31
0.0
 12
93.57500000000007
 22
46.15783410905038
 32
0.0
 13
93.57500000000007
 23
46.15783410905038
 33
0.0
  0
SOLID
  5
1BA
330
1B4
100
AcDbEntity
  8
0
 62
     0
100
AcDbTrace
 10
84.17700000000005
 20
46.70816744238371
 30
0.0
 11
84.17700000000005
 21
45.60750077571704
 31
0.0
 12
80.87500000000006
 22
46.15783410905038
 32
0.0
 13
80.87500000000006
 23
46.15783410905038
 33
0.0
  0
MTEXT
  5
1BB
330
1B4
100
AcDbEntity
  8
0
 62
     0
370
    15
100
AcDbMText
 10
87.22500000000008
 20
50.53283410905038
 30
0.0
 40
3.5
 41
0.0
 71
     2
 72
     1
  1
\A1;12.70 [1/2]
  7
SLDTEXTSTYLE0
 73
     1
 44
1.0
  0
POINT
  5
1BC
330
1B4
100
AcDbEntity
  8
Defpoints
 62
     0
100
AcDbPoint
 10
93.57500000000007
 20
36.1336953614348
 30
0.0
  0
POINT
  5
1BD
330
1B4
100
AcDbEntity
  8
Defpoints
 62
     0
100
AcDbPoint
 10
80.87500000000006
 20
35.88979471864221
 30
0.0
  0
POINT
  5
1BE
330
1B4
100
AcDbEntity
  8
Defpoints
 62
     0
100
AcDbPoint
 10
80.87500000000006
 20
46.15783410905038
 30
0.0
  0
ENDBLK
  5
1BF
330
1B4
100
AcDbEntity
  8
0
100
AcDbBlockEnd
  0
BLOCK
  5
1C2
330
1C1
100
AcDbEntity
  8
0
100
AcDbBlockBegin
  2
*D10
 70
     1
 10
0.0
 20
0.0
 30
0.0
  3
*D10
  1
*D11
  0
LINE
  5
1C3
330
1C1
100
AcDbEntity
  8
0
  6
Continuous
 62
     0
370
    -2
100
AcDbLine
 10
93.63750000000007
 20
36.1336953614348
 30
0.0
 11
112.5750000000002
 21
36.13369536143487
 31
0.0
  0
LINE
  5
1C4
330
1C1
100
AcDbEntity
  8
0
  6
Continuous
 62
     0
370
    -2
100
AcDbLine
 10
93.63750000000007
 20
29.78369536143481
 30
0.0
 11
112.5750000000002
 21
29.78369536143488
 31
0.0
  0
LINE
  5
1C5
330
1C1
100
AcDbEntity
  8
0
  6
Continuous
 62
     0
370
    -2
100
AcDbLine
 10
112.5750000000002
 20
36.13369536143487
 30
0.0
 11
112.575
 21
68.7689453614349
 31
0.0
  0
LINE
  5
1C6
330
1C1
100
AcDbEntity
  8
0
  6
Continuous
 62
     0
370
    -2
100
AcDbLine
 10
112.5750000000001
 20
39.43569536143487
 30
0.0
 11
112.5750000000001
 21
42.73769536143487
 31
0.0
  0
LINE
  5
1C7
330
1C1
100
AcDbEntity
  8
0
  6
Continuous
 62
     0
370
    -2
100
AcDbLine
 10
112.5750000000002
 20
26.48169536143488
 30
0.0
 11
112.5750000000002
 21
23.17969536143488
 31
0.0
  0
SOLID
  5
1C8
330
1C1
100
AcDbEntity
  8
0
 62
     0
100
AcDbTrace
 10
112.0246666666668
 20
39.43569536143487
 30
0.0
 11
113.1253333333335
 21
39.43569536143487
 31
0.0
 12
112.5750000000002
 22
36.13369536143487
 32
0.0
 13
112.5750000000002
 23
36.13369536143487
 33
0.0
  0
SOLID
  5
1C9
330
1C1
100
AcDbEntity
  8
0
 62
     0
100
AcDbTrace
 10
113.1253333333335
 20
26.48169536143489
 30
0.0
 11
112.0246666666669
 21
26.48169536143488
 31
0.0
 12
112.5750000000002
 22
29.78369536143488
 32
0.0
 13
112.5750000000002
 23
29.78369536143488
 33
0.0
  0
MTEXT
  5
1CA
330
1C1
100
AcDbEntity
  8
0
 62
     0
370
    15
100
AcDbMText
 10
108.2000000000001
 20
56.08144536143487
 30
0.0
 40
3.5
 41
0.0
 71
     2
 72
     1
  1
\A1;%%c6.35 [1/4]
  7
SLDTEXTSTYLE0
 11
-4.475859752819535E-15
 21
1.0
 31
0.0
 73
     1
 44
1.0
  0
POINT
  5
1CB
330
1C1
100
AcDbEntity
  8
Defpoints
 62
     0
100
AcDbPoint
 10
93.57500000000007
 20
36.1336953614348
 30
0.0
  0
POINT
  5
1CC
330
1C1
100
AcDbEntity
  8
Defpoints
 62
     0
100
AcDbPoint
 10
93.57500000000007
 20
29.78369536143481
 30
0.0
  0
POINT
  5
1CD
330
1C1
100
AcDbEntity
  8
Defpoints
 62
     0
100
AcDbPoint
 10
112.5750000000002
 20
29.78369536143488
 30
0.0
  0
ENDBLK
  5
1CF
330
1C1
100
AcDbEntity
  8
0
100
AcDbBlockEnd
  0
BLOCK
  5
1DE
330
1DD
100
AcDbEntity
  8
0
100
AcDbBlockBegin
  2
*D11
 70
     1
 10
0.0
 20
0.0
 30
0.0
  3
*D11
  1
*D12
  0
LINE
  5
1DF
330
1DD
100
AcDbEntity
  8
0
  6
Continuous
 62
     0
370
    -2
100
AcDbLine
 10
94.92110592405886
 20
26.96327362998758
 30
0.0
 11
109.941067155847
 21
0.0000000000000444
 31
0.0
  0
MTEXT
  5
1E0
330
1DD
100
AcDbEntity
  8
0
 62
     0
370
    15
100
AcDbMText
 10
105.5277363892102
 20
13.31675591526546
 30
0.0
 40
3.5
 41
0.0
 71
     5
 72
     1
  1
\A1;R.51 [R0.020]
  7
SLDTEXTSTYLE0
 11
0.4866419748185829
 21
-0.8736015043168537
 31
0.0
 73
     1
 44
1.0
  0
SOLID
  5
1E1
330
1DD
100
AcDbEntity
  8
0
 62
     0
100
AcDbTrace
 10
95.40187795193457
 20
27.23108893012941
 30
0.0
 11
94.44033389618316
 21
26.69545832984575
 31
0.0
 12
93.3142141232079
 22
29.84790579724183
 32
0.0
 13
93.3142141232079
 23
29.84790579724183
 33
0.0
  0
LINE
  5
1E2
330
1DD
100
AcDbEntity
  8
0
  6
Continuous
 62
     0
370
    15
100
AcDbLine
 10
92.97700000000006
 20
30.29169536143479
 30
0.0
 11
93.15700000000007
 21
30.29169536143479
 31
0.0
  0
LINE
  5
1E3
330
1DD
100
AcDbEntity
  8
0
  6
Continuous
 62
     0
370
    15
100
AcDbLine
 10
93.06700000000006
 20
30.20169536143479
 30
0.0
 11
93.06700000000006
 21
30.38169536143479
 31
0.0
  0
POINT
  5
1E4
330
1DD
100
AcDbEntity
  8
Defpoints
 62
     0
100
AcDbPoint
 10
93.3142141232079
 20
29.84790579724183
 30
0.0
  0
POINT
  5
1EB
330
1DD
100
AcDbEntity
  8
Defpoints
 62
     0
100
AcDbPoint
 10
93.06700000000006
 20
30.29169536143479
 30
0.0
  0
ENDBLK
  5
1E5
330
1DD
100
AcDbEntity
  8
0
100
AcDbBlockEnd
  0
BLOCK
  5
220
330
21F
100
AcDbEntity
  8
0
100
AcDbBlockBegin
  2
*D12
 70
     1
 10
0.0
 20
0.0
 30
0.0
  3
*D12
  1
*D13
  0
LINE
  5
222
330
21F
100
AcDbEntity
  8
0
  6
Continuous
 62
     0
370
    -2
100
AcDbLine
 10
64.43987933873466
 20
-3.081143612833003
 30
0.0
 11
50.86737933873462
 21
-3.081143612833054
 31
0.0
  0
LINE
  5
223
330
21F
100
AcDbEntity
  8
0
  6
Continuous
 62
     0
370
    -2
100
AcDbLine
 10
64.43987933873466
 20
-9.43114361283303
 30
0.0
 11
50.86737933873464
 21
-9.431143612833079
 31
0.0
  0
LINE
  5
224
330
21F
100
AcDbEntity
  8
0
  6
Continuous
 62
     0
370
    -2
100
AcDbLine
 10
50.86737933873464
 20
-6.383143612833053
 30
0.0
 11
50.86737933873463
 21
-6.129143612833079
 31
0.0
  0
SOLID
  5
225
330
21F
100
AcDbEntity
  8
0
 62
     0
100
AcDbTrace
 10
51.41771267206797
 20
-6.383143612833051
 30
0.0
 11
50.3170460054013
 21
-6.383143612833055
 31
0.0
 12
50.86737933873462
 22
-3.081143612833054
 32
0.0
 13
50.86737933873462
 23
-3.081143612833054
 33
0.0
  0
SOLID
  5
226
330
21F
100
AcDbEntity
  8
0
 62
     0
100
AcDbTrace
 10
50.31704600540129
 20
-6.129143612833081
 30
0.0
 11
51.41771267206796
 21
-6.129143612833078
 31
0.0
 12
50.86737933873464
 22
-9.431143612833079
 32
0.0
 13
50.86737933873464
 23
-9.431143612833079
 33
0.0
  0
MTEXT
  5
227
330
21F
100
AcDbEntity
  8
0
 62
     0
370
    15
100
AcDbMText
 10
46.49237933873464
 20
-7.575104230797123
 30
0.0
 40
3.5
 41
0.0
 71
     2
 72
     1
  1
\A1;%%c6.35 [1/4]
  7
SLDTEXTSTYLE0
 11
-3.356894814614632E-15
 21
1.0
 31
0.0
 73
     1
 44
1.0
  0
POINT
  5
228
330
21F
100
AcDbEntity
  8
Defpoints
 62
     0
100
AcDbPoint
 10
64.50237933873466
 20
-3.081143612833003
 30
0.0
  0
POINT
  5
229
330
21F
100
AcDbEntity
  8
Defpoints
 62
     0
100
AcDbPoint
 10
64.50237933873466
 20
-9.43114361283303
 30
0.0
  0
POINT
  5
22A
330
21F
100
AcDbEntity
  8
Defpoints
 62
     0
100
AcDbPoint
 10
50.86737933873464
 20
-9.43114361283308
 30
0.0
  0
ENDBLK
  5
221
330
21F
100
AcDbEntity
  8
0
100
AcDbBlockEnd
  0
BLOCK
  5
22C
330
22B
100
AcDbEntity
  8
0
100
AcDbBlockBegin
  2
*D13
 70
     1
 10
0.0
 20
0.0
 30
0.0
  3
*D13
  1
*D14
  0
LINE
  5
22E
330
22B
100
AcDbEntity
  8
0
  6
Continuous
 62
     0
370
    -2
100
AcDbLine
 10
140.0673793387347
 20
-3.01864361283301
 30
0.0
 11
140.0673793387347
 21
23.80456103370565
 31
0.0
  0
LINE
  5
22F
330
22B
100
AcDbEntity
  8
0
  6
Continuous
 62
     0
370
    -2
100
AcDbLine
 10
63.86737933873465
 20
-3.653643612833015
 30
0.0
 11
63.86737933873465
 21
23.80456103370565
 31
0.0
  0
LINE
  5
230
330
22B
100
AcDbEntity
  8
0
  6
Continuous
 62
     0
370
    -2
100
AcDbLine
 10
136.7653793387347
 20
23.80456103370565
 30
0.0
 11
67.16937933873464
 21
23.80456103370565
 31
0.0
  0
SOLID
  5
231
330
22B
100
AcDbEntity
  8
0
 62
     0
100
AcDbTrace
 10
136.7653793387347
 20
23.25422770037232
 30
0.0
 11
136.7653793387347
 21
24.35489436703899
 31
0.0
 12
140.0673793387347
 22
23.80456103370565
 32
0.0
 13
140.0673793387347
 23
23.80456103370565
 33
0.0
  0
SOLID
  5
232
330
22B
100
AcDbEntity
  8
0
 62
     0
100
AcDbTrace
 10
67.16937933873464
 20
24.35489436703899
 30
0.0
 11
67.16937933873464
 21
23.25422770037232
 31
0.0
 12
63.86737933873465
 22
23.80456103370565
 32
0.0
 13
63.86737933873465
 23
23.80456103370565
 33
0.0
  0
MTEXT
  5
233
330
22B
100
AcDbEntity
  8
0
 62
     0
370
    15
100
AcDbMText
 10
101.9673793387347
 20
28.17956103370565
 30
0.0
 40
3.5
 41
0.0
 71
     2
 72
     1
  1
\A1;76.20 [3]
  7
SLDTEXTSTYLE0
 73
     1
 44
1.0
  0
POINT
  5
234
330
22B
100
AcDbEntity
  8
Defpoints
 62
     0
100
AcDbPoint
 10
140.0673793387347
 20
-3.08114361283301
 30
0.0
  0
POINT
  5
235
330
22B
100
AcDbEntity
  8
Defpoints
 62
     0
100
AcDbPoint
 10
63.86737933873465
 20
-3.716143612833015
 30
0.0
  0
POINT
  5
236
330
22B
100
AcDbEntity
  8
Defpoints
 62
     0
100
AcDbPoint
 10
63.86737933873465
 20
23.80456103370565
 30
0.0
  0
ENDBLK
  5
22D
330
22B
100
AcDbEntity
  8
0
100
AcDbBlockEnd
  0
BLOCK
  5
238
330
237
100
AcDbEntity
  8
0
100
AcDbBlockBegin
  2
*D14
 70
     1
 10
0.0
 20
0.0
 30
0.0
  3
*D14
  1
*D15
  0
LINE
  5
23A
330
237
100
AcDbEntity
  8
0
  6
Continuous
 62
     0
370
    -2
100
AcDbLine
 10
140.0673793387347
 20
-3.01864361283301
 30
0.0
 11
140.0673793387347
 21
6.942995134782564
 31
0.0
  0
LINE
  5
23B
330
237
100
AcDbEntity
  8
0
  6
Continuous
 62
     0
370
    -2
100
AcDbLine
 10
127.3673793387347
 20
-3.262544255625606
 30
0.0
 11
127.3673793387347
 21
6.942995134782564
 31
0.0
  0
LINE
  5
23C
330
237
100
AcDbEntity
  8
0
  6
Continuous
 62
     0
370
    -2
100
AcDbLine
 10
136.7653793387347
 20
6.942995134782564
 30
0.0
 11
130.6693793387346
 21
6.942995134782564
 31
0.0
  0
SOLID
  5
23D
330
237
100
AcDbEntity
  8
0
 62
     0
100
AcDbTrace
 10
136.7653793387347
 20
6.39266180144923
 30
0.0
 11
136.7653793387347
 21
7.493328468115897
 31
0.0
 12
140.0673793387347
 22
6.942995134782564
 32
0.0
 13
140.0673793387347
 23
6.942995134782564
 33
0.0
  0
SOLID
  5
23E
330
237
100
AcDbEntity
  8
0
 62
     0
100
AcDbTrace
 10
130.6693793387346
 20
7.493328468115897
 30
0.0
 11
130.6693793387346
 21
6.39266180144923
 31
0.0
 12
127.3673793387347
 22
6.942995134782564
 32
0.0
 13
127.3673793387347
 23
6.942995134782564
 33
0.0
  0
MTEXT
  5
23F
330
237
100
AcDbEntity
  8
0
 62
     0
370
    15
100
AcDbMText
 10
133.7173793387347
 20
11.31799513478256
 30
0.0
 40
3.5
 41
0.0
 71
     2
 72
     1
  1
\A1;12.70 [1/2]
  7
SLDTEXTSTYLE0
 73
     1
 44
1.0
  0
POINT
  5
240
330
237
100
AcDbEntity
  8
Defpoints
 62
     0
100
AcDbPoint
 10
140.0673793387347
 20
-3.08114361283301
 30
0.0
  0
POINT
  5
241
330
237
100
AcDbEntity
  8
Defpoints
 62
     0
100
AcDbPoint
 10
127.3673793387347
 20
-3.325044255625606
 30
0.0
  0
POINT
  5
242
330
237
100
AcDbEntity
  8
Defpoints
 62
     0
100
AcDbPoint
 10
127.3673793387347
 20
6.942995134782564
 30
0.0
  0
ENDBLK
  5
239
330
237
100
AcDbEntity
  8
0
100
AcDbBlockEnd
  0
BLOCK
  5
244
330
243
100
AcDbEntity
  8
0
100
AcDbBlockBegin
  2
*D15
 70
     1
 10
0.0
 20
0.0
 30
0.0
  3
*D15
  1
*D16
  0
LINE
  5
246
330
243
100
AcDbEntity
  8
0
  6
Continuous
 62
     0
370
    -2
100
AcDbLine
 10
140.1298793387347
 20
-3.08114361283301
 30
0.0
 11
159.0673793387348
 21
-3.081143612832939
 31
0.0
  0
LINE
  5
247
330
243
100
AcDbEntity
  8
0
  6
Continuous
 62
     0
370
    -2
100
AcDbLine
 10
140.1298793387347
 20
-9.431143612833
 30
0.0
 11
159.0673793387348
 21
-9.43114361283293
 31
0.0
  0
LINE
  5
248
330
243
100
AcDbEntity
  8
0
  6
Continuous
 62
     0
370
    -2
100
AcDbLine
 10
159.0673793387348
 20
-3.081143612832939
 30
0.0
 11
159.0673793387346
 21
29.55410638716708
 31
0.0
  0
LINE
  5
249
330
243
100
AcDbEntity
  8
0
  6
Continuous
 62
     0
370
    -2
100
AcDbLine
 10
159.0673793387347
 20
0.2208563871670606
 30
0.0
 11
159.0673793387347
 21
3.52285638716706
 31
0.0
  0
LINE
  5
24A
330
243
100
AcDbEntity
  8
0
  6
Continuous
 62
     0
370
    -2
100
AcDbLine
 10
159.0673793387348
 20
-12.73314361283293
 30
0.0
 11
159.0673793387348
 21
-16.03514361283293
 31
0.0
  0
SOLID
  5
24B
330
243
100
AcDbEntity
  8
0
 62
     0
100
AcDbTrace
 10
158.5170460054014
 20
0.2208563871670581
 30
0.0
 11
159.6177126720681
 21
0.220856387167063
 31
0.0
 12
159.0673793387348
 22
-3.081143612832939
 32
0.0
 13
159.0673793387348
 23
-3.081143612832939
 33
0.0
  0
SOLID
  5
24C
330
243
100
AcDbEntity
  8
0
 62
     0
100
AcDbTrace
 10
159.6177126720681
 20
-12.73314361283293
 30
0.0
 11
158.5170460054015
 21
-12.73314361283293
 31
0.0
 12
159.0673793387348
 22
-9.43114361283293
 32
0.0
 13
159.0673793387348
 23
-9.43114361283293
 33
0.0
  0
MTEXT
  5
24D
330
243
100
AcDbEntity
  8
0
 62
     0
370
    15
100
AcDbMText
 10
154.6923793387347
 20
16.86660638716706
 30
0.0
 40
3.5
 41
0.0
 71
     2
 72
     1
  1
\A1;%%c6.35 [1/4]
  7
SLDTEXTSTYLE0
 11
-4.475859752819535E-15
 21
1.0
 31
0.0
 73
     1
 44
1.0
  0
POINT
  5
24E
330
243
100
AcDbEntity
  8
Defpoints
 62
     0
100
AcDbPoint
 10
140.0673793387347
 20
-3.08114361283301
 30
0.0
  0
POINT
  5
24F
330
243
100
AcDbEntity
  8
Defpoints
 62
     0
100
AcDbPoint
 10
140.0673793387347
 20
-9.431143612833
 30
0.0
  0
POINT
  5
250
330
243
100
AcDbEntity
  8
Defpoints
 62
     0
100
AcDbPoint
 10
159.0673793387348
 20
-9.43114361283293
 30
0.0
  0
ENDBLK
  5
245
330
243
100
AcDbEntity
  8
0
100
AcDbBlockEnd
  0
BLOCK
  5
252
330
251
100
AcDbEntity
  8
0
100
AcDbBlockBegin
  2
*D16
 70
     1
 10
0.0
 20
0.0
 30
0.0
  3
*D16
  1
*D17
  0
LINE
  5
254
330
251
100
AcDbEntity
  8
0
  6
Continuous
 62
     0
370
    -2
100
AcDbLine
 10
141.4134852627935
 20
-12.25156534428023
 30
0.0
 11
156.4334464945816
 21
-39.21483897426777
 31
0.0
  0
MTEXT
  5
255
330
251
100
AcDbEntity
  8
0
 62
     0
370
    15
100
AcDbMText
 10
152.0201157279448
 20
-25.89808305900235
 30
0.0
 40
3.5
 41
0.0
 71
     5
 72
     1
  1
\A1;R.51 [R0.020]
  7
SLDTEXTSTYLE0
 11
0.4866419748185829
 21
-0.8736015043168537
 31
0.0
 73
     1
 44
1.0
  0
SOLID
  5
256
330
251
100
AcDbEntity
  8
0
 62
     0
100
AcDbTrace
 10
141.8942572906692
 20
-11.98375004413841
 30
0.0
 11
140.9327132349178
 21
-12.51938064442206
 31
0.0
 12
139.8065934619425
 22
-9.366933177025984
 32
0.0
 13
139.8065934619425
 23
-9.366933177025984
 33
0.0
  0
LINE
  5
257
330
251
100
AcDbEntity
  8
0
  6
Continuous
 62
     0
370
    15
100
AcDbLine
 10
139.4693793387347
 20
-8.923143612833023
 30
0.0
 11
139.6493793387347
 21
-8.923143612833023
 31
0.0
  0
LINE
  5
258
330
251
100
AcDbEntity
  8
0
  6
Continuous
 62
     0
370
    15
100
AcDbLine
 10
139.5593793387347
 20
-9.013143612833023
 30
0.0
 11
139.5593793387347
 21
-8.833143612833023
 31
0.0
  0
POINT
  5
259
330
251
100
AcDbEntity
  8
Defpoints
 62
     0
100
AcDbPoint
 10
139.8065934619425
 20
-9.366933177025984
 30
0.0
  0
POINT
  5
25A
330
251
100
AcDbEntity
  8
Defpoints
 62
     0
100
AcDbPoint
 10
139.5593793387347
 20
-8.923143612833023
 30
0.0
  0
ENDBLK
  5
253
330
251
100
AcDbEntity
  8
0
100
AcDbBlockEnd
  0
BLOCK
  5
2D4
330
2D3
100
AcDbEntity
  8
0
100
AcDbBlockBegin
  2
*D18
 70
     1
 10
0.0
 20
0.0
 30
0.0
  3
*D18
  1
*D18
  0
LINE
  5
2D5
330
2D3
100
AcDbEntity
  8
0
  6
Continuous
 62
     0
370
    -2
100
AcDbLine
 10
17.94750000000006
 20
43.20218937996853
 30
0.0
 11
4.375000000000037
 21
43.20218937996848
 31
0.0
  0
LINE
  5
2D6
330
2D3
100
AcDbEntity
  8
0
  6
Continuous
 62
     0
370
    -2
100
AcDbLine
 10
17.94750000000006
 20
35.26468937996854
 30
0.0
 11
4.375000000000065
 21
35.26468937996849
 31
0.0
  0
LINE
  5
2D7
330
2D3
100
AcDbEntity
  8
0
  6
Continuous
 62
     0
370
    -2
100
AcDbLine
 10
4.375000000000049
 20
39.90018937996848
 30
0.0
 11
4.375000000000053
 21
38.56668937996849
 31
0.0
  0
SOLID
  5
2D8
330
2D3
100
AcDbEntity
  8
0
 62
     0
100
AcDbTrace
 10
4.925333333333382
 20
39.90018937996848
 30
0.0
 11
3.824666666666715
 21
39.90018937996848
 31
0.0
 12
4.375000000000037
 22
43.20218937996848
 32
0.0
 13
4.375000000000037
 23
43.20218937996848
 33
0.0
  0
SOLID
  5
2D9
330
2D3
100
AcDbEntity
  8
0
 62
     0
100
AcDbTrace
 10
3.82466666666672
 20
38.56668937996849
 30
0.0
 11
4.925333333333387
 21
38.56668937996849
 31
0.0
 12
4.375000000000065
 22
35.26468937996849
 32
0.0
 13
4.375000000000065
 23
35.26468937996849
 33
0.0
  0
MTEXT
  5
2DA
330
2D3
100
AcDbEntity
  8
0
 62
     0
370
    15
100
AcDbMText
 10
0.0000000000000568
 20
37.58473860751339
 30
0.0
 40
3.5
 41
0.0
 71
     2
 72
     1
  1
\A1;%%c7.94 [5/16]
  7
SLDTEXTSTYLE0
 11
-3.468791308435141E-15
 21
1.0
 31
0.0
 73
     1
 44
1.0
  0
POINT
  5
2DB
330
2D3
100
AcDbEntity
  8
Defpoints
 62
     0
100
AcDbPoint
 10
18.01000000000006
 20
43.20218937996853
 30
0.0
  0
POINT
  5
2DC
330
2D3
100
AcDbEntity
  8
Defpoints
 62
     0
100
AcDbPoint
 10
18.01000000000006
 20
35.26468937996854
 30
0.0
  0
POINT
  5
2DD
330
2D3
100
AcDbEntity
  8
Defpoints
 62
     0
100
AcDbPoint
 10
4.375000000000071
 20
35.26468937996849
 30
0.0
  0
ENDBLK
  5
2DE
330
2D3
100
AcDbEntity
  8
0
100
AcDbBlockEnd
  0
BLOCK
  5
2E1
330
2E0
100
AcDbEntity
  8
0
100
AcDbBlockBegin
  2
*D19
 70
     1
 10
0.0
 20
0.0
 30
0.0
  3
*D19
  1
*D19
  0
LINE
  5
2E2
330
2E0
100
AcDbEntity
  8
0
  6
Continuous
 62
     0
370
    -2
100
AcDbLine
 10
93.41625000000006
 20
43.26468937996857
 30
0.0
 11
93.41625000000006
 21
69.82768738734049
 31
0.0
  0
LINE
  5
2E3
330
2E0
100
AcDbEntity
  8
0
  6
Continuous
 62
     0
370
    -2
100
AcDbLine
 10
17.21625000000006
 20
42.47093937996854
 30
0.0
 11
17.21625000000006
 21
69.82768738734049
 31
0.0
  0
LINE
  5
2E4
330
2E0
100
AcDbEntity
  8
0
  6
Continuous
 62
     0
370
    -2
100
AcDbLine
 10
90.11425000000006
 20
69.82768738734049
 30
0.0
 11
20.51825000000006
 21
69.82768738734049
 31
0.0
  0
SOLID
  5
2E5
330
2E0
100
AcDbEntity
  8
0
 62
     0
100
AcDbTrace
 10
90.11425000000006
 20
69.27735405400716
 30
0.0
 11
90.11425000000006
 21
70.37802072067382
 31
0.0
 12
93.41625000000006
 22
69.82768738734049
 32
0.0
 13
93.41625000000006
 23
69.82768738734049
 33
0.0
  0
SOLID
  5
2E6
330
2E0
100
AcDbEntity
  8
0
 62
     0
100
AcDbTrace
 10
20.51825000000006
 20
70.37802072067382
 30
0.0
 11
20.51825000000006
 21
69.27735405400716
 31
0.0
 12
17.21625000000006
 22
69.82768738734049
 32
0.0
 13
17.21625000000006
 23
69.82768738734049
 33
0.0
  0
MTEXT
  5
2E7
330
2E0
100
AcDbEntity
  8
0
 62
     0
370
    15
100
AcDbMText
 10
55.31625000000007
 20
74.20268738734049
 30
0.0
 40
3.5
 41
0.0
 71
     2
 72
     1
  1
\A1;76.20 [3]
  7
SLDTEXTSTYLE0
 73
     1
 44
1.0
  0
POINT
  5
2E8
330
2E0
100
AcDbEntity
  8
Defpoints
 62
     0
100
AcDbPoint
 10
93.41625000000006
 20
43.20218937996857
 30
0.0
  0
POINT
  5
2E9
330
2E0
100
AcDbEntity
  8
Defpoints
 62
     0
100
AcDbPoint
 10
17.21625000000006
 20
42.40843937996854
 30
0.0
  0
POINT
  5
2EA
330
2E0
100
AcDbEntity
  8
Defpoints
 62
     0
100
AcDbPoint
 10
17.21625000000006
 20
69.82768738734049
 30
0.0
  0
ENDBLK
  5
2EB
330
2E0
100
AcDbEntity
  8
0
100
AcDbBlockEnd
  0
BLOCK
  5
2EE
330
2ED
100
AcDbEntity
  8
0
100
AcDbBlockBegin
  2
*D20
 70
     1
 10
0.0
 20
0.0
 30
0.0
  3
*D20
  1
*D20
  0
LINE
  5
2EF
330
2ED
100
AcDbEntity
  8
0
  6
Continuous
 62
     0
370
    -2
100
AcDbLine
 10
93.41625000000006
 20
43.26468937996857
 30
0.0
 11
93.41625000000006
 21
52.96612148841734
 31
0.0
  0
LINE
  5
2F0
330
2ED
100
AcDbEntity
  8
0
  6
Continuous
 62
     0
370
    -2
100
AcDbLine
 10
80.71625000000004
 20
43.00686743802486
 30
0.0
 11
80.71625000000004
 21
52.96612148841734
 31
0.0
  0
LINE
  5
2F1
330
2ED
100
AcDbEntity
  8
0
  6
Continuous
 62
     0
370
    -2
100
AcDbLine
 10
90.11425000000006
 20
52.96612148841734
 30
0.0
 11
84.01825000000005
 21
52.96612148841734
 31
0.0
  0
SOLID
  5
2F2
330
2ED
100
AcDbEntity
  8
0
 62
     0
100
AcDbTrace
 10
90.11425000000006
 20
52.41578815508401
 30
0.0
 11
90.11425000000006
 21
53.51645482175068
 31
0.0
 12
93.41625000000006
 22
52.96612148841734
 32
0.0
 13
93.41625000000006
 23
52.96612148841734
 33
0.0
  0
SOLID
  5
2F3
330
2ED
100
AcDbEntity
  8
0
 62
     0
100
AcDbTrace
 10
84.01825000000005
 20
53.51645482175068
 30
0.0
 11
84.01825000000005
 21
52.41578815508401
 31
0.0
 12
80.71625000000004
 22
52.96612148841734
 32
0.0
 13
80.71625000000004
 23
52.96612148841734
 33
0.0
  0
MTEXT
  5
2F4
330
2ED
100
AcDbEntity
  8
0
 62
     0
370
    15
100
AcDbMText
 10
87.06624999999998
 20
57.34112148841734
 30
0.0
 40
3.5
 41
0.0
 71
     2
 72
     1
  1
\A1;12.70 [1/2]
  7
SLDTEXTSTYLE0
 73
     1
 44
1.0
  0
POINT
  5
2F5
330
2ED
100
AcDbEntity
  8
Defpoints
 62
     0
100
AcDbPoint
 10
93.41625000000006
 20
43.20218937996857
 30
0.0
  0
POINT
  5
2F6
330
2ED
100
AcDbEntity
  8
Defpoints
 62
     0
100
AcDbPoint
 10
80.71625000000004
 20
42.94436743802486
 30
0.0
  0
POINT
  5
2F7
330
2ED
100
AcDbEntity
  8
Defpoints
 62
     0
100
AcDbPoint
 10
80.71625000000004
 20
52.96612148841734
 30
0.0
  0
ENDBLK
  5
2F8
330
2ED
100
AcDbEntity
  8
0
100
AcDbBlockEnd
  0
BLOCK
  5
2FB
330
2FA
100
AcDbEntity
  8
0
100
AcDbBlockBegin
  2
*D21
 70
     1
 10
0.0
 20
0.0
 30
0.0
  3
*D21
  1
*D21
  0
LINE
  5
2FC
330
2FA
100
AcDbEntity
  8
0
  6
Continuous
 62
     0
370
    -2
100
AcDbLine
 10
93.47875000000006
 20
43.20218937996857
 30
0.0
 11
110.8573262938432
 21
43.20218937996863
 31
0.0
  0
LINE
  5
2FD
330
2FA
100
AcDbEntity
  8
0
  6
Continuous
 62
     0
370
    -2
100
AcDbLine
 10
93.47875000000006
 20
35.26468937996857
 30
0.0
 11
110.8573262938432
 21
35.26468937996863
 31
0.0
  0
LINE
  5
2FE
330
2FA
100
AcDbEntity
  8
0
  6
Continuous
 62
     0
370
    -2
100
AcDbLine
 10
110.8573262938432
 20
43.20218937996863
 30
0.0
 11
110.8573262938431
 21
77.80618937996863
 31
0.0
  0
LINE
  5
2FF
330
2FA
100
AcDbEntity
  8
0
  6
Continuous
 62
     0
370
    -2
100
AcDbLine
 10
110.8573262938432
 20
43.20218937996863
 30
0.0
 11
110.8573262938432
 21
35.26468937996863
 31
0.0
  0
LINE
  5
300
330
2FA
100
AcDbEntity
  8
0
  6
Continuous
 62
     0
370
    -2
100
AcDbLine
 10
110.8573262938432
 20
46.50418937996863
 30
0.0
 11
110.8573262938432
 21
49.80618937996863
 31
0.0
  0
LINE
  5
301
330
2FA
100
AcDbEntity
  8
0
  6
Continuous
 62
     0
370
    -2
100
AcDbLine
 10
110.8573262938432
 20
31.96268937996863
 30
0.0
 11
110.8573262938432
 21
28.66068937996863
 31
0.0
  0
SOLID
  5
302
330
2FA
100
AcDbEntity
  8
0
 62
     0
100
AcDbTrace
 10
110.3069929605098
 20
46.50418937996863
 30
0.0
 11
111.4076596271765
 21
46.50418937996863
 31
0.0
 12
110.8573262938432
 22
43.20218937996863
 32
0.0
 13
110.8573262938432
 23
43.20218937996863
 33
0.0
  0
SOLID
  5
303
330
2FA
100
AcDbEntity
  8
0
 62
     0
100
AcDbTrace
 10
111.4076596271766
 20
31.96268937996863
 30
0.0
 11
110.3069929605099
 21
31.96268937996863
 31
0.0
 12
110.8573262938432
 22
35.26468937996863
 32
0.0
 13
110.8573262938432
 23
35.26468937996863
 33
0.0
  0
MTEXT
  5
304
330
2FA
100
AcDbEntity
  8
0
 62
     0
370
    15
100
AcDbMText
 10
106.4823262938431
 20
63.80618937996861
 30
0.0
 40
3.5
 41
0.0
 71
     2
 72
     1
  1
\A1;%%c7.94 [5/16]
  7
SLDTEXTSTYLE0
 11
-3.580687802255623E-15
 21
1.0
 31
0.0
 73
     1
 44
1.0
  0
POINT
  5
305
330
2FA
100
AcDbEntity
  8
Defpoints
 62
     0
100
AcDbPoint
 10
93.41625000000006
 20
43.20218937996857
 30
0.0
  0
POINT
  5
306
330
2FA
100
AcDbEntity
  8
Defpoints
 62
     0
100
AcDbPoint
 10
93.41625000000006
 20
35.26468937996857
 30
0.0
  0
POINT
  5
307
330
2FA
100
AcDbEntity
  8
Defpoints
 62
     0
100
AcDbPoint
 10
110.8573262938432
 20
35.26468937996863
 30
0.0
  0
ENDBLK
  5
308
330
2FA
100
AcDbEntity
  8
0
100
AcDbBlockEnd
  0
BLOCK
  5
319
330
318
100
AcDbEntity
  8
0
100
AcDbBlockBegin
  2
*D22
 70
     1
 10
0.0
 20
0.0
 30
0.0
  3
*D22
  1
*D22
  0
LINE
  5
31A
330
318
100
AcDbEntity
  8
0
  6
Continuous
 62
     0
370
    -2
100
AcDbLine
 10
94.23012747618762
 20
32.28066399563855
 30
0.0
 11
107.809953048086
 21
0.0000000000000195
 31
0.0
  0
MTEXT
  5
31B
330
318
100
AcDbEntity
  8
0
 62
     0
370
    15
100
AcDbMText
 10
104.7160329617978
 20
14.1241330729416
 30
0.0
 40
3.5
 41
0.0
 71
     5
 72
     1
  1
\A1;R.76 [R0.030]
  7
SLDTEXTSTYLE0
 11
0.3877651270146535
 21
-0.9217582146481309
 31
0.0
 73
     1
 44
1.0
  0
LINE
  5
31C
330
318
100
AcDbEntity
  8
0
  6
Continuous
 62
     0
370
    -2
100
AcDbLine
 10
92.65425000000006
 20
36.02668937996855
 30
0.0
 11
92.94972702678523
 21
35.32430962040668
 31
0.0
  0
SOLID
  5
31D
330
318
100
AcDbEntity
  8
0
 62
     0
100
AcDbTrace
 10
94.7374017469823
 20
32.49406407053895
 30
0.0
 11
93.72285320539294
 21
32.06726392073816
 31
0.0
 12
92.94972702678523
 22
35.32430962040668
 32
0.0
 13
92.94972702678523
 23
35.32430962040668
 33
0.0
  0
POINT
  5
31E
330
318
100
AcDbEntity
  8
Defpoints
 62
     0
100
AcDbPoint
 10
92.94972702678523
 20
35.32430962040668
 30
0.0
  0
POINT
  5
31F
330
318
100
AcDbEntity
  8
Defpoints
 62
     0
100
AcDbPoint
 10
92.65425000000006
 20
36.02668937996855
 30
0.0
  0
ENDBLK
  5
320
330
318
100
AcDbEntity
  8
0
100
AcDbBlockEnd
  0
BLOCK
  5
359
330
358
100
AcDbEntity
  8
0
100
AcDbBlockBegin
  2
*D23
 70
     1
 10
0.0
 20
0.0
 30
0.0
  3
*D23
  1
*D23
  0
LINE
  5
35B
330
358
100
AcDbEntity
  8
0
  6
Continuous
 62
     0
370
    -2
100
AcDbLine
 10
73.9211653112997
 20
1.669503726469898
 30
0.0
 11
60.34866531129968
 21
1.669503726469848
 31
0.0
  0
LINE
  5
35C
330
358
100
AcDbEntity
  8
0
  6
Continuous
 62
     0
370
    -2
100
AcDbLine
 10
73.9211653112997
 20
-6.267996273530088
 30
0.0
 11
60.3486653112997
 21
-6.267996273530138
 31
0.0
  0
LINE
  5
35D
330
358
100
AcDbEntity
  8
0
  6
Continuous
 62
     0
370
    -2
100
AcDbLine
 10
60.34866531129969
 20
-1.632496273530152
 30
0.0
 11
60.34866531129969
 21
-2.965996273530138
 31
0.0
  0
SOLID
  5
35E
330
358
100
AcDbEntity
  8
0
 62
     0
100
AcDbTrace
 10
60.89899864463302
 20
-1.63249627353015
 30
0.0
 11
59.79833197796636
 21
-1.632496273530154
 31
0.0
 12
60.34866531129968
 22
1.669503726469848
 32
0.0
 13
60.34866531129968
 23
1.669503726469848
 33
0.0
  0
SOLID
  5
35F
330
358
100
AcDbEntity
  8
0
 62
     0
100
AcDbTrace
 10
59.79833197796636
 20
-2.96599627353014
 30
0.0
 11
60.89899864463302
 21
-2.965996273530136
 31
0.0
 12
60.3486653112997
 22
-6.267996273530138
 32
0.0
 13
60.3486653112997
 23
-6.267996273530138
 33
0.0
  0
MTEXT
  5
360
330
358
100
AcDbEntity
  8
0
 62
     0
370
    15
100
AcDbMText
 10
55.9736653112997
 20
-3.947947045985246
 30
0.0
 40
3.5
 41
0.0
 71
     2
 72
     1
  1
\A1;%%c7.94 [5/16]
  7
SLDTEXTSTYLE0
 11
-3.580687802255629E-15
 21
1.0
 31
0.0
 73
     1
 44
1.0
  0
POINT
  5
361
330
358
100
AcDbEntity
  8
Defpoints
 62
     0
100
AcDbPoint
 10
73.9836653112997
 20
1.669503726469898
 30
0.0
  0
POINT
  5
362
330
358
100
AcDbEntity
  8
Defpoints
 62
     0
100
AcDbPoint
 10
73.9836653112997
 20
-6.267996273530088
 30
0.0
  0
POINT
  5
363
330
358
100
AcDbEntity
  8
Defpoints
 62
     0
100
AcDbPoint
 10
60.3486653112997
 20
-6.267996273530138
 30
0.0
  0
ENDBLK
  5
35A
330
358
100
AcDbEntity
  8
0
100
AcDbBlockEnd
  0
BLOCK
  5
365
330
364
100
AcDbEntity
  8
0
100
AcDbBlockBegin
  2
*D24
 70
     1
 10
0.0
 20
0.0
 30
0.0
  3
*D24
  1
*D24
  0
LINE
  5
367
330
364
100
AcDbEntity
  8
0
  6
Continuous
 62
     0
370
    -2
100
AcDbLine
 10
149.3899153112997
 20
1.732003726469934
 30
0.0
 11
149.3899153112997
 21
28.29500173384186
 31
0.0
  0
LINE
  5
368
330
364
100
AcDbEntity
  8
0
  6
Continuous
 62
     0
370
    -2
100
AcDbLine
 10
73.1899153112997
 20
0.9382537264699096
 30
0.0
 11
73.1899153112997
 21
28.29500173384186
 31
0.0
  0
LINE
  5
369
330
364
100
AcDbEntity
  8
0
  6
Continuous
 62
     0
370
    -2
100
AcDbLine
 10
146.0879153112997
 20
28.29500173384186
 30
0.0
 11
76.4919153112997
 21
28.29500173384186
 31
0.0
  0
SOLID
  5
36A
330
364
100
AcDbEntity
  8
0
 62
     0
100
AcDbTrace
 10
146.0879153112997
 20
27.74466840050852
 30
0.0
 11
146.0879153112997
 21
28.84533506717519
 31
0.0
 12
149.3899153112997
 22
28.29500173384186
 32
0.0
 13
149.3899153112997
 23
28.29500173384186
 33
0.0
  0
SOLID
  5
36B
330
364
100
AcDbEntity
  8
0
 62
     0
100
AcDbTrace
 10
76.4919153112997
 20
28.84533506717519
 30
0.0
 11
76.4919153112997
 21
27.74466840050852
 31
0.0
 12
73.1899153112997
 22
28.29500173384186
 32
0.0
 13
73.1899153112997
 23
28.29500173384186
 33
0.0
  0
MTEXT
  5
36C
330
364
100
AcDbEntity
  8
0
 62
     0
370
    15
100
AcDbMText
 10
111.2899153112997
 20
32.67000173384186
 30
0.0
 40
3.5
 41
0.0
 71
     2
 72
     1
  1
\A1;76.20 [3]
  7
SLDTEXTSTYLE0
 73
     1
 44
1.0
  0
POINT
  5
36D
330
364
100
AcDbEntity
  8
Defpoints
 62
     0
100
AcDbPoint
 10
149.3899153112997
 20
1.669503726469934
 30
0.0
  0
POINT
  5
36E
330
364
100
AcDbEntity
  8
Defpoints
 62
     0
100
AcDbPoint
 10
73.1899153112997
 20
0.8757537264699096
 30
0.0
  0
POINT
  5
36F
330
364
100
AcDbEntity
  8
Defpoints
 62
     0
100
AcDbPoint
 10
73.1899153112997
 20
28.29500173384186
 30
0.0
  0
ENDBLK
  5
366
330
364
100
AcDbEntity
  8
0
100
AcDbBlockEnd
  0
BLOCK
  5
371
330
370
100
AcDbEntity
  8
0
100
AcDbBlockBegin
  2
*D25
 70
     1
 10
0.0
 20
0.0
 30
0.0
  3
*D25
  1
*D25
  0
LINE
  5
373
330
370
100
AcDbEntity
  8
0
  6
Continuous
 62
     0
370
    -2
100
AcDbLine
 10
149.3899153112997
 20
1.732003726469934
 30
0.0
 11
149.3899153112997
 21
11.43343583491871
 31
0.0
  0
LINE
  5
374
330
370
100
AcDbEntity
  8
0
  6
Continuous
 62
     0
370
    -2
100
AcDbLine
 10
136.6899153112997
 20
1.47418178452623
 30
0.0
 11
136.6899153112997
 21
11.43343583491871
 31
0.0
  0
LINE
  5
375
330
370
100
AcDbEntity
  8
0
  6
Continuous
 62
     0
370
    -2
100
AcDbLine
 10
146.0879153112997
 20
11.43343583491871
 30
0.0
 11
139.9919153112997
 21
11.43343583491871
 31
0.0
  0
SOLID
  5
376
330
370
100
AcDbEntity
  8
0
 62
     0
100
AcDbTrace
 10
146.0879153112997
 20
10.88310250158538
 30
0.0
 11
146.0879153112997
 21
11.98376916825204
 31
0.0
 12
149.3899153112997
 22
11.43343583491871
 32
0.0
 13
149.3899153112997
 23
11.43343583491871
 33
0.0
  0
SOLID
  5
377
330
370
100
AcDbEntity
  8
0
 62
     0
100
AcDbTrace
 10
139.9919153112997
 20
11.98376916825204
 30
0.0
 11
139.9919153112997
 21
10.88310250158538
 31
0.0
 12
136.6899153112997
 22
11.43343583491871
 32
0.0
 13
136.6899153112997
 23
11.43343583491871
 33
0.0
  0
MTEXT
  5
378
330
370
100
AcDbEntity
  8
0
 62
     0
370
    15
100
AcDbMText
 10
143.0399153112996
 20
15.80843583491871
 30
0.0
 40
3.5
 41
0.0
 71
     2
 72
     1
  1
\A1;12.70 [1/2]
  7
SLDTEXTSTYLE0
 73
     1
 44
1.0
  0
POINT
  5
379
330
370
100
AcDbEntity
  8
Defpoints
 62
     0
100
AcDbPoint
 10
149.3899153112997
 20
1.669503726469934
 30
0.0
  0
POINT
  5
37A
330
370
100
AcDbEntity
  8
Defpoints
 62
     0
100
AcDbPoint
 10
136.6899153112997
 20
1.41168178452623
 30
0.0
  0
POINT
  5
37B
330
370
100
AcDbEntity
  8
Defpoints
 62
     0
100
AcDbPoint
 10
136.6899153112997
 20
11.43343583491871
 30
0.0
  0
ENDBLK
  5
372
330
370
100
AcDbEntity
  8
0
100
AcDbBlockEnd
  0
BLOCK
  5
37D
330
37C
100
AcDbEntity
  8
0
100
AcDbBlockBegin
  2
*D26
 70
     1
 10
0.0
 20
0.0
 30
0.0
  3
*D26
  1
*D26
  0
LINE
  5
37F
330
37C
100
AcDbEntity
  8
0
  6
Continuous
 62
     0
370
    -2
100
AcDbLine
 10
149.4524153112997
 20
1.669503726469934
 30
0.0
 11
166.8309916051428
 21
1.669503726469998
 31
0.0
  0
LINE
  5
380
330
37C
100
AcDbEntity
  8
0
  6
Continuous
 62
     0
370
    -2
100
AcDbLine
 10
149.4524153112997
 20
-6.267996273530066
 30
0.0
 11
166.8309916051429
 21
-6.267996273530002
 31
0.0
  0
LINE
  5
381
330
37C
100
AcDbEntity
  8
0
  6
Continuous
 62
     0
370
    -2
100
AcDbLine
 10
166.8309916051428
 20
1.669503726469998
 30
0.0
 11
166.8309916051427
 21
36.27350372647
 31
0.0
  0
LINE
  5
382
330
37C
100
AcDbEntity
  8
0
  6
Continuous
 62
     0
370
    -2
100
AcDbLine
 10
166.8309916051428
 20
1.669503726469998
 30
0.0
 11
166.8309916051429
 21
-6.267996273530002
 31
0.0
  0
LINE
  5
383
330
37C
100
AcDbEntity
  8
0
  6
Continuous
 62
     0
370
    -2
100
AcDbLine
 10
166.8309916051428
 20
4.971503726469997
 30
0.0
 11
166.8309916051428
 21
8.273503726469997
 31
0.0
  0
LINE
  5
384
330
37C
100
AcDbEntity
  8
0
  6
Continuous
 62
     0
370
    -2
100
AcDbLine
 10
166.8309916051429
 20
-9.569996273530002
 30
0.0
 11
166.8309916051429
 21
-12.87199627353
 31
0.0
  0
SOLID
  5
385
330
37C
100
AcDbEntity
  8
0
 62
     0
100
AcDbTrace
 10
166.2806582718095
 20
4.971503726469995
 30
0.0
 11
167.3813249384762
 21
4.971503726469999
 31
0.0
 12
166.8309916051428
 22
1.669503726469998
 32
0.0
 13
166.8309916051428
 23
1.669503726469998
 33
0.0
  0
SOLID
  5
386
330
37C
100
AcDbEntity
  8
0
 62
     0
100
AcDbTrace
 10
167.3813249384762
 20
-9.56999627353
 30
0.0
 11
166.2806582718095
 21
-9.569996273530004
 31
0.0
 12
166.8309916051429
 22
-6.267996273530002
 32
0.0
 13
166.8309916051429
 23
-6.267996273530002
 33
0.0
  0
MTEXT
  5
387
330
37C
100
AcDbEntity
  8
0
 62
     0
370
    15
100
AcDbMText
 10
162.4559916051427
 20
22.27350372646998
 30
0.0
 40
3.5
 41
0.0
 71
     2
 72
     1
  1
\A1;%%c7.94 [5/16]
  7
SLDTEXTSTYLE0
 11
-3.580687802255623E-15
 21
1.0
 31
0.0
 73
     1
 44
1.0
  0
POINT
  5
388
330
37C
100
AcDbEntity
  8
Defpoints
 62
     0
100
AcDbPoint
 10
149.3899153112997
 20
1.669503726469934
 30
0.0
  0
POINT
  5
389
330
37C
100
AcDbEntity
  8
Defpoints
 62
     0
100
AcDbPoint
 10
149.3899153112997
 20
-6.267996273530066
 30
0.0
  0
POINT
  5
38A
330
37C
100
AcDbEntity
  8
Defpoints
 62
     0
100
AcDbPoint
 10
166.8309916051429
 20
-6.267996273530001
 30
0.0
  0
ENDBLK
  5
37E
330
37C
100
AcDbEntity
  8
0
100
AcDbBlockEnd
  0
BLOCK
  5
38C
330
38B
100
AcDbEntity
  8
0
100
AcDbBlockBegin
  2
*D27
 70
     1
 10
0.0
 20
0.0
 30
0.0
  3
*D27
  1
*D27
  0
LINE
  5
38E
330
38B
100
AcDbEntity
  8
0
  6
Continuous
 62
     0
370
    -2
100
AcDbLine
 10
150.2037927874871
 20
-9.252021657860123
 30
0.0
 11
163.7836183593844
 21
-41.53268565349912
 31
0.0
  0
MTEXT
  5
38F
330
38B
100
AcDbEntity
  8
0
 62
     0
370
    15
100
AcDbMText
 10
160.6896982730967
 20
-27.40855258055744
 30
0.0
 40
3.5
 41
0.0
 71
     5
 72
     1
  1
\A1;R.76 [R0.030]
  7
SLDTEXTSTYLE0
 11
0.3877651270146218
 21
-0.9217582146481441
 31
0.0
 73
     1
 44
1.0
  0
LINE
  5
390
330
38B
100
AcDbEntity
  8
0
  6
Continuous
 62
     0
370
    -2
100
AcDbLine
 10
148.6279153112997
 20
-5.50599627353008
 30
0.0
 11
148.9233923380849
 21
-6.208376033091952
 31
0.0
  0
SOLID
  5
391
330
38B
100
AcDbEntity
  8
0
 62
     0
100
AcDbTrace
 10
150.7110670582818
 20
-9.038621582959742
 30
0.0
 11
149.6965185166925
 21
-9.465421732760504
 31
0.0
 12
148.9233923380849
 22
-6.208376033091952
 32
0.0
 13
148.9233923380849
 23
-6.208376033091952
 33
0.0
  0
POINT
  5
392
330
38B
100
AcDbEntity
  8
Defpoints
 62
     0
100
AcDbPoint
 10
148.9233923380849
 20
-6.208376033091952
 30
0.0
  0
POINT
  5
393
330
38B
100
AcDbEntity
  8
Defpoints
 62
     0
100
AcDbPoint
 10
148.6279153112997
 20
-5.50599627353008
 30
0.0
  0
ENDBLK
  5
38D
330
38B
100
AcDbEntity
  8
0
100
AcDbBlockEnd
  0
BLOCK
  5
398
330
397
100
AcDbEntity
  8
0
100
AcDbBlockBegin
  2
*D28
 70
     1
 10
0.0
 20
0.0
 30
0.0
  3
*D28
  1
*D28
  0
LINE
  5
39A
330
397
100
AcDbEntity
  8
0
  6
Continuous
 62
     0
370
    -2
100
AcDbLine
 10
23.77047215681727
 20
-6.927314852186573
 30
0.0
 11
36.55754666707602
 21
-35.018382573423
 31
0.0
  0
MTEXT
  5
39B
330
397
100
AcDbEntity
  8
0
 62
     0
370
    15
100
AcDbMText
 10
33.23713590953069
 20
-21.38796258856276
 30
0.0
 40
3.5
 41
0.0
 71
     5
 72
     1
  1
\A1;R.51 [R0.020]
  7
SLDTEXTSTYLE0
 11
0.4142971540202741
 21
-0.9101416747796474
 31
0.0
 73
     1
 44
1.0
  0
LINE
  5
39C
330
397
100
AcDbEntity
  8
0
  6
Continuous
 62
     0
370
    -2
100
AcDbLine
 10
22.19200000000002
 20
-3.459675071276117
 30
0.0
 11
22.40246295424232
 21
-3.922027042064177
 31
0.0
  0
SOLID
  5
39D
330
397
100
AcDbEntity
  8
0
 62
     0
100
AcDbTrace
 10
24.27135345850433
 20
-6.699313318424082
 30
0.0
 11
23.2695908551302
 21
-7.155316385949064
 31
0.0
 12
22.40246295424232
 22
-3.922027042064177
 32
0.0
 13
22.40246295424232
 23
-3.922027042064177
 33
0.0
  0
POINT
  5
39E
330
397
100
AcDbEntity
  8
Defpoints
 62
     0
100
AcDbPoint
 10
22.40246295424232
 20
-3.922027042064177
 30
0.0
  0
POINT
  5
39F
330
397
100
AcDbEntity
  8
Defpoints
 62
     0
100
AcDbPoint
 10
22.19200000000002
 20
-3.459675071276117
 30
0.0
  0
ENDBLK
  5
399
330
397
100
AcDbEntity
  8
0
100
AcDbBlockEnd
  0
ENDSEC
  0
SECTION
  2
ENTITIES
  0
LINE
  5
96
330
1F
100
AcDbEntity
  8
0
  6
Continuous
 62
     1
370
    15
100
AcDbLine
 10
14.91261501369254
 20
3.969824928723892
 30
0.0
 11
12.49238597717695
 21
3.969824928723892
 31
0.0
  0
LINE
  5
97
330
1F
100
AcDbEntity
  8
0
  6
Continuous
 62
     1
370
    15
100
AcDbLine
 10
12.4923859771769
 20
-3.967675071276107
 30
0.0
 11
14.91261501369254
 21
-3.967675071276107
 31
0.0
  0
LINE
  5
98
330
1F
100
AcDbEntity
  8
외형선
  6
Continuous
370
    15
100
AcDbLine
 10
-52.70624999999998
 20
-3.967675071276107
 30
0.0
 11
9.499925145632602
 21
-3.967675071276107
 31
0.0
  0
LINE
  5
99
330
1F
100
AcDbEntity
  8
외형선
  6
Continuous
370
    15
100
AcDbLine
 10
9.499925145632602
 20
3.969824928723893
 30
0.0
 11
-52.70624999999998
 21
3.969824928723893
 31
0.0
  0
LINE
  5
9A
330
1F
100
AcDbEntity
  8
외형선
  6
Continuous
370
    15
100
AcDbLine
 10
-52.70624999999998
 20
3.969824928723893
 30
0.0
 11
-53.49999999999999
 21
3.176074928723895
 31
0.0
  0
LINE
  5
9B
330
1F
100
AcDbEntity
  8
외형선
  6
Continuous
370
    15
100
AcDbLine
 10
-53.49999999999999
 20
-3.173925071276109
 30
0.0
 11
-52.70624999999998
 21
-3.967675071276107
 31
0.0
  0
LINE
  5
9C
330
1F
100
AcDbEntity
  8
0
  6
Continuous
 62
     1
370
    15
100
AcDbLine
 10
22.70000000000002
 20
-3.174686908750761
 30
0.0
 11
22.70000000000002
 21
0.3892860377409592
 31
0.0
  0
SPLINE
  5
9D
330
1F
100
AcDbEntity
  8
0
  6
Continuous
 62
     1
370
    15
100
AcDbSpline
210
0.0
220
0.0
230
1.0
 70
     8
 71
     3
 72
    14
 73
    10
 74
     0
 42
0.000000001
 43
0.00000001
 40
0.0
 40
0.0
 40
0.0
 40
0.0
 40
0.25
 40
0.25
 40
0.5
 40
0.5
 40
0.75
 40
0.75
 40
1.0
 40
1.0
 40
1.0
 40
1.0
 10
22.19200000000003
 20
-3.459117233417732
 30
0.0
 10
22.25743225664077
 20
-3.477594185710799
 30
0.0
 10
22.3188999872435
 20
-3.485833732903264
 30
0.0
 10
22.4359995978888
 20
-3.482629227927883
 30
0.0
 10
22.49012494612197
 20
-3.470893058253055
 30
0.0
 10
22.58478034184453
 20
-3.424990050353875
 30
0.0
 10
22.62505310424908
 20
-3.390955276693506
 30
0.0
 10
22.68325461774926
 20
-3.298018603739581
 30
0.0
 10
22.70000000000002
 20
-3.240299301061585
 30
0.0
 10
22.70000000000002
 20
-3.174686908750773
 30
0.0
  0
SPLINE
  5
9E
330
1F
100
AcDbEntity
  8
0
  6
Continuous
 62
     1
370
    15
100
AcDbSpline
210
0.0
220
0.0
230
1.0
 70
     8
 71
     3
 72
    32
 73
    28
 74
     0
 42
0.000000001
 43
0.00000001
 40
0.0
 40
0.0
 40
0.0
 40
0.0
 40
0.0625000000000005
 40
0.0625000000000005
 40
0.125000000000001
 40
0.125000000000001
 40
0.1875000000000014
 40
0.1875000000000014
 40
0.2500000000000019
 40
0.2500000000000019
 40
0.3750000000000003
 40
0.3750000000000003
 40
0.4999999999999988
 40
0.4999999999999988
 40
0.6249999999999972
 40
0.6249999999999972
 40
0.6874999999999977
 40
0.6874999999999977
 40
0.7499999999999981
 40
0.7499999999999981
 40
0.8124999999999987
 40
0.8124999999999987
 40
0.8749999999999991
 40
0.8749999999999991
 40
0.9374999999999997
 40
0.9374999999999997
 40
1.0
 40
1.0
 40
1.0
 40
1.0
 10
22.19200000000003
 20
-3.459117233417729
 30
0.0
 10
21.93752743938625
 20
-3.387258526355709
 30
0.0
 10
21.68206273835965
 20
-3.308191319455694
 30
0.0
 10
21.17384916388939
 20
-3.137114374501879
 30
0.0
 10
20.92242985915952
 20
-3.045298354792563
 30
0.0
 10
20.41435242736598
 20
-2.848961216513737
 30
0.0
 10
20.15889824457631
 20
-2.744555008862296
 30
0.0
 10
19.64985841305603
 20
-2.525166665590703
 30
0.0
 10
19.39795993549582
 20
-2.410459230690792
 30
0.0
 10
18.63759965530024
 20
-2.051584844880752
 30
0.0
 10
18.12570016766656
 20
-1.79265651084258
 30
0.0
 10
17.11482873293017
 20
-1.251967503691405
 30
0.0
 10
16.60037748855055
 20
-0.9674591206988705
 30
0.0
 10
15.59087734064888
 20
-0.3908410372209678
 30
0.0
 10
15.07755928556871
 20
-0.0953194473168289
 30
0.0
 10
14.31804480367085
 20
0.343562849785913
 30
0.0
 10
14.06570891631258
 20
0.4892972360562998
 30
0.0
 10
13.55641953127522
 20
0.779051654007289
 30
0.0
 10
13.30101394161063
 20
0.9227693873121322
 30
0.0
 10
12.79337747690894
 20
1.205253426493437
 30
0.0
 10
12.5418645689894
 20
1.343900811723066
 30
0.0
 10
12.03327728822166
 20
1.616147628993624
 30
0.0
 10
11.77779823959522
 20
1.749441641959726
 30
0.0
 10
11.26917030809053
 20
2.007917630003093
 30
0.0
 10
11.01763716043099
 20
2.132849689089276
 30
0.0
 10
10.51005589021523
 20
2.374239759471109
 30
0.0
 10
10.25465770542721
 20
2.490565083417238
 30
0.0
 10
10.00000000000002
 20
2.601433880646955
 30
0.0
  0
SPLINE
  5
9F
330
1F
100
AcDbEntity
  8
외형선
  6
Continuous
370
    15
100
AcDbSpline
210
0.0
220
0.0
230
1.0
 70
    24
 71
     3
 72
    12
 73
     8
 74
     0
 42
0.000000001
 43
0.00000001
 40
0.0
 40
0.0
 40
0.0
 40
0.0
 40
0.2561920638540029
 40
0.5161692640742632
 40
0.6929913618115342
 40
0.8710411660817909
 40
1.0
 40
1.0
 40
1.0
 40
1.0
 10
9.999999999999988
 20
3.712002986780216
 30
0.0
 10
10.0
 20
3.617056224255645
 30
0.0
 10
10.00000000000003
 20
3.425759898361371
 30
0.0
 10
9.999999999999988
 20
3.174776932501203
 30
0.0
 10
10.00000000000002
 20
2.959365917646144
 30
0.0
 10
10.00000000000003
 20
2.794439182865162
 30
0.0
 10
10.0
 20
2.695547937486287
 30
0.0
 10
10.0
 20
2.654008716427137
 30
0.0
  0
SPLINE
  5
A0
330
1F
100
AcDbEntity
  8
0
  6
Continuous
 62
     1
370
    15
100
AcDbSpline
210
0.0
220
0.0
230
1.0
 70
     8
 71
     3
 72
    32
 73
    28
 74
     0
 42
0.000000001
 43
0.00000001
 40
0.0
 40
0.0
 40
0.0
 40
0.0
 40
0.0625
 40
0.0625
 40
0.125
 40
0.125
 40
0.1875000000000001
 40
0.1875000000000001
 40
0.2500000000000001
 40
0.2500000000000001
 40
0.375
 40
0.375
 40
0.5
 40
0.5
 40
0.6249999999999999
 40
0.6249999999999999
 40
0.6874999999999999
 40
0.6874999999999999
 40
0.7499999999999999
 40
0.7499999999999999
 40
0.8125
 40
0.8125
 40
0.875
 40
0.875
 40
0.9375
 40
0.9375
 40
1.0
 40
1.0
 40
1.0
 40
1.0
 10
22.19200000000001
 20
0.6325241615713908
 30
0.0
 10
21.9375274393863
 20
0.7773785740299236
 30
0.0
 10
21.68206273835958
 20
0.9211215790344265
 30
0.0
 10
21.17384916388935
 20
1.203744934233215
 30
0.0
 10
20.92242985915949
 20
1.342392835366086
 30
0.0
 10
20.41435242736597
 20
1.614594103813224
 30
0.0
 10
20.15889824457631
 20
1.747911862114472
 30
0.0
 10
19.64985841305601
 20
2.006515751031913
 30
0.0
 10
19.39795993549581
 20
2.131536350124931
 30
0.0
 10
18.63759965530017
 20
2.493562916731969
 30
0.0
 10
18.12570016766653
 20
2.717106436575628
 30
0.0
 10
17.11482873293017
 20
3.114511109878737
 30
0.0
 10
16.60037748855052
 20
3.290287501272684
 30
0.0
 10
15.59087734064885
 20
3.583267805345626
 30
0.0
 10
15.07755928556868
 20
3.702248056524196
 30
0.0
 10
14.31804480367078
 20
3.833184225219081
 30
0.0
 10
14.06570891631254
 20
3.869054981836242
 30
0.0
 10
13.55641953127517
 20
3.925012053371467
 30
0.0
 10
13.30101394161062
 20
3.945002835752481
 30
0.0
 10
12.79337747690893
 20
3.968693340447879
 30
0.0
 10
12.54186456898939
 20
3.972434557645644
 30
0.0
 10
12.0332772882216
 20
3.963682655627939
 30
0.0
 10
11.77779823959518
 20
3.951145882102443
 30
0.0
 10
11.26917030809051
 20
3.909980084247987
 30
0.0
 10
11.01763716043096
 20
3.881446825183243
 30
0.0
 10
10.5100558902152
 20
3.808484856679603
 30
0.0
 10
10.25465770542721
 20
3.764036414501438
 30
0.0
 10
10.0
 20
3.712002986780213
 30
0.0
  0
SPLINE
  5
A1
330
1F
100
AcDbEntity
  8
0
  6
Continuous
 62
     1
370
    15
100
AcDbSpline
210
0.0
220
0.0
230
1.0
 70
     8
 71
     3
 72
    14
 73
    10
 74
     0
 42
0.000000001
 43
0.00000001
 40
0.0
 40
0.0
 40
0.0
 40
0.0
 40
0.2500000000000001
 40
0.2500000000000001
 40
0.5000000000000002
 40
0.5000000000000002
 40
0.7500000000000003
 40
0.7500000000000003
 40
1.0
 40
1.0
 40
1.0
 40
1.0
 10
22.70000000000001
 20
0.3979497661986586
 30
0.0
 10
22.69999999999994
 20
0.3979238744083402
 30
0.0
 10
22.68554584789571
 20
0.4019599297317171
 30
0.0
 10
22.63043255658533
 20
0.4208998105931293
 30
0.0
 10
22.58942253722866
 20
0.4360885200307997
 30
0.0
 10
22.49123439794755
 20
0.4776595960525499
 30
0.0
 10
22.43385386889748
 20
0.5041794565965583
 30
0.0
 10
22.31396268280856
 20
0.5647078723357851
 30
0.0
 10
22.25260960793705
 20
0.5980231170348416
 30
0.0
 10
22.19200000000001
 20
0.6325241615713781
 30
0.0
  0
SPLINE
  5
A2
330
1F
100
AcDbEntity
  8
0
  6
Continuous
 62
     1
370
    15
100
AcDbSpline
210
0.0
220
0.0
230
1.0
 70
     8
 71
     3
 72
    14
 73
    10
 74
     0
 42
0.000000001
 43
0.00000001
 40
0.0
 40
0.0
 40
0.0
 40
0.0
 40
0.1500267166855047
 40
0.3001899589165344
 40
0.4503515477953415
 40
0.6003773201007997
 40
0.7503424039916033
 40
0.8976416118219384
 40
1.0
 40
1.0
 40
1.0
 40
1.0
 10
10.0
 20
-2.997109502503403
 30
0.0
 10
10.45496734886243
 20
-3.157844655837229
 30
0.0
 10
11.36531607061492
 20
-3.479461232815787
 30
0.0
 10
12.73141576638579
 20
-3.793202801493485
 30
0.0
 10
14.09750294900523
 20
-3.965964233567407
 30
0.0
 10
15.46263517017623
 20
-3.981748824632938
 30
0.0
 10
16.819031946157
 20
-3.837688067525014
 30
0.0
 10
18.03080080814008
 20
-3.591511315356475
 30
0.0
 10
18.78801978718318
 20
-3.342566126692829
 30
0.0
 10
19.09847584953382
 20
-3.240499822027149
 30
0.0
  0
SPLINE
  5
A3
330
1F
100
AcDbEntity
  8
외형선
  6
Continuous
370
    15
100
AcDbSpline
210
0.0
220
0.0
230
1.0
 70
    24
 71
     3
 72
    22
 73
    18
 74
     0
 42
0.000000001
 43
0.00000001
 40
0.0
 40
0.0
 40
0.0
 40
0.0
 40
0.125
 40
0.125
 40
0.25
 40
0.25
 40
0.375
 40
0.375
 40
0.5
 40
0.5
 40
0.625
 40
0.625
 40
0.75
 40
0.75
 40
0.875
 40
0.875
 40
1.0
 40
1.0
 40
1.0
 40
1.0
 10
10.00000000000004
 20
1.408195929359664
 30
0.0
 10
10.00000000000004
 20
1.397133604084573
 30
0.0
 10
10.0
 20
1.364458522754386
 30
0.0
 10
9.999999999999988
 20
1.278273351395853
 30
0.0
 10
10.00000000000003
 20
1.216015792222936
 30
0.0
 10
10.00000000000002
 20
1.033245315007956
 30
0.0
 10
10.00000000000002
 20
0.9123693256638982
 30
0.0
 10
10.00000000000003
 20
0.5931872181787586
 30
0.0
 10
10.00000000000002
 20
0.3941483988854086
 30
0.0
 10
10.00000000000002
 20
-0.0831057311124166
 30
0.0
 10
10.0
 20
-0.3617941730793015
 30
0.0
 10
10.00000000000002
 20
-0.9610682213312833
 30
0.0
 10
10.00000000000003
 20
-1.280669687625809
 30
0.0
 10
10.00000000000002
 20
-1.88917405150323
 30
0.0
 10
10.00000000000002
 20
-2.176318251602313
 30
0.0
 10
10.00000000000002
 20
-2.658763083075266
 30
0.0
 10
10.0
 20
-2.853755594574486
 30
0.0
 10
10.00000000000002
 20
-2.997109502503404
 30
0.0
  0
SPLINE
  5
A4
330
1F
100
AcDbEntity
  8
0
  6
Continuous
 62
     1
370
    15
100
AcDbSpline
210
0.0
220
0.0
230
1.0
 70
     8
 71
     3
 72
    24
 73
    20
 74
     0
 42
0.000000001
 43
0.00000001
 40
0.255250407927864
 40
0.255250407927864
 40
0.255250407927864
 40
0.255250407927864
 40
0.375
 40
0.375
 40
0.5
 40
0.5
 40
0.625
 40
0.625
 40
0.6875
 40
0.6875
 40
0.75
 40
0.75
 40
0.8125
 40
0.8125
 40
0.875
 40
0.875
 40
0.9375
 40
0.9375
 40
1.0
 40
1.0
 40
1.0
 40
1.0
 10
19.08060570632711
 20
-3.246374741703565
 30
0.0
 10
18.59460816111265
 20
-3.084928346448879
 30
0.0
 10
18.10447021808657
 20
-2.898478269966076
 30
0.0
 10
17.11482873293015
 20
-2.47747442795338
 30
0.0
 10
16.60037748855052
 20
-2.238946286518356
 30
0.0
 10
15.59087734064884
 20
-1.732276907121583
 30
0.0
 10
15.07755928556866
 20
-1.461153375605278
 30
0.0
 10
14.31804480367076
 20
-1.041695082147781
 30
0.0
 10
14.06570891631256
 20
-0.899616106399551
 30
0.0
 10
13.5564195312752
 20
-0.6114864754138762
 30
0.0
 10
13.3010139416106
 20
-0.4657227761729573
 30
0.0
 10
12.79337747690892
 20
-0.1734861553832658
 30
0.0
 10
12.54186456898939
 20
-0.0271551657235553
 30
0.0
 10
12.03327728822163
 20
0.2660923680412581
 30
0.0
 10
11.77779823959518
 20
0.4126995753625875
 30
0.0
 10
11.26917030809049
 20
0.7031830910197673
 30
0.0
 10
11.01763716043096
 20
0.8467579792685185
 30
0.0
 10
10.5100558902152
 20
1.130718906848984
 30
0.0
 10
10.25465770542721
 20
1.270970838695622
 30
0.0
 10
10.0
 20
1.408195929359674
 30
0.0
  0
LINE
  5
A6
330
1F
100
AcDbEntity
  8
외형선
  6
Continuous
370
    15
100
AcDbLine
 10
10.00000000000002
 20
1.408195929359666
 30
0.0
 11
10.00000000000002
 21
2.601433880646955
 31
0.0
  0
SPLINE
  5
A7
330
1F
100
AcDbEntity
  8
0
  6
Continuous
 62
     1
370
    15
100
AcDbSpline
210
0.0
220
0.0
230
1.0
 70
     8
 71
     3
 72
    14
 73
    10
 74
     0
 42
0.000000001
 43
0.00000001
 40
0.0
 40
0.0
 40
0.0
 40
0.0
 40
0.25
 40
0.25
 40
0.5
 40
0.5
 40
0.75
 40
0.75
 40
1.0
 40
1.0
 40
1.0
 40
1.0
 10
22.19200000000003
 20
1.944794755127254
 30
0.0
 10
22.25743225664077
 20
1.911902254553735
 30
0.0
 10
22.3188999872435
 20
1.87141468750357
 30
0.0
 10
22.43599959788877
 20
1.778505633529252
 30
0.0
 10
22.49012494612194
 20
1.727002640111965
 30
0.0
 10
22.58478034184453
 20
1.620462987868732
 30
0.0
 10
22.62505310424908
 20
1.56577201980433
 30
0.0
 10
22.68325461774926
 20
1.46174530129961
 30
0.0
 10
22.70000000000002
 20
1.414243953188288
 30
0.0
 10
22.70000000000002
 20
1.376330291970861
 30
0.0
  0
LINE
  5
A8
330
1F
100
AcDbEntity
  8
0
  6
Continuous
 62
     1
370
    15
100
AcDbLine
 10
22.70000000000002
 20
0.3979497661985875
 30
0.0
 11
22.70000000000002
 21
1.376330291970854
 31
0.0
  0
SPLINE
  5
A9
330
1F
100
AcDbEntity
  8
0
  6
Continuous
 62
     1
370
    15
100
AcDbSpline
210
0.0
220
0.0
230
1.0
 70
     8
 71
     3
 72
    13
 73
     9
 74
     0
 42
0.000000001
 43
0.00000001
 40
0.0
 40
0.0
 40
0.0
 40
0.0
 40
0.0755851212959742
 40
0.2630250138082092
 40
0.4471328538902331
 40
0.6313822664329823
 40
0.8157845867399792
 40
1.0
 40
1.0
 40
1.0
 40
1.0
 10
14.91261501369254
 20
3.951010482841631
 30
0.0
 10
15.09601548986358
 20
3.955677851378915
 30
0.0
 10
15.73422195100594
 20
3.971919601777909
 30
0.0
 10
16.81901665184914
 20
3.83675508070414
 30
0.0
 10
18.16744823844475
 20
3.557023904320532
 30
0.0
 10
19.508716140804
 20
3.133204985676273
 30
0.0
 10
20.85065409944169
 20
2.598779851772981
 30
0.0
 10
21.74503586477372
 20
2.162716085524946
 30
0.0
 10
22.19200000000003
 20
1.944794755127264
 30
0.0
  0
LINE
  5
AA
330
1F
100
AcDbEntity
  8
0
  6
Continuous
 62
     1
370
    15
100
AcDbLine
 10
22.70000000000002
 20
1.376330291970854
 30
0.0
 11
22.70000000000002
 21
3.438993037970011
 31
0.0
  0
SPLINE
  5
AB
330
1F
100
AcDbEntity
  8
0
  6
Continuous
 62
     1
370
    15
100
AcDbSpline
210
0.0
220
0.0
230
1.0
 70
     8
 71
     3
 72
    10
 73
     6
 74
     0
 42
0.000000001
 43
0.00000001
 40
0.0
 40
0.0
 40
0.0
 40
0.0
 40
0.441379600636209
 40
0.8831726164622941
 40
0.9999999999999999
 40
0.9999999999999999
 40
0.9999999999999999
 40
0.9999999999999999
 10
22.22622483331181
 20
3.969824928723917
 30
0.0
 10
21.4563097649479
 20
3.923579902982368
 30
0.0
 10
20.80507282388882
 20
3.805937100726535
 30
0.0
 10
19.7949597145114
 20
3.49326246311563
 30
0.0
 10
19.21894169409109
 20
3.28599638448309
 30
0.0
 10
19.09847584953382
 20
3.242649679474935
 30
0.0
  0
SPLINE
  5
AD
330
1F
100
AcDbEntity
  8
0
  6
Continuous
 62
     1
370
    15
100
AcDbSpline
210
0.0
220
0.0
230
1.0
 70
     8
 71
     3
 72
     9
 73
     5
 74
     0
 42
0.000000001
 43
0.00000001
 40
0.0
 40
0.0
 40
0.0
 40
0.0
 40
0.462062960020275
 40
1.0
 40
1.0
 40
1.0
 40
1.0
 10
12.4923859771769
 20
-3.958488000903411
 30
0.0
 10
12.10844182869701
 20
-3.952884295155409
 30
0.0
 10
11.27750712563608
 20
-3.940756714646129
 30
0.0
 10
10.44684430106887
 20
-3.790618198366726
 30
0.0
 10
10.0
 20
-3.709853129332437
 30
0.0
  0
LINE
  5
AE
330
1F
100
AcDbEntity
  8
외형선
  6
Continuous
370
    15
100
AcDbLine
 10
10.00000000000002
 20
-3.709853129332442
 30
0.0
 11
10.0
 21
-2.997109502503405
 31
0.0
  0
LINE
  5
AF
330
1F
100
AcDbEntity
  8
0
  6
Continuous
 62
     1
370
    15
100
AcDbLine
 10
22.70000000000002
 20
-3.436843180522225
 30
0.0
 11
22.70000000000002
 21
-3.174686908750761
 31
0.0
  0
LINE
  5
B0
330
1F
100
AcDbEntity
  8
외형선
  6
Continuous
370
    15
100
AcDbLine
 10
9.499925145632602
 20
2.812526310109934
 30
0.0
 11
9.499925145632602
 21
3.969824928723893
 31
0.0
  0
SPLINE
  5
B1
330
1F
100
AcDbEntity
  8
외형선
  6
Continuous
370
    15
100
AcDbSpline
210
0.0
220
0.0
230
1.0
 70
     8
 71
     3
 72
     8
 73
     4
 74
     0
 42
0.000000001
 43
0.00000001
 40
0.0
 40
0.0
 40
0.0
 40
0.0
 40
1.0
 40
1.0
 40
1.0
 40
1.0
 10
10.0
 20
2.601433880646961
 30
0.0
 10
9.832768066161048
 20
2.67424064426726
 30
0.0
 10
9.665857188158009
 20
2.744697427677216
 30
0.0
 10
9.499925145632602
 20
2.812543739452127
 30
0.0
  0
SPLINE
  5
B2
330
1F
100
AcDbEntity
  8
외형선
  6
Continuous
370
    15
100
AcDbSpline
210
0.0
220
0.0
230
1.0
 70
     8
 71
     3
 72
     8
 73
     4
 74
     0
 42
0.000000001
 43
0.00000001
 40
0.0
 40
0.0
 40
0.0
 40
0.0
 40
1.0
 40
1.0
 40
1.0
 40
1.0
 10
10.00000000000002
 20
1.408195929359661
 30
0.0
 10
9.832768066161048
 20
1.498310686517631
 30
0.0
 10
9.665857188158009
 20
1.587121184254366
 30
0.0
 10
9.499925145632588
 20
1.674286218147823
 30
0.0
  0
LINE
  5
B3
330
1F
100
AcDbEntity
  8
외형선
  6
Continuous
370
    15
100
AcDbLine
 10
9.499925145632602
 20
-2.800124402384603
 30
0.0
 11
9.499925145632602
 21
1.674299498604215
 31
0.0
  0
SPLINE
  5
B4
330
1F
100
AcDbEntity
  8
외형선
  6
Continuous
370
    15
100
AcDbSpline
210
0.0
220
0.0
230
1.0
 70
     8
 71
     3
 72
     8
 73
     4
 74
     0
 42
0.000000001
 43
0.00000001
 40
0.0
 40
0.0
 40
0.0
 40
0.0
 40
1.0
 40
1.0
 40
1.0
 40
1.0
 10
10.0
 20
-2.997109502503401
 30
0.0
 10
9.832768066161048
 20
-2.933963380614198
 30
0.0
 10
9.665857188158009
 20
-2.868202377599583
 30
0.0
 10
9.499925145632602
 20
-2.800106909144284
 30
0.0
  0
SPLINE
  5
B5
330
1F
100
AcDbEntity
  8
외형선
  6
Continuous
370
    15
100
AcDbSpline
210
0.0
220
0.0
230
1.0
 70
     8
 71
     3
 72
     8
 73
     4
 74
     0
 42
0.000000001
 43
0.00000001
 40
0.0
 40
0.0
 40
0.0
 40
0.0
 40
1.0
 40
1.0
 40
1.0
 40
1.0
 10
10.00000000000002
 20
-3.709853129332443
 30
0.0
 10
9.832768066161048
 20
-3.675683141318558
 30
0.0
 10
9.665857188158009
 20
-3.638248353517372
 30
0.0
 10
9.499925145632588
 20
-3.597722168007773
 30
0.0
  0
LINE
  5
B6
330
1F
100
AcDbEntity
  8
외형선
  6
Continuous
370
    15
100
AcDbLine
 10
9.499925145632602
 20
-3.967675071276107
 30
0.0
 11
9.499925145632602
 21
-3.597715993412148
 31
0.0
  0
SPLINE
  5
B7
330
1F
100
AcDbEntity
  8
외형선
  6
Continuous
370
    15
100
AcDbSpline
210
0.0
220
0.0
230
1.0
 70
     8
 71
     3
 72
     8
 73
     4
 74
     0
 42
0.000000001
 43
0.00000001
 40
0.0
 40
0.0
 40
0.0
 40
0.0
 40
1.0
 40
1.0
 40
1.0
 40
1.0
 10
10.00000000000002
 20
3.712002986780218
 30
0.0
 10
9.832768066161048
 20
3.677832998766332
 30
0.0
 10
9.665857188158009
 20
3.640398210965146
 30
0.0
 10
9.499925145632588
 20
3.599872025455547
 30
0.0
  0
LINE
  5
B8
330
1F
100
AcDbEntity
  8
외형선
  6
Continuous
370
    15
100
AcDbLine
 10
-52.70624999999998
 20
0.0010749287238927
 30
0.0
 11
-52.70624999999998
 21
3.969824928723893
 31
0.0
  0
LINE
  5
B9
330
1F
100
AcDbEntity
  8
외형선
  6
Continuous
370
    15
100
AcDbLine
 10
-52.70624999999998
 20
-3.967675071276107
 30
0.0
 11
-52.70624999999998
 21
0.0010749287238927
 31
0.0
  0
LINE
  5
BA
330
1F
100
AcDbEntity
  8
외형선
  6
Continuous
370
    15
100
AcDbLine
 10
-53.49999999999999
 20
0.0010749287238927
 30
0.0
 11
-53.49999999999999
 21
3.176074928723895
 31
0.0
  0
LINE
  5
BB
330
1F
100
AcDbEntity
  8
외형선
  6
Continuous
370
    15
100
AcDbLine
 10
-53.49999999999999
 20
-3.173925071276111
 30
0.0
 11
-53.49999999999999
 21
0.0010749287238927
 31
0.0
  0
SPLINE
  5
BC
330
1F
100
AcDbEntity
  8
외형선
  6
Continuous
370
    15
100
AcDbSpline
210
0.0
220
0.0
230
1.0
 70
    24
 71
     3
 72
    22
 73
    18
 74
     0
 42
0.000000001
 43
0.00000001
 40
0.0
 40
0.0
 40
0.0
 40
0.0
 40
0.125
 40
0.125
 40
0.2500000000000001
 40
0.2500000000000001
 40
0.3750000000000001
 40
0.3750000000000001
 40
0.5000000000000001
 40
0.5000000000000001
 40
0.6250000000000001
 40
0.6250000000000001
 40
0.7500000000000002
 40
0.7500000000000002
 40
0.8750000000000001
 40
0.8750000000000001
 40
1.0
 40
1.0
 40
1.0
 40
1.0
 10
10.00000000000002
 20
-2.997109502503412
 30
0.0
 10
10.00000000000003
 20
-2.853755594574495
 30
0.0
 10
10.0
 20
-2.658763083075274
 30
0.0
 10
10.0
 20
-2.176318251602322
 30
0.0
 10
10.00000000000002
 20
-1.889174051503239
 30
0.0
 10
10.00000000000003
 20
-1.280669687625816
 30
0.0
 10
10.00000000000002
 20
-0.9610682213312904
 30
0.0
 10
10.0
 20
-0.3617941730793067
 30
0.0
 10
10.00000000000002
 20
-0.0831057311124193
 30
0.0
 10
10.0
 20
0.3941483988854066
 30
0.0
 10
10.00000000000002
 20
0.5931872181787562
 30
0.0
 10
10.0
 20
0.9123693256638964
 30
0.0
 10
10.00000000000002
 20
1.033245315007954
 30
0.0
 10
10.00000000000006
 20
1.216015792222933
 30
0.0
 10
10.0
 20
1.27827335139585
 30
0.0
 10
10.00000000000002
 20
1.364458522754382
 30
0.0
 10
10.00000000000003
 20
1.397133604084569
 30
0.0
 10
10.00000000000002
 20
1.408195929359659
 30
0.0
  0
SPLINE
  5
BD
330
1F
100
AcDbEntity
  8
외형선
  6
Continuous
370
    15
100
AcDbSpline
210
0.0
220
0.0
230
1.0
 70
    24
 71
     3
 72
    13
 73
     9
 74
     0
 42
0.000000001
 43
0.00000001
 40
0.0
 40
0.0
 40
0.0
 40
0.0
 40
0.0983564860186758
 40
0.2751115416583743
 40
0.4530938383461347
 40
0.6349467854162336
 40
0.8181372094995171
 40
1.0
 40
1.0
 40
1.0
 40
1.0
 10
10.0
 20
2.654008716427137
 30
0.0
 10
10.0
 20
2.685466409041721
 30
0.0
 10
10.00000000000003
 20
2.773456277961705
 30
0.0
 10
9.999999999999947
 20
2.92721111139449
 30
0.0
 10
10.00000000000003
 20
3.114168997848434
 30
0.0
 10
9.999999999999988
 20
3.30908124782287
 30
0.0
 10
9.999999999999961
 20
3.509151390627622
 30
0.0
 10
10.00000000000002
 20
3.644549928191994
 30
0.0
 10
10.00000000000004
 20
3.712002986780226
 30
0.0
  0
LINE
  5
BE
330
1F
100
AcDbEntity
  8
중심선
 48
0.8
100
AcDbLine
 10
-56.49999999999999
 20
0.0010749287238931
 30
0.0
 11
25.70000000000003
 21
0.0010749287238993
 31
0.0
  0
LINE
  5
BF
330
1F
100
AcDbEntity
  8
참조1
100
AcDbLine
 10
-15.39999999999998
 20
0.0010749287238892
 30
0.0
 11
-15.39999999999998
 21
-39.99892507127611
 31
0.0
  0
LINE
  5
C0
330
1F
100
AcDbEntity
  8
참조1
100
AcDbLine
 10
-15.39999999999998
 20
-39.99892507127611
 30
0.0
 11
-30.55885681430864
 21
-39.9989250712761
 31
0.0
  0
CIRCLE
  5
C1
330
1F
100
AcDbEntity
  8
해칭선
100
AcDbCircle
 10
-0.0000000000000069
 20
0.0
 30
0.0
 40
3.000000000000001
  0
INSERT
  5
C2
330
1F
100
AcDbEntity
  8
0
  6
Continuous
 62
     7
100
AcDbBlockReference
 66
     1
  2
블럭10
 10
-29.34027293212519
 20
-52.04609937292004
 30
0.0
  0
ATTRIB
  5
C3
330
C2
100
AcDbEntity
  8
FORMAT
 62
     2
100
AcDbText
 10
-39.48190894426182
 20
-49.97073246008785
 30
0.0
 40
4.233333333333333
  1
EM639020 [ 4 FLUTE ]
 41
0.75
  7
SLDTEXTSTYLE0
 11
-39.48190894426182
 21
-52.08739912675452
 31
0.0
100
AcDbAttribute
  2
AUTOATTR0
 70
     0
 74
     1
  0
SEQEND
  5
C4
330
C2
100
AcDbEntity
  8
0
  6
Continuous
 62
     7
  0
HATCH
  5
C5
330
1F
100
AcDbEntity
  8
중심선
100
AcDbHatch
 10
0.0
 20
0.0
 30
0.0
210
0.0
220
0.0
230
1.0
  2
SOLID
 70
     1
 71
     0
 91
        1
 92
        0
 93
        4
 72
     1
 10
-23.62536362774434
 20
-35.7989250712761
 11
-27.07163887158162
 21
-35.7989250712761
 72
     1
 10
-27.07163887158162
 20
-35.7989250712761
 11
-29.19986873078565
 21
-38.3352506518487
 72
     1
 10
-29.19986873078565
 20
-38.3352506518487
 11
-25.75356040183521
 21
-38.33521122254621
 72
     1
 10
-25.75356040183521
 20
-38.33521122254621
 11
-23.62536362774434
 21
-35.7989250712761
 97
        0
 75
     0
 76
     1
 98
        1
 10
0.0
 20
0.0
  0
HATCH
  5
C6
330
1F
100
AcDbEntity
  8
중심선
100
AcDbHatch
 10
0.0
 20
0.0
 30
0.0
210
0.0
220
0.0
230
1.0
  2
SOLID
 70
     1
 71
     0
 91
        1
 92
        0
 93
        4
 72
     1
 10
-18.61259963670836
 20
-35.7989250712761
 11
-22.05887488054564
 21
-35.7989250712761
 72
     1
 10
-22.05887488054564
 20
-35.7989250712761
 11
-26.59001288890306
 21
-41.19892507127612
 72
     1
 10
-26.59001288890306
 20
-41.19892507127612
 11
-23.14373764506578
 21
-41.19892507127612
 72
     1
 10
-23.14373764506578
 20
-41.19892507127612
 11
-18.61259963670836
 21
-35.7989250712761
 97
        0
 75
     0
 76
     1
 98
        1
 10
0.0
 20
0.0
  0
HATCH
  5
C7
330
1F
100
AcDbEntity
  8
중심선
100
AcDbHatch
 10
0.0
 20
0.0
 30
0.0
210
0.0
220
0.0
230
1.0
  2
SOLID
 70
     1
 71
     0
 91
        1
 92
        0
 93
        4
 72
     1
 10
-13.59983564567249
 20
-35.7989250712761
 11
-17.04611088950961
 21
-35.7989250712761
 72
     1
 10
-17.04611088950961
 20
-35.7989250712761
 11
-24.09454779139886
 21
-44.19892507127612
 72
     1
 10
-24.09454779139886
 20
-44.19892507127612
 11
-20.64827254756158
 21
-44.19892507127612
 72
     1
 10
-20.64827254756158
 20
-44.19892507127612
 11
-13.59983564567249
 21
-35.7989250712761
 97
        0
 75
     0
 76
     1
 98
        1
 10
0.0
 20
0.0
  0
HATCH
  5
C8
330
1F
100
AcDbEntity
  8
중심선
100
AcDbHatch
 10
0.0
 20
0.0
 30
0.0
210
0.0
220
0.0
230
1.0
  2
SOLID
 70
     1
 71
     0
 91
        1
 92
        0
 93
        6
 72
     3
 10
-8.799945214660292
 20
-39.99892507132738
 11
3.960054785062284
 21
1.540850780301639E-10
 40
0.3939339440162633
 50
17.09539180608434
 51
320.0019657685073
 73
     0
 72
     1
 10
-7.116945558959697
 20
-38.58681907591438
 11
-4.81164368525866
 21
-36.65249236586649
 72
     3
 10
-8.799945214713139
 20
-39.99892507127625
 11
6.600054785286829
 21
-1.249000902703301E-13
 40
0.6363583540795982
 50
39.99873849337408
 51
368.4976242363724
 73
     1
 72
     1
 10
-2.37461272281253
 20
-39.03892507120613
 11
-10.11987790787722
 21
-39.0389250712061
 72
     1
 10
-10.11987790787722
 20
-39.0389250712061
 11
-10.11990295232315
 21
-40.95892507120602
 72
     1
 10
-10.11990295232315
 20
-40.95892507120602
 11
-5.678523182851114
 21
-40.95892507120599
 97
        0
 75
     0
 76
     1
 98
        1
 10
0.0
 20
0.0
  0
DIMENSION
  5
C9
330
1F
100
AcDbEntity
  8
0
  6
Continuous
 62
     0
370
    15
100
AcDbDimension
  2
_D
 10
-66.34124999999997
 20
-3.96767507127615
 30
0.0
 11
-66.34124999999999
 21
-1.647625843731246
 31
0.0
 70
   160
  1
%%c<>
 71
     2
 42
7.937499999999986
 52
-270.0
  3
SLDDIMSTYLE2
100
AcDbAlignedDimension
 13
-52.70624999999998
 23
3.969824928723886
 33
0.0
 14
-52.70624999999998
 24
-3.9676750712761
 34
0.0
 50
90.0000000000002
100
AcDbRotatedDimension
1001
ACAD
1000
DSTYLE
1002
{
1070
   171
1070
     6
1070
   273
1070
     7
1002
}
  0
DIMENSION
  5
D7
330
1F
100
AcDbEntity
  8
0
  6
Continuous
 62
     0
370
    15
100
AcDbDimension
  2
_D_1
 10
-53.49999999999999
 20
30.59532293609584
 30
0.0
 11
-15.39999999999998
 21
30.59532293609584
 31
0.0
 70
   160
  1
<>
 71
     2
 42
76.2
  3
SLDDIMSTYLE2
100
AcDbAlignedDimension
 13
22.70000000000002
 23
3.969824928723916
 33
0.0
 14
-53.49999999999999
 24
3.176074928723895
 34
0.0
 50
0.0000000000000053
100
AcDbRotatedDimension
1001
ACAD
1000
DSTYLE
1002
{
1070
   171
1070
     6
1070
   273
1070
     7
1002
}
  0
DIMENSION
  5
EB
330
1F
100
AcDbEntity
  8
0
  6
Continuous
 62
     0
370
    15
100
AcDbDimension
  2
_D_2
 10
9.999999999999988
 20
13.7337570371727
 30
0.0
 11
16.34999999999994
 21
13.7337570371727
 31
0.0
 70
   160
  1
<>
 71
     2
 42
12.70000000000003
  3
SLDDIMSTYLE2
100
AcDbAlignedDimension
 13
22.70000000000002
 23
3.969824928723916
 33
0.0
 14
9.999999999999988
 24
3.712002986780216
 34
0.0
 50
0.0000000000004328
100
AcDbRotatedDimension
1001
ACAD
1000
DSTYLE
1002
{
1070
   171
1070
     6
1070
   273
1070
     7
1002
}
  0
DIMENSION
  5
101
330
1F
100
AcDbEntity
  8
0
  6
Continuous
 62
     0
370
    15
100
AcDbDimension
  2
_D_3
 10
40.14107629384319
 20
-3.967675071276016
 30
0.0
 11
40.14107629384309
 21
24.57382492872398
 31
0.0
 70
   160
  1
%%c<>
 71
     2
 42
7.937499999999996
 52
-270.0
  3
SLDDIMSTYLE2
100
AcDbAlignedDimension
 13
22.70000000000002
 23
3.969824928723916
 33
0.0
 14
22.70000000000002
 24
-3.96767507127608
 34
0.0
 50
90.0000000000002
100
AcDbRotatedDimension
1001
ACAD
1000
DSTYLE
1002
{
1070
   171
1070
     6
1070
   273
1070
     7
1002
}
  0
LINE
  5
115
330
1F
100
AcDbEntity
  8
참조1
100
AcDbLine
 10
67.41348381534561
 20
7.441074928723896
 30
0.0
 11
67.41348381534561
 21
-7.438925071276109
 31
0.0
  0
LINE
  5
116
330
1F
100
AcDbEntity
  8
참조1
100
AcDbLine
 10
80.11348381534562
 20
5.441074928723896
 30
0.0
 11
67.41348381534561
 21
5.441074928723896
 31
0.0
  0
SOLID
  5
117
330
1F
100
AcDbEntity
  8
참조1
100
AcDbTrace
 10
67.41348381534561
 20
5.441074928723896
 30
0.0
 11
73.76348381534561
 21
4.425074928723896
 31
0.0
 12
73.76348381534561
 22
6.457074928723896
 32
0.0
 13
73.76348381534561
 23
6.457074928723896
 33
0.0
  0
LINE
  5
118
330
1F
100
AcDbEntity
  8
참조1
100
AcDbLine
 10
80.11348381534562
 20
-5.438925071276109
 30
0.0
 11
67.41348381534561
 21
-5.438925071276109
 31
0.0
  0
SOLID
  5
119
330
1F
100
AcDbEntity
  8
참조1
100
AcDbTrace
 10
67.41348381534561
 20
-5.438925071276109
 30
0.0
 11
73.76348381534561
 21
-6.454925071276109
 31
0.0
 12
73.76348381534561
 22
-4.422925071276109
 32
0.0
 13
73.76348381534561
 23
-4.422925071276109
 33
0.0
  0
MTEXT
  5
11A
330
1F
100
AcDbEntity
  8
참조1
100
AcDbMText
 10
76.81097390781589
 20
10.98929157337383
 30
0.0
 40
3.5
 41
0.0
 71
     1
 72
     1
  1
A
  7
SLDTEXTSTYLE0
 73
     1
 44
1.0
  0
MTEXT
  5
11B
330
1F
100
AcDbEntity
  8
참조1
100
AcDbMText
 10
76.81097390781589
 20
0.1092915733738251
 30
0.0
 40
3.5
 41
0.0
 71
     1
 72
     1
  1
A
  7
SLDTEXTSTYLE0
 73
     1
 44
1.0
  0
INSERT
  5
122
330
1F
100
AcDbEntity
  8
해칭선
100
AcDbBlockReference
  2
SW_DOWELSYMBOL_0
 10
-0.0000000000000069
 20
0.0
 30
0.0
  0
ARC
  5
25E
330
1F
100
AcDbEntity
  8
0
  6
Continuous
 62
     1
370
    15
100
AcDbCircle
 10
22.19200000000002
 20
3.461824928723915
 30
0.0
 40
0.508
100
AcDbArc
 50
358.7134481282486
 51
90.0
  0
ARC
  5
25F
102
{ACAD_REACTORS
102
}
330
1F
100
AcDbEntity
  8
0
  6
Continuous
 62
     1
370
    15
100
AcDbCircle
 10
22.19200000000002
 20
-3.459675071276117
 30
0.0
 40
0.508
100
AcDbArc
 50
270.0
 51
1.286551871751325
  0
SPLINE
  5
260
330
1F
100
AcDbEntity
  8
0
  6
Continuous
 62
     1
370
    15
100
AcDbSpline
210
0.0
220
0.0
230
1.0
 70
  1064
 71
     3
 72
    10
 73
     6
 74
     4
 42
0.000000001
 43
0.0000000001
 44
0.0
 40
0.0
 40
0.0
 40
0.0
 40
0.0
 40
0.803053276386023
 40
2.85934526750883
 40
3.199499361149351
 40
3.199499361149351
 40
3.199499361149351
 40
3.199499361149351
 10
19.08060570632709
 20
-3.246374741703562
 30
0.0
 10
19.33256713053373
 20
-3.337760087243179
 30
0.0
 10
20.2296990233793
 20
-3.663146039797037
 30
0.0
 10
21.29296388061606
 20
-3.815084337656319
 30
0.0
 10
22.0802515543365
 20
-3.948708339087033
 30
0.0
 10
22.19200000000002
 20
-3.967675071276117
 30
0.0
 11
19.08060570632709
 21
-3.246374741703562
 31
0.0
 11
19.84067778090424
 21
-3.505575448034226
 31
0.0
 11
21.85657122813099
 21
-3.911174217983123
 31
0.0
 11
22.19200000000002
 21
-3.967675071276117
 31
0.0
  0
DIMENSION
  5
394
102
{ACAD_REACTORS
102
}
102
{ACAD_XDICTIONARY
360
395
102
}
330
1F
100
AcDbEntity
  8
0
  6
Continuous
 62
     0
370
    15
100
AcDbDimension
  2
*D28
 10
22.19200000000002
 20
-3.459675071276117
 30
0.0
 11
30.84801401323411
 21
-22.47549261786598
 31
0.0
 70
   164
  1
<>
 71
     5
 42
0.5079999999999997
  3
SLDDIMSTYLE2
100
AcDbRadialDimension
 15
22.40246295424232
 25
-3.922027042064177
 35
0.0
 40
0.0
1001
ACAD
1000
DSTYLE
1002
{
1070
   171
1070
     3
1002
}
1001
ACAD_DSTYLE_DIMRADIAL_EXTENSION
1070
   387
1070
     1
1070
   388
1040
4.71238898038469
1070
   390
1040
0.0224545661597565
  0
ENDSEC
  0
SECTION
  2
OBJECTS
  0
DICTIONARY
  5
C
330
0
100
AcDbDictionary
281
     1
  3
ACAD_GROUP
350
D
  3
ACAD_IMAGE_VARS
350
146
  3
ACAD_LAYOUT
350
1A
  3
ACAD_MLINESTYLE
350
17
  3
ACAD_PLOTSETTINGS
350
19
  3
ACAD_PLOTSTYLENAME
350
E
  3
ACAD_SCALELIST
350
47
  3
APPDATA
350
144
  3
DWGPROPS
350
3A1
  0
DICTIONARY
  5
1E7
330
2
100
AcDbDictionary
280
     1
281
     1
  3
ACAD_LAYERSTATES
360
1E8
  0
DICTIONARY
  5
395
330
394
100
AcDbDictionary
280
     1
281
     1
  0
DICTIONARY
  5
D
102
{ACAD_REACTORS
330
C
102
}
330
C
100
AcDbDictionary
281
     1
  0
RASTERVARIABLES
  5
146
102
{ACAD_REACTORS
330
C
102
}
330
C
100
AcDbRasterVariables
 90
        0
 70
     1
 71
     1
 72
     1
  0
DICTIONARY
  5
1A
102
{ACAD_REACTORS
330
C
102
}
330
C
100
AcDbDictionary
281
     1
  3
Layout1
350
1E
  3
Layout2
350
26
  3
Model
350
22
  0
DICTIONARY
  5
17
102
{ACAD_REACTORS
330
C
102
}
330
C
100
AcDbDictionary
281
     1
  3
Standard
350
18
  0
DICTIONARY
  5
19
102
{ACAD_REACTORS
330
C
102
}
330
C
100
AcDbDictionary
281
     1
  0
ACDBDICTIONARYWDFLT
  5
E
102
{ACAD_REACTORS
330
C
102
}
330
C
100
AcDbDictionary
281
     1
  3
Normal
350
F
100
AcDbDictionaryWithDefault
340
F
  0
DICTIONARY
  5
47
102
{ACAD_REACTORS
330
C
102
}
330
C
100
AcDbDictionary
281
     1
  3
A0
350
48
  3
A1
350
49
  3
A2
350
4A
  3
A3
350
4B
  3
A4
350
4C
  3
A5
350
4D
  3
A6
350
4E
  3
A7
350
4F
  3
A8
350
50
  3
A9
350
51
  3
B0
350
52
  3
B1
350
53
  3
B2
350
54
  3
B3
350
55
  3
B4
350
56
  3
B5
350
57
  3
B6
350
58
  3
B7
350
59
  3
B8
350
5A
  3
B9
350
5B
  3
C0
350
5C
  3
C1
350
5D
  3
C2
350
5E
  3
C3
350
5F
  3
C4
350
60
  3
C5
350
61
  3
C6
350
62
  3
C7
350
63
  3
C8
350
64
  3
C9
350
65
  3
D0
350
66
  3
D1
350
67
  3
D2
350
68
  0
DICTIONARY
  5
144
102
{ACAD_REACTORS
330
C
102
}
330
C
100
AcDbDictionary
281
     1
  0
XRECORD
  5
3A1
102
{ACAD_REACTORS
330
C
102
}
330
C
100
AcDbXrecord
280
     1
  1
DWGPROPS COOKIE
  2

  3

  4

  6

  7

  8
12017012
  9

300
=
301
=
302
=
303
=
304
=
305
=
306
=
307
=
308
=
309
=
 40
0.0
 41
2458296.313678542
 42
2458296.355029386
  1

 90
        0
  0
DICTIONARY
  5
1E8
102
{ACAD_REACTORS
330
1E7
102
}
330
1E7
100
AcDbDictionary
281
     1
  0
LAYOUT
  5
1E
102
{ACAD_REACTORS
330
1A
102
}
330
1A
100
AcDbPlotSettings
  1

  2
none_device
  4

  6

 40
0.0
 41
0.0
 42
0.0
 43
0.0
 44
0.0
 45
0.0
 46
0.0
 47
0.0
 48
0.0
 49
0.0
140
0.0
141
0.0
142
1.0
143
1.0
 70
   688
 72
     1
 73
     0
 74
     5
  7

 75
    16
147
1.0
148
0.0
149
0.0
100
AcDbLayout
  1
Layout1
 70
     1
 71
     1
 10
0.0
 20
0.0
 11
420.0
 21
297.0
 12
0.0
 22
0.0
 32
0.0
 14
1.000000000000000E+20
 24
1.000000000000000E+20
 34
1.000000000000000E+20
 15
-1.000000000000000E+20
 25
-1.000000000000000E+20
 35
-1.000000000000000E+20
146
0.0
 13
0.0
 23
0.0
 33
0.0
 16
1.0
 26
0.0
 36
0.0
 17
0.0
 27
1.0
 37
0.0
 76
     0
330
1B
  0
LAYOUT
  5
26
102
{ACAD_REACTORS
330
1A
102
}
330
1A
100
AcDbPlotSettings
  1

  2
none_device
  4

  6

 40
0.0
 41
0.0
 42
0.0
 43
0.0
 44
0.0
 45
0.0
 46
0.0
 47
0.0
 48
0.0
 49
0.0
140
0.0
141
0.0
142
1.0
143
1.0
 70
   688
 72
     1
 73
     0
 74
     5
  7

 75
    16
147
1.0
148
0.0
149
0.0
100
AcDbLayout
  1
Layout2
 70
     1
 71
     2
 10
0.0
 20
0.0
 11
0.0
 21
0.0
 12
0.0
 22
0.0
 32
0.0
 14
0.0
 24
0.0
 34
0.0
 15
0.0
 25
0.0
 35
0.0
146
0.0
 13
0.0
 23
0.0
 33
0.0
 16
1.0
 26
0.0
 36
0.0
 17
0.0
 27
1.0
 37
0.0
 76
     0
330
23
  0
LAYOUT
  5
22
102
{ACAD_REACTORS
330
1A
102
}
330
1A
100
AcDbPlotSettings
  1

  2
none_device
  4
ANSI_A_(11.00_x_8.50_Inches)
  6

 40
6.35
 41
19.05
 42
6.35000508
 43
19.05000254
 44
279.4
 45
215.9
 46
124.9182692373073
 47
97.44113581793017
 48
0.0
 49
0.0
140
0.0
141
0.0
142
0.072109681528248
143
1.0
 70
  1696
 72
     0
 73
     0
 74
     0
  7

 75
     0
147
0.0235690232323232
148
0.0
149
0.0
100
AcDbLayout
  1
Model
 70
     1
 71
     0
 10
0.0
 20
0.0
 11
420.0
 21
297.0
 12
0.0
 22
0.0
 32
0.0
 14
1.000000000000000E+20
 24
1.000000000000000E+20
 34
1.000000000000000E+20
 15
-1.000000000000000E+20
 25
-1.000000000000000E+20
 35
-1.000000000000000E+20
146
0.0
 13
0.0
 23
0.0
 33
0.0
 16
1.0
 26
0.0
 36
0.0
 17
0.0
 27
1.0
 37
0.0
 76
     0
330
1F
331
29
  0
MLINESTYLE
  5
18
102
{ACAD_REACTORS
330
17
102
}
330
17
100
AcDbMlineStyle
  2
Standard
 70
     0
  3

 62
   256
 51
90.0
 52
90.0
 71
     2
 49
0.5
 62
   256
  6
BYLAYER
 49
-0.5
 62
   256
  6
BYLAYER
  0
ACDBPLACEHOLDER
  5
F
102
{ACAD_REACTORS
330
E
102
}
330
E
  0
SCALE
  5
48
102
{ACAD_REACTORS
330
47
102
}
330
47
100
AcDbScale
 70
     0
300
1:1
140
1.0
141
1.0
290
     1
  0
SCALE
  5
49
102
{ACAD_REACTORS
330
47
102
}
330
47
100
AcDbScale
 70
     0
300
1:2
140
1.0
141
2.0
290
     0
  0
SCALE
  5
4A
102
{ACAD_REACTORS
330
47
102
}
330
47
100
AcDbScale
 70
     0
300
1:4
140
1.0
141
4.0
290
     0
  0
SCALE
  5
4B
102
{ACAD_REACTORS
330
47
102
}
330
47
100
AcDbScale
 70
     0
300
1:5
140
1.0
141
5.0
290
     0
  0
SCALE
  5
4C
102
{ACAD_REACTORS
330
47
102
}
330
47
100
AcDbScale
 70
     0
300
1:8
140
1.0
141
8.0
290
     0
  0
SCALE
  5
4D
102
{ACAD_REACTORS
330
47
102
}
330
47
100
AcDbScale
 70
     0
300
1:10
140
1.0
141
10.0
290
     0
  0
SCALE
  5
4E
102
{ACAD_REACTORS
330
47
102
}
330
47
100
AcDbScale
 70
     0
300
1:16
140
1.0
141
16.0
290
     0
  0
SCALE
  5
4F
102
{ACAD_REACTORS
330
47
102
}
330
47
100
AcDbScale
 70
     0
300
1:20
140
1.0
141
20.0
290
     0
  0
SCALE
  5
50
102
{ACAD_REACTORS
330
47
102
}
330
47
100
AcDbScale
 70
     0
300
1:30
140
1.0
141
30.0
290
     0
  0
SCALE
  5
51
102
{ACAD_REACTORS
330
47
102
}
330
47
100
AcDbScale
 70
     0
300
1:40
140
1.0
141
40.0
290
     0
  0
SCALE
  5
52
102
{ACAD_REACTORS
330
47
102
}
330
47
100
AcDbScale
 70
     0
300
1:50
140
1.0
141
50.0
290
     0
  0
SCALE
  5
53
102
{ACAD_REACTORS
330
47
102
}
330
47
100
AcDbScale
 70
     0
300
1:100
140
1.0
141
100.0
290
     0
  0
SCALE
  5
54
102
{ACAD_REACTORS
330
47
102
}
330
47
100
AcDbScale
 70
     0
300
2:1
140
2.0
141
1.0
290
     0
  0
SCALE
  5
55
102
{ACAD_REACTORS
330
47
102
}
330
47
100
AcDbScale
 70
     0
300
4:1
140
4.0
141
1.0
290
     0
  0
SCALE
  5
56
102
{ACAD_REACTORS
330
47
102
}
330
47
100
AcDbScale
 70
     0
300
8:1
140
8.0
141
1.0
290
     0
  0
SCALE
  5
57
102
{ACAD_REACTORS
330
47
102
}
330
47
100
AcDbScale
 70
     0
300
10:1
140
10.0
141
1.0
290
     0
  0
SCALE
  5
58
102
{ACAD_REACTORS
330
47
102
}
330
47
100
AcDbScale
 70
     0
300
100:1
140
100.0
141
1.0
290
     0
  0
SCALE
  5
59
102
{ACAD_REACTORS
330
47
102
}
330
47
100
AcDbScale
 70
     0
300
1/128" = 1'-0"
140
0.0078125
141
12.0
290
     0
  0
SCALE
  5
5A
102
{ACAD_REACTORS
330
47
102
}
330
47
100
AcDbScale
 70
     0
300
1/64" = 1'-0"
140
0.015625
141
12.0
290
     0
  0
SCALE
  5
5B
102
{ACAD_REACTORS
330
47
102
}
330
47
100
AcDbScale
 70
     0
300
1/32" = 1'-0"
140
0.03125
141
12.0
290
     0
  0
SCALE
  5
5C
102
{ACAD_REACTORS
330
47
102
}
330
47
100
AcDbScale
 70
     0
300
1/16" = 1'-0"
140
0.0625
141
12.0
290
     0
  0
SCALE
  5
5D
102
{ACAD_REACTORS
330
47
102
}
330
47
100
AcDbScale
 70
     0
300
3/32" = 1'-0"
140
0.09375
141
12.0
290
     0
  0
SCALE
  5
5E
102
{ACAD_REACTORS
330
47
102
}
330
47
100
AcDbScale
 70
     0
300
1/8" = 1'-0"
140
0.125
141
12.0
290
     0
  0
SCALE
  5
5F
102
{ACAD_REACTORS
330
47
102
}
330
47
100
AcDbScale
 70
     0
300
3/16" = 1'-0"
140
0.1875
141
12.0
290
     0
  0
SCALE
  5
60
102
{ACAD_REACTORS
330
47
102
}
330
47
100
AcDbScale
 70
     0
300
1/4" = 1'-0"
140
0.25
141
12.0
290
     0
  0
SCALE
  5
61
102
{ACAD_REACTORS
330
47
102
}
330
47
100
AcDbScale
 70
     0
300
3/8" = 1'-0"
140
0.375
141
12.0
290
     0
  0
SCALE
  5
62
102
{ACAD_REACTORS
330
47
102
}
330
47
100
AcDbScale
 70
     0
300
1/2" = 1'-0"
140
0.5
141
12.0
290
     0
  0
SCALE
  5
63
102
{ACAD_REACTORS
330
47
102
}
330
47
100
AcDbScale
 70
     0
300
3/4" = 1'-0"
140
0.75
141
12.0
290
     0
  0
SCALE
  5
64
102
{ACAD_REACTORS
330
47
102
}
330
47
100
AcDbScale
 70
     0
300
1" = 1'-0"
140
1.0
141
12.0
290
     0
  0
SCALE
  5
65
102
{ACAD_REACTORS
330
47
102
}
330
47
100
AcDbScale
 70
     0
300
1-1/2" = 1'-0"
140
1.5
141
12.0
290
     0
  0
SCALE
  5
66
102
{ACAD_REACTORS
330
47
102
}
330
47
100
AcDbScale
 70
     0
300
3" = 1'-0"
140
3.0
141
12.0
290
     0
  0
SCALE
  5
67
102
{ACAD_REACTORS
330
47
102
}
330
47
100
AcDbScale
 70
     0
300
6" = 1'-0"
140
6.0
141
12.0
290
     0
  0
SCALE
  5
68
102
{ACAD_REACTORS
330
47
102
}
330
47
100
AcDbScale
 70
     0
300
1'-0" = 1'-0"
140
12.0
141
12.0
290
     0
  0
ENDSEC
  0
EOF
