  0
SECTION
  2
HEADER
  9
$ACADVER
  1
AC1015
  9
$ACADMAINTVER
 70
     6
  9
$DWGCODEPAGE
  3
ANSI_949
  9
$INSBASE
 10
0.0
 20
0.0
 30
0.0
  9
$EXTMIN
 10
1.000000000000000E+20
 20
1.000000000000000E+20
 30
1.000000000000000E+20
  9
$EXTMAX
 10
-1.000000000000000E+20
 20
-1.000000000000000E+20
 30
-1.000000000000000E+20
  9
$LIMMIN
 10
0.0
 20
0.0
  9
$LIMMAX
 10
420.0
 20
297.0
  9
$ORTHOMODE
 70
     1
  9
$REGENMODE
 70
     1
  9
$FILLMODE
 70
     1
  9
$QTEXTMODE
 70
     0
  9
$MIRRTEXT
 70
     1
  9
$LTSCALE
 40
1.0
  9
$ATTMODE
 70
     1
  9
$TEXTSIZE
 40
3.5
  9
$TRACEWID
 40
1.0
  9
$TEXTSTYLE
  7
Standard
  9
$CLAYER
  8
0
  9
$CELTYPE
  6
ByLayer
  9
$CECOLOR
 62
   256
  9
$CELTSCALE
 40
1.0
  9
$DISPSILH
 70
     0
  9
$DIMSCALE
 40
1.0
  9
$DIMASZ
 40
3.302
  9
$DIMEXO
 40
1.0
  9
$DIMDLI
 40
3.75
  9
$DIMRND
 40
0.0
  9
$DIMDLE
 40
0.0
  9
$DIMEXE
 40
1.0
  9
$DIMTP
 40
0.0
  9
$DIMTM
 40
0.0
  9
$DIMTXT
 40
3.5
  9
$DIMCEN
 40
2.5
  9
$DIMTSZ
 40
0.0
  9
$DIMTOL
 70
     0
  9
$DIMLIM
 70
     0
  9
$DIMTIH
 70
     1
  9
$DIMTOH
 70
     1
  9
$DIMSE1
 70
     0
  9
$DIMSE2
 70
     0
  9
$DIMTAD
 70
     1
  9
$DIMZIN
 70
     0
  9
$DIMBLK
  1

  9
$DIMASO
 70
     1
  9
$DIMSHO
 70
     1
  9
$DIMPOST
  1

  9
$DIMAPOST
  1

  9
$DIMALT
 70
     0
  9
$DIMALTD
 70
     3
  9
$DIMALTF
 40
0.0393700787401575
  9
$DIMLFAC
 40
1.0
  9
$DIMTOFL
 70
     1
  9
$DIMTVP
 40
0.0
  9
$DIMTIX
 70
     0
  9
$DIMSOXD
 70
     0
  9
$DIMSAH
 70
     0
  9
$DIMBLK1
  1

  9
$DIMBLK2
  1

  9
$DIMSTYLE
  2
ISO-25
  9
$DIMCLRD
 70
     0
  9
$DIMCLRE
 70
     0
  9
$DIMCLRT
 70
     0
  9
$DIMTFAC
 40
1.0
  9
$DIMGAP
 40
1.524
  9
$DIMJUST
 70
     0
  9
$DIMSD1
 70
     0
  9
$DIMSD2
 70
     0
  9
$DIMTOLJ
 70
     0
  9
$DIMTZIN
 70
     0
  9
$DIMALTZ
 70
     0
  9
$DIMALTTZ
 70
     0
  9
$DIMUPT
 70
     0
  9
$DIMDEC
 70
     2
  9
$DIMTDEC
 70
     2
  9
$DIMALTU
 70
     2
  9
$DIMALTTD
 70
     3
  9
$DIMTXSTY
  7
Standard
  9
$DIMAUNIT
 70
     0
  9
$DIMADEC
 70
     2
  9
$DIMALTRND
 40
0.0
  9
$DIMAZIN
 70
     0
  9
$DIMDSEP
 70
    44
  9
$DIMATFIT
 70
     3
  9
$DIMFRAC
 70
     0
  9
$DIMLDRBLK
  1

  9
$DIMLUNIT
 70
     2
  9
$DIMLWD
 70
    -2
  9
$DIMLWE
 70
    -2
  9
$DIMTMOVE
 70
     0
  9
$LUNITS
 70
     2
  9
$LUPREC
 70
     2
  9
$SKETCHINC
 40
1.0
  9
$FILLETRAD
 40
10.0
  9
$AUNITS
 70
     0
  9
$AUPREC
 70
     2
  9
$MENU
  1
.
  9
$ELEVATION
 40
0.0
  9
$PELEVATION
 40
0.0
  9
$THICKNESS
 40
0.0
  9
$LIMCHECK
 70
     0
  9
$CHAMFERA
 40
0.0
  9
$CHAMFERB
 40
0.0
  9
$CHAMFERC
 40
0.0
  9
$CHAMFERD
 40
0.0
  9
$SKPOLY
 70
     0
  9
$TDCREATE
 40
2458296.689541065
  9
$TDUCREATE
 40
2458296.314541065
  9
$TDUPDATE
 40
2458296.743544815
  9
$TDUUPDATE
 40
2458296.368544815
  9
$TDINDWG
 40
0.001817662
  9
$TDUSRTIMER
 40
2458296.366727651
  9
$USRTIMER
 70
     1
  9
$ANGBASE
 50
0.0
  9
$ANGDIR
 70
     0
  9
$PDMODE
 70
     0
  9
$PDSIZE
 40
-1.0
  9
$PLINEWID
 40
0.0
  9
$SPLFRAME
 70
     0
  9
$SPLINETYPE
 70
     6
  9
$SPLINESEGS
 70
     8
  9
$HANDSEED
  5
275
  9
$SURFTAB1
 70
     6
  9
$SURFTAB2
 70
     6
  9
$SURFTYPE
 70
     6
  9
$SURFU
 70
     6
  9
$SURFV
 70
     6
  9
$UCSBASE
  2

  9
$UCSNAME
  2

  9
$UCSORG
 10
0.0
 20
0.0
 30
0.0
  9
$UCSXDIR
 10
1.0
 20
0.0
 30
0.0
  9
$UCSYDIR
 10
0.0
 20
1.0
 30
0.0
  9
$UCSORTHOREF
  2

  9
$UCSORTHOVIEW
 70
     0
  9
$UCSORGTOP
 10
0.0
 20
0.0
 30
0.0
  9
$UCSORGBOTTOM
 10
0.0
 20
0.0
 30
0.0
  9
$UCSORGLEFT
 10
0.0
 20
0.0
 30
0.0
  9
$UCSORGRIGHT
 10
0.0
 20
0.0
 30
0.0
  9
$UCSORGFRONT
 10
0.0
 20
0.0
 30
0.0
  9
$UCSORGBACK
 10
0.0
 20
0.0
 30
0.0
  9
$PUCSBASE
  2

  9
$PUCSNAME
  2

  9
$PUCSORG
 10
0.0
 20
0.0
 30
0.0
  9
$PUCSXDIR
 10
1.0
 20
0.0
 30
0.0
  9
$PUCSYDIR
 10
0.0
 20
1.0
 30
0.0
  9
$PUCSORTHOREF
  2

  9
$PUCSORTHOVIEW
 70
     0
  9
$PUCSORGTOP
 10
0.0
 20
0.0
 30
0.0
  9
$PUCSORGBOTTOM
 10
0.0
 20
0.0
 30
0.0
  9
$PUCSORGLEFT
 10
0.0
 20
0.0
 30
0.0
  9
$PUCSORGRIGHT
 10
0.0
 20
0.0
 30
0.0
  9
$PUCSORGFRONT
 10
0.0
 20
0.0
 30
0.0
  9
$PUCSORGBACK
 10
0.0
 20
0.0
 30
0.0
  9
$USERI1
 70
     0
  9
$USERI2
 70
     0
  9
$USERI3
 70
     0
  9
$USERI4
 70
     0
  9
$USERI5
 70
     0
  9
$USERR1
 40
0.0
  9
$USERR2
 40
0.0
  9
$USERR3
 40
0.0
  9
$USERR4
 40
0.0
  9
$USERR5
 40
0.0
  9
$WORLDVIEW
 70
     1
  9
$SHADEDGE
 70
     3
  9
$SHADEDIF
 70
    70
  9
$TILEMODE
 70
     1
  9
$MAXACTVP
 70
    64
  9
$PINSBASE
 10
0.0
 20
0.0
 30
0.0
  9
$PLIMCHECK
 70
     0
  9
$PEXTMIN
 10
1.000000000000000E+20
 20
1.000000000000000E+20
 30
1.000000000000000E+20
  9
$PEXTMAX
 10
-1.000000000000000E+20
 20
-1.000000000000000E+20
 30
-1.000000000000000E+20
  9
$PLIMMIN
 10
0.0
 20
0.0
  9
$PLIMMAX
 10
0.0
 20
0.0
  9
$UNITMODE
 70
     0
  9
$VISRETAIN
 70
     1
  9
$PLINEGEN
 70
     0
  9
$PSLTSCALE
 70
     1
  9
$TREEDEPTH
 70
  3020
  9
$CMLSTYLE
  2
Standard
  9
$CMLJUST
 70
     0
  9
$CMLSCALE
 40
20.0
  9
$PROXYGRAPHICS
 70
     1
  9
$MEASUREMENT
 70
     1
  9
$CELWEIGHT
370
    -1
  9
$ENDCAPS
280
     0
  9
$JOINSTYLE
280
     0
  9
$LWDISPLAY
290
     1
  9
$INSUNITS
 70
     4
  9
$HYPERLINKBASE
  1

  9
$STYLESHEET
  1

  9
$XEDIT
290
     1
  9
$CEPSNTYPE
380
     0
  9
$PSTYLEMODE
290
     1
  9
$FINGERPRINTGUID
  2
{23318C2E-F33D-434E-B8BA-E0809AFBA1E0}
  9
$VERSIONGUID
  2
{FAEB1C32-E019-11D5-929B-00C0DF256EC4}
  9
$EXTNAMES
290
     1
  9
$PSVPSCALE
 40
0.0
  9
$OLESTARTUP
290
     0
  0
ENDSEC
  0
SECTION
  2
CLASSES
  0
CLASS
  1
ACDBDICTIONARYWDFLT
  2
AcDbDictionaryWithDefault
  3
ObjectDBX Classes
 90
        0
280
     0
281
     0
  0
CLASS
  1
VISUALSTYLE
  2
AcDbVisualStyle
  3
ObjectDBX Classes
 90
     4095
280
     0
281
     0
  0
CLASS
  1
MATERIAL
  2
AcDbMaterial
  3
ObjectDBX Classes
 90
     1153
280
     0
281
     0
  0
CLASS
  1
SCALE
  2
AcDbScale
  3
ObjectDBX Classes
 90
     1153
280
     0
281
     0
  0
CLASS
  1
SUN
  2
AcDbSun
  3
SCENEOE
 90
     1153
280
     0
281
     0
  0
CLASS
  1
ACDBPLACEHOLDER
  2
AcDbPlaceHolder
  3
ObjectDBX Classes
 90
        0
280
     0
281
     0
  0
CLASS
  1
LAYOUT
  2
AcDbLayout
  3
ObjectDBX Classes
 90
        0
280
     0
281
     0
  0
CLASS
  1
TABLESTYLE
  2
AcDbTableStyle
  3
ObjectDBX Classes
 90
     4095
280
     0
281
     0
  0
CLASS
  1
MLEADERSTYLE
  2
AcDbMLeaderStyle
  3
ACDB_MLEADERSTYLE_CLASS
 90
     4095
280
     0
281
     0
  0
CLASS
  1
RASTERVARIABLES
  2
AcDbRasterVariables
  3
ISM
 90
        0
280
     0
281
     0
  0
CLASS
  1
DIMASSOC
  2
AcDbDimAssoc
  3
"AcDbDimAssoc|Product Desc:     AcDim ARX App For Dimension|Company:          Autodesk, Inc.|WEB Address:      www.autodesk.com"
 90
        0
280
     0
281
     0
  0
ENDSEC
  0
SECTION
  2
TABLES
  0
TABLE
  2
VPORT
  5
8
330
0
100
AcDbSymbolTable
 70
     1
  0
VPORT
  5
29
330
8
100
AcDbSymbolTableRecord
100
AcDbViewportTableRecord
  2
*Active
 70
     0
 10
0.0
 20
0.0
 11
1.0
 21
1.0
 12
3.458195586800315
 22
24.07281054023498
 13
0.0
 23
0.0
 14
10.0
 24
10.0
 15
10.0
 25
10.0
 16
0.0
 26
0.0
 36
1.0
 17
0.0
 27
0.0
 37
0.0
 40
152.7552560465655
 41
1.798434442270059
 42
50.0
 43
0.0
 44
0.0
 50
0.0
 51
0.0
 71
    16
 72
  2000
 73
     1
 74
     3
 75
     0
 76
     0
 77
     0
 78
     0
281
     0
 65
     1
110
0.0
120
0.0
130
0.0
111
1.0
121
0.0
131
0.0
112
0.0
122
1.0
132
0.0
 79
     0
146
0.0
  0
ENDTAB
  0
TABLE
  2
LTYPE
  5
5
330
0
100
AcDbSymbolTable
 70
     6
  0
LTYPE
  5
14
330
5
100
AcDbSymbolTableRecord
100
AcDbLinetypeTableRecord
  2
ByBlock
 70
     0
  3

 72
    65
 73
     0
 40
0.0
  0
LTYPE
  5
15
330
5
100
AcDbSymbolTableRecord
100
AcDbLinetypeTableRecord
  2
ByLayer
 70
     0
  3

 72
    65
 73
     0
 40
0.0
  0
LTYPE
  5
16
330
5
100
AcDbSymbolTableRecord
100
AcDbLinetypeTableRecord
  2
Continuous
 70
     0
  3
Solid line
 72
    65
 73
     0
 40
0.0
  0
LTYPE
  5
6A
330
5
100
AcDbSymbolTableRecord
100
AcDbLinetypeTableRecord
  2
HIDDEN
 70
     0
  3
Hidden __ __ __ __ __ __ __ __ __ __ __ __ __ __
 72
    65
 73
     2
 40
1.905
 49
1.27
 74
     0
 49
-0.635
 74
     0
  0
LTYPE
  5
6B
330
5
100
AcDbSymbolTableRecord
100
AcDbLinetypeTableRecord
  2
PHANTOM
 70
     0
  3
Phantom ______  __  __  ______  __  __  ______
 72
    65
 73
     6
 40
12.7
 49
6.35
 74
     0
 49
-1.27
 74
     0
 49
1.27
 74
     0
 49
-1.27
 74
     0
 49
1.27
 74
     0
 49
-1.27
 74
     0
  0
LTYPE
  5
6C
330
5
100
AcDbSymbolTableRecord
100
AcDbLinetypeTableRecord
  2
CENTER
 70
     0
  3
Center ____ _ ____ _ ____ _ ____ _ ____ _ ____
 72
    65
 73
     4
 40
10.16
 49
6.35
 74
     0
 49
-1.27
 74
     0
 49
1.27
 74
     0
 49
-1.27
 74
     0
  0
LTYPE
  5
6D
330
5
100
AcDbSymbolTableRecord
100
AcDbLinetypeTableRecord
  2
CENTERX2
 70
     0
  3
Center (2x) ________  __  ________  __  _____
 72
    65
 73
     4
 40
20.32
 49
12.7
 74
     0
 49
-2.54
 74
     0
 49
2.54
 74
     0
 49
-2.54
 74
     0
  0
LTYPE
  5
6E
330
5
100
AcDbSymbolTableRecord
100
AcDbLinetypeTableRecord
  2
DOT2
 70
     0
  3
Dot (.5x) ........................................
 72
    65
 73
     2
 40
0.635
 49
0.0
 74
     0
 49
-0.635
 74
     0
  0
ENDTAB
  0
TABLE
  2
LAYER
  5
2
102
{ACAD_XDICTIONARY
360
1E7
102
}
330
0
100
AcDbSymbolTable
 70
    18
  0
LAYER
  5
10
330
2
100
AcDbSymbolTableRecord
100
AcDbLayerTableRecord
  2
0
 70
     0
 62
     7
  6
Continuous
370
    -3
390
F
  0
LAYER
  5
6F
330
2
100
AcDbSymbolTableRecord
100
AcDbLayerTableRecord
  2
FORMAT
 70
     0
 62
     2
  6
Continuous
370
    -3
390
F
  0
LAYER
  5
70
330
2
100
AcDbSymbolTableRecord
100
AcDbLayerTableRecord
  2
외형선
 70
     0
 62
     4
  6
Continuous
370
    30
390
F
  0
LAYER
  5
71
330
2
100
AcDbSymbolTableRecord
100
AcDbLayerTableRecord
  2
숨은선
 70
     0
 62
     2
  6
HIDDEN
370
    15
390
F
  0
LAYER
  5
72
330
2
100
AcDbSymbolTableRecord
100
AcDbLayerTableRecord
  2
중심선
 70
     0
 62
     1
  6
CENTERX2
370
    -3
390
F
  0
LAYER
  5
73
330
2
100
AcDbSymbolTableRecord
100
AcDbLayerTableRecord
  2
파단선
 70
     0
 62
     4
  6
Continuous
370
    -3
390
F
  0
LAYER
  5
74
330
2
100
AcDbSymbolTableRecord
100
AcDbLayerTableRecord
  2
해칭선
 70
     0
 62
   100
  6
Continuous
370
    -3
390
F
  0
LAYER
  5
75
330
2
100
AcDbSymbolTableRecord
100
AcDbLayerTableRecord
  2
가는실선
 70
     0
 62
     4
  6
Continuous
370
    -3
390
F
  0
LAYER
  5
76
330
2
100
AcDbSymbolTableRecord
100
AcDbLayerTableRecord
  2
치수_보조선
 70
     0
 62
     4
  6
Continuous
370
    -3
390
F
  0
LAYER
  5
77
330
2
100
AcDbSymbolTableRecord
100
AcDbLayerTableRecord
  2
치수문자_일반주서
 70
     0
 62
     7
  6
Continuous
370
    15
390
F
  0
LAYER
  5
78
330
2
100
AcDbSymbolTableRecord
100
AcDbLayerTableRecord
  2
개별주서
 70
     0
 62
   100
  6
Continuous
370
    30
390
F
  0
LAYER
  5
79
330
2
100
AcDbSymbolTableRecord
100
AcDbLayerTableRecord
  2
중간선
 70
     0
 62
     2
  6
Continuous
370
    15
390
F
  0
LAYER
  5
7A
330
2
100
AcDbSymbolTableRecord
100
AcDbLayerTableRecord
  2
윤곽선
 70
     0
 62
     3
  6
Continuous
370
    40
390
F
  0
LAYER
  5
7B
330
2
100
AcDbSymbolTableRecord
100
AcDbLayerTableRecord
  2
중심마크
 70
     0
 62
   100
  6
Continuous
370
    30
390
F
  0
LAYER
  5
7C
330
2
100
AcDbSymbolTableRecord
100
AcDbLayerTableRecord
  2
가상선
 70
     0
 62
     4
  6
PHANTOM
370
    -3
390
F
  0
LAYER
  5
7D
330
2
100
AcDbSymbolTableRecord
100
AcDbLayerTableRecord
  2
특수지정선
 70
     0
 62
     5
  6
CENTERX2
370
    60
390
F
  0
LAYER
  5
7E
330
2
100
AcDbSymbolTableRecord
100
AcDbLayerTableRecord
  2
참조1
 70
     0
 62
    -4
  6
Continuous
370
    -3
390
F
  0
LAYER
  5
148
330
2
100
AcDbSymbolTableRecord
100
AcDbLayerTableRecord
  2
Defpoints
 70
     0
 62
     7
  6
Continuous
290
     0
370
    -3
390
F
  0
ENDTAB
  0
TABLE
  2
STYLE
  5
3
330
0
100
AcDbSymbolTable
 70
     2
  0
STYLE
  5
11
330
3
100
AcDbSymbolTableRecord
100
AcDbTextStyleTableRecord
  2
Standard
 70
     0
 40
0.0
 41
1.0
 50
0.0
 71
     0
 42
3.5
  3
txt
  4

  0
STYLE
  5
94
330
3
100
AcDbSymbolTableRecord
100
AcDbTextStyleTableRecord
  2
SLDTEXTSTYLE0
 70
     0
 40
0.0
 41
0.75
 50
0.0
 71
     0
 42
3.5
  3
TXT
  4

  0
ENDTAB
  0
TABLE
  2
VIEW
  5
6
330
0
100
AcDbSymbolTable
 70
     0
  0
ENDTAB
  0
TABLE
  2
UCS
  5
7
330
0
100
AcDbSymbolTable
 70
     0
  0
ENDTAB
  0
TABLE
  2
APPID
  5
9
330
0
100
AcDbSymbolTable
 70
     2
  0
APPID
  5
12
330
9
100
AcDbSymbolTableRecord
100
AcDbRegAppTableRecord
  2
ACAD
 70
     0
  0
APPID
  5
152
330
9
100
AcDbSymbolTableRecord
100
AcDbRegAppTableRecord
  2
ACAD_DSTYLE_DIMRADIAL_EXTENSION
 70
     0
  0
ENDTAB
  0
TABLE
  2
DIMSTYLE
  5
A
330
0
100
AcDbSymbolTable
 70
     5
100
AcDbDimStyleTable
  0
DIMSTYLE
105
27
330
A
100
AcDbSymbolTableRecord
100
AcDbDimStyleTableRecord
  2
ISO-25
 70
     0
 41
2.5
 42
0.625
 43
3.75
 44
1.25
 73
     0
 74
     0
 77
     1
 78
     8
140
2.5
141
2.5
143
0.03937007874016
147
0.625
171
     3
172
     1
178
     0
271
     2
272
     2
274
     3
278
    44
283
     0
284
     8
340
11
  0
DIMSTYLE
105
CA
330
A
100
AcDbSymbolTableRecord
100
AcDbDimStyleTableRecord
  2
SLDDIMSTYLE0
 70
     0
 41
3.302
 44
0.0
 45
0.000000001
 73
     0
 74
     0
 77
     1
 78
     4
 79
     1
140
3.5
147
0.875
172
     1
173
     1
178
     0
271
     2
272
     2
276
     2
284
    12
289
     0
340
94
  0
DIMSTYLE
105
D8
330
A
100
AcDbSymbolTableRecord
100
AcDbDimStyleTableRecord
  2
SLDDIMSTYLE1
 70
     0
 41
3.302
 44
0.0
 45
0.000000001
 73
     0
 74
     0
 77
     1
 78
     4
 79
     1
140
3.5
143
0.0393700787401575
147
0.875
148
0.000000001
170
     1
173
     1
178
     0
271
     2
272
     2
276
     2
284
    12
340
94
  0
DIMSTYLE
105
EC
102
{ACAD_REACTORS
330
EB
330
192
330
19F
330
1AC
330
1BC
330
1DA
330
D7
330
101
330
C9
330
267
102
}
330
A
100
AcDbSymbolTableRecord
100
AcDbDimStyleTableRecord
  2
SLDDIMSTYLE2
 70
     0
 41
3.302
 44
0.0
 45
0.000000001
 73
     0
 74
     0
 77
     1
 78
    12
 79
     3
140
3.5
143
0.0393700787401575
147
0.875
148
0.000000001
170
     1
172
     1
173
     1
178
     0
271
     2
272
     2
276
     2
284
    12
289
     0
340
94
  0
DIMSTYLE
105
102
330
A
100
AcDbSymbolTableRecord
100
AcDbDimStyleTableRecord
  2
SLDDIMSTYLE3
 70
     0
 41
3.302
 44
0.0
 45
0.000000001
 73
     0
 74
     0
 77
     1
 78
    12
 79
     3
140
3.5
143
0.0393700787401575
147
0.875
148
0.000000001
170
     1
173
     1
178
     0
271
     2
272
     2
276
     2
284
    12
340
94
  0
ENDTAB
  0
TABLE
  2
BLOCK_RECORD
  5
1
330
0
100
AcDbSymbolTable
 70
    19
  0
BLOCK_RECORD
  5
1F
330
1
100
AcDbSymbolTableRecord
100
AcDbBlockTableRecord
  2
*Model_Space
340
22
  0
BLOCK_RECORD
  5
1B
330
1
100
AcDbSymbolTableRecord
100
AcDbBlockTableRecord
  2
*Paper_Space
340
1E
  0
BLOCK_RECORD
  5
23
330
1
100
AcDbSymbolTableRecord
100
AcDbBlockTableRecord
  2
*Paper_Space0
340
26
  0
BLOCK_RECORD
  5
7F
330
1
100
AcDbSymbolTableRecord
100
AcDbBlockTableRecord
  2
블럭10
340
0
102
{BLKREFS
331
C2
102
}
  0
BLOCK_RECORD
  5
CB
330
1
100
AcDbSymbolTableRecord
100
AcDbBlockTableRecord
  2
_D
340
0
  0
BLOCK_RECORD
  5
D9
330
1
100
AcDbSymbolTableRecord
100
AcDbBlockTableRecord
  2
_D_1
340
0
  0
BLOCK_RECORD
  5
ED
330
1
100
AcDbSymbolTableRecord
100
AcDbBlockTableRecord
  2
_D_2
340
0
  0
BLOCK_RECORD
  5
103
330
1
100
AcDbSymbolTableRecord
100
AcDbBlockTableRecord
  2
_D_3
340
0
  0
BLOCK_RECORD
  5
11C
330
1
100
AcDbSymbolTableRecord
100
AcDbBlockTableRecord
  2
SW_DOWELSYMBOL_0
340
0
102
{BLKREFS
331
122
331
1CC
331
0
102
}
  0
BLOCK_RECORD
  5
193
330
1
100
AcDbSymbolTableRecord
100
AcDbBlockTableRecord
  2
*D8
340
0
  0
BLOCK_RECORD
  5
1A0
330
1
100
AcDbSymbolTableRecord
100
AcDbBlockTableRecord
  2
*D9
340
0
  0
BLOCK_RECORD
  5
1AD
330
1
100
AcDbSymbolTableRecord
100
AcDbBlockTableRecord
  2
*D10
340
0
  0
BLOCK_RECORD
  5
1BD
330
1
100
AcDbSymbolTableRecord
100
AcDbBlockTableRecord
  2
*D11
340
0
  0
BLOCK_RECORD
  5
1DD
330
1
100
AcDbSymbolTableRecord
100
AcDbBlockTableRecord
  2
*D12
340
0
  0
BLOCK_RECORD
  5
21D
330
1
100
AcDbSymbolTableRecord
100
AcDbBlockTableRecord
  2
*D13
340
0
  0
BLOCK_RECORD
  5
229
330
1
100
AcDbSymbolTableRecord
100
AcDbBlockTableRecord
  2
*D14
340
0
  0
BLOCK_RECORD
  5
235
330
1
100
AcDbSymbolTableRecord
100
AcDbBlockTableRecord
  2
*D15
340
0
  0
BLOCK_RECORD
  5
244
330
1
100
AcDbSymbolTableRecord
100
AcDbBlockTableRecord
  2
*D16
340
0
  0
BLOCK_RECORD
  5
253
330
1
100
AcDbSymbolTableRecord
100
AcDbBlockTableRecord
  2
*D17
340
0
  0
BLOCK_RECORD
  5
26A
330
1
100
AcDbSymbolTableRecord
100
AcDbBlockTableRecord
  2
*D18
340
0
  0
ENDTAB
  0
ENDSEC
  0
SECTION
  2
BLOCKS
  0
BLOCK
  5
20
330
1F
100
AcDbEntity
  8
0
100
AcDbBlockBegin
  2
*Model_Space
 70
     0
 10
0.0
 20
0.0
 30
0.0
  3
*Model_Space
  1
*Model_Space
  0
ENDBLK
  5
21
330
1F
100
AcDbEntity
  8
0
100
AcDbBlockEnd
  0
BLOCK
  5
1C
330
1B
100
AcDbEntity
 67
     1
  8
0
100
AcDbBlockBegin
  2
*Paper_Space
 70
     0
 10
0.0
 20
0.0
 30
0.0
  3
*Paper_Space
  1
*Paper_Space
  0
ENDBLK
  5
1D
330
1B
100
AcDbEntity
 67
     1
  8
0
100
AcDbBlockEnd
  0
BLOCK
  5
24
330
23
100
AcDbEntity
  8
0
100
AcDbBlockBegin
  2
*Paper_Space0
 70
     0
 10
0.0
 20
0.0
 30
0.0
  3
*Paper_Space0
  1
*Paper_Space0
  0
ENDBLK
  5
25
330
23
100
AcDbEntity
  8
0
100
AcDbBlockEnd
  0
BLOCK
  5
80
330
7F
100
AcDbEntity
  8
0
100
AcDbBlockBegin
  2
블럭10
 70
     2
 10
0.0
 20
0.0
 30
0.0
  3
블럭10
  1
블럭10
  0
ELLIPSE
  5
82
330
7F
100
AcDbEntity
  8
중심선
100
AcDbEllipse
 10
20.54032771741204
 20
12.0471743016438
 30
0.0
 11
6.600054785286829
 21
-1.261213355974178E-13
 31
0.0
210
0.0
220
0.0
230
1.0
 40
0.636358354079598
 41
0.9219305317359503
 42
6.513795318482858
  0
ELLIPSE
  5
83
330
7F
100
AcDbEntity
  8
중심선
100
AcDbEllipse
 10
20.54032771746488
 20
12.04717430159265
 30
0.0
 11
3.960054785062283
 21
1.540847449632565E-10
 31
0.0
210
0.0
220
0.0
230
1.0
 40
0.3939339440162632
 41
1.131841032648279
 42
5.62031148352944
  0
LINE
  5
84
330
7F
100
AcDbEntity
  8
중심선
100
AcDbLine
 10
2.268634060543552
 20
16.24717430164393
 30
0.0
 11
5.714909304380834
 21
16.24717430164393
 31
0.0
  0
LINE
  5
85
330
7F
100
AcDbEntity
  8
중심선
100
AcDbLine
 10
5.245725140726316
 20
7.84717430164391
 30
0.0
 11
8.692000384563599
 21
7.84717430164391
 31
0.0
  0
LINE
  5
86
330
7F
100
AcDbEntity
  8
중심선
100
AcDbLine
 10
15.74043728645272
 20
16.24717430164393
 30
0.0
 11
8.692000384563599
 21
7.84717430164391
 31
0.0
  0
LINE
  5
87
330
7F
100
AcDbEntity
  8
중심선
100
AcDbLine
 10
0.1404042013395286
 20
13.71084872107135
 30
0.0
 11
3.58671253028996
 21
13.71088815037384
 31
0.0
  0
LINE
  5
88
330
7F
100
AcDbEntity
  8
중심선
100
AcDbLine
 10
2.750260043222114
 20
10.84717430164391
 30
0.0
 11
6.196535287059397
 21
10.84717430164391
 31
0.0
  0
LINE
  5
89
330
7F
100
AcDbEntity
  8
중심선
100
AcDbLine
 10
12.29416204261559
 20
16.24717430164393
 30
0.0
 11
5.245725140726316
 21
7.84717430164391
 31
0.0
  0
LINE
  5
8A
330
7F
100
AcDbEntity
  8
중심선
100
AcDbLine
 10
10.72767329541681
 20
16.24717430164393
 30
0.0
 11
6.196535287059397
 21
10.84717430164391
 31
0.0
  0
LINE
  5
8B
330
7F
100
AcDbEntity
  8
중심선
100
AcDbLine
 10
7.28139805157953
 20
16.24717430164393
 30
0.0
 11
2.750260043222114
 21
10.84717430164391
 31
0.0
  0
LINE
  5
8C
330
7F
100
AcDbEntity
  8
중심선
100
AcDbLine
 10
5.714909304380834
 20
16.24717430164393
 30
0.0
 11
3.58671253028996
 21
13.71088815037384
 31
0.0
  0
LINE
  5
8D
330
7F
100
AcDbEntity
  8
중심선
100
AcDbLine
 10
2.268634060543552
 20
16.24717430164393
 30
0.0
 11
0.1404042013395286
 21
13.71084872107135
 31
0.0
  0
LINE
  5
8E
330
7F
100
AcDbEntity
  8
중심선
100
AcDbLine
 10
7.28139805157953
 20
16.24717430164393
 30
0.0
 11
10.72767329541681
 21
16.24717430164393
 31
0.0
  0
LINE
  5
8F
330
7F
100
AcDbEntity
  8
중심선
100
AcDbLine
 10
12.29416204261559
 20
16.24717430164393
 30
0.0
 11
15.74043728645272
 21
16.24717430164393
 31
0.0
  0
LINE
  5
90
330
7F
100
AcDbEntity
  8
중심선
100
AcDbLine
 10
19.22036997980202
 20
11.08717430171403
 30
0.0
 11
23.66174974927406
 21
11.08717430171406
 31
0.0
  0
LINE
  5
91
330
7F
100
AcDbEntity
  8
중심선
100
AcDbLine
 10
19.22039502424796
 20
13.00717430171391
 30
0.0
 11
19.22036997980202
 21
11.08717430171403
 31
0.0
  0
LINE
  5
92
330
7F
100
AcDbEntity
  8
중심선
100
AcDbLine
 10
19.22039502424796
 20
13.00717430171391
 30
0.0
 11
26.96566020931264
 21
13.00717430171391
 31
0.0
  0
LINE
  5
93
330
7F
100
AcDbEntity
  8
중심선
100
AcDbLine
 10
22.22332737316547
 20
13.45928029700563
 30
0.0
 11
24.52862924686651
 21
15.39360700705356
 31
0.0
  0
ATTDEF
  5
95
330
7F
100
AcDbEntity
  8
FORMAT
 62
     2
100
AcDbText
 10
3.448148490846466
 20
2.075366912832191
 30
0.0
 40
4.233333333333333
  1
EM639032
 41
0.75
  7
SLDTEXTSTYLE0
 11
3.448148490846466
 21
-0.0412997538344756
 31
0.0
100
AcDbAttributeDefinition
  3

  2
AUTOATTR0
 70
     0
 74
     1
  0
ENDBLK
  5
81
330
7F
100
AcDbEntity
  8
0
100
AcDbBlockEnd
  0
BLOCK
  5
CC
330
CB
100
AcDbEntity
  8
0
100
AcDbBlockBegin
  2
_D
 70
     0
 10
0.0
 20
0.0
 30
0.0
  3
_D
  1
_D
  0
LINE
  5
CE
330
CB
100
AcDbEntity
  8
0
  6
Continuous
 62
     0
370
    -2
100
AcDbLine
 10
-52.29249999999999
 20
6.351074928723888
 30
0.0
 11
-65.86500000000004
 21
6.35107492872384
 31
0.0
  0
LINE
  5
CF
330
CB
100
AcDbEntity
  8
0
  6
Continuous
 62
     0
370
    -2
100
AcDbLine
 10
-52.29249999999999
 20
-6.348925071276101
 30
0.0
 11
-65.865
 21
-6.348925071276149
 31
0.0
  0
LINE
  5
D0
330
CB
100
AcDbEntity
  8
0
  6
Continuous
 62
     0
370
    -2
100
AcDbLine
 10
-65.86500000000002
 20
3.04907492872384
 30
0.0
 11
-65.86500000000001
 21
-3.046925071276149
 31
0.0
  0
SOLID
  5
D1
330
CB
100
AcDbEntity
  8
0
 62
     0
100
AcDbTrace
 10
-65.3146666666667
 20
3.049074928723842
 30
0.0
 11
-66.41533333333335
 21
3.049074928723838
 31
0.0
 12
-65.86500000000004
 22
6.35107492872384
 32
0.0
 13
-65.86500000000004
 23
6.35107492872384
 33
0.0
  0
SOLID
  5
D2
330
CB
100
AcDbEntity
  8
0
 62
     0
100
AcDbTrace
 10
-66.41533333333334
 20
-3.046925071276151
 30
0.0
 11
-65.31466666666668
 21
-3.046925071276148
 31
0.0
 12
-65.865
 22
-6.348925071276149
 32
0.0
 13
-65.865
 23
-6.348925071276149
 33
0.0
  0
MTEXT
  5
D3
330
CB
100
AcDbEntity
  8
0
 62
     0
370
    15
100
AcDbMText
 10
-70.24000000000001
 20
-2.636846307204337
 30
0.0
 40
3.5
 41
0.0
 71
     2
 72
     1
  1
\A1;%%c12.7 [1/2]
  7
SLDTEXTSTYLE0
 11
-3.356894814614650E-15
 21
1.0
 31
0.0
 73
     1
 44
1.0
  0
POINT
  5
D4
330
CB
100
AcDbEntity
  8
Defpoints
 62
     0
100
AcDbPoint
 10
-52.22999999999999
 20
6.351074928723888
 30
0.0
  0
POINT
  5
D5
330
CB
100
AcDbEntity
  8
Defpoints
 62
     0
100
AcDbPoint
 10
-52.22999999999999
 20
-6.348925071276101
 30
0.0
  0
POINT
  5
D6
330
CB
100
AcDbEntity
  8
Defpoints
 62
     0
100
AcDbPoint
 10
-65.86500000000001
 20
-6.348925071276149
 30
0.0
  0
ENDBLK
  5
CD
330
CB
100
AcDbEntity
  8
0
100
AcDbBlockEnd
  0
BLOCK
  5
DA
330
D9
100
AcDbEntity
  8
0
100
AcDbBlockBegin
  2
_D_1
 70
     0
 10
0.0
 20
0.0
 30
0.0
  3
_D_1
  1
_D_1
  0
LINE
  5
DC
330
D9
100
AcDbEntity
  8
0
  6
Continuous
 62
     0
370
    -2
100
AcDbLine
 10
48.1
 20
6.413574928723889
 30
0.0
 11
48.10000000000001
 21
32.9661543236754
 31
0.0
  0
LINE
  5
DD
330
D9
100
AcDbEntity
  8
0
  6
Continuous
 62
     0
370
    -2
100
AcDbLine
 10
-53.49999999999999
 20
5.143574928723896
 30
0.0
 11
-53.49999999999998
 21
32.9661543236754
 31
0.0
  0
LINE
  5
DE
330
D9
100
AcDbEntity
  8
0
  6
Continuous
 62
     0
370
    -2
100
AcDbLine
 10
44.79800000000001
 20
32.9661543236754
 30
0.0
 11
-50.19799999999998
 21
32.9661543236754
 31
0.0
  0
SOLID
  5
DF
330
D9
100
AcDbEntity
  8
0
 62
     0
100
AcDbTrace
 10
44.79800000000001
 20
32.41582099034207
 30
0.0
 11
44.79800000000001
 21
33.51648765700874
 31
0.0
 12
48.10000000000001
 22
32.9661543236754
 32
0.0
 13
48.10000000000001
 23
32.9661543236754
 33
0.0
  0
SOLID
  5
E0
330
D9
100
AcDbEntity
  8
0
 62
     0
100
AcDbTrace
 10
-50.19799999999998
 20
33.51648765700874
 30
0.0
 11
-50.19799999999998
 21
32.41582099034207
 31
0.0
 12
-53.49999999999998
 22
32.9661543236754
 32
0.0
 13
-53.49999999999998
 23
32.9661543236754
 33
0.0
  0
MTEXT
  5
E1
330
D9
100
AcDbEntity
  8
0
 62
     0
370
    15
100
AcDbMText
 10
-2.699999999999987
 20
37.3411543236754
 30
0.0
 40
3.5
 41
0.0
 71
     2
 72
     1
  1
\A1;101.6 [4]
  7
SLDTEXTSTYLE0
 73
     1
 44
1.0
  0
POINT
  5
E2
330
D9
100
AcDbEntity
  8
Defpoints
 62
     0
100
AcDbPoint
 10
48.1
 20
6.351074928723889
 30
0.0
  0
POINT
  5
E3
330
D9
100
AcDbEntity
  8
Defpoints
 62
     0
100
AcDbPoint
 10
-53.49999999999999
 20
5.081074928723896
 30
0.0
  0
POINT
  5
E4
330
D9
100
AcDbEntity
  8
Defpoints
 62
     0
100
AcDbPoint
 10
-53.49999999999999
 20
32.9661543236754
 30
0.0
  0
ENDBLK
  5
DB
330
D9
100
AcDbEntity
  8
0
100
AcDbBlockEnd
  0
BLOCK
  5
EE
330
ED
100
AcDbEntity
  8
0
100
AcDbBlockBegin
  2
_D_2
 70
     0
 10
0.0
 20
0.0
 30
0.0
  3
_D_2
  1
_D_2
  0
LINE
  5
F0
330
ED
100
AcDbEntity
  8
0
  6
Continuous
 62
     0
370
    -2
100
AcDbLine
 10
48.1
 20
6.413574928723889
 30
0.0
 11
48.1
 21
16.10458842475233
 31
0.0
  0
LINE
  5
F1
330
ED
100
AcDbEntity
  8
0
  6
Continuous
 62
     0
370
    -2
100
AcDbLine
 10
32.22500000000004
 20
6.408056814009666
 30
0.0
 11
32.22500000000004
 21
16.10458842475233
 31
0.0
  0
LINE
  5
F2
330
ED
100
AcDbEntity
  8
0
  6
Continuous
 62
     0
370
    -2
100
AcDbLine
 10
32.22500000000004
 20
16.10458842475233
 30
0.0
 11
0.2460000000000377
 21
16.10458842475233
 31
0.0
  0
LINE
  5
F3
330
ED
100
AcDbEntity
  8
0
  6
Continuous
 62
     0
370
    -2
100
AcDbLine
 10
48.1
 20
16.10458842475233
 30
0.0
 11
32.22500000000004
 21
16.10458842475233
 31
0.0
  0
LINE
  5
F4
330
ED
100
AcDbEntity
  8
0
  6
Continuous
 62
     0
370
    -2
100
AcDbLine
 10
51.402
 20
16.10458842475233
 30
0.0
 11
54.704
 21
16.10458842475233
 31
0.0
  0
LINE
  5
F5
330
ED
100
AcDbEntity
  8
0
  6
Continuous
 62
     0
370
    -2
100
AcDbLine
 10
28.92300000000004
 20
16.10458842475233
 30
0.0
 11
25.62100000000004
 21
16.10458842475233
 31
0.0
  0
SOLID
  5
F6
330
ED
100
AcDbEntity
  8
0
 62
     0
100
AcDbTrace
 10
51.402
 20
16.65492175808566
 30
0.0
 11
51.402
 21
15.55425509141899
 31
0.0
 12
48.1
 22
16.10458842475233
 32
0.0
 13
48.1
 23
16.10458842475233
 33
0.0
  0
SOLID
  5
F7
330
ED
100
AcDbEntity
  8
0
 62
     0
100
AcDbTrace
 10
28.92300000000004
 20
15.55425509141899
 30
0.0
 11
28.92300000000004
 21
16.65492175808566
 31
0.0
 12
32.22500000000004
 22
16.10458842475233
 32
0.0
 13
32.22500000000004
 23
16.10458842475233
 33
0.0
  0
MTEXT
  5
F8
330
ED
100
AcDbEntity
  8
0
 62
     0
370
    15
100
AcDbMText
 10
12.93350000000004
 20
20.47958842475233
 30
0.0
 40
3.5
 41
0.0
 71
     2
 72
     1
  1
\A1;15.88 [5/8]
  7
SLDTEXTSTYLE0
 73
     1
 44
1.0
  0
POINT
  5
263
330
ED
100
AcDbEntity
  8
Defpoints
 62
     0
100
AcDbPoint
 10
48.1
 20
6.351074928723889
 30
0.0
  0
POINT
  5
264
330
ED
100
AcDbEntity
  8
Defpoints
 62
     0
100
AcDbPoint
 10
32.22500000000004
 20
6.345556814009666
 30
0.0
  0
POINT
  5
265
330
ED
100
AcDbEntity
  8
Defpoints
 62
     0
100
AcDbPoint
 10
32.22500000000004
 20
16.10458842475233
 30
0.0
  0
ENDBLK
  5
EF
330
ED
100
AcDbEntity
  8
0
100
AcDbBlockEnd
  0
BLOCK
  5
104
330
103
100
AcDbEntity
  8
0
100
AcDbBlockBegin
  2
_D_3
 70
     0
 10
0.0
 20
0.0
 30
0.0
  3
_D_3
  1
_D_3
  0
LINE
  5
106
330
103
100
AcDbEntity
  8
0
  6
Continuous
 62
     0
370
    -2
100
AcDbLine
 10
48.16249999999999
 20
6.35107492872389
 30
0.0
 11
67.52628668057964
 21
6.351074928723957
 31
0.0
  0
LINE
  5
107
330
103
100
AcDbEntity
  8
0
  6
Continuous
 62
     0
370
    -2
100
AcDbLine
 10
48.16249999999999
 20
-6.348925071276088
 30
0.0
 11
67.52628668057969
 21
-6.348925071276021
 31
0.0
  0
LINE
  5
108
330
103
100
AcDbEntity
  8
0
  6
Continuous
 62
     0
370
    -2
100
AcDbLine
 10
67.52628668057964
 20
6.351074928723957
 30
0.0
 11
67.52628668057953
 21
38.76757492872385
 31
0.0
  0
LINE
  5
109
330
103
100
AcDbEntity
  8
0
  6
Continuous
 62
     0
370
    -2
100
AcDbLine
 10
67.52628668057964
 20
6.351074928723957
 30
0.0
 11
67.52628668057969
 21
-6.348925071276021
 31
0.0
  0
LINE
  5
10A
330
103
100
AcDbEntity
  8
0
  6
Continuous
 62
     0
370
    -2
100
AcDbLine
 10
67.52628668057963
 20
9.653074928723957
 30
0.0
 11
67.52628668057962
 21
12.95507492872396
 31
0.0
  0
LINE
  5
10B
330
103
100
AcDbEntity
  8
0
  6
Continuous
 62
     0
370
    -2
100
AcDbLine
 10
67.5262866805797
 20
-9.65092507127602
 30
0.0
 11
67.52628668057972
 21
-12.95292507127602
 31
0.0
  0
SOLID
  5
10C
330
103
100
AcDbEntity
  8
0
 62
     0
100
AcDbTrace
 10
66.9759533472463
 20
9.653074928723955
 30
0.0
 11
68.07662001391296
 21
9.653074928723958
 31
0.0
 12
67.52628668057964
 22
6.351074928723957
 32
0.0
 13
67.52628668057964
 23
6.351074928723957
 33
0.0
  0
SOLID
  5
10D
330
103
100
AcDbEntity
  8
0
 62
     0
100
AcDbTrace
 10
68.07662001391303
 20
-9.650925071276019
 30
0.0
 11
66.97595334724637
 21
-9.650925071276022
 31
0.0
 12
67.52628668057969
 22
-6.348925071276021
 32
0.0
 13
67.52628668057969
 23
-6.348925071276021
 33
0.0
  0
MTEXT
  5
10E
330
103
100
AcDbEntity
  8
0
 62
     0
370
    15
100
AcDbMText
 10
63.15128668057957
 20
26.51757492872384
 30
0.0
 40
3.5
 41
0.0
 71
     2
 72
     1
  1
\A1;%%c12.7 [1/2]
  7
SLDTEXTSTYLE0
 11
-3.356894814614652E-15
 21
1.0
 31
0.0
 73
     1
 44
1.0
  0
POINT
  5
10F
330
103
100
AcDbEntity
  8
Defpoints
 62
     0
100
AcDbPoint
 10
48.09999999999999
 20
6.35107492872389
 30
0.0
  0
POINT
  5
25C
330
103
100
AcDbEntity
  8
Defpoints
 62
     0
100
AcDbPoint
 10
48.09999999999999
 20
-6.348925071276088
 30
0.0
  0
POINT
  5
25D
330
103
100
AcDbEntity
  8
Defpoints
 62
     0
100
AcDbPoint
 10
67.52628668057969
 20
-6.34892507127602
 30
0.0
  0
ENDBLK
  5
105
330
103
100
AcDbEntity
  8
0
100
AcDbBlockEnd
  0
BLOCK
  5
11D
330
11C
100
AcDbEntity
  8
0
100
AcDbBlockBegin
  2
SW_DOWELSYMBOL_0
 70
     0
 10
0.0
 20
0.0
 30
0.0
  3
SW_DOWELSYMBOL_0
  1
SW_DOWELSYMBOL_0
  0
CIRCLE
  5
11F
330
11C
100
AcDbEntity
  8
해칭선
 62
     0
100
AcDbCircle
 10
0.0
 20
0.0
 30
0.0
 40
3.000000000000001
  0
HATCH
  5
120
330
11C
100
AcDbEntity
  8
0
  6
Continuous
 62
     0
370
     0
100
AcDbHatch
 10
0.0
 20
0.0
 30
0.0
210
0.0
220
0.0
230
1.0
  2
SOLID
 70
     1
 71
     0
 91
        1
 92
        0
 93
        3
 72
     2
 10
0.0
 20
0.0
 40
3.000000000000001
 50
0.0
 51
90.0
 73
     1
 72
     1
 10
0.0
 20
3.000000000000001
 11
0.0
 21
0.0
 72
     1
 10
0.0
 20
0.0
 11
3.000000000000003
 21
0.0
 97
        0
 75
     0
 76
     1
 98
        1
 10
0.0
 20
0.0
  0
HATCH
  5
121
330
11C
100
AcDbEntity
  8
0
  6
Continuous
 62
     0
370
     0
100
AcDbHatch
 10
0.0
 20
0.0
 30
0.0
210
0.0
220
0.0
230
1.0
  2
SOLID
 70
     1
 71
     0
 91
        1
 92
        0
 93
        3
 72
     2
 10
0.0
 20
0.0
 40
3.000000000000001
 50
180.0
 51
270.0000000000008
 73
     1
 72
     1
 10
0.0
 20
-3.000000000000001
 11
0.0
 21
0.0
 72
     1
 10
0.0
 20
0.0
 11
-3.000000000000003
 21
0.0
 97
        0
 75
     0
 76
     1
 98
        1
 10
0.0
 20
0.0
  0
ENDBLK
  5
11E
330
11C
100
AcDbEntity
  8
0
100
AcDbBlockEnd
  0
BLOCK
  5
194
330
193
100
AcDbEntity
  8
0
100
AcDbBlockBegin
  2
*D8
 70
     1
 10
0.0
 20
0.0
 30
0.0
  3
*D8
  1
*D8
  0
LINE
  5
195
330
193
100
AcDbEntity
  8
0
  6
Continuous
 62
     0
370
    -2
100
AcDbLine
 10
17.94750000000003
 20
39.32412604988864
 30
0.0
 11
4.375000000000012
 21
39.32412604988859
 31
0.0
  0
LINE
  5
196
330
193
100
AcDbEntity
  8
0
  6
Continuous
 62
     0
370
    -2
100
AcDbLine
 10
17.94750000000003
 20
29.79912604988863
 30
0.0
 11
4.375000000000045
 21
29.79912604988859
 31
0.0
  0
LINE
  5
197
330
193
100
AcDbEntity
  8
0
  6
Continuous
 62
     0
370
    -2
100
AcDbLine
 10
4.375000000000024
 20
36.02212604988859
 30
0.0
 11
4.375000000000034
 21
33.10112604988858
 31
0.0
  0
SOLID
  5
198
330
193
100
AcDbEntity
  8
0
 62
     0
100
AcDbTrace
 10
4.925333333333358
 20
36.02212604988859
 30
0.0
 11
3.824666666666691
 21
36.02212604988859
 31
0.0
 12
4.375000000000012
 22
39.32412604988859
 32
0.0
 13
4.375000000000012
 23
39.32412604988859
 33
0.0
  0
SOLID
  5
199
330
193
100
AcDbEntity
  8
0
 62
     0
100
AcDbTrace
 10
3.824666666666701
 20
33.10112604988858
 30
0.0
 11
4.925333333333367
 21
33.10112604988858
 31
0.0
 12
4.375000000000045
 22
29.79912604988859
 32
0.0
 13
4.375000000000045
 23
29.79912604988859
 33
0.0
  0
MTEXT
  5
19A
330
193
100
AcDbEntity
  8
0
 62
     0
370
    15
100
AcDbMText
 10
0.0000000000000355
 20
32.58318512294247
 30
0.0
 40
3.5
 41
0.0
 71
     2
 72
     1
  1
\A1;%%c9.53 [3/8]
  7
SLDTEXTSTYLE0
 11
-3.450141892798385E-15
 21
1.0
 31
0.0
 73
     1
 44
1.0
  0
POINT
  5
19B
330
193
100
AcDbEntity
  8
Defpoints
 62
     0
100
AcDbPoint
 10
18.01000000000003
 20
39.32412604988864
 30
0.0
  0
POINT
  5
19C
330
193
100
AcDbEntity
  8
Defpoints
 62
     0
100
AcDbPoint
 10
18.01000000000003
 20
29.79912604988863
 30
0.0
  0
POINT
  5
19D
330
193
100
AcDbEntity
  8
Defpoints
 62
     0
100
AcDbPoint
 10
4.375000000000043
 20
29.79912604988859
 30
0.0
  0
ENDBLK
  5
19E
330
193
100
AcDbEntity
  8
0
100
AcDbBlockEnd
  0
BLOCK
  5
1A1
330
1A0
100
AcDbEntity
  8
0
100
AcDbBlockBegin
  2
*D9
 70
     1
 10
0.0
 20
0.0
 30
0.0
  3
*D9
  1
*D9
  0
LINE
  5
1A2
330
1A0
100
AcDbEntity
  8
0
  6
Continuous
 62
     0
370
    -2
100
AcDbLine
 10
93.25750000000006
 20
39.38662604988867
 30
0.0
 11
93.25750000000006
 21
65.94592703305395
 31
0.0
  0
LINE
  5
1A3
330
1A0
100
AcDbEntity
  8
0
  6
Continuous
 62
     0
370
    -2
100
AcDbLine
 10
17.05750000000005
 20
38.43412604988864
 30
0.0
 11
17.05750000000005
 21
65.94592703305395
 31
0.0
  0
LINE
  5
1A4
330
1A0
100
AcDbEntity
  8
0
  6
Continuous
 62
     0
370
    -2
100
AcDbLine
 10
89.95550000000006
 20
65.94592703305395
 30
0.0
 11
20.35950000000005
 21
65.94592703305395
 31
0.0
  0
SOLID
  5
1A5
330
1A0
100
AcDbEntity
  8
0
 62
     0
100
AcDbTrace
 10
89.95550000000006
 20
65.39559369972062
 30
0.0
 11
89.95550000000006
 21
66.49626036638728
 31
0.0
 12
93.25750000000006
 22
65.94592703305395
 32
0.0
 13
93.25750000000006
 23
65.94592703305395
 33
0.0
  0
SOLID
  5
1A6
330
1A0
100
AcDbEntity
  8
0
 62
     0
100
AcDbTrace
 10
20.35950000000005
 20
66.49626036638728
 30
0.0
 11
20.35950000000005
 21
65.39559369972062
 31
0.0
 12
17.05750000000005
 22
65.94592703305395
 32
0.0
 13
17.05750000000005
 23
65.94592703305395
 33
0.0
  0
MTEXT
  5
1A7
330
1A0
100
AcDbEntity
  8
0
 62
     0
370
    15
100
AcDbMText
 10
55.15750000000004
 20
70.32092703305395
 30
0.0
 40
3.5
 41
0.0
 71
     2
 72
     1
  1
\A1;76.2 [3]
  7
SLDTEXTSTYLE0
 73
     1
 44
1.0
  0
POINT
  5
1A8
330
1A0
100
AcDbEntity
  8
Defpoints
 62
     0
100
AcDbPoint
 10
93.25750000000006
 20
39.32412604988867
 30
0.0
  0
POINT
  5
1A9
330
1A0
100
AcDbEntity
  8
Defpoints
 62
     0
100
AcDbPoint
 10
17.05750000000005
 20
38.37162604988864
 30
0.0
  0
POINT
  5
1AA
330
1A0
100
AcDbEntity
  8
Defpoints
 62
     0
100
AcDbPoint
 10
17.05750000000005
 20
65.94592703305395
 30
0.0
  0
ENDBLK
  5
1AB
330
1A0
100
AcDbEntity
  8
0
100
AcDbBlockEnd
  0
BLOCK
  5
1AE
330
1AD
100
AcDbEntity
  8
0
100
AcDbBlockBegin
  2
*D10
 70
     1
 10
0.0
 20
0.0
 30
0.0
  3
*D10
  1
*D10
  0
LINE
  5
1AF
330
1AD
100
AcDbEntity
  8
0
  6
Continuous
 62
     0
370
    -2
100
AcDbLine
 10
93.25750000000006
 20
39.38662604988867
 30
0.0
 11
93.25750000000006
 21
49.08436113413085
 31
0.0
  0
LINE
  5
1B0
330
1AD
100
AcDbEntity
  8
0
  6
Continuous
 62
     0
370
    -2
100
AcDbLine
 10
77.38250000000006
 20
38.93410860004511
 30
0.0
 11
77.38250000000006
 21
49.08436113413085
 31
0.0
  0
LINE
  5
1B1
330
1AD
100
AcDbEntity
  8
0
  6
Continuous
 62
     0
370
    -2
100
AcDbLine
 10
77.38250000000006
 20
49.08436113413085
 30
0.0
 11
45.40350000000005
 21
49.08436113413085
 31
0.0
  0
LINE
  5
1B2
330
1AD
100
AcDbEntity
  8
0
  6
Continuous
 62
     0
370
    -2
100
AcDbLine
 10
93.25750000000006
 20
49.08436113413085
 30
0.0
 11
77.38250000000006
 21
49.08436113413085
 31
0.0
  0
LINE
  5
1B3
330
1AD
100
AcDbEntity
  8
0
  6
Continuous
 62
     0
370
    -2
100
AcDbLine
 10
96.55950000000007
 20
49.08436113413085
 30
0.0
 11
99.86150000000006
 21
49.08436113413085
 31
0.0
  0
LINE
  5
1B4
330
1AD
100
AcDbEntity
  8
0
  6
Continuous
 62
     0
370
    -2
100
AcDbLine
 10
74.08050000000006
 20
49.08436113413085
 30
0.0
 11
70.77850000000007
 21
49.08436113413085
 31
0.0
  0
SOLID
  5
1B5
330
1AD
100
AcDbEntity
  8
0
 62
     0
100
AcDbTrace
 10
96.55950000000007
 20
49.63469446746419
 30
0.0
 11
96.55950000000007
 21
48.53402780079752
 31
0.0
 12
93.25750000000006
 22
49.08436113413085
 32
0.0
 13
93.25750000000006
 23
49.08436113413085
 33
0.0
  0
SOLID
  5
1B6
330
1AD
100
AcDbEntity
  8
0
 62
     0
100
AcDbTrace
 10
74.08050000000006
 20
48.53402780079752
 30
0.0
 11
74.08050000000006
 21
49.63469446746419
 31
0.0
 12
77.38250000000006
 22
49.08436113413085
 32
0.0
 13
77.38250000000006
 23
49.08436113413085
 33
0.0
  0
MTEXT
  5
1B7
330
1AD
100
AcDbEntity
  8
0
 62
     0
370
    15
100
AcDbMText
 10
58.09100000000005
 20
53.45936113413085
 30
0.0
 40
3.5
 41
0.0
 71
     2
 72
     1
  1
\A1;15.88 [5/8]
  7
SLDTEXTSTYLE0
 73
     1
 44
1.0
  0
POINT
  5
1B8
330
1AD
100
AcDbEntity
  8
Defpoints
 62
     0
100
AcDbPoint
 10
93.25750000000006
 20
39.32412604988867
 30
0.0
  0
POINT
  5
1B9
330
1AD
100
AcDbEntity
  8
Defpoints
 62
     0
100
AcDbPoint
 10
77.38250000000006
 20
38.87160860004511
 30
0.0
  0
POINT
  5
1BA
330
1AD
100
AcDbEntity
  8
Defpoints
 62
     0
100
AcDbPoint
 10
77.38250000000006
 20
49.08436113413085
 30
0.0
  0
ENDBLK
  5
1BB
330
1AD
100
AcDbEntity
  8
0
100
AcDbBlockEnd
  0
BLOCK
  5
1BE
330
1BD
100
AcDbEntity
  8
0
100
AcDbBlockBegin
  2
*D11
 70
     1
 10
0.0
 20
0.0
 30
0.0
  3
*D11
  1
*D11
  0
LINE
  5
1BF
330
1BD
100
AcDbEntity
  8
0
  6
Continuous
 62
     0
370
    -2
100
AcDbLine
 10
93.32000000000006
 20
39.32412604988867
 30
0.0
 11
109.1419132810746
 21
39.32412604988873
 31
0.0
  0
LINE
  5
1C0
330
1BD
100
AcDbEntity
  8
0
  6
Continuous
 62
     0
370
    -2
100
AcDbLine
 10
93.32000000000006
 20
29.79912604988867
 30
0.0
 11
109.1419132810747
 21
29.79912604988873
 31
0.0
  0
LINE
  5
1C1
330
1BD
100
AcDbEntity
  8
0
  6
Continuous
 62
     0
370
    -2
100
AcDbLine
 10
109.1419132810746
 20
39.32412604988873
 30
0.0
 11
109.1419132810745
 21
72.17812604988873
 31
0.0
  0
LINE
  5
1C2
330
1BD
100
AcDbEntity
  8
0
  6
Continuous
 62
     0
370
    -2
100
AcDbLine
 10
109.1419132810746
 20
39.32412604988873
 30
0.0
 11
109.1419132810747
 21
29.79912604988873
 31
0.0
  0
LINE
  5
1C3
330
1BD
100
AcDbEntity
  8
0
  6
Continuous
 62
     0
370
    -2
100
AcDbLine
 10
109.1419132810746
 20
42.62612604988873
 30
0.0
 11
109.1419132810746
 21
45.92812604988872
 31
0.0
  0
LINE
  5
1C4
330
1BD
100
AcDbEntity
  8
0
  6
Continuous
 62
     0
370
    -2
100
AcDbLine
 10
109.1419132810747
 20
26.49712604988873
 30
0.0
 11
109.1419132810747
 21
23.19512604988873
 31
0.0
  0
SOLID
  5
1C5
330
1BD
100
AcDbEntity
  8
0
 62
     0
100
AcDbTrace
 10
108.5915799477413
 20
42.62612604988873
 30
0.0
 11
109.6922466144079
 21
42.62612604988873
 31
0.0
 12
109.1419132810746
 22
39.32412604988873
 32
0.0
 13
109.1419132810746
 23
39.32412604988873
 33
0.0
  0
SOLID
  5
1C6
330
1BD
100
AcDbEntity
  8
0
 62
     0
100
AcDbTrace
 10
109.692246614408
 20
26.49712604988873
 30
0.0
 11
108.5915799477413
 21
26.49712604988873
 31
0.0
 12
109.1419132810747
 22
29.79912604988873
 32
0.0
 13
109.1419132810747
 23
29.79912604988873
 33
0.0
  0
MTEXT
  5
1C7
330
1BD
100
AcDbEntity
  8
0
 62
     0
370
    15
100
AcDbMText
 10
104.7669132810746
 20
59.05312604988871
 30
0.0
 40
3.5
 41
0.0
 71
     2
 72
     1
  1
\A1;%%c9.53 [3/8]
  7
SLDTEXTSTYLE0
 11
-2.983906501879687E-15
 21
1.0
 31
0.0
 73
     1
 44
1.0
  0
POINT
  5
1C8
330
1BD
100
AcDbEntity
  8
Defpoints
 62
     0
100
AcDbPoint
 10
93.25750000000006
 20
39.32412604988867
 30
0.0
  0
POINT
  5
1C9
330
1BD
100
AcDbEntity
  8
Defpoints
 62
     0
100
AcDbPoint
 10
93.25750000000006
 20
29.79912604988867
 30
0.0
  0
POINT
  5
1CA
330
1BD
100
AcDbEntity
  8
Defpoints
 62
     0
100
AcDbPoint
 10
109.1419132810747
 20
29.79912604988873
 30
0.0
  0
ENDBLK
  5
1CB
330
1BD
100
AcDbEntity
  8
0
100
AcDbBlockEnd
  0
BLOCK
  5
1DE
330
1DD
100
AcDbEntity
  8
0
100
AcDbBlockBegin
  2
*D12
 70
     1
 10
0.0
 20
0.0
 30
0.0
  3
*D12
  1
*D12
  0
LINE
  5
1DF
330
1DD
100
AcDbEntity
  8
0
  6
Continuous
 62
     0
370
    -2
100
AcDbLine
 10
94.30121475214291
 20
27.59750489059254
 30
0.0
 11
114.7779475008927
 21
-0.000000000000016
 31
0.0
  0
MTEXT
  5
1E0
330
1DD
100
AcDbEntity
  8
0
 62
     0
370
    15
100
AcDbMText
 10
107.6314502387118
 20
14.03701992746826
 30
0.0
 40
3.5
 41
0.0
 71
     5
 72
     1
  1
\A1;R2.29 [R0.090]
  7
SLDTEXTSTYLE0
 11
0.5958687817005848
 21
-0.8030818108976574
 31
0.0
 73
     1
 44
1.0
  0
LINE
  5
1E1
330
1DD
100
AcDbEntity
  8
0
  6
Continuous
 62
     0
370
    -2
100
AcDbLine
 10
90.97150000000003
 20
32.08512604988865
 30
0.0
 11
92.33365603496758
 21
30.2492810301766
 31
0.0
  0
SOLID
  5
1E2
330
1DD
100
AcDbEntity
  8
0
 62
     0
100
AcDbTrace
 10
94.74317744207359
 20
27.92543134345509
 30
0.0
 11
93.85925206221224
 21
27.26957843772998
 31
0.0
 12
92.33365603496758
 22
30.2492810301766
 32
0.0
 13
92.33365603496758
 23
30.2492810301766
 33
0.0
  0
POINT
  5
1E3
330
1DD
100
AcDbEntity
  8
Defpoints
 62
     0
100
AcDbPoint
 10
92.33365603496758
 20
30.2492810301766
 30
0.0
  0
POINT
  5
1E4
330
1DD
100
AcDbEntity
  8
Defpoints
 62
     0
100
AcDbPoint
 10
90.97150000000003
 20
32.08512604988865
 30
0.0
  0
ENDBLK
  5
1E5
330
1DD
100
AcDbEntity
  8
0
100
AcDbBlockEnd
  0
BLOCK
  5
21E
330
21D
100
AcDbEntity
  8
0
100
AcDbBlockBegin
  2
*D13
 70
     1
 10
0.0
 20
0.0
 30
0.0
  3
*D13
  1
*D13
  0
LINE
  5
220
330
21D
100
AcDbEntity
  8
0
  6
Continuous
 62
     0
370
    -2
100
AcDbLine
 10
99.03718413166727
 20
-10.25335610117193
 30
0.0
 11
85.46468413166725
 21
-10.25335610117198
 31
0.0
  0
LINE
  5
221
330
21D
100
AcDbEntity
  8
0
  6
Continuous
 62
     0
370
    -2
100
AcDbLine
 10
99.03718413166727
 20
-19.77835610117194
 30
0.0
 11
85.46468413166728
 21
-19.77835610117199
 31
0.0
  0
LINE
  5
222
330
21D
100
AcDbEntity
  8
0
  6
Continuous
 62
     0
370
    -2
100
AcDbLine
 10
85.46468413166727
 20
-13.55535610117198
 30
0.0
 11
85.46468413166727
 21
-16.47635610117199
 31
0.0
  0
SOLID
  5
223
330
21D
100
AcDbEntity
  8
0
 62
     0
100
AcDbTrace
 10
86.0150174650006
 20
-13.55535610117198
 30
0.0
 11
84.91435079833394
 21
-13.55535610117198
 31
0.0
 12
85.46468413166725
 22
-10.25335610117198
 32
0.0
 13
85.46468413166725
 23
-10.25335610117198
 33
0.0
  0
SOLID
  5
224
330
21D
100
AcDbEntity
  8
0
 62
     0
100
AcDbTrace
 10
84.91435079833394
 20
-16.47635610117199
 30
0.0
 11
86.0150174650006
 21
-16.47635610117199
 31
0.0
 12
85.46468413166728
 22
-19.77835610117199
 32
0.0
 13
85.46468413166728
 23
-19.77835610117199
 33
0.0
  0
MTEXT
  5
225
330
21D
100
AcDbEntity
  8
0
 62
     0
370
    15
100
AcDbMText
 10
81.08968413166727
 20
-16.9942970281181
 30
0.0
 40
3.5
 41
0.0
 71
     2
 72
     1
  1
\A1;%%c9.53 [3/8]
  7
SLDTEXTSTYLE0
 11
-2.983906501879685E-15
 21
1.0
 31
0.0
 73
     1
 44
1.0
  0
POINT
  5
226
330
21D
100
AcDbEntity
  8
Defpoints
 62
     0
100
AcDbPoint
 10
99.09968413166727
 20
-10.25335610117193
 30
0.0
  0
POINT
  5
227
330
21D
100
AcDbEntity
  8
Defpoints
 62
     0
100
AcDbPoint
 10
99.09968413166727
 20
-19.77835610117194
 30
0.0
  0
POINT
  5
228
330
21D
100
AcDbEntity
  8
Defpoints
 62
     0
100
AcDbPoint
 10
85.46468413166728
 20
-19.77835610117199
 30
0.0
  0
ENDBLK
  5
21F
330
21D
100
AcDbEntity
  8
0
100
AcDbBlockEnd
  0
BLOCK
  5
22A
330
229
100
AcDbEntity
  8
0
100
AcDbBlockBegin
  2
*D14
 70
     1
 10
0.0
 20
0.0
 30
0.0
  3
*D14
  1
*D14
  0
LINE
  5
22C
330
229
100
AcDbEntity
  8
0
  6
Continuous
 62
     0
370
    -2
100
AcDbLine
 10
174.3471841316673
 20
-10.1908561011719
 30
0.0
 11
174.3471841316673
 21
16.36844488199338
 31
0.0
  0
LINE
  5
22D
330
229
100
AcDbEntity
  8
0
  6
Continuous
 62
     0
370
    -2
100
AcDbLine
 10
98.14718413166729
 20
-11.14335610117193
 30
0.0
 11
98.14718413166729
 21
16.36844488199338
 31
0.0
  0
LINE
  5
22E
330
229
100
AcDbEntity
  8
0
  6
Continuous
 62
     0
370
    -2
100
AcDbLine
 10
171.0451841316673
 20
16.36844488199338
 30
0.0
 11
101.4491841316673
 21
16.36844488199338
 31
0.0
  0
SOLID
  5
22F
330
229
100
AcDbEntity
  8
0
 62
     0
100
AcDbTrace
 10
171.0451841316673
 20
15.81811154866004
 30
0.0
 11
171.0451841316673
 21
16.91877821532671
 31
0.0
 12
174.3471841316673
 22
16.36844488199338
 32
0.0
 13
174.3471841316673
 23
16.36844488199338
 33
0.0
  0
SOLID
  5
230
330
229
100
AcDbEntity
  8
0
 62
     0
100
AcDbTrace
 10
101.4491841316673
 20
16.91877821532671
 30
0.0
 11
101.4491841316673
 21
15.81811154866004
 31
0.0
 12
98.14718413166729
 22
16.36844488199338
 32
0.0
 13
98.14718413166729
 23
16.36844488199338
 33
0.0
  0
MTEXT
  5
231
330
229
100
AcDbEntity
  8
0
 62
     0
370
    15
100
AcDbMText
 10
136.2471841316673
 20
20.74344488199338
 30
0.0
 40
3.5
 41
0.0
 71
     2
 72
     1
  1
\A1;76.2 [3]
  7
SLDTEXTSTYLE0
 73
     1
 44
1.0
  0
POINT
  5
232
330
229
100
AcDbEntity
  8
Defpoints
 62
     0
100
AcDbPoint
 10
174.3471841316673
 20
-10.2533561011719
 30
0.0
  0
POINT
  5
233
330
229
100
AcDbEntity
  8
Defpoints
 62
     0
100
AcDbPoint
 10
98.14718413166729
 20
-11.20585610117193
 30
0.0
  0
POINT
  5
234
330
229
100
AcDbEntity
  8
Defpoints
 62
     0
100
AcDbPoint
 10
98.14718413166729
 20
16.36844488199338
 30
0.0
  0
ENDBLK
  5
22B
330
229
100
AcDbEntity
  8
0
100
AcDbBlockEnd
  0
BLOCK
  5
236
330
235
100
AcDbEntity
  8
0
100
AcDbBlockBegin
  2
*D15
 70
     1
 10
0.0
 20
0.0
 30
0.0
  3
*D15
  1
*D15
  0
LINE
  5
238
330
235
100
AcDbEntity
  8
0
  6
Continuous
 62
     0
370
    -2
100
AcDbLine
 10
174.3471841316673
 20
-10.1908561011719
 30
0.0
 11
174.3471841316673
 21
-0.4931210169297202
 31
0.0
  0
LINE
  5
239
330
235
100
AcDbEntity
  8
0
  6
Continuous
 62
     0
370
    -2
100
AcDbLine
 10
158.4721841316673
 20
-10.64337355101546
 30
0.0
 11
158.4721841316673
 21
-0.4931210169297202
 31
0.0
  0
LINE
  5
23A
330
235
100
AcDbEntity
  8
0
  6
Continuous
 62
     0
370
    -2
100
AcDbLine
 10
158.4721841316673
 20
-0.4931210169297202
 30
0.0
 11
126.4931841316673
 21
-0.4931210169297202
 31
0.0
  0
LINE
  5
23B
330
235
100
AcDbEntity
  8
0
  6
Continuous
 62
     0
370
    -2
100
AcDbLine
 10
174.3471841316673
 20
-0.4931210169297202
 30
0.0
 11
158.4721841316673
 21
-0.4931210169297202
 31
0.0
  0
LINE
  5
23C
330
235
100
AcDbEntity
  8
0
  6
Continuous
 62
     0
370
    -2
100
AcDbLine
 10
177.6491841316673
 20
-0.4931210169297202
 30
0.0
 11
180.9511841316673
 21
-0.4931210169297202
 31
0.0
  0
LINE
  5
23D
330
235
100
AcDbEntity
  8
0
  6
Continuous
 62
     0
370
    -2
100
AcDbLine
 10
155.1701841316673
 20
-0.4931210169297202
 30
0.0
 11
151.8681841316673
 21
-0.4931210169297202
 31
0.0
  0
SOLID
  5
23E
330
235
100
AcDbEntity
  8
0
 62
     0
100
AcDbTrace
 10
177.6491841316673
 20
0.057212316403613
 30
0.0
 11
177.6491841316673
 21
-1.043454350263053
 31
0.0
 12
174.3471841316673
 22
-0.4931210169297202
 32
0.0
 13
174.3471841316673
 23
-0.4931210169297202
 33
0.0
  0
SOLID
  5
23F
330
235
100
AcDbEntity
  8
0
 62
     0
100
AcDbTrace
 10
155.1701841316673
 20
-1.043454350263053
 30
0.0
 11
155.1701841316673
 21
0.057212316403613
 31
0.0
 12
158.4721841316673
 22
-0.4931210169297202
 32
0.0
 13
158.4721841316673
 23
-0.4931210169297202
 33
0.0
  0
MTEXT
  5
240
330
235
100
AcDbEntity
  8
0
 62
     0
370
    15
100
AcDbMText
 10
139.1806841316673
 20
3.88187898307028
 30
0.0
 40
3.5
 41
0.0
 71
     2
 72
     1
  1
\A1;15.88 [5/8]
  7
SLDTEXTSTYLE0
 73
     1
 44
1.0
  0
POINT
  5
241
330
235
100
AcDbEntity
  8
Defpoints
 62
     0
100
AcDbPoint
 10
174.3471841316673
 20
-10.2533561011719
 30
0.0
  0
POINT
  5
242
330
235
100
AcDbEntity
  8
Defpoints
 62
     0
100
AcDbPoint
 10
158.4721841316673
 20
-10.70587355101546
 30
0.0
  0
POINT
  5
243
330
235
100
AcDbEntity
  8
Defpoints
 62
     0
100
AcDbPoint
 10
158.4721841316673
 20
-0.4931210169297202
 30
0.0
  0
ENDBLK
  5
237
330
235
100
AcDbEntity
  8
0
100
AcDbBlockEnd
  0
BLOCK
  5
245
330
244
100
AcDbEntity
  8
0
100
AcDbBlockBegin
  2
*D16
 70
     1
 10
0.0
 20
0.0
 30
0.0
  3
*D16
  1
*D16
  0
LINE
  5
247
330
244
100
AcDbEntity
  8
0
  6
Continuous
 62
     0
370
    -2
100
AcDbLine
 10
174.4096841316673
 20
-10.2533561011719
 30
0.0
 11
190.2315974127418
 21
-10.25335610117185
 31
0.0
  0
LINE
  5
248
330
244
100
AcDbEntity
  8
0
  6
Continuous
 62
     0
370
    -2
100
AcDbLine
 10
174.4096841316673
 20
-19.7783561011719
 30
0.0
 11
190.2315974127419
 21
-19.77835610117184
 31
0.0
  0
LINE
  5
249
330
244
100
AcDbEntity
  8
0
  6
Continuous
 62
     0
370
    -2
100
AcDbLine
 10
190.2315974127418
 20
-10.25335610117185
 30
0.0
 11
190.2315974127418
 21
22.60064389882815
 31
0.0
  0
LINE
  5
24A
330
244
100
AcDbEntity
  8
0
  6
Continuous
 62
     0
370
    -2
100
AcDbLine
 10
190.2315974127418
 20
-10.25335610117185
 30
0.0
 11
190.2315974127419
 21
-19.77835610117184
 31
0.0
  0
LINE
  5
24B
330
244
100
AcDbEntity
  8
0
  6
Continuous
 62
     0
370
    -2
100
AcDbLine
 10
190.2315974127418
 20
-6.951356101171847
 30
0.0
 11
190.2315974127418
 21
-3.649356101171847
 31
0.0
  0
LINE
  5
24C
330
244
100
AcDbEntity
  8
0
  6
Continuous
 62
     0
370
    -2
100
AcDbLine
 10
190.2315974127419
 20
-23.08035610117184
 30
0.0
 11
190.2315974127419
 21
-26.38235610117184
 31
0.0
  0
SOLID
  5
24D
330
244
100
AcDbEntity
  8
0
 62
     0
100
AcDbTrace
 10
189.6812640794085
 20
-6.951356101171848
 30
0.0
 11
190.7819307460752
 21
-6.951356101171845
 31
0.0
 12
190.2315974127418
 22
-10.25335610117185
 32
0.0
 13
190.2315974127418
 23
-10.25335610117185
 33
0.0
  0
SOLID
  5
24E
330
244
100
AcDbEntity
  8
0
 62
     0
100
AcDbTrace
 10
190.7819307460752
 20
-23.08035610117184
 30
0.0
 11
189.6812640794085
 21
-23.08035610117184
 31
0.0
 12
190.2315974127419
 22
-19.77835610117184
 32
0.0
 13
190.2315974127419
 23
-19.77835610117184
 33
0.0
  0
MTEXT
  5
24F
330
244
100
AcDbEntity
  8
0
 62
     0
370
    15
100
AcDbMText
 10
185.8565974127418
 20
9.47564389882814
 30
0.0
 40
3.5
 41
0.0
 71
     2
 72
     1
  1
\A1;%%c9.53 [3/8]
  7
SLDTEXTSTYLE0
 11
-2.983906501879687E-15
 21
1.0
 31
0.0
 73
     1
 44
1.0
  0
POINT
  5
250
330
244
100
AcDbEntity
  8
Defpoints
 62
     0
100
AcDbPoint
 10
174.3471841316673
 20
-10.2533561011719
 30
0.0
  0
POINT
  5
251
330
244
100
AcDbEntity
  8
Defpoints
 62
     0
100
AcDbPoint
 10
174.3471841316673
 20
-19.7783561011719
 30
0.0
  0
POINT
  5
252
330
244
100
AcDbEntity
  8
Defpoints
 62
     0
100
AcDbPoint
 10
190.2315974127419
 20
-19.77835610117184
 30
0.0
  0
ENDBLK
  5
246
330
244
100
AcDbEntity
  8
0
100
AcDbBlockEnd
  0
BLOCK
  5
254
330
253
100
AcDbEntity
  8
0
100
AcDbBlockBegin
  2
*D17
 70
     1
 10
0.0
 20
0.0
 30
0.0
  3
*D17
  1
*D17
  0
LINE
  5
256
330
253
100
AcDbEntity
  8
0
  6
Continuous
 62
     0
370
    -2
100
AcDbLine
 10
175.3908988838102
 20
-21.97997726046804
 30
0.0
 11
195.8676316325599
 21
-49.57748215106059
 31
0.0
  0
MTEXT
  5
257
330
253
100
AcDbEntity
  8
0
 62
     0
370
    15
100
AcDbMText
 10
188.721134370379
 20
-35.54046222359231
 30
0.0
 40
3.5
 41
0.0
 71
     5
 72
     1
  1
\A1;R2.29 [R0.090]
  7
SLDTEXTSTYLE0
 11
0.5958687817005848
 21
-0.8030818108976574
 31
0.0
 73
     1
 44
1.0
  0
LINE
  5
258
330
253
100
AcDbEntity
  8
0
  6
Continuous
 62
     0
370
    -2
100
AcDbLine
 10
172.0611841316673
 20
-17.49235610117192
 30
0.0
 11
173.4233401666348
 21
-19.32820112088397
 31
0.0
  0
SOLID
  5
259
330
253
100
AcDbEntity
  8
0
 62
     0
100
AcDbTrace
 10
175.8328615737408
 20
-21.65205080760548
 30
0.0
 11
174.9489361938795
 21
-22.30790371333059
 31
0.0
 12
173.4233401666348
 22
-19.32820112088397
 32
0.0
 13
173.4233401666348
 23
-19.32820112088397
 33
0.0
  0
POINT
  5
25A
330
253
100
AcDbEntity
  8
Defpoints
 62
     0
100
AcDbPoint
 10
173.4233401666348
 20
-19.32820112088397
 30
0.0
  0
POINT
  5
25B
330
253
100
AcDbEntity
  8
Defpoints
 62
     0
100
AcDbPoint
 10
172.0611841316673
 20
-17.49235610117192
 30
0.0
  0
ENDBLK
  5
255
330
253
100
AcDbEntity
  8
0
100
AcDbBlockEnd
  0
BLOCK
  5
26B
330
26A
100
AcDbEntity
  8
0
100
AcDbBlockBegin
  2
*D18
 70
     1
 10
0.0
 20
0.0
 30
0.0
  3
*D18
  1
*D18
  0
LINE
  5
26D
330
26A
100
AcDbEntity
  8
0
  6
Continuous
 62
     0
370
    -2
100
AcDbLine
 10
48.27400911059382
 20
-9.58938656541832
 30
0.0
 11
53.79890942395942
 21
-39.9553681365346
 31
0.0
  0
MTEXT
  5
26E
330
26A
100
AcDbEntity
  8
0
 62
     0
370
    15
100
AcDbMText
 10
53.91459797166343
 20
-25.92682249835705
 30
0.0
 40
3.5
 41
0.0
 71
     5
 72
     1
  1
\A1;R.51 [R0.020]
  7
SLDTEXTSTYLE0
 11
0.1790050159038894
 21
-0.9838481611921875
 31
0.0
 73
     1
 44
1.0
  0
LINE
  5
26F
330
26A
100
AcDbEntity
  8
0
  6
Continuous
 62
     0
370
    -2
100
AcDbLine
 10
47.592
 20
-5.840925071276087
 30
0.0
 11
47.68293454807917
 21
-6.340719937161717
 31
0.0
  0
SOLID
  5
270
330
26A
100
AcDbEntity
  8
0
 62
     0
100
AcDbTrace
 10
48.81545354863658
 20
-9.490874138332545
 30
0.0
 11
47.73256467255105
 21
-9.687898992504094
 31
0.0
 12
47.68293454807917
 22
-6.340719937161717
 32
0.0
 13
47.68293454807917
 23
-6.340719937161717
 33
0.0
  0
POINT
  5
271
330
26A
100
AcDbEntity
  8
Defpoints
 62
     0
100
AcDbPoint
 10
47.68293454807917
 20
-6.340719937161717
 30
0.0
  0
POINT
  5
272
330
26A
100
AcDbEntity
  8
Defpoints
 62
     0
100
AcDbPoint
 10
47.592
 20
-5.840925071276087
 30
0.0
  0
ENDBLK
  5
26C
330
26A
100
AcDbEntity
  8
0
100
AcDbBlockEnd
  0
ENDSEC
  0
SECTION
  2
ENTITIES
  0
LINE
  5
96
330
1F
100
AcDbEntity
  8
0
  6
Continuous
 62
     1
370
    15
100
AcDbLine
 10
35.63911571195158
 20
6.351074928723895
 30
0.0
 11
32.22500000000001
 21
6.351074928723895
 31
0.0
  0
LINE
  5
97
330
1F
100
AcDbEntity
  8
0
  6
Continuous
 62
     1
370
    15
100
AcDbLine
 10
32.22500000000001
 20
-6.348925071276108
 30
0.0
 11
35.63911571195158
 21
-6.348925071276108
 31
0.0
  0
LINE
  5
98
330
1F
100
AcDbEntity
  8
외형선
  6
Continuous
370
    15
100
AcDbLine
 10
31.76762220141496
 20
-6.348925071276106
 30
0.0
 11
32.22500000000001
 21
-6.348925071276106
 31
0.0
  0
LINE
  5
99
330
1F
100
AcDbEntity
  8
외형선
  6
Continuous
370
    15
100
AcDbLine
 10
-52.22999999999998
 20
-6.348925071276106
 30
0.0
 11
31.76762220141496
 21
-6.348925071276106
 31
0.0
  0
LINE
  5
9A
330
1F
100
AcDbEntity
  8
외형선
  6
Continuous
370
    15
100
AcDbLine
 10
31.72512946254048
 20
6.351074928723891
 30
0.0
 11
-52.22999999999998
 21
6.351074928723891
 31
0.0
  0
LINE
  5
9B
330
1F
100
AcDbEntity
  8
외형선
  6
Continuous
370
    15
100
AcDbLine
 10
32.22500000000001
 20
6.351074928723891
 30
0.0
 11
31.72512946254048
 21
6.351074928723891
 31
0.0
  0
LINE
  5
9C
330
1F
100
AcDbEntity
  8
외형선
  6
Continuous
370
    15
100
AcDbLine
 10
-52.22999999999998
 20
6.351074928723893
 30
0.0
 11
-53.49999999999999
 21
5.081074928723896
 31
0.0
  0
LINE
  5
9D
330
1F
100
AcDbEntity
  8
외형선
  6
Continuous
370
    15
100
AcDbLine
 10
-53.49999999999999
 20
-5.078925071276109
 30
0.0
 11
-52.22999999999998
 21
-6.348925071276106
 31
0.0
  0
LINE
  5
9E
330
1F
100
AcDbEntity
  8
0
  6
Continuous
 62
     1
370
    15
100
AcDbLine
 10
48.1
 20
-5.340654328218319
 30
0.0
 11
48.1
 21
0.6218992450549697
 31
0.0
  0
SPLINE
  5
9F
330
1F
100
AcDbEntity
  8
0
  6
Continuous
 62
     1
370
    15
100
AcDbSpline
210
0.0
220
0.0
230
1.0
 70
     8
 71
     3
 72
    10
 73
     6
 74
     0
 42
0.000000001
 43
0.00000001
 40
0.0
 40
0.0
 40
0.0
 40
0.0
 40
0.5
 40
0.5
 40
1.0
 40
1.0
 40
1.0
 40
1.0
 10
47.59200000000002
 20
-5.619350250798401
 30
0.0
 10
47.72421932949297
 20
-5.654872359855945
 30
0.0
 10
47.84535432556297
 20
-5.650021496106614
 30
0.0
 10
48.0342067653903
 20
-5.557557109888974
 30
0.0
 10
48.10000000000003
 20
-5.466833519844847
 30
0.0
 10
48.10000000000003
 20
-5.340654328218317
 30
0.0
  0
SPLINE
  5
A0
330
1F
100
AcDbEntity
  8
0
  6
Continuous
 62
     1
370
    15
100
AcDbSpline
210
0.0
220
0.0
230
1.0
 70
     8
 71
     3
 72
    28
 73
    24
 74
     0
 42
0.000000001
 43
0.00000001
 40
0.0
 40
0.0
 40
0.0
 40
0.0
 40
0.1249999999999995
 40
0.1249999999999995
 40
0.249999999999999
 40
0.249999999999999
 40
0.3124999999999987
 40
0.3124999999999987
 40
0.3749999999999984
 40
0.3749999999999984
 40
0.4374999999999982
 40
0.4374999999999982
 40
0.4999999999999979
 40
0.4999999999999979
 40
0.6249999999999994
 40
0.6249999999999994
 40
0.6875000000000002
 40
0.6875000000000002
 40
0.750000000000001
 40
0.750000000000001
 40
0.8750000000000004
 40
0.8750000000000004
 40
1.0
 40
1.0
 40
1.0
 40
1.0
 10
47.592
 20
-5.619350250798393
 30
0.0
 10
46.9516844537412
 20
-5.447322766218978
 30
0.0
 10
46.30854615905317
 20
-5.246328068592503
 30
0.0
 10
45.03298313475995
 20
-4.794406952056535
 30
0.0
 10
44.38738009351194
 20
-4.541882080251834
 30
0.0
 10
43.42922012750397
 20
-4.13179012548291
 30
0.0
 10
43.11090073255695
 20
-3.98983679115234
 30
0.0
 10
42.46974130415871
 20
-3.695476584459728
 30
0.0
 10
42.14830448700927
 20
-3.54326783505123
 30
0.0
 10
41.50739019807014
 20
-3.230536093890919
 30
0.0
 10
41.18937250093665
 20
-3.07026877659093
 30
0.0
 10
40.55016011134975
 20
-2.741827700757717
 30
0.0
 10
40.22896773253135
 20
-2.573638931196944
 30
0.0
 10
39.26612847025484
 20
-2.060006691918888
 30
0.0
 10
38.63013432642017
 20
-1.706417012122196
 30
0.0
 10
37.66757976726466
 20
-1.164161473480833
 30
0.0
 10
37.34624365939811
 20
-0.981603186191084
 30
0.0
 10
36.70627199952898
 20
-0.6149668304342778
 30
0.0
 10
36.38855145091652
 20
-0.4310680563228478
 30
0.0
 10
35.428032400583
 20
0.12298324898306
 30
0.0
 10
34.7849967634156
 20
0.4941187482410304
 30
0.0
 10
33.50933668355394
 20
1.225663056601523
 30
0.0
 10
32.86373061411265
 20
1.588519033793905
 30
0.0
 10
32.22500000000005
 20
1.940213926585451
 30
0.0
  0
SPLINE
  5
A1
330
1F
100
AcDbEntity
  8
외형선
  6
Continuous
370
    15
100
AcDbSpline
210
0.0
220
0.0
230
1.0
 70
    24
 71
     3
 72
    15
 73
    11
 74
     0
 42
0.000000001
 43
0.00000001
 40
0.0
 40
0.0
 40
0.0
 40
0.0
 40
0.1342064825416131
 40
0.2725520531827128
 40
0.4028958596813781
 40
0.537019645398622
 40
0.6673634518972856
 40
0.8014872376145277
 40
0.9318310441131926
 40
1.0
 40
1.0
 40
1.0
 40
1.0
 10
32.22500000000004
 20
6.345556814009666
 30
0.0
 10
32.22500000000002
 20
6.137380830265686
 30
0.0
 10
32.22500000000004
 20
5.714608466977201
 30
0.0
 10
32.22500000000007
 20
5.059496277558745
 30
0.0
 10
32.22499999999993
 20
4.407559960122382
 30
0.0
 10
32.22500000000002
 20
3.786089103109902
 30
0.0
 10
32.22499999999997
 20
3.19405038862605
 30
0.0
 10
32.22500000000001
 20
2.664329888918183
 30
0.0
 10
32.22499999999997
 20
2.261023810206404
 30
0.0
 10
32.22500000000002
 20
2.074656673604596
 30
0.0
 10
32.22500000000004
 20
2.01065850562238
 30
0.0
  0
SPLINE
  5
A2
330
1F
100
AcDbEntity
  8
0
  6
Continuous
 62
     1
370
    15
100
AcDbSpline
210
0.0
220
0.0
230
1.0
 70
     8
 71
     3
 72
    28
 73
    24
 74
     0
 42
0.000000001
 43
0.00000001
 40
0.0
 40
0.0
 40
0.0
 40
0.0
 40
0.1249999999999993
 40
0.1249999999999993
 40
0.2499999999999985
 40
0.2499999999999985
 40
0.3124999999999981
 40
0.3124999999999981
 40
0.3749999999999978
 40
0.3749999999999978
 40
0.4374999999999974
 40
0.4374999999999974
 40
0.499999999999997
 40
0.499999999999997
 40
0.6249999999999962
 40
0.6249999999999962
 40
0.6874999999999969
 40
0.6874999999999969
 40
0.7499999999999974
 40
0.7499999999999974
 40
0.8749999999999988
 40
0.8749999999999988
 40
1.0
 40
1.0
 40
1.0
 40
1.0
 10
47.592
 20
0.8371462240680626
 30
0.0
 10
46.95168445374116
 20
1.203570692379208
 30
0.0
 10
46.30854615905329
 20
1.566247507569428
 30
0.0
 10
45.03298313475995
 20
2.270105736731096
 30
0.0
 10
44.38738009351194
 20
2.613665900342612
 30
0.0
 10
43.429220127504
 20
3.104728660247489
 30
0.0
 10
43.11090073255703
 20
3.264511113224414
 30
0.0
 10
42.46974130415878
 20
3.576126595870837
 30
0.0
 10
42.14830448700934
 20
3.727715760403504
 30
0.0
 10
41.50739019807021
 20
4.020728021195125
 30
0.0
 10
41.18937250093671
 20
4.161948031115461
 30
0.0
 10
40.55016011134981
 20
4.433953358275952
 30
0.0
 10
40.22896773253142
 20
4.564716463835784
 30
0.0
 10
39.26612847025484
 20
4.938975553398572
 30
0.0
 10
38.63013432642024
 20
5.163882136238028
 30
0.0
 10
37.66757976726464
 20
5.461252005495908
 30
0.0
 10
37.34624365939813
 20
5.553589648467196
 30
0.0
 10
36.70627199952901
 20
5.723676406342337
 30
0.0
 10
36.38855145091652
 20
5.801377064907222
 30
0.0
 10
35.4280324005831
 20
6.012696652233366
 30
0.0
 10
34.78499676341567
 20
6.123770412072257
 30
0.0
 10
33.50933668355398
 20
6.282274092917888
 30
0.0
 10
32.86373061411272
 20
6.330162777334842
 30
0.0
 10
32.22500000000012
 20
6.34555681400914
 30
0.0
  0
SPLINE
  5
A3
330
1F
100
AcDbEntity
  8
0
  6
Continuous
 62
     1
370
    15
100
AcDbSpline
210
0.0
220
0.0
230
1.0
 70
     8
 71
     3
 72
    14
 73
    10
 74
     0
 42
0.000000001
 43
0.00000001
 40
0.0
 40
0.0
 40
0.0
 40
0.0
 40
0.25
 40
0.25
 40
0.5
 40
0.5
 40
0.75
 40
0.75
 40
1.0
 40
1.0
 40
1.0
 40
1.0
 10
48.1
 20
0.6234841856661731
 30
0.0
 10
48.1
 20
0.6177904885348116
 30
0.0
 10
48.08578184334744
 20
0.6175733846463259
 30
0.0
 10
48.03087938665046
 20
0.6305328189053988
 30
0.0
 10
47.98984755369967
 20
0.6439638523015331
 30
0.0
 10
47.89137838081587
 20
0.6833967301039379
 30
0.0
 10
47.83398496062166
 20
0.7093698710250774
 30
0.0
 10
47.71384244826268
 20
0.7693367547728917
 30
0.0
 10
47.65260180129779
 20
0.8024664744524646
 30
0.0
 10
47.59200000000002
 20
0.8371462240680682
 30
0.0
  0
SPLINE
  5
A4
330
1F
100
AcDbEntity
  8
0
  6
Continuous
 62
     1
370
    15
100
AcDbSpline
210
0.0
220
0.0
230
1.0
 70
     8
 71
     3
 72
    28
 73
    24
 74
     0
 42
0.000000001
 43
0.00000001
 40
0.0
 40
0.0
 40
0.0
 40
0.0
 40
0.1249999999999993
 40
0.1249999999999993
 40
0.2499999999999985
 40
0.2499999999999985
 40
0.3124999999999981
 40
0.3124999999999981
 40
0.3749999999999978
 40
0.3749999999999978
 40
0.4374999999999974
 40
0.4374999999999974
 40
0.499999999999997
 40
0.499999999999997
 40
0.6249999999999962
 40
0.6249999999999962
 40
0.6874999999999969
 40
0.6874999999999969
 40
0.7499999999999974
 40
0.7499999999999974
 40
0.8749999999999988
 40
0.8749999999999988
 40
1.0
 40
1.0
 40
1.0
 40
1.0
 10
47.592
 20
-6.348925071276087
 30
0.0
 10
46.95168445374119
 20
-6.24497498224124
 30
0.0
 10
46.30854615905326
 20
-6.164069837488776
 30
0.0
 10
45.03298313475995
 20
-5.941169965442259
 30
0.0
 10
44.38738009351194
 20
-5.798346134309525
 30
0.0
 10
43.429220127504
 20
-5.541842856850306
 30
0.0
 10
43.11090073255703
 20
-5.449307915693757
 30
0.0
 10
42.46974130415878
 20
-5.250181535995711
 30
0.0
 10
42.14830448700934
 20
-5.14371158584126
 30
0.0
 10
41.50739019807021
 20
-4.918180013335896
 30
0.0
 10
41.18937250093671
 20
-4.799316169822208
 30
0.0
 10
40.55016011134981
 20
-4.549332580721644
 30
0.0
 10
40.22896773253142
 20
-4.41818868451121
 30
0.0
 10
39.26612847025484
 20
-4.008475818914177
 30
0.0
 10
38.63013432642024
 20
-3.714400079460593
 30
0.0
 10
37.66757976726464
 20
-3.245950554683121
 30
0.0
 10
37.34624365939813
 20
-3.085383713703462
 30
0.0
 10
36.70627199952901
 20
-2.757272219975797
 30
0.0
 10
36.38855145091652
 20
-2.589900775640256
 30
0.0
 10
35.4280324005831
 20
-2.077276374569372
 30
0.0
 10
34.78499676341567
 20
-1.722694809578427
 30
0.0
 10
33.50933668355398
 20
-1.00158112009341
 30
0.0
 10
32.86373061411272
 20
-0.6326104693759746
 30
0.0
 10
32.22500000000012
 20
-0.263593934740294
 30
0.0
  0
LINE
  5
A5
330
1F
100
AcDbEntity
  8
외형선
  6
Continuous
370
    15
100
AcDbLine
 10
32.22499999999999
 20
-0.2635939347402221
 30
0.0
 11
32.22500000000001
 21
1.94021392658546
 31
0.0
  0
SPLINE
  5
A6
330
1F
100
AcDbEntity
  8
0
  6
Continuous
 62
     1
370
    15
100
AcDbSpline
210
0.0
220
0.0
230
1.0
 70
     8
 71
     3
 72
    12
 73
     8
 74
     0
 42
0.000000001
 43
0.00000001
 40
0.0
 40
0.0
 40
0.0
 40
0.0
 40
0.2126775943689718
 40
0.4253766796108904
 40
0.6380610946067439
 40
0.8507231061907679
 40
1.0
 40
1.0
 40
1.0
 40
1.0
 10
32.22500000000005
 20
-6.045596878722975
 30
0.0
 10
32.94218342075791
 20
-6.149582331838566
 30
0.0
 10
34.3766227329907
 20
-6.357563745702991
 30
0.0
 10
36.52834432659135
 20
-6.367212393014495
 30
0.0
 10
38.67997027661869
 20
-6.142671527982589
 30
0.0
 10
40.61764992275154
 20
-5.752106758031211
 30
0.0
 10
41.83818575838246
 20
-5.34814031027704
 30
0.0
 10
42.34157955112181
 20
-5.18152971488285
 30
0.0
  0
SPLINE
  5
A8
330
1F
100
AcDbEntity
  8
외형선
  6
Continuous
370
    15
100
AcDbSpline
210
0.0
220
0.0
230
1.0
 70
    24
 71
     3
 72
    18
 73
    14
 74
     0
 42
0.000000001
 43
0.00000001
 40
0.0
 40
0.0
 40
0.0
 40
0.0
 40
0.0882145702007425
 40
0.1798479341604539
 40
0.2714812981201661
 40
0.3631146620798784
 40
0.4547480260395904
 40
0.5463813899993026
 40
0.6380147539590133
 40
0.7296481179187239
 40
0.8212814818784355
 40
0.9129148458381471
 40
1.0
 40
1.0
 40
1.0
 40
1.0
 10
32.22499999999998
 20
-0.2635939347402155
 30
0.0
 10
32.22500000000001
 20
-0.341908356920004
 30
0.0
 10
32.22500000000007
 20
-0.5015723105271379
 30
0.0
 10
32.22499999999997
 20
-0.862279767756717
 30
0.0
 10
32.22500000000005
 20
-1.305877051817511
 30
0.0
 10
32.22500000000008
 20
-1.82231306885164
 30
0.0
 10
32.22500000000007
 20
-2.396826676557307
 30
0.0
 10
32.22500000000004
 20
-3.011845096066708
 30
0.0
 10
32.22500000000001
 20
-3.650945013994659
 30
0.0
 10
32.22499999999997
 20
-4.295818509067201
 30
0.0
 10
32.22499999999998
 20
-4.926563693782079
 30
0.0
 10
32.22499999999999
 20
-5.521516766404711
 30
0.0
 10
32.22500000000001
 20
-5.873892714584363
 30
0.0
 10
32.22500000000001
 20
-6.045596878722971
 30
0.0
  0
SPLINE
  5
A9
330
1F
100
AcDbEntity
  8
0
  6
Continuous
 62
     1
370
    15
100
AcDbSpline
210
0.0
220
0.0
230
1.0
 70
     8
 71
     3
 72
    10
 73
     6
 74
     0
 42
0.000000001
 43
0.00000001
 40
0.0
 40
0.0
 40
0.0
 40
0.0
 40
0.5
 40
0.5
 40
1.0
 40
1.0
 40
1.0
 40
1.0
 10
47.59200000000002
 20
2.956294176324905
 30
0.0
 10
47.72421932949297
 20
2.888735954937821
 30
0.0
 10
47.84535432556297
 20
2.789178277079059
 30
0.0
 10
48.0342067653903
 20
2.571333483038598
 30
0.0
 10
48.10000000000003
 20
2.453665516329269
 30
0.0
 10
48.10000000000003
 20
2.366427449074158
 30
0.0
  0
LINE
  5
AA
330
1F
100
AcDbEntity
  8
0
  6
Continuous
 62
     1
370
    15
100
AcDbLine
 10
48.1
 20
0.6234841856661775
 30
0.0
 11
48.1
 21
2.366427449074156
 31
0.0
  0
SPLINE
  5
AB
330
1F
100
AcDbEntity
  8
0
  6
Continuous
 62
     1
370
    15
100
AcDbSpline
210
0.0
220
0.0
230
1.0
 70
     8
 71
     3
 72
    13
 73
     9
 74
     0
 42
0.000000001
 43
0.00000001
 40
0.0
 40
0.0
 40
0.0
 40
0.0
 40
0.0743966371963313
 40
0.2544063571758721
 40
0.4343971155785146
 40
0.6229329820131712
 40
0.8114672409663597
 40
1.0
 40
1.0
 40
1.0
 40
1.0
 10
35.63911571195158
 20
6.321645616335991
 30
0.0
 10
35.93553967079055
 20
6.328801220569854
 30
0.0
 10
36.94918951290458
 20
6.353270487933714
 30
0.0
 10
38.67997026364139
 20
6.139755911795459
 30
0.0
 10
40.8654368055639
 20
5.688590160546189
 30
0.0
 10
43.08495854923014
 20
4.983423986400957
 30
0.0
 10
45.3384843804255
 20
4.07210436117087
 30
0.0
 10
46.84083011884851
 20
3.328229918264276
 30
0.0
 10
47.59200000000002
 20
2.95629417632492
 30
0.0
  0
LINE
  5
AC
330
1F
100
AcDbEntity
  8
외형선
  6
Continuous
370
    15
100
AcDbLine
 10
32.22500000000004
 20
6.345556814009144
 30
0.0
 11
32.22500000000001
 21
6.351074928723895
 31
0.0
  0
SPLINE
  5
AD
330
1F
100
AcDbEntity
  8
0
  6
Continuous
 62
     1
370
    15
100
AcDbSpline
210
0.0
220
0.0
230
1.0
 70
     8
 71
     3
 72
    10
 73
     6
 74
     0
 42
0.000000001
 43
0.00000001
 40
0.0
 40
0.0
 40
0.0
 40
0.0
 40
0.4097156250651923
 40
0.8194676249979324
 40
1.0
 40
1.0
 40
1.0
 40
1.0
 10
47.592
 20
6.35107492872389
 30
0.0
 10
46.32486606093785
 20
6.215906250360032
 30
0.0
 10
45.44079388924551
 20
6.056124198296541
 30
0.0
 10
43.69065376815901
 20
5.652081708791985
 30
0.0
 10
42.65754514537716
 20
5.293383662386199
 30
0.0
 10
42.34157955112182
 20
5.183679572330636
 30
0.0
  0
LINE
  5
AF
330
1F
100
AcDbEntity
  8
0
  6
Continuous
 62
     1
370
    15
100
AcDbLine
 10
48.1
 20
2.366427449074156
 30
0.0
 11
48.1
 21
5.84307492872389
 31
0.0
  0
LINE
  5
B0
330
1F
100
AcDbEntity
  8
0
  6
Continuous
 62
     1
370
    15
100
AcDbLine
 10
48.1
 20
-5.840925071276087
 30
0.0
 11
48.1
 21
-5.340654328218319
 31
0.0
  0
LINE
  5
B1
330
1F
100
AcDbEntity
  8
외형선
  6
Continuous
370
    15
100
AcDbLine
 10
32.22500000000001
 20
-6.348925071276108
 30
0.0
 11
32.22500000000001
 21
-6.045596878722971
 31
0.0
  0
LINE
  5
B2
330
1F
100
AcDbEntity
  8
외형선
  6
Continuous
370
    15
100
AcDbLine
 10
31.72512946254046
 20
2.213579275860451
 30
0.0
 11
31.72512946254048
 21
6.351027119506275
 31
0.0
  0
SPLINE
  5
B3
330
1F
100
AcDbEntity
  8
외형선
  6
Continuous
370
    15
100
AcDbSpline
210
0.0
220
0.0
230
1.0
 70
     8
 71
     3
 72
     8
 73
     4
 74
     0
 42
0.000000001
 43
0.00000001
 40
0.0
 40
0.0
 40
0.0
 40
0.0
 40
1.0
 40
1.0
 40
1.0
 40
1.0
 10
32.22500000000005
 20
1.940213926585448
 30
0.0
 10
32.05812137886026
 20
2.032099860145244
 30
0.0
 10
31.892009052476
 20
2.123174853228071
 30
0.0
 10
31.72512946254048
 20
2.213623371386185
 30
0.0
  0
SPLINE
  5
B4
330
1F
100
AcDbEntity
  8
외형선
  6
Continuous
370
    15
100
AcDbSpline
210
0.0
220
0.0
230
1.0
 70
     8
 71
     3
 72
     8
 73
     4
 74
     0
 42
0.000000001
 43
0.00000001
 40
0.0
 40
0.0
 40
0.0
 40
0.0
 40
1.0
 40
1.0
 40
1.0
 40
1.0
 10
32.22499999999998
 20
-0.2635939347402096
 30
0.0
 10
32.05812137886021
 20
-0.1671824443291334
 30
0.0
 10
31.89200905247596
 20
-0.0708268783497336
 30
0.0
 10
31.72512946254046
 20
0.0256679288077452
 30
0.0
  0
LINE
  5
B5
330
1F
100
AcDbEntity
  8
외형선
  6
Continuous
370
    15
100
AcDbLine
 10
31.72512946254046
 20
-5.951010799313138
 30
0.0
 11
31.72512946254048
 21
0.0257158454681924
 31
0.0
  0
SPLINE
  5
B6
330
1F
100
AcDbEntity
  8
외형선
  6
Continuous
370
    15
100
AcDbSpline
210
0.0
220
0.0
230
1.0
 70
     8
 71
     3
 72
     8
 73
     4
 74
     0
 42
0.000000001
 43
0.00000001
 40
0.0
 40
0.0
 40
0.0
 40
0.0
 40
1.0
 40
1.0
 40
1.0
 40
1.0
 10
32.22500000000005
 20
-6.045596878722973
 30
0.0
 10
32.05812137886026
 20
-6.01612949521106
 30
0.0
 10
31.892009052476
 20
-5.984616618448726
 30
0.0
 10
31.72512946254048
 20
-5.950994407975144
 30
0.0
  0
SPLINE
  5
B7
330
1F
100
AcDbEntity
  8
외형선
  6
Continuous
370
    15
100
AcDbSpline
210
0.0
220
0.0
230
1.0
 70
     8
 71
     3
 72
     8
 73
     4
 74
     0
 42
0.000000001
 43
0.00000001
 40
0.0
 40
0.0
 40
0.0
 40
0.0
 40
1.0
 40
1.0
 40
1.0
 40
1.0
 10
32.22499999999998
 20
6.345556814009139
 30
0.0
 10
32.05812137886021
 20
6.349578753082076
 30
0.0
 10
31.89200905247596
 20
6.351401024099912
 30
0.0
 10
31.72512946254046
 20
6.351027305265536
 30
0.0
  0
LINE
  5
B8
330
1F
100
AcDbEntity
  8
외형선
  6
Continuous
370
    15
100
AcDbLine
 10
-52.22999999999998
 20
0.0010749287238927
 30
0.0
 11
-52.22999999999998
 21
6.351074928723891
 31
0.0
  0
LINE
  5
B9
330
1F
100
AcDbEntity
  8
외형선
  6
Continuous
370
    15
100
AcDbLine
 10
-52.22999999999998
 20
-6.348925071276106
 30
0.0
 11
-52.22999999999998
 21
0.0010749287238927
 31
0.0
  0
SPLINE
  5
BA
330
1F
100
AcDbEntity
  8
외형선
  6
Continuous
370
    15
100
AcDbSpline
210
0.0
220
0.0
230
1.0
 70
    24
 71
     3
 72
    18
 73
    14
 74
     0
 42
0.000000001
 43
0.00000001
 40
0.0
 40
0.0
 40
0.0
 40
0.0
 40
0.130962267413518
 40
0.2208696572527223
 40
0.3133843674880224
 40
0.4032917573272272
 40
0.4958064675625281
 40
0.5857138574017324
 40
0.678228567637033
 40
0.768135957476237
 40
0.8606506677115372
 40
0.9505580575507391
 40
0.9999999999999999
 40
0.9999999999999999
 40
0.9999999999999999
 40
0.9999999999999999
 10
32.22499999999999
 20
-6.045596878722968
 30
0.0
 10
32.22500000000004
 20
-5.781753931975813
 30
0.0
 10
32.22500000000011
 20
-5.336779189498372
 30
0.0
 10
32.22499999999994
 20
-4.624448045703061
 30
0.0
 10
32.22500000000008
 20
-3.988159626239494
 30
0.0
 10
32.22499999999997
 20
-3.34069394912567
 30
0.0
 10
32.22500000000009
 20
-2.713768979990703
 30
0.0
 10
32.22500000000007
 20
-2.11326446632181
 30
0.0
 10
32.22499999999998
 20
-1.567570056956159
 30
0.0
 10
32.22500000000005
 20
-1.08054936341011
 30
0.0
 10
32.22500000000008
 20
-0.6811979413798
 30
0.0
 10
32.22499999999994
 20
-0.401515357597767
 30
0.0
 10
32.22499999999997
 20
-0.2997137345610371
 30
0.0
 10
32.22499999999999
 20
-0.2635939347402232
 30
0.0
  0
LINE
  5
BB
330
1F
100
AcDbEntity
  8
외형선
  6
Continuous
370
    15
100
AcDbLine
 10
-53.49999999999999
 20
0.0010749287238927
 30
0.0
 11
-53.49999999999999
 21
5.081074928723896
 31
0.0
  0
LINE
  5
BC
330
1F
100
AcDbEntity
  8
외형선
  6
Continuous
370
    15
100
AcDbLine
 10
-53.49999999999999
 20
-5.078925071276109
 30
0.0
 11
-53.49999999999999
 21
0.0010749287238927
 31
0.0
  0
SPLINE
  5
BD
330
1F
100
AcDbEntity
  8
외형선
  6
Continuous
370
    15
100
AcDbSpline
210
0.0
220
0.0
230
1.0
 70
    24
 71
     3
 72
    22
 73
    18
 74
     0
 42
0.000000001
 43
0.00000001
 40
0.0
 40
0.0
 40
0.0
 40
0.0
 40
0.0603212036419916
 40
0.1261936146717313
 40
0.1927746352716475
 40
0.2603263182645019
 40
0.3257412032201242
 40
0.3916136142498775
 40
0.4581946348497937
 40
0.5257463178426017
 40
0.590924951200214
 40
0.6565561311286927
 40
0.7236146179096568
 40
0.7911663009024682
 40
0.8429301820700885
 40
0.9473137016909238
 40
1.0
 40
1.0
 40
1.0
 40
1.0
 10
32.22500000000002
 20
2.01066850562238
 30
0.0
 10
32.22500000000005
 20
2.070713979464429
 30
0.0
 10
32.22500000000012
 20
2.196330759822079
 30
0.0
 10
32.22499999999994
 20
2.413347869821808
 30
0.0
 10
32.22500000000009
 20
2.655469471892061
 30
0.0
 10
32.22500000000005
 20
2.914813588834127
 30
0.0
 10
32.22499999999997
 20
3.188279031174078
 30
0.0
 10
32.22500000000004
 20
3.473482712878221
 30
0.0
 10
32.22500000000001
 20
3.773017991123509
 30
0.0
 10
32.22499999999998
 20
4.080737255749825
 30
0.0
 10
32.22500000000002
 20
4.393831241704749
 30
0.0
 10
32.22499999999997
 20
4.710746210520804
 30
0.0
 10
32.22499999999999
 20
5.033902002639314
 30
0.0
 10
32.22500000000007
 20
5.334883374649944
 30
0.0
 10
32.22499999999985
 20
5.69362619647941
 30
0.0
 10
32.22500000000007
 20
6.024825298196745
 30
0.0
 10
32.22500000000004
 20
6.264995843381972
 30
0.0
 10
32.22500000000001
 20
6.345556814009241
 30
0.0
  0
LINE
  5
BE
330
1F
100
AcDbEntity
  8
중심선
 48
0.8
100
AcDbLine
 10
-56.49999999999999
 20
0.0010749287238931
 30
0.0
 11
51.10000000000001
 21
0.001074928723902
 31
0.0
  0
LINE
  5
BF
330
1F
100
AcDbEntity
  8
참조1
100
AcDbLine
 10
-2.699999999999994
 20
0.0010749287238892
 30
0.0
 11
-2.699999999999989
 21
-39.99892507127611
 31
0.0
  0
LINE
  5
C0
330
1F
100
AcDbEntity
  8
참조1
100
AcDbLine
 10
-2.699999999999989
 20
-39.99892507127611
 30
0.0
 11
-30.55885681430864
 21
-39.9989250712761
 31
0.0
  0
CIRCLE
  5
C1
330
1F
100
AcDbEntity
  8
해칭선
100
AcDbCircle
 10
20.22499999999998
 20
0.0
 30
0.0
 40
3.000000000000001
  0
INSERT
  5
C2
330
1F
100
AcDbEntity
  8
0
  6
Continuous
 62
     7
100
AcDbBlockReference
 66
     1
  2
블럭10
 10
-16.6402729321252
 20
-52.04609937292004
 30
0.0
  0
ATTRIB
  5
C3
330
C2
100
AcDbEntity
  8
FORMAT
 62
     2
100
AcDbText
 10
-26.78190894426183
 20
-49.97073246008785
 30
0.0
 40
4.233333333333333
  1
EM639032 [ 4 FLUTE ]
 41
0.75
  7
SLDTEXTSTYLE0
 11
-26.78190894426183
 21
-52.08739912675452
 31
0.0
100
AcDbAttribute
  2
AUTOATTR0
 70
     0
 74
     1
  0
SEQEND
  5
C4
330
C2
100
AcDbEntity
  8
0
  6
Continuous
 62
     7
  0
HATCH
  5
C5
330
1F
100
AcDbEntity
  8
중심선
100
AcDbHatch
 10
0.0
 20
0.0
 30
0.0
210
0.0
220
0.0
230
1.0
  2
SOLID
 70
     1
 71
     0
 91
        1
 92
        0
 93
        4
 72
     1
 10
-10.92536362774435
 20
-35.7989250712761
 11
-14.37163887158163
 21
-35.7989250712761
 72
     1
 10
-14.37163887158163
 20
-35.7989250712761
 11
-16.49986873078565
 21
-38.3352506518487
 72
     1
 10
-16.49986873078565
 20
-38.3352506518487
 11
-13.05356040183522
 21
-38.33521122254621
 72
     1
 10
-13.05356040183522
 20
-38.33521122254621
 11
-10.92536362774435
 21
-35.7989250712761
 97
        0
 75
     0
 76
     1
 98
        1
 10
0.0
 20
0.0
  0
HATCH
  5
C6
330
1F
100
AcDbEntity
  8
중심선
100
AcDbHatch
 10
0.0
 20
0.0
 30
0.0
210
0.0
220
0.0
230
1.0
  2
SOLID
 70
     1
 71
     0
 91
        1
 92
        0
 93
        4
 72
     1
 10
-5.912599636708372
 20
-35.7989250712761
 11
-9.358874880545653
 21
-35.7989250712761
 72
     1
 10
-9.358874880545653
 20
-35.7989250712761
 11
-13.89001288890307
 21
-41.19892507127612
 72
     1
 10
-13.89001288890307
 20
-41.19892507127612
 11
-10.44373764506579
 21
-41.19892507127612
 72
     1
 10
-10.44373764506579
 20
-41.19892507127612
 11
-5.912599636708372
 21
-35.7989250712761
 97
        0
 75
     0
 76
     1
 98
        1
 10
0.0
 20
0.0
  0
HATCH
  5
C7
330
1F
100
AcDbEntity
  8
중심선
100
AcDbHatch
 10
0.0
 20
0.0
 30
0.0
210
0.0
220
0.0
230
1.0
  2
SOLID
 70
     1
 71
     0
 91
        1
 92
        0
 93
        4
 72
     1
 10
-0.8998356456724477
 20
-35.79892507127608
 11
-4.346110889509591
 21
-35.7989250712761
 72
     1
 10
-4.346110889509591
 20
-35.7989250712761
 11
-11.39454779139887
 21
-44.19892507127612
 72
     1
 10
-11.39454779139887
 20
-44.19892507127612
 11
-7.948272547561586
 21
-44.19892507127612
 72
     1
 10
-7.948272547561586
 20
-44.19892507127612
 11
-0.8998356456724474
 21
-35.79892507127608
 97
        0
 75
     0
 76
     1
 98
        1
 10
0.0
 20
0.0
  0
HATCH
  5
C8
330
1F
100
AcDbEntity
  8
중심선
100
AcDbHatch
 10
0.0
 20
0.0
 30
0.0
210
0.0
220
0.0
230
1.0
  2
SOLID
 70
     1
 71
     0
 91
        1
 92
        0
 93
        6
 72
     3
 10
3.900054785339696
 20
-39.99892507132738
 11
3.960054785062284
 21
1.540850780301639E-10
 40
0.3939339440162633
 50
17.09539180608434
 51
320.0019657685081
 73
     0
 72
     1
 10
5.583054441040264
 20
-38.58681907591443
 11
7.88835631474133
 21
-36.65249236586649
 72
     3
 10
3.90005478528685
 20
-39.99892507127625
 11
6.600054785286829
 21
-1.249000902703301E-13
 40
0.6363583540795982
 50
39.99873849337408
 51
368.4976242363725
 73
     1
 72
     1
 10
10.32538727718746
 20
-39.03892507120613
 11
2.580122092122772
 21
-39.03892507120613
 72
     1
 10
2.580122092122772
 20
-39.03892507120613
 11
2.580097047676838
 21
-40.95892507120602
 72
     1
 10
2.580097047676838
 20
-40.95892507120602
 11
7.021476817148875
 21
-40.95892507120599
 97
        0
 75
     0
 76
     1
 98
        1
 10
0.0
 20
0.0
  0
DIMENSION
  5
C9
330
1F
100
AcDbEntity
  8
0
  6
Continuous
 62
     0
370
    15
100
AcDbDimension
  2
_D
 10
-65.865
 20
-6.348925071276149
 30
0.0
 11
-65.86500000000001
 21
-2.636846307204322
 31
0.0
 70
   160
  1
%%c<>
 71
     2
 42
12.69999999999999
  3
SLDDIMSTYLE2
100
AcDbAlignedDimension
 13
-52.22999999999999
 23
6.351074928723888
 33
0.0
 14
-52.22999999999999
 24
-6.348925071276101
 34
0.0
 50
90.0000000000002
100
AcDbRotatedDimension
1001
ACAD
1000
DSTYLE
1002
{
1070
   171
1070
     6
1070
   273
1070
     7
1002
}
  0
DIMENSION
  5
D7
330
1F
100
AcDbEntity
  8
0
  6
Continuous
 62
     0
370
    15
100
AcDbDimension
  2
_D_1
 10
-53.49999999999998
 20
32.9661543236754
 30
0.0
 11
-2.699999999999987
 21
32.9661543236754
 31
0.0
 70
   160
  1
<>
 71
     2
 42
101.6
  3
SLDDIMSTYLE2
100
AcDbAlignedDimension
 13
48.1
 23
6.351074928723889
 33
0.0
 14
-53.49999999999999
 24
5.081074928723896
 34
0.0
 50
0.000000000000004
100
AcDbRotatedDimension
1001
ACAD
1000
DSTYLE
1002
{
1070
   171
1070
     6
1070
   273
1070
     7
1002
}
  0
DIMENSION
  5
EB
330
1F
100
AcDbEntity
  8
0
  6
Continuous
 62
     0
370
    15
100
AcDbDimension
  2
_D_2
 10
32.22500000000004
 20
16.10458842475233
 30
0.0
 11
12.93350000000004
 21
16.10458842475233
 31
0.0
 70
   160
  1
<>
 71
     2
 42
15.87499999999996
  3
SLDDIMSTYLE2
100
AcDbAlignedDimension
 13
48.1
 23
6.351074928723889
 33
0.0
 14
32.22500000000004
 24
6.345556814009666
 34
0.0
 50
-0.0000000000001282
100
AcDbRotatedDimension
1001
ACAD
1000
DSTYLE
1002
{
1070
   171
1070
     6
1070
   273
1070
     7
1002
}
  0
DIMENSION
  5
101
330
1F
100
AcDbEntity
  8
0
  6
Continuous
 62
     0
370
    15
100
AcDbDimension
  2
_D_3
 10
67.52628668057969
 20
-6.348925071276021
 30
0.0
 11
67.52628668057957
 21
26.51757492872385
 31
0.0
 70
   160
  1
%%c<>
 71
     2
 42
12.69999999999998
  3
SLDDIMSTYLE2
100
AcDbAlignedDimension
 13
48.09999999999999
 23
6.35107492872389
 33
0.0
 14
48.09999999999999
 24
-6.348925071276088
 34
0.0
 50
90.0000000000002
100
AcDbRotatedDimension
1001
ACAD
1000
DSTYLE
1002
{
1070
   171
1070
     6
1070
   273
1070
     7
1002
}
  0
LINE
  5
115
330
1F
100
AcDbEntity
  8
참조1
100
AcDbLine
 10
67.41348381534561
 20
7.441074928723896
 30
0.0
 11
67.41348381534561
 21
-7.438925071276109
 31
0.0
  0
LINE
  5
116
330
1F
100
AcDbEntity
  8
참조1
100
AcDbLine
 10
80.11348381534562
 20
5.441074928723896
 30
0.0
 11
67.41348381534561
 21
5.441074928723896
 31
0.0
  0
SOLID
  5
117
330
1F
100
AcDbEntity
  8
참조1
100
AcDbTrace
 10
67.41348381534561
 20
5.441074928723896
 30
0.0
 11
73.76348381534561
 21
4.425074928723896
 31
0.0
 12
73.76348381534561
 22
6.457074928723896
 32
0.0
 13
73.76348381534561
 23
6.457074928723896
 33
0.0
  0
LINE
  5
118
330
1F
100
AcDbEntity
  8
참조1
100
AcDbLine
 10
80.11348381534562
 20
-5.438925071276109
 30
0.0
 11
67.41348381534561
 21
-5.438925071276109
 31
0.0
  0
SOLID
  5
119
330
1F
100
AcDbEntity
  8
참조1
100
AcDbTrace
 10
67.41348381534561
 20
-5.438925071276109
 30
0.0
 11
73.76348381534561
 21
-6.454925071276109
 31
0.0
 12
73.76348381534561
 22
-4.422925071276109
 32
0.0
 13
73.76348381534561
 23
-4.422925071276109
 33
0.0
  0
MTEXT
  5
11A
330
1F
100
AcDbEntity
  8
참조1
100
AcDbMText
 10
76.81097390781589
 20
10.98929157337383
 30
0.0
 40
3.5
 41
0.0
 71
     1
 72
     1
  1
A
  7
SLDTEXTSTYLE0
 73
     1
 44
1.0
  0
MTEXT
  5
11B
330
1F
100
AcDbEntity
  8
참조1
100
AcDbMText
 10
76.81097390781589
 20
0.1092915733738251
 30
0.0
 40
3.5
 41
0.0
 71
     1
 72
     1
  1
A
  7
SLDTEXTSTYLE0
 73
     1
 44
1.0
  0
INSERT
  5
122
330
1F
100
AcDbEntity
  8
해칭선
100
AcDbBlockReference
  2
SW_DOWELSYMBOL_0
 10
20.22499999999998
 20
0.0
 30
0.0
  0
ARC
  5
261
330
1F
100
AcDbEntity
  8
0
  6
Continuous
 62
     1
370
    15
100
AcDbCircle
 10
47.592
 20
5.84307492872389
 30
0.0
 40
0.5079999999999999
100
AcDbArc
 50
358.1313015381414
 51
90.0
  0
ARC
  5
266
102
{ACAD_REACTORS
102
}
330
1F
100
AcDbEntity
  8
0
  6
Continuous
 62
     1
370
    15
100
AcDbCircle
 10
47.592
 20
-5.840925071276087
 30
0.0
 40
0.5079999999999999
100
AcDbArc
 50
270.0
 51
1.868698461858559
  0
DIMENSION
  5
267
102
{ACAD_REACTORS
102
}
102
{ACAD_XDICTIONARY
360
268
102
}
330
1F
100
AcDbEntity
  8
0
  6
Continuous
 62
     0
370
    15
100
AcDbDimension
  2
*D18
 10
47.592
 20
-5.840925071276087
 30
0.0
 11
51.33199654853394
 21
-26.39671066510476
 31
0.0
 70
   164
  1
<>
 71
     5
 42
0.5079999999999992
  3
SLDDIMSTYLE2
100
AcDbRadialDimension
 15
47.68293454807917
 25
-6.340719937161717
 35
0.0
 40
0.0
1001
ACAD
1000
DSTYLE
1002
{
1070
   171
1070
     3
1002
}
1001
ACAD_DSTYLE_DIMRADIAL_EXTENSION
1070
   387
1070
     1
1070
   388
1040
4.71238898038469
1070
   390
1040
0.0326149408863855
  0
ENDSEC
  0
SECTION
  2
OBJECTS
  0
DICTIONARY
  5
C
330
0
100
AcDbDictionary
281
     1
  3
ACAD_GROUP
350
D
  3
ACAD_IMAGE_VARS
350
146
  3
ACAD_LAYOUT
350
1A
  3
ACAD_MLINESTYLE
350
17
  3
ACAD_PLOTSETTINGS
350
19
  3
ACAD_PLOTSTYLENAME
350
E
  3
ACAD_SCALELIST
350
47
  3
APPDATA
350
144
  3
DWGPROPS
350
274
  0
DICTIONARY
  5
1E7
330
2
100
AcDbDictionary
280
     1
281
     1
  3
ACAD_LAYERSTATES
360
1E8
  0
DICTIONARY
  5
268
330
267
100
AcDbDictionary
280
     1
281
     1
  0
DICTIONARY
  5
D
102
{ACAD_REACTORS
330
C
102
}
330
C
100
AcDbDictionary
281
     1
  0
RASTERVARIABLES
  5
146
102
{ACAD_REACTORS
330
C
102
}
330
C
100
AcDbRasterVariables
 90
        0
 70
     1
 71
     1
 72
     1
  0
DICTIONARY
  5
1A
102
{ACAD_REACTORS
330
C
102
}
330
C
100
AcDbDictionary
281
     1
  3
Layout1
350
1E
  3
Layout2
350
26
  3
Model
350
22
  0
DICTIONARY
  5
17
102
{ACAD_REACTORS
330
C
102
}
330
C
100
AcDbDictionary
281
     1
  3
Standard
350
18
  0
DICTIONARY
  5
19
102
{ACAD_REACTORS
330
C
102
}
330
C
100
AcDbDictionary
281
     1
  0
ACDBDICTIONARYWDFLT
  5
E
102
{ACAD_REACTORS
330
C
102
}
330
C
100
AcDbDictionary
281
     1
  3
Normal
350
F
100
AcDbDictionaryWithDefault
340
F
  0
DICTIONARY
  5
47
102
{ACAD_REACTORS
330
C
102
}
330
C
100
AcDbDictionary
281
     1
  3
A0
350
48
  3
A1
350
49
  3
A2
350
4A
  3
A3
350
4B
  3
A4
350
4C
  3
A5
350
4D
  3
A6
350
4E
  3
A7
350
4F
  3
A8
350
50
  3
A9
350
51
  3
B0
350
52
  3
B1
350
53
  3
B2
350
54
  3
B3
350
55
  3
B4
350
56
  3
B5
350
57
  3
B6
350
58
  3
B7
350
59
  3
B8
350
5A
  3
B9
350
5B
  3
C0
350
5C
  3
C1
350
5D
  3
C2
350
5E
  3
C3
350
5F
  3
C4
350
60
  3
C5
350
61
  3
C6
350
62
  3
C7
350
63
  3
C8
350
64
  3
C9
350
65
  3
D0
350
66
  3
D1
350
67
  3
D2
350
68
  0
DICTIONARY
  5
144
102
{ACAD_REACTORS
330
C
102
}
330
C
100
AcDbDictionary
281
     1
  0
XRECORD
  5
274
102
{ACAD_REACTORS
330
C
102
}
330
C
100
AcDbXrecord
280
     1
  1
DWGPROPS COOKIE
  2

  3

  4

  6

  7

  8
12017012
  9

300
=
301
=
302
=
303
=
304
=
305
=
306
=
307
=
308
=
309
=
 40
0.0
 41
2458296.314541065
 42
2458296.368544815
  1

 90
        0
  0
DICTIONARY
  5
1E8
102
{ACAD_REACTORS
330
1E7
102
}
330
1E7
100
AcDbDictionary
281
     1
  0
LAYOUT
  5
1E
102
{ACAD_REACTORS
330
1A
102
}
330
1A
100
AcDbPlotSettings
  1

  2
none_device
  4

  6

 40
0.0
 41
0.0
 42
0.0
 43
0.0
 44
0.0
 45
0.0
 46
0.0
 47
0.0
 48
0.0
 49
0.0
140
0.0
141
0.0
142
1.0
143
1.0
 70
   688
 72
     1
 73
     0
 74
     5
  7

 75
    16
147
1.0
148
0.0
149
0.0
100
AcDbLayout
  1
Layout1
 70
     1
 71
     1
 10
0.0
 20
0.0
 11
420.0
 21
297.0
 12
0.0
 22
0.0
 32
0.0
 14
1.000000000000000E+20
 24
1.000000000000000E+20
 34
1.000000000000000E+20
 15
-1.000000000000000E+20
 25
-1.000000000000000E+20
 35
-1.000000000000000E+20
146
0.0
 13
0.0
 23
0.0
 33
0.0
 16
1.0
 26
0.0
 36
0.0
 17
0.0
 27
1.0
 37
0.0
 76
     0
330
1B
  0
LAYOUT
  5
26
102
{ACAD_REACTORS
330
1A
102
}
330
1A
100
AcDbPlotSettings
  1

  2
none_device
  4

  6

 40
0.0
 41
0.0
 42
0.0
 43
0.0
 44
0.0
 45
0.0
 46
0.0
 47
0.0
 48
0.0
 49
0.0
140
0.0
141
0.0
142
1.0
143
1.0
 70
   688
 72
     1
 73
     0
 74
     5
  7

 75
    16
147
1.0
148
0.0
149
0.0
100
AcDbLayout
  1
Layout2
 70
     1
 71
     2
 10
0.0
 20
0.0
 11
0.0
 21
0.0
 12
0.0
 22
0.0
 32
0.0
 14
0.0
 24
0.0
 34
0.0
 15
0.0
 25
0.0
 35
0.0
146
0.0
 13
0.0
 23
0.0
 33
0.0
 16
1.0
 26
0.0
 36
0.0
 17
0.0
 27
1.0
 37
0.0
 76
     0
330
23
  0
LAYOUT
  5
22
102
{ACAD_REACTORS
330
1A
102
}
330
1A
100
AcDbPlotSettings
  1

  2
none_device
  4
ANSI_A_(11.00_x_8.50_Inches)
  6

 40
6.35
 41
19.05
 42
6.35000508
 43
19.05000254
 44
279.4
 45
215.9
 46
124.4540690248257
 47
95.29009667287873
 48
0.0
 49
0.0
140
0.0
141
0.0
142
0.0723378029136407
143
1.0
 70
  1696
 72
     0
 73
     0
 74
     0
  7

 75
     0
147
0.0235690232323232
148
0.0
149
0.0
100
AcDbLayout
  1
Model
 70
     1
 71
     0
 10
0.0
 20
0.0
 11
420.0
 21
297.0
 12
0.0
 22
0.0
 32
0.0
 14
1.000000000000000E+20
 24
1.000000000000000E+20
 34
1.000000000000000E+20
 15
-1.000000000000000E+20
 25
-1.000000000000000E+20
 35
-1.000000000000000E+20
146
0.0
 13
0.0
 23
0.0
 33
0.0
 16
1.0
 26
0.0
 36
0.0
 17
0.0
 27
1.0
 37
0.0
 76
     0
330
1F
331
29
  0
MLINESTYLE
  5
18
102
{ACAD_REACTORS
330
17
102
}
330
17
100
AcDbMlineStyle
  2
Standard
 70
     0
  3

 62
   256
 51
90.0
 52
90.0
 71
     2
 49
0.5
 62
   256
  6
BYLAYER
 49
-0.5
 62
   256
  6
BYLAYER
  0
ACDBPLACEHOLDER
  5
F
102
{ACAD_REACTORS
330
E
102
}
330
E
  0
SCALE
  5
48
102
{ACAD_REACTORS
330
47
102
}
330
47
100
AcDbScale
 70
     0
300
1:1
140
1.0
141
1.0
290
     1
  0
SCALE
  5
49
102
{ACAD_REACTORS
330
47
102
}
330
47
100
AcDbScale
 70
     0
300
1:2
140
1.0
141
2.0
290
     0
  0
SCALE
  5
4A
102
{ACAD_REACTORS
330
47
102
}
330
47
100
AcDbScale
 70
     0
300
1:4
140
1.0
141
4.0
290
     0
  0
SCALE
  5
4B
102
{ACAD_REACTORS
330
47
102
}
330
47
100
AcDbScale
 70
     0
300
1:5
140
1.0
141
5.0
290
     0
  0
SCALE
  5
4C
102
{ACAD_REACTORS
330
47
102
}
330
47
100
AcDbScale
 70
     0
300
1:8
140
1.0
141
8.0
290
     0
  0
SCALE
  5
4D
102
{ACAD_REACTORS
330
47
102
}
330
47
100
AcDbScale
 70
     0
300
1:10
140
1.0
141
10.0
290
     0
  0
SCALE
  5
4E
102
{ACAD_REACTORS
330
47
102
}
330
47
100
AcDbScale
 70
     0
300
1:16
140
1.0
141
16.0
290
     0
  0
SCALE
  5
4F
102
{ACAD_REACTORS
330
47
102
}
330
47
100
AcDbScale
 70
     0
300
1:20
140
1.0
141
20.0
290
     0
  0
SCALE
  5
50
102
{ACAD_REACTORS
330
47
102
}
330
47
100
AcDbScale
 70
     0
300
1:30
140
1.0
141
30.0
290
     0
  0
SCALE
  5
51
102
{ACAD_REACTORS
330
47
102
}
330
47
100
AcDbScale
 70
     0
300
1:40
140
1.0
141
40.0
290
     0
  0
SCALE
  5
52
102
{ACAD_REACTORS
330
47
102
}
330
47
100
AcDbScale
 70
     0
300
1:50
140
1.0
141
50.0
290
     0
  0
SCALE
  5
53
102
{ACAD_REACTORS
330
47
102
}
330
47
100
AcDbScale
 70
     0
300
1:100
140
1.0
141
100.0
290
     0
  0
SCALE
  5
54
102
{ACAD_REACTORS
330
47
102
}
330
47
100
AcDbScale
 70
     0
300
2:1
140
2.0
141
1.0
290
     0
  0
SCALE
  5
55
102
{ACAD_REACTORS
330
47
102
}
330
47
100
AcDbScale
 70
     0
300
4:1
140
4.0
141
1.0
290
     0
  0
SCALE
  5
56
102
{ACAD_REACTORS
330
47
102
}
330
47
100
AcDbScale
 70
     0
300
8:1
140
8.0
141
1.0
290
     0
  0
SCALE
  5
57
102
{ACAD_REACTORS
330
47
102
}
330
47
100
AcDbScale
 70
     0
300
10:1
140
10.0
141
1.0
290
     0
  0
SCALE
  5
58
102
{ACAD_REACTORS
330
47
102
}
330
47
100
AcDbScale
 70
     0
300
100:1
140
100.0
141
1.0
290
     0
  0
SCALE
  5
59
102
{ACAD_REACTORS
330
47
102
}
330
47
100
AcDbScale
 70
     0
300
1/128" = 1'-0"
140
0.0078125
141
12.0
290
     0
  0
SCALE
  5
5A
102
{ACAD_REACTORS
330
47
102
}
330
47
100
AcDbScale
 70
     0
300
1/64" = 1'-0"
140
0.015625
141
12.0
290
     0
  0
SCALE
  5
5B
102
{ACAD_REACTORS
330
47
102
}
330
47
100
AcDbScale
 70
     0
300
1/32" = 1'-0"
140
0.03125
141
12.0
290
     0
  0
SCALE
  5
5C
102
{ACAD_REACTORS
330
47
102
}
330
47
100
AcDbScale
 70
     0
300
1/16" = 1'-0"
140
0.0625
141
12.0
290
     0
  0
SCALE
  5
5D
102
{ACAD_REACTORS
330
47
102
}
330
47
100
AcDbScale
 70
     0
300
3/32" = 1'-0"
140
0.09375
141
12.0
290
     0
  0
SCALE
  5
5E
102
{ACAD_REACTORS
330
47
102
}
330
47
100
AcDbScale
 70
     0
300
1/8" = 1'-0"
140
0.125
141
12.0
290
     0
  0
SCALE
  5
5F
102
{ACAD_REACTORS
330
47
102
}
330
47
100
AcDbScale
 70
     0
300
3/16" = 1'-0"
140
0.1875
141
12.0
290
     0
  0
SCALE
  5
60
102
{ACAD_REACTORS
330
47
102
}
330
47
100
AcDbScale
 70
     0
300
1/4" = 1'-0"
140
0.25
141
12.0
290
     0
  0
SCALE
  5
61
102
{ACAD_REACTORS
330
47
102
}
330
47
100
AcDbScale
 70
     0
300
3/8" = 1'-0"
140
0.375
141
12.0
290
     0
  0
SCALE
  5
62
102
{ACAD_REACTORS
330
47
102
}
330
47
100
AcDbScale
 70
     0
300
1/2" = 1'-0"
140
0.5
141
12.0
290
     0
  0
SCALE
  5
63
102
{ACAD_REACTORS
330
47
102
}
330
47
100
AcDbScale
 70
     0
300
3/4" = 1'-0"
140
0.75
141
12.0
290
     0
  0
SCALE
  5
64
102
{ACAD_REACTORS
330
47
102
}
330
47
100
AcDbScale
 70
     0
300
1" = 1'-0"
140
1.0
141
12.0
290
     0
  0
SCALE
  5
65
102
{ACAD_REACTORS
330
47
102
}
330
47
100
AcDbScale
 70
     0
300
1-1/2" = 1'-0"
140
1.5
141
12.0
290
     0
  0
SCALE
  5
66
102
{ACAD_REACTORS
330
47
102
}
330
47
100
AcDbScale
 70
     0
300
3" = 1'-0"
140
3.0
141
12.0
290
     0
  0
SCALE
  5
67
102
{ACAD_REACTORS
330
47
102
}
330
47
100
AcDbScale
 70
     0
300
6" = 1'-0"
140
6.0
141
12.0
290
     0
  0
SCALE
  5
68
102
{ACAD_REACTORS
330
47
102
}
330
47
100
AcDbScale
 70
     0
300
1'-0" = 1'-0"
140
12.0
141
12.0
290
     0
  0
ENDSEC
  0
EOF
