  0
SECTION
  2
HEADER
  9
$ACADVER
  1
AC1015
  9
$ACADMAINTVER
 70
     6
  9
$DWGCODEPAGE
  3
ANSI_949
  9
$INSBASE
 10
0.0
 20
0.0
 30
0.0
  9
$EXTMIN
 10
1.000000000000000E+20
 20
1.000000000000000E+20
 30
1.000000000000000E+20
  9
$EXTMAX
 10
-1.000000000000000E+20
 20
-1.000000000000000E+20
 30
-1.000000000000000E+20
  9
$LIMMIN
 10
0.0
 20
0.0
  9
$LIMMAX
 10
420.0
 20
297.0
  9
$ORTHOMODE
 70
     1
  9
$REGENMODE
 70
     1
  9
$FILLMODE
 70
     1
  9
$QTEXTMODE
 70
     0
  9
$MIRRTEXT
 70
     1
  9
$LTSCALE
 40
1.0
  9
$ATTMODE
 70
     1
  9
$TEXTSIZE
 40
3.5
  9
$TRACEWID
 40
1.0
  9
$TEXTSTYLE
  7
Standard
  9
$CLAYER
  8
0
  9
$CELTYPE
  6
ByLayer
  9
$CECOLOR
 62
   256
  9
$CELTSCALE
 40
1.0
  9
$DISPSILH
 70
     0
  9
$DIMSCALE
 40
1.0
  9
$DIMASZ
 40
3.302
  9
$DIMEXO
 40
1.0
  9
$DIMDLI
 40
3.75
  9
$DIMRND
 40
0.0
  9
$DIMDLE
 40
0.0
  9
$DIMEXE
 40
1.0
  9
$DIMTP
 40
0.0
  9
$DIMTM
 40
0.0
  9
$DIMTXT
 40
3.5
  9
$DIMCEN
 40
2.5
  9
$DIMTSZ
 40
0.0
  9
$DIMTOL
 70
     0
  9
$DIMLIM
 70
     0
  9
$DIMTIH
 70
     1
  9
$DIMTOH
 70
     1
  9
$DIMSE1
 70
     0
  9
$DIMSE2
 70
     0
  9
$DIMTAD
 70
     1
  9
$DIMZIN
 70
     0
  9
$DIMBLK
  1

  9
$DIMASO
 70
     1
  9
$DIMSHO
 70
     1
  9
$DIMPOST
  1

  9
$DIMAPOST
  1

  9
$DIMALT
 70
     0
  9
$DIMALTD
 70
     3
  9
$DIMALTF
 40
0.0393700787401575
  9
$DIMLFAC
 40
1.0
  9
$DIMTOFL
 70
     1
  9
$DIMTVP
 40
0.0
  9
$DIMTIX
 70
     0
  9
$DIMSOXD
 70
     0
  9
$DIMSAH
 70
     0
  9
$DIMBLK1
  1

  9
$DIMBLK2
  1

  9
$DIMSTYLE
  2
ISO-25
  9
$DIMCLRD
 70
     0
  9
$DIMCLRE
 70
     0
  9
$DIMCLRT
 70
     0
  9
$DIMTFAC
 40
1.0
  9
$DIMGAP
 40
1.524
  9
$DIMJUST
 70
     0
  9
$DIMSD1
 70
     0
  9
$DIMSD2
 70
     0
  9
$DIMTOLJ
 70
     0
  9
$DIMTZIN
 70
     0
  9
$DIMALTZ
 70
     0
  9
$DIMALTTZ
 70
     0
  9
$DIMUPT
 70
     0
  9
$DIMDEC
 70
     2
  9
$DIMTDEC
 70
     2
  9
$DIMALTU
 70
     2
  9
$DIMALTTD
 70
     3
  9
$DIMTXSTY
  7
Standard
  9
$DIMAUNIT
 70
     0
  9
$DIMADEC
 70
     2
  9
$DIMALTRND
 40
0.0
  9
$DIMAZIN
 70
     0
  9
$DIMDSEP
 70
    44
  9
$DIMATFIT
 70
     3
  9
$DIMFRAC
 70
     0
  9
$DIMLDRBLK
  1

  9
$DIMLUNIT
 70
     2
  9
$DIMLWD
 70
    -2
  9
$DIMLWE
 70
    -2
  9
$DIMTMOVE
 70
     0
  9
$LUNITS
 70
     2
  9
$LUPREC
 70
     2
  9
$SKETCHINC
 40
1.0
  9
$FILLETRAD
 40
10.0
  9
$AUNITS
 70
     0
  9
$AUPREC
 70
     2
  9
$MENU
  1
.
  9
$ELEVATION
 40
0.0
  9
$PELEVATION
 40
0.0
  9
$THICKNESS
 40
0.0
  9
$LIMCHECK
 70
     0
  9
$CHAMFERA
 40
0.0
  9
$CHAMFERB
 40
0.0
  9
$CHAMFERC
 40
0.0
  9
$CHAMFERD
 40
0.0
  9
$SKPOLY
 70
     0
  9
$TDCREATE
 40
2458296.694714711
  9
$TDUCREATE
 40
2458296.319714711
  9
$TDUPDATE
 40
2458296.74152022
  9
$TDUUPDATE
 40
2458296.36652022
  9
$TDINDWG
 40
0.0015204514
  9
$TDUSRTIMER
 40
2458296.365000232
  9
$USRTIMER
 70
     1
  9
$ANGBASE
 50
0.0
  9
$ANGDIR
 70
     0
  9
$PDMODE
 70
     0
  9
$PDSIZE
 40
-1.0
  9
$PLINEWID
 40
0.0
  9
$SPLFRAME
 70
     0
  9
$SPLINETYPE
 70
     6
  9
$SPLINESEGS
 70
     8
  9
$HANDSEED
  5
276
  9
$SURFTAB1
 70
     6
  9
$SURFTAB2
 70
     6
  9
$SURFTYPE
 70
     6
  9
$SURFU
 70
     6
  9
$SURFV
 70
     6
  9
$UCSBASE
  2

  9
$UCSNAME
  2

  9
$UCSORG
 10
0.0
 20
0.0
 30
0.0
  9
$UCSXDIR
 10
1.0
 20
0.0
 30
0.0
  9
$UCSYDIR
 10
0.0
 20
1.0
 30
0.0
  9
$UCSORTHOREF
  2

  9
$UCSORTHOVIEW
 70
     0
  9
$UCSORGTOP
 10
0.0
 20
0.0
 30
0.0
  9
$UCSORGBOTTOM
 10
0.0
 20
0.0
 30
0.0
  9
$UCSORGLEFT
 10
0.0
 20
0.0
 30
0.0
  9
$UCSORGRIGHT
 10
0.0
 20
0.0
 30
0.0
  9
$UCSORGFRONT
 10
0.0
 20
0.0
 30
0.0
  9
$UCSORGBACK
 10
0.0
 20
0.0
 30
0.0
  9
$PUCSBASE
  2

  9
$PUCSNAME
  2

  9
$PUCSORG
 10
0.0
 20
0.0
 30
0.0
  9
$PUCSXDIR
 10
1.0
 20
0.0
 30
0.0
  9
$PUCSYDIR
 10
0.0
 20
1.0
 30
0.0
  9
$PUCSORTHOREF
  2

  9
$PUCSORTHOVIEW
 70
     0
  9
$PUCSORGTOP
 10
0.0
 20
0.0
 30
0.0
  9
$PUCSORGBOTTOM
 10
0.0
 20
0.0
 30
0.0
  9
$PUCSORGLEFT
 10
0.0
 20
0.0
 30
0.0
  9
$PUCSORGRIGHT
 10
0.0
 20
0.0
 30
0.0
  9
$PUCSORGFRONT
 10
0.0
 20
0.0
 30
0.0
  9
$PUCSORGBACK
 10
0.0
 20
0.0
 30
0.0
  9
$USERI1
 70
     0
  9
$USERI2
 70
     0
  9
$USERI3
 70
     0
  9
$USERI4
 70
     0
  9
$USERI5
 70
     0
  9
$USERR1
 40
0.0
  9
$USERR2
 40
0.0
  9
$USERR3
 40
0.0
  9
$USERR4
 40
0.0
  9
$USERR5
 40
0.0
  9
$WORLDVIEW
 70
     1
  9
$SHADEDGE
 70
     3
  9
$SHADEDIF
 70
    70
  9
$TILEMODE
 70
     1
  9
$MAXACTVP
 70
    64
  9
$PINSBASE
 10
0.0
 20
0.0
 30
0.0
  9
$PLIMCHECK
 70
     0
  9
$PEXTMIN
 10
1.000000000000000E+20
 20
1.000000000000000E+20
 30
1.000000000000000E+20
  9
$PEXTMAX
 10
-1.000000000000000E+20
 20
-1.000000000000000E+20
 30
-1.000000000000000E+20
  9
$PLIMMIN
 10
0.0
 20
0.0
  9
$PLIMMAX
 10
0.0
 20
0.0
  9
$UNITMODE
 70
     0
  9
$VISRETAIN
 70
     1
  9
$PLINEGEN
 70
     0
  9
$PSLTSCALE
 70
     1
  9
$TREEDEPTH
 70
  3020
  9
$CMLSTYLE
  2
Standard
  9
$CMLJUST
 70
     0
  9
$CMLSCALE
 40
20.0
  9
$PROXYGRAPHICS
 70
     1
  9
$MEASUREMENT
 70
     1
  9
$CELWEIGHT
370
    -1
  9
$ENDCAPS
280
     0
  9
$JOINSTYLE
280
     0
  9
$LWDISPLAY
290
     1
  9
$INSUNITS
 70
     4
  9
$HYPERLINKBASE
  1

  9
$STYLESHEET
  1

  9
$XEDIT
290
     1
  9
$CEPSNTYPE
380
     0
  9
$PSTYLEMODE
290
     1
  9
$FINGERPRINTGUID
  2
{D221D002-74F9-4A52-93F6-D3490B5B97D1}
  9
$VERSIONGUID
  2
{FAEB1C32-E019-11D5-929B-00C0DF256EC4}
  9
$EXTNAMES
290
     1
  9
$PSVPSCALE
 40
0.0
  9
$OLESTARTUP
290
     0
  0
ENDSEC
  0
SECTION
  2
CLASSES
  0
CLASS
  1
ACDBDICTIONARYWDFLT
  2
AcDbDictionaryWithDefault
  3
ObjectDBX Classes
 90
        0
280
     0
281
     0
  0
CLASS
  1
VISUALSTYLE
  2
AcDbVisualStyle
  3
ObjectDBX Classes
 90
     4095
280
     0
281
     0
  0
CLASS
  1
MATERIAL
  2
AcDbMaterial
  3
ObjectDBX Classes
 90
     1153
280
     0
281
     0
  0
CLASS
  1
SCALE
  2
AcDbScale
  3
ObjectDBX Classes
 90
     1153
280
     0
281
     0
  0
CLASS
  1
SUN
  2
AcDbSun
  3
SCENEOE
 90
     1153
280
     0
281
     0
  0
CLASS
  1
ACDBPLACEHOLDER
  2
AcDbPlaceHolder
  3
ObjectDBX Classes
 90
        0
280
     0
281
     0
  0
CLASS
  1
LAYOUT
  2
AcDbLayout
  3
ObjectDBX Classes
 90
        0
280
     0
281
     0
  0
CLASS
  1
TABLESTYLE
  2
AcDbTableStyle
  3
ObjectDBX Classes
 90
     4095
280
     0
281
     0
  0
CLASS
  1
MLEADERSTYLE
  2
AcDbMLeaderStyle
  3
ACDB_MLEADERSTYLE_CLASS
 90
     4095
280
     0
281
     0
  0
CLASS
  1
RASTERVARIABLES
  2
AcDbRasterVariables
  3
ISM
 90
        0
280
     0
281
     0
  0
CLASS
  1
DIMASSOC
  2
AcDbDimAssoc
  3
"AcDbDimAssoc|Product Desc:     AcDim ARX App For Dimension|Company:          Autodesk, Inc.|WEB Address:      www.autodesk.com"
 90
        0
280
     0
281
     0
  0
ENDSEC
  0
SECTION
  2
TABLES
  0
TABLE
  2
VPORT
  5
8
330
0
100
AcDbSymbolTable
 70
     1
  0
VPORT
  5
29
330
8
100
AcDbSymbolTableRecord
100
AcDbViewportTableRecord
  2
*Active
 70
     0
 10
0.0
 20
0.0
 11
1.0
 21
1.0
 12
-21.02947106290679
 22
-3.42583552364939
 13
0.0
 23
0.0
 14
10.0
 24
10.0
 15
10.0
 25
10.0
 16
0.0
 26
0.0
 36
1.0
 17
0.0
 27
0.0
 37
0.0
 40
117.9550148113395
 41
1.798434442270059
 42
50.0
 43
0.0
 44
0.0
 50
0.0
 51
0.0
 71
    16
 72
  2000
 73
     1
 74
     3
 75
     0
 76
     0
 77
     0
 78
     0
281
     0
 65
     1
110
0.0
120
0.0
130
0.0
111
1.0
121
0.0
131
0.0
112
0.0
122
1.0
132
0.0
 79
     0
146
0.0
  0
ENDTAB
  0
TABLE
  2
LTYPE
  5
5
330
0
100
AcDbSymbolTable
 70
     6
  0
LTYPE
  5
14
330
5
100
AcDbSymbolTableRecord
100
AcDbLinetypeTableRecord
  2
ByBlock
 70
     0
  3

 72
    65
 73
     0
 40
0.0
  0
LTYPE
  5
15
330
5
100
AcDbSymbolTableRecord
100
AcDbLinetypeTableRecord
  2
ByLayer
 70
     0
  3

 72
    65
 73
     0
 40
0.0
  0
LTYPE
  5
16
330
5
100
AcDbSymbolTableRecord
100
AcDbLinetypeTableRecord
  2
Continuous
 70
     0
  3
Solid line
 72
    65
 73
     0
 40
0.0
  0
LTYPE
  5
6A
330
5
100
AcDbSymbolTableRecord
100
AcDbLinetypeTableRecord
  2
HIDDEN
 70
     0
  3
Hidden __ __ __ __ __ __ __ __ __ __ __ __ __ __
 72
    65
 73
     2
 40
1.905
 49
1.27
 74
     0
 49
-0.635
 74
     0
  0
LTYPE
  5
6B
330
5
100
AcDbSymbolTableRecord
100
AcDbLinetypeTableRecord
  2
PHANTOM
 70
     0
  3
Phantom ______  __  __  ______  __  __  ______
 72
    65
 73
     6
 40
12.7
 49
6.35
 74
     0
 49
-1.27
 74
     0
 49
1.27
 74
     0
 49
-1.27
 74
     0
 49
1.27
 74
     0
 49
-1.27
 74
     0
  0
LTYPE
  5
6C
330
5
100
AcDbSymbolTableRecord
100
AcDbLinetypeTableRecord
  2
CENTER
 70
     0
  3
Center ____ _ ____ _ ____ _ ____ _ ____ _ ____
 72
    65
 73
     4
 40
10.16
 49
6.35
 74
     0
 49
-1.27
 74
     0
 49
1.27
 74
     0
 49
-1.27
 74
     0
  0
LTYPE
  5
6D
330
5
100
AcDbSymbolTableRecord
100
AcDbLinetypeTableRecord
  2
CENTERX2
 70
     0
  3
Center (2x) ________  __  ________  __  _____
 72
    65
 73
     4
 40
20.32
 49
12.7
 74
     0
 49
-2.54
 74
     0
 49
2.54
 74
     0
 49
-2.54
 74
     0
  0
LTYPE
  5
6E
330
5
100
AcDbSymbolTableRecord
100
AcDbLinetypeTableRecord
  2
DOT2
 70
     0
  3
Dot (.5x) ........................................
 72
    65
 73
     2
 40
0.635
 49
0.0
 74
     0
 49
-0.635
 74
     0
  0
ENDTAB
  0
TABLE
  2
LAYER
  5
2
102
{ACAD_XDICTIONARY
360
1EB
102
}
330
0
100
AcDbSymbolTable
 70
    18
  0
LAYER
  5
10
330
2
100
AcDbSymbolTableRecord
100
AcDbLayerTableRecord
  2
0
 70
     0
 62
     7
  6
Continuous
370
    -3
390
F
  0
LAYER
  5
6F
330
2
100
AcDbSymbolTableRecord
100
AcDbLayerTableRecord
  2
FORMAT
 70
     0
 62
     2
  6
Continuous
370
    -3
390
F
  0
LAYER
  5
70
330
2
100
AcDbSymbolTableRecord
100
AcDbLayerTableRecord
  2
외형선
 70
     0
 62
     4
  6
Continuous
370
    30
390
F
  0
LAYER
  5
71
330
2
100
AcDbSymbolTableRecord
100
AcDbLayerTableRecord
  2
숨은선
 70
     0
 62
     2
  6
HIDDEN
370
    15
390
F
  0
LAYER
  5
72
330
2
100
AcDbSymbolTableRecord
100
AcDbLayerTableRecord
  2
중심선
 70
     0
 62
     1
  6
CENTERX2
370
    -3
390
F
  0
LAYER
  5
73
330
2
100
AcDbSymbolTableRecord
100
AcDbLayerTableRecord
  2
파단선
 70
     0
 62
     4
  6
Continuous
370
    -3
390
F
  0
LAYER
  5
74
330
2
100
AcDbSymbolTableRecord
100
AcDbLayerTableRecord
  2
해칭선
 70
     0
 62
   100
  6
Continuous
370
    -3
390
F
  0
LAYER
  5
75
330
2
100
AcDbSymbolTableRecord
100
AcDbLayerTableRecord
  2
가는실선
 70
     0
 62
     4
  6
Continuous
370
    -3
390
F
  0
LAYER
  5
76
330
2
100
AcDbSymbolTableRecord
100
AcDbLayerTableRecord
  2
치수_보조선
 70
     0
 62
     4
  6
Continuous
370
    -3
390
F
  0
LAYER
  5
77
330
2
100
AcDbSymbolTableRecord
100
AcDbLayerTableRecord
  2
치수문자_일반주서
 70
     0
 62
     7
  6
Continuous
370
    15
390
F
  0
LAYER
  5
78
330
2
100
AcDbSymbolTableRecord
100
AcDbLayerTableRecord
  2
개별주서
 70
     0
 62
   100
  6
Continuous
370
    30
390
F
  0
LAYER
  5
79
330
2
100
AcDbSymbolTableRecord
100
AcDbLayerTableRecord
  2
중간선
 70
     0
 62
     2
  6
Continuous
370
    15
390
F
  0
LAYER
  5
7A
330
2
100
AcDbSymbolTableRecord
100
AcDbLayerTableRecord
  2
윤곽선
 70
     0
 62
     3
  6
Continuous
370
    40
390
F
  0
LAYER
  5
7B
330
2
100
AcDbSymbolTableRecord
100
AcDbLayerTableRecord
  2
중심마크
 70
     0
 62
   100
  6
Continuous
370
    30
390
F
  0
LAYER
  5
7C
330
2
100
AcDbSymbolTableRecord
100
AcDbLayerTableRecord
  2
가상선
 70
     0
 62
     4
  6
PHANTOM
370
    -3
390
F
  0
LAYER
  5
7D
330
2
100
AcDbSymbolTableRecord
100
AcDbLayerTableRecord
  2
특수지정선
 70
     0
 62
     5
  6
CENTERX2
370
    60
390
F
  0
LAYER
  5
7E
330
2
100
AcDbSymbolTableRecord
100
AcDbLayerTableRecord
  2
참조1
 70
     0
 62
    -4
  6
Continuous
370
    -3
390
F
  0
LAYER
  5
14B
330
2
100
AcDbSymbolTableRecord
100
AcDbLayerTableRecord
  2
Defpoints
 70
     0
 62
     7
  6
Continuous
290
     0
370
    -3
390
F
  0
ENDTAB
  0
TABLE
  2
STYLE
  5
3
330
0
100
AcDbSymbolTable
 70
     2
  0
STYLE
  5
11
330
3
100
AcDbSymbolTableRecord
100
AcDbTextStyleTableRecord
  2
Standard
 70
     0
 40
0.0
 41
1.0
 50
0.0
 71
     0
 42
3.5
  3
txt
  4

  0
STYLE
  5
94
330
3
100
AcDbSymbolTableRecord
100
AcDbTextStyleTableRecord
  2
SLDTEXTSTYLE0
 70
     0
 40
0.0
 41
0.75
 50
0.0
 71
     0
 42
3.5
  3
TXT
  4

  0
ENDTAB
  0
TABLE
  2
VIEW
  5
6
330
0
100
AcDbSymbolTable
 70
     0
  0
ENDTAB
  0
TABLE
  2
UCS
  5
7
330
0
100
AcDbSymbolTable
 70
     0
  0
ENDTAB
  0
TABLE
  2
APPID
  5
9
330
0
100
AcDbSymbolTable
 70
     2
  0
APPID
  5
12
330
9
100
AcDbSymbolTableRecord
100
AcDbRegAppTableRecord
  2
ACAD
 70
     0
  0
APPID
  5
155
330
9
100
AcDbSymbolTableRecord
100
AcDbRegAppTableRecord
  2
ACAD_DSTYLE_DIMRADIAL_EXTENSION
 70
     0
  0
ENDTAB
  0
TABLE
  2
DIMSTYLE
  5
A
330
0
100
AcDbSymbolTable
 70
     5
100
AcDbDimStyleTable
  0
DIMSTYLE
105
27
330
A
100
AcDbSymbolTableRecord
100
AcDbDimStyleTableRecord
  2
ISO-25
 70
     0
 41
2.5
 42
0.625
 43
3.75
 44
1.25
 73
     0
 74
     0
 77
     1
 78
     8
140
2.5
141
2.5
143
0.03937007874016
147
0.625
171
     3
172
     1
178
     0
271
     2
272
     2
274
     3
278
    44
283
     0
284
     8
340
11
  0
DIMSTYLE
105
CD
330
A
100
AcDbSymbolTableRecord
100
AcDbDimStyleTableRecord
  2
SLDDIMSTYLE0
 70
     0
 41
3.302
 44
0.0
 45
0.000000001
 73
     0
 74
     0
 77
     1
 78
    12
 79
     3
140
3.5
147
0.875
172
     1
173
     1
178
     0
271
     2
272
     2
276
     2
284
    12
289
     0
340
94
  0
DIMSTYLE
105
DB
330
A
100
AcDbSymbolTableRecord
100
AcDbDimStyleTableRecord
  2
SLDDIMSTYLE1
 70
     0
 41
3.302
 44
0.0
 45
0.000000001
 73
     0
 74
     0
 77
     1
 78
     4
 79
     1
140
3.5
143
0.0393700787401575
147
0.875
148
0.000000001
170
     1
173
     1
178
     0
271
     2
272
     2
276
     2
284
    12
340
94
  0
DIMSTYLE
105
EF
102
{ACAD_REACTORS
330
196
330
1A3
330
1B0
330
1C0
330
1DE
330
212
330
213
330
214
330
215
330
268
102
}
330
A
100
AcDbSymbolTableRecord
100
AcDbDimStyleTableRecord
  2
SLDDIMSTYLE2
 70
     0
 41
3.302
 44
0.0
 45
0.000000001
 73
     0
 74
     0
 77
     1
 78
    12
 79
     3
140
3.5
143
0.0393700787401575
147
0.875
148
0.000000001
170
     1
172
     1
173
     1
178
     0
271
     2
272
     2
276
     2
284
    12
289
     0
340
94
  0
DIMSTYLE
105
105
330
A
100
AcDbSymbolTableRecord
100
AcDbDimStyleTableRecord
  2
SLDDIMSTYLE3
 70
     0
 41
3.302
 44
0.0
 45
0.000000001
 73
     0
 74
     0
 77
     1
 78
    12
 79
     3
140
3.5
143
0.0393700787401575
147
0.875
148
0.000000001
170
     1
173
     1
178
     0
271
     2
272
     2
276
     2
284
    12
340
94
  0
ENDTAB
  0
TABLE
  2
BLOCK_RECORD
  5
1
330
0
100
AcDbSymbolTable
 70
    19
  0
BLOCK_RECORD
  5
1F
330
1
100
AcDbSymbolTableRecord
100
AcDbBlockTableRecord
  2
*Model_Space
340
22
  0
BLOCK_RECORD
  5
1B
330
1
100
AcDbSymbolTableRecord
100
AcDbBlockTableRecord
  2
*Paper_Space
340
1E
  0
BLOCK_RECORD
  5
23
330
1
100
AcDbSymbolTableRecord
100
AcDbBlockTableRecord
  2
*Paper_Space0
340
26
  0
BLOCK_RECORD
  5
7F
330
1
100
AcDbSymbolTableRecord
100
AcDbBlockTableRecord
  2
블럭10
340
0
102
{BLKREFS
331
C5
102
}
  0
BLOCK_RECORD
  5
CE
330
1
100
AcDbSymbolTableRecord
100
AcDbBlockTableRecord
  2
_D
340
0
  0
BLOCK_RECORD
  5
DC
330
1
100
AcDbSymbolTableRecord
100
AcDbBlockTableRecord
  2
_D_1
340
0
  0
BLOCK_RECORD
  5
F0
330
1
100
AcDbSymbolTableRecord
100
AcDbBlockTableRecord
  2
_D_2
340
0
  0
BLOCK_RECORD
  5
106
330
1
100
AcDbSymbolTableRecord
100
AcDbBlockTableRecord
  2
_D_3
340
0
  0
BLOCK_RECORD
  5
11F
330
1
100
AcDbSymbolTableRecord
100
AcDbBlockTableRecord
  2
SW_DOWELSYMBOL_0
340
0
102
{BLKREFS
331
0
331
1D0
331
216
102
}
  0
BLOCK_RECORD
  5
197
330
1
100
AcDbSymbolTableRecord
100
AcDbBlockTableRecord
  2
*D8
340
0
  0
BLOCK_RECORD
  5
1A4
330
1
100
AcDbSymbolTableRecord
100
AcDbBlockTableRecord
  2
*D9
340
0
  0
BLOCK_RECORD
  5
1B1
330
1
100
AcDbSymbolTableRecord
100
AcDbBlockTableRecord
  2
*D10
340
0
  0
BLOCK_RECORD
  5
1C1
330
1
100
AcDbSymbolTableRecord
100
AcDbBlockTableRecord
  2
*D11
340
0
  0
BLOCK_RECORD
  5
1E1
330
1
100
AcDbSymbolTableRecord
100
AcDbBlockTableRecord
  2
*D12
340
0
  0
BLOCK_RECORD
  5
222
330
1
100
AcDbSymbolTableRecord
100
AcDbBlockTableRecord
  2
*D13
340
0
  0
BLOCK_RECORD
  5
22E
330
1
100
AcDbSymbolTableRecord
100
AcDbBlockTableRecord
  2
*D14
340
0
  0
BLOCK_RECORD
  5
23A
330
1
100
AcDbSymbolTableRecord
100
AcDbBlockTableRecord
  2
*D15
340
0
  0
BLOCK_RECORD
  5
249
330
1
100
AcDbSymbolTableRecord
100
AcDbBlockTableRecord
  2
*D16
340
0
  0
BLOCK_RECORD
  5
258
330
1
100
AcDbSymbolTableRecord
100
AcDbBlockTableRecord
  2
*D17
340
0
  0
BLOCK_RECORD
  5
26B
330
1
100
AcDbSymbolTableRecord
100
AcDbBlockTableRecord
  2
*D18
340
0
  0
ENDTAB
  0
ENDSEC
  0
SECTION
  2
BLOCKS
  0
BLOCK
  5
20
330
1F
100
AcDbEntity
  8
0
100
AcDbBlockBegin
  2
*Model_Space
 70
     0
 10
0.0
 20
0.0
 30
0.0
  3
*Model_Space
  1
*Model_Space
  0
ENDBLK
  5
21
330
1F
100
AcDbEntity
  8
0
100
AcDbBlockEnd
  0
BLOCK
  5
1C
330
1B
100
AcDbEntity
 67
     1
  8
0
100
AcDbBlockBegin
  2
*Paper_Space
 70
     0
 10
0.0
 20
0.0
 30
0.0
  3
*Paper_Space
  1
*Paper_Space
  0
ENDBLK
  5
1D
330
1B
100
AcDbEntity
 67
     1
  8
0
100
AcDbBlockEnd
  0
BLOCK
  5
24
330
23
100
AcDbEntity
  8
0
100
AcDbBlockBegin
  2
*Paper_Space0
 70
     0
 10
0.0
 20
0.0
 30
0.0
  3
*Paper_Space0
  1
*Paper_Space0
  0
ENDBLK
  5
25
330
23
100
AcDbEntity
  8
0
100
AcDbBlockEnd
  0
BLOCK
  5
80
330
7F
100
AcDbEntity
  8
0
100
AcDbBlockBegin
  2
블럭10
 70
     2
 10
0.0
 20
0.0
 30
0.0
  3
블럭10
  1
블럭10
  0
ELLIPSE
  5
82
330
7F
100
AcDbEntity
  8
중심선
100
AcDbEllipse
 10
20.54032771741204
 20
12.0471743016438
 30
0.0
 11
6.600054785286829
 21
-1.261213355974178E-13
 31
0.0
210
0.0
220
0.0
230
1.0
 40
0.636358354079598
 41
0.9219305317359503
 42
6.513795318482858
  0
ELLIPSE
  5
83
330
7F
100
AcDbEntity
  8
중심선
100
AcDbEllipse
 10
20.54032771746488
 20
12.04717430159265
 30
0.0
 11
3.960054785062283
 21
1.540847449632565E-10
 31
0.0
210
0.0
220
0.0
230
1.0
 40
0.3939339440162632
 41
1.131841032648279
 42
5.62031148352944
  0
LINE
  5
84
330
7F
100
AcDbEntity
  8
중심선
100
AcDbLine
 10
2.268634060543552
 20
16.24717430164393
 30
0.0
 11
5.714909304380834
 21
16.24717430164393
 31
0.0
  0
LINE
  5
85
330
7F
100
AcDbEntity
  8
중심선
100
AcDbLine
 10
5.245725140726316
 20
7.84717430164391
 30
0.0
 11
8.692000384563599
 21
7.84717430164391
 31
0.0
  0
LINE
  5
86
330
7F
100
AcDbEntity
  8
중심선
100
AcDbLine
 10
15.74043728645272
 20
16.24717430164393
 30
0.0
 11
8.692000384563599
 21
7.84717430164391
 31
0.0
  0
LINE
  5
87
330
7F
100
AcDbEntity
  8
중심선
100
AcDbLine
 10
0.1404042013395286
 20
13.71084872107135
 30
0.0
 11
3.58671253028996
 21
13.71088815037384
 31
0.0
  0
LINE
  5
88
330
7F
100
AcDbEntity
  8
중심선
100
AcDbLine
 10
2.750260043222114
 20
10.84717430164391
 30
0.0
 11
6.196535287059397
 21
10.84717430164391
 31
0.0
  0
LINE
  5
89
330
7F
100
AcDbEntity
  8
중심선
100
AcDbLine
 10
12.29416204261559
 20
16.24717430164393
 30
0.0
 11
5.245725140726316
 21
7.84717430164391
 31
0.0
  0
LINE
  5
8A
330
7F
100
AcDbEntity
  8
중심선
100
AcDbLine
 10
10.72767329541681
 20
16.24717430164393
 30
0.0
 11
6.196535287059397
 21
10.84717430164391
 31
0.0
  0
LINE
  5
8B
330
7F
100
AcDbEntity
  8
중심선
100
AcDbLine
 10
7.28139805157953
 20
16.24717430164393
 30
0.0
 11
2.750260043222114
 21
10.84717430164391
 31
0.0
  0
LINE
  5
8C
330
7F
100
AcDbEntity
  8
중심선
100
AcDbLine
 10
5.714909304380834
 20
16.24717430164393
 30
0.0
 11
3.58671253028996
 21
13.71088815037384
 31
0.0
  0
LINE
  5
8D
330
7F
100
AcDbEntity
  8
중심선
100
AcDbLine
 10
2.268634060543552
 20
16.24717430164393
 30
0.0
 11
0.1404042013395286
 21
13.71084872107135
 31
0.0
  0
LINE
  5
8E
330
7F
100
AcDbEntity
  8
중심선
100
AcDbLine
 10
7.28139805157953
 20
16.24717430164393
 30
0.0
 11
10.72767329541681
 21
16.24717430164393
 31
0.0
  0
LINE
  5
8F
330
7F
100
AcDbEntity
  8
중심선
100
AcDbLine
 10
12.29416204261559
 20
16.24717430164393
 30
0.0
 11
15.74043728645272
 21
16.24717430164393
 31
0.0
  0
LINE
  5
90
330
7F
100
AcDbEntity
  8
중심선
100
AcDbLine
 10
19.22036997980202
 20
11.08717430171403
 30
0.0
 11
23.66174974927406
 21
11.08717430171406
 31
0.0
  0
LINE
  5
91
330
7F
100
AcDbEntity
  8
중심선
100
AcDbLine
 10
19.22039502424796
 20
13.00717430171391
 30
0.0
 11
19.22036997980202
 21
11.08717430171403
 31
0.0
  0
LINE
  5
92
330
7F
100
AcDbEntity
  8
중심선
100
AcDbLine
 10
19.22039502424796
 20
13.00717430171391
 30
0.0
 11
26.96566020931264
 21
13.00717430171391
 31
0.0
  0
LINE
  5
93
330
7F
100
AcDbEntity
  8
중심선
100
AcDbLine
 10
22.22332737316547
 20
13.45928029700563
 30
0.0
 11
24.52862924686651
 21
15.39360700705356
 31
0.0
  0
ATTDEF
  5
95
330
7F
100
AcDbEntity
  8
FORMAT
 62
     2
100
AcDbText
 10
3.448148490846466
 20
2.075366912832191
 30
0.0
 40
4.233333333333333
  1
EM639912
 41
0.75
  7
SLDTEXTSTYLE0
 11
3.448148490846466
 21
-0.0412997538344756
 31
0.0
100
AcDbAttributeDefinition
  3

  2
AUTOATTR0
 70
     0
 74
     1
  0
ENDBLK
  5
81
330
7F
100
AcDbEntity
  8
0
100
AcDbBlockEnd
  0
BLOCK
  5
CF
330
CE
100
AcDbEntity
  8
0
100
AcDbBlockBegin
  2
_D
 70
     0
 10
0.0
 20
0.0
 30
0.0
  3
_D
  1
_D
  0
SOLID
  5
D1
330
CE
100
AcDbEntity
  8
치수문자_일반주서
100
AcDbTrace
 10
-66.18250000000002
 20
4.763574928723895
 30
0.0
 11
-65.67450000000002
 21
8.065574928723894
 31
0.0
 12
-66.69050000000001
 22
8.065574928723894
 32
0.0
 13
-66.69050000000001
 23
8.065574928723894
 33
0.0
  0
SOLID
  5
D2
330
CE
100
AcDbEntity
  8
치수문자_일반주서
100
AcDbTrace
 10
-66.18250000000002
 20
-4.76142507127611
 30
0.0
 11
-66.69050000000001
 21
-8.06342507127611
 31
0.0
 12
-65.67450000000002
 22
-8.06342507127611
 32
0.0
 13
-65.67450000000002
 23
-8.06342507127611
 33
0.0
  0
LINE
  5
D3
330
CE
100
AcDbEntity
  8
치수문자_일반주서
100
AcDbLine
 10
-53.54749999999999
 20
4.763574928723896
 30
0.0
 11
-67.18250000000002
 21
4.763574928723895
 31
0.0
  0
LINE
  5
D4
330
CE
100
AcDbEntity
  8
치수문자_일반주서
100
AcDbLine
 10
-53.54749999999999
 20
-4.761425071276109
 30
0.0
 11
-67.18250000000002
 21
-4.76142507127611
 31
0.0
  0
LINE
  5
D5
330
CE
100
AcDbEntity
  8
치수문자_일반주서
100
AcDbLine
 10
-66.18250000000002
 20
4.763574928723895
 30
0.0
 11
-66.18250000000002
 21
11.11357492872389
 31
0.0
  0
LINE
  5
D6
330
CE
100
AcDbEntity
  8
치수문자_일반주서
100
AcDbLine
 10
-66.18250000000002
 20
4.763574928723895
 30
0.0
 11
-66.18250000000002
 21
-4.76142507127611
 31
0.0
  0
LINE
  5
D7
330
CE
100
AcDbEntity
  8
치수문자_일반주서
100
AcDbLine
 10
-66.18250000000002
 20
-4.76142507127611
 30
0.0
 11
-66.18250000000002
 21
-11.11142507127611
 31
0.0
  0
MTEXT
  5
D8
330
CE
100
AcDbEntity
  8
치수문자_일반주서
100
AcDbMText
 10
-70.69423708920185
 20
-9.142279693527883
 30
0.0
 40
3.5
 41
0.0
 71
     1
 72
     1
  1
%%c
  7
SLDTEXTSTYLE0
 11
-7.044195017643634E-15
 21
1.0
 31
0.0
 73
     1
 44
1.0
  0
MTEXT
  5
D9
330
CE
100
AcDbEntity
  8
치수문자_일반주서
100
AcDbMText
 10
-70.74770926586174
 20
-3.863842295153802
 30
0.0
 40
3.5
 41
0.0
 71
     1
 72
     1
  1
9.53
  7
SLDTEXTSTYLE0
 11
-7.044195017643634E-15
 21
1.0
 31
0.0
 73
     1
 44
1.0
  0
ENDBLK
  5
D0
330
CE
100
AcDbEntity
  8
0
100
AcDbBlockEnd
  0
BLOCK
  5
DD
330
DC
100
AcDbEntity
  8
0
100
AcDbBlockBegin
  2
_D_1
 70
     0
 10
0.0
 20
0.0
 30
0.0
  3
_D_1
  1
_D_1
  0
SOLID
  5
DF
330
DC
100
AcDbEntity
  8
치수문자_일반주서
100
AcDbTrace
 10
22.70000000000002
 20
29.63345626413576
 30
0.0
 11
19.39800000000002
 21
30.14145626413576
 31
0.0
 12
19.39800000000002
 22
29.12545626413576
 32
0.0
 13
19.39800000000002
 23
29.12545626413576
 33
0.0
  0
SOLID
  5
E0
330
DC
100
AcDbEntity
  8
치수문자_일반주서
100
AcDbTrace
 10
-53.49999999999999
 20
29.63345626413575
 30
0.0
 11
-50.19799999999999
 21
29.12545626413575
 31
0.0
 12
-50.19799999999999
 22
30.14145626413575
 32
0.0
 13
-50.19799999999999
 23
30.14145626413575
 33
0.0
  0
LINE
  5
E1
330
DC
100
AcDbEntity
  8
치수문자_일반주서
100
AcDbLine
 10
-20.81436608182265
 20
40.4263379801785
 30
0.0
 11
-21.52530356738715
 21
40.42633798017851
 31
0.0
  0
LINE
  5
E2
330
DC
100
AcDbEntity
  8
치수문자_일반주서
100
AcDbLine
 10
-21.52530356738715
 20
40.42633798017851
 30
0.0
 11
-21.52530356738719
 21
34.87008798911921
 31
0.0
  0
LINE
  5
E3
330
DC
100
AcDbEntity
  8
치수문자_일반주서
100
AcDbLine
 10
-21.52530356738719
 20
34.87008798911921
 30
0.0
 11
-20.81436608182269
 21
34.8700879891192
 31
0.0
  0
LINE
  5
E4
330
DC
100
AcDbEntity
  8
치수문자_일반주서
100
AcDbLine
 10
-9.985633219685392
 20
40.42633798017842
 30
0.0
 11
-9.274695734120892
 21
40.42633798017842
 31
0.0
  0
LINE
  5
E5
330
DC
100
AcDbEntity
  8
치수문자_일반주서
100
AcDbLine
 10
-9.274695734120892
 20
40.42633798017842
 30
0.0
 11
-9.274695734120932
 21
34.87008798911911
 31
0.0
  0
LINE
  5
E6
330
DC
100
AcDbEntity
  8
치수문자_일반주서
100
AcDbLine
 10
-9.274695734120932
 20
34.87008798911911
 30
0.0
 11
-9.985633219685432
 21
34.87008798911912
 31
0.0
  0
LINE
  5
E7
330
DC
100
AcDbEntity
  8
치수문자_일반주서
100
AcDbLine
 10
22.70000000000002
 20
3.477126366009935
 30
0.0
 11
22.70000000000002
 21
30.63345626413577
 31
0.0
  0
LINE
  5
E8
330
DC
100
AcDbEntity
  8
치수문자_일반주서
100
AcDbLine
 10
-53.49999999999999
 20
4.811074928723895
 30
0.0
 11
-53.49999999999999
 21
30.63345626413576
 31
0.0
  0
LINE
  5
E9
330
DC
100
AcDbEntity
  8
치수문자_일반주서
100
AcDbLine
 10
22.70000000000002
 20
29.63345626413576
 30
0.0
 11
-53.49999999999999
 21
29.63345626413575
 31
0.0
  0
MTEXT
  5
EA
330
DC
100
AcDbEntity
  8
치수문자_일반주서
100
AcDbMText
 10
-22.03906229287389
 20
34.19866552999749
 30
0.0
 40
3.5
 41
0.0
 71
     1
 72
     1
  1

  7
SLDTEXTSTYLE0
 73
     1
 44
1.0
  0
MTEXT
  5
EB
330
DC
100
AcDbEntity
  8
치수문자_일반주서
100
AcDbMText
 10
-19.92569418121129
 20
39.38182490369809
 30
0.0
 40
3.5
 41
0.0
 71
     1
 72
     1
  1
3.00
  7
SLDTEXTSTYLE0
 73
     1
 44
1.0
  0
MTEXT
  5
EC
330
DC
100
AcDbEntity
  8
치수문자_일반주서
100
AcDbMText
 10
-21.21874989438805
 20
34.14519335333762
 30
0.0
 40
3.5
 41
0.0
 71
     1
 72
     1
  1
76.20
  7
SLDTEXTSTYLE0
 73
     1
 44
1.0
  0
MTEXT
  5
ED
330
DC
100
AcDbEntity
  8
치수문자_일반주서
100
AcDbMText
 10
-7.428992488980326
 20
34.19866552999739
 30
0.0
 40
3.5
 41
0.0
 71
     1
 72
     1
  1

  7
SLDTEXTSTYLE0
 73
     1
 44
1.0
  0
ENDBLK
  5
DE
330
DC
100
AcDbEntity
  8
0
100
AcDbBlockEnd
  0
BLOCK
  5
F1
330
F0
100
AcDbEntity
  8
0
100
AcDbBlockBegin
  2
_D_2
 70
     0
 10
0.0
 20
0.0
 30
0.0
  3
_D_2
  1
_D_2
  0
SOLID
  5
F3
330
F0
100
AcDbEntity
  8
치수문자_일반주서
100
AcDbTrace
 10
22.70000000000004
 20
12.77189036521265
 30
0.0
 11
26.00200000000004
 21
12.26389036521265
 31
0.0
 12
26.00200000000004
 22
13.27989036521265
 32
0.0
 13
26.00200000000004
 23
13.27989036521265
 33
0.0
  0
SOLID
  5
F4
330
F0
100
AcDbEntity
  8
치수문자_일반주서
100
AcDbTrace
 10
6.825000000000038
 20
12.77189036521269
 30
0.0
 11
3.52300000000004
 21
13.2798903652127
 31
0.0
 12
3.523000000000037
 22
12.2638903652127
 32
0.0
 13
3.523000000000037
 23
12.2638903652127
 33
0.0
  0
LINE
  5
F5
330
F0
100
AcDbEntity
  8
치수문자_일반주서
100
AcDbLine
 10
9.348133918177368
 20
23.56477208125542
 30
0.0
 11
8.637196432612868
 21
23.56477208125543
 31
0.0
  0
LINE
  5
F6
330
F0
100
AcDbEntity
  8
치수문자_일반주서
100
AcDbLine
 10
8.637196432612868
 20
23.56477208125543
 30
0.0
 11
8.637196432612814
 21
18.00852209019612
 31
0.0
  0
LINE
  5
F7
330
F0
100
AcDbEntity
  8
치수문자_일반주서
100
AcDbLine
 10
8.637196432612814
 20
18.00852209019612
 30
0.0
 11
9.348133918177314
 21
18.00852209019612
 31
0.0
  0
LINE
  5
F8
330
F0
100
AcDbEntity
  8
치수문자_일반주서
100
AcDbLine
 10
20.17686678031463
 20
23.56477208125532
 30
0.0
 11
20.88780426587913
 21
23.56477208125531
 31
0.0
  0
LINE
  5
F9
330
F0
100
AcDbEntity
  8
치수문자_일반주서
100
AcDbLine
 10
20.88780426587913
 20
23.56477208125531
 30
0.0
 11
20.88780426587908
 21
18.00852209019601
 31
0.0
  0
LINE
  5
FA
330
F0
100
AcDbEntity
  8
치수문자_일반주서
100
AcDbLine
 10
20.88780426587908
 20
18.00852209019601
 30
0.0
 11
20.17686678031458
 21
18.00852209019602
 31
0.0
  0
LINE
  5
FB
330
F0
100
AcDbEntity
  8
치수문자_일반주서
100
AcDbLine
 10
22.70000000000002
 20
3.477126366009935
 30
0.0
 11
22.70000000000005
 21
13.77189036521265
 31
0.0
  0
LINE
  5
FC
330
F0
100
AcDbEntity
  8
치수문자_일반주서
100
AcDbLine
 10
6.825000000000021
 20
5.311057478880373
 30
0.0
 11
6.825000000000041
 21
13.77189036521269
 31
0.0
  0
LINE
  5
FD
330
F0
100
AcDbEntity
  8
치수문자_일반주서
100
AcDbLine
 10
22.70000000000004
 20
12.77189036521265
 30
0.0
 11
29.05000000000004
 21
12.77189036521264
 31
0.0
  0
LINE
  5
FE
330
F0
100
AcDbEntity
  8
치수문자_일반주서
100
AcDbLine
 10
22.70000000000004
 20
12.77189036521265
 30
0.0
 11
6.825000000000038
 21
12.77189036521269
 31
0.0
  0
LINE
  5
FF
330
F0
100
AcDbEntity
  8
치수문자_일반주서
100
AcDbLine
 10
6.825000000000038
 20
12.77189036521269
 30
0.0
 11
0.4750000000000388
 21
12.77189036521271
 31
0.0
  0
MTEXT
  5
100
330
F0
100
AcDbEntity
  8
치수문자_일반주서
100
AcDbMText
 10
8.123437707126111
 20
17.3370996310744
 30
0.0
 40
3.5
 41
0.0
 71
     1
 72
     1
  1

  7
SLDTEXTSTYLE0
 73
     1
 44
1.0
  0
MTEXT
  5
101
330
F0
100
AcDbEntity
  8
치수문자_일반주서
100
AcDbMText
 10
10.23680581878873
 20
22.520259004775
 30
0.0
 40
3.5
 41
0.0
 71
     1
 72
     1
  1
0.63
  7
SLDTEXTSTYLE0
 73
     1
 44
1.0
  0
MTEXT
  5
102
330
F0
100
AcDbEntity
  8
치수문자_일반주서
100
AcDbMText
 10
8.943750105611949
 20
17.28362745441454
 30
0.0
 40
3.5
 41
0.0
 71
     1
 72
     1
  1
15.88
  7
SLDTEXTSTYLE0
 73
     1
 44
1.0
  0
MTEXT
  5
103
330
F0
100
AcDbEntity
  8
치수문자_일반주서
100
AcDbMText
 10
22.73350751101968
 20
17.33709963107427
 30
0.0
 40
3.5
 41
0.0
 71
     1
 72
     1
  1

  7
SLDTEXTSTYLE0
 73
     1
 44
1.0
  0
ENDBLK
  5
F2
330
F0
100
AcDbEntity
  8
0
100
AcDbBlockEnd
  0
BLOCK
  5
107
330
106
100
AcDbEntity
  8
0
100
AcDbBlockBegin
  2
_D_3
 70
     0
 10
0.0
 20
0.0
 30
0.0
  3
_D_3
  1
_D_3
  0
SOLID
  5
109
330
106
100
AcDbEntity
  8
치수문자_일반주서
100
AcDbTrace
 10
38.58441328107455
 20
4.763574928723891
 30
0.0
 11
38.07641328107455
 21
1.461574928723891
 31
0.0
 12
39.09241328107456
 22
1.461574928723891
 32
0.0
 13
39.09241328107456
 23
1.461574928723891
 33
0.0
  0
SOLID
  5
10A
330
106
100
AcDbEntity
  8
치수문자_일반주서
100
AcDbTrace
 10
38.58441328107455
 20
-4.761425071276108
 30
0.0
 11
39.09241328107456
 21
-1.459425071276108
 31
0.0
 12
38.07641328107455
 22
-1.459425071276108
 32
0.0
 13
38.07641328107455
 23
-1.459425071276108
 33
0.0
  0
LINE
  5
10B
330
106
100
AcDbEntity
  8
치수문자_일반주서
100
AcDbLine
 10
27.79153156503184
 20
9.317832818612196
 30
0.0
 11
27.79153156503185
 21
8.606895333047696
 31
0.0
  0
LINE
  5
10C
330
106
100
AcDbEntity
  8
치수문자_일반주서
100
AcDbLine
 10
27.79153156503185
 20
8.606895333047696
 30
0.0
 11
33.34778155609115
 21
8.606895333047735
 31
0.0
  0
LINE
  5
10D
330
106
100
AcDbEntity
  8
치수문자_일반주서
100
AcDbLine
 10
33.34778155609115
 20
8.606895333047735
 30
0.0
 11
33.34778155609114
 21
9.317832818612235
 31
0.0
  0
LINE
  5
10E
330
106
100
AcDbEntity
  8
치수문자_일반주서
100
AcDbLine
 10
27.79153156503176
 20
20.14656568074945
 30
0.0
 11
27.79153156503176
 21
20.85750316631395
 31
0.0
  0
LINE
  5
10F
330
106
100
AcDbEntity
  8
치수문자_일반주서
100
AcDbLine
 10
27.79153156503176
 20
20.85750316631395
 30
0.0
 11
33.34778155609106
 21
20.85750316631399
 31
0.0
  0
LINE
  5
110
330
106
100
AcDbEntity
  8
치수문자_일반주서
100
AcDbLine
 10
33.34778155609106
 20
20.85750316631399
 30
0.0
 11
33.34778155609107
 21
20.14656568074949
 31
0.0
  0
LINE
  5
111
330
106
100
AcDbEntity
  8
치수문자_일반주서
100
AcDbLine
 10
14.3544632653654
 20
4.763574928723893
 30
0.0
 11
39.58441328107455
 21
4.763574928723891
 31
0.0
  0
LINE
  5
112
330
106
100
AcDbEntity
  8
치수문자_일반주서
100
AcDbLine
 10
14.3544632653654
 20
-4.761425071276106
 30
0.0
 11
39.58441328107455
 21
-4.761425071276108
 31
0.0
  0
LINE
  5
113
330
106
100
AcDbEntity
  8
치수문자_일반주서
100
AcDbLine
 10
38.58441328107455
 20
4.763574928723891
 30
0.0
 11
38.58441328107455
 21
21.89711294498649
 31
0.0
  0
LINE
  5
114
330
106
100
AcDbEntity
  8
치수문자_일반주서
100
AcDbLine
 10
38.58441328107455
 20
4.763574928723891
 30
0.0
 11
38.58441328107455
 21
-4.761425071276108
 31
0.0
  0
MTEXT
  5
115
330
106
100
AcDbEntity
  8
치수문자_일반주서
100
AcDbMText
 10
28.83604464151225
 20
10.20650471922357
 30
0.0
 40
3.5
 41
0.0
 71
     1
 72
     1
  1
0.38
  7
SLDTEXTSTYLE0
 11
-7.044195017643634E-15
 21
1.0
 31
0.0
 73
     1
 44
1.0
  0
MTEXT
  5
116
330
106
100
AcDbEntity
  8
치수문자_일반주서
100
AcDbMText
 10
34.07267619187272
 20
7.567285554375281
 30
0.0
 40
3.5
 41
0.0
 71
     1
 72
     1
  1
%%c
  7
SLDTEXTSTYLE0
 11
-7.044195017643634E-15
 21
1.0
 31
0.0
 73
     1
 44
1.0
  0
MTEXT
  5
117
330
106
100
AcDbEntity
  8
치수문자_일반주서
100
AcDbMText
 10
34.07267619187269
 20
12.84572295274936
 30
0.0
 40
3.5
 41
0.0
 71
     1
 72
     1
  1
9.53
  7
SLDTEXTSTYLE0
 11
-7.044195017643634E-15
 21
1.0
 31
0.0
 73
     1
 44
1.0
  0
ENDBLK
  5
108
330
106
100
AcDbEntity
  8
0
100
AcDbBlockEnd
  0
BLOCK
  5
120
330
11F
100
AcDbEntity
  8
0
100
AcDbBlockBegin
  2
SW_DOWELSYMBOL_0
 70
     0
 10
0.0
 20
0.0
 30
0.0
  3
SW_DOWELSYMBOL_0
  1
SW_DOWELSYMBOL_0
  0
CIRCLE
  5
122
330
11F
100
AcDbEntity
  8
해칭선
 62
     0
100
AcDbCircle
 10
0.0
 20
0.0
 30
0.0
 40
3.000000000000001
  0
HATCH
  5
123
330
11F
100
AcDbEntity
  8
0
  6
Continuous
 62
     0
370
     0
100
AcDbHatch
 10
0.0
 20
0.0
 30
0.0
210
0.0
220
0.0
230
1.0
  2
SOLID
 70
     1
 71
     0
 91
        1
 92
        0
 93
        3
 72
     2
 10
0.0
 20
0.0
 40
3.000000000000001
 50
0.0
 51
90.0
 73
     1
 72
     1
 10
0.0
 20
3.000000000000001
 11
0.0
 21
0.0
 72
     1
 10
0.0
 20
0.0
 11
3.000000000000001
 21
0.0
 97
        0
 75
     0
 76
     1
 98
        1
 10
0.0
 20
0.0
  0
HATCH
  5
124
330
11F
100
AcDbEntity
  8
0
  6
Continuous
 62
     0
370
     0
100
AcDbHatch
 10
0.0
 20
0.0
 30
0.0
210
0.0
220
0.0
230
1.0
  2
SOLID
 70
     1
 71
     0
 91
        1
 92
        0
 93
        3
 72
     2
 10
0.0
 20
0.0
 40
3.000000000000001
 50
180.0
 51
270.0000000000008
 73
     1
 72
     1
 10
0.0
 20
-3.000000000000001
 11
0.0
 21
0.0
 72
     1
 10
0.0
 20
0.0
 11
-3.000000000000001
 21
0.0
 97
        0
 75
     0
 76
     1
 98
        1
 10
0.0
 20
0.0
  0
ENDBLK
  5
121
330
11F
100
AcDbEntity
  8
0
100
AcDbBlockEnd
  0
BLOCK
  5
198
330
197
100
AcDbEntity
  8
0
100
AcDbBlockBegin
  2
*D8
 70
     1
 10
0.0
 20
0.0
 30
0.0
  3
*D8
  1
*D8
  0
LINE
  5
199
330
197
100
AcDbEntity
  8
0
  6
Continuous
 62
     0
370
    -2
100
AcDbLine
 10
17.94750000000005
 20
42.41762718566126
 30
0.0
 11
4.37500000000002
 21
42.41762718566121
 31
0.0
  0
LINE
  5
19A
330
197
100
AcDbEntity
  8
0
  6
Continuous
 62
     0
370
    -2
100
AcDbLine
 10
17.94750000000005
 20
32.89262718566125
 30
0.0
 11
4.375000000000052
 21
32.8926271856612
 31
0.0
  0
LINE
  5
19B
330
197
100
AcDbEntity
  8
0
  6
Continuous
 62
     0
370
    -2
100
AcDbLine
 10
4.375000000000031
 20
39.11562718566121
 30
0.0
 11
4.375000000000041
 21
36.1946271856612
 31
0.0
  0
SOLID
  5
19C
330
197
100
AcDbEntity
  8
0
 62
     0
100
AcDbTrace
 10
4.925333333333365
 20
39.11562718566121
 30
0.0
 11
3.824666666666698
 21
39.11562718566121
 31
0.0
 12
4.37500000000002
 22
42.41762718566121
 32
0.0
 13
4.37500000000002
 23
42.41762718566121
 33
0.0
  0
SOLID
  5
19D
330
197
100
AcDbEntity
  8
0
 62
     0
100
AcDbTrace
 10
3.824666666666708
 20
36.1946271856612
 30
0.0
 11
4.925333333333374
 21
36.1946271856612
 31
0.0
 12
4.375000000000052
 22
32.8926271856612
 32
0.0
 13
4.375000000000052
 23
32.8926271856612
 33
0.0
  0
MTEXT
  5
19E
330
197
100
AcDbEntity
  8
0
 62
     0
370
    15
100
AcDbMText
 10
0.0000000000000426
 20
35.67668625871509
 30
0.0
 40
3.5
 41
0.0
 71
     2
 72
     1
  1
\A1;%%c9.53 [3/8]
  7
SLDTEXTSTYLE0
 11
-3.450141892798385E-15
 21
1.0
 31
0.0
 73
     1
 44
1.0
  0
POINT
  5
19F
330
197
100
AcDbEntity
  8
Defpoints
 62
     0
100
AcDbPoint
 10
18.01000000000005
 20
42.41762718566126
 30
0.0
  0
POINT
  5
1A0
330
197
100
AcDbEntity
  8
Defpoints
 62
     0
100
AcDbPoint
 10
18.01000000000005
 20
32.89262718566125
 30
0.0
  0
POINT
  5
1A1
330
197
100
AcDbEntity
  8
Defpoints
 62
     0
100
AcDbPoint
 10
4.37500000000005
 20
32.8926271856612
 30
0.0
  0
ENDBLK
  5
1A2
330
197
100
AcDbEntity
  8
0
100
AcDbBlockEnd
  0
BLOCK
  5
1A5
330
1A4
100
AcDbEntity
  8
0
100
AcDbBlockBegin
  2
*D9
 70
     1
 10
0.0
 20
0.0
 30
0.0
  3
*D9
  1
*D9
  0
LINE
  5
1A6
330
1A4
100
AcDbEntity
  8
0
  6
Continuous
 62
     0
370
    -2
100
AcDbLine
 10
93.25750000000008
 20
42.48012718566129
 30
0.0
 11
93.25750000000008
 21
69.03942816882657
 31
0.0
  0
LINE
  5
1A7
330
1A4
100
AcDbEntity
  8
0
  6
Continuous
 62
     0
370
    -2
100
AcDbLine
 10
17.05750000000006
 20
41.52762718566126
 30
0.0
 11
17.05750000000006
 21
69.03942816882657
 31
0.0
  0
LINE
  5
1A8
330
1A4
100
AcDbEntity
  8
0
  6
Continuous
 62
     0
370
    -2
100
AcDbLine
 10
89.95550000000009
 20
69.03942816882657
 30
0.0
 11
20.35950000000006
 21
69.03942816882657
 31
0.0
  0
SOLID
  5
1A9
330
1A4
100
AcDbEntity
  8
0
 62
     0
100
AcDbTrace
 10
89.95550000000009
 20
68.48909483549325
 30
0.0
 11
89.95550000000009
 21
69.5897615021599
 31
0.0
 12
93.25750000000008
 22
69.03942816882657
 32
0.0
 13
93.25750000000008
 23
69.03942816882657
 33
0.0
  0
SOLID
  5
1AA
330
1A4
100
AcDbEntity
  8
0
 62
     0
100
AcDbTrace
 10
20.35950000000006
 20
69.5897615021599
 30
0.0
 11
20.35950000000006
 21
68.48909483549325
 31
0.0
 12
17.05750000000006
 22
69.03942816882657
 32
0.0
 13
17.05750000000006
 23
69.03942816882657
 33
0.0
  0
MTEXT
  5
1AB
330
1A4
100
AcDbEntity
  8
0
 62
     0
370
    15
100
AcDbMText
 10
55.15750000000006
 20
73.41442816882657
 30
0.0
 40
3.5
 41
0.0
 71
     2
 72
     1
  1
\A1;76.2 [3]
  7
SLDTEXTSTYLE0
 73
     1
 44
1.0
  0
POINT
  5
1AC
330
1A4
100
AcDbEntity
  8
Defpoints
 62
     0
100
AcDbPoint
 10
93.25750000000008
 20
42.41762718566129
 30
0.0
  0
POINT
  5
1AD
330
1A4
100
AcDbEntity
  8
Defpoints
 62
     0
100
AcDbPoint
 10
17.05750000000006
 20
41.46512718566126
 30
0.0
  0
POINT
  5
1AE
330
1A4
100
AcDbEntity
  8
Defpoints
 62
     0
100
AcDbPoint
 10
17.05750000000006
 20
69.03942816882657
 30
0.0
  0
ENDBLK
  5
1AF
330
1A4
100
AcDbEntity
  8
0
100
AcDbBlockEnd
  0
BLOCK
  5
1B2
330
1B1
100
AcDbEntity
  8
0
100
AcDbBlockBegin
  2
*D10
 70
     1
 10
0.0
 20
0.0
 30
0.0
  3
*D10
  1
*D10
  0
LINE
  5
1B3
330
1B1
100
AcDbEntity
  8
0
  6
Continuous
 62
     0
370
    -2
100
AcDbLine
 10
93.25750000000008
 20
42.48012718566129
 30
0.0
 11
93.25750000000008
 21
52.17786226990347
 31
0.0
  0
LINE
  5
1B4
330
1B1
100
AcDbEntity
  8
0
  6
Continuous
 62
     0
370
    -2
100
AcDbLine
 10
77.38250000000006
 20
42.02760973581773
 30
0.0
 11
77.38250000000006
 21
52.17786226990347
 31
0.0
  0
LINE
  5
1B5
330
1B1
100
AcDbEntity
  8
0
  6
Continuous
 62
     0
370
    -2
100
AcDbLine
 10
77.38250000000006
 20
52.17786226990347
 30
0.0
 11
45.40350000000007
 21
52.17786226990347
 31
0.0
  0
LINE
  5
1B6
330
1B1
100
AcDbEntity
  8
0
  6
Continuous
 62
     0
370
    -2
100
AcDbLine
 10
93.25750000000008
 20
52.17786226990347
 30
0.0
 11
77.38250000000006
 21
52.17786226990347
 31
0.0
  0
LINE
  5
1B7
330
1B1
100
AcDbEntity
  8
0
  6
Continuous
 62
     0
370
    -2
100
AcDbLine
 10
96.55950000000007
 20
52.17786226990347
 30
0.0
 11
99.86150000000006
 21
52.17786226990347
 31
0.0
  0
LINE
  5
1B8
330
1B1
100
AcDbEntity
  8
0
  6
Continuous
 62
     0
370
    -2
100
AcDbLine
 10
74.08050000000006
 20
52.17786226990347
 30
0.0
 11
70.77850000000007
 21
52.17786226990347
 31
0.0
  0
SOLID
  5
1B9
330
1B1
100
AcDbEntity
  8
0
 62
     0
100
AcDbTrace
 10
96.55950000000007
 20
52.72819560323681
 30
0.0
 11
96.55950000000007
 21
51.62752893657014
 31
0.0
 12
93.25750000000008
 22
52.17786226990347
 32
0.0
 13
93.25750000000008
 23
52.17786226990347
 33
0.0
  0
SOLID
  5
1BA
330
1B1
100
AcDbEntity
  8
0
 62
     0
100
AcDbTrace
 10
74.08050000000006
 20
51.62752893657014
 30
0.0
 11
74.08050000000006
 21
52.72819560323681
 31
0.0
 12
77.38250000000006
 22
52.17786226990347
 32
0.0
 13
77.38250000000006
 23
52.17786226990347
 33
0.0
  0
MTEXT
  5
1BB
330
1B1
100
AcDbEntity
  8
0
 62
     0
370
    15
100
AcDbMText
 10
58.09100000000007
 20
56.55286226990347
 30
0.0
 40
3.5
 41
0.0
 71
     2
 72
     1
  1
\A1;15.88 [5/8]
  7
SLDTEXTSTYLE0
 73
     1
 44
1.0
  0
POINT
  5
1BC
330
1B1
100
AcDbEntity
  8
Defpoints
 62
     0
100
AcDbPoint
 10
93.25750000000008
 20
42.41762718566129
 30
0.0
  0
POINT
  5
1BD
330
1B1
100
AcDbEntity
  8
Defpoints
 62
     0
100
AcDbPoint
 10
77.38250000000006
 20
41.96510973581773
 30
0.0
  0
POINT
  5
1BE
330
1B1
100
AcDbEntity
  8
Defpoints
 62
     0
100
AcDbPoint
 10
77.38250000000006
 20
52.17786226990347
 30
0.0
  0
ENDBLK
  5
1BF
330
1B1
100
AcDbEntity
  8
0
100
AcDbBlockEnd
  0
BLOCK
  5
1C2
330
1C1
100
AcDbEntity
  8
0
100
AcDbBlockBegin
  2
*D11
 70
     1
 10
0.0
 20
0.0
 30
0.0
  3
*D11
  1
*D11
  0
LINE
  5
1C3
330
1C1
100
AcDbEntity
  8
0
  6
Continuous
 62
     0
370
    -2
100
AcDbLine
 10
93.32000000000008
 20
42.41762718566129
 30
0.0
 11
109.1419132810746
 21
42.41762718566135
 31
0.0
  0
LINE
  5
1C4
330
1C1
100
AcDbEntity
  8
0
  6
Continuous
 62
     0
370
    -2
100
AcDbLine
 10
93.32000000000008
 20
32.89262718566129
 30
0.0
 11
109.1419132810747
 21
32.89262718566135
 31
0.0
  0
LINE
  5
1C5
330
1C1
100
AcDbEntity
  8
0
  6
Continuous
 62
     0
370
    -2
100
AcDbLine
 10
109.1419132810746
 20
42.41762718566135
 30
0.0
 11
109.1419132810745
 21
75.27162718566134
 31
0.0
  0
LINE
  5
1C6
330
1C1
100
AcDbEntity
  8
0
  6
Continuous
 62
     0
370
    -2
100
AcDbLine
 10
109.1419132810746
 20
42.41762718566135
 30
0.0
 11
109.1419132810747
 21
32.89262718566135
 31
0.0
  0
LINE
  5
1C7
330
1C1
100
AcDbEntity
  8
0
  6
Continuous
 62
     0
370
    -2
100
AcDbLine
 10
109.1419132810746
 20
45.71962718566134
 30
0.0
 11
109.1419132810746
 21
49.02162718566134
 31
0.0
  0
LINE
  5
1C8
330
1C1
100
AcDbEntity
  8
0
  6
Continuous
 62
     0
370
    -2
100
AcDbLine
 10
109.1419132810747
 20
29.59062718566135
 30
0.0
 11
109.1419132810747
 21
26.28862718566135
 31
0.0
  0
SOLID
  5
1C9
330
1C1
100
AcDbEntity
  8
0
 62
     0
100
AcDbTrace
 10
108.5915799477413
 20
45.71962718566134
 30
0.0
 11
109.6922466144079
 21
45.71962718566134
 31
0.0
 12
109.1419132810746
 22
42.41762718566135
 32
0.0
 13
109.1419132810746
 23
42.41762718566135
 33
0.0
  0
SOLID
  5
1CA
330
1C1
100
AcDbEntity
  8
0
 62
     0
100
AcDbTrace
 10
109.692246614408
 20
29.59062718566135
 30
0.0
 11
108.5915799477414
 21
29.59062718566135
 31
0.0
 12
109.1419132810747
 22
32.89262718566135
 32
0.0
 13
109.1419132810747
 23
32.89262718566135
 33
0.0
  0
MTEXT
  5
1CB
330
1C1
100
AcDbEntity
  8
0
 62
     0
370
    15
100
AcDbMText
 10
104.7669132810746
 20
62.14662718566133
 30
0.0
 40
3.5
 41
0.0
 71
     2
 72
     1
  1
\A1;%%c9.53 [3/8]
  7
SLDTEXTSTYLE0
 11
-2.983906501879686E-15
 21
1.0
 31
0.0
 73
     1
 44
1.0
  0
POINT
  5
1CC
330
1C1
100
AcDbEntity
  8
Defpoints
 62
     0
100
AcDbPoint
 10
93.25750000000008
 20
42.41762718566129
 30
0.0
  0
POINT
  5
1CD
330
1C1
100
AcDbEntity
  8
Defpoints
 62
     0
100
AcDbPoint
 10
93.25750000000008
 20
32.89262718566129
 30
0.0
  0
POINT
  5
1CE
330
1C1
100
AcDbEntity
  8
Defpoints
 62
     0
100
AcDbPoint
 10
109.1419132810747
 20
32.89262718566135
 30
0.0
  0
ENDBLK
  5
1CF
330
1C1
100
AcDbEntity
  8
0
100
AcDbBlockEnd
  0
BLOCK
  5
1E2
330
1E1
100
AcDbEntity
  8
0
100
AcDbBlockBegin
  2
*D12
 70
     1
 10
0.0
 20
0.0
 30
0.0
  3
*D12
  1
*D12
  0
LINE
  5
1E3
330
1E1
100
AcDbEntity
  8
0
  6
Continuous
 62
     0
370
    -2
100
AcDbLine
 10
93.85452359198074
 20
30.08170678013342
 30
0.0
 11
108.5731351924027
 21
0.0000000000000089
 31
0.0
  0
MTEXT
  5
1E4
330
1E1
100
AcDbEntity
  8
0
 62
     0
370
    15
100
AcDbMText
 10
104.2973304313278
 20
14.7115399502455
 30
0.0
 40
3.5
 41
0.0
 71
     5
 72
     1
  1
\A1;R1.52 [R0.060]
  7
SLDTEXTSTYLE0
 11
0.4394992938211061
 21
-0.8982429352523453
 31
0.0
 73
     1
 44
1.0
  0
LINE
  5
1E5
330
1E1
100
AcDbEntity
  8
0
  6
Continuous
 62
     0
370
    -2
100
AcDbLine
 10
91.73350000000008
 20
34.41662718566124
 30
0.0
 11
92.40329692378344
 21
33.04770495233667
 31
0.0
  0
SOLID
  5
1E6
330
1E1
100
AcDbEntity
  8
0
 62
     0
100
AcDbTrace
 10
94.34885662068127
 20
30.32357789149964
 30
0.0
 11
93.3601905632802
 21
29.83983566876721
 31
0.0
 12
92.40329692378344
 22
33.04770495233667
 32
0.0
 13
92.40329692378344
 23
33.04770495233667
 33
0.0
  0
POINT
  5
1E7
330
1E1
100
AcDbEntity
  8
Defpoints
 62
     0
100
AcDbPoint
 10
92.40329692378344
 20
33.04770495233667
 30
0.0
  0
POINT
  5
1E8
330
1E1
100
AcDbEntity
  8
Defpoints
 62
     0
100
AcDbPoint
 10
91.73350000000008
 20
34.41662718566124
 30
0.0
  0
ENDBLK
  5
1E9
330
1E1
100
AcDbEntity
  8
0
100
AcDbBlockEnd
  0
BLOCK
  5
223
330
222
100
AcDbEntity
  8
0
100
AcDbBlockBegin
  2
*D13
 70
     1
 10
0.0
 20
0.0
 30
0.0
  3
*D13
  1
*D13
  0
LINE
  5
225
330
222
100
AcDbEntity
  8
0
  6
Continuous
 62
     0
370
    -2
100
AcDbLine
 10
-49.43500000000003
 20
4.763574928723898
 30
0.0
 11
-63.00750000000006
 21
4.763574928723846
 31
0.0
  0
LINE
  5
226
330
222
100
AcDbEntity
  8
0
  6
Continuous
 62
     0
370
    -2
100
AcDbLine
 10
-49.43500000000003
 20
-4.761425071276108
 30
0.0
 11
-63.00750000000002
 21
-4.76142507127616
 31
0.0
  0
LINE
  5
227
330
222
100
AcDbEntity
  8
0
  6
Continuous
 62
     0
370
    -2
100
AcDbLine
 10
-63.00750000000004
 20
1.461574928723846
 30
0.0
 11
-63.00750000000004
 21
-1.459425071276161
 31
0.0
  0
SOLID
  5
228
330
222
100
AcDbEntity
  8
0
 62
     0
100
AcDbTrace
 10
-62.45716666666671
 20
1.461574928723848
 30
0.0
 11
-63.55783333333338
 21
1.461574928723844
 31
0.0
 12
-63.00750000000006
 22
4.763574928723846
 32
0.0
 13
-63.00750000000006
 23
4.763574928723846
 33
0.0
  0
SOLID
  5
229
330
222
100
AcDbEntity
  8
0
 62
     0
100
AcDbTrace
 10
-63.55783333333337
 20
-1.459425071276162
 30
0.0
 11
-62.4571666666667
 21
-1.459425071276159
 31
0.0
 12
-63.00750000000002
 22
-4.76142507127616
 32
0.0
 13
-63.00750000000002
 23
-4.76142507127616
 33
0.0
  0
MTEXT
  5
22A
330
222
100
AcDbEntity
  8
0
 62
     0
370
    15
100
AcDbMText
 10
-67.38250000000002
 20
-1.977365998222277
 30
0.0
 40
3.5
 41
0.0
 71
     2
 72
     1
  1
\A1;%%c9.53 [3/8]
  7
SLDTEXTSTYLE0
 11
-3.729883127349606E-15
 21
1.0
 31
0.0
 73
     1
 44
1.0
  0
POINT
  5
22B
330
222
100
AcDbEntity
  8
Defpoints
 62
     0
100
AcDbPoint
 10
-49.37250000000003
 20
4.763574928723898
 30
0.0
  0
POINT
  5
22C
330
222
100
AcDbEntity
  8
Defpoints
 62
     0
100
AcDbPoint
 10
-49.37250000000003
 20
-4.761425071276108
 30
0.0
  0
POINT
  5
22D
330
222
100
AcDbEntity
  8
Defpoints
 62
     0
100
AcDbPoint
 10
-63.00750000000002
 20
-4.761425071276158
 30
0.0
  0
ENDBLK
  5
224
330
222
100
AcDbEntity
  8
0
100
AcDbBlockEnd
  0
BLOCK
  5
22F
330
22E
100
AcDbEntity
  8
0
100
AcDbBlockBegin
  2
*D14
 70
     1
 10
0.0
 20
0.0
 30
0.0
  3
*D14
  1
*D14
  0
LINE
  5
231
330
22E
100
AcDbEntity
  8
0
  6
Continuous
 62
     0
370
    -2
100
AcDbLine
 10
25.875
 20
4.826074928723926
 30
0.0
 11
25.875
 21
31.38537591188921
 31
0.0
  0
LINE
  5
232
330
22E
100
AcDbEntity
  8
0
  6
Continuous
 62
     0
370
    -2
100
AcDbLine
 10
-50.32500000000002
 20
3.873574928723897
 30
0.0
 11
-50.32500000000002
 21
31.38537591188921
 31
0.0
  0
LINE
  5
233
330
22E
100
AcDbEntity
  8
0
  6
Continuous
 62
     0
370
    -2
100
AcDbLine
 10
22.573
 20
31.38537591188921
 30
0.0
 11
-47.02300000000002
 21
31.38537591188921
 31
0.0
  0
SOLID
  5
234
330
22E
100
AcDbEntity
  8
0
 62
     0
100
AcDbTrace
 10
22.573
 20
30.83504257855588
 30
0.0
 11
22.573
 21
31.93570924522255
 31
0.0
 12
25.875
 22
31.38537591188921
 32
0.0
 13
25.875
 23
31.38537591188921
 33
0.0
  0
SOLID
  5
235
330
22E
100
AcDbEntity
  8
0
 62
     0
100
AcDbTrace
 10
-47.02300000000002
 20
31.93570924522255
 30
0.0
 11
-47.02300000000002
 21
30.83504257855588
 31
0.0
 12
-50.32500000000002
 22
31.38537591188921
 32
0.0
 13
-50.32500000000002
 23
31.38537591188921
 33
0.0
  0
MTEXT
  5
236
330
22E
100
AcDbEntity
  8
0
 62
     0
370
    15
100
AcDbMText
 10
-12.22500000000002
 20
35.76037591188921
 30
0.0
 40
3.5
 41
0.0
 71
     2
 72
     1
  1
\A1;76.2 [3]
  7
SLDTEXTSTYLE0
 73
     1
 44
1.0
  0
POINT
  5
237
330
22E
100
AcDbEntity
  8
Defpoints
 62
     0
100
AcDbPoint
 10
25.875
 20
4.763574928723926
 30
0.0
  0
POINT
  5
238
330
22E
100
AcDbEntity
  8
Defpoints
 62
     0
100
AcDbPoint
 10
-50.32500000000002
 20
3.811074928723897
 30
0.0
  0
POINT
  5
239
330
22E
100
AcDbEntity
  8
Defpoints
 62
     0
100
AcDbPoint
 10
-50.32500000000002
 20
31.38537591188921
 30
0.0
  0
ENDBLK
  5
230
330
22E
100
AcDbEntity
  8
0
100
AcDbBlockEnd
  0
BLOCK
  5
23B
330
23A
100
AcDbEntity
  8
0
100
AcDbBlockBegin
  2
*D15
 70
     1
 10
0.0
 20
0.0
 30
0.0
  3
*D15
  1
*D15
  0
LINE
  5
23D
330
23A
100
AcDbEntity
  8
0
  6
Continuous
 62
     0
370
    -2
100
AcDbLine
 10
25.875
 20
4.826074928723926
 30
0.0
 11
25.875
 21
14.52381001296611
 31
0.0
  0
LINE
  5
23E
330
23A
100
AcDbEntity
  8
0
  6
Continuous
 62
     0
370
    -2
100
AcDbLine
 10
10.0
 20
4.373557478880372
 30
0.0
 11
10.0
 21
14.52381001296611
 31
0.0
  0
LINE
  5
23F
330
23A
100
AcDbEntity
  8
0
  6
Continuous
 62
     0
370
    -2
100
AcDbLine
 10
10.0
 20
14.52381001296611
 30
0.0
 11
-21.97900000000001
 21
14.52381001296611
 31
0.0
  0
LINE
  5
240
330
23A
100
AcDbEntity
  8
0
  6
Continuous
 62
     0
370
    -2
100
AcDbLine
 10
25.875
 20
14.52381001296611
 30
0.0
 11
10.0
 21
14.52381001296611
 31
0.0
  0
LINE
  5
241
330
23A
100
AcDbEntity
  8
0
  6
Continuous
 62
     0
370
    -2
100
AcDbLine
 10
29.177
 20
14.52381001296611
 30
0.0
 11
32.479
 21
14.52381001296611
 31
0.0
  0
LINE
  5
242
330
23A
100
AcDbEntity
  8
0
  6
Continuous
 62
     0
370
    -2
100
AcDbLine
 10
6.698
 20
14.52381001296611
 30
0.0
 11
3.396000000000001
 21
14.52381001296611
 31
0.0
  0
SOLID
  5
243
330
23A
100
AcDbEntity
  8
0
 62
     0
100
AcDbTrace
 10
29.177
 20
15.07414334629944
 30
0.0
 11
29.177
 21
13.97347667963278
 31
0.0
 12
25.875
 22
14.52381001296611
 32
0.0
 13
25.875
 23
14.52381001296611
 33
0.0
  0
SOLID
  5
244
330
23A
100
AcDbEntity
  8
0
 62
     0
100
AcDbTrace
 10
6.698
 20
13.97347667963278
 30
0.0
 11
6.698
 21
15.07414334629944
 31
0.0
 12
10.0
 22
14.52381001296611
 32
0.0
 13
10.0
 23
14.52381001296611
 33
0.0
  0
MTEXT
  5
245
330
23A
100
AcDbEntity
  8
0
 62
     0
370
    15
100
AcDbMText
 10
-9.291500000000013
 20
18.89881001296611
 30
0.0
 40
3.5
 41
0.0
 71
     2
 72
     1
  1
\A1;15.88 [5/8]
  7
SLDTEXTSTYLE0
 73
     1
 44
1.0
  0
POINT
  5
246
330
23A
100
AcDbEntity
  8
Defpoints
 62
     0
100
AcDbPoint
 10
25.875
 20
4.763574928723926
 30
0.0
  0
POINT
  5
247
330
23A
100
AcDbEntity
  8
Defpoints
 62
     0
100
AcDbPoint
 10
10.0
 20
4.311057478880372
 30
0.0
  0
POINT
  5
248
330
23A
100
AcDbEntity
  8
Defpoints
 62
     0
100
AcDbPoint
 10
10.0
 20
14.52381001296611
 30
0.0
  0
ENDBLK
  5
23C
330
23A
100
AcDbEntity
  8
0
100
AcDbBlockEnd
  0
BLOCK
  5
24A
330
249
100
AcDbEntity
  8
0
100
AcDbBlockBegin
  2
*D16
 70
     1
 10
0.0
 20
0.0
 30
0.0
  3
*D16
  1
*D16
  0
LINE
  5
24C
330
249
100
AcDbEntity
  8
0
  6
Continuous
 62
     0
370
    -2
100
AcDbLine
 10
25.9375
 20
4.763574928723926
 30
0.0
 11
41.75941328107457
 21
4.763574928723983
 31
0.0
  0
LINE
  5
24D
330
249
100
AcDbEntity
  8
0
  6
Continuous
 62
     0
370
    -2
100
AcDbLine
 10
25.9375
 20
-4.761425071276072
 30
0.0
 11
41.75941328107461
 21
-4.761425071276015
 31
0.0
  0
LINE
  5
24E
330
249
100
AcDbEntity
  8
0
  6
Continuous
 62
     0
370
    -2
100
AcDbLine
 10
41.75941328107457
 20
4.763574928723983
 30
0.0
 11
41.75941328107445
 21
37.61757492872398
 31
0.0
  0
LINE
  5
24F
330
249
100
AcDbEntity
  8
0
  6
Continuous
 62
     0
370
    -2
100
AcDbLine
 10
41.75941328107457
 20
4.763574928723983
 30
0.0
 11
41.75941328107461
 21
-4.761425071276015
 31
0.0
  0
LINE
  5
250
330
249
100
AcDbEntity
  8
0
  6
Continuous
 62
     0
370
    -2
100
AcDbLine
 10
41.75941328107456
 20
8.065574928723983
 30
0.0
 11
41.75941328107454
 21
11.36757492872398
 31
0.0
  0
LINE
  5
251
330
249
100
AcDbEntity
  8
0
  6
Continuous
 62
     0
370
    -2
100
AcDbLine
 10
41.75941328107462
 20
-8.063425071276015
 30
0.0
 11
41.75941328107464
 21
-11.36542507127601
 31
0.0
  0
SOLID
  5
252
330
249
100
AcDbEntity
  8
0
 62
     0
100
AcDbTrace
 10
41.20907994774122
 20
8.065574928723981
 30
0.0
 11
42.30974661440789
 21
8.065574928723985
 31
0.0
 12
41.75941328107457
 22
4.763574928723983
 32
0.0
 13
41.75941328107457
 23
4.763574928723983
 33
0.0
  0
SOLID
  5
253
330
249
100
AcDbEntity
  8
0
 62
     0
100
AcDbTrace
 10
42.30974661440796
 20
-8.063425071276013
 30
0.0
 11
41.20907994774129
 21
-8.063425071276017
 31
0.0
 12
41.75941328107461
 22
-4.761425071276015
 32
0.0
 13
41.75941328107461
 23
-4.761425071276015
 33
0.0
  0
MTEXT
  5
254
330
249
100
AcDbEntity
  8
0
 62
     0
370
    15
100
AcDbMText
 10
37.3844132810745
 20
24.49257492872396
 30
0.0
 40
3.5
 41
0.0
 71
     2
 72
     1
  1
\A1;%%c9.53 [3/8]
  7
SLDTEXTSTYLE0
 11
-3.729883127349609E-15
 21
1.0
 31
0.0
 73
     1
 44
1.0
  0
POINT
  5
255
330
249
100
AcDbEntity
  8
Defpoints
 62
     0
100
AcDbPoint
 10
25.875
 20
4.763574928723926
 30
0.0
  0
POINT
  5
256
330
249
100
AcDbEntity
  8
Defpoints
 62
     0
100
AcDbPoint
 10
25.875
 20
-4.761425071276072
 30
0.0
  0
POINT
  5
257
330
249
100
AcDbEntity
  8
Defpoints
 62
     0
100
AcDbPoint
 10
41.75941328107459
 20
-4.761425071276013
 30
0.0
  0
ENDBLK
  5
24B
330
249
100
AcDbEntity
  8
0
100
AcDbBlockEnd
  0
BLOCK
  5
259
330
258
100
AcDbEntity
  8
0
100
AcDbBlockBegin
  2
*D17
 70
     1
 10
0.0
 20
0.0
 30
0.0
  3
*D17
  1
*D17
  0
LINE
  5
25B
330
258
100
AcDbEntity
  8
0
  6
Continuous
 62
     0
370
    -2
100
AcDbLine
 10
146.3921693176959
 20
-19.52606167763708
 30
0.0
 11
161.1107809181179
 21
-49.60776845777051
 31
0.0
  0
MTEXT
  5
25C
330
258
100
AcDbEntity
  8
0
 62
     0
370
    15
100
AcDbMText
 10
156.8349761570429
 20
-34.89622850752502
 30
0.0
 40
3.5
 41
0.0
 71
     5
 72
     1
  1
\A1;R1.52 [R0.060]
  7
SLDTEXTSTYLE0
 11
0.4394992938211061
 21
-0.8982429352523453
 31
0.0
 73
     1
 44
1.0
  0
LINE
  5
25D
330
258
100
AcDbEntity
  8
0
  6
Continuous
 62
     0
370
    -2
100
AcDbLine
 10
144.2711457257153
 20
-15.19114127210926
 30
0.0
 11
144.9409426494987
 21
-16.56006350543384
 31
0.0
  0
SOLID
  5
25E
330
258
100
AcDbEntity
  8
0
 62
     0
100
AcDbTrace
 10
146.8865023463965
 20
-19.28419056627087
 30
0.0
 11
145.8978362889954
 21
-19.7679327890033
 31
0.0
 12
144.9409426494987
 22
-16.56006350543384
 32
0.0
 13
144.9409426494987
 23
-16.56006350543384
 33
0.0
  0
POINT
  5
25F
330
258
100
AcDbEntity
  8
Defpoints
 62
     0
100
AcDbPoint
 10
144.9409426494987
 20
-16.56006350543384
 30
0.0
  0
POINT
  5
260
330
258
100
AcDbEntity
  8
Defpoints
 62
     0
100
AcDbPoint
 10
144.2711457257153
 20
-15.19114127210926
 30
0.0
  0
ENDBLK
  5
25A
330
258
100
AcDbEntity
  8
0
100
AcDbBlockEnd
  0
BLOCK
  5
26C
330
26B
100
AcDbEntity
  8
0
100
AcDbBlockBegin
  2
*D18
 70
     1
 10
0.0
 20
0.0
 30
0.0
  3
*D18
  1
*D18
  0
LINE
  5
26E
330
26B
100
AcDbEntity
  8
0
  6
Continuous
 62
     0
370
    -2
100
AcDbLine
 10
26.91871475214284
 20
-6.963046230572205
 30
0.0
 11
47.39544750089261
 21
-34.56055112116474
 31
0.0
  0
MTEXT
  5
26F
330
26B
100
AcDbEntity
  8
0
 62
     0
370
    15
100
AcDbMText
 10
40.24895023871174
 20
-20.52353119369647
 30
0.0
 40
3.5
 41
0.0
 71
     5
 72
     1
  1
\A1;R2.29 [R0.090]
  7
SLDTEXTSTYLE0
 11
0.5958687817005852
 21
-0.8030818108976572
 31
0.0
 73
     1
 44
1.0
  0
LINE
  5
270
330
26B
100
AcDbEntity
  8
0
  6
Continuous
 62
     0
370
    -2
100
AcDbLine
 10
23.58899999999997
 20
-2.475425071276094
 30
0.0
 11
24.95115603496751
 21
-4.311270090988142
 31
0.0
  0
SOLID
  5
271
330
26B
100
AcDbEntity
  8
0
 62
     0
100
AcDbTrace
 10
27.36067744207352
 20
-6.63511977770965
 30
0.0
 11
26.47675206221217
 21
-7.29097268343476
 31
0.0
 12
24.95115603496751
 22
-4.311270090988142
 32
0.0
 13
24.95115603496751
 23
-4.311270090988142
 33
0.0
  0
POINT
  5
272
330
26B
100
AcDbEntity
  8
Defpoints
 62
     0
100
AcDbPoint
 10
24.95115603496751
 20
-4.311270090988142
 30
0.0
  0
POINT
  5
273
330
26B
100
AcDbEntity
  8
Defpoints
 62
     0
100
AcDbPoint
 10
23.58899999999997
 20
-2.475425071276094
 30
0.0
  0
ENDBLK
  5
26D
330
26B
100
AcDbEntity
  8
0
100
AcDbBlockEnd
  0
ENDSEC
  0
SECTION
  2
ENTITIES
  0
LINE
  5
C2
330
1F
100
AcDbEntity
  8
참조1
100
AcDbLine
 10
-15.39999999999998
 20
0.0010749287238892
 30
0.0
 11
-15.39999999999998
 21
-39.99892507127611
 31
0.0
  0
LINE
  5
C3
330
1F
100
AcDbEntity
  8
참조1
100
AcDbLine
 10
-15.39999999999998
 20
-39.99892507127611
 30
0.0
 11
-30.55885681430864
 21
-39.9989250712761
 31
0.0
  0
INSERT
  5
C5
330
1F
100
AcDbEntity
  8
0
  6
Continuous
 62
     7
100
AcDbBlockReference
 66
     1
  2
블럭10
 10
-29.34027293212519
 20
-52.04609937292004
 30
0.0
  0
ATTRIB
  5
C6
330
C5
100
AcDbEntity
  8
FORMAT
 62
     2
100
AcDbText
 10
-39.48190894426182
 20
-49.97073246008785
 30
0.0
 40
4.233333333333333
  1
EM639912 [ 4 FLUTE ]
 41
0.75
  7
SLDTEXTSTYLE0
 11
-39.48190894426182
 21
-52.08739912675452
 31
0.0
100
AcDbAttribute
  2
AUTOATTR0
 70
     0
 74
     1
  0
SEQEND
  5
C7
330
C5
100
AcDbEntity
  8
0
  6
Continuous
 62
     7
  0
HATCH
  5
C8
330
1F
100
AcDbEntity
  8
중심선
100
AcDbHatch
 10
0.0
 20
0.0
 30
0.0
210
0.0
220
0.0
230
1.0
  2
SOLID
 70
     1
 71
     0
 91
        1
 92
        0
 93
        4
 72
     1
 10
-23.62536362774434
 20
-35.7989250712761
 11
-27.07163887158162
 21
-35.7989250712761
 72
     1
 10
-27.07163887158162
 20
-35.7989250712761
 11
-29.19986873078565
 21
-38.3352506518487
 72
     1
 10
-29.19986873078565
 20
-38.3352506518487
 11
-25.75356040183521
 21
-38.33521122254621
 72
     1
 10
-25.75356040183521
 20
-38.33521122254621
 11
-23.62536362774434
 21
-35.7989250712761
 97
        0
 75
     0
 76
     1
 98
        1
 10
0.0
 20
0.0
  0
HATCH
  5
C9
330
1F
100
AcDbEntity
  8
중심선
100
AcDbHatch
 10
0.0
 20
0.0
 30
0.0
210
0.0
220
0.0
230
1.0
  2
SOLID
 70
     1
 71
     0
 91
        1
 92
        0
 93
        4
 72
     1
 10
-18.61259963670836
 20
-35.7989250712761
 11
-22.05887488054564
 21
-35.7989250712761
 72
     1
 10
-22.05887488054564
 20
-35.7989250712761
 11
-26.59001288890306
 21
-41.19892507127612
 72
     1
 10
-26.59001288890306
 20
-41.19892507127612
 11
-23.14373764506578
 21
-41.19892507127612
 72
     1
 10
-23.14373764506578
 20
-41.19892507127612
 11
-18.61259963670836
 21
-35.7989250712761
 97
        0
 75
     0
 76
     1
 98
        1
 10
0.0
 20
0.0
  0
HATCH
  5
CA
330
1F
100
AcDbEntity
  8
중심선
100
AcDbHatch
 10
0.0
 20
0.0
 30
0.0
210
0.0
220
0.0
230
1.0
  2
SOLID
 70
     1
 71
     0
 91
        1
 92
        0
 93
        4
 72
     1
 10
-13.59983564567249
 20
-35.7989250712761
 11
-17.04611088950961
 21
-35.7989250712761
 72
     1
 10
-17.04611088950961
 20
-35.7989250712761
 11
-24.09454779139886
 21
-44.19892507127612
 72
     1
 10
-24.09454779139886
 20
-44.19892507127612
 11
-20.64827254756158
 21
-44.19892507127612
 72
     1
 10
-20.64827254756158
 20
-44.19892507127612
 11
-13.59983564567249
 21
-35.7989250712761
 97
        0
 75
     0
 76
     1
 98
        1
 10
0.0
 20
0.0
  0
HATCH
  5
CB
330
1F
100
AcDbEntity
  8
중심선
100
AcDbHatch
 10
0.0
 20
0.0
 30
0.0
210
0.0
220
0.0
230
1.0
  2
SOLID
 70
     1
 71
     0
 91
        1
 92
        0
 93
        6
 72
     3
 10
-8.799945214660292
 20
-39.99892507132738
 11
3.960054785062284
 21
1.540850780301639E-10
 40
0.3939339440162633
 50
17.09539180608434
 51
320.0019657685074
 73
     0
 72
     1
 10
-7.116945558959697
 20
-38.58681907591438
 11
-4.81164368525866
 21
-36.65249236586649
 72
     3
 10
-8.799945214713139
 20
-39.99892507127625
 11
6.600054785286829
 21
-1.249000902703301E-13
 40
0.6363583540795982
 50
39.99873849337408
 51
368.4976242363725
 73
     1
 72
     1
 10
-2.37461272281253
 20
-39.03892507120613
 11
-10.11987790787722
 21
-39.0389250712061
 72
     1
 10
-10.11987790787722
 20
-39.0389250712061
 11
-10.11990295232315
 21
-40.95892507120602
 72
     1
 10
-10.11990295232315
 20
-40.95892507120602
 11
-5.678523182851114
 21
-40.95892507120599
 97
        0
 75
     0
 76
     1
 98
        1
 10
0.0
 20
0.0
  0
LINE
  5
118
330
1F
100
AcDbEntity
  8
참조1
100
AcDbLine
 10
67.41348381534561
 20
7.441074928723896
 30
0.0
 11
67.41348381534561
 21
-7.438925071276109
 31
0.0
  0
LINE
  5
119
330
1F
100
AcDbEntity
  8
참조1
100
AcDbLine
 10
80.11348381534562
 20
5.441074928723896
 30
0.0
 11
67.41348381534561
 21
5.441074928723896
 31
0.0
  0
SOLID
  5
11A
330
1F
100
AcDbEntity
  8
참조1
100
AcDbTrace
 10
67.41348381534561
 20
5.441074928723896
 30
0.0
 11
73.76348381534561
 21
4.425074928723896
 31
0.0
 12
73.76348381534561
 22
6.457074928723896
 32
0.0
 13
73.76348381534561
 23
6.457074928723896
 33
0.0
  0
LINE
  5
11B
330
1F
100
AcDbEntity
  8
참조1
100
AcDbLine
 10
80.11348381534562
 20
-5.438925071276109
 30
0.0
 11
67.41348381534561
 21
-5.438925071276109
 31
0.0
  0
SOLID
  5
11C
330
1F
100
AcDbEntity
  8
참조1
100
AcDbTrace
 10
67.41348381534561
 20
-5.438925071276109
 30
0.0
 11
73.76348381534561
 21
-6.454925071276109
 31
0.0
 12
73.76348381534561
 22
-4.422925071276109
 32
0.0
 13
73.76348381534561
 23
-4.422925071276109
 33
0.0
  0
MTEXT
  5
11D
330
1F
100
AcDbEntity
  8
참조1
100
AcDbMText
 10
76.81097390781589
 20
10.98929157337383
 30
0.0
 40
3.5
 41
0.0
 71
     1
 72
     1
  1
A
  7
SLDTEXTSTYLE0
 73
     1
 44
1.0
  0
MTEXT
  5
11E
330
1F
100
AcDbEntity
  8
참조1
100
AcDbMText
 10
76.81097390781589
 20
0.1092915733738251
 30
0.0
 40
3.5
 41
0.0
 71
     1
 72
     1
  1
A
  7
SLDTEXTSTYLE0
 73
     1
 44
1.0
  0
LINE
  5
1F0
330
1F
100
AcDbEntity
  8
0
  6
Continuous
 62
     1
370
    15
100
AcDbLine
 10
16.52890692004289
 20
4.763574928723898
 30
0.0
 11
13.62406669474379
 21
4.763574928723898
 31
0.0
  0
LINE
  5
1F1
330
1F
100
AcDbEntity
  8
0
  6
Continuous
 62
     1
370
    15
100
AcDbLine
 10
13.62406669474373
 20
-4.761425071276108
 30
0.0
 11
16.52890692004289
 21
-4.761425071276108
 31
0.0
  0
LINE
  5
1F2
330
1F
100
AcDbEntity
  8
외형선
  6
Continuous
370
    15
100
AcDbLine
 10
-49.3725
 20
-4.761425071276108
 30
0.0
 11
9.499858198091346
 21
-4.761425071276108
 31
0.0
  0
LINE
  5
1F3
330
1F
100
AcDbEntity
  8
외형선
  6
Continuous
370
    15
100
AcDbLine
 10
9.499858198091346
 20
4.763574928723898
 30
0.0
 11
-49.3725
 21
4.763574928723898
 31
0.0
  0
LINE
  5
1F4
330
1F
100
AcDbEntity
  8
외형선
  6
Continuous
370
    15
100
AcDbLine
 10
-49.3725
 20
4.763574928723898
 30
0.0
 11
-50.32500000000002
 21
3.811074928723897
 31
0.0
  0
LINE
  5
1F5
330
1F
100
AcDbEntity
  8
외형선
  6
Continuous
370
    15
100
AcDbLine
 10
-50.32500000000002
 20
-3.808925071276107
 30
0.0
 11
-49.3725
 21
-4.761425071276108
 31
0.0
  0
SPLINE
  5
1F6
330
1F
100
AcDbEntity
  8
0
  6
Continuous
 62
     1
370
    15
100
AcDbSpline
210
0.0
220
0.0
230
1.0
 70
     8
 71
     3
 72
    15
 73
    11
 74
     0
 42
0.000000001
 43
0.00000001
 40
0.0
 40
0.0
 40
0.0
 40
0.0
 40
0.124101164008342
 40
0.248353035989209
 40
0.3725618880294841
 40
0.4966434787381443
 40
0.6207132303427146
 40
0.7448867061496903
 40
0.891249073662723
 40
1.0
 40
1.0
 40
1.0
 40
1.0
 10
9.999999999999972
 20
-3.345971775523253
 30
0.0
 10
10.47777820751682
 20
-3.532553153608163
 30
0.0
 10
11.43391483455375
 20
-3.905942493480268
 30
0.0
 10
12.86881462346452
 20
-4.320604908095554
 30
0.0
 10
14.30344478281691
 20
-4.612526317599219
 30
0.0
 10
15.73698550023178
 20
-4.763140531182131
 30
0.0
 10
17.17037341658704
 20
-4.771721628231262
 30
0.0
 10
18.68984599531137
 20
-4.623694548077808
 30
0.0
 10
20.15065836642646
 20
-4.344403933034073
 30
0.0
 10
21.13313975532793
 20
-4.02554622771585
 30
0.0
 10
21.55195666423768
 20
-3.889622025963035
 30
0.0
  0
SPLINE
  5
1F7
330
1F
100
AcDbEntity
  8
외형선
  6
Continuous
370
    15
100
AcDbSpline
210
0.0
220
0.0
230
1.0
 70
    24
 71
     3
 72
    22
 73
    18
 74
     0
 42
0.000000001
 43
0.00000001
 40
0.0
 40
0.0
 40
0.0
 40
0.0
 40
0.125
 40
0.125
 40
0.2500000000000001
 40
0.2500000000000001
 40
0.3750000000000001
 40
0.3750000000000001
 40
0.5000000000000001
 40
0.5000000000000001
 40
0.6250000000000001
 40
0.6250000000000001
 40
0.75
 40
0.75
 40
0.875
 40
0.875
 40
1.0
 40
1.0
 40
1.0
 40
1.0
 10
10.0
 20
2.027267581791833
 30
0.0
 10
10.0
 20
1.996361304185257
 30
0.0
 10
10.00000000000003
 20
1.941482187411225
 30
0.0
 10
10.0
 20
1.810380020037329
 30
0.0
 10
9.999999999999972
 20
1.720858881154243
 30
0.0
 10
10.0
 20
1.471034609269829
 30
0.0
 10
10.0
 20
1.310274732108731
 30
0.0
 10
10.0
 20
0.8975397639887319
 30
0.0
 10
9.999999999999972
 20
0.6447027327080974
 30
0.0
 10
10.0
 20
0.0500844189880425
 30
0.0
 10
10.0
 20
-0.2921630231553394
 30
0.0
 10
10.0
 20
-1.016369409520173
 30
0.0
 10
9.999999999999972
 20
-1.397033233466388
 30
0.0
 10
10.0
 20
-2.110030740510112
 30
0.0
 10
10.0
 20
-2.440298716384007
 30
0.0
 10
10.0
 20
-2.983377165567774
 30
0.0
 10
10.0
 20
-3.195967357251575
 30
0.0
 10
10.0
 20
-3.345971775523267
 30
0.0
  0
SPLINE
  5
1F8
330
1F
100
AcDbEntity
  8
0
  6
Continuous
 62
     1
370
    15
100
AcDbSpline
210
0.0
220
0.0
230
1.0
 70
     8
 71
     3
 72
    34
 73
    30
 74
     0
 42
0.000000001
 43
0.00000001
 40
0.0126625486600642
 40
0.0126625486600642
 40
0.0126625486600642
 40
0.0126625486600642
 40
0.0624999999999997
 40
0.0624999999999997
 40
0.1249999999999994
 40
0.1249999999999994
 40
0.1874999999999991
 40
0.1874999999999991
 40
0.2499999999999987
 40
0.2499999999999987
 40
0.3124999999999984
 40
0.3124999999999984
 40
0.3749999999999981
 40
0.3749999999999981
 40
0.4374999999999978
 40
0.4374999999999978
 40
0.4999999999999974
 40
0.4999999999999974
 40
0.5624999999999971
 40
0.5624999999999971
 40
0.6249999999999968
 40
0.6249999999999968
 40
0.7499999999999981
 40
0.7499999999999981
 40
0.8749999999999996
 40
0.8749999999999996
 40
0.9374999999999998
 40
0.9374999999999998
 40
1.0
 40
1.0
 40
1.0
 40
1.0
 10
25.17204602664191
 20
-4.124594946556705
 30
0.0
 10
24.91612087135468
 20
-4.050904941757441
 30
0.0
 10
24.65971583010398
 20
-3.971232112750311
 30
0.0
 10
24.08440911144814
 20
-3.779309774633674
 30
0.0
 10
23.76690121229123
 20
-3.664061861654496
 30
0.0
 10
23.12550477919388
 20
-3.416771728169522
 30
0.0
 10
22.8036276019867
 20
-3.284939401745348
 30
0.0
 10
22.16404240994623
 20
-3.007616888919678
 30
0.0
 10
21.8462209462941
 20
-2.862151042160264
 30
0.0
 10
21.20451659244512
 20
-2.55802129231391
 30
0.0
 10
20.88272316494056
 20
-2.399654797869388
 30
0.0
 10
20.24377527481977
 20
-2.073577981174566
 30
0.0
 10
19.92547660819878
 20
-1.905697797710211
 30
0.0
 10
19.28353294996333
 20
-1.561140011086486
 30
0.0
 10
18.96185791533392
 20
-1.38479895068383
 30
0.0
 10
18.32361496270389
 20
-1.027605403963136
 30
0.0
 10
18.00467562412706
 20
-0.8463210871390956
 30
0.0
 10
17.36256136326219
 20
-0.4799378026400092
 30
0.0
 10
17.04103932204586
 20
-0.2951517026169626
 30
0.0
 10
16.40356869247881
 20
0.0738527157233406
 30
0.0
 10
16.08382544040361
 20
0.2588018818881537
 30
0.0
 10
15.12050128914873
 20
0.8114353522130813
 30
0.0
 10
14.48405809180557
 20
1.174740897054804
 30
0.0
 10
13.1995598082315
 20
1.875865674828361
 30
0.0
 10
12.56311403039624
 20
2.211554508015283
 30
0.0
 10
11.59979397252096
 20
2.68220755751986
 30
0.0
 10
11.28008570852535
 20
2.833143597872166
 30
0.0
 10
10.64258316911759
 20
3.121307238415739
 30
0.0
 10
10.32105440199993
 20
3.259079777204505
 30
0.0
 10
10.0
 20
3.38909567978024
 30
0.0
  0
SPLINE
  5
1F9
330
1F
100
AcDbEntity
  8
외형선
  6
Continuous
370
    15
100
AcDbSpline
210
0.0
220
0.0
230
1.0
 70
    24
 71
     3
 72
    11
 73
     7
 74
     0
 42
0.000000001
 43
0.00000001
 40
0.0
 40
0.0
 40
0.0
 40
0.0
 40
0.2984767223317375
 40
0.5997118248059572
 40
0.8589418441054785
 40
1.0
 40
1.0
 40
1.0
 40
1.0
 10
10.0
 20
4.311057478880372
 30
0.0
 10
10.0
 20
4.221325499270179
 30
0.0
 10
9.999999999999972
 20
4.041032279701554
 30
0.0
 10
10.00000000000003
 20
3.789882179394226
 30
0.0
 10
10.0
 20
3.589322793551673
 30
0.0
 10
9.999999999999972
 20
3.480327233203965
 30
0.0
 10
9.999999999999972
 20
3.441918122727785
 30
0.0
  0
SPLINE
  5
1FA
330
1F
100
AcDbEntity
  8
0
  6
Continuous
 62
     1
370
    15
100
AcDbSpline
210
0.0
220
0.0
230
1.0
 70
     8
 71
     3
 72
    34
 73
    30
 74
     0
 42
0.000000001
 43
0.00000001
 40
0.0
 40
0.0
 40
0.0
 40
0.0
 40
0.0625000000000004
 40
0.0625000000000004
 40
0.1250000000000007
 40
0.1250000000000007
 40
0.1875000000000011
 40
0.1875000000000011
 40
0.2500000000000014
 40
0.2500000000000014
 40
0.3125000000000019
 40
0.3125000000000019
 40
0.3750000000000023
 40
0.3750000000000023
 40
0.4375000000000027
 40
0.4375000000000027
 40
0.5000000000000031
 40
0.5000000000000031
 40
0.5625000000000034
 40
0.5625000000000034
 40
0.6250000000000039
 40
0.6250000000000039
 40
0.7500000000000026
 40
0.7500000000000026
 40
0.8750000000000012
 40
0.8750000000000012
 40
0.9375000000000007
 40
0.9375000000000007
 40
1.0
 40
1.0
 40
1.0
 40
1.0
 10
25.36699999999999
 20
0.7007881815684698
 30
0.0
 10
25.04648999710005
 20
0.883676269771172
 30
0.0
 10
24.72456374353396
 20
1.065244731200991
 30
0.0
 10
24.08440911144814
 20
1.422064923617221
 30
0.0
 10
23.7669012122912
 20
1.597200006306608
 30
0.0
 10
23.12550477919385
 20
1.94063581216804
 30
0.0
 10
22.8036276019867
 20
2.108550483701265
 30
0.0
 10
22.16404240994623
 20
2.433393213968316
 30
0.0
 10
21.84622094629412
 20
2.590369895769044
 30
0.0
 10
21.20451659244512
 20
2.892905587027769
 30
0.0
 10
20.88272316494053
 20
3.038098324683219
 30
0.0
 10
20.24377527481974
 20
3.313446722698558
 30
0.0
 10
19.92547660819884
 20
3.44380222429939
 30
0.0
 10
19.28353294996333
 20
3.689084048859527
 30
0.0
 10
18.96185791533392
 20
3.803717326554278
 30
0.0
 10
18.32361496270391
 20
4.014742251833681
 30
0.0
 10
18.00467562412706
 20
4.111429253150774
 30
0.0
 10
17.36256136326219
 20
4.286195903077981
 30
0.0
 10
17.04103932204586
 20
4.364087012113799
 30
0.0
 10
16.40356869247881
 20
4.499447666888102
 30
0.0
 10
16.08382544040364
 20
4.55721059080949
 30
0.0
 10
15.12050128914873
 20
4.699412962496524
 30
0.0
 10
14.48405809180554
 20
4.752224317555417
 30
0.0
 10
13.19955980823153
 20
4.771645164896967
 30
0.0
 10
12.56311403039626
 20
4.738195530605807
 30
0.0
 10
11.59979397252096
 20
4.624337927466073
 30
0.0
 10
11.28008570852535
 20
4.575881047886725
 30
0.0
 10
10.64258316911756
 20
4.458721859351442
 30
0.0
 10
10.32105440199993
 20
4.389764855818584
 30
0.0
 10
9.999999999999972
 20
4.311057478880372
 30
0.0
  0
SPLINE
  5
1FB
330
1F
100
AcDbEntity
  8
0
  6
Continuous
 62
     1
370
    15
100
AcDbSpline
210
0.0
220
0.0
230
1.0
 70
     8
 71
     3
 72
    14
 73
    10
 74
     0
 42
0.000000001
 43
0.00000001
 40
0.0
 40
0.0
 40
0.0
 40
0.0
 40
0.25
 40
0.25
 40
0.5
 40
0.5
 40
0.75
 40
0.75
 40
1.0
 40
1.0
 40
1.0
 40
1.0
 10
25.87499999999997
 20
0.4754489942777624
 30
0.0
 10
25.875
 20
0.4729101205583319
 30
0.0
 10
25.86063742808858
 20
0.4750796945177242
 30
0.0
 10
25.80560225303617
 20
0.4913906085446058
 30
0.0
 10
25.7645770783765
 20
0.5058069955849405
 30
0.0
 10
25.66627500079485
 20
0.5464282905556317
 30
0.0
 10
25.60895420815677
 20
0.5726715150269186
 30
0.0
 10
25.48884334965652
 20
0.6330052548757763
 30
0.0
 10
25.42759980734144
 20
0.6662089709046697
 30
0.0
 10
25.36699999999999
 20
0.7007881815684627
 30
0.0
  0
LINE
  5
1FC
330
1F
100
AcDbEntity
  8
외형선
  6
Continuous
370
    15
100
AcDbLine
 10
10.0
 20
2.027267581791833
 30
0.0
 11
10.0
 21
3.38909567978024
 31
0.0
  0
SPLINE
  5
1FD
330
1F
100
AcDbEntity
  8
0
  6
Continuous
 62
     1
370
    15
100
AcDbSpline
210
0.0
220
0.0
230
1.0
 70
     8
 71
     3
 72
    12
 73
     8
 74
     0
 42
0.000000001
 43
0.00000001
 40
0.0
 40
0.0
 40
0.0
 40
0.0
 40
0.4999999999999991
 40
0.4999999999999991
 40
0.7499999999999996
 40
0.7499999999999996
 40
1.0
 40
1.0
 40
1.0
 40
1.0
 10
25.36699999999999
 20
2.282169185011242
 30
0.0
 10
25.49833337368833
 20
2.215661987162008
 30
0.0
 10
25.61869258647803
 20
2.116685366055378
 30
0.0
 10
25.76046608005473
 20
1.955500952503726
 30
0.0
 10
25.80046751595583
 20
1.90029227419123
 30
0.0
 10
25.85836888648853
 20
1.793829313899892
 30
0.0
 10
25.87499999999997
 20
1.744624564025074
 30
0.0
 10
25.87499999999997
 20
1.704240479577521
 30
0.0
  0
LINE
  5
1FE
330
1F
100
AcDbEntity
  8
0
  6
Continuous
 62
     1
370
    15
100
AcDbLine
 10
25.87499999999997
 20
0.4754489942777624
 30
0.0
 11
25.87499999999997
 21
1.704240479577507
 31
0.0
  0
SPLINE
  5
1FF
330
1F
100
AcDbEntity
  8
0
  6
Continuous
 62
     1
370
    15
100
AcDbSpline
210
0.0
220
0.0
230
1.0
 70
     8
 71
     3
 72
    13
 73
     9
 74
     0
 42
0.000000001
 43
0.00000001
 40
0.0
 40
0.0
 40
0.0
 40
0.0
 40
0.0725583645514267
 40
0.234873322750574
 40
0.4261927765261568
 40
0.6174986363815831
 40
0.8087648573787026
 40
1.0
 40
1.0
 40
1.0
 40
1.0
 10
16.52890692004289
 20
4.745801169122004
 30
0.0
 10
16.7426075526482
 20
4.749795462922862
 30
0.0
 10
17.43436208659077
 20
4.762725096368314
 30
0.0
 10
18.6898535840846
 20
4.622568664809478
 30
0.0
 10
20.29546970365402
 20
4.307844277762797
 30
0.0
 10
21.98627757102469
 20
3.783842665140014
 30
0.0
 10
23.67677656060954
 20
3.111206566759137
 30
0.0
 10
24.80362270575711
 20
2.558500009723844
 30
0.0
 10
25.36699999999999
 20
2.282169185011242
 30
0.0
  0
SPLINE
  5
200
330
1F
100
AcDbEntity
  8
0
  6
Continuous
 62
     1
370
    15
100
AcDbSpline
210
0.0
220
0.0
230
1.0
 70
     8
 71
     3
 72
    10
 73
     6
 74
     0
 42
0.000000001
 43
0.00000001
 40
0.0
 40
0.0
 40
0.0
 40
0.0
 40
0.0674117049376419
 40
0.5337256992035125
 40
1.0
 40
1.0
 40
1.0
 40
1.0
 10
13.62406669474373
 20
-4.749090024756747
 30
0.0
 10
13.54262910506904
 20
-4.753017333612163
 30
0.0
 10
12.89785481059343
 20
-4.784111424271714
 30
0.0
 10
11.68983611072025
 20
-4.6609772442077
 30
0.0
 10
10.56326272024094
 20
-4.426260832303427
 30
0.0
 10
9.999999999999972
 20
-4.308907621432596
 30
0.0
  0
LINE
  5
201
330
1F
100
AcDbEntity
  8
외형선
  6
Continuous
370
    15
100
AcDbLine
 10
10.0
 20
-4.308907621432596
 30
0.0
 11
9.999999999999972
 21
-3.345971775523267
 31
0.0
  0
LINE
  5
202
330
1F
100
AcDbEntity
  8
외형선
  6
Continuous
370
    15
100
AcDbLine
 10
9.499858198091346
 20
3.585527532264265
 30
0.0
 11
9.499858198091346
 21
4.763574928723898
 31
0.0
  0
SPLINE
  5
203
330
1F
100
AcDbEntity
  8
외형선
  6
Continuous
370
    15
100
AcDbSpline
210
0.0
220
0.0
230
1.0
 70
     8
 71
     3
 72
     8
 73
     4
 74
     0
 42
0.000000001
 43
0.00000001
 40
0.0
 40
0.0
 40
0.0
 40
0.0
 40
1.0
 40
1.0
 40
1.0
 40
1.0
 10
10.0
 20
3.38909567978024
 30
0.0
 10
9.833003457076984
 20
3.456723490269397
 30
0.0
 10
9.666136999314375
 20
3.522257004596085
 30
0.0
 10
9.499858198091346
 20
3.585525289564046
 30
0.0
  0
SPLINE
  5
204
330
1F
100
AcDbEntity
  8
외형선
  6
Continuous
370
    15
100
AcDbSpline
210
0.0
220
0.0
230
1.0
 70
     8
 71
     3
 72
     8
 73
     4
 74
     0
 42
0.000000001
 43
0.00000001
 40
0.0
 40
0.0
 40
0.0
 40
0.0
 40
1.0
 40
1.0
 40
1.0
 40
1.0
 10
10.0
 20
2.027267581791818
 30
0.0
 10
9.833003457077012
 20
2.114351721592953
 30
0.0
 10
9.666136999314404
 20
2.200171198962877
 30
0.0
 10
9.499858198091346
 20
2.284495825273993
 30
0.0
  0
LINE
  5
205
330
1F
100
AcDbEntity
  8
외형선
  6
Continuous
370
    15
100
AcDbLine
 10
9.499858198091346
 20
-3.134703408941718
 30
0.0
 11
9.499858198091346
 21
2.284495337182122
 31
0.0
  0
SPLINE
  5
206
330
1F
100
AcDbEntity
  8
외형선
  6
Continuous
370
    15
100
AcDbSpline
210
0.0
220
0.0
230
1.0
 70
     8
 71
     3
 72
     8
 73
     4
 74
     0
 42
0.000000001
 43
0.00000001
 40
0.0
 40
0.0
 40
0.0
 40
0.0
 40
1.0
 40
1.0
 40
1.0
 40
1.0
 10
10.0
 20
-3.345971775523275
 30
0.0
 10
9.833003457076984
 20
-3.277516075459388
 30
0.0
 10
9.666136999314375
 20
-3.207026722616419
 30
0.0
 10
9.499858198091346
 20
-3.134705972530718
 30
0.0
  0
SPLINE
  5
207
330
1F
100
AcDbEntity
  8
외형선
  6
Continuous
370
    15
100
AcDbSpline
210
0.0
220
0.0
230
1.0
 70
     8
 71
     3
 72
     8
 73
     4
 74
     0
 42
0.000000001
 43
0.00000001
 40
0.0
 40
0.0
 40
0.0
 40
0.0
 40
1.0
 40
1.0
 40
1.0
 40
1.0
 10
10.0
 20
-4.308907621432603
 30
0.0
 10
9.833003457077012
 20
-4.267967955851503
 30
0.0
 10
9.666136999314404
 20
-4.224397235543279
 30
0.0
 10
9.499858198091346
 20
-4.178326375194928
 30
0.0
  0
LINE
  5
208
330
1F
100
AcDbEntity
  8
외형선
  6
Continuous
370
    15
100
AcDbLine
 10
9.499858198091346
 20
-4.761425071276108
 30
0.0
 11
9.499858198091346
 21
-4.178326641864459
 31
0.0
  0
SPLINE
  5
209
330
1F
100
AcDbEntity
  8
외형선
  6
Continuous
370
    15
100
AcDbSpline
210
0.0
220
0.0
230
1.0
 70
     8
 71
     3
 72
     8
 73
     4
 74
     0
 42
0.000000001
 43
0.00000001
 40
0.0
 40
0.0
 40
0.0
 40
0.0
 40
1.0
 40
1.0
 40
1.0
 40
1.0
 10
10.0
 20
4.311057478880386
 30
0.0
 10
9.833003457077012
 20
4.270117813299279
 30
0.0
 10
9.666136999314404
 20
4.226547092991055
 30
0.0
 10
9.499858198091346
 20
4.18047623264269
 30
0.0
  0
LINE
  5
20A
330
1F
100
AcDbEntity
  8
외형선
  6
Continuous
370
    15
100
AcDbLine
 10
-49.3725
 20
0.0010749287238951
 30
0.0
 11
-49.3725
 21
4.763574928723898
 31
0.0
  0
LINE
  5
20B
330
1F
100
AcDbEntity
  8
외형선
  6
Continuous
370
    15
100
AcDbLine
 10
-49.3725
 20
-4.761425071276108
 30
0.0
 11
-49.3725
 21
0.0010749287238951
 31
0.0
  0
LINE
  5
20C
330
1F
100
AcDbEntity
  8
외형선
  6
Continuous
370
    15
100
AcDbLine
 10
-50.32500000000002
 20
0.0010749287238951
 30
0.0
 11
-50.32500000000002
 21
3.811074928723897
 31
0.0
  0
LINE
  5
20D
330
1F
100
AcDbEntity
  8
외형선
  6
Continuous
370
    15
100
AcDbLine
 10
-50.32500000000002
 20
-3.808925071276107
 30
0.0
 11
-50.32500000000002
 21
0.0010749287238951
 31
0.0
  0
SPLINE
  5
20E
330
1F
100
AcDbEntity
  8
외형선
  6
Continuous
370
    15
100
AcDbSpline
210
0.0
220
0.0
230
1.0
 70
    24
 71
     3
 72
    22
 73
    18
 74
     0
 42
0.000000001
 43
0.00000001
 40
0.0
 40
0.0
 40
0.0
 40
0.0
 40
0.1250000000000001
 40
0.1250000000000001
 40
0.2500000000000001
 40
0.2500000000000001
 40
0.3750000000000002
 40
0.3750000000000002
 40
0.5000000000000001
 40
0.5000000000000001
 40
0.6250000000000001
 40
0.6250000000000001
 40
0.7500000000000001
 40
0.7500000000000001
 40
0.875
 40
0.875
 40
1.0
 40
1.0
 40
1.0
 40
1.0
 10
10.0
 20
-3.345971775523068
 30
0.0
 10
10.0
 20
-3.195967357251554
 30
0.0
 10
10.0
 20
-2.983377165568143
 30
0.0
 10
9.999999999999972
 20
-2.440298716385456
 30
0.0
 10
10.0
 20
-2.110030740512272
 30
0.0
 10
9.999999999999972
 20
-1.397033233469912
 30
0.0
 10
9.999999999999972
 20
-1.01636940952433
 30
0.0
 10
9.999999999999972
 20
-0.2921630231603132
 30
0.0
 10
10.0
 20
0.050084418982884
 30
0.0
 10
10.0
 20
0.6447027327030028
 30
0.0
 10
10.0
 20
0.8975397639838789
 30
0.0
 10
10.0
 20
1.310274732104553
 30
0.0
 10
10.0
 20
1.471034609266091
 30
0.0
 10
10.00000000000003
 20
1.720858881151372
 30
0.0
 10
10.00000000000003
 20
1.810380020034884
 30
0.0
 10
10.0
 20
1.941482187409576
 30
0.0
 10
10.0
 20
1.996361304183608
 30
0.0
 10
10.0
 20
2.027267581790724
 30
0.0
  0
SPLINE
  5
20F
330
1F
100
AcDbEntity
  8
외형선
  6
Continuous
370
    15
100
AcDbSpline
210
0.0
220
0.0
230
1.0
 70
    24
 71
     3
 72
    12
 73
     8
 74
     0
 42
0.000000001
 43
0.00000001
 40
0.0
 40
0.0
 40
0.0
 40
0.0
 40
0.0012147723751463
 40
0.2469568013305398
 40
0.494226489719522
 40
0.7462884840497531
 40
0.9999999999999999
 40
0.9999999999999999
 40
0.9999999999999999
 40
0.9999999999999999
 10
10.0
 20
3.441918122727785
 30
0.0
 10
10.0
 20
3.442242739402204
 30
0.0
 10
10.00000000000017
 20
3.508235593053442
 30
0.0
 10
9.999999999999858
 20
3.648039679049759
 30
0.0
 10
10.00000000000009
 20
3.861251759264889
 30
0.0
 10
10.0
 20
4.083015001525212
 30
0.0
 10
9.999999999999972
 20
4.234878224995541
 30
0.0
 10
9.999999999999972
 20
4.3110574788722
 30
0.0
  0
LINE
  5
210
330
1F
100
AcDbEntity
  8
중심선
 48
0.8
100
AcDbLine
 10
-53.32500000000002
 20
0.0010749287238951
 30
0.0
 11
28.875
 21
0.0010749287239022
 31
0.0
  0
CIRCLE
  5
211
330
1F
100
AcDbEntity
  8
해칭선
100
AcDbCircle
 10
0.0
 20
0.0
 30
0.0
 40
3.000000000000001
  0
DIMENSION
  5
212
330
1F
100
AcDbEntity
  8
0
  6
Continuous
 62
     0
370
    15
100
AcDbDimension
  2
*D13
 10
-63.00750000000002
 20
-4.76142507127616
 30
0.0
 11
-63.00750000000003
 21
-1.977365998222261
 31
0.0
 70
   160
  1
%%c<>
 71
     2
 42
9.525000000000006
 52
-270.0
  3
SLDDIMSTYLE2
100
AcDbAlignedDimension
 13
-49.37250000000003
 23
4.763574928723898
 33
0.0
 14
-49.37250000000003
 24
-4.761425071276108
 34
0.0
 50
90.0000000000002
100
AcDbRotatedDimension
1001
ACAD
1000
DSTYLE
1002
{
1070
   171
1070
     6
1070
   273
1070
     7
1002
}
  0
DIMENSION
  5
213
330
1F
100
AcDbEntity
  8
0
  6
Continuous
 62
     0
370
    15
100
AcDbDimension
  2
*D14
 10
-50.32500000000002
 20
31.38537591188921
 30
0.0
 11
-12.22500000000002
 21
31.38537591188921
 31
0.0
 70
   160
  1
<>
 71
     2
 42
76.20000000000002
  3
SLDDIMSTYLE2
100
AcDbAlignedDimension
 13
25.875
 23
4.763574928723926
 33
0.0
 14
-50.32500000000002
 24
3.811074928723897
 34
0.0
 50
0.0000000000000053
100
AcDbRotatedDimension
1001
ACAD
1000
DSTYLE
1002
{
1070
   171
1070
     6
1070
   273
1070
     7
1002
}
  0
DIMENSION
  5
214
330
1F
100
AcDbEntity
  8
0
  6
Continuous
 62
     0
370
    15
100
AcDbDimension
  2
*D15
 10
10.0
 20
14.52381001296611
 30
0.0
 11
-9.291500000000013
 21
14.52381001296611
 31
0.0
 70
   160
  1
<>
 71
     2
 42
15.875
  3
SLDDIMSTYLE2
100
AcDbAlignedDimension
 13
25.875
 23
4.763574928723926
 33
0.0
 14
10.0
 24
4.311057478880372
 34
0.0
100
AcDbRotatedDimension
1001
ACAD
1000
DSTYLE
1002
{
1070
   171
1070
     6
1070
   273
1070
     7
1002
}
  0
DIMENSION
  5
215
330
1F
100
AcDbEntity
  8
0
  6
Continuous
 62
     0
370
    15
100
AcDbDimension
  2
*D16
 10
41.75941328107461
 20
-4.761425071276015
 30
0.0
 11
41.7594132810745
 21
24.49257492872398
 31
0.0
 70
   160
  1
%%c<>
 71
     2
 42
9.524999999999999
 52
-270.0
  3
SLDDIMSTYLE2
100
AcDbAlignedDimension
 13
25.875
 23
4.763574928723926
 33
0.0
 14
25.875
 24
-4.761425071276072
 34
0.0
 50
90.0000000000002
100
AcDbRotatedDimension
1001
ACAD
1000
DSTYLE
1002
{
1070
   171
1070
     6
1070
   273
1070
     7
1002
}
  0
INSERT
  5
216
330
1F
100
AcDbEntity
  8
해칭선
100
AcDbBlockReference
  2
SW_DOWELSYMBOL_0
 10
0.0
 20
0.0
 30
0.0
  0
SPLINE
  5
217
330
1F
100
AcDbEntity
  8
0
  6
Continuous
 62
     1
370
    15
100
AcDbSpline
210
0.0
220
0.0
230
1.0
 70
  1064
 71
     3
 72
    11
 73
     7
 74
     5
 42
0.000000001
 43
0.0000000001
 44
0.0
 40
0.0
 40
0.0
 40
0.0
 40
0.0
 40
0.7441337833226085
 40
1.178547088389454
 40
1.904664642713221
 40
2.314138589948064
 40
2.314138589948064
 40
2.314138589948064
 40
2.314138589948064
 10
21.55195666423768
 20
3.891771883410826
 30
0.0
 10
21.76742724002172
 20
4.014492044582717
 30
0.0
 10
22.10868606392568
 20
4.208854257234893
 30
0.0
 10
22.67235328768561
 20
4.503344540969774
 30
0.0
 10
23.17650385296239
 20
4.656500509953725
 30
0.0
 10
23.54657357373392
 20
4.735198017612503
 30
0.0
 10
23.6800140839072
 20
4.763574928723898
 30
0.0
 11
21.55195666423768
 21
3.891771883410826
 31
0.0
 11
22.20136670260717
 21
4.255092251057548
 31
0.0
 11
22.59011971872553
 21
4.448963373399117
 31
0.0
 11
23.28039665559157
 21
4.674273056120398
 31
0.0
 11
23.6800140839072
 21
4.763574928723898
 31
0.0
  0
LINE
  5
219
330
1F
100
AcDbEntity
  8
0
  6
Continuous
 62
     1
370
    15
100
AcDbLine
 10
25.87499999999997
 20
1.696800972376636
 30
0.0
 11
25.87499999999997
 21
2.477574928723898
 31
0.0
  0
SPLINE
  5
21C
330
1F
100
AcDbEntity
  8
0
  6
Continuous
 62
     1
370
    15
100
AcDbSpline
210
0.0
220
0.0
230
1.0
 70
  1064
 71
     3
 72
     9
 73
     5
 74
     3
 42
0.000000001
 43
0.0000000001
 44
0.0
 40
0.0
 40
0.0
 40
0.0
 40
0.0
 40
1.348784411014835
 40
2.23645369774093
 40
2.23645369774093
 40
2.23645369774093
 40
2.23645369774093
 10
21.53202135065737
 20
-3.896091802364396
 30
0.0
 10
21.92966471820221
 20
-4.109298841493576
 30
0.0
 10
22.58900728804899
 20
-4.462822849593642
 30
0.0
 10
23.30486815827599
 20
-4.676582053746517
 30
0.0
 10
23.58899999999997
 20
-4.761425071276093
 30
0.0
 11
21.53202135065737
 21
-3.896091802364396
 31
0.0
 11
22.74550819818938
 21
-4.484877891078675
 31
0.0
 11
23.58899999999997
 21
-4.761425071276093
 31
0.0
  0
LINE
  5
21D
330
1F
100
AcDbEntity
  8
0
  6
Continuous
 62
     1
370
    15
100
AcDbLine
 10
25.87499999999997
 20
-2.475425071276094
 30
0.0
 11
25.87499999999997
 21
0.4666161503663773
 31
0.0
  0
SPLINE
  5
221
330
1F
100
AcDbEntity
  8
0
  6
Continuous
 62
     1
370
    15
100
AcDbSpline
210
0.0
220
0.0
230
1.0
 70
     8
 71
     3
 72
    28
 73
    24
 74
     0
 42
0.000000001
 43
0.00000001
 40
0.2495680114762032
 40
0.2495680114762032
 40
0.2495680114762032
 40
0.2495680114762032
 40
0.2500000000000015
 40
0.2500000000000015
 40
0.3125000000000019
 40
0.3125000000000019
 40
0.3750000000000022
 40
0.3750000000000022
 40
0.4375000000000026
 40
0.4375000000000026
 40
0.500000000000003
 40
0.500000000000003
 40
0.5625000000000033
 40
0.5625000000000033
 40
0.6250000000000038
 40
0.6250000000000038
 40
0.7500000000000024
 40
0.7500000000000024
 40
0.8750000000000012
 40
0.8750000000000012
 40
0.9375000000000007
 40
0.9375000000000007
 40
1.0
 40
1.0
 40
1.0
 40
1.0
 10
21.53202135065737
 20
-3.896091802364396
 30
0.0
 10
21.52980396724726
 20
-3.895357017332813
 30
0.0
 10
21.5275864407019
 20
-3.894621796227916
 30
0.0
 10
21.20451659244512
 20
-3.787451434026835
 30
0.0
 10
20.88272316494053
 20
-3.672071879843635
 30
0.0
 10
20.24377527481977
 20
-3.42583500347088
 30
0.0
 10
19.92547660819886
 20
-3.294870129862666
 30
0.0
 10
19.28353294996333
 20
-3.017900690706995
 30
0.0
 10
18.96185791533389
 20
-2.872147011200909
 30
0.0
 10
18.32361496270394
 20
-2.569132872455455
 30
0.0
 10
18.00467562412709
 20
-2.411520862225316
 30
0.0
 10
17.36256136326219
 20
-2.085398018139124
 30
0.0
 10
17.04103932204586
 20
-1.917151236161232
 30
0.0
 10
16.40356869247884
 20
-1.573761179573509
 30
0.0
 10
16.08382544040361
 20
-1.397947076122577
 30
0.0
 10
15.12050128914873
 20
-0.861444599110726
 30
0.0
 10
14.48405809180554
 20
-0.4938032344903576
 30
0.0
 10
13.1995598082315
 20
0.2459923294124664
 30
0.0
 10
12.56311403039626
 20
0.6158986683994456
 30
0.0
 10
11.59979397252096
 20
1.159122375451403
 30
0.0
 10
11.28008570852535
 20
1.337718548487494
 30
0.0
 10
10.64258316911756
 20
1.687743549423061
 30
0.0
 10
10.32105440199993
 20
1.8598464727188
 30
0.0
 10
9.999999999999972
 20
2.027267581791833
 30
0.0
  0
ARC
  5
266
330
1F
100
AcDbEntity
  8
0
  6
Continuous
 62
     1
370
    15
100
AcDbCircle
 10
23.58899999999997
 20
2.477574928723898
 30
0.0
 40
2.285999999999999
100
AcDbArc
 50
0.0
 51
90.0
  0
ARC
  5
267
102
{ACAD_REACTORS
102
}
330
1F
100
AcDbEntity
  8
0
  6
Continuous
 62
     1
370
    15
100
AcDbCircle
 10
23.58899999999997
 20
-2.475425071276094
 30
0.0
 40
2.285999999999999
100
AcDbArc
 50
270.0
 51
0.0
  0
DIMENSION
  5
268
102
{ACAD_REACTORS
102
}
102
{ACAD_XDICTIONARY
360
269
102
}
330
1F
100
AcDbEntity
  8
0
  6
Continuous
 62
     0
370
    15
100
AcDbDimension
  2
*D18
 10
23.58899999999997
 20
-2.475425071276094
 30
0.0
 11
38.14086048510539
 21
-22.08768674566051
 31
0.0
 70
   164
  1
<>
 71
     5
 42
2.286000000000004
  3
SLDDIMSTYLE2
100
AcDbRadialDimension
 15
24.95115603496751
 25
-4.311270090988142
 35
0.0
 40
0.0
1001
ACAD
1000
DSTYLE
1002
{
1070
   171
1070
     3
1002
}
1001
ACAD_DSTYLE_DIMRADIAL_EXTENSION
1070
   387
1070
     1
1070
   388
1040
4.71238898038469
1070
   390
1040
0.0
  0
ENDSEC
  0
SECTION
  2
OBJECTS
  0
DICTIONARY
  5
C
330
0
100
AcDbDictionary
281
     1
  3
ACAD_GROUP
350
D
  3
ACAD_IMAGE_VARS
350
149
  3
ACAD_LAYOUT
350
1A
  3
ACAD_MLINESTYLE
350
17
  3
ACAD_PLOTSETTINGS
350
19
  3
ACAD_PLOTSTYLENAME
350
E
  3
ACAD_SCALELIST
350
47
  3
APPDATA
350
147
  3
DWGPROPS
350
275
  0
DICTIONARY
  5
1EB
330
2
100
AcDbDictionary
280
     1
281
     1
  3
ACAD_LAYERSTATES
360
1EC
  0
DICTIONARY
  5
269
330
268
100
AcDbDictionary
280
     1
281
     1
  0
DICTIONARY
  5
D
102
{ACAD_REACTORS
330
C
102
}
330
C
100
AcDbDictionary
281
     1
  0
RASTERVARIABLES
  5
149
102
{ACAD_REACTORS
330
C
102
}
330
C
100
AcDbRasterVariables
 90
        0
 70
     1
 71
     1
 72
     1
  0
DICTIONARY
  5
1A
102
{ACAD_REACTORS
330
C
102
}
330
C
100
AcDbDictionary
281
     1
  3
Layout1
350
1E
  3
Layout2
350
26
  3
Model
350
22
  0
DICTIONARY
  5
17
102
{ACAD_REACTORS
330
C
102
}
330
C
100
AcDbDictionary
281
     1
  3
Standard
350
18
  0
DICTIONARY
  5
19
102
{ACAD_REACTORS
330
C
102
}
330
C
100
AcDbDictionary
281
     1
  0
ACDBDICTIONARYWDFLT
  5
E
102
{ACAD_REACTORS
330
C
102
}
330
C
100
AcDbDictionary
281
     1
  3
Normal
350
F
100
AcDbDictionaryWithDefault
340
F
  0
DICTIONARY
  5
47
102
{ACAD_REACTORS
330
C
102
}
330
C
100
AcDbDictionary
281
     1
  3
A0
350
48
  3
A1
350
49
  3
A2
350
4A
  3
A3
350
4B
  3
A4
350
4C
  3
A5
350
4D
  3
A6
350
4E
  3
A7
350
4F
  3
A8
350
50
  3
A9
350
51
  3
B0
350
52
  3
B1
350
53
  3
B2
350
54
  3
B3
350
55
  3
B4
350
56
  3
B5
350
57
  3
B6
350
58
  3
B7
350
59
  3
B8
350
5A
  3
B9
350
5B
  3
C0
350
5C
  3
C1
350
5D
  3
C2
350
5E
  3
C3
350
5F
  3
C4
350
60
  3
C5
350
61
  3
C6
350
62
  3
C7
350
63
  3
C8
350
64
  3
C9
350
65
  3
D0
350
66
  3
D1
350
67
  3
D2
350
68
  0
DICTIONARY
  5
147
102
{ACAD_REACTORS
330
C
102
}
330
C
100
AcDbDictionary
281
     1
  0
XRECORD
  5
275
102
{ACAD_REACTORS
330
C
102
}
330
C
100
AcDbXrecord
280
     1
  1
DWGPROPS COOKIE
  2

  3

  4

  6

  7

  8
12017012
  9

300
=
301
=
302
=
303
=
304
=
305
=
306
=
307
=
308
=
309
=
 40
0.0
 41
2458296.319714711
 42
2458296.36652022
  1

 90
        0
  0
DICTIONARY
  5
1EC
102
{ACAD_REACTORS
330
1EB
102
}
330
1EB
100
AcDbDictionary
281
     1
  0
LAYOUT
  5
1E
102
{ACAD_REACTORS
330
1A
102
}
330
1A
100
AcDbPlotSettings
  1

  2
none_device
  4

  6

 40
0.0
 41
0.0
 42
0.0
 43
0.0
 44
0.0
 45
0.0
 46
0.0
 47
0.0
 48
0.0
 49
0.0
140
0.0
141
0.0
142
1.0
143
1.0
 70
   688
 72
     1
 73
     0
 74
     5
  7

 75
    16
147
1.0
148
0.0
149
0.0
100
AcDbLayout
  1
Layout1
 70
     1
 71
     1
 10
0.0
 20
0.0
 11
420.0
 21
297.0
 12
0.0
 22
0.0
 32
0.0
 14
1.000000000000000E+20
 24
1.000000000000000E+20
 34
1.000000000000000E+20
 15
-1.000000000000000E+20
 25
-1.000000000000000E+20
 35
-1.000000000000000E+20
146
0.0
 13
0.0
 23
0.0
 33
0.0
 16
1.0
 26
0.0
 36
0.0
 17
0.0
 27
1.0
 37
0.0
 76
     0
330
1B
  0
LAYOUT
  5
26
102
{ACAD_REACTORS
330
1A
102
}
330
1A
100
AcDbPlotSettings
  1

  2
none_device
  4

  6

 40
0.0
 41
0.0
 42
0.0
 43
0.0
 44
0.0
 45
0.0
 46
0.0
 47
0.0
 48
0.0
 49
0.0
140
0.0
141
0.0
142
1.0
143
1.0
 70
   688
 72
     1
 73
     0
 74
     5
  7

 75
    16
147
1.0
148
0.0
149
0.0
100
AcDbLayout
  1
Layout2
 70
     1
 71
     2
 10
0.0
 20
0.0
 11
0.0
 21
0.0
 12
0.0
 22
0.0
 32
0.0
 14
0.0
 24
0.0
 34
0.0
 15
0.0
 25
0.0
 35
0.0
146
0.0
 13
0.0
 23
0.0
 33
0.0
 16
1.0
 26
0.0
 36
0.0
 17
0.0
 27
1.0
 37
0.0
 76
     0
330
23
  0
LAYOUT
  5
22
102
{ACAD_REACTORS
330
1A
102
}
330
1A
100
AcDbPlotSettings
  1

  2
none_device
  4
ANSI_A_(11.00_x_8.50_Inches)
  6

 40
6.35
 41
19.05
 42
6.35000508
 43
19.05000254
 44
279.4
 45
215.9
 46
124.7638614825389
 47
98.33192124193558
 48
0.0
 49
0.0
140
0.0
141
0.0
142
0.0721855619565331
143
1.0
 70
  1696
 72
     0
 73
     0
 74
     0
  7

 75
     0
147
0.0235690232323232
148
0.0
149
0.0
100
AcDbLayout
  1
Model
 70
     1
 71
     0
 10
0.0
 20
0.0
 11
420.0
 21
297.0
 12
0.0
 22
0.0
 32
0.0
 14
1.000000000000000E+20
 24
1.000000000000000E+20
 34
1.000000000000000E+20
 15
-1.000000000000000E+20
 25
-1.000000000000000E+20
 35
-1.000000000000000E+20
146
0.0
 13
0.0
 23
0.0
 33
0.0
 16
1.0
 26
0.0
 36
0.0
 17
0.0
 27
1.0
 37
0.0
 76
     0
330
1F
331
29
  0
MLINESTYLE
  5
18
102
{ACAD_REACTORS
330
17
102
}
330
17
100
AcDbMlineStyle
  2
Standard
 70
     0
  3

 62
   256
 51
90.0
 52
90.0
 71
     2
 49
0.5
 62
   256
  6
BYLAYER
 49
-0.5
 62
   256
  6
BYLAYER
  0
ACDBPLACEHOLDER
  5
F
102
{ACAD_REACTORS
330
E
102
}
330
E
  0
SCALE
  5
48
102
{ACAD_REACTORS
330
47
102
}
330
47
100
AcDbScale
 70
     0
300
1:1
140
1.0
141
1.0
290
     1
  0
SCALE
  5
49
102
{ACAD_REACTORS
330
47
102
}
330
47
100
AcDbScale
 70
     0
300
1:2
140
1.0
141
2.0
290
     0
  0
SCALE
  5
4A
102
{ACAD_REACTORS
330
47
102
}
330
47
100
AcDbScale
 70
     0
300
1:4
140
1.0
141
4.0
290
     0
  0
SCALE
  5
4B
102
{ACAD_REACTORS
330
47
102
}
330
47
100
AcDbScale
 70
     0
300
1:5
140
1.0
141
5.0
290
     0
  0
SCALE
  5
4C
102
{ACAD_REACTORS
330
47
102
}
330
47
100
AcDbScale
 70
     0
300
1:8
140
1.0
141
8.0
290
     0
  0
SCALE
  5
4D
102
{ACAD_REACTORS
330
47
102
}
330
47
100
AcDbScale
 70
     0
300
1:10
140
1.0
141
10.0
290
     0
  0
SCALE
  5
4E
102
{ACAD_REACTORS
330
47
102
}
330
47
100
AcDbScale
 70
     0
300
1:16
140
1.0
141
16.0
290
     0
  0
SCALE
  5
4F
102
{ACAD_REACTORS
330
47
102
}
330
47
100
AcDbScale
 70
     0
300
1:20
140
1.0
141
20.0
290
     0
  0
SCALE
  5
50
102
{ACAD_REACTORS
330
47
102
}
330
47
100
AcDbScale
 70
     0
300
1:30
140
1.0
141
30.0
290
     0
  0
SCALE
  5
51
102
{ACAD_REACTORS
330
47
102
}
330
47
100
AcDbScale
 70
     0
300
1:40
140
1.0
141
40.0
290
     0
  0
SCALE
  5
52
102
{ACAD_REACTORS
330
47
102
}
330
47
100
AcDbScale
 70
     0
300
1:50
140
1.0
141
50.0
290
     0
  0
SCALE
  5
53
102
{ACAD_REACTORS
330
47
102
}
330
47
100
AcDbScale
 70
     0
300
1:100
140
1.0
141
100.0
290
     0
  0
SCALE
  5
54
102
{ACAD_REACTORS
330
47
102
}
330
47
100
AcDbScale
 70
     0
300
2:1
140
2.0
141
1.0
290
     0
  0
SCALE
  5
55
102
{ACAD_REACTORS
330
47
102
}
330
47
100
AcDbScale
 70
     0
300
4:1
140
4.0
141
1.0
290
     0
  0
SCALE
  5
56
102
{ACAD_REACTORS
330
47
102
}
330
47
100
AcDbScale
 70
     0
300
8:1
140
8.0
141
1.0
290
     0
  0
SCALE
  5
57
102
{ACAD_REACTORS
330
47
102
}
330
47
100
AcDbScale
 70
     0
300
10:1
140
10.0
141
1.0
290
     0
  0
SCALE
  5
58
102
{ACAD_REACTORS
330
47
102
}
330
47
100
AcDbScale
 70
     0
300
100:1
140
100.0
141
1.0
290
     0
  0
SCALE
  5
59
102
{ACAD_REACTORS
330
47
102
}
330
47
100
AcDbScale
 70
     0
300
1/128" = 1'-0"
140
0.0078125
141
12.0
290
     0
  0
SCALE
  5
5A
102
{ACAD_REACTORS
330
47
102
}
330
47
100
AcDbScale
 70
     0
300
1/64" = 1'-0"
140
0.015625
141
12.0
290
     0
  0
SCALE
  5
5B
102
{ACAD_REACTORS
330
47
102
}
330
47
100
AcDbScale
 70
     0
300
1/32" = 1'-0"
140
0.03125
141
12.0
290
     0
  0
SCALE
  5
5C
102
{ACAD_REACTORS
330
47
102
}
330
47
100
AcDbScale
 70
     0
300
1/16" = 1'-0"
140
0.0625
141
12.0
290
     0
  0
SCALE
  5
5D
102
{ACAD_REACTORS
330
47
102
}
330
47
100
AcDbScale
 70
     0
300
3/32" = 1'-0"
140
0.09375
141
12.0
290
     0
  0
SCALE
  5
5E
102
{ACAD_REACTORS
330
47
102
}
330
47
100
AcDbScale
 70
     0
300
1/8" = 1'-0"
140
0.125
141
12.0
290
     0
  0
SCALE
  5
5F
102
{ACAD_REACTORS
330
47
102
}
330
47
100
AcDbScale
 70
     0
300
3/16" = 1'-0"
140
0.1875
141
12.0
290
     0
  0
SCALE
  5
60
102
{ACAD_REACTORS
330
47
102
}
330
47
100
AcDbScale
 70
     0
300
1/4" = 1'-0"
140
0.25
141
12.0
290
     0
  0
SCALE
  5
61
102
{ACAD_REACTORS
330
47
102
}
330
47
100
AcDbScale
 70
     0
300
3/8" = 1'-0"
140
0.375
141
12.0
290
     0
  0
SCALE
  5
62
102
{ACAD_REACTORS
330
47
102
}
330
47
100
AcDbScale
 70
     0
300
1/2" = 1'-0"
140
0.5
141
12.0
290
     0
  0
SCALE
  5
63
102
{ACAD_REACTORS
330
47
102
}
330
47
100
AcDbScale
 70
     0
300
3/4" = 1'-0"
140
0.75
141
12.0
290
     0
  0
SCALE
  5
64
102
{ACAD_REACTORS
330
47
102
}
330
47
100
AcDbScale
 70
     0
300
1" = 1'-0"
140
1.0
141
12.0
290
     0
  0
SCALE
  5
65
102
{ACAD_REACTORS
330
47
102
}
330
47
100
AcDbScale
 70
     0
300
1-1/2" = 1'-0"
140
1.5
141
12.0
290
     0
  0
SCALE
  5
66
102
{ACAD_REACTORS
330
47
102
}
330
47
100
AcDbScale
 70
     0
300
3" = 1'-0"
140
3.0
141
12.0
290
     0
  0
SCALE
  5
67
102
{ACAD_REACTORS
330
47
102
}
330
47
100
AcDbScale
 70
     0
300
6" = 1'-0"
140
6.0
141
12.0
290
     0
  0
SCALE
  5
68
102
{ACAD_REACTORS
330
47
102
}
330
47
100
AcDbScale
 70
     0
300
1'-0" = 1'-0"
140
12.0
141
12.0
290
     0
  0
ENDSEC
  0
EOF
