  0
SECTION
  2
HEADER
  9
$ACADVER
  1
AC1015
  9
$ACADMAINTVER
 70
     6
  9
$DWGCODEPAGE
  3
ANSI_949
  9
$INSBASE
 10
0.0
 20
0.0
 30
0.0
  9
$EXTMIN
 10
1.000000000000000E+20
 20
1.000000000000000E+20
 30
1.000000000000000E+20
  9
$EXTMAX
 10
-1.000000000000000E+20
 20
-1.000000000000000E+20
 30
-1.000000000000000E+20
  9
$LIMMIN
 10
0.0
 20
0.0
  9
$LIMMAX
 10
420.0
 20
297.0
  9
$ORTHOMODE
 70
     1
  9
$REGENMODE
 70
     1
  9
$FILLMODE
 70
     1
  9
$QTEXTMODE
 70
     0
  9
$MIRRTEXT
 70
     1
  9
$LTSCALE
 40
1.0
  9
$ATTMODE
 70
     1
  9
$TEXTSIZE
 40
3.5
  9
$TRACEWID
 40
1.0
  9
$TEXTSTYLE
  7
Standard
  9
$CLAYER
  8
0
  9
$CELTYPE
  6
ByLayer
  9
$CECOLOR
 62
   256
  9
$CELTSCALE
 40
1.0
  9
$DISPSILH
 70
     0
  9
$DIMSCALE
 40
1.0
  9
$DIMASZ
 40
3.302
  9
$DIMEXO
 40
1.0
  9
$DIMDLI
 40
3.75
  9
$DIMRND
 40
0.0
  9
$DIMDLE
 40
0.0
  9
$DIMEXE
 40
1.0
  9
$DIMTP
 40
0.0
  9
$DIMTM
 40
0.0
  9
$DIMTXT
 40
3.5
  9
$DIMCEN
 40
2.5
  9
$DIMTSZ
 40
0.0
  9
$DIMTOL
 70
     0
  9
$DIMLIM
 70
     0
  9
$DIMTIH
 70
     1
  9
$DIMTOH
 70
     1
  9
$DIMSE1
 70
     0
  9
$DIMSE2
 70
     0
  9
$DIMTAD
 70
     1
  9
$DIMZIN
 70
     0
  9
$DIMBLK
  1

  9
$DIMASO
 70
     1
  9
$DIMSHO
 70
     1
  9
$DIMPOST
  1

  9
$DIMAPOST
  1

  9
$DIMALT
 70
     0
  9
$DIMALTD
 70
     3
  9
$DIMALTF
 40
0.0393700787401575
  9
$DIMLFAC
 40
1.0
  9
$DIMTOFL
 70
     1
  9
$DIMTVP
 40
0.0
  9
$DIMTIX
 70
     0
  9
$DIMSOXD
 70
     0
  9
$DIMSAH
 70
     0
  9
$DIMBLK1
  1

  9
$DIMBLK2
  1

  9
$DIMSTYLE
  2
ISO-25
  9
$DIMCLRD
 70
     0
  9
$DIMCLRE
 70
     0
  9
$DIMCLRT
 70
     0
  9
$DIMTFAC
 40
1.0
  9
$DIMGAP
 40
1.524
  9
$DIMJUST
 70
     0
  9
$DIMSD1
 70
     0
  9
$DIMSD2
 70
     0
  9
$DIMTOLJ
 70
     0
  9
$DIMTZIN
 70
     0
  9
$DIMALTZ
 70
     0
  9
$DIMALTTZ
 70
     0
  9
$DIMUPT
 70
     0
  9
$DIMDEC
 70
     2
  9
$DIMTDEC
 70
     2
  9
$DIMALTU
 70
     2
  9
$DIMALTTD
 70
     3
  9
$DIMTXSTY
  7
Standard
  9
$DIMAUNIT
 70
     0
  9
$DIMADEC
 70
     2
  9
$DIMALTRND
 40
0.0
  9
$DIMAZIN
 70
     0
  9
$DIMDSEP
 70
    44
  9
$DIMATFIT
 70
     3
  9
$DIMFRAC
 70
     0
  9
$DIMLDRBLK
  1

  9
$DIMLUNIT
 70
     2
  9
$DIMLWD
 70
    -2
  9
$DIMLWE
 70
    -2
  9
$DIMTMOVE
 70
     0
  9
$LUNITS
 70
     2
  9
$LUPREC
 70
     2
  9
$SKETCHINC
 40
1.0
  9
$FILLETRAD
 40
10.0
  9
$AUNITS
 70
     0
  9
$AUPREC
 70
     2
  9
$MENU
  1
.
  9
$ELEVATION
 40
0.0
  9
$PELEVATION
 40
0.0
  9
$THICKNESS
 40
0.0
  9
$LIMCHECK
 70
     0
  9
$CHAMFERA
 40
0.0
  9
$CHAMFERB
 40
0.0
  9
$CHAMFERC
 40
0.0
  9
$CHAMFERD
 40
0.0
  9
$SKPOLY
 70
     0
  9
$TDCREATE
 40
2458296.69600875
  9
$TDUCREATE
 40
2458296.32100875
  9
$TDUPDATE
 40
2458296.747333958
  9
$TDUUPDATE
 40
2458296.372333958
  9
$TDINDWG
 40
0.0010015741
  9
$TDUSRTIMER
 40
2458296.37133272
  9
$USRTIMER
 70
     1
  9
$ANGBASE
 50
0.0
  9
$ANGDIR
 70
     0
  9
$PDMODE
 70
     0
  9
$PDSIZE
 40
-1.0
  9
$PLINEWID
 40
0.0
  9
$SPLFRAME
 70
     0
  9
$SPLINETYPE
 70
     6
  9
$SPLINESEGS
 70
     8
  9
$HANDSEED
  5
271
  9
$SURFTAB1
 70
     6
  9
$SURFTAB2
 70
     6
  9
$SURFTYPE
 70
     6
  9
$SURFU
 70
     6
  9
$SURFV
 70
     6
  9
$UCSBASE
  2

  9
$UCSNAME
  2

  9
$UCSORG
 10
0.0
 20
0.0
 30
0.0
  9
$UCSXDIR
 10
1.0
 20
0.0
 30
0.0
  9
$UCSYDIR
 10
0.0
 20
1.0
 30
0.0
  9
$UCSORTHOREF
  2

  9
$UCSORTHOVIEW
 70
     0
  9
$UCSORGTOP
 10
0.0
 20
0.0
 30
0.0
  9
$UCSORGBOTTOM
 10
0.0
 20
0.0
 30
0.0
  9
$UCSORGLEFT
 10
0.0
 20
0.0
 30
0.0
  9
$UCSORGRIGHT
 10
0.0
 20
0.0
 30
0.0
  9
$UCSORGFRONT
 10
0.0
 20
0.0
 30
0.0
  9
$UCSORGBACK
 10
0.0
 20
0.0
 30
0.0
  9
$PUCSBASE
  2

  9
$PUCSNAME
  2

  9
$PUCSORG
 10
0.0
 20
0.0
 30
0.0
  9
$PUCSXDIR
 10
1.0
 20
0.0
 30
0.0
  9
$PUCSYDIR
 10
0.0
 20
1.0
 30
0.0
  9
$PUCSORTHOREF
  2

  9
$PUCSORTHOVIEW
 70
     0
  9
$PUCSORGTOP
 10
0.0
 20
0.0
 30
0.0
  9
$PUCSORGBOTTOM
 10
0.0
 20
0.0
 30
0.0
  9
$PUCSORGLEFT
 10
0.0
 20
0.0
 30
0.0
  9
$PUCSORGRIGHT
 10
0.0
 20
0.0
 30
0.0
  9
$PUCSORGFRONT
 10
0.0
 20
0.0
 30
0.0
  9
$PUCSORGBACK
 10
0.0
 20
0.0
 30
0.0
  9
$USERI1
 70
     0
  9
$USERI2
 70
     0
  9
$USERI3
 70
     0
  9
$USERI4
 70
     0
  9
$USERI5
 70
     0
  9
$USERR1
 40
0.0
  9
$USERR2
 40
0.0
  9
$USERR3
 40
0.0
  9
$USERR4
 40
0.0
  9
$USERR5
 40
0.0
  9
$WORLDVIEW
 70
     1
  9
$SHADEDGE
 70
     3
  9
$SHADEDIF
 70
    70
  9
$TILEMODE
 70
     1
  9
$MAXACTVP
 70
    64
  9
$PINSBASE
 10
0.0
 20
0.0
 30
0.0
  9
$PLIMCHECK
 70
     0
  9
$PEXTMIN
 10
1.000000000000000E+20
 20
1.000000000000000E+20
 30
1.000000000000000E+20
  9
$PEXTMAX
 10
-1.000000000000000E+20
 20
-1.000000000000000E+20
 30
-1.000000000000000E+20
  9
$PLIMMIN
 10
0.0
 20
0.0
  9
$PLIMMAX
 10
0.0
 20
0.0
  9
$UNITMODE
 70
     0
  9
$VISRETAIN
 70
     1
  9
$PLINEGEN
 70
     0
  9
$PSLTSCALE
 70
     1
  9
$TREEDEPTH
 70
  3020
  9
$CMLSTYLE
  2
Standard
  9
$CMLJUST
 70
     0
  9
$CMLSCALE
 40
20.0
  9
$PROXYGRAPHICS
 70
     1
  9
$MEASUREMENT
 70
     1
  9
$CELWEIGHT
370
    -1
  9
$ENDCAPS
280
     0
  9
$JOINSTYLE
280
     0
  9
$LWDISPLAY
290
     1
  9
$INSUNITS
 70
     4
  9
$HYPERLINKBASE
  1

  9
$STYLESHEET
  1

  9
$XEDIT
290
     1
  9
$CEPSNTYPE
380
     0
  9
$PSTYLEMODE
290
     1
  9
$FINGERPRINTGUID
  2
{2C42E43E-88B9-4F9F-8D09-945C49AEFB3F}
  9
$VERSIONGUID
  2
{FAEB1C32-E019-11D5-929B-00C0DF256EC4}
  9
$EXTNAMES
290
     1
  9
$PSVPSCALE
 40
0.0
  9
$OLESTARTUP
290
     0
  0
ENDSEC
  0
SECTION
  2
CLASSES
  0
CLASS
  1
ACDBDICTIONARYWDFLT
  2
AcDbDictionaryWithDefault
  3
ObjectDBX Classes
 90
        0
280
     0
281
     0
  0
CLASS
  1
VISUALSTYLE
  2
AcDbVisualStyle
  3
ObjectDBX Classes
 90
     4095
280
     0
281
     0
  0
CLASS
  1
MATERIAL
  2
AcDbMaterial
  3
ObjectDBX Classes
 90
     1153
280
     0
281
     0
  0
CLASS
  1
SCALE
  2
AcDbScale
  3
ObjectDBX Classes
 90
     1153
280
     0
281
     0
  0
CLASS
  1
SUN
  2
AcDbSun
  3
SCENEOE
 90
     1153
280
     0
281
     0
  0
CLASS
  1
ACDBPLACEHOLDER
  2
AcDbPlaceHolder
  3
ObjectDBX Classes
 90
        0
280
     0
281
     0
  0
CLASS
  1
LAYOUT
  2
AcDbLayout
  3
ObjectDBX Classes
 90
        0
280
     0
281
     0
  0
CLASS
  1
TABLESTYLE
  2
AcDbTableStyle
  3
ObjectDBX Classes
 90
     4095
280
     0
281
     0
  0
CLASS
  1
MLEADERSTYLE
  2
AcDbMLeaderStyle
  3
ACDB_MLEADERSTYLE_CLASS
 90
     4095
280
     0
281
     0
  0
CLASS
  1
RASTERVARIABLES
  2
AcDbRasterVariables
  3
ISM
 90
        0
280
     0
281
     0
  0
CLASS
  1
DIMASSOC
  2
AcDbDimAssoc
  3
"AcDbDimAssoc|Product Desc:     AcDim ARX App For Dimension|Company:          Autodesk, Inc.|WEB Address:      www.autodesk.com"
 90
        0
280
     0
281
     0
  0
ENDSEC
  0
SECTION
  2
TABLES
  0
TABLE
  2
VPORT
  5
8
330
0
100
AcDbSymbolTable
 70
     1
  0
VPORT
  5
29
330
8
100
AcDbSymbolTableRecord
100
AcDbViewportTableRecord
  2
*Active
 70
     0
 10
0.0
 20
0.0
 11
1.0
 21
1.0
 12
-14.46247687908317
 22
11.9556890168044
 13
0.0
 23
0.0
 14
10.0
 24
10.0
 15
10.0
 25
10.0
 16
0.0
 26
0.0
 36
1.0
 17
0.0
 27
0.0
 37
0.0
 40
292.8725448463454
 41
1.798434442270058
 42
50.0
 43
0.0
 44
0.0
 50
0.0
 51
0.0
 71
    16
 72
  2000
 73
     1
 74
     3
 75
     0
 76
     0
 77
     0
 78
     0
281
     0
 65
     1
110
0.0
120
0.0
130
0.0
111
1.0
121
0.0
131
0.0
112
0.0
122
1.0
132
0.0
 79
     0
146
0.0
  0
ENDTAB
  0
TABLE
  2
LTYPE
  5
5
330
0
100
AcDbSymbolTable
 70
     6
  0
LTYPE
  5
14
330
5
100
AcDbSymbolTableRecord
100
AcDbLinetypeTableRecord
  2
ByBlock
 70
     0
  3

 72
    65
 73
     0
 40
0.0
  0
LTYPE
  5
15
330
5
100
AcDbSymbolTableRecord
100
AcDbLinetypeTableRecord
  2
ByLayer
 70
     0
  3

 72
    65
 73
     0
 40
0.0
  0
LTYPE
  5
16
330
5
100
AcDbSymbolTableRecord
100
AcDbLinetypeTableRecord
  2
Continuous
 70
     0
  3
Solid line
 72
    65
 73
     0
 40
0.0
  0
LTYPE
  5
6A
330
5
100
AcDbSymbolTableRecord
100
AcDbLinetypeTableRecord
  2
HIDDEN
 70
     0
  3
Hidden __ __ __ __ __ __ __ __ __ __ __ __ __ __
 72
    65
 73
     2
 40
1.905
 49
1.27
 74
     0
 49
-0.635
 74
     0
  0
LTYPE
  5
6B
330
5
100
AcDbSymbolTableRecord
100
AcDbLinetypeTableRecord
  2
PHANTOM
 70
     0
  3
Phantom ______  __  __  ______  __  __  ______
 72
    65
 73
     6
 40
12.7
 49
6.35
 74
     0
 49
-1.27
 74
     0
 49
1.27
 74
     0
 49
-1.27
 74
     0
 49
1.27
 74
     0
 49
-1.27
 74
     0
  0
LTYPE
  5
6C
330
5
100
AcDbSymbolTableRecord
100
AcDbLinetypeTableRecord
  2
CENTER
 70
     0
  3
Center ____ _ ____ _ ____ _ ____ _ ____ _ ____
 72
    65
 73
     4
 40
10.16
 49
6.35
 74
     0
 49
-1.27
 74
     0
 49
1.27
 74
     0
 49
-1.27
 74
     0
  0
LTYPE
  5
6D
330
5
100
AcDbSymbolTableRecord
100
AcDbLinetypeTableRecord
  2
CENTERX2
 70
     0
  3
Center (2x) ________  __  ________  __  _____
 72
    65
 73
     4
 40
20.32
 49
12.7
 74
     0
 49
-2.54
 74
     0
 49
2.54
 74
     0
 49
-2.54
 74
     0
  0
LTYPE
  5
6E
330
5
100
AcDbSymbolTableRecord
100
AcDbLinetypeTableRecord
  2
DOT2
 70
     0
  3
Dot (.5x) ........................................
 72
    65
 73
     2
 40
0.635
 49
0.0
 74
     0
 49
-0.635
 74
     0
  0
ENDTAB
  0
TABLE
  2
LAYER
  5
2
102
{ACAD_XDICTIONARY
360
1E8
102
}
330
0
100
AcDbSymbolTable
 70
    18
  0
LAYER
  5
10
330
2
100
AcDbSymbolTableRecord
100
AcDbLayerTableRecord
  2
0
 70
     0
 62
     7
  6
Continuous
370
    -3
390
F
  0
LAYER
  5
6F
330
2
100
AcDbSymbolTableRecord
100
AcDbLayerTableRecord
  2
FORMAT
 70
     0
 62
     2
  6
Continuous
370
    -3
390
F
  0
LAYER
  5
70
330
2
100
AcDbSymbolTableRecord
100
AcDbLayerTableRecord
  2
외형선
 70
     0
 62
     4
  6
Continuous
370
    30
390
F
  0
LAYER
  5
71
330
2
100
AcDbSymbolTableRecord
100
AcDbLayerTableRecord
  2
숨은선
 70
     0
 62
     2
  6
HIDDEN
370
    15
390
F
  0
LAYER
  5
72
330
2
100
AcDbSymbolTableRecord
100
AcDbLayerTableRecord
  2
중심선
 70
     0
 62
     1
  6
CENTERX2
370
    -3
390
F
  0
LAYER
  5
73
330
2
100
AcDbSymbolTableRecord
100
AcDbLayerTableRecord
  2
파단선
 70
     0
 62
     4
  6
Continuous
370
    -3
390
F
  0
LAYER
  5
74
330
2
100
AcDbSymbolTableRecord
100
AcDbLayerTableRecord
  2
해칭선
 70
     0
 62
   100
  6
Continuous
370
    -3
390
F
  0
LAYER
  5
75
330
2
100
AcDbSymbolTableRecord
100
AcDbLayerTableRecord
  2
가는실선
 70
     0
 62
     4
  6
Continuous
370
    -3
390
F
  0
LAYER
  5
76
330
2
100
AcDbSymbolTableRecord
100
AcDbLayerTableRecord
  2
치수_보조선
 70
     0
 62
     4
  6
Continuous
370
    -3
390
F
  0
LAYER
  5
77
330
2
100
AcDbSymbolTableRecord
100
AcDbLayerTableRecord
  2
치수문자_일반주서
 70
     0
 62
     7
  6
Continuous
370
    15
390
F
  0
LAYER
  5
78
330
2
100
AcDbSymbolTableRecord
100
AcDbLayerTableRecord
  2
개별주서
 70
     0
 62
   100
  6
Continuous
370
    30
390
F
  0
LAYER
  5
79
330
2
100
AcDbSymbolTableRecord
100
AcDbLayerTableRecord
  2
중간선
 70
     0
 62
     2
  6
Continuous
370
    15
390
F
  0
LAYER
  5
7A
330
2
100
AcDbSymbolTableRecord
100
AcDbLayerTableRecord
  2
윤곽선
 70
     0
 62
     3
  6
Continuous
370
    40
390
F
  0
LAYER
  5
7B
330
2
100
AcDbSymbolTableRecord
100
AcDbLayerTableRecord
  2
중심마크
 70
     0
 62
   100
  6
Continuous
370
    30
390
F
  0
LAYER
  5
7C
330
2
100
AcDbSymbolTableRecord
100
AcDbLayerTableRecord
  2
가상선
 70
     0
 62
     4
  6
PHANTOM
370
    -3
390
F
  0
LAYER
  5
7D
330
2
100
AcDbSymbolTableRecord
100
AcDbLayerTableRecord
  2
특수지정선
 70
     0
 62
     5
  6
CENTERX2
370
    60
390
F
  0
LAYER
  5
7E
330
2
100
AcDbSymbolTableRecord
100
AcDbLayerTableRecord
  2
참조1
 70
     0
 62
    -4
  6
Continuous
370
    -3
390
F
  0
LAYER
  5
148
330
2
100
AcDbSymbolTableRecord
100
AcDbLayerTableRecord
  2
Defpoints
 70
     0
 62
     7
  6
Continuous
290
     0
370
    -3
390
F
  0
ENDTAB
  0
TABLE
  2
STYLE
  5
3
330
0
100
AcDbSymbolTable
 70
     2
  0
STYLE
  5
11
330
3
100
AcDbSymbolTableRecord
100
AcDbTextStyleTableRecord
  2
Standard
 70
     0
 40
0.0
 41
1.0
 50
0.0
 71
     0
 42
3.5
  3
txt
  4

  0
STYLE
  5
94
330
3
100
AcDbSymbolTableRecord
100
AcDbTextStyleTableRecord
  2
SLDTEXTSTYLE0
 70
     0
 40
0.0
 41
0.75
 50
0.0
 71
     0
 42
3.5
  3
TXT
  4

  0
ENDTAB
  0
TABLE
  2
VIEW
  5
6
330
0
100
AcDbSymbolTable
 70
     0
  0
ENDTAB
  0
TABLE
  2
UCS
  5
7
330
0
100
AcDbSymbolTable
 70
     0
  0
ENDTAB
  0
TABLE
  2
APPID
  5
9
330
0
100
AcDbSymbolTable
 70
     2
  0
APPID
  5
12
330
9
100
AcDbSymbolTableRecord
100
AcDbRegAppTableRecord
  2
ACAD
 70
     0
  0
APPID
  5
152
330
9
100
AcDbSymbolTableRecord
100
AcDbRegAppTableRecord
  2
ACAD_DSTYLE_DIMRADIAL_EXTENSION
 70
     0
  0
ENDTAB
  0
TABLE
  2
DIMSTYLE
  5
A
330
0
100
AcDbSymbolTable
 70
     5
100
AcDbDimStyleTable
  0
DIMSTYLE
105
27
330
A
100
AcDbSymbolTableRecord
100
AcDbDimStyleTableRecord
  2
ISO-25
 70
     0
 41
2.5
 42
0.625
 43
3.75
 44
1.25
 73
     0
 74
     0
 77
     1
 78
     8
140
2.5
141
2.5
143
0.03937007874016
147
0.625
171
     3
172
     1
178
     0
271
     2
272
     2
274
     3
278
    44
283
     0
284
     8
340
11
  0
DIMSTYLE
105
CA
330
A
100
AcDbSymbolTableRecord
100
AcDbDimStyleTableRecord
  2
SLDDIMSTYLE0
 70
     0
 41
3.302
 44
0.0
 45
0.000000001
 73
     0
 74
     0
 77
     1
 78
     4
 79
     1
140
3.5
147
0.875
172
     1
173
     1
178
     0
271
     2
272
     2
276
     2
284
    12
289
     0
340
94
  0
DIMSTYLE
105
D8
330
A
100
AcDbSymbolTableRecord
100
AcDbDimStyleTableRecord
  2
SLDDIMSTYLE1
 70
     0
 41
3.302
 44
0.0
 45
0.000000001
 73
     0
 74
     0
 77
     1
 78
     4
 79
     1
140
3.5
143
0.0393700787401575
147
0.875
148
0.000000001
170
     1
173
     1
178
     0
271
     2
272
     2
276
     2
284
    12
340
94
  0
DIMSTYLE
105
EC
102
{ACAD_REACTORS
330
193
330
1A0
330
1AD
330
1BD
330
1DC
330
20F
330
210
330
211
330
212
330
263
102
}
330
A
100
AcDbSymbolTableRecord
100
AcDbDimStyleTableRecord
  2
SLDDIMSTYLE2
 70
     0
 41
3.302
 44
0.0
 45
0.000000001
 73
     0
 74
     0
 77
     1
 78
    12
 79
     3
140
3.5
143
0.0393700787401575
147
0.875
148
0.000000001
170
     1
172
     1
173
     1
178
     0
271
     2
272
     2
276
     2
284
    12
289
     0
340
94
  0
DIMSTYLE
105
102
330
A
100
AcDbSymbolTableRecord
100
AcDbDimStyleTableRecord
  2
SLDDIMSTYLE3
 70
     0
 41
3.302
 44
0.0
 45
0.000000001
 73
     0
 74
     0
 77
     1
 78
    12
 79
     3
140
3.5
143
0.0393700787401575
147
0.875
148
0.000000001
170
     1
173
     1
178
     0
271
     2
272
     2
276
     2
284
    12
340
94
  0
ENDTAB
  0
TABLE
  2
BLOCK_RECORD
  5
1
330
0
100
AcDbSymbolTable
 70
    19
  0
BLOCK_RECORD
  5
1F
330
1
100
AcDbSymbolTableRecord
100
AcDbBlockTableRecord
  2
*Model_Space
340
22
  0
BLOCK_RECORD
  5
1B
330
1
100
AcDbSymbolTableRecord
100
AcDbBlockTableRecord
  2
*Paper_Space
340
1E
  0
BLOCK_RECORD
  5
23
330
1
100
AcDbSymbolTableRecord
100
AcDbBlockTableRecord
  2
*Paper_Space0
340
26
  0
BLOCK_RECORD
  5
7F
330
1
100
AcDbSymbolTableRecord
100
AcDbBlockTableRecord
  2
블럭10
340
0
102
{BLKREFS
331
C2
102
}
  0
BLOCK_RECORD
  5
CB
330
1
100
AcDbSymbolTableRecord
100
AcDbBlockTableRecord
  2
_D
340
0
  0
BLOCK_RECORD
  5
D9
330
1
100
AcDbSymbolTableRecord
100
AcDbBlockTableRecord
  2
_D_1
340
0
  0
BLOCK_RECORD
  5
ED
330
1
100
AcDbSymbolTableRecord
100
AcDbBlockTableRecord
  2
_D_2
340
0
  0
BLOCK_RECORD
  5
103
330
1
100
AcDbSymbolTableRecord
100
AcDbBlockTableRecord
  2
_D_3
340
0
  0
BLOCK_RECORD
  5
11C
330
1
100
AcDbSymbolTableRecord
100
AcDbBlockTableRecord
  2
SW_DOWELSYMBOL_0
340
0
102
{BLKREFS
331
0
331
1CD
331
213
102
}
  0
BLOCK_RECORD
  5
194
330
1
100
AcDbSymbolTableRecord
100
AcDbBlockTableRecord
  2
*D8
340
0
  0
BLOCK_RECORD
  5
1A1
330
1
100
AcDbSymbolTableRecord
100
AcDbBlockTableRecord
  2
*D9
340
0
  0
BLOCK_RECORD
  5
1AE
330
1
100
AcDbSymbolTableRecord
100
AcDbBlockTableRecord
  2
*D10
340
0
  0
BLOCK_RECORD
  5
1BE
330
1
100
AcDbSymbolTableRecord
100
AcDbBlockTableRecord
  2
*D11
340
0
  0
BLOCK_RECORD
  5
1DF
330
1
100
AcDbSymbolTableRecord
100
AcDbBlockTableRecord
  2
*D12
340
0
  0
BLOCK_RECORD
  5
21F
330
1
100
AcDbSymbolTableRecord
100
AcDbBlockTableRecord
  2
*D13
340
0
  0
BLOCK_RECORD
  5
22B
330
1
100
AcDbSymbolTableRecord
100
AcDbBlockTableRecord
  2
*D14
340
0
  0
BLOCK_RECORD
  5
237
330
1
100
AcDbSymbolTableRecord
100
AcDbBlockTableRecord
  2
*D15
340
0
  0
BLOCK_RECORD
  5
246
330
1
100
AcDbSymbolTableRecord
100
AcDbBlockTableRecord
  2
*D16
340
0
  0
BLOCK_RECORD
  5
255
330
1
100
AcDbSymbolTableRecord
100
AcDbBlockTableRecord
  2
*D17
340
0
  0
BLOCK_RECORD
  5
266
330
1
100
AcDbSymbolTableRecord
100
AcDbBlockTableRecord
  2
*D18
340
0
  0
ENDTAB
  0
ENDSEC
  0
SECTION
  2
BLOCKS
  0
BLOCK
  5
20
330
1F
100
AcDbEntity
  8
0
100
AcDbBlockBegin
  2
*Model_Space
 70
     0
 10
0.0
 20
0.0
 30
0.0
  3
*Model_Space
  1
*Model_Space
  0
ENDBLK
  5
21
330
1F
100
AcDbEntity
  8
0
100
AcDbBlockEnd
  0
BLOCK
  5
1C
330
1B
100
AcDbEntity
 67
     1
  8
0
100
AcDbBlockBegin
  2
*Paper_Space
 70
     0
 10
0.0
 20
0.0
 30
0.0
  3
*Paper_Space
  1
*Paper_Space
  0
ENDBLK
  5
1D
330
1B
100
AcDbEntity
 67
     1
  8
0
100
AcDbBlockEnd
  0
BLOCK
  5
24
330
23
100
AcDbEntity
  8
0
100
AcDbBlockBegin
  2
*Paper_Space0
 70
     0
 10
0.0
 20
0.0
 30
0.0
  3
*Paper_Space0
  1
*Paper_Space0
  0
ENDBLK
  5
25
330
23
100
AcDbEntity
  8
0
100
AcDbBlockEnd
  0
BLOCK
  5
80
330
7F
100
AcDbEntity
  8
0
100
AcDbBlockBegin
  2
블럭10
 70
     2
 10
0.0
 20
0.0
 30
0.0
  3
블럭10
  1
블럭10
  0
ELLIPSE
  5
82
330
7F
100
AcDbEntity
  8
중심선
100
AcDbEllipse
 10
20.54032771741204
 20
12.0471743016438
 30
0.0
 11
6.600054785286829
 21
-1.261213355974178E-13
 31
0.0
210
0.0
220
0.0
230
1.0
 40
0.636358354079598
 41
0.9219305317359503
 42
6.513795318482858
  0
ELLIPSE
  5
83
330
7F
100
AcDbEntity
  8
중심선
100
AcDbEllipse
 10
20.54032771746488
 20
12.04717430159265
 30
0.0
 11
3.960054785062283
 21
1.540847449632565E-10
 31
0.0
210
0.0
220
0.0
230
1.0
 40
0.3939339440162632
 41
1.131841032648279
 42
5.62031148352944
  0
LINE
  5
84
330
7F
100
AcDbEntity
  8
중심선
100
AcDbLine
 10
2.268634060543552
 20
16.24717430164393
 30
0.0
 11
5.714909304380834
 21
16.24717430164393
 31
0.0
  0
LINE
  5
85
330
7F
100
AcDbEntity
  8
중심선
100
AcDbLine
 10
5.245725140726316
 20
7.84717430164391
 30
0.0
 11
8.692000384563599
 21
7.84717430164391
 31
0.0
  0
LINE
  5
86
330
7F
100
AcDbEntity
  8
중심선
100
AcDbLine
 10
15.74043728645272
 20
16.24717430164393
 30
0.0
 11
8.692000384563599
 21
7.84717430164391
 31
0.0
  0
LINE
  5
87
330
7F
100
AcDbEntity
  8
중심선
100
AcDbLine
 10
0.1404042013395286
 20
13.71084872107135
 30
0.0
 11
3.58671253028996
 21
13.71088815037384
 31
0.0
  0
LINE
  5
88
330
7F
100
AcDbEntity
  8
중심선
100
AcDbLine
 10
2.750260043222114
 20
10.84717430164391
 30
0.0
 11
6.196535287059397
 21
10.84717430164391
 31
0.0
  0
LINE
  5
89
330
7F
100
AcDbEntity
  8
중심선
100
AcDbLine
 10
12.29416204261559
 20
16.24717430164393
 30
0.0
 11
5.245725140726316
 21
7.84717430164391
 31
0.0
  0
LINE
  5
8A
330
7F
100
AcDbEntity
  8
중심선
100
AcDbLine
 10
10.72767329541681
 20
16.24717430164393
 30
0.0
 11
6.196535287059397
 21
10.84717430164391
 31
0.0
  0
LINE
  5
8B
330
7F
100
AcDbEntity
  8
중심선
100
AcDbLine
 10
7.28139805157953
 20
16.24717430164393
 30
0.0
 11
2.750260043222114
 21
10.84717430164391
 31
0.0
  0
LINE
  5
8C
330
7F
100
AcDbEntity
  8
중심선
100
AcDbLine
 10
5.714909304380834
 20
16.24717430164393
 30
0.0
 11
3.58671253028996
 21
13.71088815037384
 31
0.0
  0
LINE
  5
8D
330
7F
100
AcDbEntity
  8
중심선
100
AcDbLine
 10
2.268634060543552
 20
16.24717430164393
 30
0.0
 11
0.1404042013395286
 21
13.71084872107135
 31
0.0
  0
LINE
  5
8E
330
7F
100
AcDbEntity
  8
중심선
100
AcDbLine
 10
7.28139805157953
 20
16.24717430164393
 30
0.0
 11
10.72767329541681
 21
16.24717430164393
 31
0.0
  0
LINE
  5
8F
330
7F
100
AcDbEntity
  8
중심선
100
AcDbLine
 10
12.29416204261559
 20
16.24717430164393
 30
0.0
 11
15.74043728645272
 21
16.24717430164393
 31
0.0
  0
LINE
  5
90
330
7F
100
AcDbEntity
  8
중심선
100
AcDbLine
 10
19.22036997980202
 20
11.08717430171403
 30
0.0
 11
23.66174974927406
 21
11.08717430171406
 31
0.0
  0
LINE
  5
91
330
7F
100
AcDbEntity
  8
중심선
100
AcDbLine
 10
19.22039502424796
 20
13.00717430171391
 30
0.0
 11
19.22036997980202
 21
11.08717430171403
 31
0.0
  0
LINE
  5
92
330
7F
100
AcDbEntity
  8
중심선
100
AcDbLine
 10
19.22039502424796
 20
13.00717430171391
 30
0.0
 11
26.96566020931264
 21
13.00717430171391
 31
0.0
  0
LINE
  5
93
330
7F
100
AcDbEntity
  8
중심선
100
AcDbLine
 10
22.22332737316547
 20
13.45928029700563
 30
0.0
 11
24.52862924686651
 21
15.39360700705356
 31
0.0
  0
ATTDEF
  5
95
330
7F
100
AcDbEntity
  8
FORMAT
 62
     2
100
AcDbText
 10
3.448148490846466
 20
2.075366912832191
 30
0.0
 40
4.233333333333333
  1
EM639915
 41
0.75
  7
SLDTEXTSTYLE0
 11
3.448148490846466
 21
-0.0412997538344756
 31
0.0
100
AcDbAttributeDefinition
  3

  2
AUTOATTR0
 70
     0
 74
     1
  0
ENDBLK
  5
81
330
7F
100
AcDbEntity
  8
0
100
AcDbBlockEnd
  0
BLOCK
  5
CC
330
CB
100
AcDbEntity
  8
0
100
AcDbBlockBegin
  2
_D
 70
     0
 10
0.0
 20
0.0
 30
0.0
  3
_D
  1
_D
  0
SOLID
  5
CE
330
CB
100
AcDbEntity
  8
치수문자_일반주서
100
AcDbTrace
 10
-65.86500000000001
 20
6.351074928723887
 30
0.0
 11
-65.35700000000001
 21
9.653074928723886
 31
0.0
 12
-66.373
 22
9.653074928723886
 32
0.0
 13
-66.373
 23
9.653074928723886
 33
0.0
  0
SOLID
  5
CF
330
CB
100
AcDbEntity
  8
치수문자_일반주서
100
AcDbTrace
 10
-65.86500000000001
 20
-6.348925071276102
 30
0.0
 11
-66.373
 21
-9.650925071276102
 31
0.0
 12
-65.35700000000001
 22
-9.650925071276102
 32
0.0
 13
-65.35700000000001
 23
-9.650925071276102
 33
0.0
  0
LINE
  5
D0
330
CB
100
AcDbEntity
  8
치수문자_일반주서
100
AcDbLine
 10
-53.22999999999999
 20
6.351074928723888
 30
0.0
 11
-66.86500000000001
 21
6.351074928723887
 31
0.0
  0
LINE
  5
D1
330
CB
100
AcDbEntity
  8
치수문자_일반주서
100
AcDbLine
 10
-53.22999999999999
 20
-6.348925071276101
 30
0.0
 11
-66.86500000000001
 21
-6.348925071276102
 31
0.0
  0
LINE
  5
D2
330
CB
100
AcDbEntity
  8
치수문자_일반주서
100
AcDbLine
 10
-65.86500000000001
 20
6.351074928723887
 30
0.0
 11
-65.86500000000001
 21
12.70107492872389
 31
0.0
  0
LINE
  5
D3
330
CB
100
AcDbEntity
  8
치수문자_일반주서
100
AcDbLine
 10
-65.86500000000001
 20
6.351074928723887
 30
0.0
 11
-65.86500000000001
 21
-6.348925071276102
 31
0.0
  0
LINE
  5
D4
330
CB
100
AcDbEntity
  8
치수문자_일반주서
100
AcDbLine
 10
-65.86500000000001
 20
-6.348925071276102
 30
0.0
 11
-65.86500000000001
 21
-12.6989250712761
 31
0.0
  0
MTEXT
  5
D5
330
CB
100
AcDbEntity
  8
치수문자_일반주서
100
AcDbMText
 10
-70.37673708920184
 20
-11.09481525002539
 30
0.0
 40
3.5
 41
0.0
 71
     1
 72
     1
  1
%%c
  7
SLDTEXTSTYLE0
 11
-7.044195017643634E-15
 21
1.0
 31
0.0
 73
     1
 44
1.0
  0
MTEXT
  5
D6
330
CB
100
AcDbEntity
  8
치수문자_일반주서
100
AcDbMText
 10
-70.43020926586173
 20
-5.816377851651309
 30
0.0
 40
3.5
 41
0.0
 71
     1
 72
     1
  1
12.70
  7
SLDTEXTSTYLE0
 11
-7.044195017643634E-15
 21
1.0
 31
0.0
 73
     1
 44
1.0
  0
ENDBLK
  5
CD
330
CB
100
AcDbEntity
  8
0
100
AcDbBlockEnd
  0
BLOCK
  5
DA
330
D9
100
AcDbEntity
  8
0
100
AcDbBlockBegin
  2
_D_1
 70
     0
 10
0.0
 20
0.0
 30
0.0
  3
_D_1
  1
_D_1
  0
SOLID
  5
DC
330
D9
100
AcDbEntity
  8
치수문자_일반주서
100
AcDbTrace
 10
48.10000000000001
 20
31.20645983882083
 30
0.0
 11
44.79800000000001
 21
31.71445983882083
 31
0.0
 12
44.79800000000001
 22
30.69845983882083
 32
0.0
 13
44.79800000000001
 23
30.69845983882083
 33
0.0
  0
SOLID
  5
DD
330
D9
100
AcDbEntity
  8
치수문자_일반주서
100
AcDbTrace
 10
-53.49999999999999
 20
31.20645983882082
 30
0.0
 11
-50.19799999999999
 21
30.69845983882082
 31
0.0
 12
-50.19799999999999
 22
31.71445983882082
 32
0.0
 13
-50.19799999999999
 23
31.71445983882082
 33
0.0
  0
LINE
  5
DE
330
D9
100
AcDbEntity
  8
치수문자_일반주서
100
AcDbLine
 10
-8.114366081822656
 20
41.99934155486356
 30
0.0
 11
-8.825303567387156
 21
41.99934155486357
 31
0.0
  0
LINE
  5
DF
330
D9
100
AcDbEntity
  8
치수문자_일반주서
100
AcDbLine
 10
-8.825303567387156
 20
41.99934155486357
 30
0.0
 11
-8.825303567387197
 21
36.44309156380427
 31
0.0
  0
LINE
  5
E0
330
D9
100
AcDbEntity
  8
치수문자_일반주서
100
AcDbLine
 10
-8.825303567387197
 20
36.44309156380427
 30
0.0
 11
-8.114366081822697
 21
36.44309156380426
 31
0.0
  0
LINE
  5
E1
330
D9
100
AcDbEntity
  8
치수문자_일반주서
100
AcDbLine
 10
2.714366780314602
 20
41.99934155486348
 30
0.0
 11
3.425304265879102
 21
41.99934155486348
 31
0.0
  0
LINE
  5
E2
330
D9
100
AcDbEntity
  8
치수문자_일반주서
100
AcDbLine
 10
3.425304265879102
 20
41.99934155486348
 30
0.0
 11
3.425304265879063
 21
36.44309156380417
 31
0.0
  0
LINE
  5
E3
330
D9
100
AcDbEntity
  8
치수문자_일반주서
100
AcDbLine
 10
3.425304265879063
 20
36.44309156380417
 30
0.0
 11
2.714366780314563
 21
36.44309156380418
 31
0.0
  0
LINE
  5
E4
330
D9
100
AcDbEntity
  8
치수문자_일반주서
100
AcDbLine
 10
48.10000000000001
 20
5.050129940695
 30
0.0
 11
48.10000000000001
 21
32.20645983882083
 31
0.0
  0
LINE
  5
E5
330
D9
100
AcDbEntity
  8
치수문자_일반주서
100
AcDbLine
 10
-53.49999999999999
 20
6.081074928723896
 30
0.0
 11
-53.49999999999999
 21
32.20645983882083
 31
0.0
  0
LINE
  5
E6
330
D9
100
AcDbEntity
  8
치수문자_일반주서
100
AcDbLine
 10
48.10000000000001
 20
31.20645983882083
 30
0.0
 11
-53.49999999999999
 21
31.20645983882082
 31
0.0
  0
MTEXT
  5
E7
330
D9
100
AcDbEntity
  8
치수문자_일반주서
100
AcDbMText
 10
-9.792361204326191
 20
35.77166910468254
 30
0.0
 40
3.5
 41
0.0
 71
     1
 72
     1
  1

  7
SLDTEXTSTYLE0
 73
     1
 44
1.0
  0
MTEXT
  5
E8
330
D9
100
AcDbEntity
  8
치수문자_일반주서
100
AcDbMText
 10
-7.225694181211293
 20
40.95482847838315
 30
0.0
 40
3.5
 41
0.0
 71
     1
 72
     1
  1
4.00
  7
SLDTEXTSTYLE0
 73
     1
 44
1.0
  0
MTEXT
  5
E9
330
D9
100
AcDbEntity
  8
치수문자_일반주서
100
AcDbMText
 10
-9.811805607564782
 20
35.71819692802269
 30
0.0
 40
3.5
 41
0.0
 71
     1
 72
     1
  1
101.60
  7
SLDTEXTSTYLE0
 73
     1
 44
1.0
  0
MTEXT
  5
EA
330
D9
100
AcDbEntity
  8
치수문자_일반주서
100
AcDbMText
 10
5.724306422471964
 20
35.77166910468244
 30
0.0
 40
3.5
 41
0.0
 71
     1
 72
     1
  1

  7
SLDTEXTSTYLE0
 73
     1
 44
1.0
  0
ENDBLK
  5
DB
330
D9
100
AcDbEntity
  8
0
100
AcDbBlockEnd
  0
BLOCK
  5
EE
330
ED
100
AcDbEntity
  8
0
100
AcDbBlockBegin
  2
_D_2
 70
     0
 10
0.0
 20
0.0
 30
0.0
  3
_D_2
  1
_D_2
  0
SOLID
  5
F0
330
ED
100
AcDbEntity
  8
치수문자_일반주서
100
AcDbTrace
 10
48.10000000000003
 20
14.34489393989774
 30
0.0
 11
51.40200000000003
 21
13.83689393989773
 31
0.0
 12
51.40200000000003
 22
14.85289393989773
 32
0.0
 13
51.40200000000003
 23
14.85289393989773
 33
0.0
  0
SOLID
  5
F1
330
ED
100
AcDbEntity
  8
치수문자_일반주서
100
AcDbTrace
 10
32.22500000000005
 20
14.34489393989777
 30
0.0
 11
28.92300000000005
 21
14.85289393989778
 31
0.0
 12
28.92300000000005
 22
13.83689393989778
 32
0.0
 13
28.92300000000005
 23
13.83689393989778
 33
0.0
  0
LINE
  5
F2
330
ED
100
AcDbEntity
  8
치수문자_일반주서
100
AcDbLine
 10
34.74813391817737
 20
25.13777565594049
 30
0.0
 11
34.03719643261287
 21
25.13777565594049
 31
0.0
  0
LINE
  5
F3
330
ED
100
AcDbEntity
  8
치수문자_일반주서
100
AcDbLine
 10
34.03719643261287
 20
25.13777565594049
 30
0.0
 11
34.03719643261282
 21
19.58152566488119
 31
0.0
  0
LINE
  5
F4
330
ED
100
AcDbEntity
  8
치수문자_일반주서
100
AcDbLine
 10
34.03719643261282
 20
19.58152566488119
 30
0.0
 11
34.74813391817732
 21
19.58152566488118
 31
0.0
  0
LINE
  5
F5
330
ED
100
AcDbEntity
  8
치수문자_일반주서
100
AcDbLine
 10
45.57686678031463
 20
25.13777565594039
 30
0.0
 11
46.28780426587913
 21
25.13777565594038
 31
0.0
  0
LINE
  5
F6
330
ED
100
AcDbEntity
  8
치수문자_일반주서
100
AcDbLine
 10
46.28780426587913
 20
25.13777565594038
 30
0.0
 11
46.28780426587908
 21
19.58152566488108
 31
0.0
  0
LINE
  5
F7
330
ED
100
AcDbEntity
  8
치수문자_일반주서
100
AcDbLine
 10
46.28780426587908
 20
19.58152566488108
 30
0.0
 11
45.57686678031458
 21
19.58152566488108
 31
0.0
  0
LINE
  5
F8
330
ED
100
AcDbEntity
  8
치수문자_일반주서
100
AcDbLine
 10
48.10000000000001
 20
5.050129940695
 30
0.0
 11
48.10000000000003
 21
15.34489393989774
 31
0.0
  0
LINE
  5
F9
330
ED
100
AcDbEntity
  8
치수문자_일반주서
100
AcDbLine
 10
32.22500000000004
 20
7.345556814009666
 30
0.0
 11
32.22500000000005
 21
15.34489393989777
 31
0.0
  0
LINE
  5
FA
330
ED
100
AcDbEntity
  8
치수문자_일반주서
100
AcDbLine
 10
48.10000000000003
 20
14.34489393989774
 30
0.0
 11
54.45000000000003
 21
14.34489393989772
 31
0.0
  0
LINE
  5
FB
330
ED
100
AcDbEntity
  8
치수문자_일반주서
100
AcDbLine
 10
48.10000000000003
 20
14.34489393989774
 30
0.0
 11
32.22500000000005
 21
14.34489393989777
 31
0.0
  0
LINE
  5
FC
330
ED
100
AcDbEntity
  8
치수문자_일반주서
100
AcDbLine
 10
32.22500000000005
 20
14.34489393989777
 30
0.0
 11
25.87500000000005
 21
14.34489393989779
 31
0.0
  0
MTEXT
  5
FD
330
ED
100
AcDbEntity
  8
치수문자_일반주서
100
AcDbMText
 10
33.52343770712613
 20
18.91010320575947
 30
0.0
 40
3.5
 41
0.0
 71
     1
 72
     1
  1

  7
SLDTEXTSTYLE0
 73
     1
 44
1.0
  0
MTEXT
  5
FE
330
ED
100
AcDbEntity
  8
치수문자_일반주서
100
AcDbMText
 10
35.63680581878874
 20
24.09326257946007
 30
0.0
 40
3.5
 41
0.0
 71
     1
 72
     1
  1
0.63
  7
SLDTEXTSTYLE0
 73
     1
 44
1.0
  0
MTEXT
  5
FF
330
ED
100
AcDbEntity
  8
치수문자_일반주서
100
AcDbMText
 10
34.34375010561196
 20
18.85663102909961
 30
0.0
 40
3.5
 41
0.0
 71
     1
 72
     1
  1
15.88
  7
SLDTEXTSTYLE0
 73
     1
 44
1.0
  0
MTEXT
  5
100
330
ED
100
AcDbEntity
  8
치수문자_일반주서
100
AcDbMText
 10
48.13350751101969
 20
18.91010320575933
 30
0.0
 40
3.5
 41
0.0
 71
     1
 72
     1
  1

  7
SLDTEXTSTYLE0
 73
     1
 44
1.0
  0
ENDBLK
  5
EF
330
ED
100
AcDbEntity
  8
0
100
AcDbBlockEnd
  0
BLOCK
  5
104
330
103
100
AcDbEntity
  8
0
100
AcDbBlockBegin
  2
_D_3
 70
     0
 10
0.0
 20
0.0
 30
0.0
  3
_D_3
  1
_D_3
  0
SOLID
  5
106
330
103
100
AcDbEntity
  8
치수문자_일반주서
100
AcDbTrace
 10
38.58441328107455
 20
4.763574928723891
 30
0.0
 11
38.07641328107455
 21
1.461574928723891
 31
0.0
 12
39.09241328107456
 22
1.461574928723891
 32
0.0
 13
39.09241328107456
 23
1.461574928723891
 33
0.0
  0
SOLID
  5
107
330
103
100
AcDbEntity
  8
치수문자_일반주서
100
AcDbTrace
 10
38.58441328107455
 20
-4.761425071276108
 30
0.0
 11
39.09241328107456
 21
-1.459425071276108
 31
0.0
 12
38.07641328107455
 22
-1.459425071276108
 32
0.0
 13
38.07641328107455
 23
-1.459425071276108
 33
0.0
  0
LINE
  5
108
330
103
100
AcDbEntity
  8
치수문자_일반주서
100
AcDbLine
 10
27.79153156503184
 20
9.317832818612196
 30
0.0
 11
27.79153156503185
 21
8.606895333047696
 31
0.0
  0
LINE
  5
109
330
103
100
AcDbEntity
  8
치수문자_일반주서
100
AcDbLine
 10
27.79153156503185
 20
8.606895333047696
 30
0.0
 11
33.34778155609115
 21
8.606895333047735
 31
0.0
  0
LINE
  5
10A
330
103
100
AcDbEntity
  8
치수문자_일반주서
100
AcDbLine
 10
33.34778155609115
 20
8.606895333047735
 30
0.0
 11
33.34778155609114
 21
9.317832818612235
 31
0.0
  0
LINE
  5
10B
330
103
100
AcDbEntity
  8
치수문자_일반주서
100
AcDbLine
 10
27.79153156503176
 20
20.14656568074945
 30
0.0
 11
27.79153156503176
 21
20.85750316631395
 31
0.0
  0
LINE
  5
10C
330
103
100
AcDbEntity
  8
치수문자_일반주서
100
AcDbLine
 10
27.79153156503176
 20
20.85750316631395
 30
0.0
 11
33.34778155609106
 21
20.85750316631399
 31
0.0
  0
LINE
  5
10D
330
103
100
AcDbEntity
  8
치수문자_일반주서
100
AcDbLine
 10
33.34778155609106
 20
20.85750316631399
 30
0.0
 11
33.34778155609107
 21
20.14656568074949
 31
0.0
  0
LINE
  5
10E
330
103
100
AcDbEntity
  8
치수문자_일반주서
100
AcDbLine
 10
14.3544632653654
 20
4.763574928723893
 30
0.0
 11
39.58441328107455
 21
4.763574928723891
 31
0.0
  0
LINE
  5
10F
330
103
100
AcDbEntity
  8
치수문자_일반주서
100
AcDbLine
 10
14.3544632653654
 20
-4.761425071276106
 30
0.0
 11
39.58441328107455
 21
-4.761425071276108
 31
0.0
  0
LINE
  5
110
330
103
100
AcDbEntity
  8
치수문자_일반주서
100
AcDbLine
 10
38.58441328107455
 20
4.763574928723891
 30
0.0
 11
38.58441328107455
 21
21.89711294498649
 31
0.0
  0
LINE
  5
111
330
103
100
AcDbEntity
  8
치수문자_일반주서
100
AcDbLine
 10
38.58441328107455
 20
4.763574928723891
 30
0.0
 11
38.58441328107455
 21
-4.761425071276108
 31
0.0
  0
MTEXT
  5
112
330
103
100
AcDbEntity
  8
치수문자_일반주서
100
AcDbMText
 10
28.83604464151225
 20
10.20650471922357
 30
0.0
 40
3.5
 41
0.0
 71
     1
 72
     1
  1
0.38
  7
SLDTEXTSTYLE0
 11
-7.044195017643634E-15
 21
1.0
 31
0.0
 73
     1
 44
1.0
  0
MTEXT
  5
113
330
103
100
AcDbEntity
  8
치수문자_일반주서
100
AcDbMText
 10
34.07267619187272
 20
7.567285554375281
 30
0.0
 40
3.5
 41
0.0
 71
     1
 72
     1
  1
%%c
  7
SLDTEXTSTYLE0
 11
-7.044195017643634E-15
 21
1.0
 31
0.0
 73
     1
 44
1.0
  0
MTEXT
  5
114
330
103
100
AcDbEntity
  8
치수문자_일반주서
100
AcDbMText
 10
34.07267619187269
 20
12.84572295274936
 30
0.0
 40
3.5
 41
0.0
 71
     1
 72
     1
  1
9.53
  7
SLDTEXTSTYLE0
 11
-7.044195017643634E-15
 21
1.0
 31
0.0
 73
     1
 44
1.0
  0
ENDBLK
  5
105
330
103
100
AcDbEntity
  8
0
100
AcDbBlockEnd
  0
BLOCK
  5
11D
330
11C
100
AcDbEntity
  8
0
100
AcDbBlockBegin
  2
SW_DOWELSYMBOL_0
 70
     0
 10
0.0
 20
0.0
 30
0.0
  3
SW_DOWELSYMBOL_0
  1
SW_DOWELSYMBOL_0
  0
CIRCLE
  5
11F
330
11C
100
AcDbEntity
  8
해칭선
 62
     0
100
AcDbCircle
 10
0.0
 20
0.0
 30
0.0
 40
3.000000000000001
  0
HATCH
  5
120
330
11C
100
AcDbEntity
  8
0
  6
Continuous
 62
     0
370
     0
100
AcDbHatch
 10
0.0
 20
0.0
 30
0.0
210
0.0
220
0.0
230
1.0
  2
SOLID
 70
     1
 71
     0
 91
        1
 92
        0
 93
        3
 72
     2
 10
0.0
 20
0.0
 40
3.000000000000001
 50
0.0
 51
90.0
 73
     1
 72
     1
 10
0.0
 20
3.000000000000001
 11
0.0
 21
0.0
 72
     1
 10
0.0
 20
0.0
 11
3.000000000000003
 21
0.0
 97
        0
 75
     0
 76
     1
 98
        1
 10
0.0
 20
0.0
  0
HATCH
  5
121
330
11C
100
AcDbEntity
  8
0
  6
Continuous
 62
     0
370
     0
100
AcDbHatch
 10
0.0
 20
0.0
 30
0.0
210
0.0
220
0.0
230
1.0
  2
SOLID
 70
     1
 71
     0
 91
        1
 92
        0
 93
        3
 72
     2
 10
0.0
 20
0.0
 40
3.000000000000001
 50
180.0
 51
270.0000000000008
 73
     1
 72
     1
 10
0.0
 20
-3.000000000000001
 11
0.0
 21
0.0
 72
     1
 10
0.0
 20
0.0
 11
-3.000000000000003
 21
0.0
 97
        0
 75
     0
 76
     1
 98
        1
 10
0.0
 20
0.0
  0
ENDBLK
  5
11E
330
11C
100
AcDbEntity
  8
0
100
AcDbBlockEnd
  0
BLOCK
  5
195
330
194
100
AcDbEntity
  8
0
100
AcDbBlockBegin
  2
*D8
 70
     1
 10
0.0
 20
0.0
 30
0.0
  3
*D8
  1
*D8
  0
LINE
  5
196
330
194
100
AcDbEntity
  8
0
  6
Continuous
 62
     0
370
    -2
100
AcDbLine
 10
17.94750000000005
 20
42.82015167013881
 30
0.0
 11
4.374999999999997
 21
42.82015167013876
 31
0.0
  0
LINE
  5
197
330
194
100
AcDbEntity
  8
0
  6
Continuous
 62
     0
370
    -2
100
AcDbLine
 10
17.94750000000005
 20
30.12015167013882
 30
0.0
 11
4.375000000000042
 21
30.12015167013877
 31
0.0
  0
LINE
  5
198
330
194
100
AcDbEntity
  8
0
  6
Continuous
 62
     0
370
    -2
100
AcDbLine
 10
4.375000000000009
 20
39.51815167013876
 30
0.0
 11
4.37500000000003
 21
33.42215167013877
 31
0.0
  0
SOLID
  5
199
330
194
100
AcDbEntity
  8
0
 62
     0
100
AcDbTrace
 10
4.925333333333342
 20
39.51815167013876
 30
0.0
 11
3.824666666666676
 21
39.51815167013876
 31
0.0
 12
4.374999999999997
 22
42.82015167013876
 32
0.0
 13
4.374999999999997
 23
42.82015167013876
 33
0.0
  0
SOLID
  5
19A
330
194
100
AcDbEntity
  8
0
 62
     0
100
AcDbTrace
 10
3.824666666666697
 20
33.42215167013877
 30
0.0
 11
4.925333333333364
 21
33.42215167013877
 31
0.0
 12
4.375000000000042
 22
30.12015167013877
 32
0.0
 13
4.375000000000042
 23
30.12015167013877
 33
0.0
  0
MTEXT
  5
19B
330
194
100
AcDbEntity
  8
0
 62
     0
370
    15
100
AcDbMText
 10
0.0000000000000284
 20
33.83223043421059
 30
0.0
 40
3.5
 41
0.0
 71
     2
 72
     1
  1
\A1;%%c12.7 [1/2]
  7
SLDTEXTSTYLE0
 11
-3.496765431890260E-15
 21
1.0
 31
0.0
 73
     1
 44
1.0
  0
POINT
  5
19C
330
194
100
AcDbEntity
  8
Defpoints
 62
     0
100
AcDbPoint
 10
18.01000000000005
 20
42.82015167013881
 30
0.0
  0
POINT
  5
19D
330
194
100
AcDbEntity
  8
Defpoints
 62
     0
100
AcDbPoint
 10
18.01000000000005
 20
30.12015167013882
 30
0.0
  0
POINT
  5
19E
330
194
100
AcDbEntity
  8
Defpoints
 62
     0
100
AcDbPoint
 10
4.375000000000043
 20
30.12015167013877
 30
0.0
  0
ENDBLK
  5
19F
330
194
100
AcDbEntity
  8
0
100
AcDbBlockEnd
  0
BLOCK
  5
1A2
330
1A1
100
AcDbEntity
  8
0
100
AcDbBlockBegin
  2
*D9
 70
     1
 10
0.0
 20
0.0
 30
0.0
  3
*D9
  1
*D9
  0
LINE
  5
1A3
330
1A1
100
AcDbEntity
  8
0
  6
Continuous
 62
     0
370
    -2
100
AcDbLine
 10
118.34
 20
42.88265167013881
 30
0.0
 11
118.34
 21
69.43523106509032
 31
0.0
  0
LINE
  5
1A4
330
1A1
100
AcDbEntity
  8
0
  6
Continuous
 62
     0
370
    -2
100
AcDbLine
 10
16.74000000000004
 20
41.61265167013882
 30
0.0
 11
16.74000000000004
 21
69.43523106509032
 31
0.0
  0
LINE
  5
1A5
330
1A1
100
AcDbEntity
  8
0
  6
Continuous
 62
     0
370
    -2
100
AcDbLine
 10
115.038
 20
69.43523106509032
 30
0.0
 11
20.04200000000004
 21
69.43523106509032
 31
0.0
  0
SOLID
  5
1A6
330
1A1
100
AcDbEntity
  8
0
 62
     0
100
AcDbTrace
 10
115.038
 20
68.884897731757
 30
0.0
 11
115.038
 21
69.98556439842365
 31
0.0
 12
118.34
 22
69.43523106509032
 32
0.0
 13
118.34
 23
69.43523106509032
 33
0.0
  0
SOLID
  5
1A7
330
1A1
100
AcDbEntity
  8
0
 62
     0
100
AcDbTrace
 10
20.04200000000004
 20
69.98556439842365
 30
0.0
 11
20.04200000000004
 21
68.884897731757
 31
0.0
 12
16.74000000000004
 22
69.43523106509032
 32
0.0
 13
16.74000000000004
 23
69.43523106509032
 33
0.0
  0
MTEXT
  5
1A8
330
1A1
100
AcDbEntity
  8
0
 62
     0
370
    15
100
AcDbMText
 10
67.54000000000005
 20
73.81023106509032
 30
0.0
 40
3.5
 41
0.0
 71
     2
 72
     1
  1
\A1;101.6 [4]
  7
SLDTEXTSTYLE0
 73
     1
 44
1.0
  0
POINT
  5
1A9
330
1A1
100
AcDbEntity
  8
Defpoints
 62
     0
100
AcDbPoint
 10
118.34
 20
42.82015167013881
 30
0.0
  0
POINT
  5
1AA
330
1A1
100
AcDbEntity
  8
Defpoints
 62
     0
100
AcDbPoint
 10
16.74000000000004
 20
41.55015167013882
 30
0.0
  0
POINT
  5
1AB
330
1A1
100
AcDbEntity
  8
Defpoints
 62
     0
100
AcDbPoint
 10
16.74000000000004
 20
69.43523106509032
 30
0.0
  0
ENDBLK
  5
1AC
330
1A1
100
AcDbEntity
  8
0
100
AcDbBlockEnd
  0
BLOCK
  5
1AF
330
1AE
100
AcDbEntity
  8
0
100
AcDbBlockBegin
  2
*D10
 70
     1
 10
0.0
 20
0.0
 30
0.0
  3
*D10
  1
*D10
  0
LINE
  5
1B0
330
1AE
100
AcDbEntity
  8
0
  6
Continuous
 62
     0
370
    -2
100
AcDbLine
 10
118.34
 20
42.88265167013881
 30
0.0
 11
118.34
 21
52.57366516616725
 31
0.0
  0
LINE
  5
1B1
330
1AE
100
AcDbEntity
  8
0
  6
Continuous
 62
     0
370
    -2
100
AcDbLine
 10
102.4650000000001
 20
42.87713355542459
 30
0.0
 11
102.4650000000001
 21
52.57366516616725
 31
0.0
  0
LINE
  5
1B2
330
1AE
100
AcDbEntity
  8
0
  6
Continuous
 62
     0
370
    -2
100
AcDbLine
 10
102.4650000000001
 20
52.57366516616725
 30
0.0
 11
70.48600000000005
 21
52.57366516616725
 31
0.0
  0
LINE
  5
1B3
330
1AE
100
AcDbEntity
  8
0
  6
Continuous
 62
     0
370
    -2
100
AcDbLine
 10
118.34
 20
52.57366516616725
 30
0.0
 11
102.4650000000001
 21
52.57366516616725
 31
0.0
  0
LINE
  5
1B4
330
1AE
100
AcDbEntity
  8
0
  6
Continuous
 62
     0
370
    -2
100
AcDbLine
 10
121.642
 20
52.57366516616725
 30
0.0
 11
124.944
 21
52.57366516616725
 31
0.0
  0
LINE
  5
1B5
330
1AE
100
AcDbEntity
  8
0
  6
Continuous
 62
     0
370
    -2
100
AcDbLine
 10
99.16300000000007
 20
52.57366516616725
 30
0.0
 11
95.86100000000008
 21
52.57366516616725
 31
0.0
  0
SOLID
  5
1B6
330
1AE
100
AcDbEntity
  8
0
 62
     0
100
AcDbTrace
 10
121.642
 20
53.12399849950059
 30
0.0
 11
121.642
 21
52.02333183283392
 31
0.0
 12
118.34
 22
52.57366516616725
 32
0.0
 13
118.34
 23
52.57366516616725
 33
0.0
  0
SOLID
  5
1B7
330
1AE
100
AcDbEntity
  8
0
 62
     0
100
AcDbTrace
 10
99.16300000000007
 20
52.02333183283392
 30
0.0
 11
99.16300000000007
 21
53.12399849950059
 31
0.0
 12
102.4650000000001
 22
52.57366516616725
 32
0.0
 13
102.4650000000001
 23
52.57366516616725
 33
0.0
  0
MTEXT
  5
1B8
330
1AE
100
AcDbEntity
  8
0
 62
     0
370
    15
100
AcDbMText
 10
83.17350000000005
 20
56.94866516616725
 30
0.0
 40
3.5
 41
0.0
 71
     2
 72
     1
  1
\A1;15.88 [5/8]
  7
SLDTEXTSTYLE0
 73
     1
 44
1.0
  0
POINT
  5
1B9
330
1AE
100
AcDbEntity
  8
Defpoints
 62
     0
100
AcDbPoint
 10
118.34
 20
42.82015167013881
 30
0.0
  0
POINT
  5
1BA
330
1AE
100
AcDbEntity
  8
Defpoints
 62
     0
100
AcDbPoint
 10
102.4650000000001
 20
42.81463355542459
 30
0.0
  0
POINT
  5
1BB
330
1AE
100
AcDbEntity
  8
Defpoints
 62
     0
100
AcDbPoint
 10
102.4650000000001
 20
52.57366516616725
 30
0.0
  0
ENDBLK
  5
1BC
330
1AE
100
AcDbEntity
  8
0
100
AcDbBlockEnd
  0
BLOCK
  5
1BF
330
1BE
100
AcDbEntity
  8
0
100
AcDbBlockBegin
  2
*D11
 70
     1
 10
0.0
 20
0.0
 30
0.0
  3
*D11
  1
*D11
  0
LINE
  5
1C0
330
1BE
100
AcDbEntity
  8
0
  6
Continuous
 62
     0
370
    -2
100
AcDbLine
 10
118.4025
 20
42.82015167013881
 30
0.0
 11
137.7662866805797
 21
42.82015167013888
 31
0.0
  0
LINE
  5
1C1
330
1BE
100
AcDbEntity
  8
0
  6
Continuous
 62
     0
370
    -2
100
AcDbLine
 10
118.4025
 20
30.12015167013884
 30
0.0
 11
137.7662866805798
 21
30.12015167013891
 31
0.0
  0
LINE
  5
1C2
330
1BE
100
AcDbEntity
  8
0
  6
Continuous
 62
     0
370
    -2
100
AcDbLine
 10
137.7662866805797
 20
42.82015167013888
 30
0.0
 11
137.7662866805796
 21
75.23665167013878
 31
0.0
  0
LINE
  5
1C3
330
1BE
100
AcDbEntity
  8
0
  6
Continuous
 62
     0
370
    -2
100
AcDbLine
 10
137.7662866805797
 20
42.82015167013888
 30
0.0
 11
137.7662866805798
 21
30.12015167013891
 31
0.0
  0
LINE
  5
1C4
330
1BE
100
AcDbEntity
  8
0
  6
Continuous
 62
     0
370
    -2
100
AcDbLine
 10
137.7662866805797
 20
46.12215167013888
 30
0.0
 11
137.7662866805796
 21
49.42415167013888
 31
0.0
  0
LINE
  5
1C5
330
1BE
100
AcDbEntity
  8
0
  6
Continuous
 62
     0
370
    -2
100
AcDbLine
 10
137.7662866805798
 20
26.81815167013891
 30
0.0
 11
137.7662866805798
 21
23.51615167013891
 31
0.0
  0
SOLID
  5
1C6
330
1BE
100
AcDbEntity
  8
0
 62
     0
100
AcDbTrace
 10
137.2159533472463
 20
46.12215167013888
 30
0.0
 11
138.316620013913
 21
46.12215167013888
 31
0.0
 12
137.7662866805797
 22
42.82015167013888
 32
0.0
 13
137.7662866805797
 23
42.82015167013888
 33
0.0
  0
SOLID
  5
1C7
330
1BE
100
AcDbEntity
  8
0
 62
     0
100
AcDbTrace
 10
138.3166200139131
 20
26.81815167013891
 30
0.0
 11
137.2159533472465
 21
26.81815167013891
 31
0.0
 12
137.7662866805798
 22
30.12015167013891
 32
0.0
 13
137.7662866805798
 23
30.12015167013891
 33
0.0
  0
MTEXT
  5
1C8
330
1BE
100
AcDbEntity
  8
0
 62
     0
370
    15
100
AcDbMText
 10
133.3912866805796
 20
62.98665167013876
 30
0.0
 40
3.5
 41
0.0
 71
     2
 72
     1
  1
\A1;%%c12.7 [1/2]
  7
SLDTEXTSTYLE0
 11
-4.475859752819538E-15
 21
1.0
 31
0.0
 73
     1
 44
1.0
  0
POINT
  5
1C9
330
1BE
100
AcDbEntity
  8
Defpoints
 62
     0
100
AcDbPoint
 10
118.34
 20
42.82015167013881
 30
0.0
  0
POINT
  5
1CA
330
1BE
100
AcDbEntity
  8
Defpoints
 62
     0
100
AcDbPoint
 10
118.34
 20
30.12015167013884
 30
0.0
  0
POINT
  5
1CB
330
1BE
100
AcDbEntity
  8
Defpoints
 62
     0
100
AcDbPoint
 10
137.7662866805798
 20
30.12015167013891
 30
0.0
  0
ENDBLK
  5
1CC
330
1BE
100
AcDbEntity
  8
0
100
AcDbBlockEnd
  0
BLOCK
  5
1E0
330
1DF
100
AcDbEntity
  8
0
100
AcDbBlockBegin
  2
*D12
 70
     1
 10
0.0
 20
0.0
 30
0.0
  3
*D12
  1
*D12
  0
LINE
  5
1E1
330
1DF
100
AcDbEntity
  8
0
  6
Continuous
 62
     0
370
    -2
100
AcDbLine
 10
119.5370933941395
 20
27.65843633404534
 30
0.0
 11
138.4198238589203
 21
0.0
 31
0.0
  0
MTEXT
  5
1E2
330
1DF
100
AcDbEntity
  8
0
 62
     0
370
    15
100
AcDbMText
 10
132.0773040370084
 20
13.94576481843702
 30
0.0
 40
3.5
 41
0.0
 71
     5
 72
     1
  1
\A1;R1.52 [R0.060]
  7
SLDTEXTSTYLE0
 11
0.5638403220346915
 21
-0.8258838243044936
 31
0.0
 73
     1
 44
1.0
  0
LINE
  5
1E3
330
1DF
100
AcDbEntity
  8
0
  6
Continuous
 62
     0
370
    -2
100
AcDbLine
 10
116.816
 20
31.64415167013883
 30
0.0
 11
117.6752926507809
 21
30.38550472189878
 31
0.0
  0
SOLID
  5
1E4
330
1DF
100
AcDbEntity
  8
0
 62
     0
100
AcDbTrace
 10
119.991604792115
 20
27.96873645793843
 30
0.0
 11
119.0825819961639
 21
27.34813621015225
 31
0.0
 12
117.6752926507809
 22
30.38550472189878
 32
0.0
 13
117.6752926507809
 23
30.38550472189878
 33
0.0
  0
POINT
  5
1E5
330
1DF
100
AcDbEntity
  8
Defpoints
 62
     0
100
AcDbPoint
 10
117.6752926507809
 20
30.38550472189878
 30
0.0
  0
POINT
  5
1E6
330
1DF
100
AcDbEntity
  8
Defpoints
 62
     0
100
AcDbPoint
 10
116.816
 20
31.64415167013883
 30
0.0
  0
ENDBLK
  5
1E7
330
1DF
100
AcDbEntity
  8
0
100
AcDbBlockEnd
  0
BLOCK
  5
220
330
21F
100
AcDbEntity
  8
0
100
AcDbBlockBegin
  2
*D13
 70
     1
 10
0.0
 20
0.0
 30
0.0
  3
*D13
  1
*D13
  0
LINE
  5
222
330
21F
100
AcDbEntity
  8
0
  6
Continuous
 62
     0
370
    -2
100
AcDbLine
 10
-72.51749999999996
 20
6.351074928723889
 30
0.0
 11
-86.09
 21
6.351074928723838
 31
0.0
  0
LINE
  5
223
330
21F
100
AcDbEntity
  8
0
  6
Continuous
 62
     0
370
    -2
100
AcDbLine
 10
-72.51749999999996
 20
-6.348925071276099
 30
0.0
 11
-86.08999999999996
 21
-6.348925071276152
 31
0.0
  0
LINE
  5
224
330
21F
100
AcDbEntity
  8
0
  6
Continuous
 62
     0
370
    -2
100
AcDbLine
 10
-86.08999999999999
 20
3.049074928723838
 30
0.0
 11
-86.08999999999997
 21
-3.046925071276152
 31
0.0
  0
SOLID
  5
225
330
21F
100
AcDbEntity
  8
0
 62
     0
100
AcDbTrace
 10
-85.53966666666666
 20
3.04907492872384
 30
0.0
 11
-86.64033333333332
 21
3.049074928723837
 31
0.0
 12
-86.09
 22
6.351074928723838
 32
0.0
 13
-86.09
 23
6.351074928723838
 33
0.0
  0
SOLID
  5
226
330
21F
100
AcDbEntity
  8
0
 62
     0
100
AcDbTrace
 10
-86.6403333333333
 20
-3.046925071276154
 30
0.0
 11
-85.53966666666665
 21
-3.04692507127615
 31
0.0
 12
-86.08999999999996
 22
-6.348925071276152
 32
0.0
 13
-86.08999999999996
 23
-6.348925071276152
 33
0.0
  0
MTEXT
  5
227
330
21F
100
AcDbEntity
  8
0
 62
     0
370
    15
100
AcDbMText
 10
-90.46499999999997
 20
-2.636846307204337
 30
0.0
 40
3.5
 41
0.0
 71
     2
 72
     1
  1
\A1;%%c12.7 [1/2]
  7
SLDTEXTSTYLE0
 11
-3.356894814614650E-15
 21
1.0
 31
0.0
 73
     1
 44
1.0
  0
POINT
  5
228
330
21F
100
AcDbEntity
  8
Defpoints
 62
     0
100
AcDbPoint
 10
-72.45499999999996
 20
6.351074928723889
 30
0.0
  0
POINT
  5
229
330
21F
100
AcDbEntity
  8
Defpoints
 62
     0
100
AcDbPoint
 10
-72.45499999999996
 20
-6.348925071276099
 30
0.0
  0
POINT
  5
22A
330
21F
100
AcDbEntity
  8
Defpoints
 62
     0
100
AcDbPoint
 10
-86.08999999999996
 20
-6.34892507127615
 30
0.0
  0
ENDBLK
  5
221
330
21F
100
AcDbEntity
  8
0
100
AcDbBlockEnd
  0
BLOCK
  5
22C
330
22B
100
AcDbEntity
  8
0
100
AcDbBlockBegin
  2
*D14
 70
     1
 10
0.0
 20
0.0
 30
0.0
  3
*D14
  1
*D14
  0
LINE
  5
22E
330
22B
100
AcDbEntity
  8
0
  6
Continuous
 62
     0
370
    -2
100
AcDbLine
 10
27.87500000000003
 20
6.413574928723889
 30
0.0
 11
27.87500000000003
 21
32.9661543236754
 31
0.0
  0
LINE
  5
22F
330
22B
100
AcDbEntity
  8
0
  6
Continuous
 62
     0
370
    -2
100
AcDbLine
 10
-73.72499999999997
 20
5.143574928723893
 30
0.0
 11
-73.72499999999997
 21
32.9661543236754
 31
0.0
  0
LINE
  5
230
330
22B
100
AcDbEntity
  8
0
  6
Continuous
 62
     0
370
    -2
100
AcDbLine
 10
24.57300000000003
 20
32.9661543236754
 30
0.0
 11
-70.42299999999997
 21
32.9661543236754
 31
0.0
  0
SOLID
  5
231
330
22B
100
AcDbEntity
  8
0
 62
     0
100
AcDbTrace
 10
24.57300000000003
 20
32.41582099034206
 30
0.0
 11
24.57300000000003
 21
33.51648765700873
 31
0.0
 12
27.87500000000003
 22
32.9661543236754
 32
0.0
 13
27.87500000000003
 23
32.9661543236754
 33
0.0
  0
SOLID
  5
232
330
22B
100
AcDbEntity
  8
0
 62
     0
100
AcDbTrace
 10
-70.42299999999997
 20
33.51648765700873
 30
0.0
 11
-70.42299999999997
 21
32.41582099034206
 31
0.0
 12
-73.72499999999997
 22
32.9661543236754
 32
0.0
 13
-73.72499999999997
 23
32.9661543236754
 33
0.0
  0
MTEXT
  5
233
330
22B
100
AcDbEntity
  8
0
 62
     0
370
    15
100
AcDbMText
 10
-22.92499999999995
 20
37.3411543236754
 30
0.0
 40
3.5
 41
0.0
 71
     2
 72
     1
  1
\A1;101.6 [4]
  7
SLDTEXTSTYLE0
 73
     1
 44
1.0
  0
POINT
  5
234
330
22B
100
AcDbEntity
  8
Defpoints
 62
     0
100
AcDbPoint
 10
27.87500000000003
 20
6.351074928723889
 30
0.0
  0
POINT
  5
235
330
22B
100
AcDbEntity
  8
Defpoints
 62
     0
100
AcDbPoint
 10
-73.72499999999997
 20
5.081074928723893
 30
0.0
  0
POINT
  5
236
330
22B
100
AcDbEntity
  8
Defpoints
 62
     0
100
AcDbPoint
 10
-73.72499999999997
 20
32.9661543236754
 30
0.0
  0
ENDBLK
  5
22D
330
22B
100
AcDbEntity
  8
0
100
AcDbBlockEnd
  0
BLOCK
  5
238
330
237
100
AcDbEntity
  8
0
100
AcDbBlockBegin
  2
*D15
 70
     1
 10
0.0
 20
0.0
 30
0.0
  3
*D15
  1
*D15
  0
LINE
  5
23A
330
237
100
AcDbEntity
  8
0
  6
Continuous
 62
     0
370
    -2
100
AcDbLine
 10
27.87500000000003
 20
6.413574928723889
 30
0.0
 11
27.87500000000003
 21
16.10458842475233
 31
0.0
  0
LINE
  5
23B
330
237
100
AcDbEntity
  8
0
  6
Continuous
 62
     0
370
    -2
100
AcDbLine
 10
12.00000000000006
 20
6.408056814009669
 30
0.0
 11
12.00000000000006
 21
16.10458842475233
 31
0.0
  0
LINE
  5
23C
330
237
100
AcDbEntity
  8
0
  6
Continuous
 62
     0
370
    -2
100
AcDbLine
 10
12.00000000000006
 20
16.10458842475233
 30
0.0
 11
-19.97899999999996
 21
16.10458842475233
 31
0.0
  0
LINE
  5
23D
330
237
100
AcDbEntity
  8
0
  6
Continuous
 62
     0
370
    -2
100
AcDbLine
 10
27.87500000000003
 20
16.10458842475233
 30
0.0
 11
12.00000000000006
 21
16.10458842475233
 31
0.0
  0
LINE
  5
23E
330
237
100
AcDbEntity
  8
0
  6
Continuous
 62
     0
370
    -2
100
AcDbLine
 10
31.17700000000003
 20
16.10458842475233
 30
0.0
 11
34.47900000000003
 21
16.10458842475233
 31
0.0
  0
LINE
  5
23F
330
237
100
AcDbEntity
  8
0
  6
Continuous
 62
     0
370
    -2
100
AcDbLine
 10
8.698000000000057
 20
16.10458842475233
 30
0.0
 11
5.396000000000058
 21
16.10458842475233
 31
0.0
  0
SOLID
  5
240
330
237
100
AcDbEntity
  8
0
 62
     0
100
AcDbTrace
 10
31.17700000000003
 20
16.65492175808566
 30
0.0
 11
31.17700000000003
 21
15.554255091419
 31
0.0
 12
27.87500000000003
 22
16.10458842475233
 32
0.0
 13
27.87500000000003
 23
16.10458842475233
 33
0.0
  0
SOLID
  5
241
330
237
100
AcDbEntity
  8
0
 62
     0
100
AcDbTrace
 10
8.698000000000057
 20
15.554255091419
 30
0.0
 11
8.698000000000057
 21
16.65492175808566
 31
0.0
 12
12.00000000000006
 22
16.10458842475233
 32
0.0
 13
12.00000000000006
 23
16.10458842475233
 33
0.0
  0
MTEXT
  5
242
330
237
100
AcDbEntity
  8
0
 62
     0
370
    15
100
AcDbMText
 10
-7.291499999999957
 20
20.47958842475233
 30
0.0
 40
3.5
 41
0.0
 71
     2
 72
     1
  1
\A1;15.88 [5/8]
  7
SLDTEXTSTYLE0
 73
     1
 44
1.0
  0
POINT
  5
243
330
237
100
AcDbEntity
  8
Defpoints
 62
     0
100
AcDbPoint
 10
27.87500000000003
 20
6.351074928723889
 30
0.0
  0
POINT
  5
244
330
237
100
AcDbEntity
  8
Defpoints
 62
     0
100
AcDbPoint
 10
12.00000000000006
 20
6.345556814009669
 30
0.0
  0
POINT
  5
245
330
237
100
AcDbEntity
  8
Defpoints
 62
     0
100
AcDbPoint
 10
12.00000000000006
 20
16.10458842475233
 30
0.0
  0
ENDBLK
  5
239
330
237
100
AcDbEntity
  8
0
100
AcDbBlockEnd
  0
BLOCK
  5
247
330
246
100
AcDbEntity
  8
0
100
AcDbBlockBegin
  2
*D16
 70
     1
 10
0.0
 20
0.0
 30
0.0
  3
*D16
  1
*D16
  0
LINE
  5
249
330
246
100
AcDbEntity
  8
0
  6
Continuous
 62
     0
370
    -2
100
AcDbLine
 10
27.93750000000003
 20
6.351074928723889
 30
0.0
 11
47.30128668057968
 21
6.351074928723961
 31
0.0
  0
LINE
  5
24A
330
246
100
AcDbEntity
  8
0
  6
Continuous
 62
     0
370
    -2
100
AcDbLine
 10
27.93750000000003
 20
-6.348925071276085
 30
0.0
 11
47.30128668057972
 21
-6.348925071276014
 31
0.0
  0
LINE
  5
24B
330
246
100
AcDbEntity
  8
0
  6
Continuous
 62
     0
370
    -2
100
AcDbLine
 10
47.30128668057968
 20
6.351074928723961
 30
0.0
 11
47.30128668057957
 21
38.76757492872386
 31
0.0
  0
LINE
  5
24C
330
246
100
AcDbEntity
  8
0
  6
Continuous
 62
     0
370
    -2
100
AcDbLine
 10
47.30128668057968
 20
6.351074928723961
 30
0.0
 11
47.30128668057972
 21
-6.348925071276014
 31
0.0
  0
LINE
  5
24D
330
246
100
AcDbEntity
  8
0
  6
Continuous
 62
     0
370
    -2
100
AcDbLine
 10
47.30128668057966
 20
9.65307492872396
 30
0.0
 11
47.30128668057965
 21
12.95507492872396
 31
0.0
  0
LINE
  5
24E
330
246
100
AcDbEntity
  8
0
  6
Continuous
 62
     0
370
    -2
100
AcDbLine
 10
47.30128668057974
 20
-9.650925071276014
 30
0.0
 11
47.30128668057975
 21
-12.95292507127601
 31
0.0
  0
SOLID
  5
24F
330
246
100
AcDbEntity
  8
0
 62
     0
100
AcDbTrace
 10
46.75095334724633
 20
9.653074928723958
 30
0.0
 11
47.851620013913
 21
9.653074928723962
 31
0.0
 12
47.30128668057968
 22
6.351074928723961
 32
0.0
 13
47.30128668057968
 23
6.351074928723961
 33
0.0
  0
SOLID
  5
250
330
246
100
AcDbEntity
  8
0
 62
     0
100
AcDbTrace
 10
47.85162001391307
 20
-9.650925071276012
 30
0.0
 11
46.7509533472464
 21
-9.650925071276015
 31
0.0
 12
47.30128668057972
 22
-6.348925071276014
 32
0.0
 13
47.30128668057972
 23
-6.348925071276014
 33
0.0
  0
MTEXT
  5
251
330
246
100
AcDbEntity
  8
0
 62
     0
370
    15
100
AcDbMText
 10
42.92628668057961
 20
26.51757492872385
 30
0.0
 40
3.5
 41
0.0
 71
     2
 72
     1
  1
\A1;%%c12.7 [1/2]
  7
SLDTEXTSTYLE0
 11
-3.356894814614653E-15
 21
1.0
 31
0.0
 73
     1
 44
1.0
  0
POINT
  5
252
330
246
100
AcDbEntity
  8
Defpoints
 62
     0
100
AcDbPoint
 10
27.87500000000003
 20
6.351074928723889
 30
0.0
  0
POINT
  5
253
330
246
100
AcDbEntity
  8
Defpoints
 62
     0
100
AcDbPoint
 10
27.87500000000003
 20
-6.348925071276085
 30
0.0
  0
POINT
  5
254
330
246
100
AcDbEntity
  8
Defpoints
 62
     0
100
AcDbPoint
 10
47.30128668057975
 20
-6.348925071276012
 30
0.0
  0
ENDBLK
  5
248
330
246
100
AcDbEntity
  8
0
100
AcDbBlockEnd
  0
BLOCK
  5
256
330
255
100
AcDbEntity
  8
0
100
AcDbBlockBegin
  2
*D17
 70
     1
 10
0.0
 20
0.0
 30
0.0
  3
*D17
  1
*D17
  0
LINE
  5
258
330
255
100
AcDbEntity
  8
0
  6
Continuous
 62
     0
370
    -2
100
AcDbLine
 10
187.6460745883217
 20
-14.7001452404766
 30
0.0
 11
206.5288050531025
 21
-42.35858157452193
 31
0.0
  0
MTEXT
  5
259
330
255
100
AcDbEntity
  8
0
 62
     0
370
    15
100
AcDbMText
 10
200.1862852311907
 20
-28.41281675608492
 30
0.0
 40
3.5
 41
0.0
 71
     5
 72
     1
  1
\A1;R1.52 [R0.060]
  7
SLDTEXTSTYLE0
 11
0.5638403220346915
 21
-0.8258838243044936
 31
0.0
 73
     1
 44
1.0
  0
LINE
  5
25A
330
255
100
AcDbEntity
  8
0
  6
Continuous
 62
     0
370
    -2
100
AcDbLine
 10
184.9249811941823
 20
-10.71442990438311
 30
0.0
 11
185.7842738449632
 21
-11.97307685262316
 31
0.0
  0
SOLID
  5
25B
330
255
100
AcDbEntity
  8
0
 62
     0
100
AcDbTrace
 10
188.1005859862973
 20
-14.3898451165835
 30
0.0
 11
187.1915631903461
 21
-15.01044536436969
 31
0.0
 12
185.7842738449632
 22
-11.97307685262316
 32
0.0
 13
185.7842738449632
 23
-11.97307685262316
 33
0.0
  0
POINT
  5
25C
330
255
100
AcDbEntity
  8
Defpoints
 62
     0
100
AcDbPoint
 10
185.7842738449632
 20
-11.97307685262316
 30
0.0
  0
POINT
  5
25D
330
255
100
AcDbEntity
  8
Defpoints
 62
     0
100
AcDbPoint
 10
184.9249811941823
 20
-10.71442990438311
 30
0.0
  0
ENDBLK
  5
257
330
255
100
AcDbEntity
  8
0
100
AcDbBlockEnd
  0
BLOCK
  5
267
330
266
100
AcDbEntity
  8
0
100
AcDbBlockBegin
  2
*D18
 70
     1
 10
0.0
 20
0.0
 30
0.0
  3
*D18
  1
*D18
  0
LINE
  5
269
330
266
100
AcDbEntity
  8
0
  6
Continuous
 62
     0
370
    -2
100
AcDbLine
 10
28.89442595071881
 20
-8.568466468745983
 30
0.0
 11
49.22178995993062
 21
-36.27617537235258
 31
0.0
  0
MTEXT
  5
26A
330
266
100
AcDbEntity
  8
0
 62
     0
370
    15
100
AcDbMText
 10
42.1512189812723
 20
-22.20075787949452
 30
0.0
 40
3.5
 41
0.0
 71
     5
 72
     1
  1
\A1;R2.29 [R0.090]
  7
SLDTEXTSTYLE0
 11
0.5915221815889016
 21
-0.8062887253883108
 31
0.0
 73
     1
 44
1.0
  0
LINE
  5
26B
330
266
100
AcDbEntity
  8
0
  6
Continuous
 62
     0
370
    -2
100
AcDbLine
 10
25.58900000000003
 20
-4.062925071276107
 30
0.0
 11
26.94121970711225
 21
-5.906101097513782
 31
0.0
  0
SOLID
  5
26C
330
266
100
AcDbEntity
  8
0
 62
     0
100
AcDbTrace
 10
29.33815351259084
 20
-8.242932094811557
 30
0.0
 11
28.45069838884677
 21
-8.89400084268041
 31
0.0
 12
26.94121970711225
 22
-5.906101097513782
 32
0.0
 13
26.94121970711225
 23
-5.906101097513782
 33
0.0
  0
POINT
  5
26D
330
266
100
AcDbEntity
  8
Defpoints
 62
     0
100
AcDbPoint
 10
26.94121970711225
 20
-5.906101097513782
 30
0.0
  0
POINT
  5
26E
330
266
100
AcDbEntity
  8
Defpoints
 62
     0
100
AcDbPoint
 10
25.58900000000003
 20
-4.062925071276107
 30
0.0
  0
ENDBLK
  5
268
330
266
100
AcDbEntity
  8
0
100
AcDbBlockEnd
  0
ENDSEC
  0
SECTION
  2
ENTITIES
  0
LINE
  5
BF
330
1F
100
AcDbEntity
  8
참조1
100
AcDbLine
 10
-2.699999999999994
 20
0.0010749287238892
 30
0.0
 11
-2.699999999999989
 21
-39.99892507127611
 31
0.0
  0
LINE
  5
C0
330
1F
100
AcDbEntity
  8
참조1
100
AcDbLine
 10
-2.699999999999989
 20
-39.99892507127611
 30
0.0
 11
-30.55885681430864
 21
-39.9989250712761
 31
0.0
  0
INSERT
  5
C2
330
1F
100
AcDbEntity
  8
0
  6
Continuous
 62
     7
100
AcDbBlockReference
 66
     1
  2
블럭10
 10
-16.6402729321252
 20
-52.04609937292004
 30
0.0
  0
ATTRIB
  5
C3
330
C2
100
AcDbEntity
  8
FORMAT
 62
     2
100
AcDbText
 10
-26.78190894426183
 20
-49.97073246008785
 30
0.0
 40
4.233333333333333
  1
EM639915 [ 4 FLUTE ]
 41
0.75
  7
SLDTEXTSTYLE0
 11
-26.78190894426183
 21
-52.08739912675452
 31
0.0
100
AcDbAttribute
  2
AUTOATTR0
 70
     0
 74
     1
  0
SEQEND
  5
C4
330
C2
100
AcDbEntity
  8
0
  6
Continuous
 62
     7
  0
HATCH
  5
C5
330
1F
100
AcDbEntity
  8
중심선
100
AcDbHatch
 10
0.0
 20
0.0
 30
0.0
210
0.0
220
0.0
230
1.0
  2
SOLID
 70
     1
 71
     0
 91
        1
 92
        0
 93
        4
 72
     1
 10
-10.92536362774435
 20
-35.7989250712761
 11
-14.37163887158163
 21
-35.7989250712761
 72
     1
 10
-14.37163887158163
 20
-35.7989250712761
 11
-16.49986873078565
 21
-38.3352506518487
 72
     1
 10
-16.49986873078565
 20
-38.3352506518487
 11
-13.05356040183522
 21
-38.33521122254621
 72
     1
 10
-13.05356040183522
 20
-38.33521122254621
 11
-10.92536362774435
 21
-35.7989250712761
 97
        0
 75
     0
 76
     1
 98
        1
 10
0.0
 20
0.0
  0
HATCH
  5
C6
330
1F
100
AcDbEntity
  8
중심선
100
AcDbHatch
 10
0.0
 20
0.0
 30
0.0
210
0.0
220
0.0
230
1.0
  2
SOLID
 70
     1
 71
     0
 91
        1
 92
        0
 93
        4
 72
     1
 10
-5.912599636708372
 20
-35.7989250712761
 11
-9.358874880545653
 21
-35.7989250712761
 72
     1
 10
-9.358874880545653
 20
-35.7989250712761
 11
-13.89001288890307
 21
-41.19892507127612
 72
     1
 10
-13.89001288890307
 20
-41.19892507127612
 11
-10.44373764506579
 21
-41.19892507127612
 72
     1
 10
-10.44373764506579
 20
-41.19892507127612
 11
-5.912599636708372
 21
-35.7989250712761
 97
        0
 75
     0
 76
     1
 98
        1
 10
0.0
 20
0.0
  0
HATCH
  5
C7
330
1F
100
AcDbEntity
  8
중심선
100
AcDbHatch
 10
0.0
 20
0.0
 30
0.0
210
0.0
220
0.0
230
1.0
  2
SOLID
 70
     1
 71
     0
 91
        1
 92
        0
 93
        4
 72
     1
 10
-0.8998356456724477
 20
-35.79892507127608
 11
-4.346110889509591
 21
-35.7989250712761
 72
     1
 10
-4.346110889509591
 20
-35.7989250712761
 11
-11.39454779139887
 21
-44.19892507127612
 72
     1
 10
-11.39454779139887
 20
-44.19892507127612
 11
-7.948272547561586
 21
-44.19892507127612
 72
     1
 10
-7.948272547561586
 20
-44.19892507127612
 11
-0.8998356456724474
 21
-35.79892507127608
 97
        0
 75
     0
 76
     1
 98
        1
 10
0.0
 20
0.0
  0
HATCH
  5
C8
330
1F
100
AcDbEntity
  8
중심선
100
AcDbHatch
 10
0.0
 20
0.0
 30
0.0
210
0.0
220
0.0
230
1.0
  2
SOLID
 70
     1
 71
     0
 91
        1
 92
        0
 93
        6
 72
     3
 10
3.900054785339696
 20
-39.99892507132738
 11
3.960054785062284
 21
1.540850780301639E-10
 40
0.3939339440162633
 50
17.09539180608434
 51
320.0019657685081
 73
     0
 72
     1
 10
5.583054441040264
 20
-38.58681907591443
 11
7.88835631474133
 21
-36.65249236586649
 72
     3
 10
3.90005478528685
 20
-39.99892507127625
 11
6.600054785286829
 21
-1.249000902703301E-13
 40
0.6363583540795982
 50
39.99873849337408
 51
368.4976242363725
 73
     1
 72
     1
 10
10.32538727718746
 20
-39.03892507120613
 11
2.580122092122772
 21
-39.03892507120613
 72
     1
 10
2.580122092122772
 20
-39.03892507120613
 11
2.580097047676838
 21
-40.95892507120602
 72
     1
 10
2.580097047676838
 20
-40.95892507120602
 11
7.021476817148875
 21
-40.95892507120599
 97
        0
 75
     0
 76
     1
 98
        1
 10
0.0
 20
0.0
  0
LINE
  5
115
330
1F
100
AcDbEntity
  8
참조1
100
AcDbLine
 10
67.41348381534561
 20
7.441074928723896
 30
0.0
 11
67.41348381534561
 21
-7.438925071276109
 31
0.0
  0
LINE
  5
116
330
1F
100
AcDbEntity
  8
참조1
100
AcDbLine
 10
80.11348381534562
 20
5.441074928723896
 30
0.0
 11
67.41348381534561
 21
5.441074928723896
 31
0.0
  0
SOLID
  5
117
330
1F
100
AcDbEntity
  8
참조1
100
AcDbTrace
 10
67.41348381534561
 20
5.441074928723896
 30
0.0
 11
73.76348381534561
 21
4.425074928723896
 31
0.0
 12
73.76348381534561
 22
6.457074928723896
 32
0.0
 13
73.76348381534561
 23
6.457074928723896
 33
0.0
  0
LINE
  5
118
330
1F
100
AcDbEntity
  8
참조1
100
AcDbLine
 10
80.11348381534562
 20
-5.438925071276109
 30
0.0
 11
67.41348381534561
 21
-5.438925071276109
 31
0.0
  0
SOLID
  5
119
330
1F
100
AcDbEntity
  8
참조1
100
AcDbTrace
 10
67.41348381534561
 20
-5.438925071276109
 30
0.0
 11
73.76348381534561
 21
-6.454925071276109
 31
0.0
 12
73.76348381534561
 22
-4.422925071276109
 32
0.0
 13
73.76348381534561
 23
-4.422925071276109
 33
0.0
  0
MTEXT
  5
11A
330
1F
100
AcDbEntity
  8
참조1
100
AcDbMText
 10
76.81097390781589
 20
10.98929157337383
 30
0.0
 40
3.5
 41
0.0
 71
     1
 72
     1
  1
A
  7
SLDTEXTSTYLE0
 73
     1
 44
1.0
  0
MTEXT
  5
11B
330
1F
100
AcDbEntity
  8
참조1
100
AcDbMText
 10
76.81097390781589
 20
0.1092915733738251
 30
0.0
 40
3.5
 41
0.0
 71
     1
 72
     1
  1
A
  7
SLDTEXTSTYLE0
 73
     1
 44
1.0
  0
LINE
  5
1ED
330
1F
100
AcDbEntity
  8
0
  6
Continuous
 62
     1
370
    15
100
AcDbLine
 10
15.41411571195161
 20
6.351074928723897
 30
0.0
 11
12.00000000000003
 21
6.351074928723897
 31
0.0
  0
LINE
  5
1EE
330
1F
100
AcDbEntity
  8
0
  6
Continuous
 62
     1
370
    15
100
AcDbLine
 10
12.00000000000003
 20
-6.348925071276106
 30
0.0
 11
15.41411571195161
 21
-6.348925071276106
 31
0.0
  0
LINE
  5
1EF
330
1F
100
AcDbEntity
  8
외형선
  6
Continuous
370
    15
100
AcDbLine
 10
11.54262220141499
 20
-6.348925071276106
 30
0.0
 11
12.00000000000003
 21
-6.348925071276106
 31
0.0
  0
LINE
  5
1F0
330
1F
100
AcDbEntity
  8
외형선
  6
Continuous
370
    15
100
AcDbLine
 10
-72.45499999999996
 20
-6.348925071276106
 30
0.0
 11
11.54262220141499
 21
-6.348925071276106
 31
0.0
  0
LINE
  5
1F1
330
1F
100
AcDbEntity
  8
외형선
  6
Continuous
370
    15
100
AcDbLine
 10
11.50012946254051
 20
6.351074928723889
 30
0.0
 11
-72.45499999999996
 21
6.351074928723889
 31
0.0
  0
LINE
  5
1F2
330
1F
100
AcDbEntity
  8
외형선
  6
Continuous
370
    15
100
AcDbLine
 10
12.00000000000003
 20
6.351074928723889
 30
0.0
 11
11.50012946254051
 21
6.351074928723889
 31
0.0
  0
LINE
  5
1F3
330
1F
100
AcDbEntity
  8
외형선
  6
Continuous
370
    15
100
AcDbLine
 10
-72.45499999999996
 20
6.351074928723897
 30
0.0
 11
-73.72499999999997
 21
5.081074928723893
 31
0.0
  0
LINE
  5
1F4
330
1F
100
AcDbEntity
  8
외형선
  6
Continuous
370
    15
100
AcDbLine
 10
-73.72499999999997
 20
-5.07892507127611
 30
0.0
 11
-72.45499999999996
 21
-6.348925071276106
 31
0.0
  0
SPLINE
  5
1F5
330
1F
100
AcDbEntity
  8
0
  6
Continuous
 62
     1
370
    15
100
AcDbSpline
210
0.0
220
0.0
230
1.0
 70
     8
 71
     3
 72
    28
 73
    24
 74
     0
 42
0.000000001
 43
0.00000001
 40
0.0054044395920843
 40
0.0054044395920843
 40
0.0054044395920843
 40
0.0054044395920843
 40
0.1249999999999995
 40
0.1249999999999995
 40
0.249999999999999
 40
0.249999999999999
 40
0.3124999999999987
 40
0.3124999999999987
 40
0.3749999999999984
 40
0.3749999999999984
 40
0.4374999999999982
 40
0.4374999999999982
 40
0.4999999999999979
 40
0.4999999999999979
 40
0.6249999999999994
 40
0.6249999999999994
 40
0.6875000000000002
 40
0.6875000000000002
 40
0.750000000000001
 40
0.750000000000001
 40
0.8750000000000004
 40
0.8750000000000004
 40
1.0
 40
1.0
 40
1.0
 40
1.0
 10
27.28393171074853
 20
-5.596875036528884
 30
0.0
 10
26.67108163421995
 20
-5.429895878061911
 30
0.0
 10
26.05597134581043
 20
-5.236558547093681
 30
0.0
 10
24.80798313475998
 20
-4.794406952056534
 30
0.0
 10
24.16238009351196
 20
-4.541882080251831
 30
0.0
 10
23.20422012750399
 20
-4.131790125482908
 30
0.0
 10
22.88590073255696
 20
-3.989836791152342
 30
0.0
 10
22.24474130415874
 20
-3.695476584459726
 30
0.0
 10
21.92330448700929
 20
-3.543267835051232
 30
0.0
 10
21.28239019807017
 20
-3.230536093890919
 30
0.0
 10
20.96437250093666
 20
-3.070268776590929
 30
0.0
 10
20.32516011134979
 20
-2.741827700757717
 30
0.0
 10
20.00396773253138
 20
-2.573638931196946
 30
0.0
 10
19.04112847025488
 20
-2.060006691918886
 30
0.0
 10
18.40513432642018
 20
-1.706417012122195
 30
0.0
 10
17.44257976726468
 20
-1.164161473480831
 30
0.0
 10
17.12124365939815
 20
-0.9816031861910872
 30
0.0
 10
16.48127199952901
 20
-0.6149668304342768
 30
0.0
 10
16.16355145091654
 20
-0.4310680563228502
 30
0.0
 10
15.20303240058303
 20
0.1229832489830613
 30
0.0
 10
14.55999676341563
 20
0.4941187482410285
 30
0.0
 10
13.28433668355396
 20
1.225663056601526
 30
0.0
 10
12.63873061411266
 20
1.588519033793908
 30
0.0
 10
12.00000000000009
 20
1.94021392658545
 30
0.0
  0
SPLINE
  5
1F6
330
1F
100
AcDbEntity
  8
외형선
  6
Continuous
370
    15
100
AcDbSpline
210
0.0
220
0.0
230
1.0
 70
    24
 71
     3
 72
    15
 73
    11
 74
     0
 42
0.000000001
 43
0.00000001
 40
0.0
 40
0.0
 40
0.0
 40
0.0
 40
0.1342064825416131
 40
0.2725520531827128
 40
0.4028958596813781
 40
0.537019645398622
 40
0.6673634518972856
 40
0.8014872376145277
 40
0.9318310441131926
 40
1.0
 40
1.0
 40
1.0
 40
1.0
 10
12.00000000000006
 20
6.345556814009669
 30
0.0
 10
12.00000000000006
 20
6.137380830265684
 30
0.0
 10
12.00000000000006
 20
5.714608466977204
 30
0.0
 10
12.00000000000009
 20
5.059496277558743
 30
0.0
 10
11.99999999999994
 20
4.407559960122384
 30
0.0
 10
12.00000000000006
 20
3.786089103109902
 30
0.0
 10
12.0
 20
3.194050388626053
 30
0.0
 10
12.00000000000003
 20
2.664329888918182
 30
0.0
 10
12.0
 20
2.261023810206403
 30
0.0
 10
12.00000000000006
 20
2.074656673604593
 30
0.0
 10
12.00000000000006
 20
2.010658505622381
 30
0.0
  0
SPLINE
  5
1F7
330
1F
100
AcDbEntity
  8
0
  6
Continuous
 62
     1
370
    15
100
AcDbSpline
210
0.0
220
0.0
230
1.0
 70
     8
 71
     3
 72
    28
 73
    24
 74
     0
 42
0.000000001
 43
0.00000001
 40
0.0
 40
0.0
 40
0.0
 40
0.0
 40
0.1249999999999993
 40
0.1249999999999993
 40
0.2499999999999985
 40
0.2499999999999985
 40
0.3124999999999981
 40
0.3124999999999981
 40
0.3749999999999978
 40
0.3749999999999978
 40
0.4374999999999974
 40
0.4374999999999974
 40
0.499999999999997
 40
0.499999999999997
 40
0.6249999999999962
 40
0.6249999999999962
 40
0.6874999999999969
 40
0.6874999999999969
 40
0.7499999999999974
 40
0.7499999999999974
 40
0.8749999999999988
 40
0.8749999999999988
 40
1.0
 40
1.0
 40
1.0
 40
1.0
 10
27.36700000000002
 20
0.8371462240680643
 30
0.0
 10
26.72668445374117
 20
1.203570692379209
 30
0.0
 10
26.0835461590533
 20
1.566247507569429
 30
0.0
 10
24.80798313475998
 20
2.270105736731097
 30
0.0
 10
24.16238009351196
 20
2.61366590034261
 30
0.0
 10
23.20422012750402
 20
3.104728660247488
 30
0.0
 10
22.88590073255705
 20
3.264511113224415
 30
0.0
 10
22.24474130415879
 20
3.576126595870839
 30
0.0
 10
21.92330448700937
 20
3.727715760403505
 30
0.0
 10
21.28239019807023
 20
4.020728021195126
 30
0.0
 10
20.96437250093672
 20
4.161948031115465
 30
0.0
 10
20.32516011134985
 20
4.43395335827595
 30
0.0
 10
20.00396773253144
 20
4.564716463835786
 30
0.0
 10
19.04112847025488
 20
4.938975553398571
 30
0.0
 10
18.40513432642027
 20
5.16388213623803
 30
0.0
 10
17.44257976726468
 20
5.461252005495908
 30
0.0
 10
17.12124365939815
 20
5.553589648467195
 30
0.0
 10
16.48127199952904
 20
5.723676406342335
 30
0.0
 10
16.16355145091654
 20
5.801377064907221
 30
0.0
 10
15.20303240058311
 20
6.012696652233366
 30
0.0
 10
14.55999676341568
 20
6.123770412072254
 30
0.0
 10
13.28433668355402
 20
6.282274092917888
 30
0.0
 10
12.63873061411275
 20
6.330162777334841
 30
0.0
 10
12.00000000000014
 20
6.345556814009143
 30
0.0
  0
SPLINE
  5
1F8
330
1F
100
AcDbEntity
  8
0
  6
Continuous
 62
     1
370
    15
100
AcDbSpline
210
0.0
220
0.0
230
1.0
 70
     8
 71
     3
 72
    14
 73
    10
 74
     0
 42
0.000000001
 43
0.00000001
 40
0.0
 40
0.0
 40
0.0
 40
0.0
 40
0.25
 40
0.25
 40
0.5
 40
0.5
 40
0.75
 40
0.75
 40
1.0
 40
1.0
 40
1.0
 40
1.0
 10
27.87500000000003
 20
0.6234841856661717
 30
0.0
 10
27.87500000000003
 20
0.6177904885348084
 30
0.0
 10
27.86078184334747
 20
0.6175733846463274
 30
0.0
 10
27.80587938665047
 20
0.6305328189054009
 30
0.0
 10
27.7648475536997
 20
0.6439638523015319
 30
0.0
 10
27.6663783808159
 20
0.6833967301039365
 30
0.0
 10
27.60898496062168
 20
0.7093698710250749
 30
0.0
 10
27.48884244826272
 20
0.769336754772894
 30
0.0
 10
27.42760180129781
 20
0.8024664744524657
 30
0.0
 10
27.36700000000005
 20
0.8371462240680714
 30
0.0
  0
LINE
  5
1F9
330
1F
100
AcDbEntity
  8
외형선
  6
Continuous
370
    15
100
AcDbLine
 10
12.00000000000003
 20
-0.2635939347402214
 30
0.0
 11
12.00000000000003
 21
1.940213926585457
 31
0.0
  0
SPLINE
  5
1FA
330
1F
100
AcDbEntity
  8
0
  6
Continuous
 62
     1
370
    15
100
AcDbSpline
210
0.0
220
0.0
230
1.0
 70
     8
 71
     3
 72
    12
 73
     8
 74
     0
 42
0.000000001
 43
0.00000001
 40
0.0
 40
0.0
 40
0.0
 40
0.0
 40
0.2126775943689718
 40
0.4253766796108904
 40
0.6380610946067439
 40
0.8507231061907679
 40
1.0
 40
1.0
 40
1.0
 40
1.0
 10
12.00000000000009
 20
-6.045596878722975
 30
0.0
 10
12.71718342075792
 20
-6.149582331838566
 30
0.0
 10
14.15162273299072
 20
-6.35756374570299
 30
0.0
 10
16.30334432659137
 20
-6.367212393014498
 30
0.0
 10
18.45497027661872
 20
-6.142671527982593
 30
0.0
 10
20.39264992275156
 20
-5.752106758031211
 30
0.0
 10
21.61318575838249
 20
-5.348140310277039
 30
0.0
 10
22.11657955112184
 20
-5.181529714882849
 30
0.0
  0
SPLINE
  5
1FB
330
1F
100
AcDbEntity
  8
외형선
  6
Continuous
370
    15
100
AcDbSpline
210
0.0
220
0.0
230
1.0
 70
    24
 71
     3
 72
    18
 73
    14
 74
     0
 42
0.000000001
 43
0.00000001
 40
0.0
 40
0.0
 40
0.0
 40
0.0
 40
0.0882145702007425
 40
0.1798479341604539
 40
0.2714812981201661
 40
0.3631146620798784
 40
0.4547480260395904
 40
0.5463813899993026
 40
0.6380147539590133
 40
0.7296481179187239
 40
0.8212814818784355
 40
0.9129148458381471
 40
1.0
 40
1.0
 40
1.0
 40
1.0
 10
12.0
 20
-0.2635939347402143
 30
0.0
 10
12.00000000000003
 20
-0.3419083569200012
 30
0.0
 10
12.00000000000009
 20
-0.5015723105271377
 30
0.0
 10
12.0
 20
-0.8622797677567178
 30
0.0
 10
12.00000000000009
 20
-1.305877051817511
 30
0.0
 10
12.00000000000011
 20
-1.822313068851642
 30
0.0
 10
12.00000000000009
 20
-2.396826676557311
 30
0.0
 10
12.00000000000006
 20
-3.011845096066708
 30
0.0
 10
12.00000000000003
 20
-3.650945013994658
 30
0.0
 10
12.0
 20
-4.295818509067203
 30
0.0
 10
12.0
 20
-4.926563693782079
 30
0.0
 10
12.00000000000003
 20
-5.521516766404709
 30
0.0
 10
12.00000000000003
 20
-5.873892714584365
 30
0.0
 10
12.00000000000003
 20
-6.045596878722968
 30
0.0
  0
SPLINE
  5
1FC
330
1F
100
AcDbEntity
  8
0
  6
Continuous
 62
     1
370
    15
100
AcDbSpline
210
0.0
220
0.0
230
1.0
 70
     8
 71
     3
 72
    10
 73
     6
 74
     0
 42
0.000000001
 43
0.00000001
 40
0.0
 40
0.0
 40
0.0
 40
0.0
 40
0.5
 40
0.5
 40
1.0
 40
1.0
 40
1.0
 40
1.0
 10
27.36700000000005
 20
2.956294176324903
 30
0.0
 10
27.499219329493
 20
2.888735954937822
 30
0.0
 10
27.620354325563
 20
2.78917827707906
 30
0.0
 10
27.80920676539031
 20
2.5713334830386
 30
0.0
 10
27.87500000000006
 20
2.453665516329266
 30
0.0
 10
27.87500000000006
 20
2.366427449074159
 30
0.0
  0
LINE
  5
1FD
330
1F
100
AcDbEntity
  8
0
  6
Continuous
 62
     1
370
    15
100
AcDbLine
 10
27.87500000000003
 20
0.6234841856661788
 30
0.0
 11
27.87500000000003
 21
2.366427449074159
 31
0.0
  0
SPLINE
  5
1FE
330
1F
100
AcDbEntity
  8
0
  6
Continuous
 62
     1
370
    15
100
AcDbSpline
210
0.0
220
0.0
230
1.0
 70
     8
 71
     3
 72
    13
 73
     9
 74
     0
 42
0.000000001
 43
0.00000001
 40
0.0
 40
0.0
 40
0.0
 40
0.0
 40
0.0743966371963313
 40
0.2544063571758721
 40
0.4343971155785146
 40
0.6229329820131712
 40
0.8114672409663597
 40
1.0
 40
1.0
 40
1.0
 40
1.0
 10
15.41411571195161
 20
6.321645616335992
 30
0.0
 10
15.71053967079058
 20
6.328801220569851
 30
0.0
 10
16.72418951290462
 20
6.353270487933713
 30
0.0
 10
18.4549702636414
 20
6.139755911795461
 30
0.0
 10
20.64043680556392
 20
5.688590160546191
 30
0.0
 10
22.85995854923016
 20
4.983423986400958
 30
0.0
 10
25.11348438042552
 20
4.072104361170872
 30
0.0
 10
26.61583011884852
 20
3.328229918264277
 30
0.0
 10
27.36700000000005
 20
2.956294176324917
 30
0.0
  0
LINE
  5
1FF
330
1F
100
AcDbEntity
  8
외형선
  6
Continuous
370
    15
100
AcDbLine
 10
12.00000000000006
 20
6.345556814009143
 30
0.0
 11
12.00000000000003
 21
6.351074928723897
 31
0.0
  0
LINE
  5
200
330
1F
100
AcDbEntity
  8
외형선
  6
Continuous
370
    15
100
AcDbLine
 10
12.00000000000003
 20
-6.348925071276106
 30
0.0
 11
12.00000000000003
 21
-6.045596878722968
 31
0.0
  0
LINE
  5
201
330
1F
100
AcDbEntity
  8
외형선
  6
Continuous
370
    15
100
AcDbLine
 10
11.50012946254049
 20
2.213579275860454
 30
0.0
 11
11.50012946254051
 21
6.351027119506277
 31
0.0
  0
SPLINE
  5
202
330
1F
100
AcDbEntity
  8
외형선
  6
Continuous
370
    15
100
AcDbSpline
210
0.0
220
0.0
230
1.0
 70
     8
 71
     3
 72
     8
 73
     4
 74
     0
 42
0.000000001
 43
0.00000001
 40
0.0
 40
0.0
 40
0.0
 40
0.0
 40
1.0
 40
1.0
 40
1.0
 40
1.0
 10
12.00000000000009
 20
1.94021392658545
 30
0.0
 10
11.83312137886028
 20
2.032099860145244
 30
0.0
 10
11.66700905247603
 20
2.123174853228072
 30
0.0
 10
11.50012946254051
 20
2.213623371386184
 30
0.0
  0
SPLINE
  5
203
330
1F
100
AcDbEntity
  8
외형선
  6
Continuous
370
    15
100
AcDbSpline
210
0.0
220
0.0
230
1.0
 70
     8
 71
     3
 72
     8
 73
     4
 74
     0
 42
0.000000001
 43
0.00000001
 40
0.0
 40
0.0
 40
0.0
 40
0.0
 40
1.0
 40
1.0
 40
1.0
 40
1.0
 10
12.0
 20
-0.2635939347402072
 30
0.0
 10
11.83312137886023
 20
-0.1671824443291356
 30
0.0
 10
11.66700905247598
 20
-0.0708268783497346
 30
0.0
 10
11.50012946254049
 20
0.0256679288077422
 30
0.0
  0
LINE
  5
204
330
1F
100
AcDbEntity
  8
외형선
  6
Continuous
370
    15
100
AcDbLine
 10
11.50012946254049
 20
-5.951010799313138
 30
0.0
 11
11.50012946254051
 21
0.0257158454681914
 31
0.0
  0
SPLINE
  5
205
330
1F
100
AcDbEntity
  8
외형선
  6
Continuous
370
    15
100
AcDbSpline
210
0.0
220
0.0
230
1.0
 70
     8
 71
     3
 72
     8
 73
     4
 74
     0
 42
0.000000001
 43
0.00000001
 40
0.0
 40
0.0
 40
0.0
 40
0.0
 40
1.0
 40
1.0
 40
1.0
 40
1.0
 10
12.00000000000009
 20
-6.045596878722975
 30
0.0
 10
11.83312137886028
 20
-6.016129495211061
 30
0.0
 10
11.66700905247603
 20
-5.984616618448726
 30
0.0
 10
11.50012946254051
 20
-5.950994407975145
 30
0.0
  0
SPLINE
  5
206
330
1F
100
AcDbEntity
  8
외형선
  6
Continuous
370
    15
100
AcDbSpline
210
0.0
220
0.0
230
1.0
 70
     8
 71
     3
 72
     8
 73
     4
 74
     0
 42
0.000000001
 43
0.00000001
 40
0.0
 40
0.0
 40
0.0
 40
0.0
 40
1.0
 40
1.0
 40
1.0
 40
1.0
 10
12.0
 20
6.345556814009136
 30
0.0
 10
11.83312137886023
 20
6.349578753082078
 30
0.0
 10
11.66700905247598
 20
6.351401024099914
 30
0.0
 10
11.50012946254049
 20
6.351027305265539
 30
0.0
  0
LINE
  5
207
330
1F
100
AcDbEntity
  8
외형선
  6
Continuous
370
    15
100
AcDbLine
 10
-72.45499999999996
 20
0.0010749287238951
 30
0.0
 11
-72.45499999999996
 21
6.351074928723889
 31
0.0
  0
LINE
  5
208
330
1F
100
AcDbEntity
  8
외형선
  6
Continuous
370
    15
100
AcDbLine
 10
-72.45499999999996
 20
-6.348925071276106
 30
0.0
 11
-72.45499999999996
 21
0.0010749287238951
 31
0.0
  0
SPLINE
  5
209
330
1F
100
AcDbEntity
  8
외형선
  6
Continuous
370
    15
100
AcDbSpline
210
0.0
220
0.0
230
1.0
 70
    24
 71
     3
 72
    18
 73
    14
 74
     0
 42
0.000000001
 43
0.00000001
 40
0.0
 40
0.0
 40
0.0
 40
0.0
 40
0.130962267413518
 40
0.2208696572527223
 40
0.3133843674880224
 40
0.4032917573272272
 40
0.4958064675625281
 40
0.5857138574017324
 40
0.678228567637033
 40
0.768135957476237
 40
0.8606506677115372
 40
0.9505580575507391
 40
0.9999999999999999
 40
0.9999999999999999
 40
0.9999999999999999
 40
0.9999999999999999
 10
12.00000000000003
 20
-6.045596878722968
 30
0.0
 10
12.00000000000006
 20
-5.781753931975814
 30
0.0
 10
12.00000000000014
 20
-5.336779189498372
 30
0.0
 10
11.99999999999997
 20
-4.624448045703062
 30
0.0
 10
12.00000000000011
 20
-3.988159626239494
 30
0.0
 10
12.0
 20
-3.340693949125672
 30
0.0
 10
12.00000000000011
 20
-2.713768979990704
 30
0.0
 10
12.00000000000009
 20
-2.113264466321809
 30
0.0
 10
12.0
 20
-1.567570056956157
 30
0.0
 10
12.00000000000009
 20
-1.080549363410107
 30
0.0
 10
12.00000000000011
 20
-0.6811979413797999
 30
0.0
 10
11.99999999999997
 20
-0.4015153575977664
 30
0.0
 10
12.0
 20
-0.2997137345610383
 30
0.0
 10
12.00000000000003
 20
-0.2635939347402214
 30
0.0
  0
LINE
  5
20A
330
1F
100
AcDbEntity
  8
외형선
  6
Continuous
370
    15
100
AcDbLine
 10
-73.72499999999997
 20
0.0010749287238951
 30
0.0
 11
-73.72499999999997
 21
5.081074928723893
 31
0.0
  0
LINE
  5
20B
330
1F
100
AcDbEntity
  8
외형선
  6
Continuous
370
    15
100
AcDbLine
 10
-73.72499999999997
 20
-5.07892507127611
 30
0.0
 11
-73.72499999999997
 21
0.0010749287238951
 31
0.0
  0
SPLINE
  5
20C
330
1F
100
AcDbEntity
  8
외형선
  6
Continuous
370
    15
100
AcDbSpline
210
0.0
220
0.0
230
1.0
 70
    24
 71
     3
 72
    22
 73
    18
 74
     0
 42
0.000000001
 43
0.00000001
 40
0.0
 40
0.0
 40
0.0
 40
0.0
 40
0.0603212036419916
 40
0.1261936146717313
 40
0.1927746352716475
 40
0.2603263182645019
 40
0.3257412032201242
 40
0.3916136142498775
 40
0.4581946348497937
 40
0.5257463178426017
 40
0.590924951200214
 40
0.6565561311286927
 40
0.7236146179096568
 40
0.7911663009024682
 40
0.8429301820700885
 40
0.9473137016909238
 40
1.0
 40
1.0
 40
1.0
 40
1.0
 10
12.00000000000006
 20
2.010668505622377
 30
0.0
 10
12.00000000000009
 20
2.070713979464429
 30
0.0
 10
12.00000000000014
 20
2.196330759822082
 30
0.0
 10
11.99999999999997
 20
2.413347869821806
 30
0.0
 10
12.00000000000011
 20
2.655469471892062
 30
0.0
 10
12.00000000000009
 20
2.914813588834129
 30
0.0
 10
12.0
 20
3.188279031174076
 30
0.0
 10
12.00000000000006
 20
3.473482712878223
 30
0.0
 10
12.00000000000003
 20
3.77301799112351
 30
0.0
 10
12.0
 20
4.080737255749824
 30
0.0
 10
12.00000000000006
 20
4.393831241704753
 30
0.0
 10
12.0
 20
4.710746210520803
 30
0.0
 10
12.00000000000003
 20
5.033902002639316
 30
0.0
 10
12.00000000000009
 20
5.334883374649941
 30
0.0
 10
11.99999999999986
 20
5.693626196479407
 30
0.0
 10
12.00000000000009
 20
6.024825298196745
 30
0.0
 10
12.00000000000006
 20
6.264995843381975
 30
0.0
 10
12.00000000000003
 20
6.345556814009242
 30
0.0
  0
LINE
  5
20D
330
1F
100
AcDbEntity
  8
중심선
 48
0.8
100
AcDbLine
 10
-76.72499999999997
 20
0.0010749287238951
 30
0.0
 11
30.87500000000003
 21
0.0010749287239022
 31
0.0
  0
CIRCLE
  5
20E
330
1F
100
AcDbEntity
  8
해칭선
100
AcDbCircle
 10
0.0
 20
0.0
 30
0.0
 40
3.000000000000001
  0
DIMENSION
  5
20F
330
1F
100
AcDbEntity
  8
0
  6
Continuous
 62
     0
370
    15
100
AcDbDimension
  2
*D13
 10
-86.08999999999996
 20
-6.348925071276152
 30
0.0
 11
-86.08999999999997
 21
-2.636846307204323
 31
0.0
 70
   160
  1
%%c<>
 71
     2
 42
12.69999999999999
 52
-270.0
  3
SLDDIMSTYLE2
100
AcDbAlignedDimension
 13
-72.45499999999996
 23
6.351074928723889
 33
0.0
 14
-72.45499999999996
 24
-6.348925071276099
 34
0.0
 50
90.0000000000002
100
AcDbRotatedDimension
1001
ACAD
1000
DSTYLE
1002
{
1070
   171
1070
     6
1070
   273
1070
     7
1002
}
  0
DIMENSION
  5
210
330
1F
100
AcDbEntity
  8
0
  6
Continuous
 62
     0
370
    15
100
AcDbDimension
  2
*D14
 10
-73.72499999999997
 20
32.9661543236754
 30
0.0
 11
-22.92499999999995
 21
32.9661543236754
 31
0.0
 70
   160
  1
<>
 71
     2
 42
101.6
  3
SLDDIMSTYLE2
100
AcDbAlignedDimension
 13
27.87500000000003
 23
6.351074928723889
 33
0.0
 14
-73.72499999999997
 24
5.081074928723893
 34
0.0
 50
0.000000000000004
100
AcDbRotatedDimension
1001
ACAD
1000
DSTYLE
1002
{
1070
   171
1070
     6
1070
   273
1070
     7
1002
}
  0
DIMENSION
  5
211
330
1F
100
AcDbEntity
  8
0
  6
Continuous
 62
     0
370
    15
100
AcDbDimension
  2
*D15
 10
12.00000000000006
 20
16.10458842475233
 30
0.0
 11
-7.291499999999957
 21
16.10458842475233
 31
0.0
 70
   160
  1
<>
 71
     2
 42
15.87499999999997
  3
SLDDIMSTYLE2
100
AcDbAlignedDimension
 13
27.87500000000003
 23
6.351074928723889
 33
0.0
 14
12.00000000000006
 24
6.345556814009669
 34
0.0
 50
-0.0000000000001282
100
AcDbRotatedDimension
1001
ACAD
1000
DSTYLE
1002
{
1070
   171
1070
     6
1070
   273
1070
     7
1002
}
  0
DIMENSION
  5
212
330
1F
100
AcDbEntity
  8
0
  6
Continuous
 62
     0
370
    15
100
AcDbDimension
  2
*D16
 10
47.30128668057972
 20
-6.348925071276014
 30
0.0
 11
47.30128668057961
 21
26.51757492872386
 31
0.0
 70
   160
  1
%%c<>
 71
     2
 42
12.69999999999997
 52
-270.0
  3
SLDDIMSTYLE2
100
AcDbAlignedDimension
 13
27.87500000000003
 23
6.351074928723889
 33
0.0
 14
27.87500000000003
 24
-6.348925071276085
 34
0.0
 50
90.0000000000002
100
AcDbRotatedDimension
1001
ACAD
1000
DSTYLE
1002
{
1070
   171
1070
     6
1070
   273
1070
     7
1002
}
  0
INSERT
  5
213
330
1F
100
AcDbEntity
  8
해칭선
100
AcDbBlockReference
  2
SW_DOWELSYMBOL_0
 10
0.0
 20
0.0
 30
0.0
  0
SPLINE
  5
214
330
1F
100
AcDbEntity
  8
0
  6
Continuous
 62
     1
370
    15
100
AcDbSpline
210
0.0
220
0.0
230
1.0
 70
  1064
 71
     3
 72
    10
 73
     6
 74
     4
 42
0.000000001
 43
0.0000000001
 44
0.0
 40
0.0
 40
0.0
 40
0.0
 40
0.0
 40
0.9474106357383805
 40
2.298593291234054
 40
3.709164044140357
 40
3.709164044140357
 40
3.709164044140357
 40
3.709164044140357
 10
22.11657955112184
 20
5.183679572330639
 30
0.0
 10
22.3934343839997
 20
5.333872347944635
 30
0.0
 10
23.06513537351077
 20
5.698267778389737
 30
0.0
 10
24.1849299565876
 20
6.269778742795536
 30
0.0
 10
25.11431489364232
 20
6.323590481744259
 30
0.0
 10
25.58900000000003
 20
6.351074928723911
 30
0.0
 11
22.11657955112184
 21
5.183679572330639
 31
0.0
 11
22.95092278766688
 21
5.632520609159663
 31
0.0
 11
24.18988703080151
 21
6.171651551274998
 31
0.0
 11
25.58900000000003
 21
6.351074928723911
 31
0.0
  0
LINE
  5
216
330
1F
100
AcDbEntity
  8
0
  6
Continuous
 62
     1
370
    15
100
AcDbLine
 10
27.87500000000003
 20
2.366427449074159
 30
0.0
 11
27.87500000000003
 21
4.06507492872391
 31
0.0
  0
SPLINE
  5
218
330
1F
100
AcDbEntity
  8
0
  6
Continuous
 62
     1
370
    15
100
AcDbSpline
210
0.0
220
0.0
230
1.0
 70
     8
 71
     3
 72
     9
 73
     5
 74
     0
 42
0.000000001
 43
0.0000000001
 40
0.0
 40
0.0
 40
0.0
 40
0.0
 40
1.51275483426816
 40
4.158235894152579
 40
4.158235894152579
 40
4.158235894152579
 40
4.158235894152579
 10
22.07951374627058
 20
-5.193797160241111
 30
0.0
 10
22.55507353203228
 20
-5.362777531430034
 30
0.0
 10
23.38324809660722
 20
-5.827268028480695
 30
0.0
 10
24.57926157931317
 20
-6.116828713761178
 30
0.0
 10
25.58900000000003
 20
-6.348925071276106
 30
0.0
  0
LINE
  5
21A
330
1F
100
AcDbEntity
  8
0
  6
Continuous
 62
     1
370
    15
100
AcDbLine
 10
27.87500000000003
 20
-4.062925071276107
 30
0.0
 11
27.87500000000003
 21
0.6218992450549692
 31
0.0
  0
SPLINE
  5
21B
330
1F
100
AcDbEntity
  8
0
  6
Continuous
 62
     1
370
    15
100
AcDbSpline
210
0.0
220
0.0
230
1.0
 70
     8
 71
     3
 72
    22
 73
    18
 74
     0
 42
0.000000001
 43
0.00000001
 40
0.3440436649922248
 40
0.3440436649922248
 40
0.3440436649922248
 40
0.3440436649922248
 40
0.3749999999999978
 40
0.3749999999999978
 40
0.4374999999999974
 40
0.4374999999999974
 40
0.499999999999997
 40
0.499999999999997
 40
0.6249999999999962
 40
0.6249999999999962
 40
0.6874999999999969
 40
0.6874999999999969
 40
0.7499999999999974
 40
0.7499999999999974
 40
0.8749999999999988
 40
0.8749999999999988
 40
1.0
 40
1.0
 40
1.0
 40
1.0
 10
22.07951374627055
 20
-5.193797160241104
 30
0.0
 10
21.9205333982438
 20
-5.141107378048922
 30
0.0
 10
21.76157020205716
 20
-5.086798846895025
 30
0.0
 10
21.28239019807023
 20
-4.918180013335899
 30
0.0
 10
20.96437250093672
 20
-4.799316169822205
 30
0.0
 10
20.32516011134985
 20
-4.549332580721646
 30
0.0
 10
20.00396773253144
 20
-4.418188684511207
 30
0.0
 10
19.04112847025488
 20
-4.008475818914178
 30
0.0
 10
18.40513432642027
 20
-3.714400079460596
 30
0.0
 10
17.44257976726468
 20
-3.24595055468312
 30
0.0
 10
17.12124365939815
 20
-3.085383713703465
 30
0.0
 10
16.48127199952904
 20
-2.757272219975796
 30
0.0
 10
16.16355145091654
 20
-2.589900775640253
 30
0.0
 10
15.20303240058311
 20
-2.077276374569372
 30
0.0
 10
14.55999676341568
 20
-1.722694809578428
 30
0.0
 10
13.28433668355402
 20
-1.001581120093412
 30
0.0
 10
12.63873061411275
 20
-0.632610469375976
 30
0.0
 10
12.00000000000014
 20
-0.2635939347402925
 30
0.0
  0
ARC
  5
261
330
1F
100
AcDbEntity
  8
0
  6
Continuous
 62
     1
370
    15
100
AcDbCircle
 10
25.58900000000003
 20
4.06507492872391
 30
0.0
 40
2.286
100
AcDbArc
 50
0.0
 51
90.0
  0
ARC
  5
262
102
{ACAD_REACTORS
102
}
330
1F
100
AcDbEntity
  8
0
  6
Continuous
 62
     1
370
    15
100
AcDbCircle
 10
25.58900000000003
 20
-4.062925071276107
 30
0.0
 40
2.286
100
AcDbArc
 50
270.0
 51
0.0
  0
DIMENSION
  5
263
102
{ACAD_REACTORS
102
}
102
{ACAD_XDICTIONARY
360
264
102
}
330
1F
100
AcDbEntity
  8
0
  6
Continuous
 62
     0
370
    15
100
AcDbDimension
  2
*D18
 10
25.58900000000003
 20
-4.062925071276107
 30
0.0
 11
40.03471107712799
 21
-23.75350360616538
 31
0.0
 70
   164
  1
<>
 71
     5
 42
2.285999999999996
  3
SLDDIMSTYLE2
100
AcDbRadialDimension
 15
26.94121970711225
 25
-5.906101097513782
 35
0.0
 40
0.0
1001
ACAD
1000
DSTYLE
1002
{
1070
   171
1070
     3
1002
}
1001
ACAD_DSTYLE_DIMRADIAL_EXTENSION
1070
   387
1070
     1
1070
   388
1040
4.71238898038469
1070
   390
1040
0.0
  0
ENDSEC
  0
SECTION
  2
OBJECTS
  0
DICTIONARY
  5
C
330
0
100
AcDbDictionary
281
     1
  3
ACAD_GROUP
350
D
  3
ACAD_IMAGE_VARS
350
146
  3
ACAD_LAYOUT
350
1A
  3
ACAD_MLINESTYLE
350
17
  3
ACAD_PLOTSETTINGS
350
19
  3
ACAD_PLOTSTYLENAME
350
E
  3
ACAD_SCALELIST
350
47
  3
APPDATA
350
144
  3
DWGPROPS
350
270
  0
DICTIONARY
  5
1E8
330
2
100
AcDbDictionary
280
     1
281
     1
  3
ACAD_LAYERSTATES
360
1E9
  0
DICTIONARY
  5
264
330
263
100
AcDbDictionary
280
     1
281
     1
  0
DICTIONARY
  5
D
102
{ACAD_REACTORS
330
C
102
}
330
C
100
AcDbDictionary
281
     1
  0
RASTERVARIABLES
  5
146
102
{ACAD_REACTORS
330
C
102
}
330
C
100
AcDbRasterVariables
 90
        0
 70
     1
 71
     1
 72
     1
  0
DICTIONARY
  5
1A
102
{ACAD_REACTORS
330
C
102
}
330
C
100
AcDbDictionary
281
     1
  3
Layout1
350
1E
  3
Layout2
350
26
  3
Model
350
22
  0
DICTIONARY
  5
17
102
{ACAD_REACTORS
330
C
102
}
330
C
100
AcDbDictionary
281
     1
  3
Standard
350
18
  0
DICTIONARY
  5
19
102
{ACAD_REACTORS
330
C
102
}
330
C
100
AcDbDictionary
281
     1
  0
ACDBDICTIONARYWDFLT
  5
E
102
{ACAD_REACTORS
330
C
102
}
330
C
100
AcDbDictionary
281
     1
  3
Normal
350
F
100
AcDbDictionaryWithDefault
340
F
  0
DICTIONARY
  5
47
102
{ACAD_REACTORS
330
C
102
}
330
C
100
AcDbDictionary
281
     1
  3
A0
350
48
  3
A1
350
49
  3
A2
350
4A
  3
A3
350
4B
  3
A4
350
4C
  3
A5
350
4D
  3
A6
350
4E
  3
A7
350
4F
  3
A8
350
50
  3
A9
350
51
  3
B0
350
52
  3
B1
350
53
  3
B2
350
54
  3
B3
350
55
  3
B4
350
56
  3
B5
350
57
  3
B6
350
58
  3
B7
350
59
  3
B8
350
5A
  3
B9
350
5B
  3
C0
350
5C
  3
C1
350
5D
  3
C2
350
5E
  3
C3
350
5F
  3
C4
350
60
  3
C5
350
61
  3
C6
350
62
  3
C7
350
63
  3
C8
350
64
  3
C9
350
65
  3
D0
350
66
  3
D1
350
67
  3
D2
350
68
  0
DICTIONARY
  5
144
102
{ACAD_REACTORS
330
C
102
}
330
C
100
AcDbDictionary
281
     1
  0
XRECORD
  5
270
102
{ACAD_REACTORS
330
C
102
}
330
C
100
AcDbXrecord
280
     1
  1
DWGPROPS COOKIE
  2

  3

  4

  6

  7

  8
12017012
  9

300
=
301
=
302
=
303
=
304
=
305
=
306
=
307
=
308
=
309
=
 40
0.0
 41
2458296.32100875
 42
2458296.372333958
  1

 90
        0
  0
DICTIONARY
  5
1E9
102
{ACAD_REACTORS
330
1E8
102
}
330
1E8
100
AcDbDictionary
281
     1
  0
LAYOUT
  5
1E
102
{ACAD_REACTORS
330
1A
102
}
330
1A
100
AcDbPlotSettings
  1

  2
none_device
  4

  6

 40
0.0
 41
0.0
 42
0.0
 43
0.0
 44
0.0
 45
0.0
 46
0.0
 47
0.0
 48
0.0
 49
0.0
140
0.0
141
0.0
142
1.0
143
1.0
 70
   688
 72
     1
 73
     0
 74
     5
  7

 75
    16
147
1.0
148
0.0
149
0.0
100
AcDbLayout
  1
Layout1
 70
     1
 71
     1
 10
0.0
 20
0.0
 11
420.0
 21
297.0
 12
0.0
 22
0.0
 32
0.0
 14
1.000000000000000E+20
 24
1.000000000000000E+20
 34
1.000000000000000E+20
 15
-1.000000000000000E+20
 25
-1.000000000000000E+20
 35
-1.000000000000000E+20
146
0.0
 13
0.0
 23
0.0
 33
0.0
 16
1.0
 26
0.0
 36
0.0
 17
0.0
 27
1.0
 37
0.0
 76
     0
330
1B
  0
LAYOUT
  5
26
102
{ACAD_REACTORS
330
1A
102
}
330
1A
100
AcDbPlotSettings
  1

  2
none_device
  4

  6

 40
0.0
 41
0.0
 42
0.0
 43
0.0
 44
0.0
 45
0.0
 46
0.0
 47
0.0
 48
0.0
 49
0.0
140
0.0
141
0.0
142
1.0
143
1.0
 70
   688
 72
     1
 73
     0
 74
     5
  7

 75
    16
147
1.0
148
0.0
149
0.0
100
AcDbLayout
  1
Layout2
 70
     1
 71
     2
 10
0.0
 20
0.0
 11
0.0
 21
0.0
 12
0.0
 22
0.0
 32
0.0
 14
0.0
 24
0.0
 34
0.0
 15
0.0
 25
0.0
 35
0.0
146
0.0
 13
0.0
 23
0.0
 33
0.0
 16
1.0
 26
0.0
 36
0.0
 17
0.0
 27
1.0
 37
0.0
 76
     0
330
23
  0
LAYOUT
  5
22
102
{ACAD_REACTORS
330
1A
102
}
330
1A
100
AcDbPlotSettings
  1

  2
none_device
  4
ANSI_A_(11.00_x_8.50_Inches)
  6

 40
6.35
 41
19.05
 42
6.35000508
 43
19.05000254
 44
279.4
 45
215.9
 46
124.4540690248257
 47
96.90671056986584
 48
0.0
 49
0.0
140
0.0
141
0.0
142
0.0723378029136407
143
1.0
 70
  1696
 72
     0
 73
     0
 74
     0
  7

 75
     0
147
0.0235690232323232
148
0.0
149
0.0
100
AcDbLayout
  1
Model
 70
     1
 71
     0
 10
0.0
 20
0.0
 11
420.0
 21
297.0
 12
0.0
 22
0.0
 32
0.0
 14
1.000000000000000E+20
 24
1.000000000000000E+20
 34
1.000000000000000E+20
 15
-1.000000000000000E+20
 25
-1.000000000000000E+20
 35
-1.000000000000000E+20
146
0.0
 13
0.0
 23
0.0
 33
0.0
 16
1.0
 26
0.0
 36
0.0
 17
0.0
 27
1.0
 37
0.0
 76
     0
330
1F
331
29
  0
MLINESTYLE
  5
18
102
{ACAD_REACTORS
330
17
102
}
330
17
100
AcDbMlineStyle
  2
Standard
 70
     0
  3

 62
   256
 51
90.0
 52
90.0
 71
     2
 49
0.5
 62
   256
  6
BYLAYER
 49
-0.5
 62
   256
  6
BYLAYER
  0
ACDBPLACEHOLDER
  5
F
102
{ACAD_REACTORS
330
E
102
}
330
E
  0
SCALE
  5
48
102
{ACAD_REACTORS
330
47
102
}
330
47
100
AcDbScale
 70
     0
300
1:1
140
1.0
141
1.0
290
     1
  0
SCALE
  5
49
102
{ACAD_REACTORS
330
47
102
}
330
47
100
AcDbScale
 70
     0
300
1:2
140
1.0
141
2.0
290
     0
  0
SCALE
  5
4A
102
{ACAD_REACTORS
330
47
102
}
330
47
100
AcDbScale
 70
     0
300
1:4
140
1.0
141
4.0
290
     0
  0
SCALE
  5
4B
102
{ACAD_REACTORS
330
47
102
}
330
47
100
AcDbScale
 70
     0
300
1:5
140
1.0
141
5.0
290
     0
  0
SCALE
  5
4C
102
{ACAD_REACTORS
330
47
102
}
330
47
100
AcDbScale
 70
     0
300
1:8
140
1.0
141
8.0
290
     0
  0
SCALE
  5
4D
102
{ACAD_REACTORS
330
47
102
}
330
47
100
AcDbScale
 70
     0
300
1:10
140
1.0
141
10.0
290
     0
  0
SCALE
  5
4E
102
{ACAD_REACTORS
330
47
102
}
330
47
100
AcDbScale
 70
     0
300
1:16
140
1.0
141
16.0
290
     0
  0
SCALE
  5
4F
102
{ACAD_REACTORS
330
47
102
}
330
47
100
AcDbScale
 70
     0
300
1:20
140
1.0
141
20.0
290
     0
  0
SCALE
  5
50
102
{ACAD_REACTORS
330
47
102
}
330
47
100
AcDbScale
 70
     0
300
1:30
140
1.0
141
30.0
290
     0
  0
SCALE
  5
51
102
{ACAD_REACTORS
330
47
102
}
330
47
100
AcDbScale
 70
     0
300
1:40
140
1.0
141
40.0
290
     0
  0
SCALE
  5
52
102
{ACAD_REACTORS
330
47
102
}
330
47
100
AcDbScale
 70
     0
300
1:50
140
1.0
141
50.0
290
     0
  0
SCALE
  5
53
102
{ACAD_REACTORS
330
47
102
}
330
47
100
AcDbScale
 70
     0
300
1:100
140
1.0
141
100.0
290
     0
  0
SCALE
  5
54
102
{ACAD_REACTORS
330
47
102
}
330
47
100
AcDbScale
 70
     0
300
2:1
140
2.0
141
1.0
290
     0
  0
SCALE
  5
55
102
{ACAD_REACTORS
330
47
102
}
330
47
100
AcDbScale
 70
     0
300
4:1
140
4.0
141
1.0
290
     0
  0
SCALE
  5
56
102
{ACAD_REACTORS
330
47
102
}
330
47
100
AcDbScale
 70
     0
300
8:1
140
8.0
141
1.0
290
     0
  0
SCALE
  5
57
102
{ACAD_REACTORS
330
47
102
}
330
47
100
AcDbScale
 70
     0
300
10:1
140
10.0
141
1.0
290
     0
  0
SCALE
  5
58
102
{ACAD_REACTORS
330
47
102
}
330
47
100
AcDbScale
 70
     0
300
100:1
140
100.0
141
1.0
290
     0
  0
SCALE
  5
59
102
{ACAD_REACTORS
330
47
102
}
330
47
100
AcDbScale
 70
     0
300
1/128" = 1'-0"
140
0.0078125
141
12.0
290
     0
  0
SCALE
  5
5A
102
{ACAD_REACTORS
330
47
102
}
330
47
100
AcDbScale
 70
     0
300
1/64" = 1'-0"
140
0.015625
141
12.0
290
     0
  0
SCALE
  5
5B
102
{ACAD_REACTORS
330
47
102
}
330
47
100
AcDbScale
 70
     0
300
1/32" = 1'-0"
140
0.03125
141
12.0
290
     0
  0
SCALE
  5
5C
102
{ACAD_REACTORS
330
47
102
}
330
47
100
AcDbScale
 70
     0
300
1/16" = 1'-0"
140
0.0625
141
12.0
290
     0
  0
SCALE
  5
5D
102
{ACAD_REACTORS
330
47
102
}
330
47
100
AcDbScale
 70
     0
300
3/32" = 1'-0"
140
0.09375
141
12.0
290
     0
  0
SCALE
  5
5E
102
{ACAD_REACTORS
330
47
102
}
330
47
100
AcDbScale
 70
     0
300
1/8" = 1'-0"
140
0.125
141
12.0
290
     0
  0
SCALE
  5
5F
102
{ACAD_REACTORS
330
47
102
}
330
47
100
AcDbScale
 70
     0
300
3/16" = 1'-0"
140
0.1875
141
12.0
290
     0
  0
SCALE
  5
60
102
{ACAD_REACTORS
330
47
102
}
330
47
100
AcDbScale
 70
     0
300
1/4" = 1'-0"
140
0.25
141
12.0
290
     0
  0
SCALE
  5
61
102
{ACAD_REACTORS
330
47
102
}
330
47
100
AcDbScale
 70
     0
300
3/8" = 1'-0"
140
0.375
141
12.0
290
     0
  0
SCALE
  5
62
102
{ACAD_REACTORS
330
47
102
}
330
47
100
AcDbScale
 70
     0
300
1/2" = 1'-0"
140
0.5
141
12.0
290
     0
  0
SCALE
  5
63
102
{ACAD_REACTORS
330
47
102
}
330
47
100
AcDbScale
 70
     0
300
3/4" = 1'-0"
140
0.75
141
12.0
290
     0
  0
SCALE
  5
64
102
{ACAD_REACTORS
330
47
102
}
330
47
100
AcDbScale
 70
     0
300
1" = 1'-0"
140
1.0
141
12.0
290
     0
  0
SCALE
  5
65
102
{ACAD_REACTORS
330
47
102
}
330
47
100
AcDbScale
 70
     0
300
1-1/2" = 1'-0"
140
1.5
141
12.0
290
     0
  0
SCALE
  5
66
102
{ACAD_REACTORS
330
47
102
}
330
47
100
AcDbScale
 70
     0
300
3" = 1'-0"
140
3.0
141
12.0
290
     0
  0
SCALE
  5
67
102
{ACAD_REACTORS
330
47
102
}
330
47
100
AcDbScale
 70
     0
300
6" = 1'-0"
140
6.0
141
12.0
290
     0
  0
SCALE
  5
68
102
{ACAD_REACTORS
330
47
102
}
330
47
100
AcDbScale
 70
     0
300
1'-0" = 1'-0"
140
12.0
141
12.0
290
     0
  0
ENDSEC
  0
EOF
