  0
SECTION
  2
HEADER
  9
$ACADVER
  1
AC1015
  9
$ACADMAINTVER
 70
     6
  9
$DWGCODEPAGE
  3
ANSI_949
  9
$INSBASE
 10
0.0
 20
0.0
 30
0.0
  9
$EXTMIN
 10
-48.15179513072385
 20
-49.97073246008785
 30
0.0
  9
$EXTMAX
 10
80.11348381534562
 20
37.34007939495148
 30
0.0
  9
$LIMMIN
 10
0.0
 20
0.0
  9
$LIMMAX
 10
420.0
 20
297.0
  9
$ORTHOMODE
 70
     1
  9
$REGENMODE
 70
     1
  9
$FILLMODE
 70
     1
  9
$QTEXTMODE
 70
     0
  9
$MIRRTEXT
 70
     1
  9
$LTSCALE
 40
1.0
  9
$ATTMODE
 70
     1
  9
$TEXTSIZE
 40
3.5
  9
$TRACEWID
 40
1.0
  9
$TEXTSTYLE
  7
Standard
  9
$CLAYER
  8
0
  9
$CELTYPE
  6
ByLayer
  9
$CECOLOR
 62
   256
  9
$CELTSCALE
 40
1.0
  9
$DISPSILH
 70
     0
  9
$DIMSCALE
 40
1.0
  9
$DIMASZ
 40
3.302
  9
$DIMEXO
 40
1.0
  9
$DIMDLI
 40
3.75
  9
$DIMRND
 40
0.0
  9
$DIMDLE
 40
0.0
  9
$DIMEXE
 40
1.0
  9
$DIMTP
 40
0.0
  9
$DIMTM
 40
0.0
  9
$DIMTXT
 40
3.5
  9
$DIMCEN
 40
2.5
  9
$DIMTSZ
 40
0.0
  9
$DIMTOL
 70
     0
  9
$DIMLIM
 70
     0
  9
$DIMTIH
 70
     1
  9
$DIMTOH
 70
     1
  9
$DIMSE1
 70
     0
  9
$DIMSE2
 70
     0
  9
$DIMTAD
 70
     1
  9
$DIMZIN
 70
     0
  9
$DIMBLK
  1

  9
$DIMASO
 70
     1
  9
$DIMSHO
 70
     1
  9
$DIMPOST
  1

  9
$DIMAPOST
  1

  9
$DIMALT
 70
     0
  9
$DIMALTD
 70
     3
  9
$DIMALTF
 40
0.0393700787401575
  9
$DIMLFAC
 40
1.0
  9
$DIMTOFL
 70
     1
  9
$DIMTVP
 40
0.0
  9
$DIMTIX
 70
     0
  9
$DIMSOXD
 70
     0
  9
$DIMSAH
 70
     0
  9
$DIMBLK1
  1

  9
$DIMBLK2
  1

  9
$DIMSTYLE
  2
ISO-25
  9
$DIMCLRD
 70
     0
  9
$DIMCLRE
 70
     0
  9
$DIMCLRT
 70
     0
  9
$DIMTFAC
 40
1.0
  9
$DIMGAP
 40
1.524
  9
$DIMJUST
 70
     0
  9
$DIMSD1
 70
     0
  9
$DIMSD2
 70
     0
  9
$DIMTOLJ
 70
     0
  9
$DIMTZIN
 70
     0
  9
$DIMALTZ
 70
     0
  9
$DIMALTTZ
 70
     0
  9
$DIMUPT
 70
     0
  9
$DIMDEC
 70
     2
  9
$DIMTDEC
 70
     2
  9
$DIMALTU
 70
     2
  9
$DIMALTTD
 70
     3
  9
$DIMTXSTY
  7
Standard
  9
$DIMAUNIT
 70
     0
  9
$DIMADEC
 70
     2
  9
$DIMALTRND
 40
0.0
  9
$DIMAZIN
 70
     0
  9
$DIMDSEP
 70
    44
  9
$DIMATFIT
 70
     3
  9
$DIMFRAC
 70
     0
  9
$DIMLDRBLK
  1

  9
$DIMLUNIT
 70
     2
  9
$DIMLWD
 70
    -2
  9
$DIMLWE
 70
    -2
  9
$DIMTMOVE
 70
     0
  9
$LUNITS
 70
     2
  9
$LUPREC
 70
     2
  9
$SKETCHINC
 40
1.0
  9
$FILLETRAD
 40
10.0
  9
$AUNITS
 70
     0
  9
$AUPREC
 70
     2
  9
$MENU
  1
.
  9
$ELEVATION
 40
0.0
  9
$PELEVATION
 40
0.0
  9
$THICKNESS
 40
0.0
  9
$LIMCHECK
 70
     0
  9
$CHAMFERA
 40
0.0
  9
$CHAMFERB
 40
0.0
  9
$CHAMFERC
 40
0.0
  9
$CHAMFERD
 40
0.0
  9
$SKPOLY
 70
     0
  9
$TDCREATE
 40
2458296.696871076
  9
$TDUCREATE
 40
2458296.321871076
  9
$TDUPDATE
 40
2459703.646269421
  9
$TDUUPDATE
 40
2459703.271269421
  9
$TDINDWG
 40
0.0014150347
  9
$TDUSRTIMER
 40
0.0007572106
  9
$USRTIMER
 70
     1
  9
$ANGBASE
 50
0.0
  9
$ANGDIR
 70
     0
  9
$PDMODE
 70
     0
  9
$PDSIZE
 40
-1.0
  9
$PLINEWID
 40
0.0
  9
$SPLFRAME
 70
     0
  9
$SPLINETYPE
 70
     6
  9
$SPLINESEGS
 70
     8
  9
$HANDSEED
  5
294
  9
$SURFTAB1
 70
     6
  9
$SURFTAB2
 70
     6
  9
$SURFTYPE
 70
     6
  9
$SURFU
 70
     6
  9
$SURFV
 70
     6
  9
$UCSBASE
  2

  9
$UCSNAME
  2

  9
$UCSORG
 10
0.0
 20
0.0
 30
0.0
  9
$UCSXDIR
 10
1.0
 20
0.0
 30
0.0
  9
$UCSYDIR
 10
0.0
 20
1.0
 30
0.0
  9
$UCSORTHOREF
  2

  9
$UCSORTHOVIEW
 70
     0
  9
$UCSORGTOP
 10
0.0
 20
0.0
 30
0.0
  9
$UCSORGBOTTOM
 10
0.0
 20
0.0
 30
0.0
  9
$UCSORGLEFT
 10
0.0
 20
0.0
 30
0.0
  9
$UCSORGRIGHT
 10
0.0
 20
0.0
 30
0.0
  9
$UCSORGFRONT
 10
0.0
 20
0.0
 30
0.0
  9
$UCSORGBACK
 10
0.0
 20
0.0
 30
0.0
  9
$PUCSBASE
  2

  9
$PUCSNAME
  2

  9
$PUCSORG
 10
0.0
 20
0.0
 30
0.0
  9
$PUCSXDIR
 10
1.0
 20
0.0
 30
0.0
  9
$PUCSYDIR
 10
0.0
 20
1.0
 30
0.0
  9
$PUCSORTHOREF
  2

  9
$PUCSORTHOVIEW
 70
     0
  9
$PUCSORGTOP
 10
0.0
 20
0.0
 30
0.0
  9
$PUCSORGBOTTOM
 10
0.0
 20
0.0
 30
0.0
  9
$PUCSORGLEFT
 10
0.0
 20
0.0
 30
0.0
  9
$PUCSORGRIGHT
 10
0.0
 20
0.0
 30
0.0
  9
$PUCSORGFRONT
 10
0.0
 20
0.0
 30
0.0
  9
$PUCSORGBACK
 10
0.0
 20
0.0
 30
0.0
  9
$USERI1
 70
     0
  9
$USERI2
 70
     0
  9
$USERI3
 70
     0
  9
$USERI4
 70
     0
  9
$USERI5
 70
     0
  9
$USERR1
 40
0.0
  9
$USERR2
 40
0.0
  9
$USERR3
 40
0.0
  9
$USERR4
 40
0.0
  9
$USERR5
 40
0.0
  9
$WORLDVIEW
 70
     1
  9
$SHADEDGE
 70
     3
  9
$SHADEDIF
 70
    70
  9
$TILEMODE
 70
     1
  9
$MAXACTVP
 70
    64
  9
$PINSBASE
 10
0.0
 20
0.0
 30
0.0
  9
$PLIMCHECK
 70
     0
  9
$PEXTMIN
 10
1.000000000000000E+20
 20
1.000000000000000E+20
 30
1.000000000000000E+20
  9
$PEXTMAX
 10
-1.000000000000000E+20
 20
-1.000000000000000E+20
 30
-1.000000000000000E+20
  9
$PLIMMIN
 10
0.0
 20
0.0
  9
$PLIMMAX
 10
0.0
 20
0.0
  9
$UNITMODE
 70
     0
  9
$VISRETAIN
 70
     1
  9
$PLINEGEN
 70
     0
  9
$PSLTSCALE
 70
     1
  9
$TREEDEPTH
 70
  3020
  9
$CMLSTYLE
  2
Standard
  9
$CMLJUST
 70
     0
  9
$CMLSCALE
 40
20.0
  9
$PROXYGRAPHICS
 70
     1
  9
$MEASUREMENT
 70
     1
  9
$CELWEIGHT
370
    -1
  9
$ENDCAPS
280
     0
  9
$JOINSTYLE
280
     0
  9
$LWDISPLAY
290
     1
  9
$INSUNITS
 70
     4
  9
$HYPERLINKBASE
  1

  9
$STYLESHEET
  1

  9
$XEDIT
290
     1
  9
$CEPSNTYPE
380
     0
  9
$PSTYLEMODE
290
     1
  9
$FINGERPRINTGUID
  2
{A7A45CF4-BDCF-4EC1-AC1E-0319677F1B76}
  9
$VERSIONGUID
  2
{FAEB1C32-E019-11D5-929B-00C0DF256EC4}
  9
$EXTNAMES
290
     1
  9
$PSVPSCALE
 40
0.0
  9
$OLESTARTUP
290
     0
  0
ENDSEC
  0
SECTION
  2
CLASSES
  0
CLASS
  1
ACDBDICTIONARYWDFLT
  2
AcDbDictionaryWithDefault
  3
ObjectDBX Classes
 90
        0
280
     0
281
     0
  0
CLASS
  1
VISUALSTYLE
  2
AcDbVisualStyle
  3
ObjectDBX Classes
 90
     4095
280
     0
281
     0
  0
CLASS
  1
MATERIAL
  2
AcDbMaterial
  3
ObjectDBX Classes
 90
     1153
280
     0
281
     0
  0
CLASS
  1
SCALE
  2
AcDbScale
  3
ObjectDBX Classes
 90
     1153
280
     0
281
     0
  0
CLASS
  1
SUN
  2
AcDbSun
  3
SCENEOE
 90
     1153
280
     0
281
     0
  0
CLASS
  1
ACDBPLACEHOLDER
  2
AcDbPlaceHolder
  3
ObjectDBX Classes
 90
        0
280
     0
281
     0
  0
CLASS
  1
LAYOUT
  2
AcDbLayout
  3
ObjectDBX Classes
 90
        0
280
     0
281
     0
  0
CLASS
  1
TABLESTYLE
  2
AcDbTableStyle
  3
ObjectDBX Classes
 90
     4095
280
     0
281
     0
  0
CLASS
  1
MLEADERSTYLE
  2
AcDbMLeaderStyle
  3
ACDB_MLEADERSTYLE_CLASS
 90
     4095
280
     0
281
     0
  0
CLASS
  1
RASTERVARIABLES
  2
AcDbRasterVariables
  3
ISM
 90
        0
280
     0
281
     0
  0
CLASS
  1
DIMASSOC
  2
AcDbDimAssoc
  3
"AcDbDimAssoc|Product Desc:     AcDim ARX App For Dimension|Company:          Autodesk, Inc.|WEB Address:      www.autodesk.com"
 90
        0
280
     0
281
     0
  0
CLASS
  1
SORTENTSTABLE
  2
AcDbSortentsTable
  3
ObjectDBX Classes
 90
        0
280
     0
281
     0
  0
ENDSEC
  0
SECTION
  2
TABLES
  0
TABLE
  2
VPORT
  5
8
330
0
100
AcDbSymbolTable
 70
     1
  0
VPORT
  5
29
330
8
100
AcDbSymbolTableRecord
100
AcDbViewportTableRecord
  2
*Active
 70
     0
 10
0.0
 20
0.0
 11
1.0
 21
1.0
 12
10.4550196205986
 22
9.042449830016004
 13
0.0
 23
0.0
 14
10.0
 24
10.0
 15
10.0
 25
10.0
 16
0.0
 26
0.0
 36
1.0
 17
0.0
 27
0.0
 37
0.0
 40
68.15413587290793
 41
1.531481481481481
 42
50.0
 43
0.0
 44
0.0
 50
0.0
 51
0.0
 71
    16
 72
  2000
 73
     1
 74
     3
 75
     0
 76
     0
 77
     0
 78
     0
281
     0
 65
     1
110
0.0
120
0.0
130
0.0
111
1.0
121
0.0
131
0.0
112
0.0
122
1.0
132
0.0
 79
     0
146
0.0
  0
ENDTAB
  0
TABLE
  2
LTYPE
  5
5
330
0
100
AcDbSymbolTable
 70
     6
  0
LTYPE
  5
14
330
5
100
AcDbSymbolTableRecord
100
AcDbLinetypeTableRecord
  2
ByBlock
 70
     0
  3

 72
    65
 73
     0
 40
0.0
  0
LTYPE
  5
15
330
5
100
AcDbSymbolTableRecord
100
AcDbLinetypeTableRecord
  2
ByLayer
 70
     0
  3

 72
    65
 73
     0
 40
0.0
  0
LTYPE
  5
16
330
5
100
AcDbSymbolTableRecord
100
AcDbLinetypeTableRecord
  2
Continuous
 70
     0
  3
Solid line
 72
    65
 73
     0
 40
0.0
  0
LTYPE
  5
6A
330
5
100
AcDbSymbolTableRecord
100
AcDbLinetypeTableRecord
  2
HIDDEN
 70
     0
  3
Hidden __ __ __ __ __ __ __ __ __ __ __ __ __ __
 72
    65
 73
     2
 40
1.905
 49
1.27
 74
     0
 49
-0.635
 74
     0
  0
LTYPE
  5
6B
330
5
100
AcDbSymbolTableRecord
100
AcDbLinetypeTableRecord
  2
PHANTOM
 70
     0
  3
Phantom ______  __  __  ______  __  __  ______
 72
    65
 73
     6
 40
12.7
 49
6.35
 74
     0
 49
-1.27
 74
     0
 49
1.27
 74
     0
 49
-1.27
 74
     0
 49
1.27
 74
     0
 49
-1.27
 74
     0
  0
LTYPE
  5
6C
330
5
100
AcDbSymbolTableRecord
100
AcDbLinetypeTableRecord
  2
CENTER
 70
     0
  3
Center ____ _ ____ _ ____ _ ____ _ ____ _ ____
 72
    65
 73
     4
 40
10.16
 49
6.35
 74
     0
 49
-1.27
 74
     0
 49
1.27
 74
     0
 49
-1.27
 74
     0
  0
LTYPE
  5
6D
330
5
100
AcDbSymbolTableRecord
100
AcDbLinetypeTableRecord
  2
CENTERX2
 70
     0
  3
Center (2x) ________  __  ________  __  _____
 72
    65
 73
     4
 40
20.32
 49
12.7
 74
     0
 49
-2.54
 74
     0
 49
2.54
 74
     0
 49
-2.54
 74
     0
  0
LTYPE
  5
6E
330
5
100
AcDbSymbolTableRecord
100
AcDbLinetypeTableRecord
  2
DOT2
 70
     0
  3
Dot (.5x) ........................................
 72
    65
 73
     2
 40
0.635
 49
0.0
 74
     0
 49
-0.635
 74
     0
  0
ENDTAB
  0
TABLE
  2
LAYER
  5
2
102
{ACAD_XDICTIONARY
360
1DD
102
}
330
0
100
AcDbSymbolTable
 70
    18
  0
LAYER
  5
10
330
2
100
AcDbSymbolTableRecord
100
AcDbLayerTableRecord
  2
0
 70
     0
 62
     7
  6
Continuous
370
    -3
390
F
  0
LAYER
  5
6F
330
2
100
AcDbSymbolTableRecord
100
AcDbLayerTableRecord
  2
FORMAT
 70
     0
 62
     2
  6
Continuous
370
    -3
390
F
  0
LAYER
  5
70
330
2
100
AcDbSymbolTableRecord
100
AcDbLayerTableRecord
  2
외형선
 70
     0
 62
     4
  6
Continuous
370
    30
390
F
  0
LAYER
  5
71
330
2
100
AcDbSymbolTableRecord
100
AcDbLayerTableRecord
  2
숨은선
 70
     0
 62
     2
  6
HIDDEN
370
    15
390
F
  0
LAYER
  5
72
330
2
100
AcDbSymbolTableRecord
100
AcDbLayerTableRecord
  2
중심선
 70
     0
 62
     1
  6
CENTERX2
370
    -3
390
F
  0
LAYER
  5
73
330
2
100
AcDbSymbolTableRecord
100
AcDbLayerTableRecord
  2
파단선
 70
     0
 62
     4
  6
Continuous
370
    -3
390
F
  0
LAYER
  5
74
330
2
100
AcDbSymbolTableRecord
100
AcDbLayerTableRecord
  2
해칭선
 70
     0
 62
   100
  6
Continuous
370
    -3
390
F
  0
LAYER
  5
75
330
2
100
AcDbSymbolTableRecord
100
AcDbLayerTableRecord
  2
가는실선
 70
     0
 62
     4
  6
Continuous
370
    -3
390
F
  0
LAYER
  5
76
330
2
100
AcDbSymbolTableRecord
100
AcDbLayerTableRecord
  2
치수_보조선
 70
     0
 62
     4
  6
Continuous
370
    -3
390
F
  0
LAYER
  5
77
330
2
100
AcDbSymbolTableRecord
100
AcDbLayerTableRecord
  2
치수문자_일반주서
 70
     0
 62
     7
  6
Continuous
370
    15
390
F
  0
LAYER
  5
78
330
2
100
AcDbSymbolTableRecord
100
AcDbLayerTableRecord
  2
개별주서
 70
     0
 62
   100
  6
Continuous
370
    30
390
F
  0
LAYER
  5
79
330
2
100
AcDbSymbolTableRecord
100
AcDbLayerTableRecord
  2
중간선
 70
     0
 62
     2
  6
Continuous
370
    15
390
F
  0
LAYER
  5
7A
330
2
100
AcDbSymbolTableRecord
100
AcDbLayerTableRecord
  2
윤곽선
 70
     0
 62
     3
  6
Continuous
370
    40
390
F
  0
LAYER
  5
7B
330
2
100
AcDbSymbolTableRecord
100
AcDbLayerTableRecord
  2
중심마크
 70
     0
 62
   100
  6
Continuous
370
    30
390
F
  0
LAYER
  5
7C
330
2
100
AcDbSymbolTableRecord
100
AcDbLayerTableRecord
  2
가상선
 70
     0
 62
     4
  6
PHANTOM
370
    -3
390
F
  0
LAYER
  5
7D
330
2
100
AcDbSymbolTableRecord
100
AcDbLayerTableRecord
  2
특수지정선
 70
     0
 62
     5
  6
CENTERX2
370
    60
390
F
  0
LAYER
  5
7E
330
2
100
AcDbSymbolTableRecord
100
AcDbLayerTableRecord
  2
참조1
 70
     0
 62
    -4
  6
Continuous
370
    -3
390
F
  0
LAYER
  5
13A
330
2
100
AcDbSymbolTableRecord
100
AcDbLayerTableRecord
  2
Defpoints
 70
     0
 62
     7
  6
Continuous
290
     0
370
    -3
390
F
  0
ENDTAB
  0
TABLE
  2
STYLE
  5
3
330
0
100
AcDbSymbolTable
 70
     2
  0
STYLE
  5
11
330
3
100
AcDbSymbolTableRecord
100
AcDbTextStyleTableRecord
  2
Standard
 70
     0
 40
0.0
 41
1.0
 50
0.0
 71
     0
 42
3.5
  3
txt
  4

  0
STYLE
  5
94
330
3
100
AcDbSymbolTableRecord
100
AcDbTextStyleTableRecord
  2
SLDTEXTSTYLE0
 70
     0
 40
0.0
 41
0.75
 50
0.0
 71
     0
 42
3.5
  3
TXT
  4

  0
ENDTAB
  0
TABLE
  2
VIEW
  5
6
330
0
100
AcDbSymbolTable
 70
     0
  0
ENDTAB
  0
TABLE
  2
UCS
  5
7
330
0
100
AcDbSymbolTable
 70
     0
  0
ENDTAB
  0
TABLE
  2
APPID
  5
9
330
0
100
AcDbSymbolTable
 70
     5
  0
APPID
  5
12
330
9
100
AcDbSymbolTableRecord
100
AcDbRegAppTableRecord
  2
ACAD
 70
     0
  0
APPID
  5
145
330
9
100
AcDbSymbolTableRecord
100
AcDbRegAppTableRecord
  2
ACAD_DSTYLE_DIMRADIAL_EXTENSION
 70
     0
  0
APPID
  5
267
330
9
100
AcDbSymbolTableRecord
100
AcDbRegAppTableRecord
  2
ACAD_DSTYLE_DIMFLIPARROW_SYMBOL
 70
     0
  0
APPID
  5
268
330
9
100
AcDbSymbolTableRecord
100
AcDbRegAppTableRecord
  2
ACAD_DSTYLE_DIMFLIPARROW_WHICH_SYMBOL
 70
     0
  0
APPID
  5
28E
330
9
100
AcDbSymbolTableRecord
100
AcDbRegAppTableRecord
  2
PE_URL
 70
     0
  0
ENDTAB
  0
TABLE
  2
DIMSTYLE
  5
A
330
0
100
AcDbSymbolTable
 70
     5
100
AcDbDimStyleTable
  0
DIMSTYLE
105
27
330
A
100
AcDbSymbolTableRecord
100
AcDbDimStyleTableRecord
  2
ISO-25
 70
     0
 41
2.5
 42
0.625
 43
3.75
 44
1.25
 73
     0
 74
     0
 77
     1
 78
     8
140
2.5
141
2.5
143
0.03937007874016
147
0.625
171
     3
172
     1
178
     0
271
     2
272
     2
274
     3
278
    44
283
     0
284
     8
340
11
  0
DIMSTYLE
105
BC
330
A
100
AcDbSymbolTableRecord
100
AcDbDimStyleTableRecord
  2
SLDDIMSTYLE0
 70
     0
 41
3.302
 44
0.0
 45
0.000000001
 73
     0
 74
     0
 77
     1
 78
    12
 79
     3
140
3.5
147
0.875
172
     1
173
     1
178
     0
271
     2
272
     2
276
     2
284
    12
289
     0
340
94
  0
DIMSTYLE
105
CA
102
{ACAD_REACTORS
330
1EC
330
1ED
330
1EE
330
1EF
330
259
102
}
330
A
100
AcDbSymbolTableRecord
100
AcDbDimStyleTableRecord
  2
SLDDIMSTYLE1
 70
     0
 41
3.302
 44
0.0
 45
0.000000001
 73
     0
 74
     0
 77
     1
 78
     4
 79
     1
140
3.5
143
0.0393700787401575
147
0.875
148
0.000000001
170
     1
173
     1
178
     0
271
     2
272
     2
276
     2
284
    12
340
94
  0
DIMSTYLE
105
DE
330
A
100
AcDbSymbolTableRecord
100
AcDbDimStyleTableRecord
  2
SLDDIMSTYLE2
 70
     0
 41
3.302
 44
0.0
 45
0.000000001
 73
     0
 74
     0
 77
     1
 78
     4
 79
     1
140
3.5
143
0.0393700787401575
147
0.875
148
0.000000001
170
     1
172
     1
173
     1
178
     0
271
     2
272
     2
276
     2
284
    12
289
     0
340
94
  0
DIMSTYLE
105
F4
330
A
100
AcDbSymbolTableRecord
100
AcDbDimStyleTableRecord
  2
SLDDIMSTYLE3
 70
     0
 41
3.302
 44
0.0
 45
0.000000001
 73
     0
 74
     0
 77
     1
 78
    12
 79
     3
140
3.5
143
0.0393700787401575
147
0.875
148
0.000000001
170
     1
172
     1
173
     1
178
     0
271
     2
272
     2
276
     2
284
    12
289
     0
340
94
  0
ENDTAB
  0
TABLE
  2
BLOCK_RECORD
  5
1
330
0
100
AcDbSymbolTable
 70
    18
  0
BLOCK_RECORD
  5
1F
102
{ACAD_XDICTIONARY
360
28C
102
}
330
1
100
AcDbSymbolTableRecord
100
AcDbBlockTableRecord
  2
*Model_Space
340
22
  0
BLOCK_RECORD
  5
1B
330
1
100
AcDbSymbolTableRecord
100
AcDbBlockTableRecord
  2
*Paper_Space
340
1E
  0
BLOCK_RECORD
  5
23
330
1
100
AcDbSymbolTableRecord
100
AcDbBlockTableRecord
  2
*Paper_Space0
340
26
  0
BLOCK_RECORD
  5
7F
330
1
100
AcDbSymbolTableRecord
100
AcDbBlockTableRecord
  2
블럭10
340
0
102
{BLKREFS
331
B4
102
}
  0
BLOCK_RECORD
  5
BD
330
1
100
AcDbSymbolTableRecord
100
AcDbBlockTableRecord
  2
_D
340
0
  0
BLOCK_RECORD
  5
CB
330
1
100
AcDbSymbolTableRecord
100
AcDbBlockTableRecord
  2
_D_1
340
0
  0
BLOCK_RECORD
  5
DF
330
1
100
AcDbSymbolTableRecord
100
AcDbBlockTableRecord
  2
_D_2
340
0
  0
BLOCK_RECORD
  5
F5
330
1
100
AcDbSymbolTableRecord
100
AcDbBlockTableRecord
  2
_D_3
340
0
  0
BLOCK_RECORD
  5
10F
330
1
100
AcDbSymbolTableRecord
100
AcDbBlockTableRecord
  2
SW_DOWELSYMBOL_0
340
0
102
{BLKREFS
331
1F0
102
}
  0
BLOCK_RECORD
  5
16F
330
1
100
AcDbSymbolTableRecord
100
AcDbBlockTableRecord
  2
*D7
340
0
  0
BLOCK_RECORD
  5
17B
330
1
100
AcDbSymbolTableRecord
100
AcDbBlockTableRecord
  2
*D8
340
0
  0
BLOCK_RECORD
  5
188
330
1
100
AcDbSymbolTableRecord
100
AcDbBlockTableRecord
  2
*D9
340
0
  0
BLOCK_RECORD
  5
196
330
1
100
AcDbSymbolTableRecord
100
AcDbBlockTableRecord
  2
*D10
340
0
  0
BLOCK_RECORD
  5
1D2
330
1
100
AcDbSymbolTableRecord
100
AcDbBlockTableRecord
  2
*D11
340
0
  0
BLOCK_RECORD
  5
219
330
1
100
AcDbSymbolTableRecord
100
AcDbBlockTableRecord
  2
*D12
340
0
  0
BLOCK_RECORD
  5
224
330
1
100
AcDbSymbolTableRecord
100
AcDbBlockTableRecord
  2
*D13
340
0
  0
BLOCK_RECORD
  5
230
330
1
100
AcDbSymbolTableRecord
100
AcDbBlockTableRecord
  2
*D14
340
0
  0
BLOCK_RECORD
  5
23D
330
1
100
AcDbSymbolTableRecord
100
AcDbBlockTableRecord
  2
*D15
340
0
  0
BLOCK_RECORD
  5
24B
330
1
100
AcDbSymbolTableRecord
100
AcDbBlockTableRecord
  2
*D16
340
0
  0
BLOCK_RECORD
  5
25C
330
1
100
AcDbSymbolTableRecord
100
AcDbBlockTableRecord
  2
*D17
340
0
  0
ENDTAB
  0
ENDSEC
  0
SECTION
  2
BLOCKS
  0
BLOCK
  5
20
330
1F
100
AcDbEntity
  8
0
100
AcDbBlockBegin
  2
*Model_Space
 70
     0
 10
0.0
 20
0.0
 30
0.0
  3
*Model_Space
  1
*Model_Space
  0
ENDBLK
  5
21
330
1F
100
AcDbEntity
  8
0
100
AcDbBlockEnd
  0
BLOCK
  5
1C
330
1B
100
AcDbEntity
 67
     1
  8
0
100
AcDbBlockBegin
  2
*Paper_Space
 70
     0
 10
0.0
 20
0.0
 30
0.0
  3
*Paper_Space
  1
*Paper_Space
  0
ENDBLK
  5
1D
330
1B
100
AcDbEntity
 67
     1
  8
0
100
AcDbBlockEnd
  0
BLOCK
  5
24
330
23
100
AcDbEntity
  8
0
100
AcDbBlockBegin
  2
*Paper_Space0
 70
     0
 10
0.0
 20
0.0
 30
0.0
  3
*Paper_Space0
  1
*Paper_Space0
  0
ENDBLK
  5
25
330
23
100
AcDbEntity
  8
0
100
AcDbBlockEnd
  0
BLOCK
  5
80
330
7F
100
AcDbEntity
  8
0
100
AcDbBlockBegin
  2
블럭10
 70
     2
 10
0.0
 20
0.0
 30
0.0
  3
블럭10
  1
블럭10
  0
ELLIPSE
  5
82
330
7F
100
AcDbEntity
  8
중심선
100
AcDbEllipse
 10
20.54032771741204
 20
12.0471743016438
 30
0.0
 11
6.600054785286829
 21
-1.261213355974178E-13
 31
0.0
210
0.0
220
0.0
230
1.0
 40
0.636358354079598
 41
0.9219305317359503
 42
6.513795318482858
  0
ELLIPSE
  5
83
330
7F
100
AcDbEntity
  8
중심선
100
AcDbEllipse
 10
20.54032771746488
 20
12.04717430159265
 30
0.0
 11
3.960054785062283
 21
1.540847449632565E-10
 31
0.0
210
0.0
220
0.0
230
1.0
 40
0.3939339440162632
 41
1.131841032648279
 42
5.62031148352944
  0
LINE
  5
84
330
7F
100
AcDbEntity
  8
중심선
100
AcDbLine
 10
2.268634060543552
 20
16.24717430164393
 30
0.0
 11
5.714909304380834
 21
16.24717430164393
 31
0.0
  0
LINE
  5
85
330
7F
100
AcDbEntity
  8
중심선
100
AcDbLine
 10
5.245725140726316
 20
7.84717430164391
 30
0.0
 11
8.692000384563599
 21
7.84717430164391
 31
0.0
  0
LINE
  5
86
330
7F
100
AcDbEntity
  8
중심선
100
AcDbLine
 10
15.74043728645272
 20
16.24717430164393
 30
0.0
 11
8.692000384563599
 21
7.84717430164391
 31
0.0
  0
LINE
  5
87
330
7F
100
AcDbEntity
  8
중심선
100
AcDbLine
 10
0.1404042013395286
 20
13.71084872107135
 30
0.0
 11
3.58671253028996
 21
13.71088815037384
 31
0.0
  0
LINE
  5
88
330
7F
100
AcDbEntity
  8
중심선
100
AcDbLine
 10
2.750260043222114
 20
10.84717430164391
 30
0.0
 11
6.196535287059397
 21
10.84717430164391
 31
0.0
  0
LINE
  5
89
330
7F
100
AcDbEntity
  8
중심선
100
AcDbLine
 10
12.29416204261559
 20
16.24717430164393
 30
0.0
 11
5.245725140726316
 21
7.84717430164391
 31
0.0
  0
LINE
  5
8A
330
7F
100
AcDbEntity
  8
중심선
100
AcDbLine
 10
10.72767329541681
 20
16.24717430164393
 30
0.0
 11
6.196535287059397
 21
10.84717430164391
 31
0.0
  0
LINE
  5
8B
330
7F
100
AcDbEntity
  8
중심선
100
AcDbLine
 10
7.28139805157953
 20
16.24717430164393
 30
0.0
 11
2.750260043222114
 21
10.84717430164391
 31
0.0
  0
LINE
  5
8C
330
7F
100
AcDbEntity
  8
중심선
100
AcDbLine
 10
5.714909304380834
 20
16.24717430164393
 30
0.0
 11
3.58671253028996
 21
13.71088815037384
 31
0.0
  0
LINE
  5
8D
330
7F
100
AcDbEntity
  8
중심선
100
AcDbLine
 10
2.268634060543552
 20
16.24717430164393
 30
0.0
 11
0.1404042013395286
 21
13.71084872107135
 31
0.0
  0
LINE
  5
8E
330
7F
100
AcDbEntity
  8
중심선
100
AcDbLine
 10
7.28139805157953
 20
16.24717430164393
 30
0.0
 11
10.72767329541681
 21
16.24717430164393
 31
0.0
  0
LINE
  5
8F
330
7F
100
AcDbEntity
  8
중심선
100
AcDbLine
 10
12.29416204261559
 20
16.24717430164393
 30
0.0
 11
15.74043728645272
 21
16.24717430164393
 31
0.0
  0
LINE
  5
90
330
7F
100
AcDbEntity
  8
중심선
100
AcDbLine
 10
19.22036997980202
 20
11.08717430171403
 30
0.0
 11
23.66174974927406
 21
11.08717430171406
 31
0.0
  0
LINE
  5
91
330
7F
100
AcDbEntity
  8
중심선
100
AcDbLine
 10
19.22039502424796
 20
13.00717430171391
 30
0.0
 11
19.22036997980202
 21
11.08717430171403
 31
0.0
  0
LINE
  5
92
330
7F
100
AcDbEntity
  8
중심선
100
AcDbLine
 10
19.22039502424796
 20
13.00717430171391
 30
0.0
 11
26.96566020931264
 21
13.00717430171391
 31
0.0
  0
LINE
  5
93
330
7F
100
AcDbEntity
  8
중심선
100
AcDbLine
 10
22.22332737316547
 20
13.45928029700563
 30
0.0
 11
24.52862924686651
 21
15.39360700705356
 31
0.0
  0
ATTDEF
  5
95
330
7F
100
AcDbEntity
  8
FORMAT
 62
     2
100
AcDbText
 10
3.448148490846466
 20
2.075366912832191
 30
0.0
 40
4.233333333333333
  1
EM649008
 41
0.75
  7
SLDTEXTSTYLE0
 11
3.448148490846466
 21
-0.0412997538344756
 31
0.0
100
AcDbAttributeDefinition
  3

  2
AUTOATTR0
 70
     0
 74
     1
  0
ENDBLK
  5
81
330
7F
100
AcDbEntity
  8
0
100
AcDbBlockEnd
  0
BLOCK
  5
BE
330
BD
100
AcDbEntity
  8
0
100
AcDbBlockBegin
  2
_D
 70
     0
 10
0.0
 20
0.0
 30
0.0
  3
_D
  1
_D
  0
SOLID
  5
C0
330
BD
100
AcDbEntity
  8
치수문자_일반주서
100
AcDbTrace
 10
-40.81749999999999
 20
-1.586425071276106
 30
0.0
 11
-41.32549999999999
 21
-4.888425071276106
 31
0.0
 12
-40.30949999999999
 22
-4.888425071276106
 32
0.0
 13
-40.30949999999999
 23
-4.888425071276106
 33
0.0
  0
SOLID
  5
C1
330
BD
100
AcDbEntity
  8
치수문자_일반주서
100
AcDbTrace
 10
-40.81749999999999
 20
1.588574928723893
 30
0.0
 11
-40.30949999999999
 21
4.890574928723893
 31
0.0
 12
-41.32549999999999
 22
4.890574928723893
 32
0.0
 13
-41.32549999999999
 23
4.890574928723893
 33
0.0
  0
LINE
  5
C2
330
BD
100
AcDbEntity
  8
치수문자_일반주서
100
AcDbLine
 10
-53.45249999999999
 20
-1.586425071276107
 30
0.0
 11
-39.81749999999999
 21
-1.586425071276106
 31
0.0
  0
LINE
  5
C3
330
BD
100
AcDbEntity
  8
치수문자_일반주서
100
AcDbLine
 10
-53.45249999999999
 20
1.588574928723893
 30
0.0
 11
-39.81749999999999
 21
1.588574928723893
 31
0.0
  0
LINE
  5
C4
330
BD
100
AcDbEntity
  8
치수문자_일반주서
100
AcDbLine
 10
-40.81749999999999
 20
-1.586425071276106
 30
0.0
 11
-40.81749999999999
 21
-7.936425071276107
 31
0.0
  0
LINE
  5
C5
330
BD
100
AcDbEntity
  8
치수문자_일반주서
100
AcDbLine
 10
-40.81749999999999
 20
-1.586425071276106
 30
0.0
 11
-40.81749999999999
 21
1.588574928723893
 31
0.0
  0
LINE
  5
C6
330
BD
100
AcDbEntity
  8
치수문자_일반주서
100
AcDbLine
 10
-40.81749999999999
 20
1.588574928723893
 30
0.0
 11
-40.81749999999999
 21
7.938574928723893
 31
0.0
  0
MTEXT
  5
C7
330
BD
100
AcDbEntity
  8
치수문자_일반주서
100
AcDbMText
 10
-45.32923708920186
 20
-6.504358457599654
 30
0.0
 40
3.5
 41
0.0
 71
     1
 72
     1
  1
%%c
  7
SLDTEXTSTYLE0
 11
6.123233995736766E-17
 21
1.0
 31
0.0
 73
     1
 44
1.0
  0
MTEXT
  5
C8
330
BD
100
AcDbEntity
  8
치수문자_일반주서
100
AcDbMText
 10
-45.38270926586171
 20
-1.225921059225574
 30
0.0
 40
3.5
 41
0.0
 71
     1
 72
     1
  1
3.18
  7
SLDTEXTSTYLE0
 11
6.123233995736766E-17
 21
1.0
 31
0.0
 73
     1
 44
1.0
  0
ENDBLK
  5
BF
330
BD
100
AcDbEntity
  8
0
100
AcDbBlockEnd
  0
BLOCK
  5
CC
330
CB
100
AcDbEntity
  8
0
100
AcDbBlockBegin
  2
_D_1
 70
     0
 10
0.0
 20
0.0
 30
0.0
  3
_D_1
  1
_D_1
  0
SOLID
  5
CE
330
CB
100
AcDbEntity
  8
치수문자_일반주서
100
AcDbTrace
 10
22.70000000000003
 20
28.53222015535753
 30
0.0
 11
19.39800000000003
 21
29.04022015535753
 31
0.0
 12
19.39800000000003
 22
28.02422015535753
 32
0.0
 13
19.39800000000003
 23
28.02422015535753
 33
0.0
  0
SOLID
  5
CF
330
CB
100
AcDbEntity
  8
치수문자_일반주서
100
AcDbTrace
 10
-53.49999999999999
 20
28.53222015535752
 30
0.0
 11
-50.19799999999999
 21
28.02422015535753
 31
0.0
 12
-50.19799999999999
 22
29.04022015535752
 32
0.0
 13
-50.19799999999999
 23
29.04022015535752
 33
0.0
  0
LINE
  5
D0
330
CB
100
AcDbEntity
  8
치수문자_일반주서
100
AcDbLine
 10
-20.81436608182264
 20
39.32510187140024
 30
0.0
 11
-21.52530356738714
 21
39.32510187140025
 31
0.0
  0
LINE
  5
D1
330
CB
100
AcDbEntity
  8
치수문자_일반주서
100
AcDbLine
 10
-21.52530356738714
 20
39.32510187140025
 30
0.0
 11
-21.52530356738718
 21
33.76885188034095
 31
0.0
  0
LINE
  5
D2
330
CB
100
AcDbEntity
  8
치수문자_일반주서
100
AcDbLine
 10
-21.52530356738718
 20
33.76885188034095
 30
0.0
 11
-20.81436608182268
 21
33.76885188034094
 31
0.0
  0
LINE
  5
D3
330
CB
100
AcDbEntity
  8
치수문자_일반주서
100
AcDbLine
 10
-9.985633219685385
 20
39.32510187140017
 30
0.0
 11
-9.274695734120884
 21
39.32510187140016
 31
0.0
  0
LINE
  5
D4
330
CB
100
AcDbEntity
  8
치수문자_일반주서
100
AcDbLine
 10
-9.274695734120884
 20
39.32510187140016
 30
0.0
 11
-9.274695734120925
 21
33.76885188034086
 31
0.0
  0
LINE
  5
D5
330
CB
100
AcDbEntity
  8
치수문자_일반주서
100
AcDbLine
 10
-9.274695734120925
 20
33.76885188034086
 30
0.0
 11
-9.985633219685425
 21
33.76885188034087
 31
0.0
  0
LINE
  5
D6
330
CB
100
AcDbEntity
  8
치수문자_일반주서
100
AcDbLine
 10
22.70000000000003
 20
2.375890257231688
 30
0.0
 11
22.70000000000003
 21
29.53222015535754
 31
0.0
  0
LINE
  5
D7
330
CB
100
AcDbEntity
  8
치수문자_일반주서
100
AcDbLine
 10
-53.49999999999999
 20
3.541074928723894
 30
0.0
 11
-53.49999999999999
 21
29.53222015535753
 31
0.0
  0
LINE
  5
D8
330
CB
100
AcDbEntity
  8
치수문자_일반주서
100
AcDbLine
 10
22.70000000000003
 20
28.53222015535753
 30
0.0
 11
-53.49999999999999
 21
28.53222015535752
 31
0.0
  0
MTEXT
  5
D9
330
CB
100
AcDbEntity
  8
치수문자_일반주서
100
AcDbMText
 10
-22.03906229287388
 20
33.09742942121924
 30
0.0
 40
3.5
 41
0.0
 71
     1
 72
     1
  1

  7
SLDTEXTSTYLE0
 73
     1
 44
1.0
  0
MTEXT
  5
DA
330
CB
100
AcDbEntity
  8
치수문자_일반주서
100
AcDbMText
 10
-19.92569418121128
 20
38.28058879491984
 30
0.0
 40
3.5
 41
0.0
 71
     1
 72
     1
  1
3.00
  7
SLDTEXTSTYLE0
 73
     1
 44
1.0
  0
MTEXT
  5
DB
330
CB
100
AcDbEntity
  8
치수문자_일반주서
100
AcDbMText
 10
-21.21874989438804
 20
33.04395724455937
 30
0.0
 40
3.5
 41
0.0
 71
     1
 72
     1
  1
76.20
  7
SLDTEXTSTYLE0
 73
     1
 44
1.0
  0
MTEXT
  5
DC
330
CB
100
AcDbEntity
  8
치수문자_일반주서
100
AcDbMText
 10
-7.428992488980318
 20
33.09742942121913
 30
0.0
 40
3.5
 41
0.0
 71
     1
 72
     1
  1

  7
SLDTEXTSTYLE0
 73
     1
 44
1.0
  0
ENDBLK
  5
CD
330
CB
100
AcDbEntity
  8
0
100
AcDbBlockEnd
  0
BLOCK
  5
E0
330
DF
100
AcDbEntity
  8
0
100
AcDbBlockBegin
  2
_D_2
 70
     0
 10
0.0
 20
0.0
 30
0.0
  3
_D_2
  1
_D_2
  0
SOLID
  5
E2
330
DF
100
AcDbEntity
  8
치수문자_일반주서
100
AcDbTrace
 10
22.70000000000017
 20
11.67065425643442
 30
0.0
 11
26.00200000000016
 21
11.16265425643437
 31
0.0
 12
26.00200000000018
 22
12.17865425643437
 32
0.0
 13
26.00200000000018
 23
12.17865425643437
 33
0.0
  0
SOLID
  5
E3
330
DF
100
AcDbEntity
  8
치수문자_일반주서
100
AcDbTrace
 10
10.00000000000017
 20
11.67065425643458
 30
0.0
 11
6.698000000000178
 21
12.17865425643463
 31
0.0
 12
6.698000000000164
 22
11.16265425643463
 32
0.0
 13
6.698000000000164
 23
11.16265425643463
 33
0.0
  0
LINE
  5
E4
330
DF
100
AcDbEntity
  8
치수문자_일반주서
100
AcDbLine
 10
10.9356339181775
 20
22.46353597247721
 30
0.0
 11
10.224696432613
 21
22.46353597247722
 31
0.0
  0
LINE
  5
E5
330
DF
100
AcDbEntity
  8
치수문자_일반주서
100
AcDbLine
 10
10.224696432613
 20
22.46353597247722
 30
0.0
 11
10.22469643261288
 21
16.90728598141792
 31
0.0
  0
LINE
  5
E6
330
DF
100
AcDbEntity
  8
치수문자_일반주서
100
AcDbLine
 10
10.22469643261288
 20
16.90728598141792
 30
0.0
 11
10.93563391817738
 21
16.9072859814179
 31
0.0
  0
LINE
  5
E7
330
DF
100
AcDbEntity
  8
치수문자_일반주서
100
AcDbLine
 10
21.76436678031476
 20
22.46353597247698
 30
0.0
 11
22.47530426587926
 21
22.46353597247697
 31
0.0
  0
LINE
  5
E8
330
DF
100
AcDbEntity
  8
치수문자_일반주서
100
AcDbLine
 10
22.47530426587926
 20
22.46353597247697
 30
0.0
 11
22.47530426587914
 21
16.90728598141767
 31
0.0
  0
LINE
  5
E9
330
DF
100
AcDbEntity
  8
치수문자_일반주서
100
AcDbLine
 10
22.47530426587914
 20
16.90728598141767
 30
0.0
 11
21.76436678031464
 21
16.90728598141768
 31
0.0
  0
LINE
  5
EA
330
DF
100
AcDbEntity
  8
치수문자_일반주서
100
AcDbLine
 10
22.70000000000005
 20
2.375890257231688
 30
0.0
 11
22.70000000000018
 21
12.67065425643442
 31
0.0
  0
LINE
  5
EB
330
DF
100
AcDbEntity
  8
치수문자_일반주서
100
AcDbLine
 10
10.00000000000006
 20
3.247996997705579
 30
0.0
 11
10.00000000000018
 21
12.67065425643458
 31
0.0
  0
LINE
  5
EC
330
DF
100
AcDbEntity
  8
치수문자_일반주서
100
AcDbLine
 10
22.70000000000017
 20
11.67065425643442
 30
0.0
 11
29.05000000000017
 21
11.67065425643433
 31
0.0
  0
LINE
  5
ED
330
DF
100
AcDbEntity
  8
치수문자_일반주서
100
AcDbLine
 10
22.70000000000017
 20
11.67065425643442
 30
0.0
 11
10.00000000000017
 21
11.67065425643458
 31
0.0
  0
LINE
  5
EE
330
DF
100
AcDbEntity
  8
치수문자_일반주서
100
AcDbLine
 10
10.00000000000017
 20
11.67065425643458
 30
0.0
 11
3.65000000000017
 21
11.67065425643467
 31
0.0
  0
MTEXT
  5
EF
330
DF
100
AcDbEntity
  8
치수문자_일반주서
100
AcDbMText
 10
9.710937707126172
 20
16.2358635222962
 30
0.0
 40
3.5
 41
0.0
 71
     1
 72
     1
  1

  7
SLDTEXTSTYLE0
 73
     1
 44
1.0
  0
MTEXT
  5
F0
330
DF
100
AcDbEntity
  8
치수문자_일반주서
100
AcDbMText
 10
11.82430581878885
 20
21.41902289599678
 30
0.0
 40
3.5
 41
0.0
 71
     1
 72
     1
  1
0.50
  7
SLDTEXTSTYLE0
 73
     1
 44
1.0
  0
MTEXT
  5
F1
330
DF
100
AcDbEntity
  8
치수문자_일반주서
100
AcDbMText
 10
10.53125010561201
 20
16.18239134563633
 30
0.0
 40
3.5
 41
0.0
 71
     1
 72
     1
  1
12.70
  7
SLDTEXTSTYLE0
 73
     1
 44
1.0
  0
MTEXT
  5
F2
330
DF
100
AcDbEntity
  8
치수문자_일반주서
100
AcDbMText
 10
24.32100751101974
 20
16.2358635222959
 30
0.0
 40
3.5
 41
0.0
 71
     1
 72
     1
  1

  7
SLDTEXTSTYLE0
 73
     1
 44
1.0
  0
ENDBLK
  5
E1
330
DF
100
AcDbEntity
  8
0
100
AcDbBlockEnd
  0
BLOCK
  5
F6
330
F5
100
AcDbEntity
  8
0
100
AcDbBlockBegin
  2
_D_3
 70
     0
 10
0.0
 20
0.0
 30
0.0
  3
_D_3
  1
_D_3
  0
SOLID
  5
F8
330
F5
100
AcDbEntity
  8
치수문자_일반주서
100
AcDbTrace
 10
47.67595001570916
 20
3.176074928723897
 30
0.0
 11
48.18395001570916
 21
6.478074928723896
 31
0.0
 12
47.16795001570916
 22
6.478074928723896
 32
0.0
 13
47.16795001570916
 23
6.478074928723896
 33
0.0
  0
SOLID
  5
F9
330
F5
100
AcDbEntity
  8
치수문자_일반주서
100
AcDbTrace
 10
47.67595001570916
 20
-3.173925071276115
 30
0.0
 11
47.16795001570916
 21
-6.475925071276114
 31
0.0
 12
48.18395001570916
 22
-6.475925071276114
 32
0.0
 13
48.18395001570916
 23
-6.475925071276114
 33
0.0
  0
LINE
  5
FA
330
F5
100
AcDbEntity
  8
치수문자_일반주서
100
AcDbLine
 10
36.88306829966643
 20
4.407458044959878
 30
0.0
 11
36.88306829966644
 21
3.696520559395377
 31
0.0
  0
LINE
  5
FB
330
F5
100
AcDbEntity
  8
치수문자_일반주서
100
AcDbLine
 10
36.88306829966644
 20
3.696520559395377
 30
0.0
 11
42.43931829072574
 21
3.696520559395416
 31
0.0
  0
LINE
  5
FC
330
F5
100
AcDbEntity
  8
치수문자_일반주서
100
AcDbLine
 10
42.43931829072574
 20
3.696520559395416
 30
0.0
 11
42.43931829072574
 21
4.407458044959917
 31
0.0
  0
LINE
  5
FD
330
F5
100
AcDbEntity
  8
치수문자_일반주서
100
AcDbLine
 10
36.88306829966636
 20
15.23619090709714
 30
0.0
 11
36.88306829966636
 21
15.94712839266164
 31
0.0
  0
LINE
  5
FE
330
F5
100
AcDbEntity
  8
치수문자_일반주서
100
AcDbLine
 10
36.88306829966636
 20
15.94712839266164
 30
0.0
 11
42.43931829072567
 21
15.94712839266167
 31
0.0
  0
LINE
  5
FF
330
F5
100
AcDbEntity
  8
치수문자_일반주서
100
AcDbLine
 10
42.43931829072567
 20
15.94712839266167
 30
0.0
 11
42.43931829072567
 21
15.23619090709717
 31
0.0
  0
LINE
  5
100
330
F5
100
AcDbEntity
  8
치수문자_일반주서
100
AcDbLine
 10
23.44600000000002
 20
3.176074928723899
 30
0.0
 11
48.67595001570916
 21
3.176074928723897
 31
0.0
  0
LINE
  5
101
330
F5
100
AcDbEntity
  8
치수문자_일반주서
100
AcDbLine
 10
23.44600000000002
 20
-3.173925071276113
 30
0.0
 11
48.67595001570916
 21
-3.173925071276115
 31
0.0
  0
LINE
  5
102
330
F5
100
AcDbEntity
  8
치수문자_일반주서
100
AcDbLine
 10
47.67595001570916
 20
3.176074928723897
 30
0.0
 11
47.67595001570916
 21
16.98673817133417
 31
0.0
  0
LINE
  5
103
330
F5
100
AcDbEntity
  8
치수문자_일반주서
100
AcDbLine
 10
47.67595001570916
 20
3.176074928723897
 30
0.0
 11
47.67595001570916
 21
-3.173925071276115
 31
0.0
  0
LINE
  5
104
330
F5
100
AcDbEntity
  8
치수문자_일반주서
100
AcDbLine
 10
47.67595001570916
 20
-3.173925071276115
 30
0.0
 11
47.67595001570916
 21
-9.523925071276114
 31
0.0
  0
MTEXT
  5
105
330
F5
100
AcDbEntity
  8
치수문자_일반주서
100
AcDbMText
 10
37.92758137614685
 20
5.296129945571255
 30
0.0
 40
3.5
 41
0.0
 71
     1
 72
     1
  1
0.25
  7
SLDTEXTSTYLE0
 11
-7.044195017643634E-15
 21
1.0
 31
0.0
 73
     1
 44
1.0
  0
MTEXT
  5
106
330
F5
100
AcDbEntity
  8
치수문자_일반주서
100
AcDbMText
 10
43.16421292650733
 20
2.656910780722964
 30
0.0
 40
3.5
 41
0.0
 71
     1
 72
     1
  1
%%c
  7
SLDTEXTSTYLE0
 11
-7.044195017643634E-15
 21
1.0
 31
0.0
 73
     1
 44
1.0
  0
MTEXT
  5
107
330
F5
100
AcDbEntity
  8
치수문자_일반주서
100
AcDbMText
 10
43.1642129265073
 20
7.935348179097044
 30
0.0
 40
3.5
 41
0.0
 71
     1
 72
     1
  1
6.35
  7
SLDTEXTSTYLE0
 11
-7.044195017643634E-15
 21
1.0
 31
0.0
 73
     1
 44
1.0
  0
ENDBLK
  5
F7
330
F5
100
AcDbEntity
  8
0
100
AcDbBlockEnd
  0
BLOCK
  5
110
330
10F
100
AcDbEntity
  8
0
100
AcDbBlockBegin
  2
SW_DOWELSYMBOL_0
 70
     0
 10
0.0
 20
0.0
 30
0.0
  3
SW_DOWELSYMBOL_0
  1
SW_DOWELSYMBOL_0
  0
CIRCLE
  5
112
330
10F
100
AcDbEntity
  8
해칭선
 62
     0
100
AcDbCircle
 10
0.0
 20
0.0
 30
0.0
 40
3.000000000000001
  0
HATCH
  5
113
330
10F
100
AcDbEntity
  8
0
  6
Continuous
 62
     0
370
     0
100
AcDbHatch
 10
0.0
 20
0.0
 30
0.0
210
0.0
220
0.0
230
1.0
  2
SOLID
 70
     1
 71
     0
 91
        1
 92
        0
 93
        3
 72
     2
 10
0.0
 20
0.0
 40
3.000000000000001
 50
0.0
 51
90.0
 73
     1
 72
     1
 10
0.0
 20
3.000000000000001
 11
0.0
 21
0.0
 72
     1
 10
0.0
 20
0.0
 11
3.000000000000003
 21
0.0
 97
        0
 75
     0
 76
     1
 98
        1
 10
0.0
 20
0.0
  0
HATCH
  5
114
330
10F
100
AcDbEntity
  8
0
  6
Continuous
 62
     0
370
     0
100
AcDbHatch
 10
0.0
 20
0.0
 30
0.0
210
0.0
220
0.0
230
1.0
  2
SOLID
 70
     1
 71
     0
 91
        1
 92
        0
 93
        3
 72
     2
 10
0.0
 20
0.0
 40
3.000000000000001
 50
180.0
 51
270.0000000000007
 73
     1
 72
     1
 10
0.0
 20
-3.000000000000001
 11
0.0
 21
0.0
 72
     1
 10
0.0
 20
0.0
 11
-3.000000000000003
 21
0.0
 97
        0
 75
     0
 76
     1
 98
        1
 10
0.0
 20
0.0
  0
ENDBLK
  5
111
330
10F
100
AcDbEntity
  8
0
100
AcDbBlockEnd
  0
BLOCK
  5
170
330
16F
100
AcDbEntity
  8
0
100
AcDbBlockBegin
  2
*D7
 70
     1
 10
0.0
 20
0.0
 30
0.0
  3
*D7
  1
*D8
  0
LINE
  5
171
330
16F
100
AcDbEntity
  8
0
  6
Continuous
 62
     0
370
    -2
100
AcDbLine
 10
11.12015619282811
 20
39.65289714317441
 30
0.0
 11
4.375000000000037
 21
39.65289714317438
 31
0.0
  0
LINE
  5
172
330
16F
100
AcDbEntity
  8
0
  6
Continuous
 62
     0
370
    -2
100
AcDbLine
 10
11.18265619282811
 20
33.30289714317441
 30
0.0
 11
4.37500000000006
 21
33.30289714317438
 31
0.0
  0
SOLID
  5
173
330
16F
100
AcDbEntity
  8
0
 62
     0
100
AcDbTrace
 10
4.925333333333382
 20
36.35089714317438
 30
0.0
 11
3.824666666666716
 21
36.35089714317438
 31
0.0
 12
4.375000000000037
 22
39.65289714317438
 32
0.0
 13
4.375000000000037
 23
39.65289714317438
 33
0.0
  0
SOLID
  5
174
330
16F
100
AcDbEntity
  8
0
 62
     0
100
AcDbTrace
 10
3.824666666666715
 20
36.60489714317438
 30
0.0
 11
4.925333333333382
 21
36.60489714317438
 31
0.0
 12
4.37500000000006
 22
33.30289714317438
 32
0.0
 13
4.37500000000006
 23
33.30289714317438
 33
0.0
  0
MTEXT
  5
175
330
16F
100
AcDbEntity
  8
0
 62
     0
370
    15
100
AcDbMText
 10
0.0000000000000426
 20
38.06539714317425
 30
0.0
 40
3.5
 41
0.0
 71
     2
 72
     1
  1
\A1;%%c6.35 [1/4]
  7
SLDTEXTSTYLE0
 11
-3.496765431890256E-15
 21
1.0
 31
0.0
 73
     1
 44
1.0
  0
POINT
  5
176
330
16F
100
AcDbEntity
  8
Defpoints
 62
     0
100
AcDbPoint
 10
11.18265619282811
 20
39.65289714317441
 30
0.0
  0
POINT
  5
177
330
16F
100
AcDbEntity
  8
Defpoints
 62
     0
100
AcDbPoint
 10
11.24515619282811
 20
33.30289714317441
 30
0.0
  0
POINT
  5
178
330
16F
100
AcDbEntity
  8
Defpoints
 62
     0
100
AcDbPoint
 10
4.375000000000057
 20
33.30289714317438
 30
0.0
  0
ENDBLK
  5
179
330
16F
100
AcDbEntity
  8
0
100
AcDbBlockEnd
  0
BLOCK
  5
17C
330
17B
100
AcDbEntity
  8
0
100
AcDbBlockBegin
  2
*D8
 70
     1
 10
0.0
 20
0.0
 30
0.0
  3
*D8
  1
*D9
  0
LINE
  5
17D
330
17B
100
AcDbEntity
  8
0
  6
Continuous
 62
     0
370
    -2
100
AcDbLine
 10
67.00015619282811
 20
42.89039714317445
 30
0.0
 11
67.00015619282811
 21
69.44297653812589
 31
0.0
  0
LINE
  5
17E
330
17B
100
AcDbEntity
  8
0
  6
Continuous
 62
     0
370
    -2
100
AcDbLine
 10
9.850156192828102
 20
38.44539714317441
 30
0.0
 11
9.850156192828102
 21
69.44297653812589
 31
0.0
  0
LINE
  5
17F
330
17B
100
AcDbEntity
  8
0
  6
Continuous
 62
     0
370
    -2
100
AcDbLine
 10
63.69815619282812
 20
69.44297653812589
 30
0.0
 11
13.1521561928281
 21
69.44297653812589
 31
0.0
  0
SOLID
  5
180
330
17B
100
AcDbEntity
  8
0
 62
     0
100
AcDbTrace
 10
63.69815619282812
 20
68.89264320479256
 30
0.0
 11
63.69815619282812
 21
69.99330987145922
 31
0.0
 12
67.00015619282811
 22
69.44297653812589
 32
0.0
 13
67.00015619282811
 23
69.44297653812589
 33
0.0
  0
SOLID
  5
181
330
17B
100
AcDbEntity
  8
0
 62
     0
100
AcDbTrace
 10
13.1521561928281
 20
69.99330987145922
 30
0.0
 11
13.1521561928281
 21
68.89264320479256
 31
0.0
 12
9.850156192828102
 22
69.44297653812589
 32
0.0
 13
9.850156192828102
 23
69.44297653812589
 33
0.0
  0
MTEXT
  5
182
330
17B
100
AcDbEntity
  8
0
 62
     0
370
    15
100
AcDbMText
 10
38.42515619282811
 20
73.81797653812589
 30
0.0
 40
3.5
 41
0.0
 71
     2
 72
     1
  1
\A1;57.15 [2 1/4]
  7
SLDTEXTSTYLE0
 73
     1
 44
1.0
  0
POINT
  5
183
330
17B
100
AcDbEntity
  8
Defpoints
 62
     0
100
AcDbPoint
 10
67.00015619282811
 20
42.82789714317445
 30
0.0
  0
POINT
  5
184
330
17B
100
AcDbEntity
  8
Defpoints
 62
     0
100
AcDbPoint
 10
9.850156192828102
 20
38.38289714317441
 30
0.0
  0
POINT
  5
185
330
17B
100
AcDbEntity
  8
Defpoints
 62
     0
100
AcDbPoint
 10
9.850156192828102
 20
69.44297653812589
 30
0.0
  0
ENDBLK
  5
186
330
17B
100
AcDbEntity
  8
0
100
AcDbBlockEnd
  0
BLOCK
  5
189
330
188
100
AcDbEntity
  8
0
100
AcDbBlockBegin
  2
*D9
 70
     1
 10
0.0
 20
0.0
 30
0.0
  3
*D9
  1
*D10
  0
LINE
  5
18A
330
188
100
AcDbEntity
  8
0
  6
Continuous
 62
     0
370
    -2
100
AcDbLine
 10
67.00015619282811
 20
42.89039714317445
 30
0.0
 11
67.00015619282811
 21
52.58141063920281
 31
0.0
  0
LINE
  5
18B
330
188
100
AcDbEntity
  8
0
  6
Continuous
 62
     0
370
    -2
100
AcDbLine
 10
54.30015619282812
 20
38.12789714317441
 30
0.0
 11
54.30015619282812
 21
52.58141063920281
 31
0.0
  0
LINE
  5
18C
330
188
100
AcDbEntity
  8
0
  6
Continuous
 62
     0
370
    -2
100
AcDbLine
 10
54.30015619282812
 20
52.58141063920281
 30
0.0
 11
26.93565619282812
 21
52.58141063920281
 31
0.0
  0
LINE
  5
18D
330
188
100
AcDbEntity
  8
0
  6
Continuous
 62
     0
370
    -2
100
AcDbLine
 10
63.69815619282812
 20
52.58141063920281
 30
0.0
 11
57.60215619282812
 21
52.58141063920281
 31
0.0
  0
SOLID
  5
18E
330
188
100
AcDbEntity
  8
0
 62
     0
100
AcDbTrace
 10
63.69815619282812
 20
52.03107730586947
 30
0.0
 11
63.69815619282812
 21
53.13174397253614
 31
0.0
 12
67.00015619282811
 22
52.58141063920281
 32
0.0
 13
67.00015619282811
 23
52.58141063920281
 33
0.0
  0
SOLID
  5
18F
330
188
100
AcDbEntity
  8
0
 62
     0
100
AcDbTrace
 10
57.60215619282812
 20
53.13174397253614
 30
0.0
 11
57.60215619282812
 21
52.03107730586947
 31
0.0
 12
54.30015619282812
 22
52.58141063920281
 32
0.0
 13
54.30015619282812
 23
52.58141063920281
 33
0.0
  0
MTEXT
  5
190
330
188
100
AcDbEntity
  8
0
 62
     0
370
    15
100
AcDbMText
 10
38.96690619282812
 20
56.95641063920281
 30
0.0
 40
3.5
 41
0.0
 71
     2
 72
     1
  1
\A1;12.70 [1/2]
  7
SLDTEXTSTYLE0
 73
     1
 44
1.0
  0
POINT
  5
191
330
188
100
AcDbEntity
  8
Defpoints
 62
     0
100
AcDbPoint
 10
67.00015619282811
 20
42.82789714317445
 30
0.0
  0
POINT
  5
192
330
188
100
AcDbEntity
  8
Defpoints
 62
     0
100
AcDbPoint
 10
54.30015619282812
 20
38.06539714317441
 30
0.0
  0
POINT
  5
193
330
188
100
AcDbEntity
  8
Defpoints
 62
     0
100
AcDbPoint
 10
54.30015619282812
 20
52.58141063920281
 30
0.0
  0
ENDBLK
  5
194
330
188
100
AcDbEntity
  8
0
100
AcDbBlockEnd
  0
BLOCK
  5
197
330
196
100
AcDbEntity
  8
0
100
AcDbBlockBegin
  2
*D10
 70
     1
 10
0.0
 20
0.0
 30
0.0
  3
*D10
  1
*D11
  0
LINE
  5
198
330
196
100
AcDbEntity
  8
0
  6
Continuous
 62
     0
370
    -2
100
AcDbLine
 10
67.06265619282811
 20
38.06539714317441
 30
0.0
 11
79.76932374799877
 21
38.06539714317446
 31
0.0
  0
LINE
  5
199
330
196
100
AcDbEntity
  8
0
  6
Continuous
 62
     0
370
    -2
100
AcDbLine
 10
67.06265619282811
 20
34.89039714317441
 30
0.0
 11
79.76932374799878
 21
34.89039714317446
 31
0.0
  0
LINE
  5
19A
330
196
100
AcDbEntity
  8
0
  6
Continuous
 62
     0
370
    -2
100
AcDbLine
 10
79.76932374799877
 20
38.06539714317446
 30
0.0
 11
79.76932374799861
 21
72.16114714317447
 31
0.0
  0
LINE
  5
19B
330
196
100
AcDbEntity
  8
0
  6
Continuous
 62
     0
370
    -2
100
AcDbLine
 10
79.76932374799875
 20
41.36739714317446
 30
0.0
 11
79.76932374799874
 21
44.66939714317446
 31
0.0
  0
LINE
  5
19C
330
196
100
AcDbEntity
  8
0
  6
Continuous
 62
     0
370
    -2
100
AcDbLine
 10
79.7693237479988
 20
31.58839714317446
 30
0.0
 11
79.76932374799881
 21
28.28639714317446
 31
0.0
  0
SOLID
  5
19D
330
196
100
AcDbEntity
  8
0
 62
     0
100
AcDbTrace
 10
79.21899041466543
 20
41.36739714317446
 30
0.0
 11
80.31965708133208
 21
41.36739714317446
 31
0.0
 12
79.76932374799877
 22
38.06539714317446
 32
0.0
 13
79.76932374799877
 23
38.06539714317446
 33
0.0
  0
SOLID
  5
19E
330
196
100
AcDbEntity
  8
0
 62
     0
100
AcDbTrace
 10
80.31965708133212
 20
31.58839714317446
 30
0.0
 11
79.21899041466547
 21
31.58839714317446
 31
0.0
 12
79.76932374799878
 22
34.89039714317446
 32
0.0
 13
79.76932374799878
 23
34.89039714317446
 33
0.0
  0
MTEXT
  5
19F
330
196
100
AcDbEntity
  8
0
 62
     0
370
    15
100
AcDbMText
 10
75.39432374799867
 20
59.91114714317446
 30
0.0
 40
3.5
 41
0.0
 71
     2
 72
     1
  1
\A1;%%c3.18 [1/8]
  7
SLDTEXTSTYLE0
 11
-4.475859752819533E-15
 21
1.0
 31
0.0
 73
     1
 44
1.0
  0
POINT
  5
1A0
330
196
100
AcDbEntity
  8
Defpoints
 62
     0
100
AcDbPoint
 10
67.00015619282811
 20
38.06539714317441
 30
0.0
  0
POINT
  5
1A1
330
196
100
AcDbEntity
  8
Defpoints
 62
     0
100
AcDbPoint
 10
67.00015619282811
 20
34.89039714317441
 30
0.0
  0
POINT
  5
1A2
330
196
100
AcDbEntity
  8
Defpoints
 62
     0
100
AcDbPoint
 10
79.76932374799875
 20
34.89039714317446
 30
0.0
  0
ENDBLK
  5
1A3
330
196
100
AcDbEntity
  8
0
100
AcDbBlockEnd
  0
BLOCK
  5
1D3
330
1D2
100
AcDbEntity
  8
0
100
AcDbBlockBegin
  2
*D11
 70
     1
 10
0.0
 20
0.0
 30
0.0
  3
*D11
  1
*D12
  0
LINE
  5
1D4
330
1D2
100
AcDbEntity
  8
0
  6
Continuous
 62
     0
370
    -2
100
AcDbLine
 10
68.10075502748442
 20
31.94462966560122
 30
0.0
 11
82.97902763479968
 21
-0.0000000000000533
 31
0.0
  0
MTEXT
  5
1D5
330
1D2
100
AcDbEntity
  8
0
 62
     0
370
    15
100
AcDbMText
 10
79.54008719871631
 20
13.60099868537488
 30
0.0
 40
3.5
 41
0.0
 71
     5
 72
     1
  1
\A1;R0.51 [R0.02]
  7
SLDTEXTSTYLE0
 11
0.4222044185449637
 21
-0.9065006502816803
 31
0.0
 73
     1
 44
1.0
  0
SOLID
  5
1D6
330
1D2
100
AcDbEntity
  8
0
 62
     0
100
AcDbTrace
 10
68.59963255202278
 20
32.17698283060713
 30
0.0
 11
67.60187750294607
 21
31.7122765005953
 31
0.0
 12
66.70663603744896
 22
34.93789481283132
 32
0.0
 13
66.70663603744896
 23
34.93789481283132
 33
0.0
  0
LINE
  5
1D7
330
1D2
100
AcDbEntity
  8
0
  6
Continuous
 62
     0
370
    15
100
AcDbLine
 10
66.40215619282812
 20
35.39839714317441
 30
0.0
 11
66.58215619282812
 21
35.39839714317441
 31
0.0
  0
LINE
  5
1D8
330
1D2
100
AcDbEntity
  8
0
  6
Continuous
 62
     0
370
    15
100
AcDbLine
 10
66.49215619282812
 20
35.30839714317441
 30
0.0
 11
66.49215619282812
 21
35.48839714317442
 31
0.0
  0
POINT
  5
1D9
330
1D2
100
AcDbEntity
  8
Defpoints
 62
     0
100
AcDbPoint
 10
66.70663603744896
 20
34.93789481283132
 30
0.0
  0
POINT
  5
1DA
330
1D2
100
AcDbEntity
  8
Defpoints
 62
     0
100
AcDbPoint
 10
66.49215619282812
 20
35.39839714317441
 30
0.0
  0
ENDBLK
  5
1DB
330
1D2
100
AcDbEntity
  8
0
100
AcDbBlockEnd
  0
BLOCK
  5
21A
330
219
100
AcDbEntity
  8
0
100
AcDbBlockBegin
  2
*D12
 70
     1
 10
0.0
 20
0.0
 30
0.0
  3
*D12
  1
*D13
  0
LINE
  5
21C
330
219
100
AcDbEntity
  8
0
  6
Continuous
 62
     0
370
    -2
100
AcDbLine
 10
-37.03163893789574
 20
3.174999999999997
 30
0.0
 11
-43.77679513072382
 21
3.174999999999971
 31
0.0
  0
LINE
  5
21D
330
219
100
AcDbEntity
  8
0
  6
Continuous
 62
     0
370
    -2
100
AcDbLine
 10
-36.96913893789574
 20
-3.175000000000004
 30
0.0
 11
-43.7767951307238
 21
-3.17500000000003
 31
0.0
  0
LINE
  5
21E
330
219
100
AcDbEntity
  8
0
  6
Continuous
 62
     0
370
    -2
100
AcDbLine
 10
-43.77679513072382
 20
3.174999999999971
 30
0.0
 11
-43.77679513072383
 21
6.476999999999971
 31
0.0
  0
LINE
  5
21F
330
219
100
AcDbEntity
  8
0
  6
Continuous
 62
     0
370
    -2
100
AcDbLine
 10
-43.7767951307238
 20
-3.17500000000003
 30
0.0
 11
-43.77679513072378
 21
-6.477000000000031
 31
0.0
  0
SOLID
  5
220
330
219
100
AcDbEntity
  8
0
 62
     0
100
AcDbTrace
 10
-43.22646179739047
 20
-0.1270000000000272
 30
0.0
 11
-44.32712846405714
 21
-0.1270000000000309
 31
0.0
 12
-43.77679513072382
 22
3.174999999999971
 32
0.0
 13
-43.77679513072382
 23
3.174999999999971
 33
0.0
  0
SOLID
  5
221
330
219
100
AcDbEntity
  8
0
 62
     0
100
AcDbTrace
 10
-44.32712846405715
 20
0.1269999999999677
 30
0.0
 11
-43.22646179739048
 21
0.1269999999999714
 31
0.0
 12
-43.7767951307238
 22
-3.17500000000003
 32
0.0
 13
-43.7767951307238
 23
-3.17500000000003
 33
0.0
  0
MTEXT
  5
222
330
219
100
AcDbEntity
  8
0
 62
     0
370
    15
100
AcDbMText
 10
-48.15179513072381
 20
1.587499999999841
 30
0.0
 40
3.5
 41
0.0
 71
     2
 72
     1
  1
\A1;%%c6.35 [1/4]
  7
SLDTEXTSTYLE0
 11
-3.356894814614646E-15
 21
1.0
 31
0.0
 73
     1
 44
1.0
  0
POINT
  5
223
330
219
100
AcDbEntity
  8
Defpoints
 62
     0
100
AcDbPoint
 10
-36.96913893789574
 20
3.174999999999997
 30
0.0
  0
POINT
  5
290
330
219
100
AcDbEntity
  8
Defpoints
 62
     0
100
AcDbPoint
 10
-36.90663893789574
 20
-3.175000000000004
 30
0.0
  0
POINT
  5
291
330
219
100
AcDbEntity
  8
Defpoints
 62
     0
100
AcDbPoint
 10
-43.77679513072378
 20
-3.17500000000003
 30
0.0
  0
ENDBLK
  5
21B
330
219
100
AcDbEntity
  8
0
100
AcDbBlockEnd
  0
BLOCK
  5
225
330
224
100
AcDbEntity
  8
0
100
AcDbBlockBegin
  2
*D13
 70
     1
 10
0.0
 20
0.0
 30
0.0
  3
*D13
  1
*D14
  0
LINE
  5
227
330
224
100
AcDbEntity
  8
0
  6
Continuous
 62
     0
370
    -2
100
AcDbLine
 10
18.84836106210426
 20
6.412500000000037
 30
0.0
 11
18.84836106210426
 21
32.96507939495148
 31
0.0
  0
LINE
  5
228
330
224
100
AcDbEntity
  8
0
  6
Continuous
 62
     0
370
    -2
100
AcDbLine
 10
-38.30163893789575
 20
1.967500000000001
 30
0.0
 11
-38.30163893789575
 21
32.96507939495148
 31
0.0
  0
LINE
  5
229
330
224
100
AcDbEntity
  8
0
  6
Continuous
 62
     0
370
    -2
100
AcDbLine
 10
15.54636106210426
 20
32.96507939495148
 30
0.0
 11
-34.99963893789575
 21
32.96507939495148
 31
0.0
  0
SOLID
  5
22A
330
224
100
AcDbEntity
  8
0
 62
     0
100
AcDbTrace
 10
15.54636106210426
 20
32.41474606161815
 30
0.0
 11
15.54636106210426
 21
33.51541272828482
 31
0.0
 12
18.84836106210426
 22
32.96507939495148
 32
0.0
 13
18.84836106210426
 23
32.96507939495148
 33
0.0
  0
SOLID
  5
22B
330
224
100
AcDbEntity
  8
0
 62
     0
100
AcDbTrace
 10
-34.99963893789575
 20
33.51541272828482
 30
0.0
 11
-34.99963893789575
 21
32.41474606161815
 31
0.0
 12
-38.30163893789575
 22
32.96507939495148
 32
0.0
 13
-38.30163893789575
 23
32.96507939495148
 33
0.0
  0
MTEXT
  5
22C
330
224
100
AcDbEntity
  8
0
 62
     0
370
    15
100
AcDbMText
 10
-9.72663893789574
 20
37.34007939495148
 30
0.0
 40
3.5
 41
0.0
 71
     2
 72
     1
  1
\A1;57.15 [2 1/4]
  7
SLDTEXTSTYLE0
 73
     1
 44
1.0
  0
POINT
  5
22D
330
224
100
AcDbEntity
  8
Defpoints
 62
     0
100
AcDbPoint
 10
18.84836106210426
 20
6.350000000000037
 30
0.0
  0
POINT
  5
22E
330
224
100
AcDbEntity
  8
Defpoints
 62
     0
100
AcDbPoint
 10
-38.30163893789575
 20
1.905000000000001
 30
0.0
  0
POINT
  5
22F
330
224
100
AcDbEntity
  8
Defpoints
 62
     0
100
AcDbPoint
 10
-38.30163893789575
 20
32.96507939495148
 30
0.0
  0
ENDBLK
  5
226
330
224
100
AcDbEntity
  8
0
100
AcDbBlockEnd
  0
BLOCK
  5
231
330
230
100
AcDbEntity
  8
0
100
AcDbBlockBegin
  2
*D14
 70
     1
 10
0.0
 20
0.0
 30
0.0
  3
*D14
  1
*D15
  0
LINE
  5
233
330
230
100
AcDbEntity
  8
0
  6
Continuous
 62
     0
370
    -2
100
AcDbLine
 10
18.84836106210426
 20
6.412500000000037
 30
0.0
 11
18.84836106210426
 21
16.1035134960284
 31
0.0
  0
LINE
  5
234
330
230
100
AcDbEntity
  8
0
  6
Continuous
 62
     0
370
    -2
100
AcDbLine
 10
6.148361062104268
 20
1.649999999999999
 30
0.0
 11
6.148361062104268
 21
16.1035134960284
 31
0.0
  0
LINE
  5
235
330
230
100
AcDbEntity
  8
0
  6
Continuous
 62
     0
370
    -2
100
AcDbLine
 10
6.148361062104268
 20
16.1035134960284
 30
0.0
 11
-21.21613893789573
 21
16.1035134960284
 31
0.0
  0
LINE
  5
236
330
230
100
AcDbEntity
  8
0
  6
Continuous
 62
     0
370
    -2
100
AcDbLine
 10
15.54636106210426
 20
16.1035134960284
 30
0.0
 11
9.450361062104268
 21
16.1035134960284
 31
0.0
  0
SOLID
  5
237
330
230
100
AcDbEntity
  8
0
 62
     0
100
AcDbTrace
 10
15.54636106210426
 20
15.55318016269507
 30
0.0
 11
15.54636106210426
 21
16.65384682936173
 31
0.0
 12
18.84836106210426
 22
16.1035134960284
 32
0.0
 13
18.84836106210426
 23
16.1035134960284
 33
0.0
  0
SOLID
  5
238
330
230
100
AcDbEntity
  8
0
 62
     0
100
AcDbTrace
 10
9.450361062104268
 20
16.65384682936173
 30
0.0
 11
9.450361062104268
 21
15.55318016269507
 31
0.0
 12
6.148361062104268
 22
16.1035134960284
 32
0.0
 13
6.148361062104268
 23
16.1035134960284
 33
0.0
  0
MTEXT
  5
239
330
230
100
AcDbEntity
  8
0
 62
     0
370
    15
100
AcDbMText
 10
-9.184888937895732
 20
20.4785134960284
 30
0.0
 40
3.5
 41
0.0
 71
     2
 72
     1
  1
\A1;12.70 [1/2]
  7
SLDTEXTSTYLE0
 73
     1
 44
1.0
  0
POINT
  5
23A
330
230
100
AcDbEntity
  8
Defpoints
 62
     0
100
AcDbPoint
 10
18.84836106210426
 20
6.350000000000037
 30
0.0
  0
POINT
  5
23B
330
230
100
AcDbEntity
  8
Defpoints
 62
     0
100
AcDbPoint
 10
6.148361062104268
 20
1.587499999999999
 30
0.0
  0
POINT
  5
23C
330
230
100
AcDbEntity
  8
Defpoints
 62
     0
100
AcDbPoint
 10
6.148361062104268
 20
16.1035134960284
 30
0.0
  0
ENDBLK
  5
232
330
230
100
AcDbEntity
  8
0
100
AcDbBlockEnd
  0
BLOCK
  5
23E
330
23D
100
AcDbEntity
  8
0
100
AcDbBlockBegin
  2
*D15
 70
     1
 10
0.0
 20
0.0
 30
0.0
  3
*D15
  1
*D16
  0
LINE
  5
240
330
23D
100
AcDbEntity
  8
0
  6
Continuous
 62
     0
370
    -2
100
AcDbLine
 10
18.91086106210426
 20
1.587499999999999
 30
0.0
 11
31.6175286172749
 21
1.587500000000045
 31
0.0
  0
LINE
  5
241
330
23D
100
AcDbEntity
  8
0
  6
Continuous
 62
     0
370
    -2
100
AcDbLine
 10
18.91086106210426
 20
-1.587499999999999
 30
0.0
 11
31.61752861727491
 21
-1.587499999999952
 31
0.0
  0
LINE
  5
242
330
23D
100
AcDbEntity
  8
0
  6
Continuous
 62
     0
370
    -2
100
AcDbLine
 10
31.6175286172749
 20
1.587500000000045
 30
0.0
 11
31.61752861727478
 21
35.68325000000007
 31
0.0
  0
LINE
  5
243
330
23D
100
AcDbEntity
  8
0
  6
Continuous
 62
     0
370
    -2
100
AcDbLine
 10
31.61752861727489
 20
4.889500000000044
 30
0.0
 11
31.61752861727487
 21
8.191500000000044
 31
0.0
  0
LINE
  5
244
330
23D
100
AcDbEntity
  8
0
  6
Continuous
 62
     0
370
    -2
100
AcDbLine
 10
31.61752861727492
 20
-4.889499999999952
 30
0.0
 11
31.61752861727493
 21
-8.191499999999952
 31
0.0
  0
SOLID
  5
245
330
23D
100
AcDbEntity
  8
0
 62
     0
100
AcDbTrace
 10
31.06719528394155
 20
4.889500000000043
 30
0.0
 11
32.16786195060822
 21
4.889500000000046
 31
0.0
 12
31.6175286172749
 22
1.587500000000045
 32
0.0
 13
31.6175286172749
 23
1.587500000000045
 33
0.0
  0
SOLID
  5
246
330
23D
100
AcDbEntity
  8
0
 62
     0
100
AcDbTrace
 10
32.16786195060825
 20
-4.88949999999995
 30
0.0
 11
31.06719528394158
 21
-4.889499999999954
 31
0.0
 12
31.61752861727491
 22
-1.587499999999952
 32
0.0
 13
31.61752861727491
 23
-1.587499999999952
 33
0.0
  0
MTEXT
  5
247
330
23D
100
AcDbEntity
  8
0
 62
     0
370
    15
100
AcDbMText
 10
27.24252861727482
 20
23.43325000000005
 30
0.0
 40
3.5
 41
0.0
 71
     2
 72
     1
  1
\A1;%%c3.18 [1/8]
  7
SLDTEXTSTYLE0
 11
-3.356894814614649E-15
 21
1.0
 31
0.0
 73
     1
 44
1.0
  0
POINT
  5
248
330
23D
100
AcDbEntity
  8
Defpoints
 62
     0
100
AcDbPoint
 10
18.84836106210426
 20
1.587499999999999
 30
0.0
  0
POINT
  5
249
330
23D
100
AcDbEntity
  8
Defpoints
 62
     0
100
AcDbPoint
 10
18.84836106210426
 20
-1.587499999999999
 30
0.0
  0
POINT
  5
24A
330
23D
100
AcDbEntity
  8
Defpoints
 62
     0
100
AcDbPoint
 10
31.6175286172749
 20
-1.587499999999951
 30
0.0
  0
ENDBLK
  5
23F
330
23D
100
AcDbEntity
  8
0
100
AcDbBlockEnd
  0
BLOCK
  5
24C
330
24B
100
AcDbEntity
  8
0
100
AcDbBlockBegin
  2
*D16
 70
     1
 10
0.0
 20
0.0
 30
0.0
  3
*D16
  1
*D17
  0
LINE
  5
24E
330
24B
100
AcDbEntity
  8
0
  6
Continuous
 62
     0
370
    -2
100
AcDbLine
 10
20.16221923804052
 20
-4.533267477573194
 30
0.0
 11
35.04049184535576
 21
-36.47789714317446
 31
0.0
  0
MTEXT
  5
24F
330
24B
100
AcDbEntity
  8
0
 62
     0
370
    15
100
AcDbMText
 10
31.60155140927239
 20
-22.87689845779953
 30
0.0
 40
3.5
 41
0.0
 71
     5
 72
     1
  1
\A1;R0.51 [R0.02]
  7
SLDTEXTSTYLE0
 11
0.4222044185449637
 21
-0.9065006502816803
 31
0.0
 73
     1
 44
1.0
  0
SOLID
  5
250
330
24B
100
AcDbEntity
  8
0
 62
     0
100
AcDbTrace
 10
20.66109676257887
 20
-4.300914312567282
 30
0.0
 11
19.66334171350217
 21
-4.765620642579106
 31
0.0
 12
18.76810024800505
 22
-1.540002330343086
 32
0.0
 13
18.76810024800505
 23
-1.540002330343086
 33
0.0
  0
LINE
  5
251
330
24B
100
AcDbEntity
  8
0
  6
Continuous
 62
     0
370
    15
100
AcDbLine
 10
18.46362040338421
 20
-1.079499999999996
 30
0.0
 11
18.64362040338421
 21
-1.079499999999996
 31
0.0
  0
LINE
  5
252
330
24B
100
AcDbEntity
  8
0
  6
Continuous
 62
     0
370
    15
100
AcDbLine
 10
18.55362040338421
 20
-1.169499999999996
 30
0.0
 11
18.55362040338421
 21
-0.9894999999999959
 31
0.0
  0
POINT
  5
253
330
24B
100
AcDbEntity
  8
Defpoints
 62
     0
100
AcDbPoint
 10
18.76810024800505
 20
-1.540002330343086
 30
0.0
  0
POINT
  5
254
330
24B
100
AcDbEntity
  8
Defpoints
 62
     0
100
AcDbPoint
 10
18.55362040338421
 20
-1.079499999999996
 30
0.0
  0
ENDBLK
  5
24D
330
24B
100
AcDbEntity
  8
0
100
AcDbBlockEnd
  0
BLOCK
  5
25D
330
25C
100
AcDbEntity
  8
0
100
AcDbBlockBegin
  2
*D17
 70
     1
 10
0.0
 20
0.0
 30
0.0
  3
*D17
  1
*D18
  0
LINE
  5
25F
330
25C
100
AcDbEntity
  8
0
  6
Continuous
 62
     0
370
    -2
100
AcDbLine
 10
20.3473955370836
 20
-4.427365887451149
 30
0.0
 11
38.01998388917616
 21
-35.61706524926775
 31
0.0
  0
MTEXT
  5
260
330
25C
100
AcDbEntity
  8
0
 62
     0
370
    15
100
AcDbMText
 10
33.50997027732301
 20
-22.33274163895927
 30
0.0
 40
3.5
 41
0.0
 71
     5
 72
     1
  1
\A1;R0.25 [R0.01]
  7
SLDTEXTSTYLE0
 11
0.4929793236724812
 21
-0.8700410257174217
 31
0.0
 73
     1
 44
1.0
  0
SOLID
  5
261
330
25C
100
AcDbEntity
  8
0
 62
     0
100
AcDbTrace
 10
20.82620811490342
 20
-4.15606293299006
 30
0.0
 11
19.86858295926378
 21
-4.698668841912238
 31
0.0
 12
18.71957781031707
 22
-1.554490420532222
 32
0.0
 13
18.71957781031707
 23
-1.554490420532222
 33
0.0
  0
LINE
  5
262
330
25C
100
AcDbEntity
  8
0
  6
Continuous
 62
     0
370
    15
100
AcDbLine
 10
18.50436106210426
 20
-1.333499999999996
 30
0.0
 11
18.68436106210426
 21
-1.333499999999996
 31
0.0
  0
LINE
  5
263
330
25C
100
AcDbEntity
  8
0
  6
Continuous
 62
     0
370
    15
100
AcDbLine
 10
18.59436106210426
 20
-1.423499999999996
 30
0.0
 11
18.59436106210426
 21
-1.243499999999996
 31
0.0
  0
POINT
  5
264
330
25C
100
AcDbEntity
  8
Defpoints
 62
     0
100
AcDbPoint
 10
18.71957781031707
 20
-1.554490420532222
 30
0.0
  0
POINT
  5
265
330
25C
100
AcDbEntity
  8
Defpoints
 62
     0
100
AcDbPoint
 10
18.59436106210426
 20
-1.333499999999996
 30
0.0
  0
ENDBLK
  5
25E
330
25C
100
AcDbEntity
  8
0
100
AcDbBlockEnd
  0
ENDSEC
  0
SECTION
  2
ENTITIES
  0
LINE
  5
B1
330
1F
100
AcDbEntity
  8
참조1
100
AcDbLine
 10
-15.39999999999998
 20
0.0010749287238892
 30
0.0
 11
-15.39999999999998
 21
-39.99892507127611
 31
0.0
  0
LINE
  5
B2
330
1F
100
AcDbEntity
  8
참조1
100
AcDbLine
 10
-15.39999999999998
 20
-39.99892507127611
 30
0.0
 11
-30.55885681430864
 21
-39.9989250712761
 31
0.0
  0
INSERT
  5
B4
330
1F
100
AcDbEntity
  8
0
  6
Continuous
 62
     7
100
AcDbBlockReference
 66
     1
  2
블럭10
 10
-29.34027293212519
 20
-52.04609937292004
 30
0.0
  0
ATTRIB
  5
B5
330
B4
100
AcDbEntity
  8
FORMAT
 62
     2
100
AcDbText
 10
-39.48190894426182
 20
-49.97073246008785
 30
0.0
 40
4.233333333333333
  1
EM649008 [ 4 FLUTE ]
 41
0.75
  7
SLDTEXTSTYLE0
 11
-39.48190894426182
 21
-52.08739912675452
 31
0.0
100
AcDbAttribute
  2
AUTOATTR0
 70
     0
 74
     1
  0
SEQEND
  5
B6
330
B4
100
AcDbEntity
  8
0
  6
Continuous
 62
     7
  0
HATCH
  5
B7
330
1F
100
AcDbEntity
  8
중심선
100
AcDbHatch
 10
0.0
 20
0.0
 30
0.0
210
0.0
220
0.0
230
1.0
  2
SOLID
 70
     1
 71
     0
 91
        1
 92
        0
 93
        4
 72
     1
 10
-23.62536362774434
 20
-35.7989250712761
 11
-27.07163887158162
 21
-35.7989250712761
 72
     1
 10
-27.07163887158162
 20
-35.7989250712761
 11
-29.19986873078565
 21
-38.3352506518487
 72
     1
 10
-29.19986873078565
 20
-38.3352506518487
 11
-25.75356040183521
 21
-38.33521122254621
 72
     1
 10
-25.75356040183521
 20
-38.33521122254621
 11
-23.62536362774434
 21
-35.7989250712761
 97
        0
 75
     0
 76
     1
 98
        1
 10
0.0
 20
0.0
  0
HATCH
  5
B8
330
1F
100
AcDbEntity
  8
중심선
100
AcDbHatch
 10
0.0
 20
0.0
 30
0.0
210
0.0
220
0.0
230
1.0
  2
SOLID
 70
     1
 71
     0
 91
        1
 92
        0
 93
        4
 72
     1
 10
-18.61259963670836
 20
-35.7989250712761
 11
-22.05887488054564
 21
-35.7989250712761
 72
     1
 10
-22.05887488054564
 20
-35.7989250712761
 11
-26.59001288890306
 21
-41.19892507127612
 72
     1
 10
-26.59001288890306
 20
-41.19892507127612
 11
-23.14373764506578
 21
-41.19892507127612
 72
     1
 10
-23.14373764506578
 20
-41.19892507127612
 11
-18.61259963670836
 21
-35.7989250712761
 97
        0
 75
     0
 76
     1
 98
        1
 10
0.0
 20
0.0
  0
HATCH
  5
B9
330
1F
100
AcDbEntity
  8
중심선
100
AcDbHatch
 10
0.0
 20
0.0
 30
0.0
210
0.0
220
0.0
230
1.0
  2
SOLID
 70
     1
 71
     0
 91
        1
 92
        0
 93
        4
 72
     1
 10
-13.59983564567249
 20
-35.7989250712761
 11
-17.04611088950961
 21
-35.7989250712761
 72
     1
 10
-17.04611088950961
 20
-35.7989250712761
 11
-24.09454779139886
 21
-44.19892507127612
 72
     1
 10
-24.09454779139886
 20
-44.19892507127612
 11
-20.64827254756158
 21
-44.19892507127612
 72
     1
 10
-20.64827254756158
 20
-44.19892507127612
 11
-13.59983564567249
 21
-35.7989250712761
 97
        0
 75
     0
 76
     1
 98
        1
 10
0.0
 20
0.0
  0
HATCH
  5
BA
330
1F
100
AcDbEntity
  8
중심선
100
AcDbHatch
 10
0.0
 20
0.0
 30
0.0
210
0.0
220
0.0
230
1.0
  2
SOLID
 70
     1
 71
     0
 91
        1
 92
        0
 93
        6
 72
     3
 10
-8.799945214660292
 20
-39.99892507132738
 11
3.960054785062284
 21
1.540850780301639E-10
 40
0.3939339440162633
 50
17.09539180608434
 51
320.0019657685073
 73
     0
 72
     1
 10
-7.116945558959697
 20
-38.58681907591438
 11
-4.81164368525866
 21
-36.65249236586649
 72
     3
 10
-8.799945214713139
 20
-39.99892507127625
 11
6.600054785286829
 21
-1.249000902703301E-13
 40
0.6363583540795982
 50
39.99873849337408
 51
368.4976242363724
 73
     1
 72
     1
 10
-2.37461272281253
 20
-39.03892507120613
 11
-10.11987790787722
 21
-39.0389250712061
 72
     1
 10
-10.11987790787722
 20
-39.0389250712061
 11
-10.11990295232315
 21
-40.95892507120602
 72
     1
 10
-10.11990295232315
 20
-40.95892507120602
 11
-5.678523182851114
 21
-40.95892507120599
 97
        0
 75
     0
 76
     1
 98
        1
 10
0.0
 20
0.0
  0
LINE
  5
108
330
1F
100
AcDbEntity
  8
참조1
100
AcDbLine
 10
67.41348381534561
 20
7.441074928723896
 30
0.0
 11
67.41348381534561
 21
-7.438925071276109
 31
0.0
  0
LINE
  5
109
330
1F
100
AcDbEntity
  8
참조1
100
AcDbLine
 10
80.11348381534562
 20
5.441074928723896
 30
0.0
 11
67.41348381534561
 21
5.441074928723896
 31
0.0
  0
SOLID
  5
10A
330
1F
100
AcDbEntity
  8
참조1
100
AcDbTrace
 10
67.41348381534561
 20
5.441074928723896
 30
0.0
 11
73.76348381534561
 21
4.425074928723896
 31
0.0
 12
73.76348381534561
 22
6.457074928723896
 32
0.0
 13
73.76348381534561
 23
6.457074928723896
 33
0.0
  0
LINE
  5
10B
330
1F
100
AcDbEntity
  8
참조1
100
AcDbLine
 10
80.11348381534562
 20
-5.438925071276109
 30
0.0
 11
67.41348381534561
 21
-5.438925071276109
 31
0.0
  0
SOLID
  5
10C
330
1F
100
AcDbEntity
  8
참조1
100
AcDbTrace
 10
67.41348381534561
 20
-5.438925071276109
 30
0.0
 11
73.76348381534561
 21
-6.454925071276109
 31
0.0
 12
73.76348381534561
 22
-4.422925071276109
 32
0.0
 13
73.76348381534561
 23
-4.422925071276109
 33
0.0
  0
MTEXT
  5
10D
330
1F
100
AcDbEntity
  8
참조1
100
AcDbMText
 10
76.81097390781589
 20
10.98929157337383
 30
0.0
 40
3.5
 41
0.0
 71
     1
 72
     1
  1
A
  7
SLDTEXTSTYLE0
 73
     1
 44
1.0
  0
MTEXT
  5
10E
330
1F
100
AcDbEntity
  8
참조1
100
AcDbMText
 10
76.81097390781589
 20
0.1092915733738251
 30
0.0
 40
3.5
 41
0.0
 71
     1
 72
     1
  1
A
  7
SLDTEXTSTYLE0
 73
     1
 44
1.0
  0
LINE
  5
1E2
330
1F
100
AcDbEntity
  8
0
  6
Continuous
 62
     1
370
    15
100
AcDbLine
 10
15.73295152464499
 20
1.587499999999999
 30
0.0
 11
14.7651765016293
 21
1.587499999999999
 31
0.0
  0
LINE
  5
1E3
330
1F
100
AcDbEntity
  8
0
  6
Continuous
 62
     1
370
    15
100
AcDbLine
 10
14.76517650162928
 20
-1.587500000000006
 30
0.0
 11
15.73295152464499
 21
-1.587500000000006
 31
0.0
  0
LINE
  5
1E4
330
1F
100
AcDbEntity
  8
외형선
  6
Continuous
370
    15
100
AcDbLine
 10
-37.03163893789574
 20
3.174999999999997
 30
0.0
 11
-38.30163893789575
 21
1.905000000000001
 31
0.0
  0
LINE
  5
1E5
330
1F
100
AcDbEntity
  8
외형선
  6
Continuous
370
    15
100
AcDbLine
 10
-38.30163893789575
 20
-1.905000000000008
 30
0.0
 11
-37.03163893789574
 21
-3.175000000000004
 31
0.0
  0
SPLINE
  5
1E6
330
1F
100
AcDbEntity
  8
0
  6
Continuous
 62
     1
370
    15
100
AcDbSpline
210
0.0
220
0.0
230
1.0
 70
     8
 71
     3
 72
    18
 73
    14
 74
     0
 42
0.000000001
 43
0.00000001
 40
0.0
 40
0.0
 40
0.0
 40
0.0
 40
0.0883853443123383
 40
0.1768063120159699
 40
0.2652014765171716
 40
0.3535642365385396
 40
0.4419085192525871
 40
0.530248322244409
 40
0.6185976601899811
 40
0.7157958095163086
 40
0.812997707249123
 40
0.9102040135793357
 40
0.9999999999999999
 40
0.9999999999999999
 40
0.9999999999999999
 40
0.9999999999999999
 10
18.72136106210425
 20
0.2090178238360423
 30
0.0
 10
18.5553915108915
 20
0.3033406050130409
 30
0.0
 10
18.2233855150425
 20
0.4920241838206607
 30
0.0
 10
17.72531822244214
 20
0.7570031970597526
 30
0.0
 10
17.22734618483483
 20
0.9977858219708153
 30
0.0
 10
16.72955413705121
 20
1.205798838781114
 30
0.0
 10
16.23188812176761
 20
1.374410653467407
 30
0.0
 10
15.73424795536342
 20
1.498106280710736
 30
0.0
 10
15.21998915352011
 20
1.575256213486306
 30
0.0
 10
14.68899235374035
 20
1.597614784455487
 30
0.0
 10
14.14138552973711
 20
1.556312914466162
 30
0.0
 10
13.60766773115436
 20
1.460448037239722
 30
0.0
 10
13.25648545679941
 20
1.351552179163811
 30
0.0
 10
13.08785245088665
 20
1.299261852402545
 30
0.0
  0
SPLINE
  5
1E7
330
1F
100
AcDbEntity
  8
0
  6
Continuous
 62
     1
370
    15
100
AcDbSpline
210
0.0
220
0.0
230
1.0
 70
     8
 71
     3
 72
    14
 73
    10
 74
     0
 42
0.000000001
 43
0.00000001
 40
0.0
 40
0.0
 40
0.0
 40
0.0
 40
0.25
 40
0.25
 40
0.5
 40
0.5
 40
0.75
 40
0.75
 40
1.0
 40
1.0
 40
1.0
 40
1.0
 10
18.84836106210426
 20
0.1556023142355727
 30
0.0
 10
18.84836106210426
 20
0.1541788899527248
 30
0.0
 10
18.8448065229411
 20
0.1541246139806063
 30
0.0
 10
18.83108090876688
 20
0.1573644725453747
 30
0.0
 10
18.82082295052919
 20
0.1607222308944003
 30
0.0
 10
18.79620565730825
 20
0.1705804503449997
 30
0.0
 10
18.78185730225967
 20
0.1770737355752843
 30
0.0
 10
18.75182167416992
 20
0.1920654565122391
 30
0.0
 10
18.7365115124287
 20
0.2003478864321337
 30
0.0
 10
18.72136106210428
 20
0.2090178238360423
 30
0.0
  0
SPLINE
  5
1E8
330
1F
100
AcDbEntity
  8
0
  6
Continuous
 62
     1
370
    15
100
AcDbSpline
210
0.0
220
0.0
230
1.0
 70
     8
 71
     3
 72
    10
 73
     6
 74
     0
 42
0.000000001
 43
0.00000001
 40
0.0
 40
0.0
 40
0.0
 40
0.0
 40
0.5
 40
0.5
 40
1.0
 40
1.0
 40
1.0
 40
1.0
 10
18.72136106210425
 20
0.7388048119002519
 30
0.0
 10
18.75441589447749
 20
0.7219152565534799
 30
0.0
 10
18.78469964349501
 20
0.6970258370887947
 30
0.0
 10
18.83191275345185
 20
0.6425646385786692
 30
0.0
 10
18.84836106210426
 20
0.6131476469013393
 30
0.0
 10
18.84836106210426
 20
0.5913381300875642
 30
0.0
  0
LINE
  5
1E9
330
1F
100
AcDbEntity
  8
0
  6
Continuous
 62
     1
370
    15
100
AcDbLine
 10
18.84836106210426
 20
0.1556023142355727
 30
0.0
 11
18.84836106210426
 21
0.5913381300875642
 31
0.0
  0
SPLINE
  5
1EA
330
1F
100
AcDbEntity
  8
0
  6
Continuous
 62
     1
370
    15
100
AcDbSpline
210
0.0
220
0.0
230
1.0
 70
     8
 71
     3
 72
    13
 73
     9
 74
     0
 42
0.000000001
 43
0.00000001
 40
0.0
 40
0.0
 40
0.0
 40
0.0
 40
0.0836628069076694
 40
0.2669494016612667
 40
0.4502270733010812
 40
0.633493905829908
 40
0.8167511346506166
 40
1.0
 40
1.0
 40
1.0
 40
1.0
 10
15.73295152464499
 20
1.580998019382847
 30
0.0
 10
15.8162887972583
 20
1.582208889929795
 30
0.0
 10
16.08219949141848
 20
1.586072508423399
 30
0.0
 10
16.53070773149596
 20
1.529319930399708
 30
0.0
 10
17.078418619702
 20
1.411178770309668
 30
0.0
 10
17.62609744036095
 20
1.233609158972676
 30
0.0
 10
18.17374114264853
 20
1.010191086574622
 30
0.0
 10
18.53882386594929
 20
0.8292655272504916
 30
0.0
 10
18.72136106210428
 20
0.7388048119002519
 30
0.0
  0
CIRCLE
  5
1EB
330
1F
100
AcDbEntity
  8
해칭선
100
AcDbCircle
 10
0.0
 20
0.0
 30
0.0
 40
3.000000000000001
  0
DIMENSION
  5
1EC
330
1F
100
AcDbEntity
  8
0
  6
Continuous
370
    15
100
AcDbDimension
  2
*D12
 10
-43.7767951307238
 20
-3.17500000000003
 30
0.0
 11
-43.77679513072381
 21
1.587499999999856
 31
0.0
 70
   160
  1
%%c<>
 71
     2
 42
6.350000000000001
 52
-270.0
  3
SLDDIMSTYLE1
100
AcDbAlignedDimension
 13
-36.96913893789574
 23
3.174999999999997
 33
0.0
 14
-36.90663893789574
 24
-3.175000000000004
 34
0.0
 50
90.0000000000002
100
AcDbRotatedDimension
1001
ACAD
1000
DSTYLE
1002
{
1070
   171
1070
     6
1070
   273
1070
     7
1002
}
1001
ACAD_DSTYLE_DIMFLIPARROW_SYMBOL
1070
   385
1070
     0
1001
ACAD_DSTYLE_DIMFLIPARROW_WHICH_SYMBOL
1070
   386
1070
     3
  0
DIMENSION
  5
1ED
330
1F
100
AcDbEntity
  8
0
  6
Continuous
370
    15
100
AcDbDimension
  2
*D13
 10
-38.30163893789575
 20
32.96507939495148
 30
0.0
 11
-9.72663893789574
 21
32.96507939495148
 31
0.0
 70
   160
  1
<>
 71
     2
 42
57.15000000000001
  3
SLDDIMSTYLE1
100
AcDbAlignedDimension
 13
18.84836106210426
 23
6.350000000000037
 33
0.0
 14
-38.30163893789575
 24
1.905000000000001
 34
0.0
 50
0.000000000000004
100
AcDbRotatedDimension
1001
ACAD
1000
DSTYLE
1002
{
1070
   171
1070
     6
1070
   273
1070
     7
1002
}
  0
DIMENSION
  5
1EE
330
1F
100
AcDbEntity
  8
0
  6
Continuous
370
    15
100
AcDbDimension
  2
*D14
 10
6.148361062104268
 20
16.1035134960284
 30
0.0
 11
-9.184888937895732
 21
16.1035134960284
 31
0.0
 70
   160
  1
<>
 71
     2
 42
12.69999999999999
  3
SLDDIMSTYLE1
100
AcDbAlignedDimension
 13
18.84836106210426
 23
6.350000000000037
 33
0.0
 14
6.148361062104268
 24
1.587499999999999
 34
0.0
100
AcDbRotatedDimension
1001
ACAD
1000
DSTYLE
1002
{
1070
   171
1070
     6
1070
   273
1070
     7
1002
}
  0
DIMENSION
  5
1EF
330
1F
100
AcDbEntity
  8
0
  6
Continuous
370
    15
100
AcDbDimension
  2
*D15
 10
31.61752861727491
 20
-1.587499999999952
 30
0.0
 11
31.61752861727482
 21
23.43325000000007
 31
0.0
 70
   160
  1
%%c<>
 71
     2
 42
3.174999999999998
 52
-270.0
  3
SLDDIMSTYLE1
100
AcDbAlignedDimension
 13
18.84836106210426
 23
1.587499999999999
 33
0.0
 14
18.84836106210426
 24
-1.587499999999999
 34
0.0
 50
90.0000000000002
100
AcDbRotatedDimension
1001
ACAD
1000
DSTYLE
1002
{
1070
   171
1070
     6
1070
   273
1070
     7
1002
}
  0
INSERT
  5
1F0
330
1F
100
AcDbEntity
  8
해칭선
100
AcDbBlockReference
  2
SW_DOWELSYMBOL_0
 10
0.0
 20
0.0
 30
0.0
  0
SPLINE
  5
1F1
330
1F
100
AcDbEntity
  8
0
  6
Continuous
 62
     1
370
    15
100
AcDbSpline
210
0.0
220
0.0
230
1.0
 70
  1064
 71
     3
 72
     9
 73
     5
 74
     3
 42
0.000000001
 43
0.0000000001
 44
0.0
 40
0.0
 40
0.0
 40
0.0
 40
0.0
 40
1.084864806212582
 40
2.12052529699674
 40
2.12052529699674
 40
2.12052529699674
 40
2.12052529699674
 10
12.49836106210424
 20
1.465647401903567
 30
0.0
 10
12.13795878160981
 20
1.496250110239868
 30
0.0
 10
11.43350035646112
 20
1.556067533399064
 30
0.0
 10
10.72683056645154
 20
1.577185853122933
 30
0.0
 10
10.3816943954376
 20
1.587499999999999
 30
0.0
 11
12.49836106210424
 21
1.465647401903567
 31
0.0
 11
11.41657542567537
 21
1.547326558209512
 31
0.0
 11
10.3816943954376
 21
1.587499999999999
 31
0.0
  0
SPLINE
  5
1F2
330
1F
100
AcDbEntity
  8
0
  6
Continuous
 62
     1
370
    15
100
AcDbSpline
210
0.0
220
0.0
230
1.0
 70
  1064
 71
     3
 72
     9
 73
     5
 74
     3
 42
0.000000001
 43
0.0000000001
 44
0.0
 40
0.0
 40
0.0
 40
0.0
 40
0.0
 40
0.9560731790350551
 40
2.12970317948042
 40
2.12970317948042
 40
2.12970317948042
 40
2.12970317948042
 10
12.4046369142802
 20
0.9616032091644158
 30
0.0
 10
12.11814309740033
 20
1.105716943151122
 30
0.0
 10
11.47996308556656
 20
1.426737848463047
 30
0.0
 10
10.77189453967922
 20
1.530383362439343
 30
0.0
 10
10.3816943954376
 20
1.587499999999999
 30
0.0
 11
12.4046369142802
 21
0.9616032091644158
 31
0.0
 11
11.53107068446244
 21
1.350136304012437
 31
0.0
 11
10.3816943954376
 21
1.587499999999999
 31
0.0
  0
SPLINE
  5
1F3
330
1F
100
AcDbEntity
  8
0
  6
Continuous
 62
     1
370
    15
100
AcDbSpline
210
0.0
220
0.0
230
1.0
 70
    24
 71
     3
 72
     8
 73
     4
 74
     0
 42
0.000000001
 43
0.0000000001
 40
0.0
 40
0.0
 40
0.0
 40
0.0
 40
0.078300454037379
 40
0.078300454037379
 40
0.078300454037379
 40
0.078300454037379
 10
12.49836106210424
 20
-1.465647401903574
 30
0.0
 10
12.47230405271558
 20
-1.467147455900097
 30
0.0
 10
12.44624704332692
 20
-1.468647509896613
 30
0.0
 10
12.42019003393826
 20
-1.470147563893136
 30
0.0
  0
SPLINE
  5
1F4
330
1F
100
AcDbEntity
  8
0
  6
Continuous
 62
     1
370
    15
100
AcDbSpline
210
0.0
220
0.0
230
1.0
 70
     8
 71
     3
 72
     8
 73
     4
 74
     0
 42
0.000000001
 43
0.0000000001
 40
0.0
 40
0.0
 40
0.0
 40
0.0
 40
7.122837189520761
 40
7.122837189520761
 40
7.122837189520761
 40
7.122837189520761
 10
12.49836106210424
 20
-0.6099458527552528
 30
0.0
 10
11.79280550654869
 20
-0.2514112903353478
 30
0.0
 10
11.08724995099315
 20
0.1071232720845643
 30
0.0
 10
10.40164620079595
 20
0.5365547154194914
 30
0.0
  0
SPLINE
  5
1F5
330
1F
100
AcDbEntity
  8
0
  6
Continuous
 62
     1
370
    15
100
AcDbSpline
210
0.0
220
0.0
230
1.0
 70
     8
 71
     3
 72
    10
 73
     6
 74
     0
 42
0.000000001
 43
0.00000001
 40
0.2166633805561931
 40
0.2166633805561931
 40
0.2166633805561931
 40
0.2166633805561931
 40
0.3787612894518905
 40
0.7576752372627505
 40
0.9495153929784363
 40
0.9495153929784363
 40
0.9495153929784363
 40
0.9495153929784363
 10
18.59436106210426
 20
1.587499999999995
 30
0.0
 10
17.93946201094822
 20
1.569302320762674
 30
0.0
 10
17.75013832151381
 20
1.539332284432838
 30
0.0
 10
17.55388070052055
 20
1.477679870787483
 30
0.0
 10
17.3254221512366
 20
1.383553120269703
 30
0.0
 10
17.24370232314239
 20
1.354008157769861
 30
0.0
  0
SPLINE
  5
1F6
330
1F
100
AcDbEntity
  8
0
  6
Continuous
 62
     1
370
    15
100
AcDbSpline
210
0.0
220
0.0
230
1.0
 70
     8
 71
     3
 72
    17
 73
    13
 74
     0
 42
0.000000001
 43
0.00000001
 40
0.0
 40
0.0
 40
0.0
 40
0.0
 40
0.1014621810699251
 40
0.2028844324849521
 40
0.3042827189041055
 40
0.4056730962801239
 40
0.5070716507370849
 40
0.6084944372055853
 40
0.7099574183085766
 40
0.821542555900308
 40
0.9331222610877735
 40
0.9419087837516374
 40
0.9419087837516374
 40
0.9419087837516374
 40
0.9419087837516374
 10
12.49836106210424
 20
-0.6099458527552528
 30
0.0
 10
12.66437550717131
 20
-0.6964761980421628
 30
0.0
 10
12.99633906360742
 20
-0.8695028352693157
 30
0.0
 10
13.49415869518388
 20
-1.095318841474757
 30
0.0
 10
13.99184126399198
 20
-1.286736691021552
 30
0.0
 10
14.48947606669691
 20
-1.435699691008693
 30
0.0
 10
14.98715991385802
 20
-1.53788127445366
 30
0.0
 10
15.48498389046405
 20
-1.589625066408388
 30
0.0
 10
15.99952363209689
 20
-1.5899550241855
 30
0.0
 10
16.53070628209401
 20
-1.52984322146991
 30
0.0
 10
16.9102355075758
 20
-1.450878312718913
 30
0.0
 10
17.10718252762202
 20
-1.392895061970997
 30
0.0
 10
17.12155930585097
 20
-1.388583671659511
 30
0.0
  0
LINE
  5
1F7
330
1F
100
AcDbEntity
  8
외형선
  6
Continuous
370
    15
100
AcDbLine
 10
-38.30163893789575
 20
-1.905000000000008
 30
0.0
 11
-38.30163893789575
 21
-0.0000000000000142
 31
0.0
  0
LINE
  5
1F8
330
1F
100
AcDbEntity
  8
외형선
  6
Continuous
370
    15
100
AcDbLine
 10
-37.03163893789574
 20
-0.0000000000000142
 30
0.0
 11
-37.03163893789574
 21
3.174999999999997
 31
0.0
  0
LINE
  5
1F9
330
1F
100
AcDbEntity
  8
외형선
  6
Continuous
370
    15
100
AcDbLine
 10
-37.03163893789574
 20
-3.175000000000004
 30
0.0
 11
-37.03163893789574
 21
-0.0000000000000142
 31
0.0
  0
LINE
  5
1FA
330
1F
100
AcDbEntity
  8
0
  6
Continuous
 62
     1
370
    15
100
AcDbLine
 10
18.84836106210426
 20
0.5913381300875642
 30
0.0
 11
18.84836106210426
 21
1.333499999999995
 31
0.0
  0
LINE
  5
1FB
330
1F
100
AcDbEntity
  8
0
  6
Continuous
 62
     1
370
    15
100
AcDbLine
 10
18.84836106210426
 20
-1.333499999999996
 30
0.0
 11
18.84836106210426
 21
0.1556023142355656
 31
0.0
  0
SPLINE
  5
1FC
330
1F
100
AcDbEntity
  8
0
  6
Continuous
 62
     1
370
    15
100
AcDbSpline
210
0.0
220
0.0
230
1.0
 70
     8
 71
     3
 72
    36
 73
    32
 74
     0
 42
0.000000001
 43
0.00000001
 40
0.0215007480411332
 40
0.0215007480411332
 40
0.0215007480411332
 40
0.0215007480411332
 40
0.0625
 40
0.0625
 40
0.125
 40
0.125
 40
0.1875
 40
0.1875
 40
0.25
 40
0.25
 40
0.3125
 40
0.3125
 40
0.375
 40
0.375
 40
0.4375
 40
0.4375
 40
0.5
 40
0.5
 40
0.5625
 40
0.5625
 40
0.625
 40
0.625
 40
0.6875
 40
0.6875
 40
0.75
 40
0.75
 40
0.8125
 40
0.8125
 40
0.875
 40
0.875
 40
0.9232464229860721
 40
0.9232464229860721
 40
0.9232464229860721
 40
0.9232464229860721
 10
18.58021443308889
 20
-1.587105743009695
 30
0.0
 10
17.89002180408011
 20
-1.560057593290495
 30
0.0
 10
17.77947891278965
 20
-1.539736745840884
 30
0.0
 10
17.63107573238102
 20
-1.508265051891009
 30
0.0
 10
17.50157464528528
 20
-1.482956981602683
 30
0.0
 10
17.24162438495747
 20
-1.422550387272452
 30
0.0
 10
17.1128082869391
 20
-1.387593601352073
 30
0.0
 10
16.8533612421798
 20
-1.30851891049506
 30
0.0
 10
16.72290810938617
 20
-1.264388872366375
 30
0.0
 10
16.46443817761307
 20
-1.168293752265328
 30
0.0
 10
16.33474795746276
 20
-1.116134346835857
 30
0.0
 10
16.07483555877299
 20
-1.004640378737335
 30
0.0
 10
15.94607891621914
 20
-0.9455310744150225
 30
0.0
 10
15.68652497401651
 20
-0.8211045294607615
 30
0.0
 10
15.556093950919
 20
-0.7558259902554099
 30
0.0
 10
15.29781717915832
 20
-0.6211137351077909
 30
0.0
 10
15.1679179842644
 20
-0.5513292113025798
 30
0.0
 10
14.90805507393921
 20
-0.4085308121933124
 30
0.0
 10
14.7793379063734
 20
-0.335755120670683
 30
0.0
 10
14.51968864003129
 20
-0.1880399543968352
 30
0.0
 10
14.38928561050653
 20
-0.1131959759319727
 30
0.0
 10
14.13121338245126
 20
0.0362238707243492
 30
0.0
 10
14.00108540214281
 20
0.1112722299109166
 30
0.0
 10
13.74128359952783
 20
0.2600409399138357
 30
0.0
 10
13.61258592059738
 20
0.3335772401472568
 30
0.0
 10
13.35285291761749
 20
0.4783799045316144
 30
0.0
 10
13.22248929496845
 20
0.5495098121582771
 30
0.0
 10
12.96462188067134
 20
0.6871339152465907
 30
0.0
 10
12.83425088793857
 20
0.7541360037076075
 30
0.0
 10
12.60413835135688
 20
0.867850225704295
 30
0.0
 10
12.50458538760558
 20
0.9156511809340557
 30
0.0
 10
12.4046369142802
 20
0.9616032091644158
 30
0.0
  0
LINE
  5
1FD
330
1F
100
AcDbEntity
  8
외형선
  6
Continuous
370
    15
100
AcDbLine
 10
6.148361062104268
 20
1.587499999999999
 30
0.0
 11
6.148361062104268
 21
-1.587499999999999
 31
0.0
  0
LINE
  5
1FE
330
1F
100
AcDbEntity
  8
0
  6
Continuous
 62
     1
370
    15
100
AcDbLine
 10
10.38169439543758
 20
-1.587500000000006
 30
0.0
 11
11.34946941845329
 21
-1.587500000000006
 31
0.0
  0
SPLINE
  5
1FF
330
1F
100
AcDbEntity
  8
0
  6
Continuous
 62
     1
370
    15
100
AcDbSpline
210
0.0
220
0.0
230
1.0
 70
     8
 71
     3
 72
    11
 73
     7
 74
     0
 42
0.000000001
 43
0.00000001
 40
0.6502496582516407
 40
0.6502496582516407
 40
0.6502496582516407
 40
0.6502496582516407
 40
0.7157958095163086
 40
0.812997707249123
 40
0.9102040135793357
 40
0.9999999999999999
 40
0.9999999999999999
 40
0.9999999999999999
 40
0.9999999999999999
 10
10.6747944577538
 20
1.578531139030659
 30
0.0
 10
10.55170600577201
 20
1.586110843453774
 30
0.0
 10
10.24607104147361
 20
1.593131731553349
 30
0.0
 10
9.757903423545418
 20
1.556312914466162
 30
0.0
 10
9.224185624962661
 20
1.460448037239722
 30
0.0
 10
8.873003350607714
 20
1.351552179163811
 30
0.0
 10
8.704370344694954
 20
1.299261852402545
 30
0.0
  0
SPLINE
  5
200
330
1F
100
AcDbEntity
  8
0
  6
Continuous
 62
     1
370
    15
100
AcDbSpline
210
0.0
220
0.0
230
1.0
 70
     8
 71
     3
 72
    12
 73
     8
 74
     0
 42
0.000000001
 43
0.00000001
 40
0.0
 40
0.0
 40
0.0
 40
0.0
 40
0.0336043751568623
 40
0.2751852123009221
 40
0.5167770063570851
 40
0.7583813926085566
 40
1.0
 40
1.0
 40
1.0
 40
1.0
 10
10.38169439543758
 20
-1.583737819331255
 30
0.0
 10
10.35630332260749
 20
-1.584946890513834
 30
0.0
 10
10.14837659477269
 20
-1.594847937877823
 30
0.0
 10
9.757902073535778
 20
-1.553409263088746
 30
0.0
 10
9.210259946482214
 20
-1.455650931240214
 30
0.0
 10
8.662583712537096
 20
-1.297375616365883
 30
0.0
 10
8.297450790046323
 20
-1.151057883291756
 30
0.0
 10
8.114878955912562
 20
-1.077896863706314
 30
0.0
  0
SPLINE
  5
201
330
1F
100
AcDbEntity
  8
0
  6
Continuous
 62
     1
370
    15
100
AcDbSpline
210
0.0
220
0.0
230
1.0
 70
     8
 71
     3
 72
     9
 73
     5
 74
     0
 42
0.000000001
 43
0.00000001
 40
0.0
 40
0.0
 40
0.0
 40
0.0
 40
0.8448440348887941
 40
1.0
 40
1.0
 40
1.0
 40
1.0
 10
8.114878955912548
 20
-1.465647401903574
 30
0.0
 10
8.280895923452125
 20
-1.42718275520734
 30
0.0
 10
8.477401977449883
 20
-1.381654059841338
 30
0.0
 10
8.673884854308188
 20
-1.310328446740378
 30
0.0
 10
8.70437034469494
 20
-1.299261852402559
 30
0.0
  0
SPLINE
  5
202
330
1F
100
AcDbEntity
  8
0
  6
Continuous
 62
     1
370
    15
100
AcDbSpline
210
0.0
220
0.0
230
1.0
 70
     8
 71
     3
 72
     9
 73
     5
 74
     0
 42
0.000000001
 43
0.0000000001
 40
0.0
 40
0.0
 40
0.0
 40
0.0
 40
1.084864806212584
 40
1.970338374819774
 40
1.970338374819774
 40
1.970338374819774
 40
1.970338374819774
 10
8.114878955912548
 20
1.465647401903567
 30
0.0
 10
7.754476675418115
 20
1.496250110239863
 30
0.0
 10
7.099911756762626
 20
1.55183094414943
 30
0.0
 10
6.443437621864721
 20
1.574000305283576
 30
0.0
 10
6.148361062104488
 20
1.582984712622519
 30
0.0
  0
SPLINE
  5
203
330
1F
100
AcDbEntity
  8
0
  6
Continuous
 62
     1
370
    15
100
AcDbSpline
210
0.0
220
0.0
230
1.0
 70
     8
 71
     3
 72
     9
 73
     5
 74
     0
 42
0.000000001
 43
0.0000000001
 40
0.0
 40
0.0
 40
0.0
 40
0.0
 40
0.9560731790350595
 40
1.979120869741537
 40
1.979120869741537
 40
1.979120869741537
 40
1.979120869741537
 10
8.021154808088507
 20
0.9616032091644158
 30
0.0
 10
7.734660991208631
 20
1.105716943151123
 30
0.0
 10
7.141603990476614
 20
1.404039817177704
 30
0.0
 10
6.488192107158699
 20
1.514639963881542
 30
0.0
 10
6.148361062104268
 20
1.565375559288164
 30
0.0
  0
SPLINE
  5
204
330
1F
100
AcDbEntity
  8
0
  6
Continuous
 62
     1
370
    15
100
AcDbSpline
210
0.0
220
0.0
230
1.0
 70
    24
 71
     3
 72
     8
 73
     4
 74
     0
 42
0.000000001
 43
0.0000000001
 40
0.0
 40
0.0
 40
0.0
 40
0.0
 40
1.96977380968896
 40
1.96977380968896
 40
1.96977380968896
 40
1.96977380968896
 10
8.114878955912548
 20
-1.465647401903574
 30
0.0
 10
7.459372991309788
 20
-1.503383671913603
 30
0.0
 10
6.803867026707028
 20
-1.541119941923625
 30
0.0
 10
6.148361062104275
 20
-1.578856211933655
 30
0.0
  0
SPLINE
  5
205
330
1F
100
AcDbEntity
  8
0
  6
Continuous
 62
     1
370
    15
100
AcDbSpline
210
0.0
220
0.0
230
1.0
 70
    24
 71
     3
 72
     8
 73
     4
 74
     0
 42
0.000000001
 43
0.0000000001
 40
0.0
 40
0.0
 40
0.0
 40
0.0
 40
6.617568561201163
 40
6.617568561201163
 40
6.617568561201163
 40
6.617568561201163
 10
8.114878955912548
 20
-0.6099458527552528
 30
0.0
 10
7.459372991309788
 20
-0.2768444515517174
 30
0.0
 10
6.803867026707028
 20
0.0562569496518108
 30
0.0
 10
6.148361062104268
 20
0.3893583508553462
 30
0.0
  0
SPLINE
  5
206
330
1F
100
AcDbEntity
  8
0
  6
Continuous
 62
     1
370
    15
100
AcDbSpline
210
0.0
220
0.0
230
1.0
 70
     8
 71
     3
 72
    17
 73
    13
 74
     0
 42
0.000000001
 43
0.00000001
 40
0.0
 40
0.0
 40
0.0
 40
0.0
 40
0.1014621810699251
 40
0.2028844324849521
 40
0.3042827189041055
 40
0.4056730962801239
 40
0.5070716507370849
 40
0.6084944372055853
 40
0.7099574183085766
 40
0.821542555900308
 40
0.9331222610877735
 40
0.9419087837516374
 40
0.9419087837516374
 40
0.9419087837516374
 40
0.9419087837516374
 10
8.114878955912548
 20
-0.6099458527552528
 30
0.0
 10
8.280893400979611
 20
-0.6964761980421628
 30
0.0
 10
8.612856957415719
 20
-0.8695028352693157
 30
0.0
 10
9.110676588992181
 20
-1.095318841474757
 30
0.0
 10
9.608359157800283
 20
-1.286736691021552
 30
0.0
 10
10.10599396050521
 20
-1.435699691008693
 30
0.0
 10
10.60367780766632
 20
-1.53788127445366
 30
0.0
 10
11.10150178427236
 20
-1.589625066408388
 30
0.0
 10
11.6160415259052
 20
-1.5899550241855
 30
0.0
 10
12.1472241759023
 20
-1.52984322146991
 30
0.0
 10
12.52675340138411
 20
-1.450878312718913
 30
0.0
 10
12.72370042143032
 20
-1.392895061970997
 30
0.0
 10
12.73807719965927
 20
-1.388583671659511
 30
0.0
  0
SPLINE
  5
207
330
1F
100
AcDbEntity
  8
0
  6
Continuous
 62
     1
370
    15
100
AcDbSpline
210
0.0
220
0.0
230
1.0
 70
     8
 71
     3
 72
    36
 73
    32
 74
     0
 42
0.000000001
 43
0.00000001
 40
0.0111189049821518
 40
0.0111189049821518
 40
0.0111189049821518
 40
0.0111189049821518
 40
0.0625
 40
0.0625
 40
0.125
 40
0.125
 40
0.1875
 40
0.1875
 40
0.25
 40
0.25
 40
0.3125
 40
0.3125
 40
0.375
 40
0.375
 40
0.4375
 40
0.4375
 40
0.5
 40
0.5
 40
0.5625
 40
0.5625
 40
0.625
 40
0.625
 40
0.6875
 40
0.6875
 40
0.75
 40
0.75
 40
0.8125
 40
0.8125
 40
0.875
 40
0.875
 40
0.9232464229860721
 40
0.9232464229860721
 40
0.9232464229860721
 40
0.9232464229860721
 10
14.1262122892459
 20
-1.587499999999999
 30
0.0
 10
13.56584171634474
 20
-1.570852494183875
 30
0.0
 10
13.41088289030672
 20
-1.542893620709101
 30
0.0
 10
13.24759362618932
 20
-1.508265051891009
 30
0.0
 10
13.11809253909358
 20
-1.482956981602683
 30
0.0
 10
12.85814227876577
 20
-1.422550387272452
 30
0.0
 10
12.72932618074741
 20
-1.387593601352073
 30
0.0
 10
12.4698791359881
 20
-1.30851891049506
 30
0.0
 10
12.33942600319448
 20
-1.264388872366375
 30
0.0
 10
12.08095607142137
 20
-1.168293752265328
 30
0.0
 10
11.95126585127105
 20
-1.116134346835857
 30
0.0
 10
11.6913534525813
 20
-1.004640378737335
 30
0.0
 10
11.56259681002744
 20
-0.9455310744150225
 30
0.0
 10
11.30304286782481
 20
-0.8211045294607615
 30
0.0
 10
11.1726118447273
 20
-0.7558259902554099
 30
0.0
 10
10.91433507296662
 20
-0.6211137351077909
 30
0.0
 10
10.7844358780727
 20
-0.5513292113025798
 30
0.0
 10
10.52457296774752
 20
-0.4085308121933124
 30
0.0
 10
10.39585580018171
 20
-0.335755120670683
 30
0.0
 10
10.13620653383959
 20
-0.1880399543968352
 30
0.0
 10
10.00580350431483
 20
-0.1131959759319727
 30
0.0
 10
9.747731276259561
 20
0.0362238707243492
 30
0.0
 10
9.61760329595111
 20
0.1112722299109166
 30
0.0
 10
9.35780149333613
 20
0.2600409399138357
 30
0.0
 10
9.22910381440568
 20
0.3335772401472568
 30
0.0
 10
8.969370811425794
 20
0.4783799045316144
 30
0.0
 10
8.839007188776751
 20
0.5495098121582771
 30
0.0
 10
8.581139774479642
 20
0.6871339152465907
 30
0.0
 10
8.450768781746877
 20
0.7541360037076075
 30
0.0
 10
8.220656245165177
 20
0.867850225704295
 30
0.0
 10
8.121103281413884
 20
0.9156511809340557
 30
0.0
 10
8.021154808088507
 20
0.9616032091644158
 30
0.0
  0
SPLINE
  5
208
330
1F
100
AcDbEntity
  8
0
  6
Continuous
 62
     1
370
    15
100
AcDbSpline
210
0.0
220
0.0
230
1.0
 70
     8
 71
     3
 72
     8
 73
     4
 74
     0
 42
0.000000001
 43
0.0000000001
 40
0.0
 40
0.0
 40
0.0
 40
0.0
 40
4.375321817529858
 40
4.375321817529858
 40
4.375321817529858
 40
4.375321817529858
 10
8.114878955912562
 20
-1.077896863706314
 30
0.0
 10
7.679810188343954
 20
-0.8609776498271771
 30
0.0
 10
7.244741420775345
 20
-0.6440584359480397
 30
0.0
 10
6.148361062104268
 20
-0.0960008770150296
 30
0.0
  0
SPLINE
  5
209
330
1F
100
AcDbEntity
  8
0
  6
Continuous
 62
     1
370
    15
100
AcDbSpline
210
0.0
220
0.0
230
1.0
 70
     8
 71
     3
 72
    18
 73
    14
 74
     0
 42
0.000000001
 43
0.00000001
 40
0.6325198695765026
 40
0.6325198695765026
 40
0.6325198695765026
 40
0.6325198695765026
 40
0.6875
 40
0.6875
 40
0.75
 40
0.75
 40
0.8125000000000001
 40
0.8125000000000001
 40
0.8750000000000001
 40
0.8750000000000001
 40
0.9375000000000001
 40
0.9375000000000001
 40
1.0
 40
1.0
 40
1.0
 40
1.0
 10
10.40164620079595
 20
0.5365547154194914
 30
0.0
 10
10.2879211094605
 20
0.5984640824217422
 30
0.0
 10
10.17347389057987
 20
0.6591202466768706
 30
0.0
 10
9.92930149333613
 20
0.7846879353574749
 30
0.0
 10
9.80060381440566
 20
0.8488930830604957
 30
0.0
 10
9.540870811425794
 20
0.971608402722552
 30
0.0
 10
9.410507188776766
 20
1.029989052338657
 30
0.0
 10
9.152639774479635
 20
1.13910620059869
 30
0.0
 10
9.02226878174687
 20
1.190245332493426
 30
0.0
 10
8.762539697076296
 20
1.284102650203579
 30
0.0
 10
8.63384151752722
 20
1.326770697108266
 30
0.0
 10
8.37403637788849
 20
1.403249487766949
 30
0.0
 10
8.243920327669482
 20
1.436933686593555
 30
0.0
 10
8.114878955912548
 20
1.465647401903567
 30
0.0
  0
SPLINE
  5
20A
330
1F
100
AcDbEntity
  8
0
  6
Continuous
 62
     1
370
    15
100
AcDbSpline
210
0.0
220
0.0
230
1.0
 70
    24
 71
     3
 72
     8
 73
     4
 74
     0
 42
0.000000001
 43
0.0000000001
 40
2.100186341143633
 40
2.100186341143633
 40
2.100186341143633
 40
2.100186341143633
 40
2.120171180221194
 40
2.120171180221194
 40
2.120171180221194
 40
2.120171180221194
 10
10.40164620079596
 20
-1.586351411345063
 30
0.0
 10
10.39499559900984
 20
-1.586734274230047
 30
0.0
 10
10.38834499722372
 20
-1.587117137115023
 30
0.0
 10
10.3816943954376
 20
-1.587500000000006
 30
0.0
  0
LINE
  5
20B
330
1F
100
AcDbEntity
  8
0
  6
Continuous
 62
     1
370
    15
100
AcDbLine
 10
14.76517650162928
 20
-1.587500000000006
 30
0.0
 11
14.1262122892459
 21
-1.587499999999999
 31
0.0
  0
LINE
  5
20E
330
1F
100
AcDbEntity
  8
외형선
  6
Continuous
370
    15
100
AcDbLine
 10
0.0
 20
3.174999999999997
 30
0.0
 11
0.0
 21
-3.174999999999997
 31
0.0
  0
LINE
  5
20F
330
1F
100
AcDbEntity
  8
외형선
  6
Continuous
370
    15
100
AcDbLine
 10
-38.30163893789575
 20
-0.0000000000000142
 30
0.0
 11
-38.30163893789575
 21
1.905000000000001
 31
0.0
  0
LINE
  5
210
330
1F
100
AcDbEntity
  8
외형선
  6
Continuous
370
    15
100
AcDbLine
 10
-37.03163893789574
 20
-3.175000000000004
 30
0.0
 11
-0.0000000000000036
 21
-3.175000000000004
 31
0.0
  0
LINE
  5
211
330
1F
100
AcDbEntity
  8
외형선
  6
Continuous
370
    15
100
AcDbLine
 10
0.0000000000000044
 20
3.174999999999997
 30
0.0
 11
-37.03163893789574
 21
3.174999999999997
 31
0.0
  0
LINE
  5
212
330
1F
100
AcDbEntity
  8
중심선
 48
0.8
100
AcDbLine
 10
-41.30163893789575
 20
-0.0000000000000071
 30
0.0
 11
21.84836106210426
 21
0.0
 31
0.0
  0
SPLINE
  5
218
330
1F
100
AcDbEntity
  8
0
  6
Continuous
 62
     1
370
    15
100
AcDbSpline
210
0.0
220
0.0
230
1.0
 70
     8
 71
     3
 72
    38
 73
    34
 74
     0
 42
0.000000001
 43
0.00000001
 40
0.0406991339116014
 40
0.0406991339116014
 40
0.0406991339116014
 40
0.0406991339116014
 40
0.0625
 40
0.0625
 40
0.125
 40
0.125
 40
0.1875
 40
0.1875
 40
0.25
 40
0.25
 40
0.3124999999999999
 40
0.3124999999999999
 40
0.3749999999999999
 40
0.3749999999999999
 40
0.4375
 40
0.4375
 40
0.5
 40
0.5
 40
0.5625
 40
0.5625
 40
0.625
 40
0.625
 40
0.6875
 40
0.6875
 40
0.75
 40
0.75
 40
0.8125000000000001
 40
0.8125000000000001
 40
0.8750000000000001
 40
0.8750000000000001
 40
0.9375000000000001
 40
0.9375000000000001
 40
1.0
 40
1.0
 40
1.0
 40
1.0
 10
18.84836106210427
 20
-1.331137795837408
 30
0.0
 10
18.42226199497503
 20
-1.316904108021632
 30
0.0
 10
18.37701221715027
 20
-1.302136564678395
 30
0.0
 10
18.20257573238102
 20
-1.243067251732647
 30
0.0
 10
18.07307464528529
 20
-1.194964849755273
 30
0.0
 10
17.81312438495748
 20
-1.090987760915112
 30
0.0
 10
17.68430828693912
 20
-1.035343369337475
 30
0.0
 10
17.42486124217979
 20
-0.9172783175614683
 30
0.0
 10
17.29440810938619
 20
-0.854863269400397
 30
0.0
 10
17.03593817761307
 20
-0.7251546641100859
 30
0.0
 10
16.90624795746276
 20
-0.6575902637924074
 30
0.0
 10
16.64633555877301
 20
-0.5184285583078392
 30
0.0
 10
16.51757891621914
 20
-0.4471023107943211
 30
0.0
 10
16.25802497401653
 20
-0.3015761586858687
 30
0.0
 10
16.127593950919
 20
-0.2274371713597461
 30
0.0
 10
15.8693171791583
 20
-0.0786302538292674
 30
0.0
 10
15.7394179842644
 20
-0.0035705888939788
 30
0.0
 10
15.47955507393921
 20
0.1460867835944768
 30
0.0
 10
15.3508379063734
 20
0.2204448515393906
 30
0.0
 10
15.0911886400313
 20
0.3676208206207576
 30
0.0
 10
14.96078561050652
 20
0.4403300697869028
 30
0.0
 10
14.70271338245123
 20
0.5818362948786913
 30
0.0
 10
14.5725854021428
 20
0.651082694807485
 30
0.0
 10
14.31278359952782
 20
0.7846879353574749
 30
0.0
 10
14.18408592059736
 20
0.8488930830604957
 30
0.0
 10
13.92435291761749
 20
0.971608402722552
 30
0.0
 10
13.79398929496847
 20
1.029989052338657
 30
0.0
 10
13.53612188067133
 20
1.13910620059869
 30
0.0
 10
13.40575088793857
 20
1.190245332493426
 30
0.0
 10
13.14602180326799
 20
1.284102650203579
 30
0.0
 10
13.01732362371891
 20
1.326770697108266
 30
0.0
 10
12.75751848408019
 20
1.403249487766949
 30
0.0
 10
12.62740243386118
 20
1.436933686593555
 30
0.0
 10
12.49836106210424
 20
1.465647401903567
 30
0.0
  0
ARC
  5
257
330
1F
100
AcDbEntity
  8
0
  6
Continuous
 62
     1
370
    15
100
AcDbCircle
 10
18.59436106210426
 20
1.333499999999995
 30
0.0
 40
0.254
100
AcDbArc
 50
0.0
 51
93.19276287420055
  0
ARC
  5
258
330
1F
100
AcDbEntity
  8
0
  6
Continuous
 62
     1
370
    15
100
AcDbCircle
 10
18.59436106210426
 20
-1.333499999999996
 30
0.0
 40
0.254
100
AcDbArc
 50
266.8072371257994
 51
0.0
  0
DIMENSION
  5
259
330
1F
100
AcDbEntity
  8
0
  6
Continuous
370
    15
100
AcDbDimension
  2
*D17
 10
18.59436106210426
 20
-1.333499999999996
 30
0.0
 11
31.22611258481478
 21
-23.62681236359954
 31
0.0
 70
   164
  1
<>
 71
     5
 42
0.2540000000000012
  3
SLDDIMSTYLE1
100
AcDbRadialDimension
 15
18.71957781031707
 25
-1.554490420532222
 35
0.0
 40
0.0
1001
ACAD
1000
DSTYLE
1002
{
1070
    78
1070
     0
1070
   171
1070
     2
1070
   273
1070
     2
1002
}
1001
ACAD_DSTYLE_DIMRADIAL_EXTENSION
1070
   387
1070
     1
1070
   388
1040
4.656664755994452
1070
   390
1040
0.0
  0
ARC
  5
28A
330
1F
100
AcDbEntity
  8
외형선
  6
Continuous
370
    15
100
AcDbCircle
 10
6.14836106210427
 20
14.2875
 30
0.0
 40
12.7
100
AcDbArc
 50
241.0449756281402
 51
270.0
1001
PE_URL
1000

  0
ARC
  5
28F
330
1F
100
AcDbEntity
  8
외형선
  6
Continuous
370
    15
100
AcDbCircle
 10
6.148361062104295
 20
-14.2875
 30
0.0
 40
12.7
100
AcDbArc
 50
90.00000000000011
 51
118.9550243718599
1001
PE_URL
1000

  0
ENDSEC
  0
SECTION
  2
OBJECTS
  0
DICTIONARY
  5
C
330
0
100
AcDbDictionary
281
     1
  3
ACAD_GROUP
350
D
  3
ACAD_IMAGE_VARS
350
139
  3
ACAD_LAYOUT
350
1A
  3
ACAD_MLINESTYLE
350
17
  3
ACAD_PLOTSETTINGS
350
19
  3
ACAD_PLOTSTYLENAME
350
E
  3
ACAD_SCALELIST
350
47
  3
APPDATA
350
137
  3
DWGPROPS
350
293
  0
DICTIONARY
  5
1DD
330
2
100
AcDbDictionary
280
     1
281
     1
  3
ACAD_LAYERSTATES
360
1DE
  0
DICTIONARY
  5
28C
330
1F
100
AcDbDictionary
280
     1
281
     1
  3
ACAD_SORTENTS
360
28D
  3
DIM_BOUNDING_BOXES_V1
360
292
  0
DICTIONARY
  5
D
102
{ACAD_REACTORS
330
C
102
}
330
C
100
AcDbDictionary
281
     1
  0
RASTERVARIABLES
  5
139
102
{ACAD_REACTORS
330
C
102
}
330
C
100
AcDbRasterVariables
 90
        0
 70
     1
 71
     1
 72
     1
  0
DICTIONARY
  5
1A
102
{ACAD_REACTORS
330
C
102
}
330
C
100
AcDbDictionary
281
     1
  3
Layout1
350
1E
  3
Layout2
350
26
  3
Model
350
22
  0
DICTIONARY
  5
17
102
{ACAD_REACTORS
330
C
102
}
330
C
100
AcDbDictionary
281
     1
  3
Standard
350
18
  0
DICTIONARY
  5
19
102
{ACAD_REACTORS
330
C
102
}
330
C
100
AcDbDictionary
281
     1
  0
ACDBDICTIONARYWDFLT
  5
E
102
{ACAD_REACTORS
330
C
102
}
330
C
100
AcDbDictionary
281
     1
  3
Normal
350
F
100
AcDbDictionaryWithDefault
340
F
  0
DICTIONARY
  5
47
102
{ACAD_REACTORS
330
C
102
}
330
C
100
AcDbDictionary
281
     1
  3
A0
350
48
  3
A1
350
49
  3
A2
350
4A
  3
A3
350
4B
  3
A4
350
4C
  3
A5
350
4D
  3
A6
350
4E
  3
A7
350
4F
  3
A8
350
50
  3
A9
350
51
  3
B0
350
52
  3
B1
350
53
  3
B2
350
54
  3
B3
350
55
  3
B4
350
56
  3
B5
350
57
  3
B6
350
58
  3
B7
350
59
  3
B8
350
5A
  3
B9
350
5B
  3
C0
350
5C
  3
C1
350
5D
  3
C2
350
5E
  3
C3
350
5F
  3
C4
350
60
  3
C5
350
61
  3
C6
350
62
  3
C7
350
63
  3
C8
350
64
  3
C9
350
65
  3
D0
350
66
  3
D1
350
67
  3
D2
350
68
  0
DICTIONARY
  5
137
102
{ACAD_REACTORS
330
C
102
}
330
C
100
AcDbDictionary
281
     1
  0
XRECORD
  5
293
102
{ACAD_REACTORS
330
C
102
}
330
C
100
AcDbXrecord
280
     1
  1
DWGPROPS COOKIE
  2

  3

  4

  6

  7

  8
12016016
  9

300
=
301
=
302
=
303
=
304
=
305
=
306
=
307
=
308
=
309
=
 40
0.0
 41
2458296.321871076
 42
2459703.271269421
  1

 90
        0
  0
DICTIONARY
  5
1DE
102
{ACAD_REACTORS
330
1DD
102
}
330
1DD
100
AcDbDictionary
281
     1
  0
SORTENTSTABLE
  5
28D
102
{ACAD_REACTORS
330
28C
102
}
330
28C
100
AcDbSortentsTable
330
1F
  0
DICTIONARY
  5
292
102
{ACAD_REACTORS
330
28C
102
}
330
28C
100
AcDbDictionary
281
     1
  0
LAYOUT
  5
1E
102
{ACAD_REACTORS
330
1A
102
}
330
1A
100
AcDbPlotSettings
  1

  2
none_device
  4

  6

 40
0.0
 41
0.0
 42
0.0
 43
0.0
 44
0.0
 45
0.0
 46
0.0
 47
0.0
 48
0.0
 49
0.0
140
0.0
141
0.0
142
1.0
143
1.0
 70
   688
 72
     1
 73
     0
 74
     5
  7

 75
    16
147
1.0
148
0.0
149
0.0
100
AcDbLayout
  1
Layout1
 70
     1
 71
     1
 10
0.0
 20
0.0
 11
420.0
 21
297.0
 12
0.0
 22
0.0
 32
0.0
 14
1.000000000000000E+20
 24
1.000000000000000E+20
 34
1.000000000000000E+20
 15
-1.000000000000000E+20
 25
-1.000000000000000E+20
 35
-1.000000000000000E+20
146
0.0
 13
0.0
 23
0.0
 33
0.0
 16
1.0
 26
0.0
 36
0.0
 17
0.0
 27
1.0
 37
0.0
 76
     0
330
1B
  0
LAYOUT
  5
26
102
{ACAD_REACTORS
330
1A
102
}
330
1A
100
AcDbPlotSettings
  1

  2
none_device
  4

  6

 40
0.0
 41
0.0
 42
0.0
 43
0.0
 44
0.0
 45
0.0
 46
0.0
 47
0.0
 48
0.0
 49
0.0
140
0.0
141
0.0
142
1.0
143
1.0
 70
   688
 72
     1
 73
     0
 74
     5
  7

 75
    16
147
1.0
148
0.0
149
0.0
100
AcDbLayout
  1
Layout2
 70
     1
 71
     2
 10
0.0
 20
0.0
 11
0.0
 21
0.0
 12
0.0
 22
0.0
 32
0.0
 14
0.0
 24
0.0
 34
0.0
 15
0.0
 25
0.0
 35
0.0
146
0.0
 13
0.0
 23
0.0
 33
0.0
 16
1.0
 26
0.0
 36
0.0
 17
0.0
 27
1.0
 37
0.0
 76
     0
330
23
  0
LAYOUT
  5
22
102
{ACAD_REACTORS
330
1A
102
}
330
1A
100
AcDbPlotSettings
  1

  2
none_device
  4
ANSI_A_(11.00_x_8.50_Inches)
  6

 40
6.35
 41
19.05
 42
6.35000508
 43
19.05000254
 44
279.4
 45
215.9
 46
109.4444827120707
 47
100.4304516308396
 48
0.0
 49
0.0
140
0.0
141
0.0
142
0.0797139469389385
143
1.0
 70
  1696
 72
     0
 73
     0
 74
     0
  7

 75
     0
147
0.0235690232323232
148
0.0
149
0.0
100
AcDbLayout
  1
Model
 70
     1
 71
     0
 10
0.0
 20
0.0
 11
420.0
 21
297.0
 12
0.0
 22
0.0
 32
0.0
 14
-48.15179513072385
 24
-49.97073246008785
 34
0.0
 15
80.11348381534562
 25
37.34007939495148
 35
0.0
146
0.0
 13
0.0
 23
0.0
 33
0.0
 16
1.0
 26
0.0
 36
0.0
 17
0.0
 27
1.0
 37
0.0
 76
     0
330
1F
331
29
  0
MLINESTYLE
  5
18
102
{ACAD_REACTORS
330
17
102
}
330
17
100
AcDbMlineStyle
  2
Standard
 70
     0
  3

 62
   256
 51
90.0
 52
90.0
 71
     2
 49
0.5
 62
   256
  6
BYLAYER
 49
-0.5
 62
   256
  6
BYLAYER
  0
ACDBPLACEHOLDER
  5
F
102
{ACAD_REACTORS
330
E
102
}
330
E
  0
SCALE
  5
48
102
{ACAD_REACTORS
330
47
102
}
330
47
100
AcDbScale
 70
     0
300
1:1
140
1.0
141
1.0
290
     1
  0
SCALE
  5
49
102
{ACAD_REACTORS
330
47
102
}
330
47
100
AcDbScale
 70
     0
300
1:2
140
1.0
141
2.0
290
     0
  0
SCALE
  5
4A
102
{ACAD_REACTORS
330
47
102
}
330
47
100
AcDbScale
 70
     0
300
1:4
140
1.0
141
4.0
290
     0
  0
SCALE
  5
4B
102
{ACAD_REACTORS
330
47
102
}
330
47
100
AcDbScale
 70
     0
300
1:5
140
1.0
141
5.0
290
     0
  0
SCALE
  5
4C
102
{ACAD_REACTORS
330
47
102
}
330
47
100
AcDbScale
 70
     0
300
1:8
140
1.0
141
8.0
290
     0
  0
SCALE
  5
4D
102
{ACAD_REACTORS
330
47
102
}
330
47
100
AcDbScale
 70
     0
300
1:10
140
1.0
141
10.0
290
     0
  0
SCALE
  5
4E
102
{ACAD_REACTORS
330
47
102
}
330
47
100
AcDbScale
 70
     0
300
1:16
140
1.0
141
16.0
290
     0
  0
SCALE
  5
4F
102
{ACAD_REACTORS
330
47
102
}
330
47
100
AcDbScale
 70
     0
300
1:20
140
1.0
141
20.0
290
     0
  0
SCALE
  5
50
102
{ACAD_REACTORS
330
47
102
}
330
47
100
AcDbScale
 70
     0
300
1:30
140
1.0
141
30.0
290
     0
  0
SCALE
  5
51
102
{ACAD_REACTORS
330
47
102
}
330
47
100
AcDbScale
 70
     0
300
1:40
140
1.0
141
40.0
290
     0
  0
SCALE
  5
52
102
{ACAD_REACTORS
330
47
102
}
330
47
100
AcDbScale
 70
     0
300
1:50
140
1.0
141
50.0
290
     0
  0
SCALE
  5
53
102
{ACAD_REACTORS
330
47
102
}
330
47
100
AcDbScale
 70
     0
300
1:100
140
1.0
141
100.0
290
     0
  0
SCALE
  5
54
102
{ACAD_REACTORS
330
47
102
}
330
47
100
AcDbScale
 70
     0
300
2:1
140
2.0
141
1.0
290
     0
  0
SCALE
  5
55
102
{ACAD_REACTORS
330
47
102
}
330
47
100
AcDbScale
 70
     0
300
4:1
140
4.0
141
1.0
290
     0
  0
SCALE
  5
56
102
{ACAD_REACTORS
330
47
102
}
330
47
100
AcDbScale
 70
     0
300
8:1
140
8.0
141
1.0
290
     0
  0
SCALE
  5
57
102
{ACAD_REACTORS
330
47
102
}
330
47
100
AcDbScale
 70
     0
300
10:1
140
10.0
141
1.0
290
     0
  0
SCALE
  5
58
102
{ACAD_REACTORS
330
47
102
}
330
47
100
AcDbScale
 70
     0
300
100:1
140
100.0
141
1.0
290
     0
  0
SCALE
  5
59
102
{ACAD_REACTORS
330
47
102
}
330
47
100
AcDbScale
 70
     0
300
1/128" = 1'-0"
140
0.0078125
141
12.0
290
     0
  0
SCALE
  5
5A
102
{ACAD_REACTORS
330
47
102
}
330
47
100
AcDbScale
 70
     0
300
1/64" = 1'-0"
140
0.015625
141
12.0
290
     0
  0
SCALE
  5
5B
102
{ACAD_REACTORS
330
47
102
}
330
47
100
AcDbScale
 70
     0
300
1/32" = 1'-0"
140
0.03125
141
12.0
290
     0
  0
SCALE
  5
5C
102
{ACAD_REACTORS
330
47
102
}
330
47
100
AcDbScale
 70
     0
300
1/16" = 1'-0"
140
0.0625
141
12.0
290
     0
  0
SCALE
  5
5D
102
{ACAD_REACTORS
330
47
102
}
330
47
100
AcDbScale
 70
     0
300
3/32" = 1'-0"
140
0.09375
141
12.0
290
     0
  0
SCALE
  5
5E
102
{ACAD_REACTORS
330
47
102
}
330
47
100
AcDbScale
 70
     0
300
1/8" = 1'-0"
140
0.125
141
12.0
290
     0
  0
SCALE
  5
5F
102
{ACAD_REACTORS
330
47
102
}
330
47
100
AcDbScale
 70
     0
300
3/16" = 1'-0"
140
0.1875
141
12.0
290
     0
  0
SCALE
  5
60
102
{ACAD_REACTORS
330
47
102
}
330
47
100
AcDbScale
 70
     0
300
1/4" = 1'-0"
140
0.25
141
12.0
290
     0
  0
SCALE
  5
61
102
{ACAD_REACTORS
330
47
102
}
330
47
100
AcDbScale
 70
     0
300
3/8" = 1'-0"
140
0.375
141
12.0
290
     0
  0
SCALE
  5
62
102
{ACAD_REACTORS
330
47
102
}
330
47
100
AcDbScale
 70
     0
300
1/2" = 1'-0"
140
0.5
141
12.0
290
     0
  0
SCALE
  5
63
102
{ACAD_REACTORS
330
47
102
}
330
47
100
AcDbScale
 70
     0
300
3/4" = 1'-0"
140
0.75
141
12.0
290
     0
  0
SCALE
  5
64
102
{ACAD_REACTORS
330
47
102
}
330
47
100
AcDbScale
 70
     0
300
1" = 1'-0"
140
1.0
141
12.0
290
     0
  0
SCALE
  5
65
102
{ACAD_REACTORS
330
47
102
}
330
47
100
AcDbScale
 70
     0
300
1-1/2" = 1'-0"
140
1.5
141
12.0
290
     0
  0
SCALE
  5
66
102
{ACAD_REACTORS
330
47
102
}
330
47
100
AcDbScale
 70
     0
300
3" = 1'-0"
140
3.0
141
12.0
290
     0
  0
SCALE
  5
67
102
{ACAD_REACTORS
330
47
102
}
330
47
100
AcDbScale
 70
     0
300
6" = 1'-0"
140
6.0
141
12.0
290
     0
  0
SCALE
  5
68
102
{ACAD_REACTORS
330
47
102
}
330
47
100
AcDbScale
 70
     0
300
1'-0" = 1'-0"
140
12.0
141
12.0
290
     0
  0
ENDSEC
  0
EOF
