  0
SECTION
  2
HEADER
  9
$ACADVER
  1
AC1015
  9
$ACADMAINTVER
 70
     6
  9
$DWGCODEPAGE
  3
ANSI_949
  9
$INSBASE
 10
0.0
 20
0.0
 30
0.0
  9
$EXTMIN
 10
-46.1436413001196
 20
-49.97073246008785
 30
0.0
  9
$EXTMAX
 10
80.11348381534562
 20
37.34007939495148
 30
0.0
  9
$LIMMIN
 10
0.0
 20
0.0
  9
$LIMMAX
 10
420.0
 20
297.0
  9
$ORTHOMODE
 70
     1
  9
$REGENMODE
 70
     1
  9
$FILLMODE
 70
     1
  9
$QTEXTMODE
 70
     0
  9
$MIRRTEXT
 70
     1
  9
$LTSCALE
 40
1.0
  9
$ATTMODE
 70
     1
  9
$TEXTSIZE
 40
3.5
  9
$TRACEWID
 40
1.0
  9
$TEXTSTYLE
  7
Standard
  9
$CLAYER
  8
0
  9
$CELTYPE
  6
ByLayer
  9
$CECOLOR
 62
   256
  9
$CELTSCALE
 40
1.0
  9
$DISPSILH
 70
     0
  9
$DIMSCALE
 40
1.0
  9
$DIMASZ
 40
3.302
  9
$DIMEXO
 40
1.0
  9
$DIMDLI
 40
3.75
  9
$DIMRND
 40
0.0
  9
$DIMDLE
 40
0.0
  9
$DIMEXE
 40
1.0
  9
$DIMTP
 40
0.0
  9
$DIMTM
 40
0.0
  9
$DIMTXT
 40
3.5
  9
$DIMCEN
 40
2.5
  9
$DIMTSZ
 40
0.0
  9
$DIMTOL
 70
     0
  9
$DIMLIM
 70
     0
  9
$DIMTIH
 70
     1
  9
$DIMTOH
 70
     1
  9
$DIMSE1
 70
     0
  9
$DIMSE2
 70
     0
  9
$DIMTAD
 70
     1
  9
$DIMZIN
 70
     0
  9
$DIMBLK
  1

  9
$DIMASO
 70
     1
  9
$DIMSHO
 70
     1
  9
$DIMPOST
  1

  9
$DIMAPOST
  1

  9
$DIMALT
 70
     0
  9
$DIMALTD
 70
     3
  9
$DIMALTF
 40
0.0393700787401575
  9
$DIMLFAC
 40
1.0
  9
$DIMTOFL
 70
     1
  9
$DIMTVP
 40
0.0
  9
$DIMTIX
 70
     0
  9
$DIMSOXD
 70
     0
  9
$DIMSAH
 70
     0
  9
$DIMBLK1
  1

  9
$DIMBLK2
  1

  9
$DIMSTYLE
  2
ISO-25
  9
$DIMCLRD
 70
     0
  9
$DIMCLRE
 70
     0
  9
$DIMCLRT
 70
     0
  9
$DIMTFAC
 40
1.0
  9
$DIMGAP
 40
1.524
  9
$DIMJUST
 70
     0
  9
$DIMSD1
 70
     0
  9
$DIMSD2
 70
     0
  9
$DIMTOLJ
 70
     0
  9
$DIMTZIN
 70
     0
  9
$DIMALTZ
 70
     0
  9
$DIMALTTZ
 70
     0
  9
$DIMUPT
 70
     0
  9
$DIMDEC
 70
     2
  9
$DIMTDEC
 70
     2
  9
$DIMALTU
 70
     2
  9
$DIMALTTD
 70
     3
  9
$DIMTXSTY
  7
Standard
  9
$DIMAUNIT
 70
     0
  9
$DIMADEC
 70
     2
  9
$DIMALTRND
 40
0.0
  9
$DIMAZIN
 70
     0
  9
$DIMDSEP
 70
    44
  9
$DIMATFIT
 70
     3
  9
$DIMFRAC
 70
     0
  9
$DIMLDRBLK
  1

  9
$DIMLUNIT
 70
     2
  9
$DIMLWD
 70
    -2
  9
$DIMLWE
 70
    -2
  9
$DIMTMOVE
 70
     0
  9
$LUNITS
 70
     2
  9
$LUPREC
 70
     2
  9
$SKETCHINC
 40
1.0
  9
$FILLETRAD
 40
10.0
  9
$AUNITS
 70
     0
  9
$AUPREC
 70
     2
  9
$MENU
  1
.
  9
$ELEVATION
 40
0.0
  9
$PELEVATION
 40
0.0
  9
$THICKNESS
 40
0.0
  9
$LIMCHECK
 70
     0
  9
$CHAMFERA
 40
0.0
  9
$CHAMFERB
 40
0.0
  9
$CHAMFERC
 40
0.0
  9
$CHAMFERD
 40
0.0
  9
$SKPOLY
 70
     0
  9
$TDCREATE
 40
2458296.699889248
  9
$TDUCREATE
 40
2458296.324889248
  9
$TDUPDATE
 40
2459703.647610139
  9
$TDUUPDATE
 40
2459703.272610139
  9
$TDINDWG
 40
0.0014795718
  9
$TDUSRTIMER
 40
0.0007475
  9
$USRTIMER
 70
     1
  9
$ANGBASE
 50
0.0
  9
$ANGDIR
 70
     0
  9
$PDMODE
 70
     0
  9
$PDSIZE
 40
-1.0
  9
$PLINEWID
 40
0.0
  9
$SPLFRAME
 70
     0
  9
$SPLINETYPE
 70
     6
  9
$SPLINESEGS
 70
     8
  9
$HANDSEED
  5
3A8
  9
$SURFTAB1
 70
     6
  9
$SURFTAB2
 70
     6
  9
$SURFTYPE
 70
     6
  9
$SURFU
 70
     6
  9
$SURFV
 70
     6
  9
$UCSBASE
  2

  9
$UCSNAME
  2

  9
$UCSORG
 10
0.0
 20
0.0
 30
0.0
  9
$UCSXDIR
 10
1.0
 20
0.0
 30
0.0
  9
$UCSYDIR
 10
0.0
 20
1.0
 30
0.0
  9
$UCSORTHOREF
  2

  9
$UCSORTHOVIEW
 70
     0
  9
$UCSORGTOP
 10
0.0
 20
0.0
 30
0.0
  9
$UCSORGBOTTOM
 10
0.0
 20
0.0
 30
0.0
  9
$UCSORGLEFT
 10
0.0
 20
0.0
 30
0.0
  9
$UCSORGRIGHT
 10
0.0
 20
0.0
 30
0.0
  9
$UCSORGFRONT
 10
0.0
 20
0.0
 30
0.0
  9
$UCSORGBACK
 10
0.0
 20
0.0
 30
0.0
  9
$PUCSBASE
  2

  9
$PUCSNAME
  2

  9
$PUCSORG
 10
0.0
 20
0.0
 30
0.0
  9
$PUCSXDIR
 10
1.0
 20
0.0
 30
0.0
  9
$PUCSYDIR
 10
0.0
 20
1.0
 30
0.0
  9
$PUCSORTHOREF
  2

  9
$PUCSORTHOVIEW
 70
     0
  9
$PUCSORGTOP
 10
0.0
 20
0.0
 30
0.0
  9
$PUCSORGBOTTOM
 10
0.0
 20
0.0
 30
0.0
  9
$PUCSORGLEFT
 10
0.0
 20
0.0
 30
0.0
  9
$PUCSORGRIGHT
 10
0.0
 20
0.0
 30
0.0
  9
$PUCSORGFRONT
 10
0.0
 20
0.0
 30
0.0
  9
$PUCSORGBACK
 10
0.0
 20
0.0
 30
0.0
  9
$USERI1
 70
     0
  9
$USERI2
 70
     0
  9
$USERI3
 70
     0
  9
$USERI4
 70
     0
  9
$USERI5
 70
     0
  9
$USERR1
 40
0.0
  9
$USERR2
 40
0.0
  9
$USERR3
 40
0.0
  9
$USERR4
 40
0.0
  9
$USERR5
 40
0.0
  9
$WORLDVIEW
 70
     1
  9
$SHADEDGE
 70
     3
  9
$SHADEDIF
 70
    70
  9
$TILEMODE
 70
     1
  9
$MAXACTVP
 70
    64
  9
$PINSBASE
 10
0.0
 20
0.0
 30
0.0
  9
$PLIMCHECK
 70
     0
  9
$PEXTMIN
 10
1.000000000000000E+20
 20
1.000000000000000E+20
 30
1.000000000000000E+20
  9
$PEXTMAX
 10
-1.000000000000000E+20
 20
-1.000000000000000E+20
 30
-1.000000000000000E+20
  9
$PLIMMIN
 10
0.0
 20
0.0
  9
$PLIMMAX
 10
0.0
 20
0.0
  9
$UNITMODE
 70
     0
  9
$VISRETAIN
 70
     1
  9
$PLINEGEN
 70
     0
  9
$PSLTSCALE
 70
     1
  9
$TREEDEPTH
 70
  3020
  9
$CMLSTYLE
  2
Standard
  9
$CMLJUST
 70
     0
  9
$CMLSCALE
 40
20.0
  9
$PROXYGRAPHICS
 70
     1
  9
$MEASUREMENT
 70
     1
  9
$CELWEIGHT
370
    -1
  9
$ENDCAPS
280
     0
  9
$JOINSTYLE
280
     0
  9
$LWDISPLAY
290
     1
  9
$INSUNITS
 70
     4
  9
$HYPERLINKBASE
  1

  9
$STYLESHEET
  1

  9
$XEDIT
290
     1
  9
$CEPSNTYPE
380
     0
  9
$PSTYLEMODE
290
     1
  9
$FINGERPRINTGUID
  2
{16A506AB-0D91-4924-B8C0-20412ED7B6FC}
  9
$VERSIONGUID
  2
{FAEB1C32-E019-11D5-929B-00C0DF256EC4}
  9
$EXTNAMES
290
     1
  9
$PSVPSCALE
 40
0.0
  9
$OLESTARTUP
290
     0
  0
ENDSEC
  0
SECTION
  2
CLASSES
  0
CLASS
  1
ACDBDICTIONARYWDFLT
  2
AcDbDictionaryWithDefault
  3
ObjectDBX Classes
 90
        0
280
     0
281
     0
  0
CLASS
  1
VISUALSTYLE
  2
AcDbVisualStyle
  3
ObjectDBX Classes
 90
     4095
280
     0
281
     0
  0
CLASS
  1
MATERIAL
  2
AcDbMaterial
  3
ObjectDBX Classes
 90
     1153
280
     0
281
     0
  0
CLASS
  1
SCALE
  2
AcDbScale
  3
ObjectDBX Classes
 90
     1153
280
     0
281
     0
  0
CLASS
  1
SUN
  2
AcDbSun
  3
SCENEOE
 90
     1153
280
     0
281
     0
  0
CLASS
  1
ACDBPLACEHOLDER
  2
AcDbPlaceHolder
  3
ObjectDBX Classes
 90
        0
280
     0
281
     0
  0
CLASS
  1
LAYOUT
  2
AcDbLayout
  3
ObjectDBX Classes
 90
        0
280
     0
281
     0
  0
CLASS
  1
TABLESTYLE
  2
AcDbTableStyle
  3
ObjectDBX Classes
 90
     4095
280
     0
281
     0
  0
CLASS
  1
MLEADERSTYLE
  2
AcDbMLeaderStyle
  3
ACDB_MLEADERSTYLE_CLASS
 90
     4095
280
     0
281
     0
  0
CLASS
  1
RASTERVARIABLES
  2
AcDbRasterVariables
  3
ISM
 90
        0
280
     0
281
     0
  0
CLASS
  1
DIMASSOC
  2
AcDbDimAssoc
  3
"AcDbDimAssoc|Product Desc:     AcDim ARX App For Dimension|Company:          Autodesk, Inc.|WEB Address:      www.autodesk.com"
 90
        0
280
     0
281
     0
  0
CLASS
  1
SORTENTSTABLE
  2
AcDbSortentsTable
  3
ObjectDBX Classes
 90
        0
280
     0
281
     0
  0
ENDSEC
  0
SECTION
  2
TABLES
  0
TABLE
  2
VPORT
  5
8
330
0
100
AcDbSymbolTable
 70
     1
  0
VPORT
  5
29
330
8
100
AcDbSymbolTableRecord
100
AcDbViewportTableRecord
  2
*Active
 70
     0
 10
0.0
 20
0.0
 11
1.0
 21
1.0
 12
-2.696422077708034
 22
1.032927482908937
 13
0.0
 23
0.0
 14
10.0
 24
10.0
 15
10.0
 25
10.0
 16
0.0
 26
0.0
 36
1.0
 17
0.0
 27
0.0
 37
0.0
 40
27.9159340535431
 41
1.531481481481481
 42
50.0
 43
0.0
 44
0.0
 50
0.0
 51
0.0
 71
    16
 72
  2000
 73
     1
 74
     3
 75
     0
 76
     0
 77
     0
 78
     0
281
     0
 65
     1
110
0.0
120
0.0
130
0.0
111
1.0
121
0.0
131
0.0
112
0.0
122
1.0
132
0.0
 79
     0
146
0.0
  0
ENDTAB
  0
TABLE
  2
LTYPE
  5
5
330
0
100
AcDbSymbolTable
 70
     6
  0
LTYPE
  5
14
330
5
100
AcDbSymbolTableRecord
100
AcDbLinetypeTableRecord
  2
ByBlock
 70
     0
  3

 72
    65
 73
     0
 40
0.0
  0
LTYPE
  5
15
330
5
100
AcDbSymbolTableRecord
100
AcDbLinetypeTableRecord
  2
ByLayer
 70
     0
  3

 72
    65
 73
     0
 40
0.0
  0
LTYPE
  5
16
330
5
100
AcDbSymbolTableRecord
100
AcDbLinetypeTableRecord
  2
Continuous
 70
     0
  3
Solid line
 72
    65
 73
     0
 40
0.0
  0
LTYPE
  5
6A
330
5
100
AcDbSymbolTableRecord
100
AcDbLinetypeTableRecord
  2
HIDDEN
 70
     0
  3
Hidden __ __ __ __ __ __ __ __ __ __ __ __ __ __
 72
    65
 73
     2
 40
1.905
 49
1.27
 74
     0
 49
-0.635
 74
     0
  0
LTYPE
  5
6B
330
5
100
AcDbSymbolTableRecord
100
AcDbLinetypeTableRecord
  2
PHANTOM
 70
     0
  3
Phantom ______  __  __  ______  __  __  ______
 72
    65
 73
     6
 40
12.7
 49
6.35
 74
     0
 49
-1.27
 74
     0
 49
1.27
 74
     0
 49
-1.27
 74
     0
 49
1.27
 74
     0
 49
-1.27
 74
     0
  0
LTYPE
  5
6C
330
5
100
AcDbSymbolTableRecord
100
AcDbLinetypeTableRecord
  2
CENTER
 70
     0
  3
Center ____ _ ____ _ ____ _ ____ _ ____ _ ____
 72
    65
 73
     4
 40
10.16
 49
6.35
 74
     0
 49
-1.27
 74
     0
 49
1.27
 74
     0
 49
-1.27
 74
     0
  0
LTYPE
  5
6D
330
5
100
AcDbSymbolTableRecord
100
AcDbLinetypeTableRecord
  2
CENTERX2
 70
     0
  3
Center (2x) ________  __  ________  __  _____
 72
    65
 73
     4
 40
20.32
 49
12.7
 74
     0
 49
-2.54
 74
     0
 49
2.54
 74
     0
 49
-2.54
 74
     0
  0
LTYPE
  5
6E
330
5
100
AcDbSymbolTableRecord
100
AcDbLinetypeTableRecord
  2
DOT2
 70
     0
  3
Dot (.5x) ........................................
 72
    65
 73
     2
 40
0.635
 49
0.0
 74
     0
 49
-0.635
 74
     0
  0
ENDTAB
  0
TABLE
  2
LAYER
  5
2
102
{ACAD_XDICTIONARY
360
1DD
102
}
330
0
100
AcDbSymbolTable
 70
    18
  0
LAYER
  5
10
330
2
100
AcDbSymbolTableRecord
100
AcDbLayerTableRecord
  2
0
 70
     0
 62
     7
  6
Continuous
370
    -3
390
F
  0
LAYER
  5
6F
330
2
100
AcDbSymbolTableRecord
100
AcDbLayerTableRecord
  2
FORMAT
 70
     0
 62
     2
  6
Continuous
370
    -3
390
F
  0
LAYER
  5
70
330
2
100
AcDbSymbolTableRecord
100
AcDbLayerTableRecord
  2
외형선
 70
     0
 62
     4
  6
Continuous
370
    30
390
F
  0
LAYER
  5
71
330
2
100
AcDbSymbolTableRecord
100
AcDbLayerTableRecord
  2
숨은선
 70
     0
 62
     2
  6
HIDDEN
370
    15
390
F
  0
LAYER
  5
72
330
2
100
AcDbSymbolTableRecord
100
AcDbLayerTableRecord
  2
중심선
 70
     0
 62
     1
  6
CENTERX2
370
    -3
390
F
  0
LAYER
  5
73
330
2
100
AcDbSymbolTableRecord
100
AcDbLayerTableRecord
  2
파단선
 70
     0
 62
     4
  6
Continuous
370
    -3
390
F
  0
LAYER
  5
74
330
2
100
AcDbSymbolTableRecord
100
AcDbLayerTableRecord
  2
해칭선
 70
     0
 62
   100
  6
Continuous
370
    -3
390
F
  0
LAYER
  5
75
330
2
100
AcDbSymbolTableRecord
100
AcDbLayerTableRecord
  2
가는실선
 70
     0
 62
     4
  6
Continuous
370
    -3
390
F
  0
LAYER
  5
76
330
2
100
AcDbSymbolTableRecord
100
AcDbLayerTableRecord
  2
치수_보조선
 70
     0
 62
     4
  6
Continuous
370
    -3
390
F
  0
LAYER
  5
77
330
2
100
AcDbSymbolTableRecord
100
AcDbLayerTableRecord
  2
치수문자_일반주서
 70
     0
 62
     7
  6
Continuous
370
    15
390
F
  0
LAYER
  5
78
330
2
100
AcDbSymbolTableRecord
100
AcDbLayerTableRecord
  2
개별주서
 70
     0
 62
   100
  6
Continuous
370
    30
390
F
  0
LAYER
  5
79
330
2
100
AcDbSymbolTableRecord
100
AcDbLayerTableRecord
  2
중간선
 70
     0
 62
     2
  6
Continuous
370
    15
390
F
  0
LAYER
  5
7A
330
2
100
AcDbSymbolTableRecord
100
AcDbLayerTableRecord
  2
윤곽선
 70
     0
 62
     3
  6
Continuous
370
    40
390
F
  0
LAYER
  5
7B
330
2
100
AcDbSymbolTableRecord
100
AcDbLayerTableRecord
  2
중심마크
 70
     0
 62
   100
  6
Continuous
370
    30
390
F
  0
LAYER
  5
7C
330
2
100
AcDbSymbolTableRecord
100
AcDbLayerTableRecord
  2
가상선
 70
     0
 62
     4
  6
PHANTOM
370
    -3
390
F
  0
LAYER
  5
7D
330
2
100
AcDbSymbolTableRecord
100
AcDbLayerTableRecord
  2
특수지정선
 70
     0
 62
     5
  6
CENTERX2
370
    60
390
F
  0
LAYER
  5
7E
330
2
100
AcDbSymbolTableRecord
100
AcDbLayerTableRecord
  2
참조1
 70
     0
 62
    -4
  6
Continuous
370
    -3
390
F
  0
LAYER
  5
13A
330
2
100
AcDbSymbolTableRecord
100
AcDbLayerTableRecord
  2
Defpoints
 70
     0
 62
     7
  6
Continuous
290
     0
370
    -3
390
F
  0
ENDTAB
  0
TABLE
  2
STYLE
  5
3
330
0
100
AcDbSymbolTable
 70
     2
  0
STYLE
  5
11
330
3
100
AcDbSymbolTableRecord
100
AcDbTextStyleTableRecord
  2
Standard
 70
     0
 40
0.0
 41
1.0
 50
0.0
 71
     0
 42
3.5
  3
txt
  4

  0
STYLE
  5
94
330
3
100
AcDbSymbolTableRecord
100
AcDbTextStyleTableRecord
  2
SLDTEXTSTYLE0
 70
     0
 40
0.0
 41
0.75
 50
0.0
 71
     0
 42
3.5
  3
TXT
  4

  0
ENDTAB
  0
TABLE
  2
VIEW
  5
6
330
0
100
AcDbSymbolTable
 70
     0
  0
ENDTAB
  0
TABLE
  2
UCS
  5
7
330
0
100
AcDbSymbolTable
 70
     0
  0
ENDTAB
  0
TABLE
  2
APPID
  5
9
330
0
100
AcDbSymbolTable
 70
     5
  0
APPID
  5
12
330
9
100
AcDbSymbolTableRecord
100
AcDbRegAppTableRecord
  2
ACAD
 70
     0
  0
APPID
  5
145
330
9
100
AcDbSymbolTableRecord
100
AcDbRegAppTableRecord
  2
ACAD_DSTYLE_DIMRADIAL_EXTENSION
 70
     0
  0
APPID
  5
37B
330
9
100
AcDbSymbolTableRecord
100
AcDbRegAppTableRecord
  2
ACAD_DSTYLE_DIMFLIPARROW_SYMBOL
 70
     0
  0
APPID
  5
37C
330
9
100
AcDbSymbolTableRecord
100
AcDbRegAppTableRecord
  2
ACAD_DSTYLE_DIMFLIPARROW_WHICH_SYMBOL
 70
     0
  0
APPID
  5
3A2
330
9
100
AcDbSymbolTableRecord
100
AcDbRegAppTableRecord
  2
PE_URL
 70
     0
  0
ENDTAB
  0
TABLE
  2
DIMSTYLE
  5
A
330
0
100
AcDbSymbolTable
 70
     5
100
AcDbDimStyleTable
  0
DIMSTYLE
105
27
330
A
100
AcDbSymbolTableRecord
100
AcDbDimStyleTableRecord
  2
ISO-25
 70
     0
 41
2.5
 42
0.625
 43
3.75
 44
1.25
 73
     0
 74
     0
 77
     1
 78
     8
140
2.5
141
2.5
143
0.03937007874016
147
0.625
171
     3
172
     1
178
     0
271
     2
272
     2
274
     3
278
    44
283
     0
284
     8
340
11
  0
DIMSTYLE
105
BC
330
A
100
AcDbSymbolTableRecord
100
AcDbDimStyleTableRecord
  2
SLDDIMSTYLE0
 70
     0
 41
3.302
 44
0.0
 45
0.000000001
 73
     0
 74
     0
 77
     1
 78
    12
 79
     3
140
3.5
147
0.875
172
     1
173
     1
178
     0
271
     2
272
     2
276
     2
284
    12
289
     0
340
94
  0
DIMSTYLE
105
CA
102
{ACAD_REACTORS
330
302
330
303
330
304
330
305
330
36D
102
}
330
A
100
AcDbSymbolTableRecord
100
AcDbDimStyleTableRecord
  2
SLDDIMSTYLE1
 70
     0
 41
3.302
 44
0.0
 45
0.000000001
 73
     0
 74
     0
 77
     1
 78
     4
 79
     1
140
3.5
143
0.0393700787401575
147
0.875
148
0.000000001
170
     1
173
     1
178
     0
271
     2
272
     2
276
     2
284
    12
340
94
  0
DIMSTYLE
105
DE
330
A
100
AcDbSymbolTableRecord
100
AcDbDimStyleTableRecord
  2
SLDDIMSTYLE2
 70
     0
 41
3.302
 44
0.0
 45
0.000000001
 73
     0
 74
     0
 77
     1
 78
     4
 79
     1
140
3.5
143
0.0393700787401575
147
0.875
148
0.000000001
170
     1
172
     1
173
     1
178
     0
271
     2
272
     2
276
     2
284
    12
289
     0
340
94
  0
DIMSTYLE
105
F4
330
A
100
AcDbSymbolTableRecord
100
AcDbDimStyleTableRecord
  2
SLDDIMSTYLE3
 70
     0
 41
3.302
 44
0.0
 45
0.000000001
 73
     0
 74
     0
 77
     1
 78
    12
 79
     3
140
3.5
143
0.0393700787401575
147
0.875
148
0.000000001
170
     1
172
     1
173
     1
178
     0
271
     2
272
     2
276
     2
284
    12
289
     0
340
94
  0
ENDTAB
  0
TABLE
  2
BLOCK_RECORD
  5
1
330
0
100
AcDbSymbolTable
 70
    28
  0
BLOCK_RECORD
  5
1F
102
{ACAD_XDICTIONARY
360
3A0
102
}
330
1
100
AcDbSymbolTableRecord
100
AcDbBlockTableRecord
  2
*Model_Space
340
22
  0
BLOCK_RECORD
  5
1B
330
1
100
AcDbSymbolTableRecord
100
AcDbBlockTableRecord
  2
*Paper_Space
340
1E
  0
BLOCK_RECORD
  5
23
330
1
100
AcDbSymbolTableRecord
100
AcDbBlockTableRecord
  2
*Paper_Space0
340
26
  0
BLOCK_RECORD
  5
7F
330
1
100
AcDbSymbolTableRecord
100
AcDbBlockTableRecord
  2
블럭10
340
0
102
{BLKREFS
331
B4
102
}
  0
BLOCK_RECORD
  5
BD
330
1
100
AcDbSymbolTableRecord
100
AcDbBlockTableRecord
  2
_D
340
0
  0
BLOCK_RECORD
  5
CB
330
1
100
AcDbSymbolTableRecord
100
AcDbBlockTableRecord
  2
_D_1
340
0
  0
BLOCK_RECORD
  5
DF
330
1
100
AcDbSymbolTableRecord
100
AcDbBlockTableRecord
  2
_D_2
340
0
  0
BLOCK_RECORD
  5
F5
330
1
100
AcDbSymbolTableRecord
100
AcDbBlockTableRecord
  2
_D_3
340
0
  0
BLOCK_RECORD
  5
10F
330
1
100
AcDbSymbolTableRecord
100
AcDbBlockTableRecord
  2
SW_DOWELSYMBOL_0
340
0
102
{BLKREFS
331
306
102
}
  0
BLOCK_RECORD
  5
16F
330
1
100
AcDbSymbolTableRecord
100
AcDbBlockTableRecord
  2
*D7
340
0
  0
BLOCK_RECORD
  5
17B
330
1
100
AcDbSymbolTableRecord
100
AcDbBlockTableRecord
  2
*D8
340
0
  0
BLOCK_RECORD
  5
188
330
1
100
AcDbSymbolTableRecord
100
AcDbBlockTableRecord
  2
*D9
340
0
  0
BLOCK_RECORD
  5
196
330
1
100
AcDbSymbolTableRecord
100
AcDbBlockTableRecord
  2
*D10
340
0
  0
BLOCK_RECORD
  5
1D3
330
1
100
AcDbSymbolTableRecord
100
AcDbBlockTableRecord
  2
*D11
340
0
  0
BLOCK_RECORD
  5
219
330
1
100
AcDbSymbolTableRecord
100
AcDbBlockTableRecord
  2
*D12
340
0
  0
BLOCK_RECORD
  5
224
330
1
100
AcDbSymbolTableRecord
100
AcDbBlockTableRecord
  2
*D13
340
0
  0
BLOCK_RECORD
  5
230
330
1
100
AcDbSymbolTableRecord
100
AcDbBlockTableRecord
  2
*D14
340
0
  0
BLOCK_RECORD
  5
23D
330
1
100
AcDbSymbolTableRecord
100
AcDbBlockTableRecord
  2
*D15
340
0
  0
BLOCK_RECORD
  5
24B
330
1
100
AcDbSymbolTableRecord
100
AcDbBlockTableRecord
  2
*D16
340
0
  0
BLOCK_RECORD
  5
289
330
1
100
AcDbSymbolTableRecord
100
AcDbBlockTableRecord
  2
*D17
340
0
  0
BLOCK_RECORD
  5
295
330
1
100
AcDbSymbolTableRecord
100
AcDbBlockTableRecord
  2
*D18
340
0
  0
BLOCK_RECORD
  5
2A2
330
1
100
AcDbSymbolTableRecord
100
AcDbBlockTableRecord
  2
*D19
340
0
  0
BLOCK_RECORD
  5
2B0
330
1
100
AcDbSymbolTableRecord
100
AcDbBlockTableRecord
  2
*D20
340
0
  0
BLOCK_RECORD
  5
2E7
330
1
100
AcDbSymbolTableRecord
100
AcDbBlockTableRecord
  2
*D21
340
0
  0
BLOCK_RECORD
  5
32D
330
1
100
AcDbSymbolTableRecord
100
AcDbBlockTableRecord
  2
*D22
340
0
  0
BLOCK_RECORD
  5
338
330
1
100
AcDbSymbolTableRecord
100
AcDbBlockTableRecord
  2
*D23
340
0
  0
BLOCK_RECORD
  5
344
330
1
100
AcDbSymbolTableRecord
100
AcDbBlockTableRecord
  2
*D24
340
0
  0
BLOCK_RECORD
  5
351
330
1
100
AcDbSymbolTableRecord
100
AcDbBlockTableRecord
  2
*D25
340
0
  0
BLOCK_RECORD
  5
35F
330
1
100
AcDbSymbolTableRecord
100
AcDbBlockTableRecord
  2
*D26
340
0
  0
BLOCK_RECORD
  5
370
330
1
100
AcDbSymbolTableRecord
100
AcDbBlockTableRecord
  2
*D27
340
0
  0
ENDTAB
  0
ENDSEC
  0
SECTION
  2
BLOCKS
  0
BLOCK
  5
20
330
1F
100
AcDbEntity
  8
0
100
AcDbBlockBegin
  2
*Model_Space
 70
     0
 10
0.0
 20
0.0
 30
0.0
  3
*Model_Space
  1
*Model_Space
  0
ENDBLK
  5
21
330
1F
100
AcDbEntity
  8
0
100
AcDbBlockEnd
  0
BLOCK
  5
1C
330
1B
100
AcDbEntity
 67
     1
  8
0
100
AcDbBlockBegin
  2
*Paper_Space
 70
     0
 10
0.0
 20
0.0
 30
0.0
  3
*Paper_Space
  1
*Paper_Space
  0
ENDBLK
  5
1D
330
1B
100
AcDbEntity
 67
     1
  8
0
100
AcDbBlockEnd
  0
BLOCK
  5
24
330
23
100
AcDbEntity
  8
0
100
AcDbBlockBegin
  2
*Paper_Space0
 70
     0
 10
0.0
 20
0.0
 30
0.0
  3
*Paper_Space0
  1
*Paper_Space0
  0
ENDBLK
  5
25
330
23
100
AcDbEntity
  8
0
100
AcDbBlockEnd
  0
BLOCK
  5
80
330
7F
100
AcDbEntity
  8
0
100
AcDbBlockBegin
  2
블럭10
 70
     2
 10
0.0
 20
0.0
 30
0.0
  3
블럭10
  1
블럭10
  0
ELLIPSE
  5
82
330
7F
100
AcDbEntity
  8
중심선
100
AcDbEllipse
 10
20.54032771741204
 20
12.0471743016438
 30
0.0
 11
6.600054785286829
 21
-1.261213355974178E-13
 31
0.0
210
0.0
220
0.0
230
1.0
 40
0.636358354079598
 41
0.9219305317359503
 42
6.513795318482858
  0
ELLIPSE
  5
83
330
7F
100
AcDbEntity
  8
중심선
100
AcDbEllipse
 10
20.54032771746488
 20
12.04717430159265
 30
0.0
 11
3.960054785062283
 21
1.540847449632565E-10
 31
0.0
210
0.0
220
0.0
230
1.0
 40
0.3939339440162632
 41
1.131841032648279
 42
5.62031148352944
  0
LINE
  5
84
330
7F
100
AcDbEntity
  8
중심선
100
AcDbLine
 10
2.268634060543552
 20
16.24717430164393
 30
0.0
 11
5.714909304380834
 21
16.24717430164393
 31
0.0
  0
LINE
  5
85
330
7F
100
AcDbEntity
  8
중심선
100
AcDbLine
 10
5.245725140726316
 20
7.84717430164391
 30
0.0
 11
8.692000384563599
 21
7.84717430164391
 31
0.0
  0
LINE
  5
86
330
7F
100
AcDbEntity
  8
중심선
100
AcDbLine
 10
15.74043728645272
 20
16.24717430164393
 30
0.0
 11
8.692000384563599
 21
7.84717430164391
 31
0.0
  0
LINE
  5
87
330
7F
100
AcDbEntity
  8
중심선
100
AcDbLine
 10
0.1404042013395286
 20
13.71084872107135
 30
0.0
 11
3.58671253028996
 21
13.71088815037384
 31
0.0
  0
LINE
  5
88
330
7F
100
AcDbEntity
  8
중심선
100
AcDbLine
 10
2.750260043222114
 20
10.84717430164391
 30
0.0
 11
6.196535287059397
 21
10.84717430164391
 31
0.0
  0
LINE
  5
89
330
7F
100
AcDbEntity
  8
중심선
100
AcDbLine
 10
12.29416204261559
 20
16.24717430164393
 30
0.0
 11
5.245725140726316
 21
7.84717430164391
 31
0.0
  0
LINE
  5
8A
330
7F
100
AcDbEntity
  8
중심선
100
AcDbLine
 10
10.72767329541681
 20
16.24717430164393
 30
0.0
 11
6.196535287059397
 21
10.84717430164391
 31
0.0
  0
LINE
  5
8B
330
7F
100
AcDbEntity
  8
중심선
100
AcDbLine
 10
7.28139805157953
 20
16.24717430164393
 30
0.0
 11
2.750260043222114
 21
10.84717430164391
 31
0.0
  0
LINE
  5
8C
330
7F
100
AcDbEntity
  8
중심선
100
AcDbLine
 10
5.714909304380834
 20
16.24717430164393
 30
0.0
 11
3.58671253028996
 21
13.71088815037384
 31
0.0
  0
LINE
  5
8D
330
7F
100
AcDbEntity
  8
중심선
100
AcDbLine
 10
2.268634060543552
 20
16.24717430164393
 30
0.0
 11
0.1404042013395286
 21
13.71084872107135
 31
0.0
  0
LINE
  5
8E
330
7F
100
AcDbEntity
  8
중심선
100
AcDbLine
 10
7.28139805157953
 20
16.24717430164393
 30
0.0
 11
10.72767329541681
 21
16.24717430164393
 31
0.0
  0
LINE
  5
8F
330
7F
100
AcDbEntity
  8
중심선
100
AcDbLine
 10
12.29416204261559
 20
16.24717430164393
 30
0.0
 11
15.74043728645272
 21
16.24717430164393
 31
0.0
  0
LINE
  5
90
330
7F
100
AcDbEntity
  8
중심선
100
AcDbLine
 10
19.22036997980202
 20
11.08717430171403
 30
0.0
 11
23.66174974927406
 21
11.08717430171406
 31
0.0
  0
LINE
  5
91
330
7F
100
AcDbEntity
  8
중심선
100
AcDbLine
 10
19.22039502424796
 20
13.00717430171391
 30
0.0
 11
19.22036997980202
 21
11.08717430171403
 31
0.0
  0
LINE
  5
92
330
7F
100
AcDbEntity
  8
중심선
100
AcDbLine
 10
19.22039502424796
 20
13.00717430171391
 30
0.0
 11
26.96566020931264
 21
13.00717430171391
 31
0.0
  0
LINE
  5
93
330
7F
100
AcDbEntity
  8
중심선
100
AcDbLine
 10
22.22332737316547
 20
13.45928029700563
 30
0.0
 11
24.52862924686651
 21
15.39360700705356
 31
0.0
  0
ATTDEF
  5
95
330
7F
100
AcDbEntity
  8
FORMAT
 62
     2
100
AcDbText
 10
3.448148490846466
 20
2.075366912832191
 30
0.0
 40
4.233333333333333
  1
EM649901
 41
0.75
  7
SLDTEXTSTYLE0
 11
3.448148490846466
 21
-0.0412997538344756
 31
0.0
100
AcDbAttributeDefinition
  3

  2
AUTOATTR0
 70
     0
 74
     1
  0
ENDBLK
  5
81
330
7F
100
AcDbEntity
  8
0
100
AcDbBlockEnd
  0
BLOCK
  5
BE
330
BD
100
AcDbEntity
  8
0
100
AcDbBlockBegin
  2
_D
 70
     0
 10
0.0
 20
0.0
 30
0.0
  3
_D
  1
_D
  0
SOLID
  5
C0
330
BD
100
AcDbEntity
  8
치수문자_일반주서
100
AcDbTrace
 10
-40.81749999999999
 20
-1.586425071276106
 30
0.0
 11
-41.32549999999999
 21
-4.888425071276106
 31
0.0
 12
-40.30949999999999
 22
-4.888425071276106
 32
0.0
 13
-40.30949999999999
 23
-4.888425071276106
 33
0.0
  0
SOLID
  5
C1
330
BD
100
AcDbEntity
  8
치수문자_일반주서
100
AcDbTrace
 10
-40.81749999999999
 20
1.588574928723893
 30
0.0
 11
-40.30949999999999
 21
4.890574928723893
 31
0.0
 12
-41.32549999999999
 22
4.890574928723893
 32
0.0
 13
-41.32549999999999
 23
4.890574928723893
 33
0.0
  0
LINE
  5
C2
330
BD
100
AcDbEntity
  8
치수문자_일반주서
100
AcDbLine
 10
-53.45249999999999
 20
-1.586425071276107
 30
0.0
 11
-39.81749999999999
 21
-1.586425071276106
 31
0.0
  0
LINE
  5
C3
330
BD
100
AcDbEntity
  8
치수문자_일반주서
100
AcDbLine
 10
-53.45249999999999
 20
1.588574928723893
 30
0.0
 11
-39.81749999999999
 21
1.588574928723893
 31
0.0
  0
LINE
  5
C4
330
BD
100
AcDbEntity
  8
치수문자_일반주서
100
AcDbLine
 10
-40.81749999999999
 20
-1.586425071276106
 30
0.0
 11
-40.81749999999999
 21
-7.936425071276107
 31
0.0
  0
LINE
  5
C5
330
BD
100
AcDbEntity
  8
치수문자_일반주서
100
AcDbLine
 10
-40.81749999999999
 20
-1.586425071276106
 30
0.0
 11
-40.81749999999999
 21
1.588574928723893
 31
0.0
  0
LINE
  5
C6
330
BD
100
AcDbEntity
  8
치수문자_일반주서
100
AcDbLine
 10
-40.81749999999999
 20
1.588574928723893
 30
0.0
 11
-40.81749999999999
 21
7.938574928723893
 31
0.0
  0
MTEXT
  5
C7
330
BD
100
AcDbEntity
  8
치수문자_일반주서
100
AcDbMText
 10
-45.32923708920186
 20
-6.504358457599654
 30
0.0
 40
3.5
 41
0.0
 71
     1
 72
     1
  1
%%c
  7
SLDTEXTSTYLE0
 11
6.123233995736766E-17
 21
1.0
 31
0.0
 73
     1
 44
1.0
  0
MTEXT
  5
C8
330
BD
100
AcDbEntity
  8
치수문자_일반주서
100
AcDbMText
 10
-45.38270926586171
 20
-1.225921059225574
 30
0.0
 40
3.5
 41
0.0
 71
     1
 72
     1
  1
3.18
  7
SLDTEXTSTYLE0
 11
6.123233995736766E-17
 21
1.0
 31
0.0
 73
     1
 44
1.0
  0
ENDBLK
  5
BF
330
BD
100
AcDbEntity
  8
0
100
AcDbBlockEnd
  0
BLOCK
  5
CC
330
CB
100
AcDbEntity
  8
0
100
AcDbBlockBegin
  2
_D_1
 70
     0
 10
0.0
 20
0.0
 30
0.0
  3
_D_1
  1
_D_1
  0
SOLID
  5
CE
330
CB
100
AcDbEntity
  8
치수문자_일반주서
100
AcDbTrace
 10
22.70000000000003
 20
28.53222015535753
 30
0.0
 11
19.39800000000003
 21
29.04022015535753
 31
0.0
 12
19.39800000000003
 22
28.02422015535753
 32
0.0
 13
19.39800000000003
 23
28.02422015535753
 33
0.0
  0
SOLID
  5
CF
330
CB
100
AcDbEntity
  8
치수문자_일반주서
100
AcDbTrace
 10
-53.49999999999999
 20
28.53222015535752
 30
0.0
 11
-50.19799999999999
 21
28.02422015535753
 31
0.0
 12
-50.19799999999999
 22
29.04022015535752
 32
0.0
 13
-50.19799999999999
 23
29.04022015535752
 33
0.0
  0
LINE
  5
D0
330
CB
100
AcDbEntity
  8
치수문자_일반주서
100
AcDbLine
 10
-20.81436608182264
 20
39.32510187140024
 30
0.0
 11
-21.52530356738714
 21
39.32510187140025
 31
0.0
  0
LINE
  5
D1
330
CB
100
AcDbEntity
  8
치수문자_일반주서
100
AcDbLine
 10
-21.52530356738714
 20
39.32510187140025
 30
0.0
 11
-21.52530356738718
 21
33.76885188034095
 31
0.0
  0
LINE
  5
D2
330
CB
100
AcDbEntity
  8
치수문자_일반주서
100
AcDbLine
 10
-21.52530356738718
 20
33.76885188034095
 30
0.0
 11
-20.81436608182268
 21
33.76885188034094
 31
0.0
  0
LINE
  5
D3
330
CB
100
AcDbEntity
  8
치수문자_일반주서
100
AcDbLine
 10
-9.985633219685385
 20
39.32510187140017
 30
0.0
 11
-9.274695734120884
 21
39.32510187140016
 31
0.0
  0
LINE
  5
D4
330
CB
100
AcDbEntity
  8
치수문자_일반주서
100
AcDbLine
 10
-9.274695734120884
 20
39.32510187140016
 30
0.0
 11
-9.274695734120925
 21
33.76885188034086
 31
0.0
  0
LINE
  5
D5
330
CB
100
AcDbEntity
  8
치수문자_일반주서
100
AcDbLine
 10
-9.274695734120925
 20
33.76885188034086
 30
0.0
 11
-9.985633219685425
 21
33.76885188034087
 31
0.0
  0
LINE
  5
D6
330
CB
100
AcDbEntity
  8
치수문자_일반주서
100
AcDbLine
 10
22.70000000000003
 20
2.375890257231688
 30
0.0
 11
22.70000000000003
 21
29.53222015535754
 31
0.0
  0
LINE
  5
D7
330
CB
100
AcDbEntity
  8
치수문자_일반주서
100
AcDbLine
 10
-53.49999999999999
 20
3.541074928723894
 30
0.0
 11
-53.49999999999999
 21
29.53222015535753
 31
0.0
  0
LINE
  5
D8
330
CB
100
AcDbEntity
  8
치수문자_일반주서
100
AcDbLine
 10
22.70000000000003
 20
28.53222015535753
 30
0.0
 11
-53.49999999999999
 21
28.53222015535752
 31
0.0
  0
MTEXT
  5
D9
330
CB
100
AcDbEntity
  8
치수문자_일반주서
100
AcDbMText
 10
-22.03906229287388
 20
33.09742942121924
 30
0.0
 40
3.5
 41
0.0
 71
     1
 72
     1
  1

  7
SLDTEXTSTYLE0
 73
     1
 44
1.0
  0
MTEXT
  5
DA
330
CB
100
AcDbEntity
  8
치수문자_일반주서
100
AcDbMText
 10
-19.92569418121128
 20
38.28058879491984
 30
0.0
 40
3.5
 41
0.0
 71
     1
 72
     1
  1
3.00
  7
SLDTEXTSTYLE0
 73
     1
 44
1.0
  0
MTEXT
  5
DB
330
CB
100
AcDbEntity
  8
치수문자_일반주서
100
AcDbMText
 10
-21.21874989438804
 20
33.04395724455937
 30
0.0
 40
3.5
 41
0.0
 71
     1
 72
     1
  1
76.20
  7
SLDTEXTSTYLE0
 73
     1
 44
1.0
  0
MTEXT
  5
DC
330
CB
100
AcDbEntity
  8
치수문자_일반주서
100
AcDbMText
 10
-7.428992488980318
 20
33.09742942121913
 30
0.0
 40
3.5
 41
0.0
 71
     1
 72
     1
  1

  7
SLDTEXTSTYLE0
 73
     1
 44
1.0
  0
ENDBLK
  5
CD
330
CB
100
AcDbEntity
  8
0
100
AcDbBlockEnd
  0
BLOCK
  5
E0
330
DF
100
AcDbEntity
  8
0
100
AcDbBlockBegin
  2
_D_2
 70
     0
 10
0.0
 20
0.0
 30
0.0
  3
_D_2
  1
_D_2
  0
SOLID
  5
E2
330
DF
100
AcDbEntity
  8
치수문자_일반주서
100
AcDbTrace
 10
22.70000000000017
 20
11.67065425643442
 30
0.0
 11
26.00200000000016
 21
11.16265425643437
 31
0.0
 12
26.00200000000018
 22
12.17865425643437
 32
0.0
 13
26.00200000000018
 23
12.17865425643437
 33
0.0
  0
SOLID
  5
E3
330
DF
100
AcDbEntity
  8
치수문자_일반주서
100
AcDbTrace
 10
10.00000000000017
 20
11.67065425643458
 30
0.0
 11
6.698000000000178
 21
12.17865425643463
 31
0.0
 12
6.698000000000164
 22
11.16265425643463
 32
0.0
 13
6.698000000000164
 23
11.16265425643463
 33
0.0
  0
LINE
  5
E4
330
DF
100
AcDbEntity
  8
치수문자_일반주서
100
AcDbLine
 10
10.9356339181775
 20
22.46353597247721
 30
0.0
 11
10.224696432613
 21
22.46353597247722
 31
0.0
  0
LINE
  5
E5
330
DF
100
AcDbEntity
  8
치수문자_일반주서
100
AcDbLine
 10
10.224696432613
 20
22.46353597247722
 30
0.0
 11
10.22469643261288
 21
16.90728598141792
 31
0.0
  0
LINE
  5
E6
330
DF
100
AcDbEntity
  8
치수문자_일반주서
100
AcDbLine
 10
10.22469643261288
 20
16.90728598141792
 30
0.0
 11
10.93563391817738
 21
16.9072859814179
 31
0.0
  0
LINE
  5
E7
330
DF
100
AcDbEntity
  8
치수문자_일반주서
100
AcDbLine
 10
21.76436678031476
 20
22.46353597247698
 30
0.0
 11
22.47530426587926
 21
22.46353597247697
 31
0.0
  0
LINE
  5
E8
330
DF
100
AcDbEntity
  8
치수문자_일반주서
100
AcDbLine
 10
22.47530426587926
 20
22.46353597247697
 30
0.0
 11
22.47530426587914
 21
16.90728598141767
 31
0.0
  0
LINE
  5
E9
330
DF
100
AcDbEntity
  8
치수문자_일반주서
100
AcDbLine
 10
22.47530426587914
 20
16.90728598141767
 30
0.0
 11
21.76436678031464
 21
16.90728598141768
 31
0.0
  0
LINE
  5
EA
330
DF
100
AcDbEntity
  8
치수문자_일반주서
100
AcDbLine
 10
22.70000000000005
 20
2.375890257231688
 30
0.0
 11
22.70000000000018
 21
12.67065425643442
 31
0.0
  0
LINE
  5
EB
330
DF
100
AcDbEntity
  8
치수문자_일반주서
100
AcDbLine
 10
10.00000000000006
 20
3.247996997705579
 30
0.0
 11
10.00000000000018
 21
12.67065425643458
 31
0.0
  0
LINE
  5
EC
330
DF
100
AcDbEntity
  8
치수문자_일반주서
100
AcDbLine
 10
22.70000000000017
 20
11.67065425643442
 30
0.0
 11
29.05000000000017
 21
11.67065425643433
 31
0.0
  0
LINE
  5
ED
330
DF
100
AcDbEntity
  8
치수문자_일반주서
100
AcDbLine
 10
22.70000000000017
 20
11.67065425643442
 30
0.0
 11
10.00000000000017
 21
11.67065425643458
 31
0.0
  0
LINE
  5
EE
330
DF
100
AcDbEntity
  8
치수문자_일반주서
100
AcDbLine
 10
10.00000000000017
 20
11.67065425643458
 30
0.0
 11
3.65000000000017
 21
11.67065425643467
 31
0.0
  0
MTEXT
  5
EF
330
DF
100
AcDbEntity
  8
치수문자_일반주서
100
AcDbMText
 10
9.710937707126172
 20
16.2358635222962
 30
0.0
 40
3.5
 41
0.0
 71
     1
 72
     1
  1

  7
SLDTEXTSTYLE0
 73
     1
 44
1.0
  0
MTEXT
  5
F0
330
DF
100
AcDbEntity
  8
치수문자_일반주서
100
AcDbMText
 10
11.82430581878885
 20
21.41902289599678
 30
0.0
 40
3.5
 41
0.0
 71
     1
 72
     1
  1
0.50
  7
SLDTEXTSTYLE0
 73
     1
 44
1.0
  0
MTEXT
  5
F1
330
DF
100
AcDbEntity
  8
치수문자_일반주서
100
AcDbMText
 10
10.53125010561201
 20
16.18239134563633
 30
0.0
 40
3.5
 41
0.0
 71
     1
 72
     1
  1
12.70
  7
SLDTEXTSTYLE0
 73
     1
 44
1.0
  0
MTEXT
  5
F2
330
DF
100
AcDbEntity
  8
치수문자_일반주서
100
AcDbMText
 10
24.32100751101974
 20
16.2358635222959
 30
0.0
 40
3.5
 41
0.0
 71
     1
 72
     1
  1

  7
SLDTEXTSTYLE0
 73
     1
 44
1.0
  0
ENDBLK
  5
E1
330
DF
100
AcDbEntity
  8
0
100
AcDbBlockEnd
  0
BLOCK
  5
F6
330
F5
100
AcDbEntity
  8
0
100
AcDbBlockBegin
  2
_D_3
 70
     0
 10
0.0
 20
0.0
 30
0.0
  3
_D_3
  1
_D_3
  0
SOLID
  5
F8
330
F5
100
AcDbEntity
  8
치수문자_일반주서
100
AcDbTrace
 10
47.67595001570916
 20
3.176074928723897
 30
0.0
 11
48.18395001570916
 21
6.478074928723896
 31
0.0
 12
47.16795001570916
 22
6.478074928723896
 32
0.0
 13
47.16795001570916
 23
6.478074928723896
 33
0.0
  0
SOLID
  5
F9
330
F5
100
AcDbEntity
  8
치수문자_일반주서
100
AcDbTrace
 10
47.67595001570916
 20
-3.173925071276115
 30
0.0
 11
47.16795001570916
 21
-6.475925071276114
 31
0.0
 12
48.18395001570916
 22
-6.475925071276114
 32
0.0
 13
48.18395001570916
 23
-6.475925071276114
 33
0.0
  0
LINE
  5
FA
330
F5
100
AcDbEntity
  8
치수문자_일반주서
100
AcDbLine
 10
36.88306829966643
 20
4.407458044959878
 30
0.0
 11
36.88306829966644
 21
3.696520559395377
 31
0.0
  0
LINE
  5
FB
330
F5
100
AcDbEntity
  8
치수문자_일반주서
100
AcDbLine
 10
36.88306829966644
 20
3.696520559395377
 30
0.0
 11
42.43931829072574
 21
3.696520559395416
 31
0.0
  0
LINE
  5
FC
330
F5
100
AcDbEntity
  8
치수문자_일반주서
100
AcDbLine
 10
42.43931829072574
 20
3.696520559395416
 30
0.0
 11
42.43931829072574
 21
4.407458044959917
 31
0.0
  0
LINE
  5
FD
330
F5
100
AcDbEntity
  8
치수문자_일반주서
100
AcDbLine
 10
36.88306829966636
 20
15.23619090709714
 30
0.0
 11
36.88306829966636
 21
15.94712839266164
 31
0.0
  0
LINE
  5
FE
330
F5
100
AcDbEntity
  8
치수문자_일반주서
100
AcDbLine
 10
36.88306829966636
 20
15.94712839266164
 30
0.0
 11
42.43931829072567
 21
15.94712839266167
 31
0.0
  0
LINE
  5
FF
330
F5
100
AcDbEntity
  8
치수문자_일반주서
100
AcDbLine
 10
42.43931829072567
 20
15.94712839266167
 30
0.0
 11
42.43931829072567
 21
15.23619090709717
 31
0.0
  0
LINE
  5
100
330
F5
100
AcDbEntity
  8
치수문자_일반주서
100
AcDbLine
 10
23.44600000000002
 20
3.176074928723899
 30
0.0
 11
48.67595001570916
 21
3.176074928723897
 31
0.0
  0
LINE
  5
101
330
F5
100
AcDbEntity
  8
치수문자_일반주서
100
AcDbLine
 10
23.44600000000002
 20
-3.173925071276113
 30
0.0
 11
48.67595001570916
 21
-3.173925071276115
 31
0.0
  0
LINE
  5
102
330
F5
100
AcDbEntity
  8
치수문자_일반주서
100
AcDbLine
 10
47.67595001570916
 20
3.176074928723897
 30
0.0
 11
47.67595001570916
 21
16.98673817133417
 31
0.0
  0
LINE
  5
103
330
F5
100
AcDbEntity
  8
치수문자_일반주서
100
AcDbLine
 10
47.67595001570916
 20
3.176074928723897
 30
0.0
 11
47.67595001570916
 21
-3.173925071276115
 31
0.0
  0
LINE
  5
104
330
F5
100
AcDbEntity
  8
치수문자_일반주서
100
AcDbLine
 10
47.67595001570916
 20
-3.173925071276115
 30
0.0
 11
47.67595001570916
 21
-9.523925071276114
 31
0.0
  0
MTEXT
  5
105
330
F5
100
AcDbEntity
  8
치수문자_일반주서
100
AcDbMText
 10
37.92758137614685
 20
5.296129945571255
 30
0.0
 40
3.5
 41
0.0
 71
     1
 72
     1
  1
0.25
  7
SLDTEXTSTYLE0
 11
-7.044195017643634E-15
 21
1.0
 31
0.0
 73
     1
 44
1.0
  0
MTEXT
  5
106
330
F5
100
AcDbEntity
  8
치수문자_일반주서
100
AcDbMText
 10
43.16421292650733
 20
2.656910780722964
 30
0.0
 40
3.5
 41
0.0
 71
     1
 72
     1
  1
%%c
  7
SLDTEXTSTYLE0
 11
-7.044195017643634E-15
 21
1.0
 31
0.0
 73
     1
 44
1.0
  0
MTEXT
  5
107
330
F5
100
AcDbEntity
  8
치수문자_일반주서
100
AcDbMText
 10
43.1642129265073
 20
7.935348179097044
 30
0.0
 40
3.5
 41
0.0
 71
     1
 72
     1
  1
6.35
  7
SLDTEXTSTYLE0
 11
-7.044195017643634E-15
 21
1.0
 31
0.0
 73
     1
 44
1.0
  0
ENDBLK
  5
F7
330
F5
100
AcDbEntity
  8
0
100
AcDbBlockEnd
  0
BLOCK
  5
110
330
10F
100
AcDbEntity
  8
0
100
AcDbBlockBegin
  2
SW_DOWELSYMBOL_0
 70
     0
 10
0.0
 20
0.0
 30
0.0
  3
SW_DOWELSYMBOL_0
  1
SW_DOWELSYMBOL_0
  0
CIRCLE
  5
112
330
10F
100
AcDbEntity
  8
해칭선
 62
     0
100
AcDbCircle
 10
0.0
 20
0.0
 30
0.0
 40
3.000000000000001
  0
HATCH
  5
113
330
10F
100
AcDbEntity
  8
0
  6
Continuous
 62
     0
370
     0
100
AcDbHatch
 10
0.0
 20
0.0
 30
0.0
210
0.0
220
0.0
230
1.0
  2
SOLID
 70
     1
 71
     0
 91
        1
 92
        0
 93
        3
 72
     2
 10
0.0
 20
0.0
 40
3.000000000000001
 50
0.0
 51
90.0
 73
     1
 72
     1
 10
0.0
 20
3.000000000000001
 11
0.0
 21
0.0
 72
     1
 10
0.0
 20
0.0
 11
3.000000000000003
 21
0.0
 97
        0
 75
     0
 76
     1
 98
        1
 10
0.0
 20
0.0
  0
HATCH
  5
114
330
10F
100
AcDbEntity
  8
0
  6
Continuous
 62
     0
370
     0
100
AcDbHatch
 10
0.0
 20
0.0
 30
0.0
210
0.0
220
0.0
230
1.0
  2
SOLID
 70
     1
 71
     0
 91
        1
 92
        0
 93
        3
 72
     2
 10
0.0
 20
0.0
 40
3.000000000000001
 50
180.0
 51
270.0000000000007
 73
     1
 72
     1
 10
0.0
 20
-3.000000000000001
 11
0.0
 21
0.0
 72
     1
 10
0.0
 20
0.0
 11
-3.000000000000001
 21
0.0
 97
        0
 75
     0
 76
     1
 98
        1
 10
0.0
 20
0.0
  0
ENDBLK
  5
111
330
10F
100
AcDbEntity
  8
0
100
AcDbBlockEnd
  0
BLOCK
  5
170
330
16F
100
AcDbEntity
  8
0
100
AcDbBlockBegin
  2
*D7
 70
     1
 10
0.0
 20
0.0
 30
0.0
  3
*D7
  1
*D8
  0
LINE
  5
171
330
16F
100
AcDbEntity
  8
0
  6
Continuous
 62
     0
370
    -2
100
AcDbLine
 10
11.12015619282811
 20
39.80620423123747
 30
0.0
 11
4.375000000000037
 21
39.80620423123744
 31
0.0
  0
LINE
  5
172
330
16F
100
AcDbEntity
  8
0
  6
Continuous
 62
     0
370
    -2
100
AcDbLine
 10
11.18265619282811
 20
33.45620423123747
 30
0.0
 11
4.37500000000006
 21
33.45620423123744
 31
0.0
  0
SOLID
  5
173
330
16F
100
AcDbEntity
  8
0
 62
     0
100
AcDbTrace
 10
4.925333333333382
 20
36.50420423123744
 30
0.0
 11
3.824666666666716
 21
36.50420423123744
 31
0.0
 12
4.375000000000037
 22
39.80620423123744
 32
0.0
 13
4.375000000000037
 23
39.80620423123744
 33
0.0
  0
SOLID
  5
174
330
16F
100
AcDbEntity
  8
0
 62
     0
100
AcDbTrace
 10
3.824666666666715
 20
36.75820423123744
 30
0.0
 11
4.925333333333382
 21
36.75820423123744
 31
0.0
 12
4.37500000000006
 22
33.45620423123744
 32
0.0
 13
4.37500000000006
 23
33.45620423123744
 33
0.0
  0
MTEXT
  5
175
330
16F
100
AcDbEntity
  8
0
 62
     0
370
    15
100
AcDbMText
 10
0.0000000000000426
 20
38.21870423123732
 30
0.0
 40
3.5
 41
0.0
 71
     2
 72
     1
  1
\A1;%%c6.35 [1/4]
  7
SLDTEXTSTYLE0
 11
-3.496765431890256E-15
 21
1.0
 31
0.0
 73
     1
 44
1.0
  0
POINT
  5
176
330
16F
100
AcDbEntity
  8
Defpoints
 62
     0
100
AcDbPoint
 10
11.18265619282811
 20
39.80620423123747
 30
0.0
  0
POINT
  5
177
330
16F
100
AcDbEntity
  8
Defpoints
 62
     0
100
AcDbPoint
 10
11.24515619282811
 20
33.45620423123747
 30
0.0
  0
POINT
  5
178
330
16F
100
AcDbEntity
  8
Defpoints
 62
     0
100
AcDbPoint
 10
4.375000000000057
 20
33.45620423123744
 30
0.0
  0
ENDBLK
  5
179
330
16F
100
AcDbEntity
  8
0
100
AcDbBlockEnd
  0
BLOCK
  5
17C
330
17B
100
AcDbEntity
  8
0
100
AcDbBlockBegin
  2
*D8
 70
     1
 10
0.0
 20
0.0
 30
0.0
  3
*D8
  1
*D9
  0
LINE
  5
17D
330
17B
100
AcDbEntity
  8
0
  6
Continuous
 62
     0
370
    -2
100
AcDbLine
 10
73.41265619282812
 20
43.04370423123751
 30
0.0
 11
73.41265619282812
 21
69.59628362618895
 31
0.0
  0
LINE
  5
17E
330
17B
100
AcDbEntity
  8
0
  6
Continuous
 62
     0
370
    -2
100
AcDbLine
 10
9.912656192828102
 20
38.59870423123748
 30
0.0
 11
9.912656192828102
 21
69.59628362618895
 31
0.0
  0
LINE
  5
17F
330
17B
100
AcDbEntity
  8
0
  6
Continuous
 62
     0
370
    -2
100
AcDbLine
 10
70.11065619282812
 20
69.59628362618895
 30
0.0
 11
13.2146561928281
 21
69.59628362618895
 31
0.0
  0
SOLID
  5
180
330
17B
100
AcDbEntity
  8
0
 62
     0
100
AcDbTrace
 10
70.11065619282812
 20
69.04595029285562
 30
0.0
 11
70.11065619282812
 21
70.14661695952228
 31
0.0
 12
73.41265619282812
 22
69.59628362618895
 32
0.0
 13
73.41265619282812
 23
69.59628362618895
 33
0.0
  0
SOLID
  5
181
330
17B
100
AcDbEntity
  8
0
 62
     0
100
AcDbTrace
 10
13.2146561928281
 20
70.14661695952228
 30
0.0
 11
13.2146561928281
 21
69.04595029285562
 31
0.0
 12
9.912656192828102
 22
69.59628362618895
 32
0.0
 13
9.912656192828102
 23
69.59628362618895
 33
0.0
  0
MTEXT
  5
182
330
17B
100
AcDbEntity
  8
0
 62
     0
370
    15
100
AcDbMText
 10
41.66265619282811
 20
73.97128362618895
 30
0.0
 40
3.5
 41
0.0
 71
     2
 72
     1
  1
\A1;63.50 [2 1/2]
  7
SLDTEXTSTYLE0
 73
     1
 44
1.0
  0
POINT
  5
183
330
17B
100
AcDbEntity
  8
Defpoints
 62
     0
100
AcDbPoint
 10
73.41265619282812
 20
42.98120423123751
 30
0.0
  0
POINT
  5
184
330
17B
100
AcDbEntity
  8
Defpoints
 62
     0
100
AcDbPoint
 10
9.912656192828102
 20
38.53620423123748
 30
0.0
  0
POINT
  5
185
330
17B
100
AcDbEntity
  8
Defpoints
 62
     0
100
AcDbPoint
 10
9.912656192828102
 20
69.59628362618895
 30
0.0
  0
ENDBLK
  5
186
330
17B
100
AcDbEntity
  8
0
100
AcDbBlockEnd
  0
BLOCK
  5
189
330
188
100
AcDbEntity
  8
0
100
AcDbBlockBegin
  2
*D9
 70
     1
 10
0.0
 20
0.0
 30
0.0
  3
*D9
  1
*D10
  0
LINE
  5
18A
330
188
100
AcDbEntity
  8
0
  6
Continuous
 62
     0
370
    -2
100
AcDbLine
 10
73.41265619282812
 20
43.04370423123751
 30
0.0
 11
73.41265619282812
 21
52.73471772726587
 31
0.0
  0
LINE
  5
18B
330
188
100
AcDbEntity
  8
0
  6
Continuous
 62
     0
370
    -2
100
AcDbLine
 10
60.71265619282812
 20
38.28120423123747
 30
0.0
 11
60.71265619282812
 21
52.73471772726587
 31
0.0
  0
LINE
  5
18C
330
188
100
AcDbEntity
  8
0
  6
Continuous
 62
     0
370
    -2
100
AcDbLine
 10
60.71265619282812
 20
52.73471772726587
 30
0.0
 11
33.34815619282812
 21
52.73471772726587
 31
0.0
  0
LINE
  5
18D
330
188
100
AcDbEntity
  8
0
  6
Continuous
 62
     0
370
    -2
100
AcDbLine
 10
70.11065619282812
 20
52.73471772726587
 30
0.0
 11
64.01465619282811
 21
52.73471772726587
 31
0.0
  0
SOLID
  5
18E
330
188
100
AcDbEntity
  8
0
 62
     0
100
AcDbTrace
 10
70.11065619282812
 20
52.18438439393254
 30
0.0
 11
70.11065619282812
 21
53.28505106059921
 31
0.0
 12
73.41265619282812
 22
52.73471772726587
 32
0.0
 13
73.41265619282812
 23
52.73471772726587
 33
0.0
  0
SOLID
  5
18F
330
188
100
AcDbEntity
  8
0
 62
     0
100
AcDbTrace
 10
64.01465619282811
 20
53.28505106059921
 30
0.0
 11
64.01465619282811
 21
52.18438439393254
 31
0.0
 12
60.71265619282812
 22
52.73471772726587
 32
0.0
 13
60.71265619282812
 23
52.73471772726587
 33
0.0
  0
MTEXT
  5
190
330
188
100
AcDbEntity
  8
0
 62
     0
370
    15
100
AcDbMText
 10
45.37940619282812
 20
57.10971772726587
 30
0.0
 40
3.5
 41
0.0
 71
     2
 72
     1
  1
\A1;12.70 [1/2]
  7
SLDTEXTSTYLE0
 73
     1
 44
1.0
  0
POINT
  5
191
330
188
100
AcDbEntity
  8
Defpoints
 62
     0
100
AcDbPoint
 10
73.41265619282812
 20
42.98120423123751
 30
0.0
  0
POINT
  5
192
330
188
100
AcDbEntity
  8
Defpoints
 62
     0
100
AcDbPoint
 10
60.71265619282812
 20
38.21870423123747
 30
0.0
  0
POINT
  5
193
330
188
100
AcDbEntity
  8
Defpoints
 62
     0
100
AcDbPoint
 10
60.71265619282812
 20
52.73471772726587
 30
0.0
  0
ENDBLK
  5
194
330
188
100
AcDbEntity
  8
0
100
AcDbBlockEnd
  0
BLOCK
  5
197
330
196
100
AcDbEntity
  8
0
100
AcDbBlockBegin
  2
*D10
 70
     1
 10
0.0
 20
0.0
 30
0.0
  3
*D10
  1
*D11
  0
LINE
  5
198
330
196
100
AcDbEntity
  8
0
  6
Continuous
 62
     0
370
    -2
100
AcDbLine
 10
73.47515619282812
 20
38.21870423123747
 30
0.0
 11
86.18182374799876
 21
38.21870423123752
 31
0.0
  0
LINE
  5
199
330
196
100
AcDbEntity
  8
0
  6
Continuous
 62
     0
370
    -2
100
AcDbLine
 10
73.47515619282812
 20
35.04370423123748
 30
0.0
 11
86.18182374799878
 21
35.04370423123753
 31
0.0
  0
LINE
  5
19A
330
196
100
AcDbEntity
  8
0
  6
Continuous
 62
     0
370
    -2
100
AcDbLine
 10
86.18182374799876
 20
38.21870423123752
 30
0.0
 11
86.1818237479986
 21
72.31445423123755
 31
0.0
  0
LINE
  5
19B
330
196
100
AcDbEntity
  8
0
  6
Continuous
 62
     0
370
    -2
100
AcDbLine
 10
86.18182374799875
 20
41.52070423123752
 30
0.0
 11
86.18182374799873
 21
44.82270423123752
 31
0.0
  0
LINE
  5
19C
330
196
100
AcDbEntity
  8
0
  6
Continuous
 62
     0
370
    -2
100
AcDbLine
 10
86.18182374799879
 20
31.74170423123753
 30
0.0
 11
86.1818237479988
 21
28.43970423123753
 31
0.0
  0
SOLID
  5
19D
330
196
100
AcDbEntity
  8
0
 62
     0
100
AcDbTrace
 10
85.63149041466542
 20
41.52070423123752
 30
0.0
 11
86.73215708133208
 21
41.52070423123752
 31
0.0
 12
86.18182374799876
 22
38.21870423123752
 32
0.0
 13
86.18182374799876
 23
38.21870423123752
 33
0.0
  0
SOLID
  5
19E
330
196
100
AcDbEntity
  8
0
 62
     0
100
AcDbTrace
 10
86.73215708133212
 20
31.74170423123753
 30
0.0
 11
85.63149041466546
 21
31.74170423123752
 31
0.0
 12
86.18182374799878
 22
35.04370423123753
 32
0.0
 13
86.18182374799878
 23
35.04370423123753
 33
0.0
  0
MTEXT
  5
19F
330
196
100
AcDbEntity
  8
0
 62
     0
370
    15
100
AcDbMText
 10
81.80682374799866
 20
60.06445423123753
 30
0.0
 40
3.5
 41
0.0
 71
     2
 72
     1
  1
\A1;%%c3.18 [1/8]
  7
SLDTEXTSTYLE0
 11
-4.475859752819533E-15
 21
1.0
 31
0.0
 73
     1
 44
1.0
  0
POINT
  5
1A0
330
196
100
AcDbEntity
  8
Defpoints
 62
     0
100
AcDbPoint
 10
73.41265619282812
 20
38.21870423123747
 30
0.0
  0
POINT
  5
1A1
330
196
100
AcDbEntity
  8
Defpoints
 62
     0
100
AcDbPoint
 10
73.41265619282812
 20
35.04370423123748
 30
0.0
  0
POINT
  5
1A2
330
196
100
AcDbEntity
  8
Defpoints
 62
     0
100
AcDbPoint
 10
86.18182374799875
 20
35.04370423123753
 30
0.0
  0
ENDBLK
  5
1A3
330
196
100
AcDbEntity
  8
0
100
AcDbBlockEnd
  0
BLOCK
  5
1D4
330
1D3
100
AcDbEntity
  8
0
100
AcDbBlockBegin
  2
*D11
 70
     1
 10
0.0
 20
0.0
 30
0.0
  3
*D11
  1
*D12
  0
LINE
  5
1D5
330
1D3
100
AcDbEntity
  8
0
  6
Continuous
 62
     0
370
    -2
100
AcDbLine
 10
75.29463841589063
 20
32.71937080723266
 30
0.0
 11
103.3244792915598
 21
-0.0000000000003233
 31
0.0
  0
MTEXT
  5
1D6
330
1D3
100
AcDbEntity
  8
0
 62
     0
370
    15
100
AcDbMText
 10
96.77904586644101
 20
11.67533945019715
 30
0.0
 40
3.5
 41
0.0
 71
     5
 72
     1
  1
\A1;R0.76 [R.03]
  7
SLDTEXTSTYLE0
 11
0.6505861769346744
 21
-0.7594324370090632
 31
0.0
 73
     1
 44
1.0
  0
SOLID
  5
1D7
330
1D3
100
AcDbEntity
  8
0
 62
     0
100
AcDbTrace
 10
75.71257940039129
 20
33.07741006660571
 30
0.0
 11
74.87669743138997
 21
32.36133154785961
 31
0.0
 12
73.14640285965234
 22
35.22701671423658
 32
0.0
 13
73.14640285965234
 23
35.22701671423658
 33
0.0
  0
LINE
  5
1D8
330
1D3
100
AcDbEntity
  8
0
  6
Continuous
 62
     0
370
    15
100
AcDbLine
 10
72.56065619282812
 20
35.80570423123748
 30
0.0
 11
72.74065619282813
 21
35.80570423123748
 31
0.0
  0
LINE
  5
1D9
330
1D3
100
AcDbEntity
  8
0
  6
Continuous
 62
     0
370
    15
100
AcDbLine
 10
72.65065619282812
 20
35.71570423123748
 30
0.0
 11
72.65065619282812
 21
35.89570423123749
 31
0.0
  0
POINT
  5
1DA
330
1D3
100
AcDbEntity
  8
Defpoints
 62
     0
100
AcDbPoint
 10
73.14640285965234
 20
35.22701671423658
 30
0.0
  0
POINT
  5
1DB
330
1D3
100
AcDbEntity
  8
Defpoints
 62
     0
100
AcDbPoint
 10
72.65065619282812
 20
35.80570423123748
 30
0.0
  0
ENDBLK
  5
1DC
330
1D3
100
AcDbEntity
  8
0
100
AcDbBlockEnd
  0
BLOCK
  5
21A
330
219
100
AcDbEntity
  8
0
100
AcDbBlockBegin
  2
*D12
 70
     1
 10
0.0
 20
0.0
 30
0.0
  3
*D12
  1
*D13
  0
LINE
  5
21C
330
219
100
AcDbEntity
  8
0
  6
Continuous
 62
     0
370
    -2
100
AcDbLine
 10
-25.31662394465678
 20
0.1505516135356897
 30
0.0
 11
-32.06178013748485
 21
0.1505516135356642
 31
0.0
  0
LINE
  5
21D
330
219
100
AcDbEntity
  8
0
  6
Continuous
 62
     0
370
    -2
100
AcDbLine
 10
-25.25412394465678
 20
-6.199448386464312
 30
0.0
 11
-32.06178013748483
 21
-6.199448386464337
 31
0.0
  0
SOLID
  5
21E
330
219
100
AcDbEntity
  8
0
 62
     0
100
AcDbTrace
 10
-31.5114468041515
 20
-3.151448386464334
 30
0.0
 11
-32.61211347081817
 21
-3.151448386464337
 31
0.0
 12
-32.06178013748485
 22
0.1505516135356642
 32
0.0
 13
-32.06178013748485
 23
0.1505516135356642
 33
0.0
  0
SOLID
  5
21F
330
219
100
AcDbEntity
  8
0
 62
     0
100
AcDbTrace
 10
-32.61211347081818
 20
-2.897448386464339
 30
0.0
 11
-31.51144680415151
 21
-2.897448386464336
 31
0.0
 12
-32.06178013748483
 22
-6.199448386464337
 32
0.0
 13
-32.06178013748483
 23
-6.199448386464337
 33
0.0
  0
MTEXT
  5
220
330
219
100
AcDbEntity
  8
0
 62
     0
370
    15
100
AcDbMText
 10
-36.43678013748485
 20
-1.436948386464465
 30
0.0
 40
3.5
 41
0.0
 71
     2
 72
     1
  1
\A1;%%c6.35 [1/4]
  7
SLDTEXTSTYLE0
 11
-3.356894814614646E-15
 21
1.0
 31
0.0
 73
     1
 44
1.0
  0
POINT
  5
221
330
219
100
AcDbEntity
  8
Defpoints
 62
     0
100
AcDbPoint
 10
-25.25412394465678
 20
0.1505516135356899
 30
0.0
  0
POINT
  5
222
330
219
100
AcDbEntity
  8
Defpoints
 62
     0
100
AcDbPoint
 10
-25.19162394465678
 20
-6.199448386464312
 30
0.0
  0
POINT
  5
223
330
219
100
AcDbEntity
  8
Defpoints
 62
     0
100
AcDbPoint
 10
-32.06178013748483
 20
-6.199448386464337
 30
0.0
  0
ENDBLK
  5
21B
330
219
100
AcDbEntity
  8
0
100
AcDbBlockEnd
  0
BLOCK
  5
225
330
224
100
AcDbEntity
  8
0
100
AcDbBlockBegin
  2
*D13
 70
     1
 10
0.0
 20
0.0
 30
0.0
  3
*D13
  1
*D14
  0
LINE
  5
227
330
224
100
AcDbEntity
  8
0
  6
Continuous
 62
     0
370
    -2
100
AcDbLine
 10
36.97587605534324
 20
3.38805161353573
 30
0.0
 11
36.97587605534324
 21
29.94063100848717
 31
0.0
  0
LINE
  5
228
330
224
100
AcDbEntity
  8
0
  6
Continuous
 62
     0
370
    -2
100
AcDbLine
 10
-26.52412394465679
 20
-1.056948386464306
 30
0.0
 11
-26.52412394465679
 21
29.94063100848717
 31
0.0
  0
LINE
  5
229
330
224
100
AcDbEntity
  8
0
  6
Continuous
 62
     0
370
    -2
100
AcDbLine
 10
33.67387605534324
 20
29.94063100848717
 30
0.0
 11
-23.22212394465679
 21
29.94063100848717
 31
0.0
  0
SOLID
  5
22A
330
224
100
AcDbEntity
  8
0
 62
     0
100
AcDbTrace
 10
33.67387605534324
 20
29.39029767515383
 30
0.0
 11
33.67387605534324
 21
30.4909643418205
 31
0.0
 12
36.97587605534324
 22
29.94063100848717
 32
0.0
 13
36.97587605534324
 23
29.94063100848717
 33
0.0
  0
SOLID
  5
22B
330
224
100
AcDbEntity
  8
0
 62
     0
100
AcDbTrace
 10
-23.22212394465679
 20
30.4909643418205
 30
0.0
 11
-23.22212394465679
 21
29.39029767515383
 31
0.0
 12
-26.52412394465679
 22
29.94063100848717
 32
0.0
 13
-26.52412394465679
 23
29.94063100848717
 33
0.0
  0
MTEXT
  5
22C
330
224
100
AcDbEntity
  8
0
 62
     0
370
    15
100
AcDbMText
 10
5.225876055343221
 20
34.31563100848717
 30
0.0
 40
3.5
 41
0.0
 71
     2
 72
     1
  1
\A1;63.50 [2 1/2]
  7
SLDTEXTSTYLE0
 73
     1
 44
1.0
  0
POINT
  5
22D
330
224
100
AcDbEntity
  8
Defpoints
 62
     0
100
AcDbPoint
 10
36.97587605534324
 20
3.32555161353573
 30
0.0
  0
POINT
  5
22E
330
224
100
AcDbEntity
  8
Defpoints
 62
     0
100
AcDbPoint
 10
-26.52412394465679
 20
-1.119448386464306
 30
0.0
  0
POINT
  5
22F
330
224
100
AcDbEntity
  8
Defpoints
 62
     0
100
AcDbPoint
 10
-26.52412394465679
 20
29.94063100848717
 30
0.0
  0
ENDBLK
  5
226
330
224
100
AcDbEntity
  8
0
100
AcDbBlockEnd
  0
BLOCK
  5
231
330
230
100
AcDbEntity
  8
0
100
AcDbBlockBegin
  2
*D14
 70
     1
 10
0.0
 20
0.0
 30
0.0
  3
*D14
  1
*D15
  0
LINE
  5
233
330
230
100
AcDbEntity
  8
0
  6
Continuous
 62
     0
370
    -2
100
AcDbLine
 10
36.97587605534324
 20
3.38805161353573
 30
0.0
 11
36.97587605534324
 21
13.07906510956409
 31
0.0
  0
LINE
  5
234
330
230
100
AcDbEntity
  8
0
  6
Continuous
 62
     0
370
    -2
100
AcDbLine
 10
24.27587605534323
 20
-1.374448386464309
 30
0.0
 11
24.27587605534323
 21
13.07906510956409
 31
0.0
  0
LINE
  5
235
330
230
100
AcDbEntity
  8
0
  6
Continuous
 62
     0
370
    -2
100
AcDbLine
 10
24.27587605534323
 20
13.07906510956409
 30
0.0
 11
-3.088623944656767
 21
13.07906510956409
 31
0.0
  0
LINE
  5
236
330
230
100
AcDbEntity
  8
0
  6
Continuous
 62
     0
370
    -2
100
AcDbLine
 10
33.67387605534324
 20
13.07906510956409
 30
0.0
 11
27.57787605534323
 21
13.07906510956409
 31
0.0
  0
SOLID
  5
237
330
230
100
AcDbEntity
  8
0
 62
     0
100
AcDbTrace
 10
33.67387605534324
 20
12.52873177623076
 30
0.0
 11
33.67387605534324
 21
13.62939844289742
 31
0.0
 12
36.97587605534324
 22
13.07906510956409
 32
0.0
 13
36.97587605534324
 23
13.07906510956409
 33
0.0
  0
SOLID
  5
238
330
230
100
AcDbEntity
  8
0
 62
     0
100
AcDbTrace
 10
27.57787605534323
 20
13.62939844289742
 30
0.0
 11
27.57787605534323
 21
12.52873177623076
 31
0.0
 12
24.27587605534323
 22
13.07906510956409
 32
0.0
 13
24.27587605534323
 23
13.07906510956409
 33
0.0
  0
MTEXT
  5
239
330
230
100
AcDbEntity
  8
0
 62
     0
370
    15
100
AcDbMText
 10
8.942626055343233
 20
17.45406510956409
 30
0.0
 40
3.5
 41
0.0
 71
     2
 72
     1
  1
\A1;12.70 [1/2]
  7
SLDTEXTSTYLE0
 73
     1
 44
1.0
  0
POINT
  5
23A
330
230
100
AcDbEntity
  8
Defpoints
 62
     0
100
AcDbPoint
 10
36.97587605534324
 20
3.32555161353573
 30
0.0
  0
POINT
  5
23B
330
230
100
AcDbEntity
  8
Defpoints
 62
     0
100
AcDbPoint
 10
24.27587605534323
 20
-1.436948386464309
 30
0.0
  0
POINT
  5
23C
330
230
100
AcDbEntity
  8
Defpoints
 62
     0
100
AcDbPoint
 10
24.27587605534323
 20
13.07906510956409
 30
0.0
  0
ENDBLK
  5
232
330
230
100
AcDbEntity
  8
0
100
AcDbBlockEnd
  0
BLOCK
  5
23E
330
23D
100
AcDbEntity
  8
0
100
AcDbBlockBegin
  2
*D15
 70
     1
 10
0.0
 20
0.0
 30
0.0
  3
*D15
  1
*D16
  0
LINE
  5
240
330
23D
100
AcDbEntity
  8
0
  6
Continuous
 62
     0
370
    -2
100
AcDbLine
 10
37.03837605534324
 20
-1.436948386464308
 30
0.0
 11
49.74504361051387
 21
-1.436948386464262
 31
0.0
  0
LINE
  5
241
330
23D
100
AcDbEntity
  8
0
  6
Continuous
 62
     0
370
    -2
100
AcDbLine
 10
37.03837605534324
 20
-4.611948386464306
 30
0.0
 11
49.74504361051389
 21
-4.61194838646426
 31
0.0
  0
LINE
  5
242
330
23D
100
AcDbEntity
  8
0
  6
Continuous
 62
     0
370
    -2
100
AcDbLine
 10
49.74504361051387
 20
-1.436948386464262
 30
0.0
 11
49.74504361051372
 21
32.65880161353576
 31
0.0
  0
LINE
  5
243
330
23D
100
AcDbEntity
  8
0
  6
Continuous
 62
     0
370
    -2
100
AcDbLine
 10
49.74504361051386
 20
1.865051613535737
 30
0.0
 11
49.74504361051385
 21
5.167051613535737
 31
0.0
  0
LINE
  5
244
330
23D
100
AcDbEntity
  8
0
  6
Continuous
 62
     0
370
    -2
100
AcDbLine
 10
49.7450436105139
 20
-7.913948386464259
 30
0.0
 11
49.74504361051392
 21
-11.21594838646426
 31
0.0
  0
SOLID
  5
245
330
23D
100
AcDbEntity
  8
0
 62
     0
100
AcDbTrace
 10
49.19471027718053
 20
1.865051613535735
 30
0.0
 11
50.2953769438472
 21
1.86505161353574
 31
0.0
 12
49.74504361051387
 22
-1.436948386464262
 32
0.0
 13
49.74504361051387
 23
-1.436948386464262
 33
0.0
  0
SOLID
  5
246
330
23D
100
AcDbEntity
  8
0
 62
     0
100
AcDbTrace
 10
50.29537694384724
 20
-7.913948386464257
 30
0.0
 11
49.19471027718057
 21
-7.913948386464262
 31
0.0
 12
49.74504361051389
 22
-4.61194838646426
 32
0.0
 13
49.74504361051389
 23
-4.61194838646426
 33
0.0
  0
MTEXT
  5
247
330
23D
100
AcDbEntity
  8
0
 62
     0
370
    15
100
AcDbMText
 10
45.37004361051378
 20
20.40880161353575
 30
0.0
 40
3.5
 41
0.0
 71
     2
 72
     1
  1
\A1;%%c3.18 [1/8]
  7
SLDTEXTSTYLE0
 11
-4.475859752819533E-15
 21
1.0
 31
0.0
 73
     1
 44
1.0
  0
POINT
  5
248
330
23D
100
AcDbEntity
  8
Defpoints
 62
     0
100
AcDbPoint
 10
36.97587605534324
 20
-1.436948386464309
 30
0.0
  0
POINT
  5
249
330
23D
100
AcDbEntity
  8
Defpoints
 62
     0
100
AcDbPoint
 10
36.97587605534324
 20
-4.611948386464306
 30
0.0
  0
POINT
  5
24A
330
23D
100
AcDbEntity
  8
Defpoints
 62
     0
100
AcDbPoint
 10
49.74504361051389
 20
-4.611948386464258
 30
0.0
  0
ENDBLK
  5
23F
330
23D
100
AcDbEntity
  8
0
100
AcDbBlockEnd
  0
BLOCK
  5
24C
330
24B
100
AcDbEntity
  8
0
100
AcDbBlockBegin
  2
*D16
 70
     1
 10
0.0
 20
0.0
 30
0.0
  3
*D16
  1
*D17
  0
LINE
  5
24E
330
24B
100
AcDbEntity
  8
0
  6
Continuous
 62
     0
370
    -2
100
AcDbLine
 10
38.85785827840575
 20
-6.936281810469126
 30
0.0
 11
66.88769915407492
 21
-39.65565261770211
 31
0.0
  0
MTEXT
  5
24F
330
24B
100
AcDbEntity
  8
0
 62
     0
370
    15
100
AcDbMText
 10
60.34226572895611
 20
-27.98031316750463
 30
0.0
 40
3.5
 41
0.0
 71
     5
 72
     1
  1
\A1;R0.76 [R.03]
  7
SLDTEXTSTYLE0
 11
0.6505861769346744
 21
-0.7594324370090632
 31
0.0
 73
     1
 44
1.0
  0
SOLID
  5
250
330
24B
100
AcDbEntity
  8
0
 62
     0
100
AcDbTrace
 10
39.2757992629064
 20
-6.578242551096077
 30
0.0
 11
38.4399172939051
 21
-7.294321069842175
 31
0.0
 12
36.70962272216745
 22
-4.428635903465199
 32
0.0
 13
36.70962272216745
 23
-4.428635903465199
 33
0.0
  0
LINE
  5
251
330
24B
100
AcDbEntity
  8
0
  6
Continuous
 62
     0
370
    15
100
AcDbLine
 10
36.12387605534323
 20
-3.849948386464298
 30
0.0
 11
36.30387605534324
 21
-3.849948386464298
 31
0.0
  0
LINE
  5
252
330
24B
100
AcDbEntity
  8
0
  6
Continuous
 62
     0
370
    15
100
AcDbLine
 10
36.21387605534323
 20
-3.939948386464298
 30
0.0
 11
36.21387605534323
 21
-3.759948386464298
 31
0.0
  0
POINT
  5
253
330
24B
100
AcDbEntity
  8
Defpoints
 62
     0
100
AcDbPoint
 10
36.70962272216745
 20
-4.428635903465199
 30
0.0
  0
POINT
  5
254
330
24B
100
AcDbEntity
  8
Defpoints
 62
     0
100
AcDbPoint
 10
36.21387605534323
 20
-3.849948386464298
 30
0.0
  0
ENDBLK
  5
24D
330
24B
100
AcDbEntity
  8
0
100
AcDbBlockEnd
  0
BLOCK
  5
28A
330
289
100
AcDbEntity
  8
0
100
AcDbBlockBegin
  2
*D17
 70
     1
 10
0.0
 20
0.0
 30
0.0
  3
*D17
  1
*D13
  0
LINE
  5
28B
330
289
100
AcDbEntity
  8
0
  6
Continuous
 62
     0
370
    -2
100
AcDbLine
 10
11.12015619282811
 20
39.80620423123747
 30
0.0
 11
4.375000000000037
 21
39.80620423123744
 31
0.0
  0
LINE
  5
28C
330
289
100
AcDbEntity
  8
0
  6
Continuous
 62
     0
370
    -2
100
AcDbLine
 10
11.18265619282811
 20
33.45620423123747
 30
0.0
 11
4.37500000000006
 21
33.45620423123744
 31
0.0
  0
SOLID
  5
28D
330
289
100
AcDbEntity
  8
0
 62
     0
100
AcDbTrace
 10
4.925333333333382
 20
36.50420423123744
 30
0.0
 11
3.824666666666716
 21
36.50420423123744
 31
0.0
 12
4.375000000000037
 22
39.80620423123744
 32
0.0
 13
4.375000000000037
 23
39.80620423123744
 33
0.0
  0
SOLID
  5
28E
330
289
100
AcDbEntity
  8
0
 62
     0
100
AcDbTrace
 10
3.824666666666715
 20
36.75820423123744
 30
0.0
 11
4.925333333333382
 21
36.75820423123744
 31
0.0
 12
4.37500000000006
 22
33.45620423123744
 32
0.0
 13
4.37500000000006
 23
33.45620423123744
 33
0.0
  0
MTEXT
  5
28F
330
289
100
AcDbEntity
  8
0
 62
     0
370
    15
100
AcDbMText
 10
0.0000000000000426
 20
38.21870423123732
 30
0.0
 40
3.5
 41
0.0
 71
     2
 72
     1
  1
\A1;%%c6.35 [1/4]
  7
SLDTEXTSTYLE0
 11
-3.496765431890256E-15
 21
1.0
 31
0.0
 73
     1
 44
1.0
  0
POINT
  5
290
330
289
100
AcDbEntity
  8
Defpoints
 62
     0
100
AcDbPoint
 10
11.18265619282811
 20
39.80620423123747
 30
0.0
  0
POINT
  5
291
330
289
100
AcDbEntity
  8
Defpoints
 62
     0
100
AcDbPoint
 10
11.24515619282811
 20
33.45620423123747
 30
0.0
  0
POINT
  5
292
330
289
100
AcDbEntity
  8
Defpoints
 62
     0
100
AcDbPoint
 10
4.375000000000057
 20
33.45620423123744
 30
0.0
  0
ENDBLK
  5
293
330
289
100
AcDbEntity
  8
0
100
AcDbBlockEnd
  0
BLOCK
  5
296
330
295
100
AcDbEntity
  8
0
100
AcDbBlockBegin
  2
*D18
 70
     1
 10
0.0
 20
0.0
 30
0.0
  3
*D18
  1
*D14
  0
LINE
  5
297
330
295
100
AcDbEntity
  8
0
  6
Continuous
 62
     0
370
    -2
100
AcDbLine
 10
67.00015619282811
 20
43.04370423123751
 30
0.0
 11
67.00015619282811
 21
69.59628362618895
 31
0.0
  0
LINE
  5
298
330
295
100
AcDbEntity
  8
0
  6
Continuous
 62
     0
370
    -2
100
AcDbLine
 10
9.850156192828102
 20
38.59870423123748
 30
0.0
 11
9.850156192828102
 21
69.59628362618895
 31
0.0
  0
LINE
  5
299
330
295
100
AcDbEntity
  8
0
  6
Continuous
 62
     0
370
    -2
100
AcDbLine
 10
63.69815619282812
 20
69.59628362618895
 30
0.0
 11
13.1521561928281
 21
69.59628362618895
 31
0.0
  0
SOLID
  5
29A
330
295
100
AcDbEntity
  8
0
 62
     0
100
AcDbTrace
 10
63.69815619282812
 20
69.04595029285562
 30
0.0
 11
63.69815619282812
 21
70.14661695952228
 31
0.0
 12
67.00015619282811
 22
69.59628362618895
 32
0.0
 13
67.00015619282811
 23
69.59628362618895
 33
0.0
  0
SOLID
  5
29B
330
295
100
AcDbEntity
  8
0
 62
     0
100
AcDbTrace
 10
13.1521561928281
 20
70.14661695952228
 30
0.0
 11
13.1521561928281
 21
69.04595029285562
 31
0.0
 12
9.850156192828102
 22
69.59628362618895
 32
0.0
 13
9.850156192828102
 23
69.59628362618895
 33
0.0
  0
MTEXT
  5
29C
330
295
100
AcDbEntity
  8
0
 62
     0
370
    15
100
AcDbMText
 10
38.42515619282811
 20
73.97128362618895
 30
0.0
 40
3.5
 41
0.0
 71
     2
 72
     1
  1
\A1;57.15 [2 1/4]
  7
SLDTEXTSTYLE0
 73
     1
 44
1.0
  0
POINT
  5
29D
330
295
100
AcDbEntity
  8
Defpoints
 62
     0
100
AcDbPoint
 10
67.00015619282811
 20
42.98120423123751
 30
0.0
  0
POINT
  5
29E
330
295
100
AcDbEntity
  8
Defpoints
 62
     0
100
AcDbPoint
 10
9.850156192828102
 20
38.53620423123748
 30
0.0
  0
POINT
  5
29F
330
295
100
AcDbEntity
  8
Defpoints
 62
     0
100
AcDbPoint
 10
9.850156192828102
 20
69.59628362618895
 30
0.0
  0
ENDBLK
  5
2A0
330
295
100
AcDbEntity
  8
0
100
AcDbBlockEnd
  0
BLOCK
  5
2A3
330
2A2
100
AcDbEntity
  8
0
100
AcDbBlockBegin
  2
*D19
 70
     1
 10
0.0
 20
0.0
 30
0.0
  3
*D19
  1
*D15
  0
LINE
  5
2A4
330
2A2
100
AcDbEntity
  8
0
  6
Continuous
 62
     0
370
    -2
100
AcDbLine
 10
67.00015619282811
 20
43.04370423123751
 30
0.0
 11
67.00015619282811
 21
52.73471772726587
 31
0.0
  0
LINE
  5
2A5
330
2A2
100
AcDbEntity
  8
0
  6
Continuous
 62
     0
370
    -2
100
AcDbLine
 10
54.30015619282812
 20
38.28120423123747
 30
0.0
 11
54.30015619282812
 21
52.73471772726587
 31
0.0
  0
LINE
  5
2A6
330
2A2
100
AcDbEntity
  8
0
  6
Continuous
 62
     0
370
    -2
100
AcDbLine
 10
54.30015619282812
 20
52.73471772726587
 30
0.0
 11
26.93565619282812
 21
52.73471772726587
 31
0.0
  0
LINE
  5
2A7
330
2A2
100
AcDbEntity
  8
0
  6
Continuous
 62
     0
370
    -2
100
AcDbLine
 10
63.69815619282812
 20
52.73471772726587
 30
0.0
 11
57.60215619282812
 21
52.73471772726587
 31
0.0
  0
SOLID
  5
2A8
330
2A2
100
AcDbEntity
  8
0
 62
     0
100
AcDbTrace
 10
63.69815619282812
 20
52.18438439393254
 30
0.0
 11
63.69815619282812
 21
53.28505106059921
 31
0.0
 12
67.00015619282811
 22
52.73471772726587
 32
0.0
 13
67.00015619282811
 23
52.73471772726587
 33
0.0
  0
SOLID
  5
2A9
330
2A2
100
AcDbEntity
  8
0
 62
     0
100
AcDbTrace
 10
57.60215619282812
 20
53.28505106059921
 30
0.0
 11
57.60215619282812
 21
52.18438439393254
 31
0.0
 12
54.30015619282812
 22
52.73471772726587
 32
0.0
 13
54.30015619282812
 23
52.73471772726587
 33
0.0
  0
MTEXT
  5
2AA
330
2A2
100
AcDbEntity
  8
0
 62
     0
370
    15
100
AcDbMText
 10
38.96690619282812
 20
57.10971772726587
 30
0.0
 40
3.5
 41
0.0
 71
     2
 72
     1
  1
\A1;12.70 [1/2]
  7
SLDTEXTSTYLE0
 73
     1
 44
1.0
  0
POINT
  5
2AB
330
2A2
100
AcDbEntity
  8
Defpoints
 62
     0
100
AcDbPoint
 10
67.00015619282811
 20
42.98120423123751
 30
0.0
  0
POINT
  5
2AC
330
2A2
100
AcDbEntity
  8
Defpoints
 62
     0
100
AcDbPoint
 10
54.30015619282812
 20
38.21870423123747
 30
0.0
  0
POINT
  5
2AD
330
2A2
100
AcDbEntity
  8
Defpoints
 62
     0
100
AcDbPoint
 10
54.30015619282812
 20
52.73471772726587
 30
0.0
  0
ENDBLK
  5
2AE
330
2A2
100
AcDbEntity
  8
0
100
AcDbBlockEnd
  0
BLOCK
  5
2B1
330
2B0
100
AcDbEntity
  8
0
100
AcDbBlockBegin
  2
*D20
 70
     1
 10
0.0
 20
0.0
 30
0.0
  3
*D20
  1
*D16
  0
LINE
  5
2B2
330
2B0
100
AcDbEntity
  8
0
  6
Continuous
 62
     0
370
    -2
100
AcDbLine
 10
67.06265619282811
 20
38.21870423123747
 30
0.0
 11
79.76932374799877
 21
38.21870423123752
 31
0.0
  0
LINE
  5
2B3
330
2B0
100
AcDbEntity
  8
0
  6
Continuous
 62
     0
370
    -2
100
AcDbLine
 10
67.06265619282811
 20
35.04370423123748
 30
0.0
 11
79.76932374799878
 21
35.04370423123753
 31
0.0
  0
LINE
  5
2B4
330
2B0
100
AcDbEntity
  8
0
  6
Continuous
 62
     0
370
    -2
100
AcDbLine
 10
79.76932374799877
 20
38.21870423123752
 30
0.0
 11
79.76932374799861
 21
72.31445423123755
 31
0.0
  0
LINE
  5
2B5
330
2B0
100
AcDbEntity
  8
0
  6
Continuous
 62
     0
370
    -2
100
AcDbLine
 10
79.76932374799875
 20
41.52070423123752
 30
0.0
 11
79.76932374799874
 21
44.82270423123752
 31
0.0
  0
LINE
  5
2B6
330
2B0
100
AcDbEntity
  8
0
  6
Continuous
 62
     0
370
    -2
100
AcDbLine
 10
79.7693237479988
 20
31.74170423123753
 30
0.0
 11
79.76932374799881
 21
28.43970423123753
 31
0.0
  0
SOLID
  5
2B7
330
2B0
100
AcDbEntity
  8
0
 62
     0
100
AcDbTrace
 10
79.21899041466543
 20
41.52070423123752
 30
0.0
 11
80.31965708133208
 21
41.52070423123752
 31
0.0
 12
79.76932374799877
 22
38.21870423123752
 32
0.0
 13
79.76932374799877
 23
38.21870423123752
 33
0.0
  0
SOLID
  5
2B8
330
2B0
100
AcDbEntity
  8
0
 62
     0
100
AcDbTrace
 10
80.31965708133212
 20
31.74170423123753
 30
0.0
 11
79.21899041466547
 21
31.74170423123752
 31
0.0
 12
79.76932374799878
 22
35.04370423123753
 32
0.0
 13
79.76932374799878
 23
35.04370423123753
 33
0.0
  0
MTEXT
  5
2B9
330
2B0
100
AcDbEntity
  8
0
 62
     0
370
    15
100
AcDbMText
 10
75.39432374799867
 20
60.06445423123753
 30
0.0
 40
3.5
 41
0.0
 71
     2
 72
     1
  1
\A1;%%c3.18 [1/8]
  7
SLDTEXTSTYLE0
 11
-4.475859752819533E-15
 21
1.0
 31
0.0
 73
     1
 44
1.0
  0
POINT
  5
2BA
330
2B0
100
AcDbEntity
  8
Defpoints
 62
     0
100
AcDbPoint
 10
67.00015619282811
 20
38.21870423123747
 30
0.0
  0
POINT
  5
2BB
330
2B0
100
AcDbEntity
  8
Defpoints
 62
     0
100
AcDbPoint
 10
67.00015619282811
 20
35.04370423123748
 30
0.0
  0
POINT
  5
2BC
330
2B0
100
AcDbEntity
  8
Defpoints
 62
     0
100
AcDbPoint
 10
79.76932374799875
 20
35.04370423123753
 30
0.0
  0
ENDBLK
  5
2BD
330
2B0
100
AcDbEntity
  8
0
100
AcDbBlockEnd
  0
BLOCK
  5
2E8
330
2E7
100
AcDbEntity
  8
0
100
AcDbBlockBegin
  2
*D21
 70
     1
 10
0.0
 20
0.0
 30
0.0
  3
*D21
  1
*D18
  0
LINE
  5
2E9
330
2E7
100
AcDbEntity
  8
0
  6
Continuous
 62
     0
370
    -2
100
AcDbLine
 10
68.88213841589068
 20
32.71937080723269
 30
0.0
 11
96.91197929156031
 21
0.0000000000001066
 31
0.0
  0
MTEXT
  5
2EA
330
2E7
100
AcDbEntity
  8
0
 62
     0
370
    15
100
AcDbMText
 10
90.36654586644134
 20
11.67533945019749
 30
0.0
 40
3.5
 41
0.0
 71
     5
 72
     1
  1
\A1;R0.76 [R.03]
  7
SLDTEXTSTYLE0
 11
0.6505861769346852
 21
-0.7594324370090538
 31
0.0
 73
     1
 44
1.0
  0
SOLID
  5
2EB
330
2E7
100
AcDbEntity
  8
0
 62
     0
100
AcDbTrace
 10
69.30007940039133
 20
33.07741006660574
 30
0.0
 11
68.46419743139003
 21
32.36133154785963
 31
0.0
 12
66.73390285965235
 22
35.22701671423658
 32
0.0
 13
66.73390285965235
 23
35.22701671423658
 33
0.0
  0
LINE
  5
2EC
330
2E7
100
AcDbEntity
  8
0
  6
Continuous
 62
     0
370
    15
100
AcDbLine
 10
66.14815619282811
 20
35.80570423123748
 30
0.0
 11
66.32815619282812
 21
35.80570423123748
 31
0.0
  0
LINE
  5
2ED
330
2E7
100
AcDbEntity
  8
0
  6
Continuous
 62
     0
370
    15
100
AcDbLine
 10
66.23815619282811
 20
35.71570423123748
 30
0.0
 11
66.23815619282811
 21
35.89570423123749
 31
0.0
  0
POINT
  5
2EE
330
2E7
100
AcDbEntity
  8
Defpoints
 62
     0
100
AcDbPoint
 10
66.73390285965235
 20
35.22701671423658
 30
0.0
  0
POINT
  5
2EF
330
2E7
100
AcDbEntity
  8
Defpoints
 62
     0
100
AcDbPoint
 10
66.23815619282811
 20
35.80570423123748
 30
0.0
  0
ENDBLK
  5
2F0
330
2E7
100
AcDbEntity
  8
0
100
AcDbBlockEnd
  0
BLOCK
  5
32E
330
32D
100
AcDbEntity
  8
0
100
AcDbBlockBegin
  2
*D22
 70
     1
 10
0.0
 20
0.0
 30
0.0
  3
*D22
  1
*D24
  0
LINE
  5
330
330
32D
100
AcDbEntity
  8
0
  6
Continuous
 62
     0
370
    -2
100
AcDbLine
 10
-35.0234851072915
 20
3.174999999999995
 30
0.0
 11
-41.76864130011958
 21
3.174999999999969
 31
0.0
  0
LINE
  5
331
330
32D
100
AcDbEntity
  8
0
  6
Continuous
 62
     0
370
    -2
100
AcDbLine
 10
-34.9609851072915
 20
-3.175000000000006
 30
0.0
 11
-41.76864130011955
 21
-3.175000000000032
 31
0.0
  0
LINE
  5
332
330
32D
100
AcDbEntity
  8
0
  6
Continuous
 62
     0
370
    -2
100
AcDbLine
 10
-41.76864130011958
 20
3.174999999999969
 30
0.0
 11
-41.76864130011959
 21
6.476999999999969
 31
0.0
  0
LINE
  5
333
330
32D
100
AcDbEntity
  8
0
  6
Continuous
 62
     0
370
    -2
100
AcDbLine
 10
-41.76864130011955
 20
-3.175000000000032
 30
0.0
 11
-41.76864130011954
 21
-6.477000000000032
 31
0.0
  0
SOLID
  5
334
330
32D
100
AcDbEntity
  8
0
 62
     0
100
AcDbTrace
 10
-41.21830796678623
 20
-0.127000000000029
 30
0.0
 11
-42.3189746334529
 21
-0.1270000000000327
 31
0.0
 12
-41.76864130011958
 22
3.174999999999969
 32
0.0
 13
-41.76864130011958
 23
3.174999999999969
 33
0.0
  0
SOLID
  5
335
330
32D
100
AcDbEntity
  8
0
 62
     0
100
AcDbTrace
 10
-42.3189746334529
 20
0.1269999999999659
 30
0.0
 11
-41.21830796678623
 21
0.1269999999999697
 31
0.0
 12
-41.76864130011955
 22
-3.175000000000032
 32
0.0
 13
-41.76864130011955
 23
-3.175000000000032
 33
0.0
  0
MTEXT
  5
336
330
32D
100
AcDbEntity
  8
0
 62
     0
370
    15
100
AcDbMText
 10
-46.14364130011957
 20
1.58749999999984
 30
0.0
 40
3.5
 41
0.0
 71
     2
 72
     1
  1
\A1;%%c6.35 [1/4]
  7
SLDTEXTSTYLE0
 11
-3.356894814614646E-15
 21
1.0
 31
0.0
 73
     1
 44
1.0
  0
POINT
  5
337
330
32D
100
AcDbEntity
  8
Defpoints
 62
     0
100
AcDbPoint
 10
-34.9609851072915
 20
3.174999999999995
 30
0.0
  0
POINT
  5
3A4
330
32D
100
AcDbEntity
  8
Defpoints
 62
     0
100
AcDbPoint
 10
-34.8984851072915
 20
-3.175000000000006
 30
0.0
  0
POINT
  5
3A5
330
32D
100
AcDbEntity
  8
Defpoints
 62
     0
100
AcDbPoint
 10
-41.76864130011955
 20
-3.175000000000031
 30
0.0
  0
ENDBLK
  5
32F
330
32D
100
AcDbEntity
  8
0
100
AcDbBlockEnd
  0
BLOCK
  5
339
330
338
100
AcDbEntity
  8
0
100
AcDbBlockBegin
  2
*D23
 70
     1
 10
0.0
 20
0.0
 30
0.0
  3
*D23
  1
*D25
  0
LINE
  5
33B
330
338
100
AcDbEntity
  8
0
  6
Continuous
 62
     0
370
    -2
100
AcDbLine
 10
20.8565148927085
 20
6.412500000000035
 30
0.0
 11
20.8565148927085
 21
32.96507939495147
 31
0.0
  0
LINE
  5
33C
330
338
100
AcDbEntity
  8
0
  6
Continuous
 62
     0
370
    -2
100
AcDbLine
 10
-36.29348510729151
 20
1.967499999999999
 30
0.0
 11
-36.29348510729151
 21
32.96507939495147
 31
0.0
  0
LINE
  5
33D
330
338
100
AcDbEntity
  8
0
  6
Continuous
 62
     0
370
    -2
100
AcDbLine
 10
17.5545148927085
 20
32.96507939495147
 30
0.0
 11
-32.99148510729151
 21
32.96507939495147
 31
0.0
  0
SOLID
  5
33E
330
338
100
AcDbEntity
  8
0
 62
     0
100
AcDbTrace
 10
17.5545148927085
 20
32.41474606161814
 30
0.0
 11
17.5545148927085
 21
33.51541272828481
 31
0.0
 12
20.8565148927085
 22
32.96507939495147
 32
0.0
 13
20.8565148927085
 23
32.96507939495147
 33
0.0
  0
SOLID
  5
33F
330
338
100
AcDbEntity
  8
0
 62
     0
100
AcDbTrace
 10
-32.99148510729151
 20
33.51541272828481
 30
0.0
 11
-32.99148510729151
 21
32.41474606161814
 31
0.0
 12
-36.29348510729151
 22
32.96507939495147
 32
0.0
 13
-36.29348510729151
 23
32.96507939495147
 33
0.0
  0
MTEXT
  5
340
330
338
100
AcDbEntity
  8
0
 62
     0
370
    15
100
AcDbMText
 10
-7.718485107291499
 20
37.34007939495147
 30
0.0
 40
3.5
 41
0.0
 71
     2
 72
     1
  1
\A1;57.15 [2 1/4]
  7
SLDTEXTSTYLE0
 73
     1
 44
1.0
  0
POINT
  5
341
330
338
100
AcDbEntity
  8
Defpoints
 62
     0
100
AcDbPoint
 10
20.8565148927085
 20
6.350000000000035
 30
0.0
  0
POINT
  5
342
330
338
100
AcDbEntity
  8
Defpoints
 62
     0
100
AcDbPoint
 10
-36.29348510729151
 20
1.904999999999999
 30
0.0
  0
POINT
  5
343
330
338
100
AcDbEntity
  8
Defpoints
 62
     0
100
AcDbPoint
 10
-36.29348510729151
 20
32.96507939495147
 30
0.0
  0
ENDBLK
  5
33A
330
338
100
AcDbEntity
  8
0
100
AcDbBlockEnd
  0
BLOCK
  5
345
330
344
100
AcDbEntity
  8
0
100
AcDbBlockBegin
  2
*D24
 70
     1
 10
0.0
 20
0.0
 30
0.0
  3
*D24
  1
*D26
  0
LINE
  5
347
330
344
100
AcDbEntity
  8
0
  6
Continuous
 62
     0
370
    -2
100
AcDbLine
 10
20.8565148927085
 20
6.412500000000035
 30
0.0
 11
20.8565148927085
 21
16.1035134960284
 31
0.0
  0
LINE
  5
348
330
344
100
AcDbEntity
  8
0
  6
Continuous
 62
     0
370
    -2
100
AcDbLine
 10
8.156514892708508
 20
1.649999999999997
 30
0.0
 11
8.156514892708508
 21
16.1035134960284
 31
0.0
  0
LINE
  5
349
330
344
100
AcDbEntity
  8
0
  6
Continuous
 62
     0
370
    -2
100
AcDbLine
 10
8.156514892708508
 20
16.1035134960284
 30
0.0
 11
-19.20798510729149
 21
16.1035134960284
 31
0.0
  0
LINE
  5
34A
330
344
100
AcDbEntity
  8
0
  6
Continuous
 62
     0
370
    -2
100
AcDbLine
 10
17.5545148927085
 20
16.1035134960284
 30
0.0
 11
11.45851489270851
 21
16.1035134960284
 31
0.0
  0
SOLID
  5
34B
330
344
100
AcDbEntity
  8
0
 62
     0
100
AcDbTrace
 10
17.5545148927085
 20
15.55318016269507
 30
0.0
 11
17.5545148927085
 21
16.65384682936173
 31
0.0
 12
20.8565148927085
 22
16.1035134960284
 32
0.0
 13
20.8565148927085
 23
16.1035134960284
 33
0.0
  0
SOLID
  5
34C
330
344
100
AcDbEntity
  8
0
 62
     0
100
AcDbTrace
 10
11.45851489270851
 20
16.65384682936173
 30
0.0
 11
11.45851489270851
 21
15.55318016269507
 31
0.0
 12
8.156514892708508
 22
16.1035134960284
 32
0.0
 13
8.156514892708508
 23
16.1035134960284
 33
0.0
  0
MTEXT
  5
34D
330
344
100
AcDbEntity
  8
0
 62
     0
370
    15
100
AcDbMText
 10
-7.176735107291491
 20
20.4785134960284
 30
0.0
 40
3.5
 41
0.0
 71
     2
 72
     1
  1
\A1;12.70 [1/2]
  7
SLDTEXTSTYLE0
 73
     1
 44
1.0
  0
POINT
  5
34E
330
344
100
AcDbEntity
  8
Defpoints
 62
     0
100
AcDbPoint
 10
20.8565148927085
 20
6.350000000000035
 30
0.0
  0
POINT
  5
34F
330
344
100
AcDbEntity
  8
Defpoints
 62
     0
100
AcDbPoint
 10
8.156514892708508
 20
1.587499999999997
 30
0.0
  0
POINT
  5
350
330
344
100
AcDbEntity
  8
Defpoints
 62
     0
100
AcDbPoint
 10
8.156514892708508
 20
16.1035134960284
 30
0.0
  0
ENDBLK
  5
346
330
344
100
AcDbEntity
  8
0
100
AcDbBlockEnd
  0
BLOCK
  5
352
330
351
100
AcDbEntity
  8
0
100
AcDbBlockBegin
  2
*D25
 70
     1
 10
0.0
 20
0.0
 30
0.0
  3
*D25
  1
*D27
  0
LINE
  5
354
330
351
100
AcDbEntity
  8
0
  6
Continuous
 62
     0
370
    -2
100
AcDbLine
 10
20.9190148927085
 20
1.587499999999997
 30
0.0
 11
33.62568244787916
 21
1.587500000000045
 31
0.0
  0
LINE
  5
355
330
351
100
AcDbEntity
  8
0
  6
Continuous
 62
     0
370
    -2
100
AcDbLine
 10
20.9190148927085
 20
-1.587500000000001
 30
0.0
 11
33.62568244787918
 21
-1.587499999999956
 31
0.0
  0
LINE
  5
356
330
351
100
AcDbEntity
  8
0
  6
Continuous
 62
     0
370
    -2
100
AcDbLine
 10
33.62568244787916
 20
1.587500000000045
 30
0.0
 11
33.62568244787901
 21
35.68325000000006
 31
0.0
  0
LINE
  5
357
330
351
100
AcDbEntity
  8
0
  6
Continuous
 62
     0
370
    -2
100
AcDbLine
 10
33.62568244787915
 20
4.889500000000044
 30
0.0
 11
33.62568244787914
 21
8.191500000000044
 31
0.0
  0
LINE
  5
358
330
351
100
AcDbEntity
  8
0
  6
Continuous
 62
     0
370
    -2
100
AcDbLine
 10
33.62568244787919
 20
-4.889499999999956
 30
0.0
 11
33.62568244787921
 21
-8.191499999999955
 31
0.0
  0
SOLID
  5
359
330
351
100
AcDbEntity
  8
0
 62
     0
100
AcDbTrace
 10
33.07534911454582
 20
4.889500000000042
 30
0.0
 11
34.17601578121248
 21
4.889500000000047
 31
0.0
 12
33.62568244787916
 22
1.587500000000045
 32
0.0
 13
33.62568244787916
 23
1.587500000000045
 33
0.0
  0
SOLID
  5
35A
330
351
100
AcDbEntity
  8
0
 62
     0
100
AcDbTrace
 10
34.17601578121253
 20
-4.889499999999953
 30
0.0
 11
33.07534911454586
 21
-4.889499999999958
 31
0.0
 12
33.62568244787918
 22
-1.587499999999956
 32
0.0
 13
33.62568244787918
 23
-1.587499999999956
 33
0.0
  0
MTEXT
  5
35B
330
351
100
AcDbEntity
  8
0
 62
     0
370
    15
100
AcDbMText
 10
29.25068244787906
 20
23.43325000000005
 30
0.0
 40
3.5
 41
0.0
 71
     2
 72
     1
  1
\A1;%%c3.18 [1/8]
  7
SLDTEXTSTYLE0
 11
-4.475859752819532E-15
 21
1.0
 31
0.0
 73
     1
 44
1.0
  0
POINT
  5
35C
330
351
100
AcDbEntity
  8
Defpoints
 62
     0
100
AcDbPoint
 10
20.8565148927085
 20
1.587499999999997
 30
0.0
  0
POINT
  5
35D
330
351
100
AcDbEntity
  8
Defpoints
 62
     0
100
AcDbPoint
 10
20.8565148927085
 20
-1.587500000000001
 30
0.0
  0
POINT
  5
35E
330
351
100
AcDbEntity
  8
Defpoints
 62
     0
100
AcDbPoint
 10
33.62568244787914
 20
-1.587499999999953
 30
0.0
  0
ENDBLK
  5
353
330
351
100
AcDbEntity
  8
0
100
AcDbBlockEnd
  0
BLOCK
  5
360
330
35F
100
AcDbEntity
  8
0
100
AcDbBlockBegin
  2
*D26
 70
     1
 10
0.0
 20
0.0
 30
0.0
  3
*D26
  1
*D28
  0
LINE
  5
362
330
35F
100
AcDbEntity
  8
0
  6
Continuous
 62
     0
370
    -2
100
AcDbLine
 10
20.94360262644676
 20
-3.911833424004788
 30
0.0
 11
48.9734435021164
 21
-36.63120423123737
 31
0.0
  0
MTEXT
  5
363
330
35F
100
AcDbEntity
  8
0
 62
     0
370
    15
100
AcDbMText
 10
42.42801007699742
 20
-24.95586478103998
 30
0.0
 40
3.5
 41
0.0
 71
     5
 72
     1
  1
\A1;R0.76 [R.03]
  7
SLDTEXTSTYLE0
 11
0.6505861769346852
 21
-0.7594324370090538
 31
0.0
 73
     1
 44
1.0
  0
SOLID
  5
364
330
35F
100
AcDbEntity
  8
0
 62
     0
100
AcDbTrace
 10
21.36154361094741
 20
-3.553794164631732
 30
0.0
 11
20.52566164194612
 21
-4.269872683377843
 31
0.0
 12
18.79536707020844
 22
-1.404187517000892
 32
0.0
 13
18.79536707020844
 23
-1.404187517000892
 33
0.0
  0
LINE
  5
365
330
35F
100
AcDbEntity
  8
0
  6
Continuous
 62
     0
370
    15
100
AcDbLine
 10
18.2096204033842
 20
-0.825499999999991
 30
0.0
 11
18.3896204033842
 21
-0.825499999999991
 31
0.0
  0
LINE
  5
366
330
35F
100
AcDbEntity
  8
0
  6
Continuous
 62
     0
370
    15
100
AcDbLine
 10
18.2996204033842
 20
-0.915499999999991
 30
0.0
 11
18.2996204033842
 21
-0.735499999999991
 31
0.0
  0
POINT
  5
367
330
35F
100
AcDbEntity
  8
Defpoints
 62
     0
100
AcDbPoint
 10
18.79536707020844
 20
-1.404187517000892
 30
0.0
  0
POINT
  5
368
330
35F
100
AcDbEntity
  8
Defpoints
 62
     0
100
AcDbPoint
 10
18.2996204033842
 20
-0.825499999999991
 30
0.0
  0
ENDBLK
  5
361
330
35F
100
AcDbEntity
  8
0
100
AcDbBlockEnd
  0
BLOCK
  5
371
330
370
100
AcDbEntity
  8
0
100
AcDbBlockBegin
  2
*D27
 70
     1
 10
0.0
 20
0.0
 30
0.0
  3
*D27
  1
*D29
  0
LINE
  5
373
330
370
100
AcDbEntity
  8
0
  6
Continuous
 62
     0
370
    -2
100
AcDbLine
 10
21.95711372736487
 20
-4.533267477573176
 30
0.0
 11
36.8353863346806
 21
-36.4778971431742
 31
0.0
  0
MTEXT
  5
374
330
370
100
AcDbEntity
  8
0
 62
     0
370
    15
100
AcDbMText
 10
33.39644589859702
 20
-22.87689845779933
 30
0.0
 40
3.5
 41
0.0
 71
     5
 72
     1
  1
\A1;R0.51 [R0.02]
  7
SLDTEXTSTYLE0
 11
0.4222044185449776
 21
-0.9065006502816737
 31
0.0
 73
     1
 44
1.0
  0
SOLID
  5
375
330
370
100
AcDbEntity
  8
0
 62
     0
100
AcDbTrace
 10
22.45599125190321
 20
-4.300914312567257
 30
0.0
 11
21.45823620282652
 21
-4.765620642579095
 31
0.0
 12
20.56299473732935
 22
-1.54000233034309
 32
0.0
 13
20.56299473732935
 23
-1.54000233034309
 33
0.0
  0
LINE
  5
376
330
370
100
AcDbEntity
  8
0
  6
Continuous
 62
     0
370
    15
100
AcDbLine
 10
20.2585148927085
 20
-1.079499999999996
 30
0.0
 11
20.4385148927085
 21
-1.079499999999996
 31
0.0
  0
LINE
  5
377
330
370
100
AcDbEntity
  8
0
  6
Continuous
 62
     0
370
    15
100
AcDbLine
 10
20.3485148927085
 20
-1.169499999999996
 30
0.0
 11
20.3485148927085
 21
-0.9894999999999957
 31
0.0
  0
POINT
  5
378
330
370
100
AcDbEntity
  8
Defpoints
 62
     0
100
AcDbPoint
 10
20.56299473732935
 20
-1.54000233034309
 30
0.0
  0
POINT
  5
379
330
370
100
AcDbEntity
  8
Defpoints
 62
     0
100
AcDbPoint
 10
20.3485148927085
 20
-1.079499999999996
 30
0.0
  0
ENDBLK
  5
372
330
370
100
AcDbEntity
  8
0
100
AcDbBlockEnd
  0
ENDSEC
  0
SECTION
  2
ENTITIES
  0
LINE
  5
B1
330
1F
100
AcDbEntity
  8
참조1
100
AcDbLine
 10
-15.39999999999998
 20
0.0010749287238892
 30
0.0
 11
-15.39999999999998
 21
-39.99892507127611
 31
0.0
  0
LINE
  5
B2
330
1F
100
AcDbEntity
  8
참조1
100
AcDbLine
 10
-15.39999999999998
 20
-39.99892507127611
 30
0.0
 11
-30.55885681430864
 21
-39.9989250712761
 31
0.0
  0
INSERT
  5
B4
330
1F
100
AcDbEntity
  8
0
  6
Continuous
 62
     7
100
AcDbBlockReference
 66
     1
  2
블럭10
 10
-29.34027293212519
 20
-52.04609937292004
 30
0.0
  0
ATTRIB
  5
B5
330
B4
100
AcDbEntity
  8
FORMAT
 62
     2
100
AcDbText
 10
-39.48190894426182
 20
-49.97073246008785
 30
0.0
 40
4.233333333333333
  1
EM649901 [ 4 FLUTE ]
 41
0.75
  7
SLDTEXTSTYLE0
 11
-39.48190894426182
 21
-52.08739912675452
 31
0.0
100
AcDbAttribute
  2
AUTOATTR0
 70
     0
 74
     1
  0
SEQEND
  5
B6
330
B4
100
AcDbEntity
  8
0
  6
Continuous
 62
     7
  0
HATCH
  5
B7
330
1F
100
AcDbEntity
  8
중심선
100
AcDbHatch
 10
0.0
 20
0.0
 30
0.0
210
0.0
220
0.0
230
1.0
  2
SOLID
 70
     1
 71
     0
 91
        1
 92
        0
 93
        4
 72
     1
 10
-23.62536362774434
 20
-35.7989250712761
 11
-27.07163887158162
 21
-35.7989250712761
 72
     1
 10
-27.07163887158162
 20
-35.7989250712761
 11
-29.19986873078565
 21
-38.3352506518487
 72
     1
 10
-29.19986873078565
 20
-38.3352506518487
 11
-25.75356040183521
 21
-38.33521122254621
 72
     1
 10
-25.75356040183521
 20
-38.33521122254621
 11
-23.62536362774434
 21
-35.7989250712761
 97
        0
 75
     0
 76
     1
 98
        1
 10
0.0
 20
0.0
  0
HATCH
  5
B8
330
1F
100
AcDbEntity
  8
중심선
100
AcDbHatch
 10
0.0
 20
0.0
 30
0.0
210
0.0
220
0.0
230
1.0
  2
SOLID
 70
     1
 71
     0
 91
        1
 92
        0
 93
        4
 72
     1
 10
-18.61259963670836
 20
-35.7989250712761
 11
-22.05887488054564
 21
-35.7989250712761
 72
     1
 10
-22.05887488054564
 20
-35.7989250712761
 11
-26.59001288890306
 21
-41.19892507127612
 72
     1
 10
-26.59001288890306
 20
-41.19892507127612
 11
-23.14373764506578
 21
-41.19892507127612
 72
     1
 10
-23.14373764506578
 20
-41.19892507127612
 11
-18.61259963670836
 21
-35.7989250712761
 97
        0
 75
     0
 76
     1
 98
        1
 10
0.0
 20
0.0
  0
HATCH
  5
B9
330
1F
100
AcDbEntity
  8
중심선
100
AcDbHatch
 10
0.0
 20
0.0
 30
0.0
210
0.0
220
0.0
230
1.0
  2
SOLID
 70
     1
 71
     0
 91
        1
 92
        0
 93
        4
 72
     1
 10
-13.59983564567249
 20
-35.7989250712761
 11
-17.04611088950961
 21
-35.7989250712761
 72
     1
 10
-17.04611088950961
 20
-35.7989250712761
 11
-24.09454779139886
 21
-44.19892507127612
 72
     1
 10
-24.09454779139886
 20
-44.19892507127612
 11
-20.64827254756158
 21
-44.19892507127612
 72
     1
 10
-20.64827254756158
 20
-44.19892507127612
 11
-13.59983564567249
 21
-35.7989250712761
 97
        0
 75
     0
 76
     1
 98
        1
 10
0.0
 20
0.0
  0
HATCH
  5
BA
330
1F
100
AcDbEntity
  8
중심선
100
AcDbHatch
 10
0.0
 20
0.0
 30
0.0
210
0.0
220
0.0
230
1.0
  2
SOLID
 70
     1
 71
     0
 91
        1
 92
        0
 93
        6
 72
     3
 10
-8.799945214660292
 20
-39.99892507132738
 11
3.960054785062284
 21
1.540850780301639E-10
 40
0.3939339440162633
 50
17.09539180608434
 51
320.0019657685073
 73
     0
 72
     1
 10
-7.116945558959697
 20
-38.58681907591438
 11
-4.81164368525866
 21
-36.65249236586649
 72
     3
 10
-8.799945214713139
 20
-39.99892507127625
 11
6.600054785286829
 21
-1.249000902703301E-13
 40
0.6363583540795982
 50
39.99873849337408
 51
368.4976242363724
 73
     1
 72
     1
 10
-2.37461272281253
 20
-39.03892507120613
 11
-10.11987790787722
 21
-39.0389250712061
 72
     1
 10
-10.11987790787722
 20
-39.0389250712061
 11
-10.11990295232315
 21
-40.95892507120602
 72
     1
 10
-10.11990295232315
 20
-40.95892507120602
 11
-5.678523182851114
 21
-40.95892507120599
 97
        0
 75
     0
 76
     1
 98
        1
 10
0.0
 20
0.0
  0
LINE
  5
108
330
1F
100
AcDbEntity
  8
참조1
100
AcDbLine
 10
67.41348381534561
 20
7.441074928723896
 30
0.0
 11
67.41348381534561
 21
-7.438925071276109
 31
0.0
  0
LINE
  5
109
330
1F
100
AcDbEntity
  8
참조1
100
AcDbLine
 10
80.11348381534562
 20
5.441074928723896
 30
0.0
 11
67.41348381534561
 21
5.441074928723896
 31
0.0
  0
SOLID
  5
10A
330
1F
100
AcDbEntity
  8
참조1
100
AcDbTrace
 10
67.41348381534561
 20
5.441074928723896
 30
0.0
 11
73.76348381534561
 21
4.425074928723896
 31
0.0
 12
73.76348381534561
 22
6.457074928723896
 32
0.0
 13
73.76348381534561
 23
6.457074928723896
 33
0.0
  0
LINE
  5
10B
330
1F
100
AcDbEntity
  8
참조1
100
AcDbLine
 10
80.11348381534562
 20
-5.438925071276109
 30
0.0
 11
67.41348381534561
 21
-5.438925071276109
 31
0.0
  0
SOLID
  5
10C
330
1F
100
AcDbEntity
  8
참조1
100
AcDbTrace
 10
67.41348381534561
 20
-5.438925071276109
 30
0.0
 11
73.76348381534561
 21
-6.454925071276109
 31
0.0
 12
73.76348381534561
 22
-4.422925071276109
 32
0.0
 13
73.76348381534561
 23
-4.422925071276109
 33
0.0
  0
MTEXT
  5
10D
330
1F
100
AcDbEntity
  8
참조1
100
AcDbMText
 10
76.81097390781589
 20
10.98929157337383
 30
0.0
 40
3.5
 41
0.0
 71
     1
 72
     1
  1
A
  7
SLDTEXTSTYLE0
 73
     1
 44
1.0
  0
MTEXT
  5
10E
330
1F
100
AcDbEntity
  8
참조1
100
AcDbMText
 10
76.81097390781589
 20
0.1092915733738251
 30
0.0
 40
3.5
 41
0.0
 71
     1
 72
     1
  1
A
  7
SLDTEXTSTYLE0
 73
     1
 44
1.0
  0
LINE
  5
2F8
330
1F
100
AcDbEntity
  8
0
  6
Continuous
 62
     1
370
    15
100
AcDbLine
 10
17.74110535524923
 20
1.587499999999997
 30
0.0
 11
16.77333033223354
 21
1.587499999999997
 31
0.0
  0
LINE
  5
2F9
330
1F
100
AcDbEntity
  8
0
  6
Continuous
 62
     1
370
    15
100
AcDbLine
 10
16.77333033223352
 20
-1.587500000000008
 30
0.0
 11
17.74110535524923
 21
-1.587500000000008
 31
0.0
  0
LINE
  5
2FA
330
1F
100
AcDbEntity
  8
외형선
  6
Continuous
370
    15
100
AcDbLine
 10
-35.0234851072915
 20
3.174999999999995
 30
0.0
 11
-36.29348510729151
 21
1.904999999999999
 31
0.0
  0
LINE
  5
2FB
330
1F
100
AcDbEntity
  8
외형선
  6
Continuous
370
    15
100
AcDbLine
 10
-36.29348510729151
 20
-1.90500000000001
 30
0.0
 11
-35.0234851072915
 21
-3.175000000000006
 31
0.0
  0
SPLINE
  5
2FC
330
1F
100
AcDbEntity
  8
0
  6
Continuous
 62
     1
370
    15
100
AcDbSpline
210
0.0
220
0.0
230
1.0
 70
     8
 71
     3
 72
    18
 73
    14
 74
     0
 42
0.000000001
 43
0.00000001
 40
0.0
 40
0.0
 40
0.0
 40
0.0
 40
0.0883853443123383
 40
0.1768063120159699
 40
0.2652014765171716
 40
0.3535642365385396
 40
0.4419085192525871
 40
0.530248322244409
 40
0.6185976601899811
 40
0.7157958095163086
 40
0.812997707249123
 40
0.9102040135793357
 40
0.9999999999999999
 40
0.9999999999999999
 40
0.9999999999999999
 40
0.9999999999999999
 10
20.72951489270849
 20
0.2090178238360405
 30
0.0
 10
20.56354534149574
 20
0.3033406050130391
 30
0.0
 10
20.23153934564674
 20
0.4920241838206589
 30
0.0
 10
19.73347205304638
 20
0.7570031970597508
 30
0.0
 10
19.23550001543907
 20
0.9977858219708136
 30
0.0
 10
18.73770796765545
 20
1.205798838781112
 30
0.0
 10
18.24004195237185
 20
1.374410653467405
 30
0.0
 10
17.74240178596766
 20
1.498106280710734
 30
0.0
 10
17.22814298412435
 20
1.575256213486304
 30
0.0
 10
16.69714618434459
 20
1.597614784455485
 30
0.0
 10
16.14953936034135
 20
1.55631291446616
 30
0.0
 10
15.6158215617586
 20
1.46044803723972
 30
0.0
 10
15.26463928740365
 20
1.351552179163809
 30
0.0
 10
15.09600628149089
 20
1.299261852402543
 30
0.0
  0
SPLINE
  5
2FD
330
1F
100
AcDbEntity
  8
0
  6
Continuous
 62
     1
370
    15
100
AcDbSpline
210
0.0
220
0.0
230
1.0
 70
     8
 71
     3
 72
    14
 73
    10
 74
     0
 42
0.000000001
 43
0.00000001
 40
0.0
 40
0.0
 40
0.0
 40
0.0
 40
0.25
 40
0.25
 40
0.5
 40
0.5
 40
0.75
 40
0.75
 40
1.0
 40
1.0
 40
1.0
 40
1.0
 10
20.8565148927085
 20
0.1556023142355709
 30
0.0
 10
20.8565148927085
 20
0.154178889952723
 30
0.0
 10
20.85296035354534
 20
0.1541246139806045
 30
0.0
 10
20.83923473937112
 20
0.1573644725453729
 30
0.0
 10
20.82897678113343
 20
0.1607222308943985
 30
0.0
 10
20.80435948791249
 20
0.1705804503449979
 30
0.0
 10
20.79001113286391
 20
0.1770737355752825
 30
0.0
 10
20.75997550477416
 20
0.1920654565122373
 30
0.0
 10
20.74466534303294
 20
0.2003478864321319
 30
0.0
 10
20.72951489270852
 20
0.2090178238360405
 30
0.0
  0
SPLINE
  5
2FE
330
1F
100
AcDbEntity
  8
0
  6
Continuous
 62
     1
370
    15
100
AcDbSpline
210
0.0
220
0.0
230
1.0
 70
     8
 71
     3
 72
    10
 73
     6
 74
     0
 42
0.000000001
 43
0.00000001
 40
0.0
 40
0.0
 40
0.0
 40
0.0
 40
0.5
 40
0.5
 40
1.0
 40
1.0
 40
1.0
 40
1.0
 10
20.72951489270849
 20
0.7388048119002502
 30
0.0
 10
20.76256972508173
 20
0.7219152565534781
 30
0.0
 10
20.79285347409925
 20
0.697025837088793
 30
0.0
 10
20.84006658405609
 20
0.6425646385786674
 30
0.0
 10
20.8565148927085
 20
0.6131476469013375
 30
0.0
 10
20.8565148927085
 20
0.5913381300875624
 30
0.0
  0
LINE
  5
2FF
330
1F
100
AcDbEntity
  8
0
  6
Continuous
 62
     1
370
    15
100
AcDbLine
 10
20.8565148927085
 20
0.1556023142355709
 30
0.0
 11
20.8565148927085
 21
0.5913381300875624
 31
0.0
  0
SPLINE
  5
300
330
1F
100
AcDbEntity
  8
0
  6
Continuous
 62
     1
370
    15
100
AcDbSpline
210
0.0
220
0.0
230
1.0
 70
     8
 71
     3
 72
    13
 73
     9
 74
     0
 42
0.000000001
 43
0.00000001
 40
0.0
 40
0.0
 40
0.0
 40
0.0
 40
0.0836628069076694
 40
0.2669494016612667
 40
0.4502270733010812
 40
0.633493905829908
 40
0.8167511346506166
 40
1.0
 40
1.0
 40
1.0
 40
1.0
 10
17.74110535524923
 20
1.580998019382845
 30
0.0
 10
17.82444262786254
 20
1.582208889929793
 30
0.0
 10
18.09035332202272
 20
1.586072508423397
 30
0.0
 10
18.5388615621002
 20
1.529319930399706
 30
0.0
 10
19.08657245030624
 20
1.411178770309666
 30
0.0
 10
19.63425127096519
 20
1.233609158972674
 30
0.0
 10
20.18189497325277
 20
1.01019108657462
 30
0.0
 10
20.54697769655353
 20
0.8292655272504899
 30
0.0
 10
20.72951489270852
 20
0.7388048119002502
 30
0.0
  0
CIRCLE
  5
301
330
1F
100
AcDbEntity
  8
해칭선
100
AcDbCircle
 10
0.0
 20
0.0
 30
0.0
 40
3.000000000000001
  0
DIMENSION
  5
302
330
1F
100
AcDbEntity
  8
0
  6
Continuous
370
    15
100
AcDbDimension
  2
*D22
 10
-41.76864130011955
 20
-3.175000000000032
 30
0.0
 11
-41.76864130011957
 21
1.587499999999854
 31
0.0
 70
   160
  1
%%c<>
 71
     2
 42
6.350000000000001
 52
-270.0
  3
SLDDIMSTYLE1
100
AcDbAlignedDimension
 13
-34.9609851072915
 23
3.174999999999995
 33
0.0
 14
-34.8984851072915
 24
-3.175000000000006
 34
0.0
 50
90.0000000000002
100
AcDbRotatedDimension
1001
ACAD
1000
DSTYLE
1002
{
1070
   171
1070
     6
1070
   273
1070
     7
1002
}
1001
ACAD_DSTYLE_DIMFLIPARROW_SYMBOL
1070
   385
1070
     0
1001
ACAD_DSTYLE_DIMFLIPARROW_WHICH_SYMBOL
1070
   386
1070
     3
  0
DIMENSION
  5
303
330
1F
100
AcDbEntity
  8
0
  6
Continuous
370
    15
100
AcDbDimension
  2
*D23
 10
-36.29348510729151
 20
32.96507939495147
 30
0.0
 11
-7.718485107291499
 21
32.96507939495147
 31
0.0
 70
   160
  1
<>
 71
     2
 42
57.15000000000001
  3
SLDDIMSTYLE1
100
AcDbAlignedDimension
 13
20.8565148927085
 23
6.350000000000035
 33
0.0
 14
-36.29348510729151
 24
1.904999999999999
 34
0.0
 50
0.000000000000004
100
AcDbRotatedDimension
1001
ACAD
1000
DSTYLE
1002
{
1070
   171
1070
     6
1070
   273
1070
     7
1002
}
  0
DIMENSION
  5
304
330
1F
100
AcDbEntity
  8
0
  6
Continuous
370
    15
100
AcDbDimension
  2
*D24
 10
8.156514892708508
 20
16.1035134960284
 30
0.0
 11
-7.176735107291491
 21
16.1035134960284
 31
0.0
 70
   160
  1
<>
 71
     2
 42
12.69999999999999
  3
SLDDIMSTYLE1
100
AcDbAlignedDimension
 13
20.8565148927085
 23
6.350000000000035
 33
0.0
 14
8.156514892708508
 24
1.587499999999997
 34
0.0
100
AcDbRotatedDimension
1001
ACAD
1000
DSTYLE
1002
{
1070
   171
1070
     6
1070
   273
1070
     7
1002
}
  0
DIMENSION
  5
305
330
1F
100
AcDbEntity
  8
0
  6
Continuous
370
    15
100
AcDbDimension
  2
*D25
 10
33.62568244787918
 20
-1.587499999999956
 30
0.0
 11
33.62568244787906
 21
23.43325000000006
 31
0.0
 70
   160
  1
%%c<>
 71
     2
 42
3.174999999999998
 52
-270.0
  3
SLDDIMSTYLE1
100
AcDbAlignedDimension
 13
20.8565148927085
 23
1.587499999999997
 33
0.0
 14
20.8565148927085
 24
-1.587500000000001
 34
0.0
 50
90.0000000000002
100
AcDbRotatedDimension
1001
ACAD
1000
DSTYLE
1002
{
1070
   171
1070
     6
1070
   273
1070
     7
1002
}
  0
INSERT
  5
306
330
1F
100
AcDbEntity
  8
해칭선
100
AcDbBlockReference
  2
SW_DOWELSYMBOL_0
 10
0.0
 20
0.0
 30
0.0
  0
SPLINE
  5
307
330
1F
100
AcDbEntity
  8
0
  6
Continuous
 62
     1
370
    15
100
AcDbSpline
210
0.0
220
0.0
230
1.0
 70
  1064
 71
     3
 72
     9
 73
     5
 74
     3
 42
0.000000001
 43
0.0000000001
 44
0.0
 40
0.0
 40
0.0
 40
0.0
 40
0.0
 40
1.084864806212582
 40
2.12052529699674
 40
2.12052529699674
 40
2.12052529699674
 40
2.12052529699674
 10
14.50651489270848
 20
1.465647401903565
 30
0.0
 10
14.14611261221405
 20
1.496250110239866
 30
0.0
 10
13.44165418706536
 20
1.556067533399062
 30
0.0
 10
12.73498439705578
 20
1.577185853122931
 30
0.0
 10
12.38984822604184
 20
1.587499999999997
 30
0.0
 11
14.50651489270848
 21
1.465647401903565
 31
0.0
 11
13.42472925627961
 21
1.54732655820951
 31
0.0
 11
12.38984822604184
 21
1.587499999999997
 31
0.0
  0
SPLINE
  5
308
330
1F
100
AcDbEntity
  8
0
  6
Continuous
 62
     1
370
    15
100
AcDbSpline
210
0.0
220
0.0
230
1.0
 70
  1064
 71
     3
 72
     9
 73
     5
 74
     3
 42
0.000000001
 43
0.0000000001
 44
0.0
 40
0.0
 40
0.0
 40
0.0
 40
0.0
 40
0.9560731790350551
 40
2.12970317948042
 40
2.12970317948042
 40
2.12970317948042
 40
2.12970317948042
 10
14.41279074488444
 20
0.961603209164414
 30
0.0
 10
14.12629692800457
 20
1.10571694315112
 30
0.0
 10
13.4881169161708
 20
1.426737848463045
 30
0.0
 10
12.78004837028347
 20
1.530383362439341
 30
0.0
 10
12.38984822604184
 20
1.587499999999997
 30
0.0
 11
14.41279074488444
 21
0.961603209164414
 31
0.0
 11
13.53922451506668
 21
1.350136304012435
 31
0.0
 11
12.38984822604184
 21
1.587499999999997
 31
0.0
  0
SPLINE
  5
309
330
1F
100
AcDbEntity
  8
0
  6
Continuous
 62
     1
370
    15
100
AcDbSpline
210
0.0
220
0.0
230
1.0
 70
    24
 71
     3
 72
     8
 73
     4
 74
     0
 42
0.000000001
 43
0.0000000001
 40
0.0
 40
0.0
 40
0.0
 40
0.0
 40
0.078300454037379
 40
0.078300454037379
 40
0.078300454037379
 40
0.078300454037379
 10
14.50651489270848
 20
-1.465647401903576
 30
0.0
 10
14.48045788331982
 20
-1.467147455900099
 30
0.0
 10
14.45440087393116
 20
-1.468647509896615
 30
0.0
 10
14.4283438645425
 20
-1.470147563893138
 30
0.0
  0
SPLINE
  5
30A
330
1F
100
AcDbEntity
  8
0
  6
Continuous
 62
     1
370
    15
100
AcDbSpline
210
0.0
220
0.0
230
1.0
 70
     8
 71
     3
 72
     8
 73
     4
 74
     0
 42
0.000000001
 43
0.0000000001
 40
0.0
 40
0.0
 40
0.0
 40
0.0
 40
7.122837189520761
 40
7.122837189520761
 40
7.122837189520761
 40
7.122837189520761
 10
14.50651489270848
 20
-0.6099458527552546
 30
0.0
 10
13.80095933715293
 20
-0.2514112903353496
 30
0.0
 10
13.09540378159739
 20
0.1071232720845625
 30
0.0
 10
12.40980003140019
 20
0.5365547154194896
 30
0.0
  0
SPLINE
  5
30B
330
1F
100
AcDbEntity
  8
0
  6
Continuous
 62
     1
370
    15
100
AcDbSpline
210
0.0
220
0.0
230
1.0
 70
     8
 71
     3
 72
    10
 73
     6
 74
     0
 42
0.000000001
 43
0.00000001
 40
0.2166633805561931
 40
0.2166633805561931
 40
0.2166633805561931
 40
0.2166633805561931
 40
0.3787612894518905
 40
0.7576752372627505
 40
0.9495153929784363
 40
0.9495153929784363
 40
0.9495153929784363
 40
0.9495153929784363
 10
20.3485148927085
 20
1.587499999999992
 30
0.0
 10
19.94761584155246
 20
1.569302320762672
 30
0.0
 10
19.75829215211805
 20
1.539332284432836
 30
0.0
 10
19.56203453112479
 20
1.477679870787481
 30
0.0
 10
19.33357598184084
 20
1.383553120269701
 30
0.0
 10
19.25185615374663
 20
1.354008157769859
 30
0.0
  0
SPLINE
  5
30C
330
1F
100
AcDbEntity
  8
0
  6
Continuous
 62
     1
370
    15
100
AcDbSpline
210
0.0
220
0.0
230
1.0
 70
     8
 71
     3
 72
    17
 73
    13
 74
     0
 42
0.000000001
 43
0.00000001
 40
0.0
 40
0.0
 40
0.0
 40
0.0
 40
0.1014621810699251
 40
0.2028844324849521
 40
0.3042827189041055
 40
0.4056730962801239
 40
0.5070716507370849
 40
0.6084944372055853
 40
0.7099574183085766
 40
0.821542555900308
 40
0.9331222610877735
 40
0.9419087837516374
 40
0.9419087837516374
 40
0.9419087837516374
 40
0.9419087837516374
 10
14.50651489270848
 20
-0.6099458527552546
 30
0.0
 10
14.67252933777555
 20
-0.6964761980421645
 30
0.0
 10
15.00449289421166
 20
-0.8695028352693175
 30
0.0
 10
15.50231252578812
 20
-1.095318841474759
 30
0.0
 10
15.99999509459622
 20
-1.286736691021554
 30
0.0
 10
16.49762989730115
 20
-1.435699691008695
 30
0.0
 10
16.99531374446226
 20
-1.537881274453662
 30
0.0
 10
17.49313772106829
 20
-1.58962506640839
 30
0.0
 10
18.00767746270113
 20
-1.589955024185502
 30
0.0
 10
18.53886011269825
 20
-1.529843221469912
 30
0.0
 10
18.91838933818004
 20
-1.450878312718915
 30
0.0
 10
19.11533635822626
 20
-1.392895061970999
 30
0.0
 10
19.12971313645521
 20
-1.388583671659513
 30
0.0
  0
LINE
  5
30D
330
1F
100
AcDbEntity
  8
외형선
  6
Continuous
370
    15
100
AcDbLine
 10
-36.29348510729151
 20
-1.90500000000001
 30
0.0
 11
-36.29348510729151
 21
-0.000000000000016
 31
0.0
  0
LINE
  5
30E
330
1F
100
AcDbEntity
  8
외형선
  6
Continuous
370
    15
100
AcDbLine
 10
-35.0234851072915
 20
-0.000000000000016
 30
0.0
 11
-35.0234851072915
 21
3.174999999999995
 31
0.0
  0
LINE
  5
30F
330
1F
100
AcDbEntity
  8
외형선
  6
Continuous
370
    15
100
AcDbLine
 10
-35.0234851072915
 20
-3.175000000000006
 30
0.0
 11
-35.0234851072915
 21
-0.000000000000016
 31
0.0
  0
LINE
  5
310
330
1F
100
AcDbEntity
  8
0
  6
Continuous
 62
     1
370
    15
100
AcDbLine
 10
20.8565148927085
 20
0.5913381300875624
 30
0.0
 11
20.8565148927085
 21
1.079499999999992
 31
0.0
  0
LINE
  5
311
330
1F
100
AcDbEntity
  8
0
  6
Continuous
 62
     1
370
    15
100
AcDbLine
 10
20.8565148927085
 20
-1.079499999999996
 30
0.0
 11
20.8565148927085
 21
0.1556023142355638
 31
0.0
  0
SPLINE
  5
312
330
1F
100
AcDbEntity
  8
0
  6
Continuous
 62
     1
370
    15
100
AcDbSpline
210
0.0
220
0.0
230
1.0
 70
     8
 71
     3
 72
    38
 73
    34
 74
     0
 42
0.000000001
 43
0.00000001
 40
0.0385281325636126
 40
0.0385281325636126
 40
0.0385281325636126
 40
0.0385281325636126
 40
0.0625
 40
0.0625
 40
0.125
 40
0.125
 40
0.1875
 40
0.1875
 40
0.25
 40
0.25
 40
0.3124999999999999
 40
0.3124999999999999
 40
0.3749999999999999
 40
0.3749999999999999
 40
0.4375
 40
0.4375
 40
0.5
 40
0.5
 40
0.5625
 40
0.5625
 40
0.625
 40
0.625
 40
0.6875
 40
0.6875
 40
0.75
 40
0.75
 40
0.8125000000000001
 40
0.8125000000000001
 40
0.8750000000000001
 40
0.8750000000000001
 40
0.9375000000000001
 40
0.9375000000000001
 40
1.0
 40
1.0
 40
1.0
 40
1.0
 10
20.78736839235915
 20
-1.335374199254986
 30
0.0
 10
20.43942944624834
 20
-1.319840268105221
 30
0.0
 10
20.38965831291316
 20
-1.303657777496017
 30
0.0
 10
20.21072956298526
 20
-1.243067251732649
 30
0.0
 10
20.08122847588953
 20
-1.194964849755275
 30
0.0
 10
19.82127821556172
 20
-1.090987760915114
 30
0.0
 10
19.69246211754336
 20
-1.035343369337477
 30
0.0
 10
19.43301507278403
 20
-0.91727831756147
 30
0.0
 10
19.30256193999043
 20
-0.8548632694003988
 30
0.0
 10
19.04409200821731
 20
-0.7251546641100877
 30
0.0
 10
18.914401788067
 20
-0.6575902637924091
 30
0.0
 10
18.65448938937725
 20
-0.518428558307841
 30
0.0
 10
18.52573274682338
 20
-0.4471023107943229
 30
0.0
 10
18.26617880462077
 20
-0.3015761586858705
 30
0.0
 10
18.13574778152324
 20
-0.2274371713597479
 30
0.0
 10
17.87747100976254
 20
-0.0786302538292692
 30
0.0
 10
17.74757181486864
 20
-0.0035705888939806
 30
0.0
 10
17.48770890454345
 20
0.146086783594475
 30
0.0
 10
17.35899173697764
 20
0.2204448515393888
 30
0.0
 10
17.09934247063554
 20
0.3676208206207559
 30
0.0
 10
16.96893944111076
 20
0.440330069786901
 30
0.0
 10
16.71086721305547
 20
0.5818362948786895
 30
0.0
 10
16.58073923274704
 20
0.6510826948074833
 30
0.0
 10
16.32093743013206
 20
0.7846879353574732
 30
0.0
 10
16.1922397512016
 20
0.8488930830604939
 30
0.0
 10
15.93250674822173
 20
0.9716084027225502
 30
0.0
 10
15.80214312557271
 20
1.029989052338655
 30
0.0
 10
15.54427571127557
 20
1.139106200598688
 30
0.0
 10
15.41390471854281
 20
1.190245332493424
 30
0.0
 10
15.15417563387223
 20
1.284102650203577
 30
0.0
 10
15.02547745432315
 20
1.326770697108264
 30
0.0
 10
14.76567231468443
 20
1.403249487766947
 30
0.0
 10
14.63555626446542
 20
1.436933686593553
 30
0.0
 10
14.50651489270848
 20
1.465647401903565
 30
0.0
  0
SPLINE
  5
313
330
1F
100
AcDbEntity
  8
0
  6
Continuous
 62
     1
370
    15
100
AcDbSpline
210
0.0
220
0.0
230
1.0
 70
     8
 71
     3
 72
    36
 73
    32
 74
     0
 42
0.000000001
 43
0.00000001
 40
0.0215007480411332
 40
0.0215007480411332
 40
0.0215007480411332
 40
0.0215007480411332
 40
0.0625
 40
0.0625
 40
0.125
 40
0.125
 40
0.1875
 40
0.1875
 40
0.25
 40
0.25
 40
0.3125
 40
0.3125
 40
0.375
 40
0.375
 40
0.4375
 40
0.4375
 40
0.5
 40
0.5
 40
0.5625
 40
0.5625
 40
0.625
 40
0.625
 40
0.6875
 40
0.6875
 40
0.75
 40
0.75
 40
0.8125
 40
0.8125
 40
0.875
 40
0.875
 40
0.9232464229860721
 40
0.9232464229860721
 40
0.9232464229860721
 40
0.9232464229860721
 10
20.30182697519624
 20
-1.585350015674967
 30
0.0
 10
19.89817563468435
 20
-1.560057593290497
 30
0.0
 10
19.78763274339389
 20
-1.539736745840886
 30
0.0
 10
19.63922956298526
 20
-1.508265051891011
 30
0.0
 10
19.50972847588952
 20
-1.482956981602685
 30
0.0
 10
19.24977821556171
 20
-1.422550387272454
 30
0.0
 10
19.12096211754334
 20
-1.387593601352075
 30
0.0
 10
18.86151507278404
 20
-1.308518910495062
 30
0.0
 10
18.73106193999041
 20
-1.264388872366377
 30
0.0
 10
18.47259200821731
 20
-1.16829375226533
 30
0.0
 10
18.342901788067
 20
-1.116134346835859
 30
0.0
 10
18.08298938937723
 20
-1.004640378737337
 30
0.0
 10
17.95423274682338
 20
-0.9455310744150243
 30
0.0
 10
17.69467880462075
 20
-0.8211045294607633
 30
0.0
 10
17.56424778152324
 20
-0.7558259902554116
 30
0.0
 10
17.30597100976256
 20
-0.6211137351077927
 30
0.0
 10
17.17607181486864
 20
-0.5513292113025816
 30
0.0
 10
16.91620890454345
 20
-0.4085308121933142
 30
0.0
 10
16.78749173697764
 20
-0.3357551206706848
 30
0.0
 10
16.52784247063553
 20
-0.188039954396837
 30
0.0
 10
16.39743944111077
 20
-0.1131959759319745
 30
0.0
 10
16.1393672130555
 20
0.0362238707243474
 30
0.0
 10
16.00923923274705
 20
0.1112722299109148
 30
0.0
 10
15.74943743013207
 20
0.2600409399138339
 30
0.0
 10
15.62073975120162
 20
0.333577240147255
 30
0.0
 10
15.36100674822173
 20
0.4783799045316126
 30
0.0
 10
15.23064312557269
 20
0.5495098121582753
 30
0.0
 10
14.97277571127558
 20
0.687133915246589
 30
0.0
 10
14.84240471854281
 20
0.7541360037076057
 30
0.0
 10
14.61229218196112
 20
0.8678502257042933
 30
0.0
 10
14.51273921820982
 20
0.915651180934054
 30
0.0
 10
14.41279074488444
 20
0.961603209164414
 30
0.0
  0
LINE
  5
314
330
1F
100
AcDbEntity
  8
외형선
  6
Continuous
370
    15
100
AcDbLine
 10
8.156514892708508
 20
1.587499999999997
 30
0.0
 11
8.156514892708508
 21
-1.587500000000001
 31
0.0
  0
LINE
  5
315
330
1F
100
AcDbEntity
  8
0
  6
Continuous
 62
     1
370
    15
100
AcDbLine
 10
12.38984822604182
 20
-1.587500000000008
 30
0.0
 11
13.35762324905753
 21
-1.587500000000008
 31
0.0
  0
SPLINE
  5
316
330
1F
100
AcDbEntity
  8
0
  6
Continuous
 62
     1
370
    15
100
AcDbSpline
210
0.0
220
0.0
230
1.0
 70
     8
 71
     3
 72
    11
 73
     7
 74
     0
 42
0.000000001
 43
0.00000001
 40
0.6502496582516407
 40
0.6502496582516407
 40
0.6502496582516407
 40
0.6502496582516407
 40
0.7157958095163086
 40
0.812997707249123
 40
0.9102040135793357
 40
0.9999999999999999
 40
0.9999999999999999
 40
0.9999999999999999
 40
0.9999999999999999
 10
12.68294828835804
 20
1.578531139030657
 30
0.0
 10
12.55985983637625
 20
1.586110843453772
 30
0.0
 10
12.25422487207785
 20
1.593131731553347
 30
0.0
 10
11.76605725414966
 20
1.55631291446616
 30
0.0
 10
11.2323394555669
 20
1.46044803723972
 30
0.0
 10
10.88115718121195
 20
1.351552179163809
 30
0.0
 10
10.71252417529919
 20
1.299261852402543
 30
0.0
  0
SPLINE
  5
317
330
1F
100
AcDbEntity
  8
0
  6
Continuous
 62
     1
370
    15
100
AcDbSpline
210
0.0
220
0.0
230
1.0
 70
     8
 71
     3
 72
    12
 73
     8
 74
     0
 42
0.000000001
 43
0.00000001
 40
0.0
 40
0.0
 40
0.0
 40
0.0
 40
0.0336043751568623
 40
0.2751852123009221
 40
0.5167770063570851
 40
0.7583813926085566
 40
1.0
 40
1.0
 40
1.0
 40
1.0
 10
12.38984822604182
 20
-1.583737819331257
 30
0.0
 10
12.36445715321173
 20
-1.584946890513836
 30
0.0
 10
12.15653042537693
 20
-1.594847937877825
 30
0.0
 10
11.76605590414002
 20
-1.553409263088748
 30
0.0
 10
11.21841377708645
 20
-1.455650931240216
 30
0.0
 10
10.67073754314134
 20
-1.297375616365885
 30
0.0
 10
10.30560462065056
 20
-1.151057883291758
 30
0.0
 10
10.1230327865168
 20
-1.077896863706316
 30
0.0
  0
SPLINE
  5
318
330
1F
100
AcDbEntity
  8
0
  6
Continuous
 62
     1
370
    15
100
AcDbSpline
210
0.0
220
0.0
230
1.0
 70
     8
 71
     3
 72
     9
 73
     5
 74
     0
 42
0.000000001
 43
0.00000001
 40
0.0
 40
0.0
 40
0.0
 40
0.0
 40
0.8448440348887941
 40
1.0
 40
1.0
 40
1.0
 40
1.0
 10
10.12303278651679
 20
-1.465647401903576
 30
0.0
 10
10.28904975405636
 20
-1.427182755207342
 30
0.0
 10
10.48555580805412
 20
-1.38165405984134
 30
0.0
 10
10.68203868491243
 20
-1.31032844674038
 30
0.0
 10
10.71252417529918
 20
-1.299261852402561
 30
0.0
  0
SPLINE
  5
319
330
1F
100
AcDbEntity
  8
0
  6
Continuous
 62
     1
370
    15
100
AcDbSpline
210
0.0
220
0.0
230
1.0
 70
     8
 71
     3
 72
     9
 73
     5
 74
     0
 42
0.000000001
 43
0.0000000001
 40
0.0
 40
0.0
 40
0.0
 40
0.0
 40
1.084864806212584
 40
1.970338374819774
 40
1.970338374819774
 40
1.970338374819774
 40
1.970338374819774
 10
10.12303278651679
 20
1.465647401903565
 30
0.0
 10
9.762630506022354
 20
1.496250110239861
 30
0.0
 10
9.108065587366866
 20
1.551830944149428
 30
0.0
 10
8.45159145246896
 20
1.574000305283574
 30
0.0
 10
8.156514892708728
 20
1.582984712622517
 30
0.0
  0
SPLINE
  5
31A
330
1F
100
AcDbEntity
  8
0
  6
Continuous
 62
     1
370
    15
100
AcDbSpline
210
0.0
220
0.0
230
1.0
 70
     8
 71
     3
 72
     9
 73
     5
 74
     0
 42
0.000000001
 43
0.0000000001
 40
0.0
 40
0.0
 40
0.0
 40
0.0
 40
0.9560731790350595
 40
1.979120869741537
 40
1.979120869741537
 40
1.979120869741537
 40
1.979120869741537
 10
10.02930863869275
 20
0.961603209164414
 30
0.0
 10
9.742814821812871
 20
1.105716943151121
 30
0.0
 10
9.149757821080854
 20
1.404039817177702
 30
0.0
 10
8.49634593776294
 20
1.51463996388154
 30
0.0
 10
8.156514892708508
 20
1.565375559288162
 30
0.0
  0
SPLINE
  5
31B
330
1F
100
AcDbEntity
  8
0
  6
Continuous
 62
     1
370
    15
100
AcDbSpline
210
0.0
220
0.0
230
1.0
 70
    24
 71
     3
 72
     8
 73
     4
 74
     0
 42
0.000000001
 43
0.0000000001
 40
0.0
 40
0.0
 40
0.0
 40
0.0
 40
1.96977380968896
 40
1.96977380968896
 40
1.96977380968896
 40
1.96977380968896
 10
10.12303278651679
 20
-1.465647401903576
 30
0.0
 10
9.467526821914028
 20
-1.503383671913605
 30
0.0
 10
8.812020857311268
 20
-1.541119941923627
 30
0.0
 10
8.156514892708515
 20
-1.578856211933657
 30
0.0
  0
SPLINE
  5
31C
330
1F
100
AcDbEntity
  8
0
  6
Continuous
 62
     1
370
    15
100
AcDbSpline
210
0.0
220
0.0
230
1.0
 70
    24
 71
     3
 72
     8
 73
     4
 74
     0
 42
0.000000001
 43
0.0000000001
 40
0.0
 40
0.0
 40
0.0
 40
0.0
 40
6.617568561201163
 40
6.617568561201163
 40
6.617568561201163
 40
6.617568561201163
 10
10.12303278651679
 20
-0.6099458527552546
 30
0.0
 10
9.467526821914028
 20
-0.2768444515517192
 30
0.0
 10
8.812020857311268
 20
0.056256949651809
 30
0.0
 10
8.156514892708508
 20
0.3893583508553444
 30
0.0
  0
SPLINE
  5
31D
330
1F
100
AcDbEntity
  8
0
  6
Continuous
 62
     1
370
    15
100
AcDbSpline
210
0.0
220
0.0
230
1.0
 70
     8
 71
     3
 72
    17
 73
    13
 74
     0
 42
0.000000001
 43
0.00000001
 40
0.0
 40
0.0
 40
0.0
 40
0.0
 40
0.1014621810699251
 40
0.2028844324849521
 40
0.3042827189041055
 40
0.4056730962801239
 40
0.5070716507370849
 40
0.6084944372055853
 40
0.7099574183085766
 40
0.821542555900308
 40
0.9331222610877735
 40
0.9419087837516374
 40
0.9419087837516374
 40
0.9419087837516374
 40
0.9419087837516374
 10
10.12303278651679
 20
-0.6099458527552546
 30
0.0
 10
10.28904723158385
 20
-0.6964761980421645
 30
0.0
 10
10.62101078801996
 20
-0.8695028352693175
 30
0.0
 10
11.11883041959642
 20
-1.095318841474759
 30
0.0
 10
11.61651298840452
 20
-1.286736691021554
 30
0.0
 10
12.11414779110945
 20
-1.435699691008695
 30
0.0
 10
12.61183163827056
 20
-1.537881274453662
 30
0.0
 10
13.1096556148766
 20
-1.58962506640839
 30
0.0
 10
13.62419535650944
 20
-1.589955024185502
 30
0.0
 10
14.15537800650654
 20
-1.529843221469912
 30
0.0
 10
14.53490723198835
 20
-1.450878312718915
 30
0.0
 10
14.73185425203456
 20
-1.392895061970999
 30
0.0
 10
14.74623103026351
 20
-1.388583671659513
 30
0.0
  0
SPLINE
  5
31E
330
1F
100
AcDbEntity
  8
0
  6
Continuous
 62
     1
370
    15
100
AcDbSpline
210
0.0
220
0.0
230
1.0
 70
     8
 71
     3
 72
    36
 73
    32
 74
     0
 42
0.000000001
 43
0.00000001
 40
0.0111189049821518
 40
0.0111189049821518
 40
0.0111189049821518
 40
0.0111189049821518
 40
0.0625
 40
0.0625
 40
0.125
 40
0.125
 40
0.1875
 40
0.1875
 40
0.25
 40
0.25
 40
0.3125
 40
0.3125
 40
0.375
 40
0.375
 40
0.4375
 40
0.4375
 40
0.5
 40
0.5
 40
0.5625
 40
0.5625
 40
0.625
 40
0.625
 40
0.6875
 40
0.6875
 40
0.75
 40
0.75
 40
0.8125
 40
0.8125
 40
0.875
 40
0.875
 40
0.9232464229860721
 40
0.9232464229860721
 40
0.9232464229860721
 40
0.9232464229860721
 10
16.13436611985014
 20
-1.587500000000001
 30
0.0
 10
15.57399554694898
 20
-1.570852494183877
 30
0.0
 10
15.41903672091096
 20
-1.542893620709103
 30
0.0
 10
15.25574745679356
 20
-1.508265051891011
 30
0.0
 10
15.12624636969782
 20
-1.482956981602685
 30
0.0
 10
14.86629610937001
 20
-1.422550387272454
 30
0.0
 10
14.73748001135165
 20
-1.387593601352075
 30
0.0
 10
14.47803296659234
 20
-1.308518910495062
 30
0.0
 10
14.34757983379872
 20
-1.264388872366377
 30
0.0
 10
14.08910990202561
 20
-1.16829375226533
 30
0.0
 10
13.95941968187529
 20
-1.116134346835859
 30
0.0
 10
13.69950728318554
 20
-1.004640378737337
 30
0.0
 10
13.57075064063168
 20
-0.9455310744150243
 30
0.0
 10
13.31119669842905
 20
-0.8211045294607633
 30
0.0
 10
13.18076567533154
 20
-0.7558259902554116
 30
0.0
 10
12.92248890357086
 20
-0.6211137351077927
 30
0.0
 10
12.79258970867694
 20
-0.5513292113025816
 30
0.0
 10
12.53272679835176
 20
-0.4085308121933142
 30
0.0
 10
12.40400963078595
 20
-0.3357551206706848
 30
0.0
 10
12.14436036444383
 20
-0.188039954396837
 30
0.0
 10
12.01395733491907
 20
-0.1131959759319745
 30
0.0
 10
11.7558851068638
 20
0.0362238707243474
 30
0.0
 10
11.62575712655535
 20
0.1112722299109148
 30
0.0
 10
11.36595532394037
 20
0.2600409399138339
 30
0.0
 10
11.23725764500992
 20
0.333577240147255
 30
0.0
 10
10.97752464203003
 20
0.4783799045316126
 30
0.0
 10
10.84716101938099
 20
0.5495098121582753
 30
0.0
 10
10.58929360508388
 20
0.687133915246589
 30
0.0
 10
10.45892261235112
 20
0.7541360037076057
 30
0.0
 10
10.22881007576942
 20
0.8678502257042933
 30
0.0
 10
10.12925711201812
 20
0.915651180934054
 30
0.0
 10
10.02930863869275
 20
0.961603209164414
 30
0.0
  0
SPLINE
  5
31F
330
1F
100
AcDbEntity
  8
0
  6
Continuous
 62
     1
370
    15
100
AcDbSpline
210
0.0
220
0.0
230
1.0
 70
     8
 71
     3
 72
     8
 73
     4
 74
     0
 42
0.000000001
 43
0.0000000001
 40
0.0
 40
0.0
 40
0.0
 40
0.0
 40
4.375321817529858
 40
4.375321817529858
 40
4.375321817529858
 40
4.375321817529858
 10
10.1230327865168
 20
-1.077896863706316
 30
0.0
 10
9.687964018948193
 20
-0.8609776498271788
 30
0.0
 10
9.252895251379584
 20
-0.6440584359480415
 30
0.0
 10
8.156514892708508
 20
-0.0960008770150314
 30
0.0
  0
SPLINE
  5
320
330
1F
100
AcDbEntity
  8
0
  6
Continuous
 62
     1
370
    15
100
AcDbSpline
210
0.0
220
0.0
230
1.0
 70
     8
 71
     3
 72
    18
 73
    14
 74
     0
 42
0.000000001
 43
0.00000001
 40
0.6325198695765026
 40
0.6325198695765026
 40
0.6325198695765026
 40
0.6325198695765026
 40
0.6875
 40
0.6875
 40
0.75
 40
0.75
 40
0.8125000000000001
 40
0.8125000000000001
 40
0.8750000000000001
 40
0.8750000000000001
 40
0.9375000000000001
 40
0.9375000000000001
 40
1.0
 40
1.0
 40
1.0
 40
1.0
 10
12.40980003140019
 20
0.5365547154194896
 30
0.0
 10
12.29607494006474
 20
0.5984640824217404
 30
0.0
 10
12.18162772118411
 20
0.6591202466768689
 30
0.0
 10
11.93745532394037
 20
0.7846879353574732
 30
0.0
 10
11.8087576450099
 20
0.8488930830604939
 30
0.0
 10
11.54902464203003
 20
0.9716084027225502
 30
0.0
 10
11.41866101938101
 20
1.029989052338655
 30
0.0
 10
11.16079360508387
 20
1.139106200598688
 30
0.0
 10
11.03042261235111
 20
1.190245332493424
 30
0.0
 10
10.77069352768054
 20
1.284102650203577
 30
0.0
 10
10.64199534813146
 20
1.326770697108264
 30
0.0
 10
10.38219020849273
 20
1.403249487766947
 30
0.0
 10
10.25207415827372
 20
1.436933686593553
 30
0.0
 10
10.12303278651679
 20
1.465647401903565
 30
0.0
  0
SPLINE
  5
321
330
1F
100
AcDbEntity
  8
0
  6
Continuous
 62
     1
370
    15
100
AcDbSpline
210
0.0
220
0.0
230
1.0
 70
    24
 71
     3
 72
     8
 73
     4
 74
     0
 42
0.000000001
 43
0.0000000001
 40
2.100186341143633
 40
2.100186341143633
 40
2.100186341143633
 40
2.100186341143633
 40
2.120171180221194
 40
2.120171180221194
 40
2.120171180221194
 40
2.120171180221194
 10
12.4098000314002
 20
-1.586351411345065
 30
0.0
 10
12.40314942961408
 20
-1.586734274230049
 30
0.0
 10
12.39649882782796
 20
-1.587117137115025
 30
0.0
 10
12.38984822604184
 20
-1.587500000000008
 30
0.0
  0
LINE
  5
322
330
1F
100
AcDbEntity
  8
0
  6
Continuous
 62
     1
370
    15
100
AcDbLine
 10
16.77333033223352
 20
-1.587500000000008
 30
0.0
 11
16.13436611985014
 21
-1.587500000000001
 31
0.0
  0
LINE
  5
325
330
1F
100
AcDbEntity
  8
외형선
  6
Continuous
370
    15
100
AcDbLine
 10
2.0
 20
3.174999999999997
 30
0.0
 11
2.0
 21
-3.174999999999997
 31
0.0
  0
LINE
  5
329
330
1F
100
AcDbEntity
  8
외형선
  6
Continuous
370
    15
100
AcDbLine
 10
-36.29348510729151
 20
-0.000000000000016
 30
0.0
 11
-36.29348510729151
 21
1.904999999999999
 31
0.0
  0
LINE
  5
32A
330
1F
100
AcDbEntity
  8
외형선
  6
Continuous
370
    15
100
AcDbLine
 10
-35.0234851072915
 20
-3.175000000000006
 30
0.0
 11
1.999999999999994
 21
-3.175000000000006
 31
0.0
  0
LINE
  5
32B
330
1F
100
AcDbEntity
  8
외형선
  6
Continuous
370
    15
100
AcDbLine
 10
2.000000000000002
 20
3.174999999999995
 30
0.0
 11
-35.0234851072915
 21
3.174999999999995
 31
0.0
  0
LINE
  5
32C
330
1F
100
AcDbEntity
  8
중심선
 48
0.8
100
AcDbLine
 10
-39.29348510729151
 20
-0.0000000000000089
 30
0.0
 11
23.8565148927085
 21
-0.0000000000000018
 31
0.0
  0
ARC
  5
36B
330
1F
100
AcDbEntity
  8
0
  6
Continuous
 62
     1
370
    15
100
AcDbCircle
 10
20.3485148927085
 20
1.079499999999992
 30
0.0
 40
0.508
100
AcDbArc
 50
0.0
 51
95.27322995205289
  0
ARC
  5
36C
330
1F
100
AcDbEntity
  8
0
  6
Continuous
 62
     1
370
    15
100
AcDbCircle
 10
20.3485148927085
 20
-1.079499999999996
 30
0.0
 40
0.508
100
AcDbArc
 50
264.7267700479471
 51
0.0
  0
DIMENSION
  5
36D
330
1F
100
AcDbEntity
  8
0
  6
Continuous
370
    15
100
AcDbDimension
  2
*D27
 10
20.3485148927085
 20
-1.079499999999996
 30
0.0
 11
31.01688169160763
 21
-23.98518505647989
 31
0.0
 70
   164
  1
<>
 71
     5
 42
0.5080000000000043
  3
SLDDIMSTYLE1
100
AcDbRadialDimension
 15
20.56299473732935
 25
-1.54000233034309
 35
0.0
 40
0.0
1001
ACAD
1000
DSTYLE
1002
{
1070
    78
1070
     0
1070
   171
1070
     2
1070
   273
1070
     2
1002
}
1001
ACAD_DSTYLE_DIMRADIAL_EXTENSION
1070
   387
1070
     1
1070
   388
1040
4.620353755506584
1070
   390
1040
0.0
  0
ARC
  5
39F
330
1F
100
AcDbEntity
  8
외형선
  6
Continuous
370
    15
100
AcDbCircle
 10
8.156514892708731
 20
14.28298471262252
 30
0.0
 40
12.7
100
AcDbArc
 50
241.0029261350195
 51
269.999999999999
1001
PE_URL
1000

  0
ARC
  5
3A3
330
1F
100
AcDbEntity
  8
외형선
  6
Continuous
370
    15
100
AcDbCircle
 10
8.156514892708753
 20
-14.28298471262252
 30
0.0
 40
12.7
100
AcDbArc
 50
90.00000000000112
 51
118.9970738649806
1001
PE_URL
1000

  0
ENDSEC
  0
SECTION
  2
OBJECTS
  0
DICTIONARY
  5
C
330
0
100
AcDbDictionary
281
     1
  3
ACAD_GROUP
350
D
  3
ACAD_IMAGE_VARS
350
139
  3
ACAD_LAYOUT
350
1A
  3
ACAD_MLINESTYLE
350
17
  3
ACAD_PLOTSETTINGS
350
19
  3
ACAD_PLOTSTYLENAME
350
E
  3
ACAD_SCALELIST
350
47
  3
APPDATA
350
137
  3
DWGPROPS
350
3A7
  0
DICTIONARY
  5
1DD
330
2
100
AcDbDictionary
280
     1
281
     1
  3
ACAD_LAYERSTATES
360
1DE
  0
DICTIONARY
  5
3A0
330
1F
100
AcDbDictionary
280
     1
281
     1
  3
ACAD_SORTENTS
360
3A1
  3
DIM_BOUNDING_BOXES_V1
360
3A6
  0
DICTIONARY
  5
D
102
{ACAD_REACTORS
330
C
102
}
330
C
100
AcDbDictionary
281
     1
  0
RASTERVARIABLES
  5
139
102
{ACAD_REACTORS
330
C
102
}
330
C
100
AcDbRasterVariables
 90
        0
 70
     1
 71
     1
 72
     1
  0
DICTIONARY
  5
1A
102
{ACAD_REACTORS
330
C
102
}
330
C
100
AcDbDictionary
281
     1
  3
Layout1
350
1E
  3
Layout2
350
26
  3
Model
350
22
  0
DICTIONARY
  5
17
102
{ACAD_REACTORS
330
C
102
}
330
C
100
AcDbDictionary
281
     1
  3
Standard
350
18
  0
DICTIONARY
  5
19
102
{ACAD_REACTORS
330
C
102
}
330
C
100
AcDbDictionary
281
     1
  0
ACDBDICTIONARYWDFLT
  5
E
102
{ACAD_REACTORS
330
C
102
}
330
C
100
AcDbDictionary
281
     1
  3
Normal
350
F
100
AcDbDictionaryWithDefault
340
F
  0
DICTIONARY
  5
47
102
{ACAD_REACTORS
330
C
102
}
330
C
100
AcDbDictionary
281
     1
  3
A0
350
48
  3
A1
350
49
  3
A2
350
4A
  3
A3
350
4B
  3
A4
350
4C
  3
A5
350
4D
  3
A6
350
4E
  3
A7
350
4F
  3
A8
350
50
  3
A9
350
51
  3
B0
350
52
  3
B1
350
53
  3
B2
350
54
  3
B3
350
55
  3
B4
350
56
  3
B5
350
57
  3
B6
350
58
  3
B7
350
59
  3
B8
350
5A
  3
B9
350
5B
  3
C0
350
5C
  3
C1
350
5D
  3
C2
350
5E
  3
C3
350
5F
  3
C4
350
60
  3
C5
350
61
  3
C6
350
62
  3
C7
350
63
  3
C8
350
64
  3
C9
350
65
  3
D0
350
66
  3
D1
350
67
  3
D2
350
68
  0
DICTIONARY
  5
137
102
{ACAD_REACTORS
330
C
102
}
330
C
100
AcDbDictionary
281
     1
  0
XRECORD
  5
3A7
102
{ACAD_REACTORS
330
C
102
}
330
C
100
AcDbXrecord
280
     1
  1
DWGPROPS COOKIE
  2

  3

  4

  6

  7

  8
12016016
  9

300
=
301
=
302
=
303
=
304
=
305
=
306
=
307
=
308
=
309
=
 40
0.0
 41
2458296.324889248
 42
2459703.272610139
  1

 90
        0
  0
DICTIONARY
  5
1DE
102
{ACAD_REACTORS
330
1DD
102
}
330
1DD
100
AcDbDictionary
281
     1
  0
SORTENTSTABLE
  5
3A1
102
{ACAD_REACTORS
330
3A0
102
}
330
3A0
100
AcDbSortentsTable
330
1F
  0
DICTIONARY
  5
3A6
102
{ACAD_REACTORS
330
3A0
102
}
330
3A0
100
AcDbDictionary
281
     1
  0
LAYOUT
  5
1E
102
{ACAD_REACTORS
330
1A
102
}
330
1A
100
AcDbPlotSettings
  1

  2
none_device
  4

  6

 40
0.0
 41
0.0
 42
0.0
 43
0.0
 44
0.0
 45
0.0
 46
0.0
 47
0.0
 48
0.0
 49
0.0
140
0.0
141
0.0
142
1.0
143
1.0
 70
   688
 72
     1
 73
     0
 74
     5
  7

 75
    16
147
1.0
148
0.0
149
0.0
100
AcDbLayout
  1
Layout1
 70
     1
 71
     1
 10
0.0
 20
0.0
 11
420.0
 21
297.0
 12
0.0
 22
0.0
 32
0.0
 14
1.000000000000000E+20
 24
1.000000000000000E+20
 34
1.000000000000000E+20
 15
-1.000000000000000E+20
 25
-1.000000000000000E+20
 35
-1.000000000000000E+20
146
0.0
 13
0.0
 23
0.0
 33
0.0
 16
1.0
 26
0.0
 36
0.0
 17
0.0
 27
1.0
 37
0.0
 76
     0
330
1B
  0
LAYOUT
  5
26
102
{ACAD_REACTORS
330
1A
102
}
330
1A
100
AcDbPlotSettings
  1

  2
none_device
  4

  6

 40
0.0
 41
0.0
 42
0.0
 43
0.0
 44
0.0
 45
0.0
 46
0.0
 47
0.0
 48
0.0
 49
0.0
140
0.0
141
0.0
142
1.0
143
1.0
 70
   688
 72
     1
 73
     0
 74
     5
  7

 75
    16
147
1.0
148
0.0
149
0.0
100
AcDbLayout
  1
Layout2
 70
     1
 71
     2
 10
0.0
 20
0.0
 11
0.0
 21
0.0
 12
0.0
 22
0.0
 32
0.0
 14
0.0
 24
0.0
 34
0.0
 15
0.0
 25
0.0
 35
0.0
146
0.0
 13
0.0
 23
0.0
 33
0.0
 16
1.0
 26
0.0
 36
0.0
 17
0.0
 27
1.0
 37
0.0
 76
     0
330
23
  0
LAYOUT
  5
22
102
{ACAD_REACTORS
330
1A
102
}
330
1A
100
AcDbPlotSettings
  1

  2
none_device
  4
ANSI_A_(11.00_x_8.50_Inches)
  6

 40
6.35
 41
19.05
 42
6.35000508
 43
19.05000254
 44
279.4
 45
215.9
 46
109.4444827120707
 47
100.4304516308396
 48
0.0
 49
0.0
140
0.0
141
0.0
142
0.0797139469389385
143
1.0
 70
  1696
 72
     0
 73
     0
 74
     0
  7

 75
     0
147
0.0235690232323232
148
0.0
149
0.0
100
AcDbLayout
  1
Model
 70
     1
 71
     0
 10
0.0
 20
0.0
 11
420.0
 21
297.0
 12
0.0
 22
0.0
 32
0.0
 14
-46.1436413001196
 24
-49.97073246008785
 34
0.0
 15
80.11348381534562
 25
37.34007939495148
 35
0.0
146
0.0
 13
0.0
 23
0.0
 33
0.0
 16
1.0
 26
0.0
 36
0.0
 17
0.0
 27
1.0
 37
0.0
 76
     0
330
1F
331
29
  0
MLINESTYLE
  5
18
102
{ACAD_REACTORS
330
17
102
}
330
17
100
AcDbMlineStyle
  2
Standard
 70
     0
  3

 62
   256
 51
90.0
 52
90.0
 71
     2
 49
0.5
 62
   256
  6
BYLAYER
 49
-0.5
 62
   256
  6
BYLAYER
  0
ACDBPLACEHOLDER
  5
F
102
{ACAD_REACTORS
330
E
102
}
330
E
  0
SCALE
  5
48
102
{ACAD_REACTORS
330
47
102
}
330
47
100
AcDbScale
 70
     0
300
1:1
140
1.0
141
1.0
290
     1
  0
SCALE
  5
49
102
{ACAD_REACTORS
330
47
102
}
330
47
100
AcDbScale
 70
     0
300
1:2
140
1.0
141
2.0
290
     0
  0
SCALE
  5
4A
102
{ACAD_REACTORS
330
47
102
}
330
47
100
AcDbScale
 70
     0
300
1:4
140
1.0
141
4.0
290
     0
  0
SCALE
  5
4B
102
{ACAD_REACTORS
330
47
102
}
330
47
100
AcDbScale
 70
     0
300
1:5
140
1.0
141
5.0
290
     0
  0
SCALE
  5
4C
102
{ACAD_REACTORS
330
47
102
}
330
47
100
AcDbScale
 70
     0
300
1:8
140
1.0
141
8.0
290
     0
  0
SCALE
  5
4D
102
{ACAD_REACTORS
330
47
102
}
330
47
100
AcDbScale
 70
     0
300
1:10
140
1.0
141
10.0
290
     0
  0
SCALE
  5
4E
102
{ACAD_REACTORS
330
47
102
}
330
47
100
AcDbScale
 70
     0
300
1:16
140
1.0
141
16.0
290
     0
  0
SCALE
  5
4F
102
{ACAD_REACTORS
330
47
102
}
330
47
100
AcDbScale
 70
     0
300
1:20
140
1.0
141
20.0
290
     0
  0
SCALE
  5
50
102
{ACAD_REACTORS
330
47
102
}
330
47
100
AcDbScale
 70
     0
300
1:30
140
1.0
141
30.0
290
     0
  0
SCALE
  5
51
102
{ACAD_REACTORS
330
47
102
}
330
47
100
AcDbScale
 70
     0
300
1:40
140
1.0
141
40.0
290
     0
  0
SCALE
  5
52
102
{ACAD_REACTORS
330
47
102
}
330
47
100
AcDbScale
 70
     0
300
1:50
140
1.0
141
50.0
290
     0
  0
SCALE
  5
53
102
{ACAD_REACTORS
330
47
102
}
330
47
100
AcDbScale
 70
     0
300
1:100
140
1.0
141
100.0
290
     0
  0
SCALE
  5
54
102
{ACAD_REACTORS
330
47
102
}
330
47
100
AcDbScale
 70
     0
300
2:1
140
2.0
141
1.0
290
     0
  0
SCALE
  5
55
102
{ACAD_REACTORS
330
47
102
}
330
47
100
AcDbScale
 70
     0
300
4:1
140
4.0
141
1.0
290
     0
  0
SCALE
  5
56
102
{ACAD_REACTORS
330
47
102
}
330
47
100
AcDbScale
 70
     0
300
8:1
140
8.0
141
1.0
290
     0
  0
SCALE
  5
57
102
{ACAD_REACTORS
330
47
102
}
330
47
100
AcDbScale
 70
     0
300
10:1
140
10.0
141
1.0
290
     0
  0
SCALE
  5
58
102
{ACAD_REACTORS
330
47
102
}
330
47
100
AcDbScale
 70
     0
300
100:1
140
100.0
141
1.0
290
     0
  0
SCALE
  5
59
102
{ACAD_REACTORS
330
47
102
}
330
47
100
AcDbScale
 70
     0
300
1/128" = 1'-0"
140
0.0078125
141
12.0
290
     0
  0
SCALE
  5
5A
102
{ACAD_REACTORS
330
47
102
}
330
47
100
AcDbScale
 70
     0
300
1/64" = 1'-0"
140
0.015625
141
12.0
290
     0
  0
SCALE
  5
5B
102
{ACAD_REACTORS
330
47
102
}
330
47
100
AcDbScale
 70
     0
300
1/32" = 1'-0"
140
0.03125
141
12.0
290
     0
  0
SCALE
  5
5C
102
{ACAD_REACTORS
330
47
102
}
330
47
100
AcDbScale
 70
     0
300
1/16" = 1'-0"
140
0.0625
141
12.0
290
     0
  0
SCALE
  5
5D
102
{ACAD_REACTORS
330
47
102
}
330
47
100
AcDbScale
 70
     0
300
3/32" = 1'-0"
140
0.09375
141
12.0
290
     0
  0
SCALE
  5
5E
102
{ACAD_REACTORS
330
47
102
}
330
47
100
AcDbScale
 70
     0
300
1/8" = 1'-0"
140
0.125
141
12.0
290
     0
  0
SCALE
  5
5F
102
{ACAD_REACTORS
330
47
102
}
330
47
100
AcDbScale
 70
     0
300
3/16" = 1'-0"
140
0.1875
141
12.0
290
     0
  0
SCALE
  5
60
102
{ACAD_REACTORS
330
47
102
}
330
47
100
AcDbScale
 70
     0
300
1/4" = 1'-0"
140
0.25
141
12.0
290
     0
  0
SCALE
  5
61
102
{ACAD_REACTORS
330
47
102
}
330
47
100
AcDbScale
 70
     0
300
3/8" = 1'-0"
140
0.375
141
12.0
290
     0
  0
SCALE
  5
62
102
{ACAD_REACTORS
330
47
102
}
330
47
100
AcDbScale
 70
     0
300
1/2" = 1'-0"
140
0.5
141
12.0
290
     0
  0
SCALE
  5
63
102
{ACAD_REACTORS
330
47
102
}
330
47
100
AcDbScale
 70
     0
300
3/4" = 1'-0"
140
0.75
141
12.0
290
     0
  0
SCALE
  5
64
102
{ACAD_REACTORS
330
47
102
}
330
47
100
AcDbScale
 70
     0
300
1" = 1'-0"
140
1.0
141
12.0
290
     0
  0
SCALE
  5
65
102
{ACAD_REACTORS
330
47
102
}
330
47
100
AcDbScale
 70
     0
300
1-1/2" = 1'-0"
140
1.5
141
12.0
290
     0
  0
SCALE
  5
66
102
{ACAD_REACTORS
330
47
102
}
330
47
100
AcDbScale
 70
     0
300
3" = 1'-0"
140
3.0
141
12.0
290
     0
  0
SCALE
  5
67
102
{ACAD_REACTORS
330
47
102
}
330
47
100
AcDbScale
 70
     0
300
6" = 1'-0"
140
6.0
141
12.0
290
     0
  0
SCALE
  5
68
102
{ACAD_REACTORS
330
47
102
}
330
47
100
AcDbScale
 70
     0
300
1'-0" = 1'-0"
140
12.0
141
12.0
290
     0
  0
ENDSEC
  0
EOF
