  0
SECTION
  2
HEADER
  9
$ACADVER
  1
AC1015
  9
$ACADMAINTVER
 70
     6
  9
$DWGCODEPAGE
  3
ANSI_949
  9
$INSBASE
 10
0.0
 20
0.0
 30
0.0
  9
$EXTMIN
 10
-54.82609874256968
 20
-49.97073246008785
 30
0.0
  9
$EXTMAX
 10
64.76929401703775
 20
37.43325000000007
 30
0.0
  9
$LIMMIN
 10
0.0
 20
0.0
  9
$LIMMAX
 10
420.0
 20
297.0
  9
$ORTHOMODE
 70
     1
  9
$REGENMODE
 70
     1
  9
$FILLMODE
 70
     1
  9
$QTEXTMODE
 70
     0
  9
$MIRRTEXT
 70
     1
  9
$LTSCALE
 40
1.0
  9
$ATTMODE
 70
     1
  9
$TEXTSIZE
 40
3.5
  9
$TRACEWID
 40
1.0
  9
$TEXTSTYLE
  7
Standard
  9
$CLAYER
  8
0
  9
$CELTYPE
  6
ByLayer
  9
$CECOLOR
 62
   256
  9
$CELTSCALE
 40
1.0
  9
$DISPSILH
 70
     0
  9
$DIMSCALE
 40
1.0
  9
$DIMASZ
 40
3.302
  9
$DIMEXO
 40
1.0
  9
$DIMDLI
 40
3.75
  9
$DIMRND
 40
0.0
  9
$DIMDLE
 40
0.0
  9
$DIMEXE
 40
1.0
  9
$DIMTP
 40
0.0
  9
$DIMTM
 40
0.0
  9
$DIMTXT
 40
3.5
  9
$DIMCEN
 40
2.5
  9
$DIMTSZ
 40
0.0
  9
$DIMTOL
 70
     0
  9
$DIMLIM
 70
     0
  9
$DIMTIH
 70
     1
  9
$DIMTOH
 70
     1
  9
$DIMSE1
 70
     0
  9
$DIMSE2
 70
     0
  9
$DIMTAD
 70
     1
  9
$DIMZIN
 70
     0
  9
$DIMBLK
  1

  9
$DIMASO
 70
     1
  9
$DIMSHO
 70
     1
  9
$DIMPOST
  1

  9
$DIMAPOST
  1

  9
$DIMALT
 70
     0
  9
$DIMALTD
 70
     3
  9
$DIMALTF
 40
0.0393700787401575
  9
$DIMLFAC
 40
1.0
  9
$DIMTOFL
 70
     1
  9
$DIMTVP
 40
0.0
  9
$DIMTIX
 70
     0
  9
$DIMSOXD
 70
     0
  9
$DIMSAH
 70
     0
  9
$DIMBLK1
  1

  9
$DIMBLK2
  1

  9
$DIMSTYLE
  2
ISO-25
  9
$DIMCLRD
 70
     0
  9
$DIMCLRE
 70
     0
  9
$DIMCLRT
 70
     0
  9
$DIMTFAC
 40
1.0
  9
$DIMGAP
 40
1.524
  9
$DIMJUST
 70
     0
  9
$DIMSD1
 70
     0
  9
$DIMSD2
 70
     0
  9
$DIMTOLJ
 70
     0
  9
$DIMTZIN
 70
     0
  9
$DIMALTZ
 70
     0
  9
$DIMALTTZ
 70
     0
  9
$DIMUPT
 70
     0
  9
$DIMDEC
 70
     2
  9
$DIMTDEC
 70
     2
  9
$DIMALTU
 70
     2
  9
$DIMALTTD
 70
     3
  9
$DIMTXSTY
  7
Standard
  9
$DIMAUNIT
 70
     0
  9
$DIMADEC
 70
     2
  9
$DIMALTRND
 40
0.0
  9
$DIMAZIN
 70
     0
  9
$DIMDSEP
 70
    44
  9
$DIMATFIT
 70
     3
  9
$DIMFRAC
 70
     0
  9
$DIMLDRBLK
  1

  9
$DIMLUNIT
 70
     2
  9
$DIMLWD
 70
    -2
  9
$DIMLWE
 70
    -2
  9
$DIMTMOVE
 70
     0
  9
$LUNITS
 70
     2
  9
$LUPREC
 70
     2
  9
$SKETCHINC
 40
1.0
  9
$FILLETRAD
 40
10.0
  9
$AUNITS
 70
     0
  9
$AUPREC
 70
     2
  9
$MENU
  1
.
  9
$ELEVATION
 40
0.0
  9
$PELEVATION
 40
0.0
  9
$THICKNESS
 40
0.0
  9
$LIMCHECK
 70
     0
  9
$CHAMFERA
 40
0.0
  9
$CHAMFERB
 40
0.0
  9
$CHAMFERC
 40
0.0
  9
$CHAMFERD
 40
0.0
  9
$SKPOLY
 70
     0
  9
$TDCREATE
 40
2458296.701182396
  9
$TDUCREATE
 40
2458296.326182396
  9
$TDUPDATE
 40
2459703.648155556
  9
$TDUUPDATE
 40
2459703.273155556
  9
$TDINDWG
 40
0.005355162
  9
$TDUSRTIMER
 40
0.0005322569
  9
$USRTIMER
 70
     1
  9
$ANGBASE
 50
0.0
  9
$ANGDIR
 70
     0
  9
$PDMODE
 70
     0
  9
$PDSIZE
 40
-1.0
  9
$PLINEWID
 40
0.0
  9
$SPLFRAME
 70
     0
  9
$SPLINETYPE
 70
     6
  9
$SPLINESEGS
 70
     8
  9
$HANDSEED
  5
450
  9
$SURFTAB1
 70
     6
  9
$SURFTAB2
 70
     6
  9
$SURFTYPE
 70
     6
  9
$SURFU
 70
     6
  9
$SURFV
 70
     6
  9
$UCSBASE
  2

  9
$UCSNAME
  2

  9
$UCSORG
 10
0.0
 20
0.0
 30
0.0
  9
$UCSXDIR
 10
1.0
 20
0.0
 30
0.0
  9
$UCSYDIR
 10
0.0
 20
1.0
 30
0.0
  9
$UCSORTHOREF
  2

  9
$UCSORTHOVIEW
 70
     0
  9
$UCSORGTOP
 10
0.0
 20
0.0
 30
0.0
  9
$UCSORGBOTTOM
 10
0.0
 20
0.0
 30
0.0
  9
$UCSORGLEFT
 10
0.0
 20
0.0
 30
0.0
  9
$UCSORGRIGHT
 10
0.0
 20
0.0
 30
0.0
  9
$UCSORGFRONT
 10
0.0
 20
0.0
 30
0.0
  9
$UCSORGBACK
 10
0.0
 20
0.0
 30
0.0
  9
$PUCSBASE
  2

  9
$PUCSNAME
  2

  9
$PUCSORG
 10
0.0
 20
0.0
 30
0.0
  9
$PUCSXDIR
 10
1.0
 20
0.0
 30
0.0
  9
$PUCSYDIR
 10
0.0
 20
1.0
 30
0.0
  9
$PUCSORTHOREF
  2

  9
$PUCSORTHOVIEW
 70
     0
  9
$PUCSORGTOP
 10
0.0
 20
0.0
 30
0.0
  9
$PUCSORGBOTTOM
 10
0.0
 20
0.0
 30
0.0
  9
$PUCSORGLEFT
 10
0.0
 20
0.0
 30
0.0
  9
$PUCSORGRIGHT
 10
0.0
 20
0.0
 30
0.0
  9
$PUCSORGFRONT
 10
0.0
 20
0.0
 30
0.0
  9
$PUCSORGBACK
 10
0.0
 20
0.0
 30
0.0
  9
$USERI1
 70
     0
  9
$USERI2
 70
     0
  9
$USERI3
 70
     0
  9
$USERI4
 70
     0
  9
$USERI5
 70
     0
  9
$USERR1
 40
0.0
  9
$USERR2
 40
0.0
  9
$USERR3
 40
0.0
  9
$USERR4
 40
0.0
  9
$USERR5
 40
0.0
  9
$WORLDVIEW
 70
     1
  9
$SHADEDGE
 70
     3
  9
$SHADEDIF
 70
    70
  9
$TILEMODE
 70
     1
  9
$MAXACTVP
 70
    64
  9
$PINSBASE
 10
0.0
 20
0.0
 30
0.0
  9
$PLIMCHECK
 70
     0
  9
$PEXTMIN
 10
1.000000000000000E+20
 20
1.000000000000000E+20
 30
1.000000000000000E+20
  9
$PEXTMAX
 10
-1.000000000000000E+20
 20
-1.000000000000000E+20
 30
-1.000000000000000E+20
  9
$PLIMMIN
 10
0.0
 20
0.0
  9
$PLIMMAX
 10
0.0
 20
0.0
  9
$UNITMODE
 70
     0
  9
$VISRETAIN
 70
     1
  9
$PLINEGEN
 70
     0
  9
$PSLTSCALE
 70
     1
  9
$TREEDEPTH
 70
  3020
  9
$CMLSTYLE
  2
Standard
  9
$CMLJUST
 70
     0
  9
$CMLSCALE
 40
20.0
  9
$PROXYGRAPHICS
 70
     1
  9
$MEASUREMENT
 70
     1
  9
$CELWEIGHT
370
    -1
  9
$ENDCAPS
280
     0
  9
$JOINSTYLE
280
     0
  9
$LWDISPLAY
290
     1
  9
$INSUNITS
 70
     4
  9
$HYPERLINKBASE
  1

  9
$STYLESHEET
  1

  9
$XEDIT
290
     1
  9
$CEPSNTYPE
380
     0
  9
$PSTYLEMODE
290
     1
  9
$FINGERPRINTGUID
  2
{52788451-D271-44D1-BB57-121709B39FA0}
  9
$VERSIONGUID
  2
{FAEB1C32-E019-11D5-929B-00C0DF256EC4}
  9
$EXTNAMES
290
     1
  9
$PSVPSCALE
 40
0.0
  9
$OLESTARTUP
290
     0
  0
ENDSEC
  0
SECTION
  2
CLASSES
  0
CLASS
  1
ACDBDICTIONARYWDFLT
  2
AcDbDictionaryWithDefault
  3
ObjectDBX Classes
 90
        0
280
     0
281
     0
  0
CLASS
  1
VISUALSTYLE
  2
AcDbVisualStyle
  3
ObjectDBX Classes
 90
     4095
280
     0
281
     0
  0
CLASS
  1
MATERIAL
  2
AcDbMaterial
  3
ObjectDBX Classes
 90
     1153
280
     0
281
     0
  0
CLASS
  1
SCALE
  2
AcDbScale
  3
ObjectDBX Classes
 90
     1153
280
     0
281
     0
  0
CLASS
  1
SUN
  2
AcDbSun
  3
SCENEOE
 90
     1153
280
     0
281
     0
  0
CLASS
  1
ACDBPLACEHOLDER
  2
AcDbPlaceHolder
  3
ObjectDBX Classes
 90
        0
280
     0
281
     0
  0
CLASS
  1
LAYOUT
  2
AcDbLayout
  3
ObjectDBX Classes
 90
        0
280
     0
281
     0
  0
CLASS
  1
TABLESTYLE
  2
AcDbTableStyle
  3
ObjectDBX Classes
 90
     4095
280
     0
281
     0
  0
CLASS
  1
MLEADERSTYLE
  2
AcDbMLeaderStyle
  3
ACDB_MLEADERSTYLE_CLASS
 90
     4095
280
     0
281
     0
  0
CLASS
  1
RASTERVARIABLES
  2
AcDbRasterVariables
  3
ISM
 90
        0
280
     0
281
     0
  0
CLASS
  1
DIMASSOC
  2
AcDbDimAssoc
  3
"AcDbDimAssoc|Product Desc:     AcDim ARX App For Dimension|Company:          Autodesk, Inc.|WEB Address:      www.autodesk.com"
 90
        0
280
     0
281
     0
  0
CLASS
  1
SORTENTSTABLE
  2
AcDbSortentsTable
  3
ObjectDBX Classes
 90
        0
280
     0
281
     0
  0
ENDSEC
  0
SECTION
  2
TABLES
  0
TABLE
  2
VPORT
  5
8
330
0
100
AcDbSymbolTable
 70
     1
  0
VPORT
  5
29
330
8
100
AcDbSymbolTableRecord
100
AcDbViewportTableRecord
  2
*Active
 70
     0
 10
0.0
 20
0.0
 11
1.0
 21
1.0
 12
-52.06738398697927
 22
15.55972546753775
 13
0.0
 23
0.0
 14
10.0
 24
10.0
 15
10.0
 25
10.0
 16
0.0
 26
0.0
 36
1.0
 17
0.0
 27
0.0
 37
0.0
 40
78.84529763009252
 41
1.531481481481481
 42
50.0
 43
0.0
 44
0.0
 50
0.0
 51
0.0
 71
    16
 72
  2000
 73
     1
 74
     3
 75
     0
 76
     0
 77
     0
 78
     0
281
     0
 65
     1
110
0.0
120
0.0
130
0.0
111
1.0
121
0.0
131
0.0
112
0.0
122
1.0
132
0.0
 79
     0
146
0.0
  0
ENDTAB
  0
TABLE
  2
LTYPE
  5
5
330
0
100
AcDbSymbolTable
 70
     6
  0
LTYPE
  5
14
330
5
100
AcDbSymbolTableRecord
100
AcDbLinetypeTableRecord
  2
ByBlock
 70
     0
  3

 72
    65
 73
     0
 40
0.0
  0
LTYPE
  5
15
330
5
100
AcDbSymbolTableRecord
100
AcDbLinetypeTableRecord
  2
ByLayer
 70
     0
  3

 72
    65
 73
     0
 40
0.0
  0
LTYPE
  5
16
330
5
100
AcDbSymbolTableRecord
100
AcDbLinetypeTableRecord
  2
Continuous
 70
     0
  3
Solid line
 72
    65
 73
     0
 40
0.0
  0
LTYPE
  5
6A
330
5
100
AcDbSymbolTableRecord
100
AcDbLinetypeTableRecord
  2
HIDDEN
 70
     0
  3
Hidden __ __ __ __ __ __ __ __ __ __ __ __ __ __
 72
    65
 73
     2
 40
1.905
 49
1.27
 74
     0
 49
-0.635
 74
     0
  0
LTYPE
  5
6B
330
5
100
AcDbSymbolTableRecord
100
AcDbLinetypeTableRecord
  2
PHANTOM
 70
     0
  3
Phantom ______  __  __  ______  __  __  ______
 72
    65
 73
     6
 40
12.7
 49
6.35
 74
     0
 49
-1.27
 74
     0
 49
1.27
 74
     0
 49
-1.27
 74
     0
 49
1.27
 74
     0
 49
-1.27
 74
     0
  0
LTYPE
  5
6C
330
5
100
AcDbSymbolTableRecord
100
AcDbLinetypeTableRecord
  2
CENTER
 70
     0
  3
Center ____ _ ____ _ ____ _ ____ _ ____ _ ____
 72
    65
 73
     4
 40
10.16
 49
6.35
 74
     0
 49
-1.27
 74
     0
 49
1.27
 74
     0
 49
-1.27
 74
     0
  0
LTYPE
  5
6D
330
5
100
AcDbSymbolTableRecord
100
AcDbLinetypeTableRecord
  2
CENTERX2
 70
     0
  3
Center (2x) ________  __  ________  __  _____
 72
    65
 73
     4
 40
20.32
 49
12.7
 74
     0
 49
-2.54
 74
     0
 49
2.54
 74
     0
 49
-2.54
 74
     0
  0
LTYPE
  5
6E
330
5
100
AcDbSymbolTableRecord
100
AcDbLinetypeTableRecord
  2
DOT2
 70
     0
  3
Dot (.5x) ........................................
 72
    65
 73
     2
 40
0.635
 49
0.0
 74
     0
 49
-0.635
 74
     0
  0
ENDTAB
  0
TABLE
  2
LAYER
  5
2
102
{ACAD_XDICTIONARY
360
1E5
102
}
330
0
100
AcDbSymbolTable
 70
    18
  0
LAYER
  5
10
330
2
100
AcDbSymbolTableRecord
100
AcDbLayerTableRecord
  2
0
 70
     0
 62
     7
  6
Continuous
370
    -3
390
F
  0
LAYER
  5
6F
330
2
100
AcDbSymbolTableRecord
100
AcDbLayerTableRecord
  2
FORMAT
 70
     0
 62
     2
  6
Continuous
370
    -3
390
F
  0
LAYER
  5
70
330
2
100
AcDbSymbolTableRecord
100
AcDbLayerTableRecord
  2
외형선
 70
     0
 62
     4
  6
Continuous
370
    30
390
F
  0
LAYER
  5
71
330
2
100
AcDbSymbolTableRecord
100
AcDbLayerTableRecord
  2
숨은선
 70
     0
 62
     2
  6
HIDDEN
370
    15
390
F
  0
LAYER
  5
72
330
2
100
AcDbSymbolTableRecord
100
AcDbLayerTableRecord
  2
중심선
 70
     0
 62
     1
  6
CENTERX2
370
    -3
390
F
  0
LAYER
  5
73
330
2
100
AcDbSymbolTableRecord
100
AcDbLayerTableRecord
  2
파단선
 70
     0
 62
     4
  6
Continuous
370
    -3
390
F
  0
LAYER
  5
74
330
2
100
AcDbSymbolTableRecord
100
AcDbLayerTableRecord
  2
해칭선
 70
     0
 62
   100
  6
Continuous
370
    -3
390
F
  0
LAYER
  5
75
330
2
100
AcDbSymbolTableRecord
100
AcDbLayerTableRecord
  2
가는실선
 70
     0
 62
     4
  6
Continuous
370
    -3
390
F
  0
LAYER
  5
76
330
2
100
AcDbSymbolTableRecord
100
AcDbLayerTableRecord
  2
치수_보조선
 70
     0
 62
     4
  6
Continuous
370
    -3
390
F
  0
LAYER
  5
77
330
2
100
AcDbSymbolTableRecord
100
AcDbLayerTableRecord
  2
치수문자_일반주서
 70
     0
 62
     7
  6
Continuous
370
    15
390
F
  0
LAYER
  5
78
330
2
100
AcDbSymbolTableRecord
100
AcDbLayerTableRecord
  2
개별주서
 70
     0
 62
   100
  6
Continuous
370
    30
390
F
  0
LAYER
  5
79
330
2
100
AcDbSymbolTableRecord
100
AcDbLayerTableRecord
  2
중간선
 70
     0
 62
     2
  6
Continuous
370
    15
390
F
  0
LAYER
  5
7A
330
2
100
AcDbSymbolTableRecord
100
AcDbLayerTableRecord
  2
윤곽선
 70
     0
 62
     3
  6
Continuous
370
    40
390
F
  0
LAYER
  5
7B
330
2
100
AcDbSymbolTableRecord
100
AcDbLayerTableRecord
  2
중심마크
 70
     0
 62
   100
  6
Continuous
370
    30
390
F
  0
LAYER
  5
7C
330
2
100
AcDbSymbolTableRecord
100
AcDbLayerTableRecord
  2
가상선
 70
     0
 62
     4
  6
PHANTOM
370
    -3
390
F
  0
LAYER
  5
7D
330
2
100
AcDbSymbolTableRecord
100
AcDbLayerTableRecord
  2
특수지정선
 70
     0
 62
     5
  6
CENTERX2
370
    60
390
F
  0
LAYER
  5
7E
330
2
100
AcDbSymbolTableRecord
100
AcDbLayerTableRecord
  2
참조1
 70
     0
 62
    -4
  6
Continuous
370
    -3
390
F
  0
LAYER
  5
14F
330
2
100
AcDbSymbolTableRecord
100
AcDbLayerTableRecord
  2
Defpoints
 70
     0
 62
     7
  6
Continuous
290
     0
370
    -3
390
F
  0
ENDTAB
  0
TABLE
  2
STYLE
  5
3
330
0
100
AcDbSymbolTable
 70
     2
  0
STYLE
  5
11
330
3
100
AcDbSymbolTableRecord
100
AcDbTextStyleTableRecord
  2
Standard
 70
     0
 40
0.0
 41
1.0
 50
0.0
 71
     0
 42
3.5
  3
txt
  4

  0
STYLE
  5
94
330
3
100
AcDbSymbolTableRecord
100
AcDbTextStyleTableRecord
  2
SLDTEXTSTYLE0
 70
     0
 40
0.0
 41
0.75
 50
0.0
 71
     0
 42
3.5
  3
TXT
  4

  0
ENDTAB
  0
TABLE
  2
VIEW
  5
6
330
0
100
AcDbSymbolTable
 70
     0
  0
ENDTAB
  0
TABLE
  2
UCS
  5
7
330
0
100
AcDbSymbolTable
 70
     0
  0
ENDTAB
  0
TABLE
  2
APPID
  5
9
330
0
100
AcDbSymbolTable
 70
     5
  0
APPID
  5
12
330
9
100
AcDbSymbolTableRecord
100
AcDbRegAppTableRecord
  2
ACAD
 70
     0
  0
APPID
  5
15A
330
9
100
AcDbSymbolTableRecord
100
AcDbRegAppTableRecord
  2
ACAD_DSTYLE_DIMRADIAL_EXTENSION
 70
     0
  0
APPID
  5
422
330
9
100
AcDbSymbolTableRecord
100
AcDbRegAppTableRecord
  2
ACAD_DSTYLE_DIMFLIPARROW_SYMBOL
 70
     0
  0
APPID
  5
423
330
9
100
AcDbSymbolTableRecord
100
AcDbRegAppTableRecord
  2
ACAD_DSTYLE_DIMFLIPARROW_WHICH_SYMBOL
 70
     0
  0
APPID
  5
449
330
9
100
AcDbSymbolTableRecord
100
AcDbRegAppTableRecord
  2
PE_URL
 70
     0
  0
ENDTAB
  0
TABLE
  2
DIMSTYLE
  5
A
330
0
100
AcDbSymbolTable
 70
     5
100
AcDbDimStyleTable
  0
DIMSTYLE
105
27
330
A
100
AcDbSymbolTableRecord
100
AcDbDimStyleTableRecord
  2
ISO-25
 70
     0
 41
2.5
 42
0.625
 43
3.75
 44
1.25
 73
     0
 74
     0
 77
     1
 78
     8
140
2.5
141
2.5
143
0.03937007874016
147
0.625
171
     3
172
     1
178
     0
271
     2
272
     2
274
     3
278
    44
283
     0
284
     8
340
11
  0
DIMSTYLE
105
D1
330
A
100
AcDbSymbolTableRecord
100
AcDbDimStyleTableRecord
  2
SLDDIMSTYLE0
 70
     0
 41
3.302
 44
0.0
 45
0.000000001
 73
     0
 74
     0
 77
     1
 78
    12
 79
     3
140
3.5
147
0.875
172
     1
173
     1
178
     0
271
     2
272
     2
276
     2
284
    12
289
     0
340
94
  0
DIMSTYLE
105
DF
102
{ACAD_REACTORS
330
1F6
330
1F7
330
1F8
330
1F9
330
414
102
}
330
A
100
AcDbSymbolTableRecord
100
AcDbDimStyleTableRecord
  2
SLDDIMSTYLE1
 70
     0
 41
3.302
 44
0.0
 45
0.000000001
 73
     0
 74
     0
 77
     1
 78
     4
 79
     1
140
3.5
143
0.0393700787401575
147
0.875
148
0.000000001
170
     1
173
     1
178
     0
271
     2
272
     2
276
     2
284
    12
340
94
  0
DIMSTYLE
105
F3
330
A
100
AcDbSymbolTableRecord
100
AcDbDimStyleTableRecord
  2
SLDDIMSTYLE2
 70
     0
 41
3.302
 44
0.0
 45
0.000000001
 73
     0
 74
     0
 77
     1
 78
     4
 79
     1
140
3.5
143
0.0393700787401575
147
0.875
148
0.000000001
170
     1
172
     1
173
     1
178
     0
271
     2
272
     2
276
     2
284
    12
289
     0
340
94
  0
DIMSTYLE
105
109
330
A
100
AcDbSymbolTableRecord
100
AcDbDimStyleTableRecord
  2
SLDDIMSTYLE3
 70
     0
 41
3.302
 44
0.0
 45
0.000000001
 73
     0
 74
     0
 77
     1
 78
    12
 79
     3
140
3.5
143
0.0393700787401575
147
0.875
148
0.000000001
170
     1
172
     1
173
     1
178
     0
271
     2
272
     2
276
     2
284
    12
289
     0
340
94
  0
ENDTAB
  0
TABLE
  2
BLOCK_RECORD
  5
1
330
0
100
AcDbSymbolTable
 70
    20
  0
BLOCK_RECORD
  5
1F
102
{ACAD_XDICTIONARY
360
447
102
}
330
1
100
AcDbSymbolTableRecord
100
AcDbBlockTableRecord
  2
*Model_Space
340
22
  0
BLOCK_RECORD
  5
1B
330
1
100
AcDbSymbolTableRecord
100
AcDbBlockTableRecord
  2
*Paper_Space
340
1E
  0
BLOCK_RECORD
  5
23
330
1
100
AcDbSymbolTableRecord
100
AcDbBlockTableRecord
  2
*Paper_Space0
340
26
  0
BLOCK_RECORD
  5
7F
330
1
100
AcDbSymbolTableRecord
100
AcDbBlockTableRecord
  2
블럭10
340
0
102
{BLKREFS
331
C9
102
}
  0
BLOCK_RECORD
  5
D2
330
1
100
AcDbSymbolTableRecord
100
AcDbBlockTableRecord
  2
_D
340
0
  0
BLOCK_RECORD
  5
E0
330
1
100
AcDbSymbolTableRecord
100
AcDbBlockTableRecord
  2
_D_1
340
0
  0
BLOCK_RECORD
  5
F4
330
1
100
AcDbSymbolTableRecord
100
AcDbBlockTableRecord
  2
_D_2
340
0
  0
BLOCK_RECORD
  5
10A
330
1
100
AcDbSymbolTableRecord
100
AcDbBlockTableRecord
  2
_D_3
340
0
  0
BLOCK_RECORD
  5
124
330
1
100
AcDbSymbolTableRecord
100
AcDbBlockTableRecord
  2
SW_DOWELSYMBOL_0
340
0
102
{BLKREFS
331
1FA
102
}
  0
BLOCK_RECORD
  5
186
330
1
100
AcDbSymbolTableRecord
100
AcDbBlockTableRecord
  2
*D7
340
0
  0
BLOCK_RECORD
  5
195
330
1
100
AcDbSymbolTableRecord
100
AcDbBlockTableRecord
  2
*D8
340
0
  0
BLOCK_RECORD
  5
1A2
330
1
100
AcDbSymbolTableRecord
100
AcDbBlockTableRecord
  2
*D9
340
0
  0
BLOCK_RECORD
  5
1AF
330
1
100
AcDbSymbolTableRecord
100
AcDbBlockTableRecord
  2
*D10
340
0
  0
BLOCK_RECORD
  5
1DB
330
1
100
AcDbSymbolTableRecord
100
AcDbBlockTableRecord
  2
*D11
340
0
  0
BLOCK_RECORD
  5
213
330
1
100
AcDbSymbolTableRecord
100
AcDbBlockTableRecord
  2
*D12
340
0
  0
BLOCK_RECORD
  5
221
330
1
100
AcDbSymbolTableRecord
100
AcDbBlockTableRecord
  2
*D13
340
0
  0
BLOCK_RECORD
  5
22D
330
1
100
AcDbSymbolTableRecord
100
AcDbBlockTableRecord
  2
*D14
340
0
  0
BLOCK_RECORD
  5
239
330
1
100
AcDbSymbolTableRecord
100
AcDbBlockTableRecord
  2
*D15
340
0
  0
BLOCK_RECORD
  5
246
330
1
100
AcDbSymbolTableRecord
100
AcDbBlockTableRecord
  2
*D16
340
0
  0
BLOCK_RECORD
  5
255
330
1
100
AcDbSymbolTableRecord
100
AcDbBlockTableRecord
  2
*D17
340
0
  0
BLOCK_RECORD
  5
406
330
1
100
AcDbSymbolTableRecord
100
AcDbBlockTableRecord
  2
*D18
340
0
  0
BLOCK_RECORD
  5
417
330
1
100
AcDbSymbolTableRecord
100
AcDbBlockTableRecord
  2
*D19
340
0
  0
ENDTAB
  0
ENDSEC
  0
SECTION
  2
BLOCKS
  0
BLOCK
  5
20
330
1F
100
AcDbEntity
  8
0
100
AcDbBlockBegin
  2
*Model_Space
 70
     0
 10
0.0
 20
0.0
 30
0.0
  3
*Model_Space
  1
*Model_Space
  0
ENDBLK
  5
21
330
1F
100
AcDbEntity
  8
0
100
AcDbBlockEnd
  0
BLOCK
  5
1C
330
1B
100
AcDbEntity
 67
     1
  8
0
100
AcDbBlockBegin
  2
*Paper_Space
 70
     0
 10
0.0
 20
0.0
 30
0.0
  3
*Paper_Space
  1
*Paper_Space
  0
ENDBLK
  5
1D
330
1B
100
AcDbEntity
 67
     1
  8
0
100
AcDbBlockEnd
  0
BLOCK
  5
24
330
23
100
AcDbEntity
  8
0
100
AcDbBlockBegin
  2
*Paper_Space0
 70
     0
 10
0.0
 20
0.0
 30
0.0
  3
*Paper_Space0
  1
*Paper_Space0
  0
ENDBLK
  5
25
330
23
100
AcDbEntity
  8
0
100
AcDbBlockEnd
  0
BLOCK
  5
80
330
7F
100
AcDbEntity
  8
0
100
AcDbBlockBegin
  2
블럭10
 70
     2
 10
0.0
 20
0.0
 30
0.0
  3
블럭10
  1
블럭10
  0
ELLIPSE
  5
82
330
7F
100
AcDbEntity
  8
중심선
100
AcDbEllipse
 10
20.54032771741204
 20
12.0471743016438
 30
0.0
 11
6.600054785286829
 21
-1.261213355974178E-13
 31
0.0
210
0.0
220
0.0
230
1.0
 40
0.636358354079598
 41
0.9219305317359503
 42
6.513795318482858
  0
ELLIPSE
  5
83
330
7F
100
AcDbEntity
  8
중심선
100
AcDbEllipse
 10
20.54032771746488
 20
12.04717430159265
 30
0.0
 11
3.960054785062283
 21
1.540847449632565E-10
 31
0.0
210
0.0
220
0.0
230
1.0
 40
0.3939339440162632
 41
1.131841032648279
 42
5.62031148352944
  0
LINE
  5
84
330
7F
100
AcDbEntity
  8
중심선
100
AcDbLine
 10
2.268634060543552
 20
16.24717430164393
 30
0.0
 11
5.714909304380834
 21
16.24717430164393
 31
0.0
  0
LINE
  5
85
330
7F
100
AcDbEntity
  8
중심선
100
AcDbLine
 10
5.245725140726316
 20
7.84717430164391
 30
0.0
 11
8.692000384563599
 21
7.84717430164391
 31
0.0
  0
LINE
  5
86
330
7F
100
AcDbEntity
  8
중심선
100
AcDbLine
 10
15.74043728645272
 20
16.24717430164393
 30
0.0
 11
8.692000384563599
 21
7.84717430164391
 31
0.0
  0
LINE
  5
87
330
7F
100
AcDbEntity
  8
중심선
100
AcDbLine
 10
0.1404042013395286
 20
13.71084872107135
 30
0.0
 11
3.58671253028996
 21
13.71088815037384
 31
0.0
  0
LINE
  5
88
330
7F
100
AcDbEntity
  8
중심선
100
AcDbLine
 10
2.750260043222114
 20
10.84717430164391
 30
0.0
 11
6.196535287059397
 21
10.84717430164391
 31
0.0
  0
LINE
  5
89
330
7F
100
AcDbEntity
  8
중심선
100
AcDbLine
 10
12.29416204261559
 20
16.24717430164393
 30
0.0
 11
5.245725140726316
 21
7.84717430164391
 31
0.0
  0
LINE
  5
8A
330
7F
100
AcDbEntity
  8
중심선
100
AcDbLine
 10
10.72767329541681
 20
16.24717430164393
 30
0.0
 11
6.196535287059397
 21
10.84717430164391
 31
0.0
  0
LINE
  5
8B
330
7F
100
AcDbEntity
  8
중심선
100
AcDbLine
 10
7.28139805157953
 20
16.24717430164393
 30
0.0
 11
2.750260043222114
 21
10.84717430164391
 31
0.0
  0
LINE
  5
8C
330
7F
100
AcDbEntity
  8
중심선
100
AcDbLine
 10
5.714909304380834
 20
16.24717430164393
 30
0.0
 11
3.58671253028996
 21
13.71088815037384
 31
0.0
  0
LINE
  5
8D
330
7F
100
AcDbEntity
  8
중심선
100
AcDbLine
 10
2.268634060543552
 20
16.24717430164393
 30
0.0
 11
0.1404042013395286
 21
13.71084872107135
 31
0.0
  0
LINE
  5
8E
330
7F
100
AcDbEntity
  8
중심선
100
AcDbLine
 10
7.28139805157953
 20
16.24717430164393
 30
0.0
 11
10.72767329541681
 21
16.24717430164393
 31
0.0
  0
LINE
  5
8F
330
7F
100
AcDbEntity
  8
중심선
100
AcDbLine
 10
12.29416204261559
 20
16.24717430164393
 30
0.0
 11
15.74043728645272
 21
16.24717430164393
 31
0.0
  0
LINE
  5
90
330
7F
100
AcDbEntity
  8
중심선
100
AcDbLine
 10
19.22036997980202
 20
11.08717430171403
 30
0.0
 11
23.66174974927406
 21
11.08717430171406
 31
0.0
  0
LINE
  5
91
330
7F
100
AcDbEntity
  8
중심선
100
AcDbLine
 10
19.22039502424796
 20
13.00717430171391
 30
0.0
 11
19.22036997980202
 21
11.08717430171403
 31
0.0
  0
LINE
  5
92
330
7F
100
AcDbEntity
  8
중심선
100
AcDbLine
 10
19.22039502424796
 20
13.00717430171391
 30
0.0
 11
26.96566020931264
 21
13.00717430171391
 31
0.0
  0
LINE
  5
93
330
7F
100
AcDbEntity
  8
중심선
100
AcDbLine
 10
22.22332737316547
 20
13.45928029700563
 30
0.0
 11
24.52862924686651
 21
15.39360700705356
 31
0.0
  0
ATTDEF
  5
95
330
7F
100
AcDbEntity
  8
FORMAT
 62
     2
100
AcDbText
 10
3.448148490846466
 20
2.075366912832191
 30
0.0
 40
4.233333333333333
  1
EM649904
 41
0.75
  7
SLDTEXTSTYLE0
 11
3.448148490846466
 21
-0.0412997538344756
 31
0.0
100
AcDbAttributeDefinition
  3

  2
AUTOATTR0
 70
     0
 74
     1
  0
ENDBLK
  5
81
330
7F
100
AcDbEntity
  8
0
100
AcDbBlockEnd
  0
BLOCK
  5
D3
330
D2
100
AcDbEntity
  8
0
100
AcDbBlockBegin
  2
_D
 70
     0
 10
0.0
 20
0.0
 30
0.0
  3
_D
  1
_D
  0
SOLID
  5
D5
330
D2
100
AcDbEntity
  8
치수문자_일반주서
100
AcDbTrace
 10
-40.02374999999998
 20
-2.380175071276106
 30
0.0
 11
-40.53174999999998
 21
-5.682175071276106
 31
0.0
 12
-39.51574999999998
 22
-5.682175071276106
 32
0.0
 13
-39.51574999999998
 23
-5.682175071276106
 33
0.0
  0
SOLID
  5
D6
330
D2
100
AcDbEntity
  8
치수문자_일반주서
100
AcDbTrace
 10
-40.02374999999998
 20
2.382324928723893
 30
0.0
 11
-39.51574999999998
 21
5.684324928723893
 31
0.0
 12
-40.53174999999998
 22
5.684324928723893
 32
0.0
 13
-40.53174999999998
 23
5.684324928723893
 33
0.0
  0
LINE
  5
D7
330
D2
100
AcDbEntity
  8
치수문자_일반주서
100
AcDbLine
 10
-52.65874999999998
 20
-2.380175071276107
 30
0.0
 11
-39.02374999999998
 21
-2.380175071276106
 31
0.0
  0
LINE
  5
D8
330
D2
100
AcDbEntity
  8
치수문자_일반주서
100
AcDbLine
 10
-52.65874999999998
 20
2.382324928723893
 30
0.0
 11
-39.02374999999998
 21
2.382324928723893
 31
0.0
  0
LINE
  5
D9
330
D2
100
AcDbEntity
  8
치수문자_일반주서
100
AcDbLine
 10
-40.02374999999998
 20
-2.380175071276106
 30
0.0
 11
-40.02374999999998
 21
-8.730175071276106
 31
0.0
  0
LINE
  5
DA
330
D2
100
AcDbEntity
  8
치수문자_일반주서
100
AcDbLine
 10
-40.02374999999998
 20
-2.380175071276106
 30
0.0
 11
-40.02374999999998
 21
2.382324928723893
 31
0.0
  0
LINE
  5
DB
330
D2
100
AcDbEntity
  8
치수문자_일반주서
100
AcDbLine
 10
-40.02374999999998
 20
2.382324928723893
 30
0.0
 11
-40.02374999999998
 21
8.732324928723893
 31
0.0
  0
MTEXT
  5
DC
330
D2
100
AcDbEntity
  8
치수문자_일반주서
100
AcDbMText
 10
-44.53548708920186
 20
-6.174618303108614
 30
0.0
 40
3.5
 41
0.0
 71
     1
 72
     1
  1
%%c
  7
SLDTEXTSTYLE0
 11
6.123233995736766E-17
 21
1.0
 31
0.0
 73
     1
 44
1.0
  0
MTEXT
  5
DD
330
D2
100
AcDbEntity
  8
치수문자_일반주서
100
AcDbMText
 10
-44.58895926586171
 20
-0.8961809047345335
 30
0.0
 40
3.5
 41
0.0
 71
     1
 72
     1
  1
4.76
  7
SLDTEXTSTYLE0
 11
6.123233995736766E-17
 21
1.0
 31
0.0
 73
     1
 44
1.0
  0
ENDBLK
  5
D4
330
D2
100
AcDbEntity
  8
0
100
AcDbBlockEnd
  0
BLOCK
  5
E1
330
E0
100
AcDbEntity
  8
0
100
AcDbBlockBegin
  2
_D_1
 70
     0
 10
0.0
 20
0.0
 30
0.0
  3
_D_1
  1
_D_1
  0
SOLID
  5
E3
330
E0
100
AcDbEntity
  8
치수문자_일반주서
100
AcDbTrace
 10
22.70000000000003
 20
30.07800266084203
 30
0.0
 11
19.39800000000003
 21
30.58600266084203
 31
0.0
 12
19.39800000000003
 22
29.57000266084203
 32
0.0
 13
19.39800000000003
 23
29.57000266084203
 33
0.0
  0
SOLID
  5
E4
330
E0
100
AcDbEntity
  8
치수문자_일반주서
100
AcDbTrace
 10
-53.49999999999999
 20
30.07800266084202
 30
0.0
 11
-50.19799999999999
 21
29.57000266084203
 31
0.0
 12
-50.19799999999999
 22
30.58600266084202
 32
0.0
 13
-50.19799999999999
 23
30.58600266084202
 33
0.0
  0
LINE
  5
E5
330
E0
100
AcDbEntity
  8
치수문자_일반주서
100
AcDbLine
 10
-20.81436608182264
 20
40.87088437688475
 30
0.0
 11
-21.52530356738714
 21
40.87088437688476
 31
0.0
  0
LINE
  5
E6
330
E0
100
AcDbEntity
  8
치수문자_일반주서
100
AcDbLine
 10
-21.52530356738714
 20
40.87088437688476
 30
0.0
 11
-21.52530356738718
 21
35.31463438582546
 31
0.0
  0
LINE
  5
E7
330
E0
100
AcDbEntity
  8
치수문자_일반주서
100
AcDbLine
 10
-21.52530356738718
 20
35.31463438582546
 30
0.0
 11
-20.81436608182268
 21
35.31463438582545
 31
0.0
  0
LINE
  5
E8
330
E0
100
AcDbEntity
  8
치수문자_일반주서
100
AcDbLine
 10
-9.985633219685385
 20
40.87088437688468
 30
0.0
 11
-9.274695734120884
 21
40.87088437688467
 31
0.0
  0
LINE
  5
E9
330
E0
100
AcDbEntity
  8
치수문자_일반주서
100
AcDbLine
 10
-9.274695734120884
 20
40.87088437688467
 30
0.0
 11
-9.274695734120925
 21
35.31463438582537
 31
0.0
  0
LINE
  5
EA
330
E0
100
AcDbEntity
  8
치수문자_일반주서
100
AcDbLine
 10
-9.274695734120925
 20
35.31463438582537
 30
0.0
 11
-9.985633219685425
 21
35.31463438582538
 31
0.0
  0
LINE
  5
EB
330
E0
100
AcDbEntity
  8
치수문자_일반주서
100
AcDbLine
 10
22.70000000000003
 20
3.921672762716192
 30
0.0
 11
22.70000000000003
 21
31.07800266084203
 31
0.0
  0
LINE
  5
EC
330
E0
100
AcDbEntity
  8
치수문자_일반주서
100
AcDbLine
 10
-53.49999999999999
 20
3.541074928723894
 30
0.0
 11
-53.49999999999999
 21
31.07800266084202
 31
0.0
  0
LINE
  5
ED
330
E0
100
AcDbEntity
  8
치수문자_일반주서
100
AcDbLine
 10
22.70000000000003
 20
30.07800266084203
 30
0.0
 11
-53.49999999999999
 21
30.07800266084202
 31
0.0
  0
MTEXT
  5
EE
330
E0
100
AcDbEntity
  8
치수문자_일반주서
100
AcDbMText
 10
-22.03906229287388
 20
34.64321192670375
 30
0.0
 40
3.5
 41
0.0
 71
     1
 72
     1
  1

  7
SLDTEXTSTYLE0
 73
     1
 44
1.0
  0
MTEXT
  5
EF
330
E0
100
AcDbEntity
  8
치수문자_일반주서
100
AcDbMText
 10
-19.92569418121128
 20
39.82637130040435
 30
0.0
 40
3.5
 41
0.0
 71
     1
 72
     1
  1
3.00
  7
SLDTEXTSTYLE0
 73
     1
 44
1.0
  0
MTEXT
  5
F0
330
E0
100
AcDbEntity
  8
치수문자_일반주서
100
AcDbMText
 10
-21.21874989438804
 20
34.58973975004388
 30
0.0
 40
3.5
 41
0.0
 71
     1
 72
     1
  1
76.20
  7
SLDTEXTSTYLE0
 73
     1
 44
1.0
  0
MTEXT
  5
F1
330
E0
100
AcDbEntity
  8
치수문자_일반주서
100
AcDbMText
 10
-7.428992488980318
 20
34.64321192670364
 30
0.0
 40
3.5
 41
0.0
 71
     1
 72
     1
  1

  7
SLDTEXTSTYLE0
 73
     1
 44
1.0
  0
ENDBLK
  5
E2
330
E0
100
AcDbEntity
  8
0
100
AcDbBlockEnd
  0
BLOCK
  5
F5
330
F4
100
AcDbEntity
  8
0
100
AcDbBlockBegin
  2
_D_2
 70
     0
 10
0.0
 20
0.0
 30
0.0
  3
_D_2
  1
_D_2
  0
SOLID
  5
F7
330
F4
100
AcDbEntity
  8
치수문자_일반주서
100
AcDbTrace
 10
22.69999999999999
 20
13.21643676191893
 30
0.0
 11
26.00199999999999
 21
12.70843676191894
 31
0.0
 12
26.00199999999998
 22
13.72443676191894
 32
0.0
 13
26.00199999999998
 23
13.72443676191894
 33
0.0
  0
SOLID
  5
F8
330
F4
100
AcDbEntity
  8
치수문자_일반주서
100
AcDbTrace
 10
9.999999999999943
 20
13.21643676191887
 30
0.0
 11
6.697999999999941
 21
13.72443676191886
 31
0.0
 12
6.697999999999946
 22
12.70843676191886
 32
0.0
 13
6.697999999999946
 23
12.70843676191886
 33
0.0
  0
LINE
  5
F9
330
F4
100
AcDbEntity
  8
치수문자_일반주서
100
AcDbLine
 10
10.93563391817733
 20
24.00931847796168
 30
0.0
 11
10.22469643261283
 21
24.00931847796168
 31
0.0
  0
LINE
  5
FA
330
F4
100
AcDbEntity
  8
치수문자_일반주서
100
AcDbLine
 10
10.22469643261283
 20
24.00931847796168
 30
0.0
 11
10.22469643261289
 21
18.45306848690237
 31
0.0
  0
LINE
  5
FB
330
F4
100
AcDbEntity
  8
치수문자_일반주서
100
AcDbLine
 10
10.22469643261289
 20
18.45306848690237
 30
0.0
 11
10.93563391817739
 21
18.45306848690238
 31
0.0
  0
LINE
  5
FC
330
F4
100
AcDbEntity
  8
치수문자_일반주서
100
AcDbLine
 10
21.76436678031459
 20
24.00931847796181
 30
0.0
 11
22.47530426587909
 21
24.00931847796182
 31
0.0
  0
LINE
  5
FD
330
F4
100
AcDbEntity
  8
치수문자_일반주서
100
AcDbLine
 10
22.47530426587909
 20
24.00931847796182
 30
0.0
 11
22.47530426587915
 21
18.45306848690252
 31
0.0
  0
LINE
  5
FE
330
F4
100
AcDbEntity
  8
치수문자_일반주서
100
AcDbLine
 10
22.47530426587915
 20
18.45306848690252
 30
0.0
 11
21.76436678031465
 21
18.45306848690251
 31
0.0
  0
LINE
  5
FF
330
F4
100
AcDbEntity
  8
치수문자_일반주서
100
AcDbLine
 10
22.70000000000003
 20
3.921672762716192
 30
0.0
 11
22.69999999999999
 21
14.21643676191893
 31
0.0
  0
LINE
  5
100
330
F4
100
AcDbEntity
  8
치수문자_일반주서
100
AcDbLine
 10
9.999999999999982
 20
4.14009277017509
 30
0.0
 11
9.999999999999938
 21
14.21643676191887
 31
0.0
  0
LINE
  5
101
330
F4
100
AcDbEntity
  8
치수문자_일반주서
100
AcDbLine
 10
22.69999999999999
 20
13.21643676191893
 30
0.0
 11
29.04999999999999
 21
13.21643676191896
 31
0.0
  0
LINE
  5
102
330
F4
100
AcDbEntity
  8
치수문자_일반주서
100
AcDbLine
 10
22.69999999999999
 20
13.21643676191893
 30
0.0
 11
9.999999999999943
 21
13.21643676191887
 31
0.0
  0
LINE
  5
103
330
F4
100
AcDbEntity
  8
치수문자_일반주서
100
AcDbLine
 10
9.999999999999943
 20
13.21643676191887
 30
0.0
 11
3.649999999999943
 21
13.21643676191885
 31
0.0
  0
MTEXT
  5
104
330
F4
100
AcDbEntity
  8
치수문자_일반주서
100
AcDbMText
 10
9.710937707126206
 20
17.78164602778065
 30
0.0
 40
3.5
 41
0.0
 71
     1
 72
     1
  1

  7
SLDTEXTSTYLE0
 73
     1
 44
1.0
  0
MTEXT
  5
105
330
F4
100
AcDbEntity
  8
치수문자_일반주서
100
AcDbMText
 10
11.82430581878871
 20
22.96480540148129
 30
0.0
 40
3.5
 41
0.0
 71
     1
 72
     1
  1
0.50
  7
SLDTEXTSTYLE0
 73
     1
 44
1.0
  0
MTEXT
  5
106
330
F4
100
AcDbEntity
  8
치수문자_일반주서
100
AcDbMText
 10
10.53125010561205
 20
17.7281738511208
 30
0.0
 40
3.5
 41
0.0
 71
     1
 72
     1
  1
12.70
  7
SLDTEXTSTYLE0
 73
     1
 44
1.0
  0
MTEXT
  5
107
330
F4
100
AcDbEntity
  8
치수문자_일반주서
100
AcDbMText
 10
24.32100751101977
 20
17.78164602778081
 30
0.0
 40
3.5
 41
0.0
 71
     1
 72
     1
  1

  7
SLDTEXTSTYLE0
 73
     1
 44
1.0
  0
ENDBLK
  5
F6
330
F4
100
AcDbEntity
  8
0
100
AcDbBlockEnd
  0
BLOCK
  5
10B
330
10A
100
AcDbEntity
  8
0
100
AcDbBlockBegin
  2
_D_3
 70
     0
 10
0.0
 20
0.0
 30
0.0
  3
_D_3
  1
_D_3
  0
SOLID
  5
10D
330
10A
100
AcDbEntity
  8
치수문자_일반주서
100
AcDbTrace
 10
43.97479510935482
 20
3.176074928723897
 30
0.0
 11
44.48279510935482
 21
6.478074928723896
 31
0.0
 12
43.46679510935481
 22
6.478074928723896
 32
0.0
 13
43.46679510935481
 23
6.478074928723896
 33
0.0
  0
SOLID
  5
10E
330
10A
100
AcDbEntity
  8
치수문자_일반주서
100
AcDbTrace
 10
43.97479510935482
 20
-3.173925071276115
 30
0.0
 11
43.46679510935481
 21
-6.475925071276114
 31
0.0
 12
44.48279510935482
 22
-6.475925071276114
 32
0.0
 13
44.48279510935482
 23
-6.475925071276114
 33
0.0
  0
LINE
  5
10F
330
10A
100
AcDbEntity
  8
치수문자_일반주서
100
AcDbLine
 10
33.18191339331209
 20
4.407458044959878
 30
0.0
 11
33.18191339331209
 21
3.696520559395377
 31
0.0
  0
LINE
  5
110
330
10A
100
AcDbEntity
  8
치수문자_일반주서
100
AcDbLine
 10
33.18191339331209
 20
3.696520559395377
 30
0.0
 11
38.7381633843714
 21
3.696520559395416
 31
0.0
  0
LINE
  5
111
330
10A
100
AcDbEntity
  8
치수문자_일반주서
100
AcDbLine
 10
38.7381633843714
 20
3.696520559395416
 30
0.0
 11
38.73816338437139
 21
4.407458044959917
 31
0.0
  0
LINE
  5
112
330
10A
100
AcDbEntity
  8
치수문자_일반주서
100
AcDbLine
 10
33.18191339331202
 20
15.23619090709714
 30
0.0
 11
33.18191339331201
 21
15.94712839266164
 31
0.0
  0
LINE
  5
113
330
10A
100
AcDbEntity
  8
치수문자_일반주서
100
AcDbLine
 10
33.18191339331201
 20
15.94712839266164
 30
0.0
 11
38.73816338437131
 21
15.94712839266167
 31
0.0
  0
LINE
  5
114
330
10A
100
AcDbEntity
  8
치수문자_일반주서
100
AcDbLine
 10
38.73816338437131
 20
15.94712839266167
 30
0.0
 11
38.73816338437132
 21
15.23619090709717
 31
0.0
  0
LINE
  5
115
330
10A
100
AcDbEntity
  8
치수문자_일반주서
100
AcDbLine
 10
19.74484509364567
 20
3.176074928723899
 30
0.0
 11
44.97479510935482
 21
3.176074928723897
 31
0.0
  0
LINE
  5
116
330
10A
100
AcDbEntity
  8
치수문자_일반주서
100
AcDbLine
 10
19.74484509364567
 20
-3.173925071276113
 30
0.0
 11
44.97479510935482
 21
-3.173925071276115
 31
0.0
  0
LINE
  5
117
330
10A
100
AcDbEntity
  8
치수문자_일반주서
100
AcDbLine
 10
43.97479510935482
 20
3.176074928723897
 30
0.0
 11
43.97479510935482
 21
16.98673817133418
 31
0.0
  0
LINE
  5
118
330
10A
100
AcDbEntity
  8
치수문자_일반주서
100
AcDbLine
 10
43.97479510935482
 20
3.176074928723897
 30
0.0
 11
43.97479510935482
 21
-3.173925071276115
 31
0.0
  0
LINE
  5
119
330
10A
100
AcDbEntity
  8
치수문자_일반주서
100
AcDbLine
 10
43.97479510935482
 20
-3.173925071276115
 30
0.0
 11
43.97479510935482
 21
-9.523925071276114
 31
0.0
  0
MTEXT
  5
11A
330
10A
100
AcDbEntity
  8
치수문자_일반주서
100
AcDbMText
 10
34.22642646979249
 20
5.296129945571255
 30
0.0
 40
3.5
 41
0.0
 71
     1
 72
     1
  1
0.25
  7
SLDTEXTSTYLE0
 11
-7.044195017643634E-15
 21
1.0
 31
0.0
 73
     1
 44
1.0
  0
MTEXT
  5
11B
330
10A
100
AcDbEntity
  8
치수문자_일반주서
100
AcDbMText
 10
39.46305802015298
 20
2.656910780722964
 30
0.0
 40
3.5
 41
0.0
 71
     1
 72
     1
  1
%%c
  7
SLDTEXTSTYLE0
 11
-7.044195017643634E-15
 21
1.0
 31
0.0
 73
     1
 44
1.0
  0
MTEXT
  5
11C
330
10A
100
AcDbEntity
  8
치수문자_일반주서
100
AcDbMText
 10
39.46305802015294
 20
7.935348179097044
 30
0.0
 40
3.5
 41
0.0
 71
     1
 72
     1
  1
6.35
  7
SLDTEXTSTYLE0
 11
-7.044195017643634E-15
 21
1.0
 31
0.0
 73
     1
 44
1.0
  0
ENDBLK
  5
10C
330
10A
100
AcDbEntity
  8
0
100
AcDbBlockEnd
  0
BLOCK
  5
125
330
124
100
AcDbEntity
  8
0
100
AcDbBlockBegin
  2
SW_DOWELSYMBOL_0
 70
     0
 10
0.0
 20
0.0
 30
0.0
  3
SW_DOWELSYMBOL_0
  1
SW_DOWELSYMBOL_0
  0
CIRCLE
  5
127
330
124
100
AcDbEntity
  8
해칭선
 62
     0
100
AcDbCircle
 10
0.0
 20
0.0
 30
0.0
 40
3.000000000000001
  0
HATCH
  5
128
330
124
100
AcDbEntity
  8
0
  6
Continuous
 62
     0
370
     0
100
AcDbHatch
 10
0.0
 20
0.0
 30
0.0
210
0.0
220
0.0
230
1.0
  2
SOLID
 70
     1
 71
     0
 91
        1
 92
        0
 93
        3
 72
     2
 10
0.0
 20
0.0
 40
3.000000000000001
 50
0.0
 51
90.0
 73
     1
 72
     1
 10
0.0
 20
3.000000000000001
 11
0.0
 21
0.0
 72
     1
 10
0.0
 20
0.0
 11
3.000000000000003
 21
0.0
 97
        0
 75
     0
 76
     1
 98
        1
 10
0.0
 20
0.0
  0
HATCH
  5
129
330
124
100
AcDbEntity
  8
0
  6
Continuous
 62
     0
370
     0
100
AcDbHatch
 10
0.0
 20
0.0
 30
0.0
210
0.0
220
0.0
230
1.0
  2
SOLID
 70
     1
 71
     0
 91
        1
 92
        0
 93
        3
 72
     2
 10
0.0
 20
0.0
 40
3.000000000000001
 50
180.0
 51
270.0000000000007
 73
     1
 72
     1
 10
0.0
 20
-3.000000000000001
 11
0.0
 21
0.0
 72
     1
 10
0.0
 20
0.0
 11
-3.000000000000001
 21
0.0
 97
        0
 75
     0
 76
     1
 98
        1
 10
0.0
 20
0.0
  0
ENDBLK
  5
126
330
124
100
AcDbEntity
  8
0
100
AcDbBlockEnd
  0
BLOCK
  5
187
330
186
100
AcDbEntity
  8
0
100
AcDbBlockBegin
  2
*D7
 70
     1
 10
0.0
 20
0.0
 30
0.0
  3
*D7
  1
*D8
  0
LINE
  5
188
330
186
100
AcDbEntity
  8
0
  6
Continuous
 62
     0
370
    -2
100
AcDbLine
 10
11.18265619282813
 20
42.60026641069256
 30
0.0
 11
4.375000000000033
 21
42.60026641069254
 31
0.0
  0
LINE
  5
189
330
186
100
AcDbEntity
  8
0
  6
Continuous
 62
     0
370
    -2
100
AcDbLine
 10
11.18265619282813
 20
33.07526641069256
 30
0.0
 11
4.375000000000066
 21
33.07526641069254
 31
0.0
  0
LINE
  5
18A
330
186
100
AcDbEntity
  8
0
  6
Continuous
 62
     0
370
    -2
100
AcDbLine
 10
4.375000000000033
 20
42.60026641069254
 30
0.0
 11
4.375000000000066
 21
33.07526641069254
 31
0.0
  0
LINE
  5
18B
330
186
100
AcDbEntity
  8
0
  6
Continuous
 62
     0
370
    -2
100
AcDbLine
 10
4.375000000000021
 20
45.90226641069254
 30
0.0
 11
4.37500000000001
 21
49.20426641069254
 31
0.0
  0
LINE
  5
18C
330
186
100
AcDbEntity
  8
0
  6
Continuous
 62
     0
370
    -2
100
AcDbLine
 10
4.375000000000077
 20
29.77326641069254
 30
0.0
 11
4.375000000000089
 21
26.47126641069254
 31
0.0
  0
SOLID
  5
18D
330
186
100
AcDbEntity
  8
0
 62
     0
100
AcDbTrace
 10
3.824666666666688
 20
45.90226641069254
 30
0.0
 11
4.925333333333355
 21
45.90226641069254
 31
0.0
 12
4.375000000000033
 22
42.60026641069254
 32
0.0
 13
4.375000000000033
 23
42.60026641069254
 33
0.0
  0
SOLID
  5
18E
330
186
100
AcDbEntity
  8
0
 62
     0
100
AcDbTrace
 10
4.925333333333411
 20
29.77326641069254
 30
0.0
 11
3.824666666666744
 21
29.77326641069253
 31
0.0
 12
4.375000000000066
 22
33.07526641069254
 32
0.0
 13
4.375000000000066
 23
33.07526641069254
 33
0.0
  0
MTEXT
  5
18F
330
186
100
AcDbEntity
  8
0
 62
     0
370
    15
100
AcDbMText
 10
0.0000000000000497
 20
37.8377664106924
 30
0.0
 40
3.5
 41
0.0
 71
     2
 72
     1
  1
\A1;%%c9.53 [3/8]
  7
SLDTEXTSTYLE0
 11
-3.450141892798382E-15
 21
1.0
 31
0.0
 73
     1
 44
1.0
  0
POINT
  5
190
330
186
100
AcDbEntity
  8
Defpoints
 62
     0
100
AcDbPoint
 10
11.24515619282813
 20
42.60026641069256
 30
0.0
  0
POINT
  5
191
330
186
100
AcDbEntity
  8
Defpoints
 62
     0
100
AcDbPoint
 10
11.24515619282813
 20
33.07526641069256
 30
0.0
  0
POINT
  5
192
330
186
100
AcDbEntity
  8
Defpoints
 62
     0
100
AcDbPoint
 10
4.375000000000064
 20
33.07526641069253
 30
0.0
  0
ENDBLK
  5
193
330
186
100
AcDbEntity
  8
0
100
AcDbBlockEnd
  0
BLOCK
  5
196
330
195
100
AcDbEntity
  8
0
100
AcDbBlockBegin
  2
*D8
 70
     1
 10
0.0
 20
0.0
 30
0.0
  3
*D8
  1
*D9
  0
LINE
  5
197
330
195
100
AcDbEntity
  8
0
  6
Continuous
 62
     0
370
    -2
100
AcDbLine
 10
86.17515619282813
 20
44.2502664106926
 30
0.0
 11
86.17515619282813
 21
70.80284580564404
 31
0.0
  0
LINE
  5
198
330
195
100
AcDbEntity
  8
0
  6
Continuous
 62
     0
370
    -2
100
AcDbLine
 10
9.975156192828116
 20
41.39276641069257
 30
0.0
 11
9.975156192828116
 21
70.80284580564404
 31
0.0
  0
LINE
  5
199
330
195
100
AcDbEntity
  8
0
  6
Continuous
 62
     0
370
    -2
100
AcDbLine
 10
82.87315619282813
 20
70.80284580564404
 30
0.0
 11
13.27715619282812
 21
70.80284580564404
 31
0.0
  0
SOLID
  5
19A
330
195
100
AcDbEntity
  8
0
 62
     0
100
AcDbTrace
 10
82.87315619282813
 20
70.25251247231071
 30
0.0
 11
82.87315619282813
 21
71.35317913897737
 31
0.0
 12
86.17515619282813
 22
70.80284580564404
 32
0.0
 13
86.17515619282813
 23
70.80284580564404
 33
0.0
  0
SOLID
  5
19B
330
195
100
AcDbEntity
  8
0
 62
     0
100
AcDbTrace
 10
13.27715619282812
 20
71.35317913897737
 30
0.0
 11
13.27715619282812
 21
70.25251247231071
 31
0.0
 12
9.975156192828116
 22
70.80284580564404
 32
0.0
 13
9.975156192828116
 23
70.80284580564404
 33
0.0
  0
MTEXT
  5
19C
330
195
100
AcDbEntity
  8
0
 62
     0
370
    15
100
AcDbMText
 10
48.07515619282813
 20
75.17784580564404
 30
0.0
 40
3.5
 41
0.0
 71
     2
 72
     1
  1
\A1;76.20 [3]
  7
SLDTEXTSTYLE0
 73
     1
 44
1.0
  0
POINT
  5
19D
330
195
100
AcDbEntity
  8
Defpoints
 62
     0
100
AcDbPoint
 10
86.17515619282813
 20
44.1877664106926
 30
0.0
  0
POINT
  5
19E
330
195
100
AcDbEntity
  8
Defpoints
 62
     0
100
AcDbPoint
 10
9.975156192828116
 20
41.33026641069257
 30
0.0
  0
POINT
  5
19F
330
195
100
AcDbEntity
  8
Defpoints
 62
     0
100
AcDbPoint
 10
9.975156192828116
 20
70.80284580564404
 30
0.0
  0
ENDBLK
  5
1A0
330
195
100
AcDbEntity
  8
0
100
AcDbBlockEnd
  0
BLOCK
  5
1A3
330
1A2
100
AcDbEntity
  8
0
100
AcDbBlockBegin
  2
*D9
 70
     1
 10
0.0
 20
0.0
 30
0.0
  3
*D9
  1
*D10
  0
LINE
  5
1A4
330
1A2
100
AcDbEntity
  8
0
  6
Continuous
 62
     0
370
    -2
100
AcDbLine
 10
86.17515619282813
 20
44.2502664106926
 30
0.0
 11
86.17515619282813
 21
53.94127990672096
 31
0.0
  0
LINE
  5
1A5
330
1A2
100
AcDbEntity
  8
0
  6
Continuous
 62
     0
370
    -2
100
AcDbLine
 10
60.77515619282809
 20
43.76285601830683
 30
0.0
 11
60.77515619282809
 21
53.94127990672096
 31
0.0
  0
LINE
  5
1A6
330
1A2
100
AcDbEntity
  8
0
  6
Continuous
 62
     0
370
    -2
100
AcDbLine
 10
82.87315619282813
 20
53.94127990672096
 30
0.0
 11
64.07715619282808
 21
53.94127990672096
 31
0.0
  0
SOLID
  5
1A7
330
1A2
100
AcDbEntity
  8
0
 62
     0
100
AcDbTrace
 10
82.87315619282813
 20
53.39094657338763
 30
0.0
 11
82.87315619282813
 21
54.4916132400543
 31
0.0
 12
86.17515619282813
 22
53.94127990672096
 32
0.0
 13
86.17515619282813
 23
53.94127990672096
 33
0.0
  0
SOLID
  5
1A8
330
1A2
100
AcDbEntity
  8
0
 62
     0
100
AcDbTrace
 10
64.07715619282808
 20
54.4916132400543
 30
0.0
 11
64.07715619282808
 21
53.39094657338763
 31
0.0
 12
60.77515619282809
 22
53.94127990672096
 32
0.0
 13
60.77515619282809
 23
53.94127990672096
 33
0.0
  0
MTEXT
  5
1A9
330
1A2
100
AcDbEntity
  8
0
 62
     0
370
    15
100
AcDbMText
 10
73.47515619282811
 20
58.31627990672096
 30
0.0
 40
3.5
 41
0.0
 71
     2
 72
     1
  1
\A1;25.40 [1]
  7
SLDTEXTSTYLE0
 73
     1
 44
1.0
  0
POINT
  5
1AA
330
1A2
100
AcDbEntity
  8
Defpoints
 62
     0
100
AcDbPoint
 10
86.17515619282813
 20
44.1877664106926
 30
0.0
  0
POINT
  5
1AB
330
1A2
100
AcDbEntity
  8
Defpoints
 62
     0
100
AcDbPoint
 10
60.77515619282809
 20
43.70035601830683
 30
0.0
  0
POINT
  5
1AC
330
1A2
100
AcDbEntity
  8
Defpoints
 62
     0
100
AcDbPoint
 10
60.77515619282809
 20
53.94127990672096
 30
0.0
  0
ENDBLK
  5
1AD
330
1A2
100
AcDbEntity
  8
0
100
AcDbBlockEnd
  0
BLOCK
  5
1B0
330
1AF
100
AcDbEntity
  8
0
100
AcDbBlockBegin
  2
*D10
 70
     1
 10
0.0
 20
0.0
 30
0.0
  3
*D10
  1
*D11
  0
LINE
  5
1B1
330
1AF
100
AcDbEntity
  8
0
  6
Continuous
 62
     0
370
    -2
100
AcDbLine
 10
86.23765619282813
 20
42.60026641069256
 30
0.0
 11
98.94432374799874
 21
42.60026641069261
 31
0.0
  0
LINE
  5
1B2
330
1AF
100
AcDbEntity
  8
0
  6
Continuous
 62
     0
370
    -2
100
AcDbLine
 10
86.23765619282813
 20
33.07526641069256
 30
0.0
 11
98.94432374799877
 21
33.07526641069261
 31
0.0
  0
LINE
  5
1B3
330
1AF
100
AcDbEntity
  8
0
  6
Continuous
 62
     0
370
    -2
100
AcDbLine
 10
98.94432374799874
 20
42.60026641069261
 30
0.0
 11
98.94432374799864
 21
74.39601641069262
 31
0.0
  0
LINE
  5
1B4
330
1AF
100
AcDbEntity
  8
0
  6
Continuous
 62
     0
370
    -2
100
AcDbLine
 10
98.94432374799875
 20
39.29826641069261
 30
0.0
 11
98.94432374799875
 21
36.37726641069261
 31
0.0
  0
SOLID
  5
1B5
330
1AF
100
AcDbEntity
  8
0
 62
     0
100
AcDbTrace
 10
99.49465708133208
 20
39.29826641069261
 30
0.0
 11
98.39399041466542
 21
39.29826641069261
 31
0.0
 12
98.94432374799874
 22
42.60026641069261
 32
0.0
 13
98.94432374799874
 23
42.60026641069261
 33
0.0
  0
SOLID
  5
1B6
330
1AF
100
AcDbEntity
  8
0
 62
     0
100
AcDbTrace
 10
98.39399041466542
 20
36.37726641069261
 30
0.0
 11
99.49465708133208
 21
36.37726641069261
 31
0.0
 12
98.94432374799877
 22
33.07526641069261
 32
0.0
 13
98.94432374799877
 23
33.07526641069261
 33
0.0
  0
MTEXT
  5
1B7
330
1AF
100
AcDbEntity
  8
0
 62
     0
370
    15
100
AcDbMText
 10
94.56932374799868
 20
61.27101641069262
 30
0.0
 40
3.5
 41
0.0
 71
     2
 72
     1
  1
\A1;%%c9.53 [3/8]
  7
SLDTEXTSTYLE0
 11
-2.983906501879684E-15
 21
1.0
 31
0.0
 73
     1
 44
1.0
  0
POINT
  5
1B8
330
1AF
100
AcDbEntity
  8
Defpoints
 62
     0
100
AcDbPoint
 10
86.17515619282813
 20
42.60026641069256
 30
0.0
  0
POINT
  5
1B9
330
1AF
100
AcDbEntity
  8
Defpoints
 62
     0
100
AcDbPoint
 10
86.17515619282813
 20
33.07526641069256
 30
0.0
  0
POINT
  5
1BA
330
1AF
100
AcDbEntity
  8
Defpoints
 62
     0
100
AcDbPoint
 10
98.9443237479988
 20
33.07526641069261
 30
0.0
  0
ENDBLK
  5
1BB
330
1AF
100
AcDbEntity
  8
0
100
AcDbBlockEnd
  0
BLOCK
  5
1DC
330
1DB
100
AcDbEntity
  8
0
100
AcDbBlockBegin
  2
*D11
 70
     1
 10
0.0
 20
0.0
 30
0.0
  3
*D11
  1
*D12
  0
LINE
  5
1DD
330
1DB
100
AcDbEntity
  8
0
  6
Continuous
 62
     0
370
    -2
100
AcDbLine
 10
87.44715755743528
 20
30.31889541706833
 30
0.0
 11
104.9747789377418
 21
0.0000000000001013
 31
0.0
  0
MTEXT
  5
1DE
330
1DB
100
AcDbEntity
  8
0
 62
     0
370
    15
100
AcDbMText
 10
100.6783852241086
 20
12.67664194719784
 30
0.0
 40
3.5
 41
0.0
 71
     5
 72
     1
  1
\A1;R0.76 [R.03]
  7
SLDTEXTSTYLE0
 11
0.5004924617635698
 21
-0.8657408941004472
 31
0.0
 73
     1
 44
1.0
  0
SOLID
  5
1DF
330
1DB
100
AcDbEntity
  8
0
 62
     0
100
AcDbTrace
 10
87.92360362948855
 20
30.59433310185888
 30
0.0
 11
86.970711485382
 21
30.04345773227778
 31
0.0
 12
85.79453144869197
 22
33.17757184938801
 32
0.0
 13
85.79453144869197
 23
33.17757184938801
 33
0.0
  0
LINE
  5
1E0
330
1DB
100
AcDbEntity
  8
0
  6
Continuous
 62
     0
370
    15
100
AcDbLine
 10
85.32315619282812
 20
33.83726641069256
 30
0.0
 11
85.50315619282813
 21
33.83726641069256
 31
0.0
  0
LINE
  5
1E1
330
1DB
100
AcDbEntity
  8
0
  6
Continuous
 62
     0
370
    15
100
AcDbLine
 10
85.41315619282813
 20
33.74726641069255
 30
0.0
 11
85.41315619282813
 21
33.92726641069256
 31
0.0
  0
POINT
  5
1E2
330
1DB
100
AcDbEntity
  8
Defpoints
 62
     0
100
AcDbPoint
 10
85.79453144869197
 20
33.17757184938801
 30
0.0
  0
POINT
  5
1E3
330
1DB
100
AcDbEntity
  8
Defpoints
 62
     0
100
AcDbPoint
 10
85.41315619282813
 20
33.83726641069256
 30
0.0
  0
ENDBLK
  5
1E4
330
1DB
100
AcDbEntity
  8
0
100
AcDbBlockEnd
  0
BLOCK
  5
214
330
213
100
AcDbEntity
  8
0
100
AcDbBlockBegin
  2
*D12
 70
     1
 10
0.0
 20
0.0
 30
0.0
  3
*D12
  1
*D13
  0
LINE
  5
216
330
213
100
AcDbEntity
  8
0
  6
Continuous
 62
     0
370
    -2
100
AcDbLine
 10
-39.99808703700365
 20
3.174999999999998
 30
0.0
 11
-46.74324322983173
 21
3.174999999999973
 31
0.0
  0
LINE
  5
217
330
213
100
AcDbEntity
  8
0
  6
Continuous
 62
     0
370
    -2
100
AcDbLine
 10
-39.93558703700365
 20
-3.175000000000006
 30
0.0
 11
-46.74324322983171
 21
-3.175000000000032
 31
0.0
  0
LINE
  5
218
330
213
100
AcDbEntity
  8
0
  6
Continuous
 62
     0
370
    -2
100
AcDbLine
 10
-46.74324322983173
 20
3.174999999999973
 30
0.0
 11
-46.74324322983174
 21
6.476999999999974
 31
0.0
  0
LINE
  5
219
330
213
100
AcDbEntity
  8
0
  6
Continuous
 62
     0
370
    -2
100
AcDbLine
 10
-46.74324322983171
 20
-3.175000000000032
 30
0.0
 11
-46.74324322983169
 21
-6.477000000000032
 31
0.0
  0
SOLID
  5
21A
330
213
100
AcDbEntity
  8
0
 62
     0
100
AcDbTrace
 10
-46.19290989649838
 20
-0.127000000000025
 30
0.0
 11
-47.29357656316505
 21
-0.1270000000000287
 31
0.0
 12
-46.74324322983173
 22
3.174999999999973
 32
0.0
 13
-46.74324322983173
 23
3.174999999999973
 33
0.0
  0
SOLID
  5
21B
330
213
100
AcDbEntity
  8
0
 62
     0
100
AcDbTrace
 10
-47.29357656316505
 20
0.1269999999999664
 30
0.0
 11
-46.19290989649839
 21
0.1269999999999701
 31
0.0
 12
-46.74324322983171
 22
-3.175000000000032
 32
0.0
 13
-46.74324322983171
 23
-3.175000000000032
 33
0.0
  0
MTEXT
  5
21C
330
213
100
AcDbEntity
  8
0
 62
     0
370
    15
100
AcDbMText
 10
-51.11824322983172
 20
1.587499999999839
 30
0.0
 40
3.5
 41
0.0
 71
     2
 72
     1
  1
\A1;%%c6.35 [1/4]
  7
SLDTEXTSTYLE0
 11
-3.356894814614644E-15
 21
1.0
 31
0.0
 73
     1
 44
1.0
  0
POINT
  5
21D
330
213
100
AcDbEntity
  8
Defpoints
 62
     0
100
AcDbPoint
 10
-39.93558703700365
 20
3.174999999999999
 30
0.0
  0
POINT
  5
44B
330
213
100
AcDbEntity
  8
Defpoints
 62
     0
100
AcDbPoint
 10
-39.87308703700365
 20
-3.175000000000006
 30
0.0
  0
POINT
  5
44C
330
213
100
AcDbEntity
  8
Defpoints
 62
     0
100
AcDbPoint
 10
-46.7432432298317
 20
-3.175000000000032
 30
0.0
  0
ENDBLK
  5
215
330
213
100
AcDbEntity
  8
0
100
AcDbBlockEnd
  0
BLOCK
  5
222
330
221
100
AcDbEntity
  8
0
100
AcDbBlockBegin
  2
*D13
 70
     1
 10
0.0
 20
0.0
 30
0.0
  3
*D13
  1
*D14
  0
LINE
  5
224
330
221
100
AcDbEntity
  8
0
  6
Continuous
 62
     0
370
    -2
100
AcDbLine
 10
22.29441296299635
 20
6.412500000000041
 30
0.0
 11
22.29441296299635
 21
32.96507939495147
 31
0.0
  0
LINE
  5
225
330
221
100
AcDbEntity
  8
0
  6
Continuous
 62
     0
370
    -2
100
AcDbLine
 10
-41.20558703700366
 20
1.967500000000003
 30
0.0
 11
-41.20558703700366
 21
32.96507939495147
 31
0.0
  0
LINE
  5
226
330
221
100
AcDbEntity
  8
0
  6
Continuous
 62
     0
370
    -2
100
AcDbLine
 10
18.99241296299635
 20
32.96507939495147
 30
0.0
 11
-37.90358703700366
 21
32.96507939495147
 31
0.0
  0
SOLID
  5
227
330
221
100
AcDbEntity
  8
0
 62
     0
100
AcDbTrace
 10
18.99241296299635
 20
32.41474606161814
 30
0.0
 11
18.99241296299635
 21
33.51541272828481
 31
0.0
 12
22.29441296299635
 22
32.96507939495147
 32
0.0
 13
22.29441296299635
 23
32.96507939495147
 33
0.0
  0
SOLID
  5
228
330
221
100
AcDbEntity
  8
0
 62
     0
100
AcDbTrace
 10
-37.90358703700366
 20
33.51541272828481
 30
0.0
 11
-37.90358703700366
 21
32.41474606161814
 31
0.0
 12
-41.20558703700366
 22
32.96507939495147
 32
0.0
 13
-41.20558703700366
 23
32.96507939495147
 33
0.0
  0
MTEXT
  5
229
330
221
100
AcDbEntity
  8
0
 62
     0
370
    15
100
AcDbMText
 10
-9.45558703700366
 20
37.34007939495147
 30
0.0
 40
3.5
 41
0.0
 71
     2
 72
     1
  1
\A1;63.50 [2 1/2]
  7
SLDTEXTSTYLE0
 73
     1
 44
1.0
  0
POINT
  5
22A
330
221
100
AcDbEntity
  8
Defpoints
 62
     0
100
AcDbPoint
 10
22.29441296299635
 20
6.350000000000041
 30
0.0
  0
POINT
  5
22B
330
221
100
AcDbEntity
  8
Defpoints
 62
     0
100
AcDbPoint
 10
-41.20558703700366
 20
1.905000000000003
 30
0.0
  0
POINT
  5
22C
330
221
100
AcDbEntity
  8
Defpoints
 62
     0
100
AcDbPoint
 10
-41.20558703700366
 20
32.96507939495147
 30
0.0
  0
ENDBLK
  5
223
330
221
100
AcDbEntity
  8
0
100
AcDbBlockEnd
  0
BLOCK
  5
22E
330
22D
100
AcDbEntity
  8
0
100
AcDbBlockBegin
  2
*D14
 70
     1
 10
0.0
 20
0.0
 30
0.0
  3
*D14
  1
*D15
  0
LINE
  5
230
330
22D
100
AcDbEntity
  8
0
  6
Continuous
 62
     0
370
    -2
100
AcDbLine
 10
22.29441296299635
 20
6.412500000000041
 30
0.0
 11
22.29441296299635
 21
16.1035134960284
 31
0.0
  0
LINE
  5
231
330
22D
100
AcDbEntity
  8
0
  6
Continuous
 62
     0
370
    -2
100
AcDbLine
 10
6.419412962996351
 20
2.443749999999996
 30
0.0
 11
6.419412962996351
 21
16.1035134960284
 31
0.0
  0
LINE
  5
232
330
22D
100
AcDbEntity
  8
0
  6
Continuous
 62
     0
370
    -2
100
AcDbLine
 10
18.99241296299635
 20
16.1035134960284
 30
0.0
 11
9.72141296299635
 21
16.1035134960284
 31
0.0
  0
SOLID
  5
233
330
22D
100
AcDbEntity
  8
0
 62
     0
100
AcDbTrace
 10
18.99241296299635
 20
15.55318016269507
 30
0.0
 11
18.99241296299635
 21
16.65384682936173
 31
0.0
 12
22.29441296299635
 22
16.1035134960284
 32
0.0
 13
22.29441296299635
 23
16.1035134960284
 33
0.0
  0
SOLID
  5
234
330
22D
100
AcDbEntity
  8
0
 62
     0
100
AcDbTrace
 10
9.72141296299635
 20
16.65384682936173
 30
0.0
 11
9.72141296299635
 21
15.55318016269507
 31
0.0
 12
6.419412962996351
 22
16.1035134960284
 32
0.0
 13
6.419412962996351
 23
16.1035134960284
 33
0.0
  0
MTEXT
  5
235
330
22D
100
AcDbEntity
  8
0
 62
     0
370
    15
100
AcDbMText
 10
9.594412962996334
 20
20.4785134960284
 30
0.0
 40
3.5
 41
0.0
 71
     2
 72
     1
  1
\A1;15.88 [5/8]
  7
SLDTEXTSTYLE0
 73
     1
 44
1.0
  0
POINT
  5
236
330
22D
100
AcDbEntity
  8
Defpoints
 62
     0
100
AcDbPoint
 10
22.29441296299635
 20
6.350000000000041
 30
0.0
  0
POINT
  5
237
330
22D
100
AcDbEntity
  8
Defpoints
 62
     0
100
AcDbPoint
 10
6.419412962996351
 20
2.381249999999996
 30
0.0
  0
POINT
  5
238
330
22D
100
AcDbEntity
  8
Defpoints
 62
     0
100
AcDbPoint
 10
6.419412962996351
 20
16.1035134960284
 30
0.0
  0
ENDBLK
  5
22F
330
22D
100
AcDbEntity
  8
0
100
AcDbBlockEnd
  0
BLOCK
  5
23A
330
239
100
AcDbEntity
  8
0
100
AcDbBlockBegin
  2
*D15
 70
     1
 10
0.0
 20
0.0
 30
0.0
  3
*D15
  1
*D16
  0
LINE
  5
23C
330
239
100
AcDbEntity
  8
0
  6
Continuous
 62
     0
370
    -2
100
AcDbLine
 10
22.35691296299635
 20
2.381249999999997
 30
0.0
 11
35.06358051816697
 21
2.381250000000044
 31
0.0
  0
LINE
  5
23D
330
239
100
AcDbEntity
  8
0
  6
Continuous
 62
     0
370
    -2
100
AcDbLine
 10
22.35691296299635
 20
-2.381250000000003
 30
0.0
 11
35.06358051816698
 21
-2.381249999999959
 31
0.0
  0
LINE
  5
23E
330
239
100
AcDbEntity
  8
0
  6
Continuous
 62
     0
370
    -2
100
AcDbLine
 10
35.06358051816697
 20
2.381250000000044
 30
0.0
 11
35.06358051816686
 21
37.43325000000007
 31
0.0
  0
LINE
  5
23F
330
239
100
AcDbEntity
  8
0
  6
Continuous
 62
     0
370
    -2
100
AcDbLine
 10
35.06358051816696
 20
5.683250000000044
 30
0.0
 11
35.06358051816695
 21
8.985250000000043
 31
0.0
  0
LINE
  5
240
330
239
100
AcDbEntity
  8
0
  6
Continuous
 62
     0
370
    -2
100
AcDbLine
 10
35.06358051816699
 20
-5.683249999999958
 30
0.0
 11
35.06358051816699
 21
-8.985249999999958
 31
0.0
  0
SOLID
  5
241
330
239
100
AcDbEntity
  8
0
 62
     0
100
AcDbTrace
 10
34.51324718483362
 20
5.683250000000042
 30
0.0
 11
35.61391385150029
 21
5.683250000000045
 31
0.0
 12
35.06358051816697
 22
2.381250000000044
 32
0.0
 13
35.06358051816697
 23
2.381250000000044
 33
0.0
  0
SOLID
  5
242
330
239
100
AcDbEntity
  8
0
 62
     0
100
AcDbTrace
 10
35.61391385150032
 20
-5.683249999999957
 30
0.0
 11
34.51324718483365
 21
-5.68324999999996
 31
0.0
 12
35.06358051816698
 22
-2.381249999999959
 32
0.0
 13
35.06358051816698
 23
-2.381249999999959
 33
0.0
  0
MTEXT
  5
243
330
239
100
AcDbEntity
  8
0
 62
     0
370
    15
100
AcDbMText
 10
30.6885805181669
 20
23.43325000000005
 30
0.0
 40
3.5
 41
0.0
 71
     2
 72
     1
  1
\A1;%%c4.76 [3/16]
  7
SLDTEXTSTYLE0
 11
-2.983906501879686E-15
 21
1.0
 31
0.0
 73
     1
 44
1.0
  0
POINT
  5
244
330
239
100
AcDbEntity
  8
Defpoints
 62
     0
100
AcDbPoint
 10
22.29441296299635
 20
2.381249999999996
 30
0.0
  0
POINT
  5
245
330
239
100
AcDbEntity
  8
Defpoints
 62
     0
100
AcDbPoint
 10
22.29441296299635
 20
-2.381250000000003
 30
0.0
  0
POINT
  5
3F1
330
239
100
AcDbEntity
  8
Defpoints
 62
     0
100
AcDbPoint
 10
35.06358051816698
 20
-2.381249999999956
 30
0.0
  0
ENDBLK
  5
23B
330
239
100
AcDbEntity
  8
0
100
AcDbBlockEnd
  0
BLOCK
  5
247
330
246
100
AcDbEntity
  8
0
100
AcDbBlockBegin
  2
*D16
 70
     1
 10
0.0
 20
0.0
 30
0.0
  3
*D16
  1
*D17
  0
LINE
  5
249
330
246
100
AcDbEntity
  8
0
  6
Continuous
 62
     0
370
    -2
100
AcDbLine
 10
36.67200136460713
 20
-7.518870993624226
 30
0.0
 11
54.19962274491367
 21
-37.83776641069246
 31
0.0
  0
MTEXT
  5
24A
330
246
100
AcDbEntity
  8
0
 62
     0
370
    15
100
AcDbMText
 10
49.90322903128049
 20
-25.16112446349472
 30
0.0
 40
3.5
 41
0.0
 71
     5
 72
     1
  1
\A1;R0.76 [R.03]
  7
SLDTEXTSTYLE0
 11
0.5004924617635698
 21
-0.8657408941004472
 31
0.0
 73
     1
 44
1.0
  0
SOLID
  5
24B
330
246
100
AcDbEntity
  8
0
 62
     0
100
AcDbTrace
 10
37.14844743666041
 20
-7.243433308833675
 30
0.0
 11
36.19555529255386
 21
-7.794308678414778
 31
0.0
 12
35.01937525586383
 22
-4.66019456130455
 32
0.0
 13
35.01937525586383
 23
-4.66019456130455
 33
0.0
  0
LINE
  5
24C
330
246
100
AcDbEntity
  8
0
  6
Continuous
 62
     0
370
    15
100
AcDbLine
 10
34.54799999999998
 20
-4.000500000000002
 30
0.0
 11
34.72799999999999
 21
-4.000500000000002
 31
0.0
  0
LINE
  5
24D
330
246
100
AcDbEntity
  8
0
  6
Continuous
 62
     0
370
    15
100
AcDbLine
 10
34.63799999999998
 20
-4.090500000000002
 30
0.0
 11
34.63799999999998
 21
-3.910500000000003
 31
0.0
  0
POINT
  5
24E
330
246
100
AcDbEntity
  8
Defpoints
 62
     0
100
AcDbPoint
 10
35.01937525586383
 20
-4.66019456130455
 30
0.0
  0
POINT
  5
24F
330
246
100
AcDbEntity
  8
Defpoints
 62
     0
100
AcDbPoint
 10
34.63799999999998
 20
-4.000500000000002
 30
0.0
  0
ENDBLK
  5
248
330
246
100
AcDbEntity
  8
0
100
AcDbBlockEnd
  0
BLOCK
  5
256
330
255
100
AcDbEntity
  8
0
100
AcDbBlockBegin
  2
*D17
 70
     1
 10
0.0
 20
0.0
 30
0.0
  3
*D17
  1
*D18
  0
LINE
  5
258
330
255
100
AcDbEntity
  8
0
 62
     0
370
    -2
100
AcDbLine
 10
57.98574633542133
 20
-18.36405591394799
 30
0.0
 11
42.46174633542133
 21
-18.36405591394799
 31
0.0
  0
LINE
  5
259
330
255
100
AcDbEntity
  8
0
 62
     0
370
    -2
100
AcDbLine
 10
42.46174633542133
 20
-18.36405591394799
 30
0.0
 11
36.58196349070756
 21
-7.569407668572563
 31
0.0
  0
MTEXT
  5
25A
330
255
100
AcDbEntity
  8
0
 62
     0
100
AcDbMText
 10
50.98574633542133
 20
-14.79838924728132
 30
0.0
 40
3.5
 41
0.0
 71
     5
 72
     1
  1
R0,76
 73
     1
 44
1.0
  0
LINE
  5
25B
330
255
100
AcDbEntity
  8
0
 62
     0
370
    -2
100
AcDbLine
 10
34.63799999999998
 20
-4.000500000000002
 30
0.0
 11
35.00249315450765
 21
-4.669670187857358
 31
0.0
  0
SOLID
  5
25C
330
255
100
AcDbEntity
  8
0
 62
     0
100
AcDbTrace
 10
37.06525307082676
 20
-7.306162612539246
 30
0.0
 11
36.09867391058836
 21
-7.83265272460588
 31
0.0
 12
35.00249315450765
 22
-4.669670187857358
 32
0.0
 13
35.00249315450765
 23
-4.669670187857358
 33
0.0
  0
POINT
  5
25D
330
255
100
AcDbEntity
  8
Defpoints
 62
     0
100
AcDbPoint
 10
35.00249315450765
 20
-4.669670187857358
 30
0.0
  0
POINT
  5
25E
330
255
100
AcDbEntity
  8
Defpoints
 62
     0
100
AcDbPoint
 10
34.63799999999998
 20
-4.000500000000002
 30
0.0
  0
ENDBLK
  5
257
330
255
100
AcDbEntity
  8
0
100
AcDbBlockEnd
  0
BLOCK
  5
407
330
406
100
AcDbEntity
  8
0
100
AcDbBlockBegin
  2
*D18
 70
     1
 10
0.0
 20
0.0
 30
0.0
  3
*D18
  1
*D19
  0
LINE
  5
409
330
406
100
AcDbEntity
  8
0
  6
Continuous
 62
     0
370
    -2
100
AcDbLine
 10
20.98613437637187
 20
-5.441894651747258
 30
0.0
 11
34.46770760802034
 21
-40.82504803651074
 31
0.0
  0
MTEXT
  5
40A
330
406
100
AcDbEntity
  8
0
 62
     0
370
    15
100
AcDbMText
 10
30.76773375984009
 20
-23.74165200160942
 30
0.0
 40
3.5
 41
0.0
 71
     5
 72
     1
  1
\A1;R.38 [R0.015000]
  7
SLDTEXTSTYLE0
 11
0.3560478345587152
 21
-0.9344677305857328
 31
0.0
 73
     1
 44
1.0
  0
SOLID
  5
40B
330
406
100
AcDbEntity
  8
0
 62
     0
100
AcDbTrace
 10
21.50040311743755
 20
-5.245949660128446
 30
0.0
 11
20.47186563530618
 21
-5.637839643366071
 31
0.0
 12
19.81046442665899
 22
-2.356282205353169
 32
0.0
 13
19.81046442665899
 23
-2.356282205353169
 33
0.0
  0
LINE
  5
40C
330
406
100
AcDbEntity
  8
0
  6
Continuous
 62
     0
370
    15
100
AcDbLine
 10
19.58481020169212
 20
-2.000250000000005
 30
0.0
 11
19.76481020169212
 21
-2.000250000000005
 31
0.0
  0
LINE
  5
40D
330
406
100
AcDbEntity
  8
0
  6
Continuous
 62
     0
370
    15
100
AcDbLine
 10
19.67481020169212
 20
-2.090250000000005
 30
0.0
 11
19.67481020169212
 21
-1.910250000000005
 31
0.0
  0
POINT
  5
40E
330
406
100
AcDbEntity
  8
Defpoints
 62
     0
100
AcDbPoint
 10
19.81046442665899
 20
-2.356282205353169
 30
0.0
  0
POINT
  5
40F
330
406
100
AcDbEntity
  8
Defpoints
 62
     0
100
AcDbPoint
 10
19.67481020169212
 20
-2.000250000000005
 30
0.0
  0
ENDBLK
  5
408
330
406
100
AcDbEntity
  8
0
100
AcDbBlockEnd
  0
BLOCK
  5
418
330
417
100
AcDbEntity
  8
0
100
AcDbBlockBegin
  2
*D19
 70
     1
 10
0.0
 20
0.0
 30
0.0
  3
*D19
  1
*D20
  0
LINE
  5
41A
330
417
100
AcDbEntity
  8
0
  6
Continuous
 62
     0
370
    -2
100
AcDbLine
 10
22.9092471685461
 20
-5.442916247259067
 30
0.0
 11
35.63135587430614
 21
-40.77403851027131
 31
0.0
  0
MTEXT
  5
41B
330
417
100
AcDbEntity
  8
0
 62
     0
370
    15
100
AcDbMText
 10
33.65452884458534
 20
-27.53589646183546
 30
0.0
 40
3.5
 41
0.0
 71
     5
 72
     1
  1
\A1;R0.76 [R.03]
  7
SLDTEXTSTYLE0
 11
0.3387879442789728
 21
-0.9408627576916986
 31
0.0
 73
     1
 44
1.0
  0
SOLID
  5
41C
330
417
100
AcDbEntity
  8
0
 62
     0
100
AcDbTrace
 10
23.42703530619576
 20
-5.256469948590873
 30
0.0
 11
22.39145903089643
 21
-5.629362545927261
 31
0.0
 12
21.79056937653693
 22
-2.336187421361078
 32
0.0
 13
21.79056937653693
 23
-2.336187421361078
 33
0.0
  0
LINE
  5
41D
330
417
100
AcDbEntity
  8
0
  6
Continuous
 62
     0
370
    15
100
AcDbLine
 10
21.44241296299635
 20
-1.619250000000008
 30
0.0
 11
21.62241296299635
 21
-1.619250000000008
 31
0.0
  0
LINE
  5
41E
330
417
100
AcDbEntity
  8
0
  6
Continuous
 62
     0
370
    15
100
AcDbLine
 10
21.53241296299635
 20
-1.709250000000008
 30
0.0
 11
21.53241296299635
 21
-1.529250000000008
 31
0.0
  0
POINT
  5
41F
330
417
100
AcDbEntity
  8
Defpoints
 62
     0
100
AcDbPoint
 10
21.79056937653693
 20
-2.336187421361078
 30
0.0
  0
POINT
  5
420
330
417
100
AcDbEntity
  8
Defpoints
 62
     0
100
AcDbPoint
 10
21.53241296299635
 20
-1.619250000000008
 30
0.0
  0
ENDBLK
  5
419
330
417
100
AcDbEntity
  8
0
100
AcDbBlockEnd
  0
ENDSEC
  0
SECTION
  2
ENTITIES
  0
LINE
  5
C6
330
1F
100
AcDbEntity
  8
참조1
100
AcDbLine
 10
-30.74418979830785
 20
0.0010749287238856
 30
0.0
 11
-30.74418979830784
 21
-39.99892507127612
 31
0.0
  0
LINE
  5
C7
330
1F
100
AcDbEntity
  8
참조1
100
AcDbLine
 10
-30.74418979830784
 20
-39.99892507127612
 30
0.0
 11
-45.90304661261651
 21
-39.9989250712761
 31
0.0
  0
INSERT
  5
C9
330
1F
100
AcDbEntity
  8
0
  6
Continuous
 62
     7
100
AcDbBlockReference
 66
     1
  2
블럭10
 10
-44.68446273043305
 20
-52.04609937292004
 30
0.0
  0
ATTRIB
  5
CA
330
C9
100
AcDbEntity
  8
FORMAT
 62
     2
100
AcDbText
 10
-54.82609874256968
 20
-49.97073246008785
 30
0.0
 40
4.233333333333333
  1
EM649904 [ 4 FLUTE ]
 41
0.75
  7
SLDTEXTSTYLE0
 11
-54.82609874256968
 21
-52.08739912675452
 31
0.0
100
AcDbAttribute
  2
AUTOATTR0
 70
     0
 74
     1
  0
SEQEND
  5
CB
330
C9
100
AcDbEntity
  8
0
  6
Continuous
 62
     7
  0
HATCH
  5
CC
330
1F
100
AcDbEntity
  8
중심선
100
AcDbHatch
 10
0.0
 20
0.0
 30
0.0
210
0.0
220
0.0
230
1.0
  2
SOLID
 70
     1
 71
     0
 91
        1
 92
        0
 93
        4
 72
     1
 10
-38.9695534260522
 20
-35.7989250712761
 11
-42.41582866988949
 21
-35.7989250712761
 72
     1
 10
-42.41582866988949
 20
-35.7989250712761
 11
-44.5440585290935
 21
-38.3352506518487
 72
     1
 10
-44.54405852909351
 20
-38.33525065184871
 11
-41.09775020014308
 21
-38.33521122254622
 72
     1
 10
-41.09775020014308
 20
-38.33521122254622
 11
-38.9695534260522
 21
-35.79892507127611
 97
        0
 75
     0
 76
     1
 98
        1
 10
-15.34418979830786
 20
-0.0000000000000036
  0
HATCH
  5
CD
330
1F
100
AcDbEntity
  8
중심선
100
AcDbHatch
 10
0.0
 20
0.0
 30
0.0
210
0.0
220
0.0
230
1.0
  2
SOLID
 70
     1
 71
     0
 91
        1
 92
        0
 93
        4
 72
     1
 10
-33.95678943501623
 20
-35.7989250712761
 11
-37.40306467885351
 21
-35.7989250712761
 72
     1
 10
-37.4030646788535
 20
-35.7989250712761
 11
-41.93420268721092
 21
-41.19892507127612
 72
     1
 10
-41.93420268721092
 20
-41.19892507127612
 11
-38.48792744337364
 21
-41.19892507127612
 72
     1
 10
-38.48792744337364
 20
-41.19892507127612
 11
-33.95678943501623
 21
-35.7989250712761
 97
        0
 75
     0
 76
     1
 98
        1
 10
-15.34418979830786
 20
-0.0000000000000036
  0
HATCH
  5
CE
330
1F
100
AcDbEntity
  8
중심선
100
AcDbHatch
 10
0.0
 20
0.0
 30
0.0
210
0.0
220
0.0
230
1.0
  2
SOLID
 70
     1
 71
     0
 91
        1
 92
        0
 93
        4
 72
     1
 10
-28.94402544398036
 20
-35.7989250712761
 11
-32.39030068781747
 21
-35.7989250712761
 72
     1
 10
-32.39030068781747
 20
-35.7989250712761
 11
-39.43873758970672
 21
-44.19892507127612
 72
     1
 10
-39.43873758970672
 20
-44.19892507127612
 11
-35.99246234586944
 21
-44.19892507127612
 72
     1
 10
-35.99246234586944
 20
-44.19892507127612
 11
-28.94402544398036
 21
-35.7989250712761
 97
        0
 75
     0
 76
     1
 98
        1
 10
-15.34418979830786
 20
-0.0000000000000036
  0
HATCH
  5
CF
330
1F
100
AcDbEntity
  8
중심선
100
AcDbHatch
 10
0.0
 20
0.0
 30
0.0
210
0.0
220
0.0
230
1.0
  2
SOLID
 70
     1
 71
     0
 91
        1
 92
        0
 93
        6
 72
     3
 10
-24.14413501296816
 20
-39.99892507132738
 11
3.960054785062283
 21
1.540882976769353E-10
 40
0.3939339440162628
 50
17.09539180608436
 51
320.0019657685077
 73
     0
 72
     1
 10
-22.46113535726756
 20
-38.58681907591438
 11
-20.15583348356652
 21
-36.65249236586649
 72
     3
 10
-24.144135013021
 20
-39.99892507127626
 11
6.600054785286829
 21
-1.278976924368180E-13
 40
0.636358354079598
 50
39.99873849337417
 51
368.4976242363724
 73
     1
 72
     1
 10
-17.71880252112039
 20
-39.03892507120614
 11
-25.46406770618508
 21
-39.03892507120611
 72
     1
 10
-25.46406770618508
 20
-39.03892507120611
 11
-25.46409275063102
 21
-40.95892507120602
 72
     1
 10
-25.46409275063102
 20
-40.95892507120602
 11
-21.02271298115898
 21
-40.958925071206
 97
        0
 75
     0
 76
     1
 98
        1
 10
-15.34418979830786
 20
-0.0000000000000036
  0
LINE
  5
11D
330
1F
100
AcDbEntity
  8
참조1
100
AcDbLine
 10
52.06929401703775
 20
7.441074928723892
 30
0.0
 11
52.06929401703775
 21
-7.438925071276112
 31
0.0
  0
LINE
  5
11E
330
1F
100
AcDbEntity
  8
참조1
100
AcDbLine
 10
64.76929401703775
 20
5.441074928723892
 30
0.0
 11
52.06929401703775
 21
5.441074928723892
 31
0.0
  0
SOLID
  5
11F
330
1F
100
AcDbEntity
  8
참조1
100
AcDbTrace
 10
52.06929401703775
 20
5.441074928723892
 30
0.0
 11
58.41929401703774
 21
4.425074928723892
 31
0.0
 12
58.41929401703774
 22
6.457074928723892
 32
0.0
 13
58.41929401703774
 23
6.457074928723892
 33
0.0
  0
LINE
  5
120
330
1F
100
AcDbEntity
  8
참조1
100
AcDbLine
 10
64.76929401703775
 20
-5.438925071276112
 30
0.0
 11
52.06929401703775
 21
-5.438925071276112
 31
0.0
  0
SOLID
  5
121
330
1F
100
AcDbEntity
  8
참조1
100
AcDbTrace
 10
52.06929401703775
 20
-5.438925071276112
 30
0.0
 11
58.41929401703774
 21
-6.454925071276112
 31
0.0
 12
58.41929401703774
 22
-4.422925071276112
 32
0.0
 13
58.41929401703774
 23
-4.422925071276112
 33
0.0
  0
MTEXT
  5
122
330
1F
100
AcDbEntity
  8
참조1
100
AcDbMText
 10
61.46678410950803
 20
10.98929157337383
 30
0.0
 40
3.5
 41
0.0
 71
     1
 72
     1
  1
A
  7
SLDTEXTSTYLE0
 73
     1
 44
1.0
  0
MTEXT
  5
123
330
1F
100
AcDbEntity
  8
참조1
100
AcDbMText
 10
61.46678410950803
 20
0.1092915733738215
 30
0.0
 40
3.5
 41
0.0
 71
     1
 72
     1
  1
A
  7
SLDTEXTSTYLE0
 73
     1
 44
1.0
  0
LINE
  5
1EA
330
1F
100
AcDbEntity
  8
0
  6
Continuous
 62
     1
370
    15
100
AcDbLine
 10
17.62129865680743
 20
2.381249999999994
 30
0.0
 11
16.16963612228391
 21
2.381249999999994
 31
0.0
  0
LINE
  5
1EB
330
1F
100
AcDbEntity
  8
0
  6
Continuous
 62
     1
370
    15
100
AcDbLine
 10
16.16963612228388
 20
-2.381250000000009
 30
0.0
 11
17.62129865680744
 21
-2.381250000000009
 31
0.0
  0
LINE
  5
1EC
330
1F
100
AcDbEntity
  8
외형선
  6
Continuous
370
    15
100
AcDbLine
 10
-39.93558703700365
 20
3.174999999999999
 30
0.0
 11
-41.20558703700366
 21
1.905000000000003
 31
0.0
  0
LINE
  5
1ED
330
1F
100
AcDbEntity
  8
외형선
  6
Continuous
370
    15
100
AcDbLine
 10
-41.20558703700366
 20
-1.90500000000001
 30
0.0
 11
-39.93558703700365
 21
-3.175000000000006
 31
0.0
  0
SPLINE
  5
1EE
330
1F
100
AcDbEntity
  8
0
  6
Continuous
 62
     1
370
    15
100
AcDbSpline
210
0.0
220
0.0
230
1.0
 70
     8
 71
     3
 72
    18
 73
    14
 74
     0
 42
0.000000001
 43
0.00000001
 40
0.0
 40
0.0
 40
0.0
 40
0.0
 40
0.0883853443123383
 40
0.1768063120159699
 40
0.2652014765171716
 40
0.3535642365385396
 40
0.4419085192525871
 40
0.530248322244409
 40
0.6185976601899811
 40
0.7157958095163086
 40
0.812997707249123
 40
0.9102040135793357
 40
0.9999999999999999
 40
0.9999999999999999
 40
0.9999999999999999
 40
0.9999999999999999
 10
22.10391296299633
 20
0.3135267357540599
 30
0.0
 10
21.8549586361772
 20
0.455010907519565
 30
0.0
 10
21.35694964240371
 20
0.7380362757309911
 30
0.0
 10
20.60984870350316
 20
1.135504795589625
 30
0.0
 10
19.8628906470922
 20
1.49667873295623
 30
0.0
 10
19.11620257541678
 20
1.808698258171678
 30
0.0
 10
18.36970355249137
 20
2.061615980201111
 30
0.0
 10
17.62324330288509
 20
2.247159421066097
 30
0.0
 10
16.85185510012011
 20
2.362884320229458
 30
0.0
 10
16.05535990045047
 20
2.396422176683235
 30
0.0
 10
15.23394966444562
 20
2.334469371699246
 30
0.0
 10
14.43337296657149
 20
2.190672055859576
 30
0.0
 10
13.90659955503907
 20
2.027328268745723
 30
0.0
 10
13.65365004616995
 20
1.948892778603813
 30
0.0
  0
SPLINE
  5
1EF
330
1F
100
AcDbEntity
  8
0
  6
Continuous
 62
     1
370
    15
100
AcDbSpline
210
0.0
220
0.0
230
1.0
 70
     8
 71
     3
 72
    14
 73
    10
 74
     0
 42
0.000000001
 43
0.00000001
 40
0.0
 40
0.0
 40
0.0
 40
0.0
 40
0.25
 40
0.25
 40
0.5
 40
0.5
 40
0.75
 40
0.75
 40
1.0
 40
1.0
 40
1.0
 40
1.0
 10
22.29441296299635
 20
0.2334034713533519
 30
0.0
 10
22.29441296299635
 20
0.2312683349290907
 30
0.0
 10
22.28908115425161
 20
0.2311869209709094
 30
0.0
 10
22.26849273299027
 20
0.236046708818062
 30
0.0
 10
22.25310579563374
 20
0.241083346341604
 30
0.0
 10
22.21617985580234
 20
0.2558706755175031
 30
0.0
 10
22.19465732322945
 20
0.26561060336293
 30
0.0
 10
22.14960388109485
 20
0.2880981847683621
 30
0.0
 10
22.12663863848302
 20
0.3005218296482077
 30
0.0
 10
22.10391296299636
 20
0.3135267357540599
 30
0.0
  0
SPLINE
  5
1F0
330
1F
100
AcDbEntity
  8
0
  6
Continuous
 62
     1
370
    15
100
AcDbSpline
210
0.0
220
0.0
230
1.0
 70
     8
 71
     3
 72
    10
 73
     6
 74
     0
 42
0.000000001
 43
0.00000001
 40
0.0
 40
0.0
 40
0.0
 40
0.0
 40
0.5
 40
0.5
 40
1.0
 40
1.0
 40
1.0
 40
1.0
 10
22.10391296299633
 20
1.108207217850381
 30
0.0
 10
22.15349521155619
 20
1.082872884830227
 30
0.0
 10
22.19892083508246
 20
1.045538755633185
 30
0.0
 10
22.26974050001772
 20
0.9638469578680038
 30
0.0
 10
22.29441296299635
 20
0.9197214703520089
 30
0.0
 10
22.29441296299635
 20
0.8870071951313427
 30
0.0
  0
LINE
  5
1F1
330
1F
100
AcDbEntity
  8
0
  6
Continuous
 62
     1
370
    15
100
AcDbLine
 10
22.29441296299635
 20
0.2334034713533519
 30
0.0
 11
22.29441296299635
 21
0.8870071951313427
 31
0.0
  0
SPLINE
  5
1F2
330
1F
100
AcDbEntity
  8
0
  6
Continuous
 62
     1
370
    15
100
AcDbSpline
210
0.0
220
0.0
230
1.0
 70
     8
 71
     3
 72
    13
 73
     9
 74
     0
 42
0.000000001
 43
0.00000001
 40
0.0
 40
0.0
 40
0.0
 40
0.0
 40
0.0836628069076694
 40
0.2669494016612667
 40
0.4502270733010812
 40
0.633493905829908
 40
0.8167511346506166
 40
1.0
 40
1.0
 40
1.0
 40
1.0
 10
17.62129865680743
 20
2.37149702907427
 30
0.0
 10
17.7463045657274
 20
2.373313334894686
 30
0.0
 10
18.14517060696767
 20
2.379108762635099
 30
0.0
 10
18.81793296708389
 20
2.293979895599566
 30
0.0
 10
19.63949929939297
 20
2.116768155464506
 30
0.0
 10
20.4610175303814
 20
1.850413738459018
 30
0.0
 10
21.28248308381274
 20
1.515286629861929
 30
0.0
 10
21.83010716876388
 20
1.243898290875734
 30
0.0
 10
22.10391296299636
 20
1.108207217850374
 30
0.0
  0
SPLINE
  5
1F3
330
1F
100
AcDbEntity
  8
0
  6
Continuous
 62
     1
370
    15
100
AcDbSpline
210
0.0
220
0.0
230
1.0
 70
     8
 71
     3
 72
    12
 73
     8
 74
     0
 42
0.000000001
 43
0.00000001
 40
0.0
 40
0.0
 40
0.0
 40
0.0
 40
0.0336043751568623
 40
0.2751852123009221
 40
0.5167770063570851
 40
0.7583813926085566
 40
1.0
 40
1.0
 40
1.0
 40
1.0
 10
16.16963612228388
 20
-2.375606728996885
 30
0.0
 10
16.13154951303874
 20
-2.377420335770754
 30
0.0
 10
15.81965942128655
 20
-2.392271906816738
 30
0.0
 10
15.23394763943117
 20
-2.330113894633115
 30
0.0
 10
14.41248444885084
 20
-2.183476396860321
 30
0.0
 10
13.59097009793314
 20
-1.946063424548829
 30
0.0
 10
13.04327071419698
 20
-1.726586824937634
 30
0.0
 10
12.76941296299636
 20
-1.616845295559475
 30
0.0
  0
SPLINE
  5
1F4
330
1F
100
AcDbEntity
  8
0
  6
Continuous
 62
     1
370
    15
100
AcDbSpline
210
0.0
220
0.0
230
1.0
 70
     8
 71
     3
 72
     9
 73
     5
 74
     0
 42
0.000000001
 43
0.00000001
 40
0.0
 40
0.0
 40
0.0
 40
0.0
 40
0.8448440348887941
 40
1.0
 40
1.0
 40
1.0
 40
1.0
 10
12.76941296299633
 20
-2.198471102855361
 30
0.0
 10
13.01843841430568
 20
-2.140774132811011
 30
0.0
 10
13.31319749530232
 20
-2.072481089762011
 30
0.0
 10
13.60792181058978
 20
-1.965492670110571
 30
0.0
 10
13.65365004616992
 20
-1.948892778603831
 30
0.0
  0
CIRCLE
  5
1F5
330
1F
100
AcDbEntity
  8
해칭선
100
AcDbCircle
 10
0.0
 20
0.0
 30
0.0
 40
3.000000000000001
  0
DIMENSION
  5
1F6
330
1F
100
AcDbEntity
  8
0
  6
Continuous
370
    15
100
AcDbDimension
  2
*D12
 10
-46.74324322983171
 20
-3.175000000000032
 30
0.0
 11
-46.74324322983172
 21
1.587499999999854
 31
0.0
 70
   160
  1
%%c<>
 71
     2
 42
6.350000000000005
 52
-270.0
  3
SLDDIMSTYLE1
100
AcDbAlignedDimension
 13
-39.93558703700365
 23
3.174999999999999
 33
0.0
 14
-39.87308703700365
 24
-3.175000000000006
 34
0.0
 50
90.0000000000002
100
AcDbRotatedDimension
1001
ACAD
1000
DSTYLE
1002
{
1070
   171
1070
     6
1070
   273
1070
     7
1002
}
1001
ACAD_DSTYLE_DIMFLIPARROW_SYMBOL
1070
   385
1070
     0
1001
ACAD_DSTYLE_DIMFLIPARROW_WHICH_SYMBOL
1070
   386
1070
     3
  0
DIMENSION
  5
1F7
330
1F
100
AcDbEntity
  8
0
  6
Continuous
370
    15
100
AcDbDimension
  2
*D13
 10
-41.20558703700366
 20
32.96507939495147
 30
0.0
 11
-9.45558703700366
 21
32.96507939495147
 31
0.0
 70
   160
  1
<>
 71
     2
 42
63.50000000000001
  3
SLDDIMSTYLE1
100
AcDbAlignedDimension
 13
22.29441296299635
 23
6.350000000000041
 33
0.0
 14
-41.20558703700366
 24
1.905000000000003
 34
0.0
 50
0.000000000000004
100
AcDbRotatedDimension
1001
ACAD
1000
DSTYLE
1002
{
1070
   171
1070
     6
1070
   273
1070
     7
1002
}
  0
DIMENSION
  5
1F8
330
1F
100
AcDbEntity
  8
0
  6
Continuous
370
    15
100
AcDbDimension
  2
*D14
 10
6.419412962996351
 20
16.1035134960284
 30
0.0
 11
9.594412962996334
 21
16.1035134960284
 31
0.0
 70
   160
  1
<>
 71
     2
 42
15.875
  3
SLDDIMSTYLE1
100
AcDbAlignedDimension
 13
22.29441296299635
 23
6.350000000000041
 33
0.0
 14
6.419412962996351
 24
2.381249999999996
 34
0.0
100
AcDbRotatedDimension
1001
ACAD
1000
DSTYLE
1002
{
1070
   171
1070
     6
1070
   273
1070
     7
1002
}
  0
DIMENSION
  5
1F9
330
1F
100
AcDbEntity
  8
0
  6
Continuous
370
    15
100
AcDbDimension
  2
*D15
 10
35.06358051816698
 20
-2.381249999999959
 30
0.0
 11
35.0635805181669
 21
23.43325000000007
 31
0.0
 70
   160
  1
%%c<>
 71
     2
 42
4.762499999999999
 52
-270.0
  3
SLDDIMSTYLE1
100
AcDbAlignedDimension
 13
22.29441296299635
 23
2.381249999999996
 33
0.0
 14
22.29441296299635
 24
-2.381250000000003
 34
0.0
 50
90.0000000000002
100
AcDbRotatedDimension
1001
ACAD
1000
DSTYLE
1002
{
1070
   171
1070
     6
1070
   273
1070
     7
1002
}
  0
INSERT
  5
1FA
330
1F
100
AcDbEntity
  8
해칭선
100
AcDbBlockReference
  2
SW_DOWELSYMBOL_0
 10
0.0
 20
0.0
 30
0.0
  0
LINE
  5
1FC
330
1F
100
AcDbEntity
  8
외형선
  6
Continuous
370
    15
100
AcDbLine
 10
-39.93558703700365
 20
-3.175000000000006
 30
0.0
 11
-39.93558703700365
 21
-0.0000000000000178
 31
0.0
  0
LINE
  5
1FE
330
1F
100
AcDbEntity
  8
외형선
  6
Continuous
370
    15
100
AcDbLine
 10
-41.20558703700366
 20
-1.905000000000007
 30
0.0
 11
-41.20558703700366
 21
-0.0000000000000178
 31
0.0
  0
LINE
  5
201
330
1F
100
AcDbEntity
  8
중심선
 48
0.8
100
AcDbLine
 10
-44.20558703700367
 20
-0.0000000000000096
 30
0.0
 11
25.29441296299636
 21
-0.0000000000000036
 31
0.0
  0
SPLINE
  5
202
330
1F
100
AcDbEntity
  8
0
  6
Continuous
 62
     1
370
    15
100
AcDbSpline
210
0.0
220
0.0
230
1.0
 70
  1064
 71
     3
 72
     9
 73
     5
 74
     3
 42
0.000000001
 43
0.0000000001
 44
0.0
 40
0.0
 40
0.0
 40
0.0
 40
0.0
 40
1.62729720931888
 40
3.180787945495124
 40
3.180787945495124
 40
3.180787945495124
 40
3.180787945495124
 10
12.76941296299633
 20
2.198471102855354
 30
0.0
 10
12.22880954225468
 20
2.244375165359802
 30
0.0
 10
11.17212190453164
 20
2.334101300098591
 30
0.0
 10
10.11211721951727
 20
2.365778779684398
 30
0.0
 10
9.594412962996358
 20
2.381249999999998
 30
0.0
 11
12.76941296299633
 21
2.198471102855354
 31
0.0
 11
11.14673450835302
 21
2.320989837314265
 31
0.0
 11
9.594412962996358
 21
2.381249999999998
 31
0.0
  0
LINE
  5
203
330
1F
100
AcDbEntity
  8
외형선
  6
Continuous
370
    15
100
AcDbLine
 10
-39.93558703700365
 20
-0.0000000000000178
 30
0.0
 11
-39.93558703700365
 21
3.174999999999999
 31
0.0
  0
SPLINE
  5
204
330
1F
100
AcDbEntity
  8
0
  6
Continuous
 62
     1
370
    15
100
AcDbSpline
210
0.0
220
0.0
230
1.0
 70
  1064
 71
     3
 72
     9
 73
     5
 74
     3
 42
0.000000001
 43
0.0000000001
 44
0.0
 40
0.0
 40
0.0
 40
0.0
 40
0.0
 40
1.434109768552588
 40
3.194554769220645
 40
3.194554769220645
 40
3.194554769220645
 40
3.194554769220645
 10
12.62882674126027
 20
1.442404813746617
 30
0.0
 10
12.19908601594046
 20
1.658575414726678
 30
0.0
 10
11.24181599818981
 20
2.14010677269457
 30
0.0
 10
10.1797131793588
 20
2.295575043659014
 30
0.0
 10
9.594412962996358
 20
2.381249999999998
 30
0.0
 11
12.62882674126027
 21
1.442404813746617
 31
0.0
 11
11.31847739653363
 21
2.025204456018653
 31
0.0
 11
9.594412962996358
 21
2.381249999999998
 31
0.0
  0
SPLINE
  5
205
330
1F
100
AcDbEntity
  8
0
  6
Continuous
 62
     1
370
    15
100
AcDbSpline
210
0.0
220
0.0
230
1.0
 70
  1080
 71
     3
 72
     8
 73
     4
 74
     2
 42
0.000000001
 43
0.0000000001
 44
0.0
 40
0.0
 40
0.0
 40
0.0
 40
0.0
 40
3.180256770331797
 40
3.180256770331797
 40
3.180256770331797
 40
3.180256770331797
 10
12.76941296299633
 20
-2.198471102855361
 30
0.0
 10
11.71107962966301
 20
-2.259397401903576
 30
0.0
 10
10.65274629632968
 20
-2.32032370095179
 30
0.0
 10
9.594412962996358
 20
-2.381250000000005
 30
0.0
 11
12.76941296299633
 21
-2.198471102855361
 31
0.0
 11
9.594412962996358
 21
-2.381250000000005
 31
0.0
  0
SPLINE
  5
206
330
1F
100
AcDbEntity
  8
0
  6
Continuous
 62
     1
370
    15
100
AcDbSpline
210
0.0
220
0.0
230
1.0
 70
     8
 71
     3
 72
     8
 73
     4
 74
     0
 42
0.000000001
 43
0.0000000001
 40
0.0
 40
0.0
 40
0.0
 40
0.0
 40
6.595919283675764
 40
6.595919283675764
 40
6.595919283675764
 40
6.595919283675764
 10
12.76941296299636
 20
-1.616845295559475
 30
0.0
 10
11.78559556850206
 20
-1.126327676915037
 30
0.0
 10
10.80177817400776
 20
-0.6358100582705991
 30
0.0
 10
6.419412962996351
 20
1.556461339816597
 30
0.0
  0
SPLINE
  5
207
330
1F
100
AcDbEntity
  8
0
  6
Continuous
 62
     1
370
    15
100
AcDbSpline
210
0.0
220
0.0
230
1.0
 70
    24
 71
     3
 72
     8
 73
     4
 74
     0
 42
0.000000001
 43
0.0000000001
 40
0.0
 40
0.0
 40
0.0
 40
0.0
 40
7.122837189520761
 40
7.122837189520761
 40
7.122837189520761
 40
7.122837189520761
 10
12.76941296299633
 20
-0.9149187791328792
 30
0.0
 10
11.71107962966301
 20
-0.3771169355030182
 30
0.0
 10
10.65274629632968
 20
0.1606849081268464
 30
0.0
 10
9.594412962996355
 20
0.6984867517567075
 30
0.0
  0
SPLINE
  5
208
330
1F
100
AcDbEntity
  8
0
  6
Continuous
 62
     1
370
    15
100
AcDbSpline
210
0.0
220
0.0
230
1.0
 70
     8
 71
     3
 72
    10
 73
     6
 74
     0
 42
0.000000001
 43
0.00000001
 40
0.166662601558963
 40
0.166662601558963
 40
0.166662601558963
 40
0.166662601558963
 40
0.3787612894518905
 40
0.7576752372627505
 40
0.9495153929784363
 40
0.9495153929784363
 40
0.9495153929784363
 40
0.9495153929784363
 10
21.53386667348135
 20
2.381248613335894
 30
0.0
 10
20.98412615325999
 20
2.362063900512943
 30
0.0
 10
20.66716414989412
 20
2.315308026658002
 30
0.0
 10
20.35269242062077
 20
2.216519806181221
 30
0.0
 10
20.01000459669486
 20
2.075329680404547
 30
0.0
 10
19.88742485455354
 20
2.031012236654789
 30
0.0
  0
LINE
  5
209
330
1F
100
AcDbEntity
  8
0
  6
Continuous
 62
     1
370
    15
100
AcDbLine
 10
22.29441296299635
 20
0.8870071951313427
 30
0.0
 11
22.29441296299635
 21
1.61925
 31
0.0
  0
LINE
  5
20A
330
1F
100
AcDbEntity
  8
0
  6
Continuous
 62
     1
370
    15
100
AcDbLine
 10
22.29441296299635
 20
-1.619250000000008
 30
0.0
 11
22.29441296299635
 21
0.2334034713533484
 31
0.0
  0
SPLINE
  5
20B
330
1F
100
AcDbEntity
  8
0
  6
Continuous
 62
     1
370
    15
100
AcDbSpline
210
0.0
220
0.0
230
1.0
 70
     8
 71
     3
 72
    17
 73
    13
 74
     0
 42
0.000000001
 43
0.00000001
 40
0.0
 40
0.0
 40
0.0
 40
0.0
 40
0.1014621810699251
 40
0.2028844324849521
 40
0.3042827189041055
 40
0.4056730962801239
 40
0.5070716507370849
 40
0.6084944372055853
 40
0.7099574183085766
 40
0.821542555900308
 40
0.9331222610877735
 40
0.9419087837516374
 40
0.9419087837516374
 40
0.9419087837516374
 40
0.9419087837516374
 10
12.76941296299633
 20
-0.9149187791328792
 30
0.0
 10
13.01843463059693
 20
-1.044714297063244
 30
0.0
 10
13.51637996525109
 20
-1.304254252903977
 30
0.0
 10
14.26310941261578
 20
-1.642978262212139
 30
0.0
 10
15.00963326582793
 20
-1.930105036532325
 30
0.0
 10
15.75608546988532
 20
-2.153549536513044
 30
0.0
 10
16.50261124062699
 20
-2.306821911680483
 30
0.0
 10
17.24934720553604
 20
-2.384437599612578
 30
0.0
 10
18.0211568179853
 20
-2.384932536278249
 30
0.0
 10
18.81793079298095
 20
-2.294764832204866
 30
0.0
 10
19.38722463120367
 20
-2.176317469078374
 30
0.0
 10
19.68264516127299
 20
-2.089342592956502
 30
0.0
 10
19.7042103286164
 20
-2.082875507489259
 30
0.0
  0
SPLINE
  5
20C
330
1F
100
AcDbEntity
  8
0
  6
Continuous
 62
     1
370
    15
100
AcDbSpline
210
0.0
220
0.0
230
1.0
 70
     8
 71
     3
 72
    36
 73
    32
 74
     0
 42
0.000000001
 43
0.00000001
 40
0.0078348974424091
 40
0.0078348974424091
 40
0.0078348974424091
 40
0.0078348974424091
 40
0.0625
 40
0.0625
 40
0.125
 40
0.125
 40
0.1875
 40
0.1875
 40
0.25
 40
0.25
 40
0.3125
 40
0.3125
 40
0.375
 40
0.375
 40
0.4375
 40
0.4375
 40
0.5
 40
0.5
 40
0.5625
 40
0.5625
 40
0.625
 40
0.625
 40
0.6875
 40
0.6875
 40
0.75
 40
0.75
 40
0.8125
 40
0.8125
 40
0.875
 40
0.875
 40
0.9232464229860721
 40
0.9232464229860721
 40
0.9232464229860721
 40
0.9232464229860721
 10
21.53386667348135
 20
-2.381248613335902
 30
0.0
 10
20.97606763546582
 20
-2.361715275650619
 30
0.0
 10
20.72048206293192
 20
-2.315838315515914
 30
0.0
 10
20.46848496841149
 20
-2.262397577836509
 30
0.0
 10
20.27423333776787
 20
-2.224435472404025
 30
0.0
 10
19.88430794727616
 20
-2.133825580908681
 30
0.0
 10
19.69108380024861
 20
-2.081390402028109
 30
0.0
 10
19.30191323310966
 20
-1.962778365742594
 30
0.0
 10
19.10623353391922
 20
-1.896583308549559
 30
0.0
 10
18.71852863625956
 20
-1.752440628397995
 30
0.0
 10
18.52399330603409
 20
-1.674201520253781
 30
0.0
 10
18.13412470799945
 20
-1.506960568106003
 30
0.0
 10
17.94098974416866
 20
-1.41829661162253
 30
0.0
 10
17.55165883086473
 20
-1.231656794191142
 30
0.0
 10
17.35601229621844
 20
-1.133738985383118
 30
0.0
 10
16.96859713857744
 20
-0.9316706026616899
 30
0.0
 10
16.77374834623656
 20
-0.8269938169538698
 30
0.0
 10
16.38395398074877
 20
-0.6127962182899758
 30
0.0
 10
16.19087822940006
 20
-0.5036326810060281
 30
0.0
 10
15.8014043298869
 20
-0.2820599315952492
 30
0.0
 10
15.60579978559976
 20
-0.1697939638979591
 30
0.0
 10
15.21869144351685
 20
0.0543358060865202
 30
0.0
 10
15.02349947305418
 20
0.1669083448663748
 30
0.0
 10
14.63379676913171
 20
0.39006140987075
 30
0.0
 10
14.44075025073602
 20
0.5003658602208887
 30
0.0
 10
14.05115074626621
 20
0.7175698567974216
 30
0.0
 10
13.85560531229264
 20
0.8242647182374121
 30
0.0
 10
13.46880419084697
 20
1.030700872869886
 30
0.0
 10
13.27324770174782
 20
1.131204005561418
 30
0.0
 10
12.92807889687527
 20
1.301775338556439
 30
0.0
 10
12.77874945124833
 20
1.373476771401087
 30
0.0
 10
12.62882674126027
 20
1.442404813746617
 30
0.0
  0
SPLINE
  5
20F
330
1F
100
AcDbEntity
  8
0
  6
Continuous
 62
     1
370
    15
100
AcDbSpline
210
0.0
220
0.0
230
1.0
 70
     8
 71
     3
 72
    38
 73
    34
 74
     0
 42
0.000000001
 43
0.00000001
 40
0.0273779971342029
 40
0.0273779971342029
 40
0.0273779971342029
 40
0.0273779971342029
 40
0.0625
 40
0.0625
 40
0.125
 40
0.125
 40
0.1875
 40
0.1875
 40
0.25
 40
0.25
 40
0.3124999999999999
 40
0.3124999999999999
 40
0.3749999999999999
 40
0.3749999999999999
 40
0.4375
 40
0.4375
 40
0.5
 40
0.5
 40
0.5625
 40
0.5625
 40
0.625
 40
0.625
 40
0.6875
 40
0.6875
 40
0.75
 40
0.75
 40
0.8125000000000001
 40
0.8125000000000001
 40
0.8750000000000001
 40
0.8750000000000001
 40
0.9375000000000001
 40
0.9375000000000001
 40
1.0
 40
1.0
 40
1.0
 40
1.0
 10
22.17104177766983
 20
-2.034938870513455
 30
0.0
 10
21.73829015503344
 20
-2.002142067870395
 30
0.0
 10
21.62873610836752
 20
-1.967205955789223
 30
0.0
 10
21.32573496841151
 20
-1.864600877598978
 30
0.0
 10
21.13148333776789
 20
-1.792447274632913
 30
0.0
 10
20.74155794727616
 20
-1.636481641372672
 30
0.0
 10
20.54833380024863
 20
-1.55301505400621
 30
0.0
 10
20.15916323310965
 20
-1.375917476342202
 30
0.0
 10
19.96348353391923
 20
-1.282294904100599
 30
0.0
 10
19.57577863625956
 20
-1.087731996165132
 30
0.0
 10
19.38124330603409
 20
-0.9863853956886075
 30
0.0
 10
18.99137470799947
 20
-0.7776428374617623
 30
0.0
 10
18.79823974416867
 20
-0.6706534661914851
 30
0.0
 10
18.40890883086475
 20
-0.4523642380288067
 30
0.0
 10
18.21326229621843
 20
-0.3411557570396226
 30
0.0
 10
17.82584713857743
 20
-0.1179453807439081
 30
0.0
 10
17.63099834623656
 20
-0.0053558833409717
 30
0.0
 10
17.24120398074877
 20
0.2191301753917081
 30
0.0
 10
17.04812822940007
 20
0.3306672773090895
 30
0.0
 10
16.6586543298869
 20
0.5514312309311364
 30
0.0
 10
16.46304978559974
 20
0.6604951046803578
 30
0.0
 10
16.07594144351681
 20
0.872754442318044
 30
0.0
 10
15.88074947305417
 20
0.976624042211224
 30
0.0
 10
15.49104676913169
 20
1.177031903036216
 30
0.0
 10
15.29800025073598
 20
1.273339624590744
 30
0.0
 10
14.90840074626618
 20
1.457412604083832
 30
0.0
 10
14.71285531229266
 20
1.544983578507988
 30
0.0
 10
14.32605419084695
 20
1.708659300898038
 30
0.0
 10
14.1304977017478
 20
1.785367998740146
 30
0.0
 10
13.74090407474195
 20
1.926153975305368
 30
0.0
 10
13.54785680541834
 20
1.990156045662406
 30
0.0
 10
13.15814909596024
 20
2.104874231650424
 30
0.0
 10
12.96297502063172
 20
2.155400529890326
 30
0.0
 10
12.76941296299633
 20
2.198471102855354
 30
0.0
  0
LINE
  5
3F2
330
1F
100
AcDbEntity
  8
외형선
  6
Continuous
370
    15
100
AcDbLine
 10
6.419412962996351
 20
2.381249999999996
 30
0.0
 11
6.419412962996351
 21
-2.381250000000003
 31
0.0
  0
LINE
  5
3F6
330
1F
100
AcDbEntity
  8
0
  6
Continuous
 62
     1
370
    15
100
AcDbLine
 10
9.594412962996358
 20
2.381249999999998
 30
0.0
 11
6.419412962996351
 21
2.381249999999996
 31
0.0
  0
SPLINE
  5
3F7
330
1F
100
AcDbEntity
  8
0
  6
Continuous
 62
     1
370
    15
100
AcDbSpline
210
0.0
220
0.0
230
1.0
 70
    24
 71
     3
 72
     8
 73
     4
 74
     0
 42
0.000000001
 43
0.0000000001
 40
0.0
 40
0.0
 40
0.0
 40
0.0
 40
3.522974349383852
 40
3.522974349383852
 40
3.522974349383852
 40
3.522974349383852
 10
9.594412962996355
 20
0.6984867517567075
 30
0.0
 10
8.536079629663021
 20
1.207376967642277
 30
0.0
 10
7.477746296329688
 20
1.716267183527847
 30
0.0
 10
6.419412962996358
 20
2.225157399413416
 30
0.0
  0
SPLINE
  5
3F8
330
1F
100
AcDbEntity
  8
0
  6
Continuous
 62
     1
370
    15
100
AcDbSpline
210
0.0
220
0.0
230
1.0
 70
  1080
 71
     3
 72
     8
 73
     4
 74
     2
 42
0.000000001
 43
0.0000000001
 44
0.0
 40
0.0
 40
0.0
 40
0.0
 40
0.0
 40
3.175000000000008
 40
3.175000000000008
 40
3.175000000000008
 40
3.175000000000008
 10
9.594412962996358
 20
-2.381250000000005
 30
0.0
 10
8.536079629663021
 20
-2.381250000000004
 30
0.0
 10
7.477746296329684
 20
-2.381250000000003
 30
0.0
 10
6.419412962996351
 20
-2.381250000000003
 30
0.0
 11
9.594412962996358
 21
-2.381250000000005
 31
0.0
 11
6.419412962996351
 21
-2.381250000000003
 31
0.0
  0
LINE
  5
3FC
330
1F
100
AcDbEntity
  8
외형선
  6
Continuous
370
    15
100
AcDbLine
 10
-41.20558703700366
 20
-0.0000000000000178
 30
0.0
 11
-41.20558703700366
 21
1.905
 31
0.0
  0
LINE
  5
3FD
330
1F
100
AcDbEntity
  8
외형선
  6
Continuous
370
    15
100
AcDbLine
 10
2.000000000000005
 20
3.174999999999999
 30
0.0
 11
-39.93558703700365
 21
3.174999999999999
 31
0.0
  0
LINE
  5
3FE
330
1F
100
AcDbEntity
  8
외형선
  6
Continuous
370
    15
100
AcDbLine
 10
-39.93558703700365
 20
-3.175000000000006
 30
0.0
 11
2.000000000000002
 21
-3.175000000000006
 31
0.0
  0
LINE
  5
401
330
1F
100
AcDbEntity
  8
외형선
  6
Continuous
370
    15
100
AcDbLine
 10
1.999999999999995
 20
-3.175000000000006
 30
0.0
 11
2.000000000000005
 21
3.174999999999999
 31
0.0
  0
ARC
  5
412
330
1F
100
AcDbEntity
  8
0
  6
Continuous
 62
     1
370
    15
100
AcDbCircle
 10
21.53241296299635
 20
1.61925
 30
0.0
 40
0.7620000000000001
100
AcDbArc
 50
0.0
 51
89.8906935355009
  0
ARC
  5
413
330
1F
100
AcDbEntity
  8
0
  6
Continuous
 62
     1
370
    15
100
AcDbCircle
 10
21.53241296299635
 20
-1.619250000000008
 30
0.0
 40
0.7620000000000001
100
AcDbArc
 50
270.1093064644991
 51
0.0
  0
DIMENSION
  5
414
330
1F
100
AcDbEntity
  8
0
  6
Continuous
370
    15
100
AcDbDimension
  2
*D19
 10
21.53241296299635
 20
-1.619250000000008
 30
0.0
 11
31.18476410564463
 21
-28.42521481556776
 31
0.0
 70
   164
  1
<>
 71
     5
 42
0.7619999999999952
  3
SLDDIMSTYLE1
100
AcDbRadialDimension
 15
21.79056937653693
 25
-2.336187421361078
 35
0.0
 40
0.0
1001
ACAD
1000
DSTYLE
1002
{
1070
   285
1070
     4
1070
    78
1070
     0
1070
   171
1070
     2
1070
   273
1070
     2
1002
}
1001
ACAD_DSTYLE_DIMRADIAL_EXTENSION
1070
   387
1070
     1
1070
   388
1040
4.714296738083918
1070
   390
1040
0.0
  0
ARC
  5
445
330
1F
100
AcDbEntity
  8
0
100
AcDbCircle
 10
6.419412962996353
 20
15.08124999999999
 30
0.0
 40
12.7
100
AcDbArc
 50
2.217995535800456
 51
7.090353316116953
  0
ARC
  5
446
330
1F
100
AcDbEntity
  8
외형선
  6
Continuous
370
    15
100
AcDbCircle
 10
6.419412962996353
 20
15.08124999999999
 30
0.0
 40
12.7
100
AcDbArc
 50
249.6358651936821
 51
270.0
1001
PE_URL
1000

  0
ARC
  5
44A
330
1F
100
AcDbEntity
  8
외형선
  6
Continuous
370
    15
100
AcDbCircle
 10
6.419412962996372
 20
-15.08125
 30
0.0
 40
12.7
100
AcDbArc
 50
90.00000000000009
 51
110.364134806318
1001
PE_URL
1000

  0
ENDSEC
  0
SECTION
  2
OBJECTS
  0
DICTIONARY
  5
C
330
0
100
AcDbDictionary
281
     1
  3
ACAD_GROUP
350
D
  3
ACAD_IMAGE_VARS
350
14E
  3
ACAD_LAYOUT
350
1A
  3
ACAD_MLINESTYLE
350
17
  3
ACAD_PLOTSETTINGS
350
19
  3
ACAD_PLOTSTYLENAME
350
E
  3
ACAD_SCALELIST
350
47
  3
APPDATA
350
14C
  3
DWGPROPS
350
44F
  0
DICTIONARY
  5
1E5
330
2
100
AcDbDictionary
280
     1
281
     1
  3
ACAD_LAYERSTATES
360
1E6
  0
DICTIONARY
  5
447
330
1F
100
AcDbDictionary
280
     1
281
     1
  3
ACAD_SORTENTS
360
448
  3
DIM_BOUNDING_BOXES_V1
360
44D
  0
DICTIONARY
  5
D
102
{ACAD_REACTORS
330
C
102
}
330
C
100
AcDbDictionary
281
     1
  0
RASTERVARIABLES
  5
14E
102
{ACAD_REACTORS
330
C
102
}
330
C
100
AcDbRasterVariables
 90
        0
 70
     1
 71
     1
 72
     1
  0
DICTIONARY
  5
1A
102
{ACAD_REACTORS
330
C
102
}
330
C
100
AcDbDictionary
281
     1
  3
Layout1
350
1E
  3
Layout2
350
26
  3
Model
350
22
  0
DICTIONARY
  5
17
102
{ACAD_REACTORS
330
C
102
}
330
C
100
AcDbDictionary
281
     1
  3
Standard
350
18
  0
DICTIONARY
  5
19
102
{ACAD_REACTORS
330
C
102
}
330
C
100
AcDbDictionary
281
     1
  0
ACDBDICTIONARYWDFLT
  5
E
102
{ACAD_REACTORS
330
C
102
}
330
C
100
AcDbDictionary
281
     1
  3
Normal
350
F
100
AcDbDictionaryWithDefault
340
F
  0
DICTIONARY
  5
47
102
{ACAD_REACTORS
330
C
102
}
330
C
100
AcDbDictionary
281
     1
  3
A0
350
48
  3
A1
350
49
  3
A2
350
4A
  3
A3
350
4B
  3
A4
350
4C
  3
A5
350
4D
  3
A6
350
4E
  3
A7
350
4F
  3
A8
350
50
  3
A9
350
51
  3
B0
350
52
  3
B1
350
53
  3
B2
350
54
  3
B3
350
55
  3
B4
350
56
  3
B5
350
57
  3
B6
350
58
  3
B7
350
59
  3
B8
350
5A
  3
B9
350
5B
  3
C0
350
5C
  3
C1
350
5D
  3
C2
350
5E
  3
C3
350
5F
  3
C4
350
60
  3
C5
350
61
  3
C6
350
62
  3
C7
350
63
  3
C8
350
64
  3
C9
350
65
  3
D0
350
66
  3
D1
350
67
  3
D2
350
68
  0
DICTIONARY
  5
14C
102
{ACAD_REACTORS
330
C
102
}
330
C
100
AcDbDictionary
281
     1
  0
XRECORD
  5
44F
102
{ACAD_REACTORS
330
C
102
}
330
C
100
AcDbXrecord
280
     1
  1
DWGPROPS COOKIE
  2

  3

  4

  6

  7

  8
12016016
  9

300
=
301
=
302
=
303
=
304
=
305
=
306
=
307
=
308
=
309
=
 40
0.0
 41
2458296.326182396
 42
2459703.273155556
  1

 90
        0
  0
DICTIONARY
  5
1E6
102
{ACAD_REACTORS
330
1E5
102
}
330
1E5
100
AcDbDictionary
281
     1
  0
SORTENTSTABLE
  5
448
102
{ACAD_REACTORS
330
447
102
}
330
447
100
AcDbSortentsTable
330
1F
  0
DICTIONARY
  5
44D
102
{ACAD_REACTORS
330
447
102
}
330
447
100
AcDbDictionary
281
     1
  0
LAYOUT
  5
1E
102
{ACAD_REACTORS
330
1A
102
}
330
1A
100
AcDbPlotSettings
  1

  2
none_device
  4

  6

 40
0.0
 41
0.0
 42
0.0
 43
0.0
 44
0.0
 45
0.0
 46
0.0
 47
0.0
 48
0.0
 49
0.0
140
0.0
141
0.0
142
1.0
143
1.0
 70
   688
 72
     1
 73
     0
 74
     5
  7

 75
    16
147
1.0
148
0.0
149
0.0
100
AcDbLayout
  1
Layout1
 70
     1
 71
     1
 10
0.0
 20
0.0
 11
420.0
 21
297.0
 12
0.0
 22
0.0
 32
0.0
 14
1.000000000000000E+20
 24
1.000000000000000E+20
 34
1.000000000000000E+20
 15
-1.000000000000000E+20
 25
-1.000000000000000E+20
 35
-1.000000000000000E+20
146
0.0
 13
0.0
 23
0.0
 33
0.0
 16
1.0
 26
0.0
 36
0.0
 17
0.0
 27
1.0
 37
0.0
 76
     0
330
1B
  0
LAYOUT
  5
26
102
{ACAD_REACTORS
330
1A
102
}
330
1A
100
AcDbPlotSettings
  1

  2
none_device
  4

  6

 40
0.0
 41
0.0
 42
0.0
 43
0.0
 44
0.0
 45
0.0
 46
0.0
 47
0.0
 48
0.0
 49
0.0
140
0.0
141
0.0
142
1.0
143
1.0
 70
   688
 72
     1
 73
     0
 74
     5
  7

 75
    16
147
1.0
148
0.0
149
0.0
100
AcDbLayout
  1
Layout2
 70
     1
 71
     2
 10
0.0
 20
0.0
 11
0.0
 21
0.0
 12
0.0
 22
0.0
 32
0.0
 14
0.0
 24
0.0
 34
0.0
 15
0.0
 25
0.0
 35
0.0
146
0.0
 13
0.0
 23
0.0
 33
0.0
 16
1.0
 26
0.0
 36
0.0
 17
0.0
 27
1.0
 37
0.0
 76
     0
330
23
  0
LAYOUT
  5
22
102
{ACAD_REACTORS
330
1A
102
}
330
1A
100
AcDbPlotSettings
  1

  2
none_device
  4
ANSI_A_(11.00_x_8.50_Inches)
  6

 40
6.35
 41
19.05
 42
6.35000508
 43
19.05000254
 44
279.4
 45
215.9
 46
109.4444827120707
 47
98.8655522381487
 48
0.0
 49
0.0
140
0.0
141
0.0
142
0.0797139469389385
143
1.0
 70
  1696
 72
     0
 73
     0
 74
     0
  7

 75
     0
147
0.0235690232323232
148
0.0
149
0.0
100
AcDbLayout
  1
Model
 70
     1
 71
     0
 10
0.0
 20
0.0
 11
420.0
 21
297.0
 12
0.0
 22
0.0
 32
0.0
 14
-54.82609874256968
 24
-49.97073246008785
 34
0.0
 15
64.76929401703775
 25
37.43325000000007
 35
0.0
146
0.0
 13
0.0
 23
0.0
 33
0.0
 16
1.0
 26
0.0
 36
0.0
 17
0.0
 27
1.0
 37
0.0
 76
     0
330
1F
331
29
  0
MLINESTYLE
  5
18
102
{ACAD_REACTORS
330
17
102
}
330
17
100
AcDbMlineStyle
  2
Standard
 70
     0
  3

 62
   256
 51
90.0
 52
90.0
 71
     2
 49
0.5
 62
   256
  6
BYLAYER
 49
-0.5
 62
   256
  6
BYLAYER
  0
ACDBPLACEHOLDER
  5
F
102
{ACAD_REACTORS
330
E
102
}
330
E
  0
SCALE
  5
48
102
{ACAD_REACTORS
330
47
102
}
330
47
100
AcDbScale
 70
     0
300
1:1
140
1.0
141
1.0
290
     1
  0
SCALE
  5
49
102
{ACAD_REACTORS
330
47
102
}
330
47
100
AcDbScale
 70
     0
300
1:2
140
1.0
141
2.0
290
     0
  0
SCALE
  5
4A
102
{ACAD_REACTORS
330
47
102
}
330
47
100
AcDbScale
 70
     0
300
1:4
140
1.0
141
4.0
290
     0
  0
SCALE
  5
4B
102
{ACAD_REACTORS
330
47
102
}
330
47
100
AcDbScale
 70
     0
300
1:5
140
1.0
141
5.0
290
     0
  0
SCALE
  5
4C
102
{ACAD_REACTORS
330
47
102
}
330
47
100
AcDbScale
 70
     0
300
1:8
140
1.0
141
8.0
290
     0
  0
SCALE
  5
4D
102
{ACAD_REACTORS
330
47
102
}
330
47
100
AcDbScale
 70
     0
300
1:10
140
1.0
141
10.0
290
     0
  0
SCALE
  5
4E
102
{ACAD_REACTORS
330
47
102
}
330
47
100
AcDbScale
 70
     0
300
1:16
140
1.0
141
16.0
290
     0
  0
SCALE
  5
4F
102
{ACAD_REACTORS
330
47
102
}
330
47
100
AcDbScale
 70
     0
300
1:20
140
1.0
141
20.0
290
     0
  0
SCALE
  5
50
102
{ACAD_REACTORS
330
47
102
}
330
47
100
AcDbScale
 70
     0
300
1:30
140
1.0
141
30.0
290
     0
  0
SCALE
  5
51
102
{ACAD_REACTORS
330
47
102
}
330
47
100
AcDbScale
 70
     0
300
1:40
140
1.0
141
40.0
290
     0
  0
SCALE
  5
52
102
{ACAD_REACTORS
330
47
102
}
330
47
100
AcDbScale
 70
     0
300
1:50
140
1.0
141
50.0
290
     0
  0
SCALE
  5
53
102
{ACAD_REACTORS
330
47
102
}
330
47
100
AcDbScale
 70
     0
300
1:100
140
1.0
141
100.0
290
     0
  0
SCALE
  5
54
102
{ACAD_REACTORS
330
47
102
}
330
47
100
AcDbScale
 70
     0
300
2:1
140
2.0
141
1.0
290
     0
  0
SCALE
  5
55
102
{ACAD_REACTORS
330
47
102
}
330
47
100
AcDbScale
 70
     0
300
4:1
140
4.0
141
1.0
290
     0
  0
SCALE
  5
56
102
{ACAD_REACTORS
330
47
102
}
330
47
100
AcDbScale
 70
     0
300
8:1
140
8.0
141
1.0
290
     0
  0
SCALE
  5
57
102
{ACAD_REACTORS
330
47
102
}
330
47
100
AcDbScale
 70
     0
300
10:1
140
10.0
141
1.0
290
     0
  0
SCALE
  5
58
102
{ACAD_REACTORS
330
47
102
}
330
47
100
AcDbScale
 70
     0
300
100:1
140
100.0
141
1.0
290
     0
  0
SCALE
  5
59
102
{ACAD_REACTORS
330
47
102
}
330
47
100
AcDbScale
 70
     0
300
1/128" = 1'-0"
140
0.0078125
141
12.0
290
     0
  0
SCALE
  5
5A
102
{ACAD_REACTORS
330
47
102
}
330
47
100
AcDbScale
 70
     0
300
1/64" = 1'-0"
140
0.015625
141
12.0
290
     0
  0
SCALE
  5
5B
102
{ACAD_REACTORS
330
47
102
}
330
47
100
AcDbScale
 70
     0
300
1/32" = 1'-0"
140
0.03125
141
12.0
290
     0
  0
SCALE
  5
5C
102
{ACAD_REACTORS
330
47
102
}
330
47
100
AcDbScale
 70
     0
300
1/16" = 1'-0"
140
0.0625
141
12.0
290
     0
  0
SCALE
  5
5D
102
{ACAD_REACTORS
330
47
102
}
330
47
100
AcDbScale
 70
     0
300
3/32" = 1'-0"
140
0.09375
141
12.0
290
     0
  0
SCALE
  5
5E
102
{ACAD_REACTORS
330
47
102
}
330
47
100
AcDbScale
 70
     0
300
1/8" = 1'-0"
140
0.125
141
12.0
290
     0
  0
SCALE
  5
5F
102
{ACAD_REACTORS
330
47
102
}
330
47
100
AcDbScale
 70
     0
300
3/16" = 1'-0"
140
0.1875
141
12.0
290
     0
  0
SCALE
  5
60
102
{ACAD_REACTORS
330
47
102
}
330
47
100
AcDbScale
 70
     0
300
1/4" = 1'-0"
140
0.25
141
12.0
290
     0
  0
SCALE
  5
61
102
{ACAD_REACTORS
330
47
102
}
330
47
100
AcDbScale
 70
     0
300
3/8" = 1'-0"
140
0.375
141
12.0
290
     0
  0
SCALE
  5
62
102
{ACAD_REACTORS
330
47
102
}
330
47
100
AcDbScale
 70
     0
300
1/2" = 1'-0"
140
0.5
141
12.0
290
     0
  0
SCALE
  5
63
102
{ACAD_REACTORS
330
47
102
}
330
47
100
AcDbScale
 70
     0
300
3/4" = 1'-0"
140
0.75
141
12.0
290
     0
  0
SCALE
  5
64
102
{ACAD_REACTORS
330
47
102
}
330
47
100
AcDbScale
 70
     0
300
1" = 1'-0"
140
1.0
141
12.0
290
     0
  0
SCALE
  5
65
102
{ACAD_REACTORS
330
47
102
}
330
47
100
AcDbScale
 70
     0
300
1-1/2" = 1'-0"
140
1.5
141
12.0
290
     0
  0
SCALE
  5
66
102
{ACAD_REACTORS
330
47
102
}
330
47
100
AcDbScale
 70
     0
300
3" = 1'-0"
140
3.0
141
12.0
290
     0
  0
SCALE
  5
67
102
{ACAD_REACTORS
330
47
102
}
330
47
100
AcDbScale
 70
     0
300
6" = 1'-0"
140
6.0
141
12.0
290
     0
  0
SCALE
  5
68
102
{ACAD_REACTORS
330
47
102
}
330
47
100
AcDbScale
 70
     0
300
1'-0" = 1'-0"
140
12.0
141
12.0
290
     0
  0
ENDSEC
  0
EOF
