  0
SECTION
  2
HEADER
  9
$ACADVER
  1
AC1015
  9
$ACADMAINTVER
 70
     6
  9
$DWGCODEPAGE
  3
ANSI_949
  9
$INSBASE
 10
0.0
 20
0.0
 30
0.0
  9
$EXTMIN
 10
1.000000000000000E+20
 20
1.000000000000000E+20
 30
1.000000000000000E+20
  9
$EXTMAX
 10
-1.000000000000000E+20
 20
-1.000000000000000E+20
 30
-1.000000000000000E+20
  9
$LIMMIN
 10
0.0
 20
0.0
  9
$LIMMAX
 10
420.0
 20
297.0
  9
$ORTHOMODE
 70
     0
  9
$REGENMODE
 70
     1
  9
$FILLMODE
 70
     1
  9
$QTEXTMODE
 70
     0
  9
$MIRRTEXT
 70
     1
  9
$LTSCALE
 40
1.0
  9
$ATTMODE
 70
     1
  9
$TEXTSIZE
 40
3.5
  9
$TRACEWID
 40
1.0
  9
$TEXTSTYLE
  7
Standard
  9
$CLAYER
  8
0
  9
$CELTYPE
  6
ByLayer
  9
$CECOLOR
 62
   256
  9
$CELTSCALE
 40
1.0
  9
$DISPSILH
 70
     0
  9
$DIMSCALE
 40
1.0
  9
$DIMASZ
 40
3.302
  9
$DIMEXO
 40
1.0
  9
$DIMDLI
 40
3.75
  9
$DIMRND
 40
0.0
  9
$DIMDLE
 40
0.0
  9
$DIMEXE
 40
1.0
  9
$DIMTP
 40
0.0
  9
$DIMTM
 40
0.0
  9
$DIMTXT
 40
3.5
  9
$DIMCEN
 40
2.5
  9
$DIMTSZ
 40
0.0
  9
$DIMTOL
 70
     0
  9
$DIMLIM
 70
     0
  9
$DIMTIH
 70
     1
  9
$DIMTOH
 70
     1
  9
$DIMSE1
 70
     0
  9
$DIMSE2
 70
     0
  9
$DIMTAD
 70
     1
  9
$DIMZIN
 70
     0
  9
$DIMBLK
  1

  9
$DIMASO
 70
     1
  9
$DIMSHO
 70
     1
  9
$DIMPOST
  1

  9
$DIMAPOST
  1

  9
$DIMALT
 70
     0
  9
$DIMALTD
 70
     3
  9
$DIMALTF
 40
0.0393700787401575
  9
$DIMLFAC
 40
1.0
  9
$DIMTOFL
 70
     1
  9
$DIMTVP
 40
0.0
  9
$DIMTIX
 70
     0
  9
$DIMSOXD
 70
     0
  9
$DIMSAH
 70
     0
  9
$DIMBLK1
  1

  9
$DIMBLK2
  1

  9
$DIMSTYLE
  2
ISO-25
  9
$DIMCLRD
 70
     0
  9
$DIMCLRE
 70
     0
  9
$DIMCLRT
 70
     0
  9
$DIMTFAC
 40
1.0
  9
$DIMGAP
 40
1.524
  9
$DIMJUST
 70
     0
  9
$DIMSD1
 70
     0
  9
$DIMSD2
 70
     0
  9
$DIMTOLJ
 70
     0
  9
$DIMTZIN
 70
     0
  9
$DIMALTZ
 70
     0
  9
$DIMALTTZ
 70
     0
  9
$DIMUPT
 70
     0
  9
$DIMDEC
 70
     2
  9
$DIMTDEC
 70
     2
  9
$DIMALTU
 70
     2
  9
$DIMALTTD
 70
     3
  9
$DIMTXSTY
  7
Standard
  9
$DIMAUNIT
 70
     0
  9
$DIMADEC
 70
     2
  9
$DIMALTRND
 40
0.0
  9
$DIMAZIN
 70
     0
  9
$DIMDSEP
 70
    44
  9
$DIMATFIT
 70
     3
  9
$DIMFRAC
 70
     0
  9
$DIMLDRBLK
  1

  9
$DIMLUNIT
 70
     2
  9
$DIMLWD
 70
    -2
  9
$DIMLWE
 70
    -2
  9
$DIMTMOVE
 70
     0
  9
$LUNITS
 70
     2
  9
$LUPREC
 70
     2
  9
$SKETCHINC
 40
1.0
  9
$FILLETRAD
 40
10.0
  9
$AUNITS
 70
     0
  9
$AUPREC
 70
     2
  9
$MENU
  1
.
  9
$ELEVATION
 40
0.0
  9
$PELEVATION
 40
0.0
  9
$THICKNESS
 40
0.0
  9
$LIMCHECK
 70
     0
  9
$CHAMFERA
 40
0.0
  9
$CHAMFERB
 40
0.0
  9
$CHAMFERC
 40
0.0
  9
$CHAMFERD
 40
0.0
  9
$SKPOLY
 70
     0
  9
$TDCREATE
 40
2458296.701613577
  9
$TDUCREATE
 40
2458296.326613577
  9
$TDUPDATE
 40
2458296.75340603
  9
$TDUUPDATE
 40
2458296.37840603
  9
$TDINDWG
 40
0.0009711111
  9
$TDUSRTIMER
 40
2458296.377435324
  9
$USRTIMER
 70
     1
  9
$ANGBASE
 50
0.0
  9
$ANGDIR
 70
     0
  9
$PDMODE
 70
     0
  9
$PDSIZE
 40
-1.0
  9
$PLINEWID
 40
0.0
  9
$SPLFRAME
 70
     0
  9
$SPLINETYPE
 70
     6
  9
$SPLINESEGS
 70
     8
  9
$HANDSEED
  5
2B0
  9
$SURFTAB1
 70
     6
  9
$SURFTAB2
 70
     6
  9
$SURFTYPE
 70
     6
  9
$SURFU
 70
     6
  9
$SURFV
 70
     6
  9
$UCSBASE
  2

  9
$UCSNAME
  2

  9
$UCSORG
 10
0.0
 20
0.0
 30
0.0
  9
$UCSXDIR
 10
1.0
 20
0.0
 30
0.0
  9
$UCSYDIR
 10
0.0
 20
1.0
 30
0.0
  9
$UCSORTHOREF
  2

  9
$UCSORTHOVIEW
 70
     0
  9
$UCSORGTOP
 10
0.0
 20
0.0
 30
0.0
  9
$UCSORGBOTTOM
 10
0.0
 20
0.0
 30
0.0
  9
$UCSORGLEFT
 10
0.0
 20
0.0
 30
0.0
  9
$UCSORGRIGHT
 10
0.0
 20
0.0
 30
0.0
  9
$UCSORGFRONT
 10
0.0
 20
0.0
 30
0.0
  9
$UCSORGBACK
 10
0.0
 20
0.0
 30
0.0
  9
$PUCSBASE
  2

  9
$PUCSNAME
  2

  9
$PUCSORG
 10
0.0
 20
0.0
 30
0.0
  9
$PUCSXDIR
 10
1.0
 20
0.0
 30
0.0
  9
$PUCSYDIR
 10
0.0
 20
1.0
 30
0.0
  9
$PUCSORTHOREF
  2

  9
$PUCSORTHOVIEW
 70
     0
  9
$PUCSORGTOP
 10
0.0
 20
0.0
 30
0.0
  9
$PUCSORGBOTTOM
 10
0.0
 20
0.0
 30
0.0
  9
$PUCSORGLEFT
 10
0.0
 20
0.0
 30
0.0
  9
$PUCSORGRIGHT
 10
0.0
 20
0.0
 30
0.0
  9
$PUCSORGFRONT
 10
0.0
 20
0.0
 30
0.0
  9
$PUCSORGBACK
 10
0.0
 20
0.0
 30
0.0
  9
$USERI1
 70
     0
  9
$USERI2
 70
     0
  9
$USERI3
 70
     0
  9
$USERI4
 70
     0
  9
$USERI5
 70
     0
  9
$USERR1
 40
0.0
  9
$USERR2
 40
0.0
  9
$USERR3
 40
0.0
  9
$USERR4
 40
0.0
  9
$USERR5
 40
0.0
  9
$WORLDVIEW
 70
     1
  9
$SHADEDGE
 70
     3
  9
$SHADEDIF
 70
    70
  9
$TILEMODE
 70
     1
  9
$MAXACTVP
 70
    64
  9
$PINSBASE
 10
0.0
 20
0.0
 30
0.0
  9
$PLIMCHECK
 70
     0
  9
$PEXTMIN
 10
1.000000000000000E+20
 20
1.000000000000000E+20
 30
1.000000000000000E+20
  9
$PEXTMAX
 10
-1.000000000000000E+20
 20
-1.000000000000000E+20
 30
-1.000000000000000E+20
  9
$PLIMMIN
 10
0.0
 20
0.0
  9
$PLIMMAX
 10
0.0
 20
0.0
  9
$UNITMODE
 70
     0
  9
$VISRETAIN
 70
     1
  9
$PLINEGEN
 70
     0
  9
$PSLTSCALE
 70
     1
  9
$TREEDEPTH
 70
  3020
  9
$CMLSTYLE
  2
Standard
  9
$CMLJUST
 70
     0
  9
$CMLSCALE
 40
20.0
  9
$PROXYGRAPHICS
 70
     1
  9
$MEASUREMENT
 70
     1
  9
$CELWEIGHT
370
    -1
  9
$ENDCAPS
280
     0
  9
$JOINSTYLE
280
     0
  9
$LWDISPLAY
290
     1
  9
$INSUNITS
 70
     4
  9
$HYPERLINKBASE
  1

  9
$STYLESHEET
  1

  9
$XEDIT
290
     1
  9
$CEPSNTYPE
380
     0
  9
$PSTYLEMODE
290
     1
  9
$FINGERPRINTGUID
  2
{18ABBEBB-C8FB-4F62-9E80-B2B22494B6D5}
  9
$VERSIONGUID
  2
{FAEB1C32-E019-11D5-929B-00C0DF256EC4}
  9
$EXTNAMES
290
     1
  9
$PSVPSCALE
 40
0.0
  9
$OLESTARTUP
290
     0
  0
ENDSEC
  0
SECTION
  2
CLASSES
  0
CLASS
  1
ACDBDICTIONARYWDFLT
  2
AcDbDictionaryWithDefault
  3
ObjectDBX Classes
 90
        0
280
     0
281
     0
  0
CLASS
  1
VISUALSTYLE
  2
AcDbVisualStyle
  3
ObjectDBX Classes
 90
     4095
280
     0
281
     0
  0
CLASS
  1
MATERIAL
  2
AcDbMaterial
  3
ObjectDBX Classes
 90
     1153
280
     0
281
     0
  0
CLASS
  1
SCALE
  2
AcDbScale
  3
ObjectDBX Classes
 90
     1153
280
     0
281
     0
  0
CLASS
  1
SUN
  2
AcDbSun
  3
SCENEOE
 90
     1153
280
     0
281
     0
  0
CLASS
  1
ACDBPLACEHOLDER
  2
AcDbPlaceHolder
  3
ObjectDBX Classes
 90
        0
280
     0
281
     0
  0
CLASS
  1
LAYOUT
  2
AcDbLayout
  3
ObjectDBX Classes
 90
        0
280
     0
281
     0
  0
CLASS
  1
TABLESTYLE
  2
AcDbTableStyle
  3
ObjectDBX Classes
 90
     4095
280
     0
281
     0
  0
CLASS
  1
MLEADERSTYLE
  2
AcDbMLeaderStyle
  3
ACDB_MLEADERSTYLE_CLASS
 90
     4095
280
     0
281
     0
  0
CLASS
  1
RASTERVARIABLES
  2
AcDbRasterVariables
  3
ISM
 90
        0
280
     0
281
     0
  0
CLASS
  1
DIMASSOC
  2
AcDbDimAssoc
  3
"AcDbDimAssoc|Product Desc:     AcDim ARX App For Dimension|Company:          Autodesk, Inc.|WEB Address:      www.autodesk.com"
 90
        0
280
     0
281
     0
  0
ENDSEC
  0
SECTION
  2
TABLES
  0
TABLE
  2
VPORT
  5
8
330
0
100
AcDbSymbolTable
 70
     1
  0
VPORT
  5
29
330
8
100
AcDbSymbolTableRecord
100
AcDbViewportTableRecord
  2
*Active
 70
     0
 10
0.0
 20
0.0
 11
1.0
 21
1.0
 12
3.173698915320855
 22
3.100108433902797
 13
0.0
 23
0.0
 14
10.0
 24
10.0
 15
10.0
 25
10.0
 16
0.0
 26
0.0
 36
1.0
 17
0.0
 27
0.0
 37
0.0
 40
118.1747023216484
 41
1.798434442270059
 42
50.0
 43
0.0
 44
0.0
 50
0.0
 51
0.0
 71
    16
 72
  2000
 73
     1
 74
     3
 75
     0
 76
     0
 77
     0
 78
     0
281
     0
 65
     1
110
0.0
120
0.0
130
0.0
111
1.0
121
0.0
131
0.0
112
0.0
122
1.0
132
0.0
 79
     0
146
0.0
  0
ENDTAB
  0
TABLE
  2
LTYPE
  5
5
330
0
100
AcDbSymbolTable
 70
     6
  0
LTYPE
  5
14
330
5
100
AcDbSymbolTableRecord
100
AcDbLinetypeTableRecord
  2
ByBlock
 70
     0
  3

 72
    65
 73
     0
 40
0.0
  0
LTYPE
  5
15
330
5
100
AcDbSymbolTableRecord
100
AcDbLinetypeTableRecord
  2
ByLayer
 70
     0
  3

 72
    65
 73
     0
 40
0.0
  0
LTYPE
  5
16
330
5
100
AcDbSymbolTableRecord
100
AcDbLinetypeTableRecord
  2
Continuous
 70
     0
  3
Solid line
 72
    65
 73
     0
 40
0.0
  0
LTYPE
  5
6A
330
5
100
AcDbSymbolTableRecord
100
AcDbLinetypeTableRecord
  2
HIDDEN
 70
     0
  3
Hidden __ __ __ __ __ __ __ __ __ __ __ __ __ __
 72
    65
 73
     2
 40
1.905
 49
1.27
 74
     0
 49
-0.635
 74
     0
  0
LTYPE
  5
6B
330
5
100
AcDbSymbolTableRecord
100
AcDbLinetypeTableRecord
  2
PHANTOM
 70
     0
  3
Phantom ______  __  __  ______  __  __  ______
 72
    65
 73
     6
 40
12.7
 49
6.35
 74
     0
 49
-1.27
 74
     0
 49
1.27
 74
     0
 49
-1.27
 74
     0
 49
1.27
 74
     0
 49
-1.27
 74
     0
  0
LTYPE
  5
6C
330
5
100
AcDbSymbolTableRecord
100
AcDbLinetypeTableRecord
  2
CENTER
 70
     0
  3
Center ____ _ ____ _ ____ _ ____ _ ____ _ ____
 72
    65
 73
     4
 40
10.16
 49
6.35
 74
     0
 49
-1.27
 74
     0
 49
1.27
 74
     0
 49
-1.27
 74
     0
  0
LTYPE
  5
6D
330
5
100
AcDbSymbolTableRecord
100
AcDbLinetypeTableRecord
  2
CENTERX2
 70
     0
  3
Center (2x) ________  __  ________  __  _____
 72
    65
 73
     4
 40
20.32
 49
12.7
 74
     0
 49
-2.54
 74
     0
 49
2.54
 74
     0
 49
-2.54
 74
     0
  0
LTYPE
  5
6E
330
5
100
AcDbSymbolTableRecord
100
AcDbLinetypeTableRecord
  2
DOT2
 70
     0
  3
Dot (.5x) ........................................
 72
    65
 73
     2
 40
0.635
 49
0.0
 74
     0
 49
-0.635
 74
     0
  0
ENDTAB
  0
TABLE
  2
LAYER
  5
2
102
{ACAD_XDICTIONARY
360
1F2
102
}
330
0
100
AcDbSymbolTable
 70
    18
  0
LAYER
  5
10
330
2
100
AcDbSymbolTableRecord
100
AcDbLayerTableRecord
  2
0
 70
     0
 62
     7
  6
Continuous
370
    -3
390
F
  0
LAYER
  5
6F
330
2
100
AcDbSymbolTableRecord
100
AcDbLayerTableRecord
  2
FORMAT
 70
     0
 62
     2
  6
Continuous
370
    -3
390
F
  0
LAYER
  5
70
330
2
100
AcDbSymbolTableRecord
100
AcDbLayerTableRecord
  2
외형선
 70
     0
 62
     4
  6
Continuous
370
    30
390
F
  0
LAYER
  5
71
330
2
100
AcDbSymbolTableRecord
100
AcDbLayerTableRecord
  2
숨은선
 70
     0
 62
     2
  6
HIDDEN
370
    15
390
F
  0
LAYER
  5
72
330
2
100
AcDbSymbolTableRecord
100
AcDbLayerTableRecord
  2
중심선
 70
     0
 62
     1
  6
CENTERX2
370
    -3
390
F
  0
LAYER
  5
73
330
2
100
AcDbSymbolTableRecord
100
AcDbLayerTableRecord
  2
파단선
 70
     0
 62
     4
  6
Continuous
370
    -3
390
F
  0
LAYER
  5
74
330
2
100
AcDbSymbolTableRecord
100
AcDbLayerTableRecord
  2
해칭선
 70
     0
 62
   100
  6
Continuous
370
    -3
390
F
  0
LAYER
  5
75
330
2
100
AcDbSymbolTableRecord
100
AcDbLayerTableRecord
  2
가는실선
 70
     0
 62
     4
  6
Continuous
370
    -3
390
F
  0
LAYER
  5
76
330
2
100
AcDbSymbolTableRecord
100
AcDbLayerTableRecord
  2
치수_보조선
 70
     0
 62
     4
  6
Continuous
370
    -3
390
F
  0
LAYER
  5
77
330
2
100
AcDbSymbolTableRecord
100
AcDbLayerTableRecord
  2
치수문자_일반주서
 70
     0
 62
     7
  6
Continuous
370
    15
390
F
  0
LAYER
  5
78
330
2
100
AcDbSymbolTableRecord
100
AcDbLayerTableRecord
  2
개별주서
 70
     0
 62
   100
  6
Continuous
370
    30
390
F
  0
LAYER
  5
79
330
2
100
AcDbSymbolTableRecord
100
AcDbLayerTableRecord
  2
중간선
 70
     0
 62
     2
  6
Continuous
370
    15
390
F
  0
LAYER
  5
7A
330
2
100
AcDbSymbolTableRecord
100
AcDbLayerTableRecord
  2
윤곽선
 70
     0
 62
     3
  6
Continuous
370
    40
390
F
  0
LAYER
  5
7B
330
2
100
AcDbSymbolTableRecord
100
AcDbLayerTableRecord
  2
중심마크
 70
     0
 62
   100
  6
Continuous
370
    30
390
F
  0
LAYER
  5
7C
330
2
100
AcDbSymbolTableRecord
100
AcDbLayerTableRecord
  2
가상선
 70
     0
 62
     4
  6
PHANTOM
370
    -3
390
F
  0
LAYER
  5
7D
330
2
100
AcDbSymbolTableRecord
100
AcDbLayerTableRecord
  2
특수지정선
 70
     0
 62
     5
  6
CENTERX2
370
    60
390
F
  0
LAYER
  5
7E
330
2
100
AcDbSymbolTableRecord
100
AcDbLayerTableRecord
  2
참조1
 70
     0
 62
    -4
  6
Continuous
370
    -3
390
F
  0
LAYER
  5
14F
330
2
100
AcDbSymbolTableRecord
100
AcDbLayerTableRecord
  2
Defpoints
 70
     0
 62
     7
  6
Continuous
290
     0
370
    -3
390
F
  0
ENDTAB
  0
TABLE
  2
STYLE
  5
3
330
0
100
AcDbSymbolTable
 70
     2
  0
STYLE
  5
11
330
3
100
AcDbSymbolTableRecord
100
AcDbTextStyleTableRecord
  2
Standard
 70
     0
 40
0.0
 41
1.0
 50
0.0
 71
     0
 42
3.5
  3
txt
  4

  0
STYLE
  5
94
330
3
100
AcDbSymbolTableRecord
100
AcDbTextStyleTableRecord
  2
SLDTEXTSTYLE0
 70
     0
 40
0.0
 41
0.75
 50
0.0
 71
     0
 42
3.5
  3
TXT
  4

  0
ENDTAB
  0
TABLE
  2
VIEW
  5
6
330
0
100
AcDbSymbolTable
 70
     0
  0
ENDTAB
  0
TABLE
  2
UCS
  5
7
330
0
100
AcDbSymbolTable
 70
     0
  0
ENDTAB
  0
TABLE
  2
APPID
  5
9
330
0
100
AcDbSymbolTable
 70
     2
  0
APPID
  5
12
330
9
100
AcDbSymbolTableRecord
100
AcDbRegAppTableRecord
  2
ACAD
 70
     0
  0
APPID
  5
15A
330
9
100
AcDbSymbolTableRecord
100
AcDbRegAppTableRecord
  2
ACAD_DSTYLE_DIMRADIAL_EXTENSION
 70
     0
  0
ENDTAB
  0
TABLE
  2
DIMSTYLE
  5
A
330
0
100
AcDbSymbolTable
 70
     4
100
AcDbDimStyleTable
  0
DIMSTYLE
105
27
330
A
100
AcDbSymbolTableRecord
100
AcDbDimStyleTableRecord
  2
ISO-25
 70
     0
 41
2.5
 42
0.625
 43
3.75
 44
1.25
 73
     0
 74
     0
 77
     1
 78
     8
140
2.5
141
2.5
143
0.03937007874016
147
0.625
171
     3
172
     1
178
     0
271
     2
272
     2
274
     3
278
    44
283
     0
284
     8
340
11
  0
DIMSTYLE
105
D1
330
A
100
AcDbSymbolTableRecord
100
AcDbDimStyleTableRecord
  2
SLDDIMSTYLE0
 70
     0
 41
3.302
 44
0.0
 45
0.000000001
 73
     0
 74
     0
 77
     1
 78
    12
 79
     3
140
3.5
147
0.875
172
     1
173
     1
178
     0
271
     2
272
     2
276
     2
284
    12
289
     0
340
94
  0
DIMSTYLE
105
DF
102
{ACAD_REACTORS
330
1A5
330
1B3
330
257
330
258
102
}
330
A
100
AcDbSymbolTableRecord
100
AcDbDimStyleTableRecord
  2
SLDDIMSTYLE1
 70
     0
 41
3.302
 44
0.0
 45
0.000000001
 73
     0
 74
     0
 77
     1
 78
     4
 79
     1
140
3.5
143
0.0393700787401575
147
0.875
148
0.000000001
170
     1
173
     1
178
     0
271
     2
272
     2
276
     2
284
    12
340
94
  0
DIMSTYLE
105
F3
102
{ACAD_REACTORS
330
1C0
330
1CD
330
1E4
330
259
330
25A
330
2A2
102
}
330
A
100
AcDbSymbolTableRecord
100
AcDbDimStyleTableRecord
  2
SLDDIMSTYLE2
 70
     0
 41
3.302
 44
0.0
 45
0.000000001
 73
     0
 74
     0
 77
     1
 78
    12
 79
     3
140
3.5
143
0.0393700787401575
147
0.875
148
0.000000001
170
     1
172
     1
173
     1
178
     0
271
     2
272
     2
276
     2
284
    12
289
     0
340
94
  0
ENDTAB
  0
TABLE
  2
BLOCK_RECORD
  5
1
330
0
100
AcDbSymbolTable
 70
    19
  0
BLOCK_RECORD
  5
1F
330
1
100
AcDbSymbolTableRecord
100
AcDbBlockTableRecord
  2
*Model_Space
340
22
  0
BLOCK_RECORD
  5
1B
330
1
100
AcDbSymbolTableRecord
100
AcDbBlockTableRecord
  2
*Paper_Space
340
1E
  0
BLOCK_RECORD
  5
23
330
1
100
AcDbSymbolTableRecord
100
AcDbBlockTableRecord
  2
*Paper_Space0
340
26
  0
BLOCK_RECORD
  5
7F
330
1
100
AcDbSymbolTableRecord
100
AcDbBlockTableRecord
  2
블럭10
340
0
102
{BLKREFS
331
C9
102
}
  0
BLOCK_RECORD
  5
D2
330
1
100
AcDbSymbolTableRecord
100
AcDbBlockTableRecord
  2
_D
340
0
  0
BLOCK_RECORD
  5
E0
330
1
100
AcDbSymbolTableRecord
100
AcDbBlockTableRecord
  2
_D_1
340
0
  0
BLOCK_RECORD
  5
F4
330
1
100
AcDbSymbolTableRecord
100
AcDbBlockTableRecord
  2
_D_2
340
0
  0
BLOCK_RECORD
  5
109
330
1
100
AcDbSymbolTableRecord
100
AcDbBlockTableRecord
  2
_D_3
340
0
  0
BLOCK_RECORD
  5
123
330
1
100
AcDbSymbolTableRecord
100
AcDbBlockTableRecord
  2
SW_DOWELSYMBOL_0
340
0
102
{BLKREFS
331
0
331
1DD
331
25B
102
}
  0
BLOCK_RECORD
  5
1E7
330
1
100
AcDbSymbolTableRecord
100
AcDbBlockTableRecord
  2
*D8
340
0
  0
BLOCK_RECORD
  5
1F6
330
1
100
AcDbSymbolTableRecord
100
AcDbBlockTableRecord
  2
*D9
340
0
  0
BLOCK_RECORD
  5
203
330
1
100
AcDbSymbolTableRecord
100
AcDbBlockTableRecord
  2
*D10
340
0
  0
BLOCK_RECORD
  5
20F
330
1
100
AcDbSymbolTableRecord
100
AcDbBlockTableRecord
  2
*D11
340
0
  0
BLOCK_RECORD
  5
21B
330
1
100
AcDbSymbolTableRecord
100
AcDbBlockTableRecord
  2
*D12
340
0
  0
BLOCK_RECORD
  5
261
330
1
100
AcDbSymbolTableRecord
100
AcDbBlockTableRecord
  2
*D13
340
0
  0
BLOCK_RECORD
  5
26E
330
1
100
AcDbSymbolTableRecord
100
AcDbBlockTableRecord
  2
*D14
340
0
  0
BLOCK_RECORD
  5
27A
330
1
100
AcDbSymbolTableRecord
100
AcDbBlockTableRecord
  2
*D15
340
0
  0
BLOCK_RECORD
  5
286
330
1
100
AcDbSymbolTableRecord
100
AcDbBlockTableRecord
  2
*D16
340
0
  0
BLOCK_RECORD
  5
295
330
1
100
AcDbSymbolTableRecord
100
AcDbBlockTableRecord
  2
*D17
340
0
  0
BLOCK_RECORD
  5
2A5
330
1
100
AcDbSymbolTableRecord
100
AcDbBlockTableRecord
  2
*D18
340
0
  0
ENDTAB
  0
ENDSEC
  0
SECTION
  2
BLOCKS
  0
BLOCK
  5
20
330
1F
100
AcDbEntity
  8
0
100
AcDbBlockBegin
  2
*Model_Space
 70
     0
 10
0.0
 20
0.0
 30
0.0
  3
*Model_Space
  1
*Model_Space
  0
ENDBLK
  5
21
330
1F
100
AcDbEntity
  8
0
100
AcDbBlockEnd
  0
BLOCK
  5
1C
330
1B
100
AcDbEntity
 67
     1
  8
0
100
AcDbBlockBegin
  2
*Paper_Space
 70
     0
 10
0.0
 20
0.0
 30
0.0
  3
*Paper_Space
  1
*Paper_Space
  0
ENDBLK
  5
1D
330
1B
100
AcDbEntity
 67
     1
  8
0
100
AcDbBlockEnd
  0
BLOCK
  5
24
330
23
100
AcDbEntity
  8
0
100
AcDbBlockBegin
  2
*Paper_Space0
 70
     0
 10
0.0
 20
0.0
 30
0.0
  3
*Paper_Space0
  1
*Paper_Space0
  0
ENDBLK
  5
25
330
23
100
AcDbEntity
  8
0
100
AcDbBlockEnd
  0
BLOCK
  5
80
330
7F
100
AcDbEntity
  8
0
100
AcDbBlockBegin
  2
블럭10
 70
     2
 10
0.0
 20
0.0
 30
0.0
  3
블럭10
  1
블럭10
  0
ELLIPSE
  5
82
330
7F
100
AcDbEntity
  8
중심선
100
AcDbEllipse
 10
20.54032771741204
 20
12.0471743016438
 30
0.0
 11
6.600054785286829
 21
-1.261213355974178E-13
 31
0.0
210
0.0
220
0.0
230
1.0
 40
0.636358354079598
 41
0.9219305317359503
 42
6.513795318482858
  0
ELLIPSE
  5
83
330
7F
100
AcDbEntity
  8
중심선
100
AcDbEllipse
 10
20.54032771746488
 20
12.04717430159265
 30
0.0
 11
3.960054785062283
 21
1.540847449632565E-10
 31
0.0
210
0.0
220
0.0
230
1.0
 40
0.3939339440162632
 41
1.131841032648279
 42
5.62031148352944
  0
LINE
  5
84
330
7F
100
AcDbEntity
  8
중심선
100
AcDbLine
 10
2.268634060543552
 20
16.24717430164393
 30
0.0
 11
5.714909304380834
 21
16.24717430164393
 31
0.0
  0
LINE
  5
85
330
7F
100
AcDbEntity
  8
중심선
100
AcDbLine
 10
5.245725140726316
 20
7.84717430164391
 30
0.0
 11
8.692000384563599
 21
7.84717430164391
 31
0.0
  0
LINE
  5
86
330
7F
100
AcDbEntity
  8
중심선
100
AcDbLine
 10
15.74043728645272
 20
16.24717430164393
 30
0.0
 11
8.692000384563599
 21
7.84717430164391
 31
0.0
  0
LINE
  5
87
330
7F
100
AcDbEntity
  8
중심선
100
AcDbLine
 10
0.1404042013395286
 20
13.71084872107135
 30
0.0
 11
3.58671253028996
 21
13.71088815037384
 31
0.0
  0
LINE
  5
88
330
7F
100
AcDbEntity
  8
중심선
100
AcDbLine
 10
2.750260043222114
 20
10.84717430164391
 30
0.0
 11
6.196535287059397
 21
10.84717430164391
 31
0.0
  0
LINE
  5
89
330
7F
100
AcDbEntity
  8
중심선
100
AcDbLine
 10
12.29416204261559
 20
16.24717430164393
 30
0.0
 11
5.245725140726316
 21
7.84717430164391
 31
0.0
  0
LINE
  5
8A
330
7F
100
AcDbEntity
  8
중심선
100
AcDbLine
 10
10.72767329541681
 20
16.24717430164393
 30
0.0
 11
6.196535287059397
 21
10.84717430164391
 31
0.0
  0
LINE
  5
8B
330
7F
100
AcDbEntity
  8
중심선
100
AcDbLine
 10
7.28139805157953
 20
16.24717430164393
 30
0.0
 11
2.750260043222114
 21
10.84717430164391
 31
0.0
  0
LINE
  5
8C
330
7F
100
AcDbEntity
  8
중심선
100
AcDbLine
 10
5.714909304380834
 20
16.24717430164393
 30
0.0
 11
3.58671253028996
 21
13.71088815037384
 31
0.0
  0
LINE
  5
8D
330
7F
100
AcDbEntity
  8
중심선
100
AcDbLine
 10
2.268634060543552
 20
16.24717430164393
 30
0.0
 11
0.1404042013395286
 21
13.71084872107135
 31
0.0
  0
LINE
  5
8E
330
7F
100
AcDbEntity
  8
중심선
100
AcDbLine
 10
7.28139805157953
 20
16.24717430164393
 30
0.0
 11
10.72767329541681
 21
16.24717430164393
 31
0.0
  0
LINE
  5
8F
330
7F
100
AcDbEntity
  8
중심선
100
AcDbLine
 10
12.29416204261559
 20
16.24717430164393
 30
0.0
 11
15.74043728645272
 21
16.24717430164393
 31
0.0
  0
LINE
  5
90
330
7F
100
AcDbEntity
  8
중심선
100
AcDbLine
 10
19.22036997980202
 20
11.08717430171403
 30
0.0
 11
23.66174974927406
 21
11.08717430171406
 31
0.0
  0
LINE
  5
91
330
7F
100
AcDbEntity
  8
중심선
100
AcDbLine
 10
19.22039502424796
 20
13.00717430171391
 30
0.0
 11
19.22036997980202
 21
11.08717430171403
 31
0.0
  0
LINE
  5
92
330
7F
100
AcDbEntity
  8
중심선
100
AcDbLine
 10
19.22039502424796
 20
13.00717430171391
 30
0.0
 11
26.96566020931264
 21
13.00717430171391
 31
0.0
  0
LINE
  5
93
330
7F
100
AcDbEntity
  8
중심선
100
AcDbLine
 10
22.22332737316547
 20
13.45928029700563
 30
0.0
 11
24.52862924686651
 21
15.39360700705356
 31
0.0
  0
ATTDEF
  5
95
330
7F
100
AcDbEntity
  8
FORMAT
 62
     2
100
AcDbText
 10
3.448148490846466
 20
2.075366912832191
 30
0.0
 40
4.233333333333333
  1
EM649905
 41
0.75
  7
SLDTEXTSTYLE0
 11
3.448148490846466
 21
-0.0412997538344756
 31
0.0
100
AcDbAttributeDefinition
  3

  2
AUTOATTR0
 70
     0
 74
     1
  0
ENDBLK
  5
81
330
7F
100
AcDbEntity
  8
0
100
AcDbBlockEnd
  0
BLOCK
  5
D3
330
D2
100
AcDbEntity
  8
0
100
AcDbBlockBegin
  2
_D
 70
     0
 10
0.0
 20
0.0
 30
0.0
  3
_D
  1
_D
  0
SOLID
  5
D5
330
D2
100
AcDbEntity
  8
치수문자_일반주서
100
AcDbTrace
 10
-66.50000000000003
 20
3.176074928723903
 30
0.0
 11
-65.99200000000003
 21
6.478074928723903
 31
0.0
 12
-67.00800000000002
 22
6.478074928723903
 32
0.0
 13
-67.00800000000002
 23
6.478074928723903
 33
0.0
  0
SOLID
  5
D6
330
D2
100
AcDbEntity
  8
치수문자_일반주서
100
AcDbTrace
 10
-66.50000000000003
 20
-3.173925071276119
 30
0.0
 11
-67.00800000000002
 21
-6.475925071276119
 31
0.0
 12
-65.99200000000003
 22
-6.475925071276119
 32
0.0
 13
-65.99200000000003
 23
-6.475925071276119
 33
0.0
  0
LINE
  5
D7
330
D2
100
AcDbEntity
  8
치수문자_일반주서
100
AcDbLine
 10
-53.86499999999999
 20
3.176074928723904
 30
0.0
 11
-67.50000000000003
 21
3.176074928723903
 31
0.0
  0
LINE
  5
D8
330
D2
100
AcDbEntity
  8
치수문자_일반주서
100
AcDbLine
 10
-53.86499999999999
 20
-3.173925071276118
 30
0.0
 11
-67.50000000000003
 21
-3.173925071276119
 31
0.0
  0
LINE
  5
D9
330
D2
100
AcDbEntity
  8
치수문자_일반주서
100
AcDbLine
 10
-66.50000000000003
 20
3.176074928723903
 30
0.0
 11
-66.50000000000003
 21
9.526074928723903
 31
0.0
  0
LINE
  5
DA
330
D2
100
AcDbEntity
  8
치수문자_일반주서
100
AcDbLine
 10
-66.50000000000003
 20
3.176074928723903
 30
0.0
 11
-66.50000000000003
 21
-3.173925071276119
 31
0.0
  0
LINE
  5
DB
330
D2
100
AcDbEntity
  8
치수문자_일반주서
100
AcDbLine
 10
-66.50000000000003
 20
-3.173925071276119
 30
0.0
 11
-66.50000000000003
 21
-9.52392507127612
 31
0.0
  0
MTEXT
  5
DC
330
D2
100
AcDbEntity
  8
치수문자_일반주서
100
AcDbMText
 10
-71.01173708920187
 20
-8.48279938454583
 30
0.0
 40
3.5
 41
0.0
 71
     1
 72
     1
  1
%%c
  7
SLDTEXTSTYLE0
 11
-7.044195017643634E-15
 21
1.0
 31
0.0
 73
     1
 44
1.0
  0
MTEXT
  5
DD
330
D2
100
AcDbEntity
  8
치수문자_일반주서
100
AcDbMText
 10
-71.06520926586177
 20
-3.20436198617175
 30
0.0
 40
3.5
 41
0.0
 71
     1
 72
     1
  1
6.35
  7
SLDTEXTSTYLE0
 11
-7.044195017643634E-15
 21
1.0
 31
0.0
 73
     1
 44
1.0
  0
ENDBLK
  5
D4
330
D2
100
AcDbEntity
  8
0
100
AcDbBlockEnd
  0
BLOCK
  5
E1
330
E0
100
AcDbEntity
  8
0
100
AcDbBlockBegin
  2
_D_1
 70
     0
 10
0.0
 20
0.0
 30
0.0
  3
_D_1
  1
_D_1
  0
SOLID
  5
E3
330
E0
100
AcDbEntity
  8
치수문자_일반주서
100
AcDbTrace
 10
22.70000000000002
 20
29.80576019378981
 30
0.0
 11
19.39800000000002
 21
30.31376019378981
 31
0.0
 12
19.39800000000002
 22
29.29776019378981
 32
0.0
 13
19.39800000000002
 23
29.29776019378981
 33
0.0
  0
SOLID
  5
E4
330
E0
100
AcDbEntity
  8
치수문자_일반주서
100
AcDbTrace
 10
-53.49999999999999
 20
29.8057601937898
 30
0.0
 11
-50.19799999999999
 21
29.2977601937898
 31
0.0
 12
-50.19799999999999
 22
30.3137601937898
 32
0.0
 13
-50.19799999999999
 23
30.3137601937898
 33
0.0
  0
LINE
  5
E5
330
E0
100
AcDbEntity
  8
치수문자_일반주서
100
AcDbLine
 10
-20.81436608182265
 20
40.59864190983254
 30
0.0
 11
-21.52530356738715
 21
40.59864190983254
 31
0.0
  0
LINE
  5
E6
330
E0
100
AcDbEntity
  8
치수문자_일반주서
100
AcDbLine
 10
-21.52530356738715
 20
40.59864190983254
 30
0.0
 11
-21.52530356738719
 21
35.04239191877323
 31
0.0
  0
LINE
  5
E7
330
E0
100
AcDbEntity
  8
치수문자_일반주서
100
AcDbLine
 10
-21.52530356738719
 20
35.04239191877323
 30
0.0
 11
-20.81436608182269
 21
35.04239191877323
 31
0.0
  0
LINE
  5
E8
330
E0
100
AcDbEntity
  8
치수문자_일반주서
100
AcDbLine
 10
-9.985633219685392
 20
40.59864190983246
 30
0.0
 11
-9.274695734120892
 21
40.59864190983245
 31
0.0
  0
LINE
  5
E9
330
E0
100
AcDbEntity
  8
치수문자_일반주서
100
AcDbLine
 10
-9.274695734120892
 20
40.59864190983245
 30
0.0
 11
-9.274695734120932
 21
35.04239191877315
 31
0.0
  0
LINE
  5
EA
330
E0
100
AcDbEntity
  8
치수문자_일반주서
100
AcDbLine
 10
-9.274695734120932
 20
35.04239191877315
 30
0.0
 11
-9.985633219685432
 21
35.04239191877316
 31
0.0
  0
LINE
  5
EB
330
E0
100
AcDbEntity
  8
치수문자_일반주서
100
AcDbLine
 10
22.70000000000002
 20
3.649430295663969
 30
0.0
 11
22.70000000000002
 21
30.80576019378981
 31
0.0
  0
LINE
  5
EC
330
E0
100
AcDbEntity
  8
치수문자_일반주서
100
AcDbLine
 10
-53.49999999999999
 20
3.541074928723894
 30
0.0
 11
-53.49999999999999
 21
30.8057601937898
 31
0.0
  0
LINE
  5
ED
330
E0
100
AcDbEntity
  8
치수문자_일반주서
100
AcDbLine
 10
22.70000000000002
 20
29.80576019378981
 30
0.0
 11
-53.49999999999999
 21
29.8057601937898
 31
0.0
  0
MTEXT
  5
EE
330
E0
100
AcDbEntity
  8
치수문자_일반주서
100
AcDbMText
 10
-22.03906229287389
 20
34.37096945965153
 30
0.0
 40
3.5
 41
0.0
 71
     1
 72
     1
  1

  7
SLDTEXTSTYLE0
 73
     1
 44
1.0
  0
MTEXT
  5
EF
330
E0
100
AcDbEntity
  8
치수문자_일반주서
100
AcDbMText
 10
-19.92569418121129
 20
39.55412883335212
 30
0.0
 40
3.5
 41
0.0
 71
     1
 72
     1
  1
3.00
  7
SLDTEXTSTYLE0
 73
     1
 44
1.0
  0
MTEXT
  5
F0
330
E0
100
AcDbEntity
  8
치수문자_일반주서
100
AcDbMText
 10
-21.21874989438805
 20
34.31749728299166
 30
0.0
 40
3.5
 41
0.0
 71
     1
 72
     1
  1
76.20
  7
SLDTEXTSTYLE0
 73
     1
 44
1.0
  0
MTEXT
  5
F1
330
E0
100
AcDbEntity
  8
치수문자_일반주서
100
AcDbMText
 10
-7.428992488980326
 20
34.37096945965142
 30
0.0
 40
3.5
 41
0.0
 71
     1
 72
     1
  1

  7
SLDTEXTSTYLE0
 73
     1
 44
1.0
  0
ENDBLK
  5
E2
330
E0
100
AcDbEntity
  8
0
100
AcDbBlockEnd
  0
BLOCK
  5
F5
330
F4
100
AcDbEntity
  8
0
100
AcDbBlockBegin
  2
_D_2
 70
     0
 10
0.0
 20
0.0
 30
0.0
  3
_D_2
  1
_D_2
  0
SOLID
  5
F7
330
F4
100
AcDbEntity
  8
치수문자_일반주서
100
AcDbTrace
 10
22.70000000000002
 20
12.94419429486671
 30
0.0
 11
26.00200000000002
 21
12.43619429486671
 31
0.0
 12
26.00200000000002
 22
13.45219429486671
 32
0.0
 13
26.00200000000002
 23
13.45219429486671
 33
0.0
  0
SOLID
  5
F8
330
F4
100
AcDbEntity
  8
치수문자_일반주서
100
AcDbTrace
 10
3.650000000000035
 20
12.94419429486671
 30
0.0
 11
0.3480000000000349
 21
13.45219429486671
 31
0.0
 12
0.3480000000000349
 22
12.43619429486671
 32
0.0
 13
0.3480000000000349
 23
12.43619429486671
 33
0.0
  0
LINE
  5
F9
330
F4
100
AcDbEntity
  8
치수문자_일반주서
100
AcDbLine
 10
7.760633918177359
 20
23.73707601090945
 30
0.0
 11
7.049696432612859
 21
23.73707601090945
 31
0.0
  0
LINE
  5
FA
330
F4
100
AcDbEntity
  8
치수문자_일반주서
100
AcDbLine
 10
7.049696432612859
 20
23.73707601090945
 30
0.0
 11
7.049696432612819
 21
18.18082601985015
 31
0.0
  0
LINE
  5
FB
330
F4
100
AcDbEntity
  8
치수문자_일반주서
100
AcDbLine
 10
7.049696432612819
 20
18.18082601985015
 30
0.0
 11
7.760633918177319
 21
18.18082601985015
 31
0.0
  0
LINE
  5
FC
330
F4
100
AcDbEntity
  8
치수문자_일반주서
100
AcDbLine
 10
18.58936678031462
 20
23.73707601090937
 30
0.0
 11
19.30030426587912
 21
23.73707601090937
 31
0.0
  0
LINE
  5
FD
330
F4
100
AcDbEntity
  8
치수문자_일반주서
100
AcDbLine
 10
19.30030426587912
 20
23.73707601090937
 30
0.0
 11
19.30030426587908
 21
18.18082601985006
 31
0.0
  0
LINE
  5
FE
330
F4
100
AcDbEntity
  8
치수문자_일반주서
100
AcDbLine
 10
19.30030426587908
 20
18.18082601985006
 30
0.0
 11
18.58936678031458
 21
18.18082601985007
 31
0.0
  0
LINE
  5
FF
330
F4
100
AcDbEntity
  8
치수문자_일반주서
100
AcDbLine
 10
22.70000000000002
 20
3.649430295663969
 30
0.0
 11
22.70000000000002
 21
13.94419429486671
 31
0.0
  0
LINE
  5
100
330
F4
100
AcDbEntity
  8
치수문자_일반주서
100
AcDbLine
 10
3.650000000000035
 20
3.914906197841639
 30
0.0
 11
3.650000000000035
 21
13.94419429486671
 31
0.0
  0
LINE
  5
101
330
F4
100
AcDbEntity
  8
치수문자_일반주서
100
AcDbLine
 10
22.70000000000002
 20
12.94419429486671
 30
0.0
 11
29.05000000000002
 21
12.94419429486671
 31
0.0
  0
LINE
  5
102
330
F4
100
AcDbEntity
  8
치수문자_일반주서
100
AcDbLine
 10
22.70000000000002
 20
12.94419429486671
 30
0.0
 11
3.650000000000035
 21
12.94419429486671
 31
0.0
  0
LINE
  5
103
330
F4
100
AcDbEntity
  8
치수문자_일반주서
100
AcDbLine
 10
3.650000000000035
 20
12.94419429486671
 30
0.0
 11
-2.699999999999965
 21
12.94419429486671
 31
0.0
  0
MTEXT
  5
104
330
F4
100
AcDbEntity
  8
치수문자_일반주서
100
AcDbMText
 10
6.535937707126118
 20
17.50940356072843
 30
0.0
 40
3.5
 41
0.0
 71
     1
 72
     1
  1

  7
SLDTEXTSTYLE0
 73
     1
 44
1.0
  0
MTEXT
  5
105
330
F4
100
AcDbEntity
  8
치수문자_일반주서
100
AcDbMText
 10
8.64930581878872
 20
22.69256293442903
 30
0.0
 40
3.5
 41
0.0
 71
     1
 72
     1
  1
0.75
  7
SLDTEXTSTYLE0
 73
     1
 44
1.0
  0
MTEXT
  5
106
330
F4
100
AcDbEntity
  8
치수문자_일반주서
100
AcDbMText
 10
7.356250105611957
 20
17.45593138406857
 30
0.0
 40
3.5
 41
0.0
 71
     1
 72
     1
  1
19.05
  7
SLDTEXTSTYLE0
 73
     1
 44
1.0
  0
MTEXT
  5
107
330
F4
100
AcDbEntity
  8
치수문자_일반주서
100
AcDbMText
 10
21.14600751101968
 20
17.50940356072832
 30
0.0
 40
3.5
 41
0.0
 71
     1
 72
     1
  1

  7
SLDTEXTSTYLE0
 73
     1
 44
1.0
  0
ENDBLK
  5
F6
330
F4
100
AcDbEntity
  8
0
100
AcDbBlockEnd
  0
BLOCK
  5
10A
330
109
100
AcDbEntity
  8
0
100
AcDbBlockBegin
  2
_D_3
 70
     0
 10
0.0
 20
0.0
 30
0.0
  3
_D_3
  1
_D_3
  0
SOLID
  5
10C
330
109
100
AcDbEntity
  8
치수문자_일반주서
100
AcDbTrace
 10
41.70000000000008
 20
3.17607492872389
 30
0.0
 11
42.20800000000008
 21
6.47807492872389
 31
0.0
 12
41.19200000000008
 22
6.47807492872389
 32
0.0
 13
41.19200000000008
 23
6.47807492872389
 33
0.0
  0
SOLID
  5
10D
330
109
100
AcDbEntity
  8
치수문자_일반주서
100
AcDbTrace
 10
41.70000000000008
 20
-3.173925071276108
 30
0.0
 11
41.19200000000008
 21
-6.475925071276108
 31
0.0
 12
42.20800000000008
 22
-6.475925071276108
 32
0.0
 13
42.20800000000008
 23
-6.475925071276108
 33
0.0
  0
LINE
  5
10E
330
109
100
AcDbEntity
  8
치수문자_일반주서
100
AcDbLine
 10
30.90711828395735
 20
4.407458044959849
 30
0.0
 11
30.90711828395735
 21
3.69652055939535
 31
0.0
  0
LINE
  5
10F
330
109
100
AcDbEntity
  8
치수문자_일반주서
100
AcDbLine
 10
30.90711828395735
 20
3.69652055939535
 30
0.0
 11
36.46336827501666
 21
3.696520559395389
 31
0.0
  0
LINE
  5
110
330
109
100
AcDbEntity
  8
치수문자_일반주서
100
AcDbLine
 10
36.46336827501666
 20
3.696520559395389
 30
0.0
 11
36.46336827501665
 21
4.407458044959888
 31
0.0
  0
LINE
  5
111
330
109
100
AcDbEntity
  8
치수문자_일반주서
100
AcDbLine
 10
30.90711828395727
 20
15.23619090709711
 30
0.0
 11
30.90711828395726
 21
15.94712839266161
 31
0.0
  0
LINE
  5
112
330
109
100
AcDbEntity
  8
치수문자_일반주서
100
AcDbLine
 10
30.90711828395726
 20
15.94712839266161
 30
0.0
 11
36.46336827501657
 21
15.94712839266165
 31
0.0
  0
LINE
  5
113
330
109
100
AcDbEntity
  8
치수문자_일반주서
100
AcDbLine
 10
36.46336827501657
 20
15.94712839266165
 30
0.0
 11
36.46336827501658
 21
15.23619090709715
 31
0.0
  0
LINE
  5
114
330
109
100
AcDbEntity
  8
치수문자_일반주서
100
AcDbLine
 10
17.47004998429092
 20
3.176074928723892
 30
0.0
 11
42.70000000000009
 21
3.17607492872389
 31
0.0
  0
LINE
  5
115
330
109
100
AcDbEntity
  8
치수문자_일반주서
100
AcDbLine
 10
17.47004998429092
 20
-3.173925071276106
 30
0.0
 11
42.70000000000009
 21
-3.173925071276108
 31
0.0
  0
LINE
  5
116
330
109
100
AcDbEntity
  8
치수문자_일반주서
100
AcDbLine
 10
41.70000000000008
 20
3.17607492872389
 30
0.0
 11
41.70000000000008
 21
16.98673817133413
 31
0.0
  0
LINE
  5
117
330
109
100
AcDbEntity
  8
치수문자_일반주서
100
AcDbLine
 10
41.70000000000008
 20
3.17607492872389
 30
0.0
 11
41.70000000000008
 21
-3.173925071276108
 31
0.0
  0
LINE
  5
118
330
109
100
AcDbEntity
  8
치수문자_일반주서
100
AcDbLine
 10
41.70000000000008
 20
-3.173925071276108
 30
0.0
 11
41.70000000000008
 21
-9.523925071276107
 31
0.0
  0
MTEXT
  5
119
330
109
100
AcDbEntity
  8
치수문자_일반주서
100
AcDbMText
 10
31.95163136043775
 20
5.296129945571227
 30
0.0
 40
3.5
 41
0.0
 71
     1
 72
     1
  1
0.25
  7
SLDTEXTSTYLE0
 11
-7.044195017643634E-15
 21
1.0
 31
0.0
 73
     1
 44
1.0
  0
MTEXT
  5
11A
330
109
100
AcDbEntity
  8
치수문자_일반주서
100
AcDbMText
 10
37.18826291079823
 20
2.656910780722936
 30
0.0
 40
3.5
 41
0.0
 71
     1
 72
     1
  1
%%c
  7
SLDTEXTSTYLE0
 11
-7.044195017643634E-15
 21
1.0
 31
0.0
 73
     1
 44
1.0
  0
MTEXT
  5
11B
330
109
100
AcDbEntity
  8
치수문자_일반주서
100
AcDbMText
 10
37.18826291079819
 20
7.935348179097017
 30
0.0
 40
3.5
 41
0.0
 71
     1
 72
     1
  1
6.35
  7
SLDTEXTSTYLE0
 11
-7.044195017643634E-15
 21
1.0
 31
0.0
 73
     1
 44
1.0
  0
ENDBLK
  5
10B
330
109
100
AcDbEntity
  8
0
100
AcDbBlockEnd
  0
BLOCK
  5
124
330
123
100
AcDbEntity
  8
0
100
AcDbBlockBegin
  2
SW_DOWELSYMBOL_0
 70
     0
 10
0.0
 20
0.0
 30
0.0
  3
SW_DOWELSYMBOL_0
  1
SW_DOWELSYMBOL_0
  0
CIRCLE
  5
126
330
123
100
AcDbEntity
  8
해칭선
 62
     0
100
AcDbCircle
 10
0.0
 20
0.0
 30
0.0
 40
3.000000000000001
  0
HATCH
  5
127
330
123
100
AcDbEntity
  8
0
  6
Continuous
 62
     0
370
     0
100
AcDbHatch
 10
0.0
 20
0.0
 30
0.0
210
0.0
220
0.0
230
1.0
  2
SOLID
 70
     1
 71
     0
 91
        1
 92
        0
 93
        3
 72
     2
 10
0.0
 20
0.0
 40
3.000000000000001
 50
0.0
 51
90.0
 73
     1
 72
     1
 10
0.0
 20
3.000000000000001
 11
0.0
 21
0.0
 72
     1
 10
0.0
 20
0.0
 11
3.000000000000001
 21
0.0
 97
        0
 75
     0
 76
     1
 98
        1
 10
0.0
 20
0.0
  0
HATCH
  5
128
330
123
100
AcDbEntity
  8
0
  6
Continuous
 62
     0
370
     0
100
AcDbHatch
 10
0.0
 20
0.0
 30
0.0
210
0.0
220
0.0
230
1.0
  2
SOLID
 70
     1
 71
     0
 91
        1
 92
        0
 93
        3
 72
     2
 10
0.0
 20
0.0
 40
3.000000000000001
 50
180.0
 51
270.0000000000008
 73
     1
 72
     1
 10
0.0
 20
-3.000000000000001
 11
0.0
 21
0.0
 72
     1
 10
0.0
 20
0.0
 11
-3.000000000000001
 21
0.0
 97
        0
 75
     0
 76
     1
 98
        1
 10
0.0
 20
0.0
  0
ENDBLK
  5
125
330
123
100
AcDbEntity
  8
0
100
AcDbBlockEnd
  0
BLOCK
  5
1E8
330
1E7
100
AcDbEntity
  8
0
100
AcDbBlockBegin
  2
*D8
 70
     1
 10
0.0
 20
0.0
 30
0.0
  3
*D8
  1
*D8
  0
LINE
  5
1E9
330
1E7
100
AcDbEntity
  8
0
  6
Continuous
 62
     0
370
    -2
100
AcDbLine
 10
94.9797358766332
 20
27.30093676503633
 30
0.0
 11
109.3768262771798
 21
0.0000000000004139
 31
0.0
  0
MTEXT
  5
1EA
330
1E7
100
AcDbEntity
  8
0
 62
     0
370
    15
100
AcDbMText
 10
105.270330365232
 20
13.41455060326909
 30
0.0
 40
3.5
 41
0.0
 71
     5
 72
     1
  1
\A1;R.25 [R0.010]
  7
SLDTEXTSTYLE0
 11
0.4664611576583639
 21
-0.8845416826786734
 31
0.0
 73
     1
 44
1.0
  0
LINE
  5
1EB
330
1E7
100
AcDbEntity
  8
0
  6
Continuous
 62
     0
370
    -2
100
AcDbLine
 10
93.32100000000005
 20
30.4463669886417
 30
0.0
 11
93.43948113404528
 21
30.22169340124131
 31
0.0
  0
SOLID
  5
1EC
330
1E7
100
AcDbEntity
  8
0
 62
     0
100
AcDbTrace
 10
95.46652864933402
 20
27.55764588880099
 30
0.0
 11
94.49294310393238
 21
27.04422764127168
 31
0.0
 12
93.43948113404528
 22
30.22169340124131
 32
0.0
 13
93.43948113404528
 23
30.22169340124131
 33
0.0
  0
POINT
  5
1ED
330
1E7
100
AcDbEntity
  8
Defpoints
 62
     0
100
AcDbPoint
 10
93.43948113404528
 20
30.22169340124131
 30
0.0
  0
POINT
  5
1EE
330
1E7
100
AcDbEntity
  8
Defpoints
 62
     0
100
AcDbPoint
 10
93.32100000000005
 20
30.4463669886417
 30
0.0
  0
ENDBLK
  5
1EF
330
1E7
100
AcDbEntity
  8
0
100
AcDbBlockEnd
  0
BLOCK
  5
1F7
330
1F6
100
AcDbEntity
  8
0
100
AcDbBlockBegin
  2
*D9
 70
     1
 10
0.0
 20
0.0
 30
0.0
  3
*D9
  1
*D9
  0
LINE
  5
1F9
330
1F6
100
AcDbEntity
  8
0
  6
Continuous
 62
     0
370
    -2
100
AcDbLine
 10
17.94750000000005
 20
36.5423669886417
 30
0.0
 11
4.37500000000002
 21
36.54236698864165
 31
0.0
  0
LINE
  5
1FA
330
1F6
100
AcDbEntity
  8
0
  6
Continuous
 62
     0
370
    -2
100
AcDbLine
 10
17.94750000000005
 20
30.19236698864167
 30
0.0
 11
4.375000000000042
 21
30.19236698864162
 31
0.0
  0
LINE
  5
1FB
330
1F6
100
AcDbEntity
  8
0
  6
Continuous
 62
     0
370
    -2
100
AcDbLine
 10
4.375000000000008
 20
39.84436698864165
 30
0.0
 11
4.374999999999996
 21
43.14636698864165
 31
0.0
  0
LINE
  5
1FC
330
1F6
100
AcDbEntity
  8
0
  6
Continuous
 62
     0
370
    -2
100
AcDbLine
 10
4.375000000000053
 20
26.89036698864162
 30
0.0
 11
4.375000000000065
 21
23.58836698864162
 31
0.0
  0
SOLID
  5
1FD
330
1F6
100
AcDbEntity
  8
0
 62
     0
100
AcDbTrace
 10
3.824666666666675
 20
39.84436698864165
 30
0.0
 11
4.925333333333342
 21
39.84436698864165
 31
0.0
 12
4.37500000000002
 22
36.54236698864165
 32
0.0
 13
4.37500000000002
 23
36.54236698864165
 33
0.0
  0
SOLID
  5
1FE
330
1F6
100
AcDbEntity
  8
0
 62
     0
100
AcDbTrace
 10
4.925333333333387
 20
26.89036698864162
 30
0.0
 11
3.82466666666672
 21
26.89036698864162
 31
0.0
 12
4.375000000000042
 22
30.19236698864162
 32
0.0
 13
4.375000000000042
 23
30.19236698864162
 33
0.0
  0
MTEXT
  5
1FF
330
1F6
100
AcDbEntity
  8
0
 62
     0
370
    15
100
AcDbMText
 10
0.0000000000000355
 20
32.04840637067758
 30
0.0
 40
3.5
 41
0.0
 71
     2
 72
     1
  1
\A1;%%c6.35 [1/4]
  7
SLDTEXTSTYLE0
 11
-3.496765431890242E-15
 21
1.0
 31
0.0
 73
     1
 44
1.0
  0
POINT
  5
200
330
1F6
100
AcDbEntity
  8
Defpoints
 62
     0
100
AcDbPoint
 10
18.01000000000005
 20
36.5423669886417
 30
0.0
  0
POINT
  5
201
330
1F6
100
AcDbEntity
  8
Defpoints
 62
     0
100
AcDbPoint
 10
18.01000000000005
 20
30.19236698864167
 30
0.0
  0
POINT
  5
202
330
1F6
100
AcDbEntity
  8
Defpoints
 62
     0
100
AcDbPoint
 10
4.375000000000043
 20
30.19236698864162
 30
0.0
  0
ENDBLK
  5
1F8
330
1F6
100
AcDbEntity
  8
0
100
AcDbBlockEnd
  0
BLOCK
  5
204
330
203
100
AcDbEntity
  8
0
100
AcDbBlockBegin
  2
*D10
 70
     1
 10
0.0
 20
0.0
 30
0.0
  3
*D10
  1
*D10
  0
LINE
  5
206
330
203
100
AcDbEntity
  8
0
  6
Continuous
 62
     0
370
    -2
100
AcDbLine
 10
93.57500000000007
 20
36.60486698864168
 30
0.0
 11
93.57500000000007
 21
63.42807163518036
 31
0.0
  0
LINE
  5
207
330
203
100
AcDbEntity
  8
0
  6
Continuous
 62
     0
370
    -2
100
AcDbLine
 10
17.37500000000005
 20
35.96986698864168
 30
0.0
 11
17.37500000000005
 21
63.42807163518036
 31
0.0
  0
LINE
  5
208
330
203
100
AcDbEntity
  8
0
  6
Continuous
 62
     0
370
    -2
100
AcDbLine
 10
90.27300000000008
 20
63.42807163518036
 30
0.0
 11
20.67700000000005
 21
63.42807163518036
 31
0.0
  0
SOLID
  5
209
330
203
100
AcDbEntity
  8
0
 62
     0
100
AcDbTrace
 10
90.27300000000008
 20
62.87773830184702
 30
0.0
 11
90.27300000000008
 21
63.97840496851369
 31
0.0
 12
93.57500000000007
 22
63.42807163518036
 32
0.0
 13
93.57500000000007
 23
63.42807163518036
 33
0.0
  0
SOLID
  5
20A
330
203
100
AcDbEntity
  8
0
 62
     0
100
AcDbTrace
 10
20.67700000000005
 20
63.97840496851369
 30
0.0
 11
20.67700000000005
 21
62.87773830184702
 31
0.0
 12
17.37500000000005
 22
63.42807163518036
 32
0.0
 13
17.37500000000005
 23
63.42807163518036
 33
0.0
  0
MTEXT
  5
20B
330
203
100
AcDbEntity
  8
0
 62
     0
370
    15
100
AcDbMText
 10
55.47500000000006
 20
67.80307163518036
 30
0.0
 40
3.5
 41
0.0
 71
     2
 72
     1
  1
\A1;76.20 [3]
  7
SLDTEXTSTYLE0
 73
     1
 44
1.0
  0
POINT
  5
20C
330
203
100
AcDbEntity
  8
Defpoints
 62
     0
100
AcDbPoint
 10
93.57500000000007
 20
36.54236698864168
 30
0.0
  0
POINT
  5
20D
330
203
100
AcDbEntity
  8
Defpoints
 62
     0
100
AcDbPoint
 10
17.37500000000005
 20
35.90736698864168
 30
0.0
  0
POINT
  5
20E
330
203
100
AcDbEntity
  8
Defpoints
 62
     0
100
AcDbPoint
 10
17.37500000000005
 20
63.42807163518036
 30
0.0
  0
ENDBLK
  5
205
330
203
100
AcDbEntity
  8
0
100
AcDbBlockEnd
  0
BLOCK
  5
210
330
20F
100
AcDbEntity
  8
0
100
AcDbBlockBegin
  2
*D11
 70
     1
 10
0.0
 20
0.0
 30
0.0
  3
*D11
  1
*D11
  0
LINE
  5
212
330
20F
100
AcDbEntity
  8
0
  6
Continuous
 62
     0
370
    -2
100
AcDbLine
 10
93.57500000000007
 20
36.60486698864168
 30
0.0
 11
93.57500000000007
 21
46.56650573625724
 31
0.0
  0
LINE
  5
213
330
20F
100
AcDbEntity
  8
0
  6
Continuous
 62
     0
370
    -2
100
AcDbLine
 10
74.52500000000006
 20
36.34369825775943
 30
0.0
 11
74.52500000000006
 21
46.56650573625724
 31
0.0
  0
LINE
  5
214
330
20F
100
AcDbEntity
  8
0
  6
Continuous
 62
     0
370
    -2
100
AcDbLine
 10
90.27300000000008
 20
46.56650573625724
 30
0.0
 11
77.82700000000006
 21
46.56650573625724
 31
0.0
  0
SOLID
  5
215
330
20F
100
AcDbEntity
  8
0
 62
     0
100
AcDbTrace
 10
90.27300000000008
 20
46.01617240292391
 30
0.0
 11
90.27300000000008
 21
47.11683906959058
 31
0.0
 12
93.57500000000007
 22
46.56650573625724
 32
0.0
 13
93.57500000000007
 23
46.56650573625724
 33
0.0
  0
SOLID
  5
216
330
20F
100
AcDbEntity
  8
0
 62
     0
100
AcDbTrace
 10
77.82700000000006
 20
47.11683906959058
 30
0.0
 11
77.82700000000006
 21
46.01617240292391
 31
0.0
 12
74.52500000000006
 22
46.56650573625724
 32
0.0
 13
74.52500000000006
 23
46.56650573625724
 33
0.0
  0
MTEXT
  5
217
330
20F
100
AcDbEntity
  8
0
 62
     0
370
    15
100
AcDbMText
 10
84.05000000000004
 20
50.94150573625724
 30
0.0
 40
3.5
 41
0.0
 71
     2
 72
     1
  1
\A1;19.05 [3/4]
  7
SLDTEXTSTYLE0
 73
     1
 44
1.0
  0
POINT
  5
218
330
20F
100
AcDbEntity
  8
Defpoints
 62
     0
100
AcDbPoint
 10
93.57500000000007
 20
36.54236698864168
 30
0.0
  0
POINT
  5
219
330
20F
100
AcDbEntity
  8
Defpoints
 62
     0
100
AcDbPoint
 10
74.52500000000006
 20
36.28119825775943
 30
0.0
  0
POINT
  5
21A
330
20F
100
AcDbEntity
  8
Defpoints
 62
     0
100
AcDbPoint
 10
74.52500000000006
 20
46.56650573625724
 30
0.0
  0
ENDBLK
  5
211
330
20F
100
AcDbEntity
  8
0
100
AcDbBlockEnd
  0
BLOCK
  5
21C
330
21B
100
AcDbEntity
  8
0
100
AcDbBlockBegin
  2
*D12
 70
     1
 10
0.0
 20
0.0
 30
0.0
  3
*D12
  1
*D12
  0
LINE
  5
21E
330
21B
100
AcDbEntity
  8
0
  6
Continuous
 62
     0
370
    -2
100
AcDbLine
 10
93.63750000000007
 20
36.54236698864168
 30
0.0
 11
112.5750000000002
 21
36.54236698864175
 31
0.0
  0
LINE
  5
21F
330
21B
100
AcDbEntity
  8
0
  6
Continuous
 62
     0
370
    -2
100
AcDbLine
 10
93.63750000000006
 20
30.1923669886417
 30
0.0
 11
112.5750000000002
 21
30.19236698864177
 31
0.0
  0
LINE
  5
220
330
21B
100
AcDbEntity
  8
0
  6
Continuous
 62
     0
370
    -2
100
AcDbLine
 10
112.5750000000002
 20
36.54236698864175
 30
0.0
 11
112.575
 21
69.17761698864177
 31
0.0
  0
LINE
  5
221
330
21B
100
AcDbEntity
  8
0
  6
Continuous
 62
     0
370
    -2
100
AcDbLine
 10
112.5750000000002
 20
36.54236698864175
 30
0.0
 11
112.5750000000002
 21
30.19236698864177
 31
0.0
  0
LINE
  5
222
330
21B
100
AcDbEntity
  8
0
  6
Continuous
 62
     0
370
    -2
100
AcDbLine
 10
112.5750000000001
 20
39.84436698864175
 30
0.0
 11
112.5750000000001
 21
43.14636698864175
 31
0.0
  0
LINE
  5
223
330
21B
100
AcDbEntity
  8
0
  6
Continuous
 62
     0
370
    -2
100
AcDbLine
 10
112.5750000000002
 20
26.89036698864177
 30
0.0
 11
112.5750000000002
 21
23.58836698864177
 31
0.0
  0
SOLID
  5
224
330
21B
100
AcDbEntity
  8
0
 62
     0
100
AcDbTrace
 10
112.0246666666668
 20
39.84436698864175
 30
0.0
 11
113.1253333333335
 21
39.84436698864175
 31
0.0
 12
112.5750000000002
 22
36.54236698864175
 32
0.0
 13
112.5750000000002
 23
36.54236698864175
 33
0.0
  0
SOLID
  5
225
330
21B
100
AcDbEntity
  8
0
 62
     0
100
AcDbTrace
 10
113.1253333333335
 20
26.89036698864177
 30
0.0
 11
112.0246666666669
 21
26.89036698864177
 31
0.0
 12
112.5750000000002
 22
30.19236698864177
 32
0.0
 13
112.5750000000002
 23
30.19236698864177
 33
0.0
  0
MTEXT
  5
226
330
21B
100
AcDbEntity
  8
0
 62
     0
370
    15
100
AcDbMText
 10
108.2000000000001
 20
56.49011698864175
 30
0.0
 40
3.5
 41
0.0
 71
     2
 72
     1
  1
\A1;%%c6.35 [1/4]
  7
SLDTEXTSTYLE0
 11
-4.475859752819541E-15
 21
1.0
 31
0.0
 73
     1
 44
1.0
  0
POINT
  5
227
330
21B
100
AcDbEntity
  8
Defpoints
 62
     0
100
AcDbPoint
 10
93.57500000000007
 20
36.54236698864168
 30
0.0
  0
POINT
  5
228
330
21B
100
AcDbEntity
  8
Defpoints
 62
     0
100
AcDbPoint
 10
93.57500000000006
 20
30.1923669886417
 30
0.0
  0
POINT
  5
229
330
21B
100
AcDbEntity
  8
Defpoints
 62
     0
100
AcDbPoint
 10
112.5750000000002
 20
30.19236698864177
 30
0.0
  0
ENDBLK
  5
21D
330
21B
100
AcDbEntity
  8
0
100
AcDbBlockEnd
  0
BLOCK
  5
262
330
261
100
AcDbEntity
  8
0
100
AcDbBlockBegin
  2
*D13
 70
     1
 10
0.0
 20
0.0
 30
0.0
  3
*D13
  1
*D13
  0
LINE
  5
264
330
261
100
AcDbEntity
  8
0
  6
Continuous
 62
     0
370
    -2
100
AcDbLine
 10
-46.57749999999999
 20
3.176074928723906
 30
0.0
 11
-60.15000000000002
 21
3.176074928723857
 31
0.0
  0
LINE
  5
265
330
261
100
AcDbEntity
  8
0
  6
Continuous
 62
     0
370
    -2
100
AcDbLine
 10
-46.57749999999999
 20
-3.17392507127612
 30
0.0
 11
-60.15
 21
-3.17392507127617
 31
0.0
  0
LINE
  5
266
330
261
100
AcDbEntity
  8
0
  6
Continuous
 62
     0
370
    -2
100
AcDbLine
 10
-60.15000000000003
 20
6.478074928723856
 30
0.0
 11
-60.15000000000005
 21
9.780074928723856
 31
0.0
  0
LINE
  5
267
330
261
100
AcDbEntity
  8
0
  6
Continuous
 62
     0
370
    -2
100
AcDbLine
 10
-60.14999999999998
 20
-6.475925071276169
 30
0.0
 11
-60.14999999999997
 21
-9.777925071276169
 31
0.0
  0
SOLID
  5
268
330
261
100
AcDbEntity
  8
0
 62
     0
100
AcDbTrace
 10
-60.70033333333337
 20
6.478074928723855
 30
0.0
 11
-59.5996666666667
 21
6.478074928723858
 31
0.0
 12
-60.15000000000002
 22
3.176074928723857
 32
0.0
 13
-60.15000000000002
 23
3.176074928723857
 33
0.0
  0
SOLID
  5
269
330
261
100
AcDbEntity
  8
0
 62
     0
100
AcDbTrace
 10
-59.59966666666665
 20
-6.475925071276167
 30
0.0
 11
-60.70033333333332
 21
-6.475925071276171
 31
0.0
 12
-60.15
 22
-3.17392507127617
 32
0.0
 13
-60.15
 23
-3.17392507127617
 33
0.0
  0
MTEXT
  5
26A
330
261
100
AcDbEntity
  8
0
 62
     0
370
    15
100
AcDbMText
 10
-64.525
 20
-1.317885689240214
 30
0.0
 40
3.5
 41
0.0
 71
     2
 72
     1
  1
\A1;%%c6.35 [1/4]
  7
SLDTEXTSTYLE0
 11
-3.356894814614632E-15
 21
1.0
 31
0.0
 73
     1
 44
1.0
  0
POINT
  5
26B
330
261
100
AcDbEntity
  8
Defpoints
 62
     0
100
AcDbPoint
 10
-46.51499999999999
 20
3.176074928723907
 30
0.0
  0
POINT
  5
26C
330
261
100
AcDbEntity
  8
Defpoints
 62
     0
100
AcDbPoint
 10
-46.51499999999999
 20
-3.17392507127612
 30
0.0
  0
POINT
  5
26D
330
261
100
AcDbEntity
  8
Defpoints
 62
     0
100
AcDbPoint
 10
-60.14999999999999
 20
-3.173925071276171
 30
0.0
  0
ENDBLK
  5
263
330
261
100
AcDbEntity
  8
0
100
AcDbBlockEnd
  0
BLOCK
  5
26F
330
26E
100
AcDbEntity
  8
0
100
AcDbBlockBegin
  2
*D14
 70
     1
 10
0.0
 20
0.0
 30
0.0
  3
*D14
  1
*D14
  0
LINE
  5
271
330
26E
100
AcDbEntity
  8
0
  6
Continuous
 62
     0
370
    -2
100
AcDbLine
 10
29.05000000000004
 20
3.238574928723892
 30
0.0
 11
29.05000000000004
 21
30.06177957526257
 31
0.0
  0
LINE
  5
272
330
26E
100
AcDbEntity
  8
0
  6
Continuous
 62
     0
370
    -2
100
AcDbLine
 10
-47.14999999999998
 20
2.603574928723894
 30
0.0
 11
-47.14999999999998
 21
30.06177957526257
 31
0.0
  0
LINE
  5
273
330
26E
100
AcDbEntity
  8
0
  6
Continuous
 62
     0
370
    -2
100
AcDbLine
 10
25.74800000000004
 20
30.06177957526257
 30
0.0
 11
-43.84799999999998
 21
30.06177957526257
 31
0.0
  0
SOLID
  5
274
330
26E
100
AcDbEntity
  8
0
 62
     0
100
AcDbTrace
 10
25.74800000000004
 20
29.51144624192924
 30
0.0
 11
25.74800000000004
 21
30.6121129085959
 31
0.0
 12
29.05000000000004
 22
30.06177957526257
 32
0.0
 13
29.05000000000004
 23
30.06177957526257
 33
0.0
  0
SOLID
  5
275
330
26E
100
AcDbEntity
  8
0
 62
     0
100
AcDbTrace
 10
-43.84799999999998
 20
30.6121129085959
 30
0.0
 11
-43.84799999999998
 21
29.51144624192924
 31
0.0
 12
-47.14999999999998
 22
30.06177957526257
 32
0.0
 13
-47.14999999999998
 23
30.06177957526257
 33
0.0
  0
MTEXT
  5
276
330
26E
100
AcDbEntity
  8
0
 62
     0
370
    15
100
AcDbMText
 10
-9.049999999999983
 20
34.43677957526257
 30
0.0
 40
3.5
 41
0.0
 71
     2
 72
     1
  1
\A1;76.20 [3]
  7
SLDTEXTSTYLE0
 73
     1
 44
1.0
  0
POINT
  5
277
330
26E
100
AcDbEntity
  8
Defpoints
 62
     0
100
AcDbPoint
 10
29.05000000000004
 20
3.176074928723892
 30
0.0
  0
POINT
  5
278
330
26E
100
AcDbEntity
  8
Defpoints
 62
     0
100
AcDbPoint
 10
-47.14999999999998
 20
2.541074928723894
 30
0.0
  0
POINT
  5
279
330
26E
100
AcDbEntity
  8
Defpoints
 62
     0
100
AcDbPoint
 10
-47.14999999999998
 20
30.06177957526257
 30
0.0
  0
ENDBLK
  5
270
330
26E
100
AcDbEntity
  8
0
100
AcDbBlockEnd
  0
BLOCK
  5
27B
330
27A
100
AcDbEntity
  8
0
100
AcDbBlockBegin
  2
*D15
 70
     1
 10
0.0
 20
0.0
 30
0.0
  3
*D15
  1
*D15
  0
LINE
  5
27D
330
27A
100
AcDbEntity
  8
0
  6
Continuous
 62
     0
370
    -2
100
AcDbLine
 10
29.05000000000004
 20
3.238574928723892
 30
0.0
 11
29.05000000000004
 21
13.20021367633945
 31
0.0
  0
LINE
  5
27E
330
27A
100
AcDbEntity
  8
0
  6
Continuous
 62
     0
370
    -2
100
AcDbLine
 10
10.00000000000003
 20
2.977406197841638
 30
0.0
 11
10.00000000000003
 21
13.20021367633945
 31
0.0
  0
LINE
  5
27F
330
27A
100
AcDbEntity
  8
0
  6
Continuous
 62
     0
370
    -2
100
AcDbLine
 10
25.74800000000004
 20
13.20021367633945
 30
0.0
 11
13.30200000000003
 21
13.20021367633945
 31
0.0
  0
SOLID
  5
280
330
27A
100
AcDbEntity
  8
0
 62
     0
100
AcDbTrace
 10
25.74800000000004
 20
12.64988034300612
 30
0.0
 11
25.74800000000004
 21
13.75054700967278
 31
0.0
 12
29.05000000000004
 22
13.20021367633945
 32
0.0
 13
29.05000000000004
 23
13.20021367633945
 33
0.0
  0
SOLID
  5
281
330
27A
100
AcDbEntity
  8
0
 62
     0
100
AcDbTrace
 10
13.30200000000003
 20
13.75054700967278
 30
0.0
 11
13.30200000000003
 21
12.64988034300612
 31
0.0
 12
10.00000000000003
 22
13.20021367633945
 32
0.0
 13
10.00000000000003
 23
13.20021367633945
 33
0.0
  0
MTEXT
  5
282
330
27A
100
AcDbEntity
  8
0
 62
     0
370
    15
100
AcDbMText
 10
19.52500000000001
 20
17.57521367633945
 30
0.0
 40
3.5
 41
0.0
 71
     2
 72
     1
  1
\A1;19.05 [3/4]
  7
SLDTEXTSTYLE0
 73
     1
 44
1.0
  0
POINT
  5
283
330
27A
100
AcDbEntity
  8
Defpoints
 62
     0
100
AcDbPoint
 10
29.05000000000004
 20
3.176074928723892
 30
0.0
  0
POINT
  5
284
330
27A
100
AcDbEntity
  8
Defpoints
 62
     0
100
AcDbPoint
 10
10.00000000000003
 20
2.914906197841638
 30
0.0
  0
POINT
  5
285
330
27A
100
AcDbEntity
  8
Defpoints
 62
     0
100
AcDbPoint
 10
10.00000000000003
 20
13.20021367633945
 30
0.0
  0
ENDBLK
  5
27C
330
27A
100
AcDbEntity
  8
0
100
AcDbBlockEnd
  0
BLOCK
  5
287
330
286
100
AcDbEntity
  8
0
100
AcDbBlockBegin
  2
*D16
 70
     1
 10
0.0
 20
0.0
 30
0.0
  3
*D16
  1
*D16
  0
LINE
  5
289
330
286
100
AcDbEntity
  8
0
  6
Continuous
 62
     0
370
    -2
100
AcDbLine
 10
29.11250000000004
 20
3.176074928723893
 30
0.0
 11
48.0500000000001
 21
3.176074928723963
 31
0.0
  0
LINE
  5
28A
330
286
100
AcDbEntity
  8
0
  6
Continuous
 62
     0
370
    -2
100
AcDbLine
 10
29.11250000000004
 20
-3.173925071276091
 30
0.0
 11
48.05000000000013
 21
-3.17392507127602
 31
0.0
  0
LINE
  5
28B
330
286
100
AcDbEntity
  8
0
  6
Continuous
 62
     0
370
    -2
100
AcDbLine
 10
48.0500000000001
 20
3.176074928723963
 30
0.0
 11
48.05
 21
35.81132492872398
 31
0.0
  0
LINE
  5
28C
330
286
100
AcDbEntity
  8
0
  6
Continuous
 62
     0
370
    -2
100
AcDbLine
 10
48.0500000000001
 20
3.176074928723963
 30
0.0
 11
48.05000000000013
 21
-3.17392507127602
 31
0.0
  0
LINE
  5
28D
330
286
100
AcDbEntity
  8
0
  6
Continuous
 62
     0
370
    -2
100
AcDbLine
 10
48.05000000000009
 20
6.478074928723963
 30
0.0
 11
48.05000000000008
 21
9.780074928723963
 31
0.0
  0
LINE
  5
28E
330
286
100
AcDbEntity
  8
0
  6
Continuous
 62
     0
370
    -2
100
AcDbLine
 10
48.05000000000014
 20
-6.47592507127602
 30
0.0
 11
48.05000000000015
 21
-9.77792507127602
 31
0.0
  0
SOLID
  5
28F
330
286
100
AcDbEntity
  8
0
 62
     0
100
AcDbTrace
 10
47.49966666666676
 20
6.478074928723961
 30
0.0
 11
48.60033333333342
 21
6.478074928723965
 31
0.0
 12
48.0500000000001
 22
3.176074928723963
 32
0.0
 13
48.0500000000001
 23
3.176074928723963
 33
0.0
  0
SOLID
  5
290
330
286
100
AcDbEntity
  8
0
 62
     0
100
AcDbTrace
 10
48.60033333333347
 20
-6.475925071276018
 30
0.0
 11
47.4996666666668
 21
-6.475925071276022
 31
0.0
 12
48.05000000000013
 22
-3.17392507127602
 32
0.0
 13
48.05000000000013
 23
-3.17392507127602
 33
0.0
  0
MTEXT
  5
291
330
286
100
AcDbEntity
  8
0
 62
     0
370
    15
100
AcDbMText
 10
43.67500000000004
 20
23.12382492872397
 30
0.0
 40
3.5
 41
0.0
 71
     2
 72
     1
  1
\A1;%%c6.35 [1/4]
  7
SLDTEXTSTYLE0
 11
-3.356894814614655E-15
 21
1.0
 31
0.0
 73
     1
 44
1.0
  0
POINT
  5
292
330
286
100
AcDbEntity
  8
Defpoints
 62
     0
100
AcDbPoint
 10
29.05000000000004
 20
3.176074928723892
 30
0.0
  0
POINT
  5
293
330
286
100
AcDbEntity
  8
Defpoints
 62
     0
100
AcDbPoint
 10
29.05000000000004
 20
-3.173925071276091
 30
0.0
  0
POINT
  5
294
330
286
100
AcDbEntity
  8
Defpoints
 62
     0
100
AcDbPoint
 10
48.05000000000015
 20
-3.17392507127602
 30
0.0
  0
ENDBLK
  5
288
330
286
100
AcDbEntity
  8
0
100
AcDbBlockEnd
  0
BLOCK
  5
296
330
295
100
AcDbEntity
  8
0
100
AcDbBlockBegin
  2
*D17
 70
     1
 10
0.0
 20
0.0
 30
0.0
  3
*D17
  1
*D17
  0
LINE
  5
298
330
295
100
AcDbEntity
  8
0
  6
Continuous
 62
     0
370
    -2
100
AcDbLine
 10
180.3613501521816
 20
-16.24315827096561
 30
0.0
 11
194.7584405527282
 21
-43.54409503600154
 31
0.0
  0
MTEXT
  5
299
330
295
100
AcDbEntity
  8
0
 62
     0
370
    15
100
AcDbMText
 10
190.6519446407804
 20
-30.12954443273287
 30
0.0
 40
3.5
 41
0.0
 71
     5
 72
     1
  1
\A1;R.25 [R0.010]
  7
SLDTEXTSTYLE0
 11
0.4664611576583639
 21
-0.8845416826786734
 31
0.0
 73
     1
 44
1.0
  0
LINE
  5
29A
330
295
100
AcDbEntity
  8
0
  6
Continuous
 62
     0
370
    -2
100
AcDbLine
 10
178.7026142755485
 20
-13.09772804736025
 30
0.0
 11
178.8210954095937
 21
-13.32240163476063
 31
0.0
  0
SOLID
  5
29B
330
295
100
AcDbEntity
  8
0
 62
     0
100
AcDbTrace
 10
180.8481429248825
 20
-15.98644914720096
 30
0.0
 11
179.8745573794808
 21
-16.49986739473026
 31
0.0
 12
178.8210954095937
 22
-13.32240163476063
 32
0.0
 13
178.8210954095937
 23
-13.32240163476063
 33
0.0
  0
POINT
  5
29C
330
295
100
AcDbEntity
  8
Defpoints
 62
     0
100
AcDbPoint
 10
178.8210954095937
 20
-13.32240163476063
 30
0.0
  0
POINT
  5
29D
330
295
100
AcDbEntity
  8
Defpoints
 62
     0
100
AcDbPoint
 10
178.7026142755485
 20
-13.09772804736025
 30
0.0
  0
ENDBLK
  5
297
330
295
100
AcDbEntity
  8
0
100
AcDbBlockEnd
  0
BLOCK
  5
2A6
330
2A5
100
AcDbEntity
  8
0
100
AcDbBlockBegin
  2
*D18
 70
     1
 10
0.0
 20
0.0
 30
0.0
  3
*D18
  1
*D18
  0
LINE
  5
2A8
330
2A5
100
AcDbEntity
  8
0
  6
Continuous
 62
     0
370
    -2
100
AcDbLine
 10
30.21063156815458
 20
-6.091092029215249
 30
0.0
 11
43.72808013385146
 21
-33.83809086735519
 31
0.0
  0
MTEXT
  5
2A9
330
2A5
100
AcDbEntity
  8
0
 62
     0
370
    15
100
AcDbMText
 10
40.05228865510102
 20
-20.29918272942746
 30
0.0
 40
3.5
 41
0.0
 71
     5
 72
     1
  1
\A1;R.51 [R0.020]
  7
SLDTEXTSTYLE0
 11
0.4379610415103724
 21
-0.8989939522150023
 31
0.0
 73
     1
 44
1.0
  0
LINE
  5
2AA
330
2A5
100
AcDbEntity
  8
0
  6
Continuous
 62
     0
370
    -2
100
AcDbLine
 10
28.54200000000006
 20
-2.665925071276089
 30
0.0
 11
28.76448420908733
 21
-3.122613999001311
 31
0.0
  0
SOLID
  5
2AB
330
2A5
100
AcDbEntity
  8
0
 62
     0
100
AcDbTrace
 10
30.70537790652357
 20
-5.850067469370707
 30
0.0
 11
29.71588522978559
 21
-6.33211658905979
 31
0.0
 12
28.76448420908733
 22
-3.122613999001311
 32
0.0
 13
28.76448420908733
 23
-3.122613999001311
 33
0.0
  0
POINT
  5
2AC
330
2A5
100
AcDbEntity
  8
Defpoints
 62
     0
100
AcDbPoint
 10
28.76448420908733
 20
-3.122613999001311
 30
0.0
  0
POINT
  5
2AD
330
2A5
100
AcDbEntity
  8
Defpoints
 62
     0
100
AcDbPoint
 10
28.54200000000006
 20
-2.665925071276089
 30
0.0
  0
ENDBLK
  5
2A7
330
2A5
100
AcDbEntity
  8
0
100
AcDbBlockEnd
  0
ENDSEC
  0
SECTION
  2
ENTITIES
  0
LINE
  5
C6
330
1F
100
AcDbEntity
  8
참조1
100
AcDbLine
 10
-15.39999999999998
 20
0.0010749287238892
 30
0.0
 11
-15.39999999999998
 21
-39.99892507127611
 31
0.0
  0
LINE
  5
C7
330
1F
100
AcDbEntity
  8
참조1
100
AcDbLine
 10
-15.39999999999998
 20
-39.99892507127611
 30
0.0
 11
-30.55885681430864
 21
-39.9989250712761
 31
0.0
  0
INSERT
  5
C9
330
1F
100
AcDbEntity
  8
0
  6
Continuous
 62
     7
100
AcDbBlockReference
 66
     1
  2
블럭10
 10
-29.34027293212519
 20
-52.04609937292004
 30
0.0
  0
ATTRIB
  5
CA
330
C9
100
AcDbEntity
  8
FORMAT
 62
     2
100
AcDbText
 10
-39.48190894426182
 20
-49.97073246008785
 30
0.0
 40
4.233333333333333
  1
EM649905 [ 4 FLUTE ]
 41
0.75
  7
SLDTEXTSTYLE0
 11
-39.48190894426182
 21
-52.08739912675452
 31
0.0
100
AcDbAttribute
  2
AUTOATTR0
 70
     0
 74
     1
  0
SEQEND
  5
CB
330
C9
100
AcDbEntity
  8
0
  6
Continuous
 62
     7
  0
HATCH
  5
CC
330
1F
100
AcDbEntity
  8
중심선
100
AcDbHatch
 10
0.0
 20
0.0
 30
0.0
210
0.0
220
0.0
230
1.0
  2
SOLID
 70
     1
 71
     0
 91
        1
 92
        0
 93
        4
 72
     1
 10
-23.62536362774434
 20
-35.7989250712761
 11
-27.07163887158162
 21
-35.7989250712761
 72
     1
 10
-27.07163887158162
 20
-35.7989250712761
 11
-29.19986873078565
 21
-38.3352506518487
 72
     1
 10
-29.19986873078565
 20
-38.3352506518487
 11
-25.75356040183521
 21
-38.33521122254621
 72
     1
 10
-25.75356040183521
 20
-38.33521122254621
 11
-23.62536362774434
 21
-35.7989250712761
 97
        0
 75
     0
 76
     1
 98
        1
 10
0.0
 20
0.0
  0
HATCH
  5
CD
330
1F
100
AcDbEntity
  8
중심선
100
AcDbHatch
 10
0.0
 20
0.0
 30
0.0
210
0.0
220
0.0
230
1.0
  2
SOLID
 70
     1
 71
     0
 91
        1
 92
        0
 93
        4
 72
     1
 10
-18.61259963670836
 20
-35.7989250712761
 11
-22.05887488054564
 21
-35.7989250712761
 72
     1
 10
-22.05887488054564
 20
-35.7989250712761
 11
-26.59001288890306
 21
-41.19892507127612
 72
     1
 10
-26.59001288890306
 20
-41.19892507127612
 11
-23.14373764506578
 21
-41.19892507127612
 72
     1
 10
-23.14373764506578
 20
-41.19892507127612
 11
-18.61259963670836
 21
-35.7989250712761
 97
        0
 75
     0
 76
     1
 98
        1
 10
0.0
 20
0.0
  0
HATCH
  5
CE
330
1F
100
AcDbEntity
  8
중심선
100
AcDbHatch
 10
0.0
 20
0.0
 30
0.0
210
0.0
220
0.0
230
1.0
  2
SOLID
 70
     1
 71
     0
 91
        1
 92
        0
 93
        4
 72
     1
 10
-13.59983564567249
 20
-35.7989250712761
 11
-17.04611088950961
 21
-35.7989250712761
 72
     1
 10
-17.04611088950961
 20
-35.7989250712761
 11
-24.09454779139886
 21
-44.19892507127612
 72
     1
 10
-24.09454779139886
 20
-44.19892507127612
 11
-20.64827254756158
 21
-44.19892507127612
 72
     1
 10
-20.64827254756158
 20
-44.19892507127612
 11
-13.59983564567249
 21
-35.7989250712761
 97
        0
 75
     0
 76
     1
 98
        1
 10
0.0
 20
0.0
  0
HATCH
  5
CF
330
1F
100
AcDbEntity
  8
중심선
100
AcDbHatch
 10
0.0
 20
0.0
 30
0.0
210
0.0
220
0.0
230
1.0
  2
SOLID
 70
     1
 71
     0
 91
        1
 92
        0
 93
        6
 72
     3
 10
-8.799945214660292
 20
-39.99892507132738
 11
3.960054785062284
 21
1.540850780301639E-10
 40
0.3939339440162633
 50
17.09539180608434
 51
320.0019657685074
 73
     0
 72
     1
 10
-7.116945558959697
 20
-38.58681907591438
 11
-4.81164368525866
 21
-36.65249236586649
 72
     3
 10
-8.799945214713139
 20
-39.99892507127625
 11
6.600054785286829
 21
-1.249000902703301E-13
 40
0.6363583540795982
 50
39.99873849337408
 51
368.4976242363725
 73
     1
 72
     1
 10
-2.37461272281253
 20
-39.03892507120613
 11
-10.11987790787722
 21
-39.0389250712061
 72
     1
 10
-10.11987790787722
 20
-39.0389250712061
 11
-10.11990295232315
 21
-40.95892507120602
 72
     1
 10
-10.11990295232315
 20
-40.95892507120602
 11
-5.678523182851114
 21
-40.95892507120599
 97
        0
 75
     0
 76
     1
 98
        1
 10
0.0
 20
0.0
  0
LINE
  5
11C
330
1F
100
AcDbEntity
  8
참조1
100
AcDbLine
 10
67.41348381534561
 20
7.441074928723896
 30
0.0
 11
67.41348381534561
 21
-7.438925071276109
 31
0.0
  0
LINE
  5
11D
330
1F
100
AcDbEntity
  8
참조1
100
AcDbLine
 10
80.11348381534562
 20
5.441074928723896
 30
0.0
 11
67.41348381534561
 21
5.441074928723896
 31
0.0
  0
SOLID
  5
11E
330
1F
100
AcDbEntity
  8
참조1
100
AcDbTrace
 10
67.41348381534561
 20
5.441074928723896
 30
0.0
 11
73.76348381534561
 21
4.425074928723896
 31
0.0
 12
73.76348381534561
 22
6.457074928723896
 32
0.0
 13
73.76348381534561
 23
6.457074928723896
 33
0.0
  0
LINE
  5
11F
330
1F
100
AcDbEntity
  8
참조1
100
AcDbLine
 10
80.11348381534562
 20
-5.438925071276109
 30
0.0
 11
67.41348381534561
 21
-5.438925071276109
 31
0.0
  0
SOLID
  5
120
330
1F
100
AcDbEntity
  8
참조1
100
AcDbTrace
 10
67.41348381534561
 20
-5.438925071276109
 30
0.0
 11
73.76348381534561
 21
-6.454925071276109
 31
0.0
 12
73.76348381534561
 22
-4.422925071276109
 32
0.0
 13
73.76348381534561
 23
-4.422925071276109
 33
0.0
  0
MTEXT
  5
121
330
1F
100
AcDbEntity
  8
참조1
100
AcDbMText
 10
76.81097390781589
 20
10.98929157337383
 30
0.0
 40
3.5
 41
0.0
 71
     1
 72
     1
  1
A
  7
SLDTEXTSTYLE0
 73
     1
 44
1.0
  0
MTEXT
  5
122
330
1F
100
AcDbEntity
  8
참조1
100
AcDbMText
 10
76.81097390781589
 20
0.1092915733738251
 30
0.0
 40
3.5
 41
0.0
 71
     1
 72
     1
  1
A
  7
SLDTEXTSTYLE0
 73
     1
 44
1.0
  0
LINE
  5
22B
330
1F
100
AcDbEntity
  8
0
  6
Continuous
 62
     1
370
    15
100
AcDbLine
 10
20.88278142522918
 20
-3.173925071276113
 30
0.0
 11
22.82036674908764
 21
-3.173925071276113
 31
0.0
  0
LINE
  5
22C
330
1F
100
AcDbEntity
  8
0
  6
Continuous
 62
     1
370
    15
100
AcDbLine
 10
14.18078704019456
 20
3.176074928723899
 30
0.0
 11
12.24535316139347
 21
3.176074928723899
 31
0.0
  0
LINE
  5
22D
330
1F
100
AcDbEntity
  8
0
  6
Continuous
 62
     1
370
    15
100
AcDbLine
 10
22.82036674908767
 20
3.176074928723899
 30
0.0
 11
20.88278142522921
 21
3.176074928723899
 31
0.0
  0
LINE
  5
22E
330
1F
100
AcDbEntity
  8
0
  6
Continuous
 62
     1
370
    15
100
AcDbLine
 10
12.24535316139344
 20
-3.173925071276113
 30
0.0
 11
14.1807870401945
 21
-3.173925071276113
 31
0.0
  0
LINE
  5
22F
330
1F
100
AcDbEntity
  8
외형선
  6
Continuous
370
    15
100
AcDbLine
 10
-46.51499999999999
 20
-3.173925071276106
 30
0.0
 11
9.499935986368314
 21
-3.173925071276106
 31
0.0
  0
LINE
  5
230
330
1F
100
AcDbEntity
  8
외형선
  6
Continuous
370
    15
100
AcDbLine
 10
9.499935986368314
 20
3.176074928723892
 30
0.0
 11
-46.51499999999999
 21
3.176074928723892
 31
0.0
  0
LINE
  5
231
330
1F
100
AcDbEntity
  8
외형선
  6
Continuous
370
    15
100
AcDbLine
 10
-46.51499999999999
 20
3.176074928723892
 30
0.0
 11
-47.14999999999998
 21
2.541074928723894
 31
0.0
  0
LINE
  5
232
330
1F
100
AcDbEntity
  8
외형선
  6
Continuous
370
    15
100
AcDbLine
 10
-47.14999999999998
 20
-2.538925071276108
 30
0.0
 11
-46.51499999999999
 21
-3.173925071276106
 31
0.0
  0
SPLINE
  5
233
330
1F
100
AcDbEntity
  8
0
  6
Continuous
 62
     1
370
    15
100
AcDbSpline
210
0.0
220
0.0
230
1.0
 70
     8
 71
     3
 72
    14
 73
    10
 74
     0
 42
0.000000001
 43
0.00000001
 40
0.0
 40
0.0
 40
0.0
 40
0.0
 40
0.1564133056310626
 40
0.3127800683262758
 40
0.4691981823295804
 40
0.6257649990992636
 40
0.782420334118286
 40
0.9360982020371934
 40
1.0
 40
1.0
 40
1.0
 40
1.0
 10
10.00000000000003
 20
-2.299263772345967
 30
0.0
 10
10.39274827783728
 20
-2.445389946331453
 30
0.0
 10
11.17812796584619
 20
-2.737598812444443
 30
0.0
 10
12.35614137072506
 20
-3.02265028272674
 30
0.0
 10
13.53462545368834
 20
-3.176340659513627
 30
0.0
 10
14.71408497392892
 20
-3.184399223256541
 30
0.0
 10
15.88691611712287
 20
-3.041030724912304
 30
0.0
 10
16.82660329625665
 20
-2.836772625130354
 30
0.0
 10
17.37287827855675
 20
-2.644733812413691
 30
0.0
 10
17.53331585166183
 20
-2.588333204565025
 30
0.0
  0
SPLINE
  5
234
330
1F
100
AcDbEntity
  8
외형선
  6
Continuous
370
    15
100
AcDbSpline
210
0.0
220
0.0
230
1.0
 70
    24
 71
     3
 72
    22
 73
    18
 74
     0
 42
0.000000001
 43
0.00000001
 40
0.0
 40
0.0
 40
0.0
 40
0.0
 40
0.1249999999999999
 40
0.1249999999999999
 40
0.2499999999999998
 40
0.2499999999999998
 40
0.3749999999999999
 40
0.3749999999999999
 40
0.4999999999999999
 40
0.4999999999999999
 40
0.6249999999999999
 40
0.6249999999999999
 40
0.75
 40
0.75
 40
0.875
 40
0.875
 40
1.0
 40
1.0
 40
1.0
 40
1.0
 10
10.00000000000003
 20
1.262111143553462
 30
0.0
 10
10.00000000000003
 20
1.246229692772935
 30
0.0
 10
10.00000000000003
 20
1.213827639301442
 30
0.0
 10
10.00000000000003
 20
1.133801187574768
 30
0.0
 10
10.00000000000003
 20
1.078057708574178
 30
0.0
 10
10.0
 20
0.9195843227935683
 30
0.0
 10
10.00000000000006
 20
0.8165553608008977
 30
0.0
 10
10.00000000000003
 20
0.5491868506014015
 30
0.0
 10
10.00000000000003
 20
0.3842676166099821
 30
0.0
 10
10.00000000000003
 20
-0.0065396526578709
 30
0.0
 10
10.00000000000003
 20
-0.2327659814855281
 30
0.0
 10
10.00000000000003
 20
-0.7145506339274803
 30
0.0
 10
10.00000000000003
 20
-0.9692755994459219
 30
0.0
 10
10.00000000000003
 20
-1.449570207181047
 30
0.0
 10
10.00000000000003
 20
-1.673749709531613
 30
0.0
 10
10.00000000000003
 20
-2.045694542965183
 30
0.0
 10
10.00000000000006
 20
-2.19327275544444
 30
0.0
 10
10.00000000000006
 20
-2.299263772345959
 30
0.0
  0
SPLINE
  5
235
330
1F
100
AcDbEntity
  8
0
  6
Continuous
 62
     1
370
    15
100
AcDbSpline
210
0.0
220
0.0
230
1.0
 70
     8
 71
     3
 72
    17
 73
    13
 74
     0
 42
0.000000001
 43
0.00000001
 40
0.0
 40
0.0
 40
0.0
 40
0.0
 40
0.0274706711188415
 40
0.1338602596944515
 40
0.2401695487999089
 40
0.3486571714384037
 40
0.4572147534013711
 40
0.5658932722470115
 40
0.6745028854339472
 40
0.7830135339161914
 40
0.8914906465958684
 40
0.9999999999999999
 40
0.9999999999999999
 40
0.9999999999999999
 40
0.9999999999999999
 10
20.88278142522918
 20
-3.160465049197047
 30
0.0
 10
20.78310078152998
 20
-3.164483206816985
 30
0.0
 10
20.29737268284745
 20
-3.184063056911352
 30
0.0
 10
19.42619025767485
 20
-3.079009587259669
 30
0.0
 10
18.26125181433846
 20
-2.842974788684369
 30
0.0
 10
17.08837575471063
 20
-2.465508810975869
 30
0.0
 10
15.90680559853703
 20
-1.974943676764759
 30
0.0
 10
14.72435526067196
 20
-1.39318155620585
 30
0.0
 10
13.54235050138274
 20
-0.7469285245266377
 30
0.0
 10
12.36130977852713
 20
-0.0673411280703888
 30
0.0
 10
11.18071559903197
 20
0.6194640360301236
 30
0.0
 10
10.39361085007695
 20
1.0478742227411
 30
0.0
 10
10.00000000000003
 20
1.262111143553469
 30
0.0
  0
SPLINE
  5
236
330
1F
100
AcDbEntity
  8
0
  6
Continuous
 62
     1
370
    15
100
AcDbSpline
210
0.0
220
0.0
230
1.0
 70
     8
 71
     3
 72
    21
 73
    17
 74
     0
 42
0.000000001
 43
0.00000001
 40
0.0
 40
0.0
 40
0.0
 40
0.0
 40
0.0728733330179568
 40
0.145724981570835
 40
0.2186005548209144
 40
0.291545409045341
 40
0.3645315041337488
 40
0.4361303901822262
 40
0.5076806096046673
 40
0.5792396757170044
 40
0.650864992855037
 40
0.7240165344457317
 40
0.7970936578843573
 40
0.8701166933737183
 40
0.9431297918658611
 40
0.9999999999999999
 40
0.9999999999999999
 40
0.9999999999999999
 40
0.9999999999999999
 10
10.00000000000003
 20
2.189468599972336
 30
0.0
 10
10.39274828141265
 20
2.015426217438893
 30
0.0
 10
11.17812797657123
 20
1.66739324108277
 30
0.0
 10
12.356141327834
 20
1.042046825835001
 30
0.0
 10
13.53462561465514
 20
0.3761518924969991
 30
0.0
 10
14.71408437221234
 20
-0.3088228392465382
 30
0.0
 10
15.88691834610418
 20
-0.9747756353160213
 30
0.0
 10
17.05175652537
 20
-1.593389787309913
 30
0.0
 10
18.20878003660522
 20
-2.137670389683276
 30
0.0
 10
19.36596524295382
 20
-2.587524905667106
 30
0.0
 10
20.5320003080366
 20
-2.92538195522414
 30
0.0
 10
21.70661804647173
 20
-3.132888518286894
 30
0.0
 10
22.88834516886359
 20
-3.198841612321324
 30
0.0
 10
24.06918653654731
 20
-3.113817402334202
 30
0.0
 10
25.16262587351835
 20
-2.915551704363477
 30
0.0
 10
25.8626607078881
 20
-2.690547216692543
 30
0.0
 10
26.16917528444031
 20
-2.592027611846174
 30
0.0
  0
SPLINE
  5
237
330
1F
100
AcDbEntity
  8
외형선
  6
Continuous
370
    15
100
AcDbSpline
210
0.0
220
0.0
230
1.0
 70
    24
 71
     3
 72
    10
 73
     6
 74
     0
 42
0.000000001
 43
0.00000001
 40
0.0
 40
0.0
 40
0.0
 40
0.0
 40
0.2851584519780622
 40
0.5735680034761825
 40
1.0
 40
1.0
 40
1.0
 40
1.0
 10
10.00000000000003
 20
2.914906197841638
 30
0.0
 10
10.00000000000003
 20
2.84836359679376
 30
0.0
 10
10.00000000000003
 20
2.714519740634529
 30
0.0
 10
10.00000000000011
 20
2.486072220863051
 30
0.0
 10
10.00000000000006
 20
2.333096632410225
 30
0.0
 10
10.00000000000003
 20
2.241840485108973
 30
0.0
  0
SPLINE
  5
238
330
1F
100
AcDbEntity
  8
0
  6
Continuous
 62
     1
370
    15
100
AcDbSpline
210
0.0
220
0.0
230
1.0
 70
     8
 71
     3
 72
    54
 73
    50
 74
     0
 42
0.000000001
 43
0.00000001
 40
0.0
 40
0.0
 40
0.0
 40
0.0
 40
0.062499999999996
 40
0.062499999999996
 40
0.124999999999992
 40
0.124999999999992
 40
0.1562499999999908
 40
0.1562499999999908
 40
0.1874999999999897
 40
0.1874999999999897
 40
0.249999999999989
 40
0.249999999999989
 40
0.2812499999999895
 40
0.2812499999999895
 40
0.31249999999999
 40
0.31249999999999
 40
0.3437499999999905
 40
0.3437499999999905
 40
0.374999999999991
 40
0.374999999999991
 40
0.437499999999992
 40
0.437499999999992
 40
0.4687499999999925
 40
0.4687499999999925
 40
0.499999999999993
 40
0.499999999999993
 40
0.5312499999999936
 40
0.5312499999999936
 40
0.5624999999999941
 40
0.5624999999999941
 40
0.6249999999999951
 40
0.6249999999999951
 40
0.6562499999999957
 40
0.6562499999999957
 40
0.6874999999999962
 40
0.6874999999999962
 40
0.7499999999999973
 40
0.7499999999999973
 40
0.8124999999999984
 40
0.8124999999999984
 40
0.8437499999999986
 40
0.8437499999999986
 40
0.8749999999999987
 40
0.8749999999999987
 40
0.9374999999999989
 40
0.9374999999999989
 40
0.9687499999999994
 40
0.9687499999999994
 40
1.0
 40
1.0
 40
1.0
 40
1.0
 10
28.54200000000006
 20
-3.173925071276088
 30
0.0
 10
27.96063879301548
 20
-3.131147650344445
 30
0.0
 10
27.62402280191171
 20
-3.014498544516414
 30
0.0
 10
27.23163592218205
 20
-2.909545708786087
 30
0.0
 10
26.83548980433994
 20
-2.809777421098051
 30
0.0
 10
26.24848973739716
 20
-2.629823492204075
 30
0.0
 10
26.05497179737833
 20
-2.564964800303635
 30
0.0
 10
25.6633241186984
 20
-2.425244844115355
 30
0.0
 10
25.46633352398695
 20
-2.350486154271454
 30
0.0
 10
24.87691063237466
 20
-2.113385872641295
 30
0.0
 10
24.48938822910026
 20
-1.938766009188999
 30
0.0
 10
23.89959484514398
 20
-1.655490129210037
 30
0.0
 10
23.70275557056581
 20
-1.557679106068882
 30
0.0
 10
23.31195160532391
 20
-1.356993577519738
 30
0.0
 10
23.11826478252485
 20
-1.254184206737371
 30
0.0
 10
22.72619328722388
 20
-1.043362656565634
 30
0.0
 10
22.52915469859232
 20
-0.93557833148909
 30
0.0
 10
22.1364406623679
 20
-0.7170994379793214
 30
0.0
 10
21.94183889928763
 20
-0.6066124069037073
 30
0.0
 10
21.35745488300299
 20
-0.27222683805266
 30
0.0
 10
20.96084438253413
 20
-0.0441810012947741
 30
0.0
 10
20.37552745217934
 20
0.293998699147501
 30
0.0
 10
20.18146827857964
 20
0.4061841291899952
 30
0.0
 10
19.78903692242869
 20
0.629411882991981
 30
0.0
 10
19.59198286582037
 20
0.740197315608718
 30
0.0
 10
19.19956769444948
 20
0.95821692632272
 30
0.0
 10
19.00553156700593
 20
1.065213331629529
 30
0.0
 10
18.61528968537749
 20
1.275169220112872
 30
0.0
 10
18.41857736856477
 20
1.378207785179264
 30
0.0
 10
17.8286918396596
 20
1.678808908089977
 30
0.0
 10
17.44095512109109
 20
1.86702534740914
 30
0.0
 10
16.85186452390252
 20
2.127190747767919
 30
0.0
 10
16.65482753379601
 20
2.210114762561204
 30
0.0
 10
16.26277537064774
 20
2.36696345363724
 30
0.0
 10
16.06910160031654
 20
2.440737164559273
 30
0.0
 10
15.48285441238667
 20
2.648433342494727
 30
0.0
 10
15.08631360174573
 20
2.768282993916266
 30
0.0
 10
14.30863869391965
 20
2.962850519237307
 30
0.0
 10
13.91351080639029
 20
3.038764765580133
 30
0.0
 10
13.32607299183829
 20
3.116831462836707
 30
0.0
 10
13.13255810351697
 20
3.136900919960269
 30
0.0
 10
12.74120034846507
 20
3.165219161313921
 30
0.0
 10
12.54425500618254
 20
3.173404554814532
 30
0.0
 10
11.95466490174994
 20
3.179751493305773
 30
0.0
 10
11.567197784266
 20
3.159820706633894
 30
0.0
 10
10.97750966303406
 20
3.094070866346051
 30
0.0
 10
10.78060435375582
 20
3.066186590571924
 30
0.0
 10
10.38946980996434
 20
2.99901845680548
 30
0.0
 10
10.19591024233543
 20
2.959812335999061
 30
0.0
 10
10.00000000000003
 20
2.914906197841646
 30
0.0
  0
LINE
  5
239
330
1F
100
AcDbEntity
  8
0
  6
Continuous
 62
     1
370
    15
100
AcDbLine
 10
29.05000000000004
 20
-2.66978969974722
 30
0.0
 11
29.05000000000004
 21
0.3116872475882531
 31
0.0
  0
SPLINE
  5
23A
330
1F
100
AcDbEntity
  8
0
  6
Continuous
 62
     1
370
    15
100
AcDbSpline
210
0.0
220
0.0
230
1.0
 70
     8
 71
     3
 72
    10
 73
     6
 74
     0
 42
0.000000001
 43
0.00000001
 40
0.0
 40
0.0
 40
0.0
 40
0.0
 40
0.5
 40
0.5
 40
1.0
 40
1.0
 40
1.0
 40
1.0
 10
28.79600000000002
 20
-2.809038203060993
 30
0.0
 10
28.86211071427957
 20
-2.82681677062606
 30
0.0
 10
28.92266993253725
 20
-2.824415639372742
 30
0.0
 10
29.01709270335093
 20
-2.77823405840476
 30
0.0
 10
29.04999999999998
 20
-2.732894487297521
 30
0.0
 10
29.04999999999998
 20
-2.669789699747213
 30
0.0
  0
SPLINE
  5
23B
330
1F
100
AcDbEntity
  8
0
  6
Continuous
 62
     1
370
    15
100
AcDbSpline
210
0.0
220
0.0
230
1.0
 70
     8
 71
     3
 72
    20
 73
    16
 74
     0
 42
0.000000001
 43
0.00000001
 40
0.0
 40
0.0
 40
0.0
 40
0.0
 40
0.0364738533885149
 40
0.1172238671022518
 40
0.1964391069818432
 40
0.2756005033078781
 40
0.3547716873932045
 40
0.4340161699777449
 40
0.5149492296170437
 40
0.5957999548501396
 40
0.676590838511501
 40
0.7573707281244682
 40
0.8381885852191466
 40
0.9190929780151503
 40
1.0
 40
1.0
 40
1.0
 40
1.0
 10
14.18078704019456
 20
3.158015303964127
 30
0.0
 10
14.35848784856287
 20
3.162035847236453
 30
0.0
 10
14.92960315470398
 20
3.174957531852932
 30
0.0
 10
15.88692720860831
 20
3.042496818040277
 30
0.0
 10
17.05175416989081
 20
2.775218714643749
 30
0.0
 10
18.20878067460507
 20
2.379034875567193
 30
0.0
 10
19.36596504580876
 20
1.879951330986977
 30
0.0
 10
20.53200046052189
 20
1.293287794124481
 30
0.0
 10
21.70661762873075
 20
0.6446167274254364
 30
0.0
 10
22.88834668125938
 20
-0.0385711828330599
 30
0.0
 10
24.06918090887726
 20
-0.719582210265159
 30
0.0
 10
25.24982401609213
 20
-1.368093332726605
 30
0.0
 10
26.43109959311678
 20
-1.95131237726379
 30
0.0
 10
27.61337434010898
 20
-2.45381555471111
 30
0.0
 10
28.40178717653404
 20
-2.690629370989846
 30
0.0
 10
28.79600000000002
 20
-2.809038203060986
 30
0.0
  0
SPLINE
  5
23C
330
1F
100
AcDbEntity
  8
0
  6
Continuous
 62
     1
370
    15
100
AcDbSpline
210
0.0
220
0.0
230
1.0
 70
     8
 71
     3
 72
    17
 73
    13
 74
     0
 42
0.000000001
 43
0.00000001
 40
0.0
 40
0.0
 40
0.0
 40
0.0
 40
0.1047614912270605
 40
0.2095167014529315
 40
0.3141586419751405
 40
0.4187522630807256
 40
0.5233630255316805
 40
0.6261960727707451
 40
0.72912810471788
 40
0.8319320931961514
 40
0.934658488500928
 40
1.0
 40
1.0
 40
1.0
 40
1.0
 10
28.79599999999999
 20
0.4193224108066502
 30
0.0
 10
28.40263868893112
 20
0.642444064640614
 30
0.0
 10
27.6159396508684
 20
1.088673994994458
 30
0.0
 10
26.43625393995291
 20
1.702735518659885
 30
0.0
 10
25.2575797800674
 20
2.240524120185285
 30
0.0
 10
24.079525378754
 20
2.675244681563846
 30
0.0
 10
22.90822382308559
 20
2.985943046834556
 30
0.0
 10
21.74300194019594
 20
3.160477611909108
 30
0.0
 10
20.58414522689046
 20
3.195737764728868
 30
0.0
 10
19.42618158292834
 20
3.084993370761012
 30
0.0
 10
18.40948442501764
 20
2.884123900390364
 30
0.0
 10
17.77859378143566
 20
2.672685984058326
 30
0.0
 10
17.53331585166185
 20
2.590483062012808
 30
0.0
  0
SPLINE
  5
23D
330
1F
100
AcDbEntity
  8
0
  6
Continuous
 62
     1
370
    15
100
AcDbSpline
210
0.0
220
0.0
230
1.0
 70
     8
 71
     3
 72
    10
 73
     6
 74
     0
 42
0.000000001
 43
0.00000001
 40
0.0
 40
0.0
 40
0.0
 40
0.0
 40
0.5
 40
0.5
 40
1.0
 40
1.0
 40
1.0
 40
1.0
 10
29.05000000000004
 20
0.3122795571950334
 30
0.0
 10
29.05000000000004
 20
0.3065851559898434
 30
0.0
 10
29.01953026666675
 20
0.3127007847555703
 30
0.0
 10
28.92105361567263
 20
0.3522346046497944
 30
0.0
 10
28.85659616080767
 20
0.3846170005577676
 30
0.0
 10
28.79600000000002
 20
0.4193224108066218
 30
0.0
  0
LINE
  5
23E
330
1F
100
AcDbEntity
  8
외형선
  6
Continuous
370
    15
100
AcDbLine
 10
10.00000000000003
 20
1.262111143553469
 30
0.0
 11
10.00000000000003
 21
2.189468599972336
 31
0.0
  0
SPLINE
  5
23F
330
1F
100
AcDbEntity
  8
0
  6
Continuous
 62
     1
370
    15
100
AcDbSpline
210
0.0
220
0.0
230
1.0
 70
     8
 71
     3
 72
    10
 73
     6
 74
     0
 42
0.000000001
 43
0.00000001
 40
0.0
 40
0.0
 40
0.0
 40
0.0
 40
0.5
 40
0.5
 40
1.0
 40
1.0
 40
1.0
 40
1.0
 10
28.79600000000002
 20
1.478873692619075
 30
0.0
 10
28.86211071427957
 20
1.445066798609211
 30
0.0
 10
28.92266993253727
 20
1.395250262663247
 30
0.0
 10
29.01709270335098
 20
1.286254844806564
 30
0.0
 10
29.04999999999998
 20
1.227380725825604
 30
0.0
 10
29.04999999999998
 20
1.183751188899045
 30
0.0
  0
LINE
  5
240
330
1F
100
AcDbEntity
  8
0
  6
Continuous
 62
     1
370
    15
100
AcDbLine
 10
29.05000000000004
 20
0.3122795571950334
 30
0.0
 11
29.05000000000004
 21
1.183751188899031
 31
0.0
  0
SPLINE
  5
241
330
1F
100
AcDbEntity
  8
0
  6
Continuous
 62
     1
370
    15
100
AcDbSpline
210
0.0
220
0.0
230
1.0
 70
     8
 71
     3
 72
    13
 73
     9
 74
     0
 42
0.000000001
 43
0.00000001
 40
0.0
 40
0.0
 40
0.0
 40
0.0
 40
0.0114205247281359
 40
0.2090162705353589
 40
0.406585127452476
 40
0.6042468440157015
 40
0.8021202068150791
 40
0.9999999999999999
 40
0.9999999999999999
 40
0.9999999999999999
 40
0.9999999999999999
 10
22.82036674908767
 20
3.172099818736065
 30
0.0
 10
22.84311573436284
 20
3.17341246051673
 30
0.0
 10
23.25946333430849
 20
3.197436180623782
 30
0.0
 10
24.06916389931527
 20
3.10810389004542
 30
0.0
 10
25.24982857418428
 20
2.895984066595354
 30
0.0
 10
26.43109837593212
 20
2.533106829238299
 30
0.0
 10
27.61337464455241
 20
2.063203729483696
 30
0.0
 10
28.40178727801626
 20
1.673652481445281
 30
0.0
 10
28.79599999999999
 20
1.478873692619068
 30
0.0
  0
SPLINE
  5
242
330
1F
100
AcDbEntity
  8
0
  6
Continuous
 62
     1
370
    15
100
AcDbSpline
210
0.0
220
0.0
230
1.0
 70
     8
 71
     3
 72
    10
 73
     6
 74
     0
 42
0.000000001
 43
0.00000001
 40
0.0
 40
0.0
 40
0.0
 40
0.0
 40
0.4492354022891779
 40
0.8984438705583878
 40
0.9999999999999999
 40
0.9999999999999999
 40
0.9999999999999999
 40
0.9999999999999999
 10
28.54200000000006
 20
3.176074928723892
 30
0.0
 10
27.54231798141112
 20
3.10273302153746
 30
0.0
 10
27.19237066392702
 20
3.011389430734518
 30
0.0
 10
26.74022627032517
 20
2.802535121079394
 30
0.0
 10
26.25807898690803
 20
2.62661549521296
 30
0.0
 10
26.16917528444031
 20
2.59417746929396
 30
0.0
  0
SPLINE
  5
243
330
1F
100
AcDbEntity
  8
0
  6
Continuous
 62
     1
370
    15
100
AcDbSpline
210
0.0
220
0.0
230
1.0
 70
     8
 71
     3
 72
     9
 73
     5
 74
     0
 42
0.000000001
 43
0.00000001
 40
0.0
 40
0.0
 40
0.0
 40
0.0
 40
0.4741236137441425
 40
1.0
 40
1.0
 40
1.0
 40
1.0
 10
12.24535316139344
 20
-3.167461665669464
 30
0.0
 10
11.89051095613712
 20
-3.160037674405501
 30
0.0
 10
11.14209388731805
 20
-3.144379329094797
 30
0.0
 10
10.39361000120164
 20
-2.992582636527001
 30
0.0
 10
10.00000000000003
 20
-2.912756340393859
 30
0.0
  0
LINE
  5
244
330
1F
100
AcDbEntity
  8
0
  6
Continuous
 62
     1
370
    15
100
AcDbLine
 10
29.05000000000004
 20
1.183751188899031
 30
0.0
 11
29.05000000000004
 21
2.668074928723892
 31
0.0
  0
LINE
  5
245
330
1F
100
AcDbEntity
  8
외형선
  6
Continuous
370
    15
100
AcDbLine
 10
10.00000000000003
 20
-2.912756340393852
 30
0.0
 11
10.00000000000003
 21
-2.299263772345967
 31
0.0
  0
LINE
  5
246
330
1F
100
AcDbEntity
  8
0
  6
Continuous
 62
     1
370
    15
100
AcDbLine
 10
29.05000000000004
 20
-2.669789699747213
 30
0.0
 11
29.0500000000001
 21
0.0010749287238951
 31
0.0
  0
SPLINE
  5
247
330
1F
100
AcDbEntity
  8
외형선
  6
Continuous
370
    15
100
AcDbSpline
210
0.0
220
0.0
230
1.0
 70
     8
 71
     3
 72
     8
 73
     4
 74
     0
 42
0.000000001
 43
0.00000001
 40
0.0
 40
0.0
 40
0.0
 40
0.0
 40
1.0
 40
1.0
 40
1.0
 40
1.0
 10
10.00000000000003
 20
2.914906197841638
 30
0.0
 10
9.833763219120925
 20
2.876801748783684
 30
0.0
 10
9.666732476687315
 20
2.834637787187724
 30
0.0
 10
9.499935986368314
 20
2.788660906606609
 30
0.0
  0
LINE
  5
248
330
1F
100
AcDbEntity
  8
외형선
  6
Continuous
370
    15
100
AcDbLine
 10
9.499935986368314
 20
2.388898940678679
 30
0.0
 11
9.499935986368314
 21
3.176074928723892
 31
0.0
  0
SPLINE
  5
249
330
1F
100
AcDbEntity
  8
외형선
  6
Continuous
370
    15
100
AcDbSpline
210
0.0
220
0.0
230
1.0
 70
     8
 71
     3
 72
     8
 73
     4
 74
     0
 42
0.000000001
 43
0.00000001
 40
0.0
 40
0.0
 40
0.0
 40
0.0
 40
1.0
 40
1.0
 40
1.0
 40
1.0
 10
10.00000000000003
 20
2.189468599972344
 30
0.0
 10
9.833763219120925
 20
2.258977419639983
 30
0.0
 10
9.666732476687315
 20
2.325593363290494
 30
0.0
 10
9.499935986368314
 20
2.388895574914763
 30
0.0
  0
SPLINE
  5
24A
330
1F
100
AcDbEntity
  8
외형선
  6
Continuous
370
    15
100
AcDbSpline
210
0.0
220
0.0
230
1.0
 70
     8
 71
     3
 72
     8
 73
     4
 74
     0
 42
0.000000001
 43
0.00000001
 40
0.0
 40
0.0
 40
0.0
 40
0.0
 40
1.0
 40
1.0
 40
1.0
 40
1.0
 10
10.00000000000003
 20
1.262111143553469
 30
0.0
 10
9.833763219120925
 20
1.350157730837701
 30
0.0
 10
9.666732476687315
 20
1.436613613963168
 30
0.0
 10
9.499935986368314
 20
1.520939862167545
 30
0.0
  0
SPLINE
  5
24B
330
1F
100
AcDbEntity
  8
외형선
  6
Continuous
370
    15
100
AcDbSpline
210
0.0
220
0.0
230
1.0
 70
     8
 71
     3
 72
     8
 73
     4
 74
     0
 42
0.000000001
 43
0.00000001
 40
0.0
 40
0.0
 40
0.0
 40
0.0
 40
1.0
 40
1.0
 40
1.0
 40
1.0
 10
10.00000000000003
 20
-2.299263772345949
 30
0.0
 10
9.833763219120925
 20
-2.233137570588845
 30
0.0
 10
9.666732476687315
 20
-2.163749275927422
 30
0.0
 10
9.499935986368314
 20
-2.091516183181287
 30
0.0
  0
SPLINE
  5
24C
330
1F
100
AcDbEntity
  8
외형선
  6
Continuous
370
    15
100
AcDbSpline
210
0.0
220
0.0
230
1.0
 70
     8
 71
     3
 72
     8
 73
     4
 74
     0
 42
0.000000001
 43
0.00000001
 40
0.0
 40
0.0
 40
0.0
 40
0.0
 40
1.0
 40
1.0
 40
1.0
 40
1.0
 10
10.00000000000003
 20
-2.912756340393848
 30
0.0
 10
9.833763219120925
 20
-2.874651891335894
 30
0.0
 10
9.666732476687315
 20
-2.832487929739937
 30
0.0
 10
9.499935986368314
 20
-2.786511049158825
 30
0.0
  0
LINE
  5
24D
330
1F
100
AcDbEntity
  8
외형선
  6
Continuous
370
    15
100
AcDbLine
 10
9.499935986368314
 20
-3.173925071276106
 30
0.0
 11
9.499935986368314
 21
-2.786511540321559
 31
0.0
  0
LINE
  5
24E
330
1F
100
AcDbEntity
  8
외형선
  6
Continuous
370
    15
100
AcDbLine
 10
-46.51499999999999
 20
0.0010749287238951
 30
0.0
 11
-46.51499999999999
 21
3.176074928723892
 31
0.0
  0
LINE
  5
24F
330
1F
100
AcDbEntity
  8
외형선
  6
Continuous
370
    15
100
AcDbLine
 10
-46.51499999999999
 20
-3.173925071276109
 30
0.0
 11
-46.51499999999999
 21
0.0010749287238951
 31
0.0
  0
LINE
  5
250
330
1F
100
AcDbEntity
  8
외형선
  6
Continuous
370
    15
100
AcDbLine
 10
9.499935986368314
 20
-2.091512342558268
 30
0.0
 11
9.499935986368314
 21
1.520938961325079
 31
0.0
  0
LINE
  5
251
330
1F
100
AcDbEntity
  8
외형선
  6
Continuous
370
    15
100
AcDbLine
 10
-47.14999999999998
 20
0.0010749287238951
 30
0.0
 11
-47.14999999999998
 21
2.541074928723894
 31
0.0
  0
LINE
  5
252
330
1F
100
AcDbEntity
  8
외형선
  6
Continuous
370
    15
100
AcDbLine
 10
-47.14999999999998
 20
-2.538925071276108
 30
0.0
 11
-47.14999999999998
 21
0.0010749287238951
 31
0.0
  0
SPLINE
  5
253
330
1F
100
AcDbEntity
  8
외형선
  6
Continuous
370
    15
100
AcDbSpline
210
0.0
220
0.0
230
1.0
 70
    24
 71
     3
 72
    22
 73
    18
 74
     0
 42
0.000000001
 43
0.00000001
 40
0.0
 40
0.0
 40
0.0
 40
0.0
 40
0.125
 40
0.125
 40
0.25
 40
0.25
 40
0.375
 40
0.375
 40
0.5
 40
0.5
 40
0.625
 40
0.625
 40
0.75
 40
0.75
 40
0.875
 40
0.875
 40
1.0
 40
1.0
 40
1.0
 40
1.0
 10
10.00000000000003
 20
-2.299263772345956
 30
0.0
 10
10.00000000000003
 20
-2.193272755444937
 30
0.0
 10
10.00000000000003
 20
-2.045694542966586
 30
0.0
 10
10.00000000000003
 20
-1.673749709535461
 30
0.0
 10
10.00000000000003
 20
-1.449570207186426
 30
0.0
 10
10.00000000000003
 20
-0.9692755994541216
 30
0.0
 10
10.0
 20
-0.7145506339369305
 30
0.0
 10
10.0
 20
-0.232765981496506
 30
0.0
 10
10.00000000000003
 20
-0.0065396526691046
 30
0.0
 10
10.00000000000003
 20
0.384267616599125
 30
0.0
 10
10.00000000000003
 20
0.5491868505911555
 30
0.0
 10
10.00000000000003
 20
0.8165553607922575
 30
0.0
 10
10.00000000000003
 20
0.9195843227858944
 30
0.0
 10
10.00000000000003
 20
1.078057708568423
 30
0.0
 10
10.00000000000003
 20
1.133801187569958
 30
0.0
 10
10.00000000000003
 20
1.213827639298344
 30
0.0
 10
10.00000000000003
 20
1.246229692769951
 30
0.0
 10
10.00000000000003
 20
1.262111143551671
 30
0.0
  0
SPLINE
  5
254
330
1F
100
AcDbEntity
  8
외형선
  6
Continuous
370
    15
100
AcDbSpline
210
0.0
220
0.0
230
1.0
 70
    24
 71
     3
 72
    11
 73
     7
 74
     0
 42
0.000000001
 43
0.00000001
 40
0.0
 40
0.0
 40
0.0
 40
0.0
 40
0.030913342104191
 40
0.4787589083810667
 40
0.9395920264191938
 40
1.0
 40
1.0
 40
1.0
 40
1.0
 10
10.00000000000003
 20
2.241840485108973
 30
0.0
 10
10.00000000000003
 20
2.248032719996395
 30
0.0
 10
10.00000000000003
 20
2.34393265877199
 30
0.0
 10
10.00000000000014
 20
2.55647390665191
 30
0.0
 10
9.999999999999858
 20
2.778736693713292
 30
0.0
 10
10.00000000000003
 20
2.900764124366347
 30
0.0
 10
10.00000000000006
 20
2.914906197824386
 30
0.0
  0
LINE
  5
255
330
1F
100
AcDbEntity
  8
중심선
 48
0.8
100
AcDbLine
 10
-50.14999999999999
 20
0.0010749287238951
 30
0.0
 11
32.05000000000004
 21
0.0010749287239022
 31
0.0
  0
CIRCLE
  5
256
330
1F
100
AcDbEntity
  8
해칭선
100
AcDbCircle
 10
0.0
 20
0.0
 30
0.0
 40
3.000000000000001
  0
DIMENSION
  5
257
330
1F
100
AcDbEntity
  8
0
  6
Continuous
370
    15
100
AcDbDimension
  2
*D13
 10
-60.15
 20
-3.17392507127617
 30
0.0
 11
-60.15000000000001
 21
-1.3178856892402
 31
0.0
 70
   160
  1
%%c<>
 71
     2
 42
6.350000000000026
 52
-270.0
  3
SLDDIMSTYLE1
100
AcDbAlignedDimension
 13
-46.51499999999999
 23
3.176074928723907
 33
0.0
 14
-46.51499999999999
 24
-3.17392507127612
 34
0.0
 50
90.0000000000002
100
AcDbRotatedDimension
1001
ACAD
1000
DSTYLE
1002
{
1070
   171
1070
     6
1070
   273
1070
     7
1002
}
  0
DIMENSION
  5
258
330
1F
100
AcDbEntity
  8
0
  6
Continuous
370
    15
100
AcDbDimension
  2
*D14
 10
-47.14999999999998
 20
30.06177957526257
 30
0.0
 11
-9.049999999999983
 21
30.06177957526257
 31
0.0
 70
   160
  1
<>
 71
     2
 42
76.20000000000002
  3
SLDDIMSTYLE1
100
AcDbAlignedDimension
 13
29.05000000000004
 23
3.176074928723892
 33
0.0
 14
-47.14999999999998
 24
2.541074928723894
 34
0.0
 50
0.0000000000000053
100
AcDbRotatedDimension
1001
ACAD
1000
DSTYLE
1002
{
1070
   171
1070
     6
1070
   273
1070
     7
1002
}
  0
DIMENSION
  5
259
330
1F
100
AcDbEntity
  8
0
  6
Continuous
370
    15
100
AcDbDimension
  2
*D15
 10
10.00000000000003
 20
13.20021367633945
 30
0.0
 11
19.52500000000001
 21
13.20021367633945
 31
0.0
 70
   160
  1
<>
 71
     2
 42
19.05000000000001
  3
SLDDIMSTYLE2
100
AcDbAlignedDimension
 13
29.05000000000004
 23
3.176074928723892
 33
0.0
 14
10.00000000000003
 24
2.914906197841638
 34
0.0
 50
0.0000000000001443
100
AcDbRotatedDimension
1001
ACAD
1000
DSTYLE
1002
{
1070
   171
1070
     6
1070
   273
1070
     7
1002
}
  0
DIMENSION
  5
25A
330
1F
100
AcDbEntity
  8
0
  6
Continuous
370
    15
100
AcDbDimension
  2
*D16
 10
48.05000000000013
 20
-3.17392507127602
 30
0.0
 11
48.05000000000004
 21
23.12382492872398
 31
0.0
 70
   160
  1
%%c<>
 71
     2
 42
6.349999999999984
 52
-270.0
  3
SLDDIMSTYLE2
100
AcDbAlignedDimension
 13
29.05000000000004
 23
3.176074928723892
 33
0.0
 14
29.05000000000004
 24
-3.173925071276091
 34
0.0
 50
90.0000000000002
100
AcDbRotatedDimension
1001
ACAD
1000
DSTYLE
1002
{
1070
   171
1070
     6
1070
   273
1070
     7
1002
}
  0
INSERT
  5
25B
330
1F
100
AcDbEntity
  8
해칭선
100
AcDbBlockReference
  2
SW_DOWELSYMBOL_0
 10
0.0
 20
0.0
 30
0.0
  0
ARC
  5
2A0
330
1F
100
AcDbEntity
  8
0
  6
Continuous
 62
     1
370
    15
100
AcDbCircle
 10
28.54200000000006
 20
2.668074928723892
 30
0.0
 40
0.5079999999999999
100
AcDbArc
 50
0.0
 51
90.0
  0
ARC
  5
2A1
102
{ACAD_REACTORS
102
}
330
1F
100
AcDbEntity
  8
0
  6
Continuous
 62
     1
370
    15
100
AcDbCircle
 10
28.54200000000006
 20
-2.665925071276089
 30
0.0
 40
0.5079999999999999
100
AcDbArc
 50
270.0
 51
0.0
  0
DIMENSION
  5
2A2
102
{ACAD_REACTORS
102
}
102
{ACAD_XDICTIONARY
360
2A3
102
}
330
1F
100
AcDbEntity
  8
0
  6
Continuous
370
    15
100
AcDbDimension
  2
*D18
 10
28.54200000000006
 20
-2.665925071276089
 30
0.0
 11
37.69242953053664
 21
-21.44883046339219
 31
0.0
 70
   164
  1
<>
 71
     5
 42
0.5080000000000016
  3
SLDDIMSTYLE2
100
AcDbRadialDimension
 15
28.76448420908733
 25
-3.122613999001311
 35
0.0
 40
0.0
1001
ACAD
1000
DSTYLE
1002
{
1070
   171
1070
     3
1002
}
1001
ACAD_DSTYLE_DIMRADIAL_EXTENSION
1070
   387
1070
     1
1070
   388
1040
4.71238898038469
1070
   390
1040
0.0
  0
ENDSEC
  0
SECTION
  2
OBJECTS
  0
DICTIONARY
  5
C
330
0
100
AcDbDictionary
281
     1
  3
ACAD_GROUP
350
D
  3
ACAD_IMAGE_VARS
350
14D
  3
ACAD_LAYOUT
350
1A
  3
ACAD_MLINESTYLE
350
17
  3
ACAD_PLOTSETTINGS
350
19
  3
ACAD_PLOTSTYLENAME
350
E
  3
ACAD_SCALELIST
350
47
  3
APPDATA
350
14B
  3
DWGPROPS
350
2AF
  0
DICTIONARY
  5
1F2
330
2
100
AcDbDictionary
280
     1
281
     1
  3
ACAD_LAYERSTATES
360
1F3
  0
DICTIONARY
  5
2A3
330
2A2
100
AcDbDictionary
280
     1
281
     1
  0
DICTIONARY
  5
D
102
{ACAD_REACTORS
330
C
102
}
330
C
100
AcDbDictionary
281
     1
  0
RASTERVARIABLES
  5
14D
102
{ACAD_REACTORS
330
C
102
}
330
C
100
AcDbRasterVariables
 90
        0
 70
     1
 71
     1
 72
     1
  0
DICTIONARY
  5
1A
102
{ACAD_REACTORS
330
C
102
}
330
C
100
AcDbDictionary
281
     1
  3
Layout1
350
1E
  3
Layout2
350
26
  3
Model
350
22
  0
DICTIONARY
  5
17
102
{ACAD_REACTORS
330
C
102
}
330
C
100
AcDbDictionary
281
     1
  3
Standard
350
18
  0
DICTIONARY
  5
19
102
{ACAD_REACTORS
330
C
102
}
330
C
100
AcDbDictionary
281
     1
  0
ACDBDICTIONARYWDFLT
  5
E
102
{ACAD_REACTORS
330
C
102
}
330
C
100
AcDbDictionary
281
     1
  3
Normal
350
F
100
AcDbDictionaryWithDefault
340
F
  0
DICTIONARY
  5
47
102
{ACAD_REACTORS
330
C
102
}
330
C
100
AcDbDictionary
281
     1
  3
A0
350
48
  3
A1
350
49
  3
A2
350
4A
  3
A3
350
4B
  3
A4
350
4C
  3
A5
350
4D
  3
A6
350
4E
  3
A7
350
4F
  3
A8
350
50
  3
A9
350
51
  3
B0
350
52
  3
B1
350
53
  3
B2
350
54
  3
B3
350
55
  3
B4
350
56
  3
B5
350
57
  3
B6
350
58
  3
B7
350
59
  3
B8
350
5A
  3
B9
350
5B
  3
C0
350
5C
  3
C1
350
5D
  3
C2
350
5E
  3
C3
350
5F
  3
C4
350
60
  3
C5
350
61
  3
C6
350
62
  3
C7
350
63
  3
C8
350
64
  3
C9
350
65
  3
D0
350
66
  3
D1
350
67
  3
D2
350
68
  0
DICTIONARY
  5
14B
102
{ACAD_REACTORS
330
C
102
}
330
C
100
AcDbDictionary
281
     1
  0
XRECORD
  5
2AF
102
{ACAD_REACTORS
330
C
102
}
330
C
100
AcDbXrecord
280
     1
  1
DWGPROPS COOKIE
  2

  3

  4

  6

  7

  8
12017012
  9

300
=
301
=
302
=
303
=
304
=
305
=
306
=
307
=
308
=
309
=
 40
0.0
 41
2458296.326613577
 42
2458296.37840603
  1

 90
        0
  0
DICTIONARY
  5
1F3
102
{ACAD_REACTORS
330
1F2
102
}
330
1F2
100
AcDbDictionary
281
     1
  0
LAYOUT
  5
1E
102
{ACAD_REACTORS
330
1A
102
}
330
1A
100
AcDbPlotSettings
  1

  2
none_device
  4

  6

 40
0.0
 41
0.0
 42
0.0
 43
0.0
 44
0.0
 45
0.0
 46
0.0
 47
0.0
 48
0.0
 49
0.0
140
0.0
141
0.0
142
1.0
143
1.0
 70
   688
 72
     1
 73
     0
 74
     5
  7

 75
    16
147
1.0
148
0.0
149
0.0
100
AcDbLayout
  1
Layout1
 70
     1
 71
     1
 10
0.0
 20
0.0
 11
420.0
 21
297.0
 12
0.0
 22
0.0
 32
0.0
 14
1.000000000000000E+20
 24
1.000000000000000E+20
 34
1.000000000000000E+20
 15
-1.000000000000000E+20
 25
-1.000000000000000E+20
 35
-1.000000000000000E+20
146
0.0
 13
0.0
 23
0.0
 33
0.0
 16
1.0
 26
0.0
 36
0.0
 17
0.0
 27
1.0
 37
0.0
 76
     0
330
1B
  0
LAYOUT
  5
26
102
{ACAD_REACTORS
330
1A
102
}
330
1A
100
AcDbPlotSettings
  1

  2
none_device
  4

  6

 40
0.0
 41
0.0
 42
0.0
 43
0.0
 44
0.0
 45
0.0
 46
0.0
 47
0.0
 48
0.0
 49
0.0
140
0.0
141
0.0
142
1.0
143
1.0
 70
   688
 72
     1
 73
     0
 74
     5
  7

 75
    16
147
1.0
148
0.0
149
0.0
100
AcDbLayout
  1
Layout2
 70
     1
 71
     2
 10
0.0
 20
0.0
 11
0.0
 21
0.0
 12
0.0
 22
0.0
 32
0.0
 14
0.0
 24
0.0
 34
0.0
 15
0.0
 25
0.0
 35
0.0
146
0.0
 13
0.0
 23
0.0
 33
0.0
 16
1.0
 26
0.0
 36
0.0
 17
0.0
 27
1.0
 37
0.0
 76
     0
330
23
  0
LAYOUT
  5
22
102
{ACAD_REACTORS
330
1A
102
}
330
1A
100
AcDbPlotSettings
  1

  2
none_device
  4
ANSI_A_(11.00_x_8.50_Inches)
  6

 40
6.35
 41
19.05
 42
6.35000508
 43
19.05000254
 44
279.4
 45
215.9
 46
125.0723527105177
 47
98.15448363327684
 48
0.0
 49
0.0
140
0.0
141
0.0
142
0.0720339604612821
143
1.0
 70
  1696
 72
     0
 73
     0
 74
     0
  7

 75
     0
147
0.0235690232323232
148
0.0
149
0.0
100
AcDbLayout
  1
Model
 70
     1
 71
     0
 10
0.0
 20
0.0
 11
420.0
 21
297.0
 12
0.0
 22
0.0
 32
0.0
 14
1.000000000000000E+20
 24
1.000000000000000E+20
 34
1.000000000000000E+20
 15
-1.000000000000000E+20
 25
-1.000000000000000E+20
 35
-1.000000000000000E+20
146
0.0
 13
0.0
 23
0.0
 33
0.0
 16
1.0
 26
0.0
 36
0.0
 17
0.0
 27
1.0
 37
0.0
 76
     0
330
1F
331
29
  0
MLINESTYLE
  5
18
102
{ACAD_REACTORS
330
17
102
}
330
17
100
AcDbMlineStyle
  2
Standard
 70
     0
  3

 62
   256
 51
90.0
 52
90.0
 71
     2
 49
0.5
 62
   256
  6
BYLAYER
 49
-0.5
 62
   256
  6
BYLAYER
  0
ACDBPLACEHOLDER
  5
F
102
{ACAD_REACTORS
330
E
102
}
330
E
  0
SCALE
  5
48
102
{ACAD_REACTORS
330
47
102
}
330
47
100
AcDbScale
 70
     0
300
1:1
140
1.0
141
1.0
290
     1
  0
SCALE
  5
49
102
{ACAD_REACTORS
330
47
102
}
330
47
100
AcDbScale
 70
     0
300
1:2
140
1.0
141
2.0
290
     0
  0
SCALE
  5
4A
102
{ACAD_REACTORS
330
47
102
}
330
47
100
AcDbScale
 70
     0
300
1:4
140
1.0
141
4.0
290
     0
  0
SCALE
  5
4B
102
{ACAD_REACTORS
330
47
102
}
330
47
100
AcDbScale
 70
     0
300
1:5
140
1.0
141
5.0
290
     0
  0
SCALE
  5
4C
102
{ACAD_REACTORS
330
47
102
}
330
47
100
AcDbScale
 70
     0
300
1:8
140
1.0
141
8.0
290
     0
  0
SCALE
  5
4D
102
{ACAD_REACTORS
330
47
102
}
330
47
100
AcDbScale
 70
     0
300
1:10
140
1.0
141
10.0
290
     0
  0
SCALE
  5
4E
102
{ACAD_REACTORS
330
47
102
}
330
47
100
AcDbScale
 70
     0
300
1:16
140
1.0
141
16.0
290
     0
  0
SCALE
  5
4F
102
{ACAD_REACTORS
330
47
102
}
330
47
100
AcDbScale
 70
     0
300
1:20
140
1.0
141
20.0
290
     0
  0
SCALE
  5
50
102
{ACAD_REACTORS
330
47
102
}
330
47
100
AcDbScale
 70
     0
300
1:30
140
1.0
141
30.0
290
     0
  0
SCALE
  5
51
102
{ACAD_REACTORS
330
47
102
}
330
47
100
AcDbScale
 70
     0
300
1:40
140
1.0
141
40.0
290
     0
  0
SCALE
  5
52
102
{ACAD_REACTORS
330
47
102
}
330
47
100
AcDbScale
 70
     0
300
1:50
140
1.0
141
50.0
290
     0
  0
SCALE
  5
53
102
{ACAD_REACTORS
330
47
102
}
330
47
100
AcDbScale
 70
     0
300
1:100
140
1.0
141
100.0
290
     0
  0
SCALE
  5
54
102
{ACAD_REACTORS
330
47
102
}
330
47
100
AcDbScale
 70
     0
300
2:1
140
2.0
141
1.0
290
     0
  0
SCALE
  5
55
102
{ACAD_REACTORS
330
47
102
}
330
47
100
AcDbScale
 70
     0
300
4:1
140
4.0
141
1.0
290
     0
  0
SCALE
  5
56
102
{ACAD_REACTORS
330
47
102
}
330
47
100
AcDbScale
 70
     0
300
8:1
140
8.0
141
1.0
290
     0
  0
SCALE
  5
57
102
{ACAD_REACTORS
330
47
102
}
330
47
100
AcDbScale
 70
     0
300
10:1
140
10.0
141
1.0
290
     0
  0
SCALE
  5
58
102
{ACAD_REACTORS
330
47
102
}
330
47
100
AcDbScale
 70
     0
300
100:1
140
100.0
141
1.0
290
     0
  0
SCALE
  5
59
102
{ACAD_REACTORS
330
47
102
}
330
47
100
AcDbScale
 70
     0
300
1/128" = 1'-0"
140
0.0078125
141
12.0
290
     0
  0
SCALE
  5
5A
102
{ACAD_REACTORS
330
47
102
}
330
47
100
AcDbScale
 70
     0
300
1/64" = 1'-0"
140
0.015625
141
12.0
290
     0
  0
SCALE
  5
5B
102
{ACAD_REACTORS
330
47
102
}
330
47
100
AcDbScale
 70
     0
300
1/32" = 1'-0"
140
0.03125
141
12.0
290
     0
  0
SCALE
  5
5C
102
{ACAD_REACTORS
330
47
102
}
330
47
100
AcDbScale
 70
     0
300
1/16" = 1'-0"
140
0.0625
141
12.0
290
     0
  0
SCALE
  5
5D
102
{ACAD_REACTORS
330
47
102
}
330
47
100
AcDbScale
 70
     0
300
3/32" = 1'-0"
140
0.09375
141
12.0
290
     0
  0
SCALE
  5
5E
102
{ACAD_REACTORS
330
47
102
}
330
47
100
AcDbScale
 70
     0
300
1/8" = 1'-0"
140
0.125
141
12.0
290
     0
  0
SCALE
  5
5F
102
{ACAD_REACTORS
330
47
102
}
330
47
100
AcDbScale
 70
     0
300
3/16" = 1'-0"
140
0.1875
141
12.0
290
     0
  0
SCALE
  5
60
102
{ACAD_REACTORS
330
47
102
}
330
47
100
AcDbScale
 70
     0
300
1/4" = 1'-0"
140
0.25
141
12.0
290
     0
  0
SCALE
  5
61
102
{ACAD_REACTORS
330
47
102
}
330
47
100
AcDbScale
 70
     0
300
3/8" = 1'-0"
140
0.375
141
12.0
290
     0
  0
SCALE
  5
62
102
{ACAD_REACTORS
330
47
102
}
330
47
100
AcDbScale
 70
     0
300
1/2" = 1'-0"
140
0.5
141
12.0
290
     0
  0
SCALE
  5
63
102
{ACAD_REACTORS
330
47
102
}
330
47
100
AcDbScale
 70
     0
300
3/4" = 1'-0"
140
0.75
141
12.0
290
     0
  0
SCALE
  5
64
102
{ACAD_REACTORS
330
47
102
}
330
47
100
AcDbScale
 70
     0
300
1" = 1'-0"
140
1.0
141
12.0
290
     0
  0
SCALE
  5
65
102
{ACAD_REACTORS
330
47
102
}
330
47
100
AcDbScale
 70
     0
300
1-1/2" = 1'-0"
140
1.5
141
12.0
290
     0
  0
SCALE
  5
66
102
{ACAD_REACTORS
330
47
102
}
330
47
100
AcDbScale
 70
     0
300
3" = 1'-0"
140
3.0
141
12.0
290
     0
  0
SCALE
  5
67
102
{ACAD_REACTORS
330
47
102
}
330
47
100
AcDbScale
 70
     0
300
6" = 1'-0"
140
6.0
141
12.0
290
     0
  0
SCALE
  5
68
102
{ACAD_REACTORS
330
47
102
}
330
47
100
AcDbScale
 70
     0
300
1'-0" = 1'-0"
140
12.0
141
12.0
290
     0
  0
ENDSEC
  0
EOF
