  0
SECTION
  2
HEADER
  9
$ACADVER
  1
AC1015
  9
$ACADMAINTVER
 70
     6
  9
$DWGCODEPAGE
  3
ANSI_949
  9
$INSBASE
 10
0.0
 20
0.0
 30
0.0
  9
$EXTMIN
 10
1.000000000000000E+20
 20
1.000000000000000E+20
 30
1.000000000000000E+20
  9
$EXTMAX
 10
-1.000000000000000E+20
 20
-1.000000000000000E+20
 30
-1.000000000000000E+20
  9
$LIMMIN
 10
0.0
 20
0.0
  9
$LIMMAX
 10
420.0
 20
297.0
  9
$ORTHOMODE
 70
     0
  9
$REGENMODE
 70
     1
  9
$FILLMODE
 70
     1
  9
$QTEXTMODE
 70
     0
  9
$MIRRTEXT
 70
     1
  9
$LTSCALE
 40
1.0
  9
$ATTMODE
 70
     1
  9
$TEXTSIZE
 40
3.5
  9
$TRACEWID
 40
1.0
  9
$TEXTSTYLE
  7
Standard
  9
$CLAYER
  8
0
  9
$CELTYPE
  6
ByLayer
  9
$CECOLOR
 62
   256
  9
$CELTSCALE
 40
1.0
  9
$DISPSILH
 70
     0
  9
$DIMSCALE
 40
1.0
  9
$DIMASZ
 40
3.302
  9
$DIMEXO
 40
1.0
  9
$DIMDLI
 40
3.75
  9
$DIMRND
 40
0.0
  9
$DIMDLE
 40
0.0
  9
$DIMEXE
 40
1.0
  9
$DIMTP
 40
0.0
  9
$DIMTM
 40
0.0
  9
$DIMTXT
 40
3.5
  9
$DIMCEN
 40
2.5
  9
$DIMTSZ
 40
0.0
  9
$DIMTOL
 70
     0
  9
$DIMLIM
 70
     0
  9
$DIMTIH
 70
     1
  9
$DIMTOH
 70
     1
  9
$DIMSE1
 70
     0
  9
$DIMSE2
 70
     0
  9
$DIMTAD
 70
     1
  9
$DIMZIN
 70
     0
  9
$DIMBLK
  1

  9
$DIMASO
 70
     1
  9
$DIMSHO
 70
     1
  9
$DIMPOST
  1

  9
$DIMAPOST
  1

  9
$DIMALT
 70
     0
  9
$DIMALTD
 70
     3
  9
$DIMALTF
 40
0.0393700787401575
  9
$DIMLFAC
 40
1.0
  9
$DIMTOFL
 70
     1
  9
$DIMTVP
 40
0.0
  9
$DIMTIX
 70
     0
  9
$DIMSOXD
 70
     0
  9
$DIMSAH
 70
     0
  9
$DIMBLK1
  1

  9
$DIMBLK2
  1

  9
$DIMSTYLE
  2
ISO-25
  9
$DIMCLRD
 70
     0
  9
$DIMCLRE
 70
     0
  9
$DIMCLRT
 70
     0
  9
$DIMTFAC
 40
1.0
  9
$DIMGAP
 40
1.524
  9
$DIMJUST
 70
     0
  9
$DIMSD1
 70
     0
  9
$DIMSD2
 70
     0
  9
$DIMTOLJ
 70
     0
  9
$DIMTZIN
 70
     0
  9
$DIMALTZ
 70
     0
  9
$DIMALTTZ
 70
     0
  9
$DIMUPT
 70
     0
  9
$DIMDEC
 70
     2
  9
$DIMTDEC
 70
     2
  9
$DIMALTU
 70
     2
  9
$DIMALTTD
 70
     3
  9
$DIMTXSTY
  7
Standard
  9
$DIMAUNIT
 70
     0
  9
$DIMADEC
 70
     2
  9
$DIMALTRND
 40
0.0
  9
$DIMAZIN
 70
     0
  9
$DIMDSEP
 70
    44
  9
$DIMATFIT
 70
     3
  9
$DIMFRAC
 70
     0
  9
$DIMLDRBLK
  1

  9
$DIMLUNIT
 70
     2
  9
$DIMLWD
 70
    -2
  9
$DIMLWE
 70
    -2
  9
$DIMTMOVE
 70
     0
  9
$LUNITS
 70
     2
  9
$LUPREC
 70
     2
  9
$SKETCHINC
 40
1.0
  9
$FILLETRAD
 40
10.0
  9
$AUNITS
 70
     0
  9
$AUPREC
 70
     2
  9
$MENU
  1
.
  9
$ELEVATION
 40
0.0
  9
$PELEVATION
 40
0.0
  9
$THICKNESS
 40
0.0
  9
$LIMCHECK
 70
     0
  9
$CHAMFERA
 40
0.0
  9
$CHAMFERB
 40
0.0
  9
$CHAMFERC
 40
0.0
  9
$CHAMFERD
 40
0.0
  9
$SKPOLY
 70
     0
  9
$TDCREATE
 40
2458296.702907257
  9
$TDUCREATE
 40
2458296.327907257
  9
$TDUPDATE
 40
2458296.759470278
  9
$TDUUPDATE
 40
2458296.384470278
  9
$TDINDWG
 40
0.0012452778
  9
$TDUSRTIMER
 40
2458296.383133137
  9
$USRTIMER
 70
     1
  9
$ANGBASE
 50
0.0
  9
$ANGDIR
 70
     0
  9
$PDMODE
 70
     0
  9
$PDSIZE
 40
-1.0
  9
$PLINEWID
 40
0.0
  9
$SPLFRAME
 70
     0
  9
$SPLINETYPE
 70
     6
  9
$SPLINESEGS
 70
     8
  9
$HANDSEED
  5
286
  9
$SURFTAB1
 70
     6
  9
$SURFTAB2
 70
     6
  9
$SURFTYPE
 70
     6
  9
$SURFU
 70
     6
  9
$SURFV
 70
     6
  9
$UCSBASE
  2

  9
$UCSNAME
  2

  9
$UCSORG
 10
0.0
 20
0.0
 30
0.0
  9
$UCSXDIR
 10
1.0
 20
0.0
 30
0.0
  9
$UCSYDIR
 10
0.0
 20
1.0
 30
0.0
  9
$UCSORTHOREF
  2

  9
$UCSORTHOVIEW
 70
     0
  9
$UCSORGTOP
 10
0.0
 20
0.0
 30
0.0
  9
$UCSORGBOTTOM
 10
0.0
 20
0.0
 30
0.0
  9
$UCSORGLEFT
 10
0.0
 20
0.0
 30
0.0
  9
$UCSORGRIGHT
 10
0.0
 20
0.0
 30
0.0
  9
$UCSORGFRONT
 10
0.0
 20
0.0
 30
0.0
  9
$UCSORGBACK
 10
0.0
 20
0.0
 30
0.0
  9
$PUCSBASE
  2

  9
$PUCSNAME
  2

  9
$PUCSORG
 10
0.0
 20
0.0
 30
0.0
  9
$PUCSXDIR
 10
1.0
 20
0.0
 30
0.0
  9
$PUCSYDIR
 10
0.0
 20
1.0
 30
0.0
  9
$PUCSORTHOREF
  2

  9
$PUCSORTHOVIEW
 70
     0
  9
$PUCSORGTOP
 10
0.0
 20
0.0
 30
0.0
  9
$PUCSORGBOTTOM
 10
0.0
 20
0.0
 30
0.0
  9
$PUCSORGLEFT
 10
0.0
 20
0.0
 30
0.0
  9
$PUCSORGRIGHT
 10
0.0
 20
0.0
 30
0.0
  9
$PUCSORGFRONT
 10
0.0
 20
0.0
 30
0.0
  9
$PUCSORGBACK
 10
0.0
 20
0.0
 30
0.0
  9
$USERI1
 70
     0
  9
$USERI2
 70
     0
  9
$USERI3
 70
     0
  9
$USERI4
 70
     0
  9
$USERI5
 70
     0
  9
$USERR1
 40
0.0
  9
$USERR2
 40
0.0
  9
$USERR3
 40
0.0
  9
$USERR4
 40
0.0
  9
$USERR5
 40
0.0
  9
$WORLDVIEW
 70
     1
  9
$SHADEDGE
 70
     3
  9
$SHADEDIF
 70
    70
  9
$TILEMODE
 70
     1
  9
$MAXACTVP
 70
    64
  9
$PINSBASE
 10
0.0
 20
0.0
 30
0.0
  9
$PLIMCHECK
 70
     0
  9
$PEXTMIN
 10
1.000000000000000E+20
 20
1.000000000000000E+20
 30
1.000000000000000E+20
  9
$PEXTMAX
 10
-1.000000000000000E+20
 20
-1.000000000000000E+20
 30
-1.000000000000000E+20
  9
$PLIMMIN
 10
0.0
 20
0.0
  9
$PLIMMAX
 10
0.0
 20
0.0
  9
$UNITMODE
 70
     0
  9
$VISRETAIN
 70
     1
  9
$PLINEGEN
 70
     0
  9
$PSLTSCALE
 70
     1
  9
$TREEDEPTH
 70
  3020
  9
$CMLSTYLE
  2
Standard
  9
$CMLJUST
 70
     0
  9
$CMLSCALE
 40
20.0
  9
$PROXYGRAPHICS
 70
     1
  9
$MEASUREMENT
 70
     1
  9
$CELWEIGHT
370
    -1
  9
$ENDCAPS
280
     0
  9
$JOINSTYLE
280
     0
  9
$LWDISPLAY
290
     1
  9
$INSUNITS
 70
     4
  9
$HYPERLINKBASE
  1

  9
$STYLESHEET
  1

  9
$XEDIT
290
     1
  9
$CEPSNTYPE
380
     0
  9
$PSTYLEMODE
290
     1
  9
$FINGERPRINTGUID
  2
{775E30F1-592F-45FC-8686-73559235BFAE}
  9
$VERSIONGUID
  2
{FAEB1C32-E019-11D5-929B-00C0DF256EC4}
  9
$EXTNAMES
290
     1
  9
$PSVPSCALE
 40
0.0
  9
$OLESTARTUP
290
     0
  0
ENDSEC
  0
SECTION
  2
CLASSES
  0
CLASS
  1
ACDBDICTIONARYWDFLT
  2
AcDbDictionaryWithDefault
  3
ObjectDBX Classes
 90
        0
280
     0
281
     0
  0
CLASS
  1
VISUALSTYLE
  2
AcDbVisualStyle
  3
ObjectDBX Classes
 90
     4095
280
     0
281
     0
  0
CLASS
  1
MATERIAL
  2
AcDbMaterial
  3
ObjectDBX Classes
 90
     1153
280
     0
281
     0
  0
CLASS
  1
SCALE
  2
AcDbScale
  3
ObjectDBX Classes
 90
     1153
280
     0
281
     0
  0
CLASS
  1
SUN
  2
AcDbSun
  3
SCENEOE
 90
     1153
280
     0
281
     0
  0
CLASS
  1
ACDBPLACEHOLDER
  2
AcDbPlaceHolder
  3
ObjectDBX Classes
 90
        0
280
     0
281
     0
  0
CLASS
  1
LAYOUT
  2
AcDbLayout
  3
ObjectDBX Classes
 90
        0
280
     0
281
     0
  0
CLASS
  1
TABLESTYLE
  2
AcDbTableStyle
  3
ObjectDBX Classes
 90
     4095
280
     0
281
     0
  0
CLASS
  1
MLEADERSTYLE
  2
AcDbMLeaderStyle
  3
ACDB_MLEADERSTYLE_CLASS
 90
     4095
280
     0
281
     0
  0
CLASS
  1
RASTERVARIABLES
  2
AcDbRasterVariables
  3
ISM
 90
        0
280
     0
281
     0
  0
CLASS
  1
DIMASSOC
  2
AcDbDimAssoc
  3
"AcDbDimAssoc|Product Desc:     AcDim ARX App For Dimension|Company:          Autodesk, Inc.|WEB Address:      www.autodesk.com"
 90
        0
280
     0
281
     0
  0
ENDSEC
  0
SECTION
  2
TABLES
  0
TABLE
  2
VPORT
  5
8
330
0
100
AcDbSymbolTable
 70
     1
  0
VPORT
  5
29
330
8
100
AcDbSymbolTableRecord
100
AcDbViewportTableRecord
  2
*Active
 70
     0
 10
0.0
 20
0.0
 11
1.0
 21
1.0
 12
-24.97748822101779
 22
13.46864470553734
 13
0.0
 23
0.0
 14
10.0
 24
10.0
 15
10.0
 25
10.0
 16
0.0
 26
0.0
 36
1.0
 17
0.0
 27
0.0
 37
0.0
 40
184.2295254476645
 41
1.798434442270059
 42
50.0
 43
0.0
 44
0.0
 50
0.0
 51
0.0
 71
    16
 72
  2000
 73
     1
 74
     3
 75
     0
 76
     0
 77
     0
 78
     0
281
     0
 65
     1
110
0.0
120
0.0
130
0.0
111
1.0
121
0.0
131
0.0
112
0.0
122
1.0
132
0.0
 79
     0
146
0.0
  0
ENDTAB
  0
TABLE
  2
LTYPE
  5
5
330
0
100
AcDbSymbolTable
 70
     6
  0
LTYPE
  5
14
330
5
100
AcDbSymbolTableRecord
100
AcDbLinetypeTableRecord
  2
ByBlock
 70
     0
  3

 72
    65
 73
     0
 40
0.0
  0
LTYPE
  5
15
330
5
100
AcDbSymbolTableRecord
100
AcDbLinetypeTableRecord
  2
ByLayer
 70
     0
  3

 72
    65
 73
     0
 40
0.0
  0
LTYPE
  5
16
330
5
100
AcDbSymbolTableRecord
100
AcDbLinetypeTableRecord
  2
Continuous
 70
     0
  3
Solid line
 72
    65
 73
     0
 40
0.0
  0
LTYPE
  5
6A
330
5
100
AcDbSymbolTableRecord
100
AcDbLinetypeTableRecord
  2
HIDDEN
 70
     0
  3
Hidden __ __ __ __ __ __ __ __ __ __ __ __ __ __
 72
    65
 73
     2
 40
1.905
 49
1.27
 74
     0
 49
-0.635
 74
     0
  0
LTYPE
  5
6B
330
5
100
AcDbSymbolTableRecord
100
AcDbLinetypeTableRecord
  2
PHANTOM
 70
     0
  3
Phantom ______  __  __  ______  __  __  ______
 72
    65
 73
     6
 40
12.7
 49
6.35
 74
     0
 49
-1.27
 74
     0
 49
1.27
 74
     0
 49
-1.27
 74
     0
 49
1.27
 74
     0
 49
-1.27
 74
     0
  0
LTYPE
  5
6C
330
5
100
AcDbSymbolTableRecord
100
AcDbLinetypeTableRecord
  2
CENTER
 70
     0
  3
Center ____ _ ____ _ ____ _ ____ _ ____ _ ____
 72
    65
 73
     4
 40
10.16
 49
6.35
 74
     0
 49
-1.27
 74
     0
 49
1.27
 74
     0
 49
-1.27
 74
     0
  0
LTYPE
  5
6D
330
5
100
AcDbSymbolTableRecord
100
AcDbLinetypeTableRecord
  2
CENTERX2
 70
     0
  3
Center (2x) ________  __  ________  __  _____
 72
    65
 73
     4
 40
20.32
 49
12.7
 74
     0
 49
-2.54
 74
     0
 49
2.54
 74
     0
 49
-2.54
 74
     0
  0
LTYPE
  5
6E
330
5
100
AcDbSymbolTableRecord
100
AcDbLinetypeTableRecord
  2
DOT2
 70
     0
  3
Dot (.5x) ........................................
 72
    65
 73
     2
 40
0.635
 49
0.0
 74
     0
 49
-0.635
 74
     0
  0
ENDTAB
  0
TABLE
  2
LAYER
  5
2
102
{ACAD_XDICTIONARY
360
1F5
102
}
330
0
100
AcDbSymbolTable
 70
    18
  0
LAYER
  5
10
330
2
100
AcDbSymbolTableRecord
100
AcDbLayerTableRecord
  2
0
 70
     0
 62
     7
  6
Continuous
370
    -3
390
F
  0
LAYER
  5
6F
330
2
100
AcDbSymbolTableRecord
100
AcDbLayerTableRecord
  2
FORMAT
 70
     0
 62
     2
  6
Continuous
370
    -3
390
F
  0
LAYER
  5
70
330
2
100
AcDbSymbolTableRecord
100
AcDbLayerTableRecord
  2
외형선
 70
     0
 62
     4
  6
Continuous
370
    30
390
F
  0
LAYER
  5
71
330
2
100
AcDbSymbolTableRecord
100
AcDbLayerTableRecord
  2
숨은선
 70
     0
 62
     2
  6
HIDDEN
370
    15
390
F
  0
LAYER
  5
72
330
2
100
AcDbSymbolTableRecord
100
AcDbLayerTableRecord
  2
중심선
 70
     0
 62
     1
  6
CENTERX2
370
    -3
390
F
  0
LAYER
  5
73
330
2
100
AcDbSymbolTableRecord
100
AcDbLayerTableRecord
  2
파단선
 70
     0
 62
     4
  6
Continuous
370
    -3
390
F
  0
LAYER
  5
74
330
2
100
AcDbSymbolTableRecord
100
AcDbLayerTableRecord
  2
해칭선
 70
     0
 62
   100
  6
Continuous
370
    -3
390
F
  0
LAYER
  5
75
330
2
100
AcDbSymbolTableRecord
100
AcDbLayerTableRecord
  2
가는실선
 70
     0
 62
     4
  6
Continuous
370
    -3
390
F
  0
LAYER
  5
76
330
2
100
AcDbSymbolTableRecord
100
AcDbLayerTableRecord
  2
치수_보조선
 70
     0
 62
     4
  6
Continuous
370
    -3
390
F
  0
LAYER
  5
77
330
2
100
AcDbSymbolTableRecord
100
AcDbLayerTableRecord
  2
치수문자_일반주서
 70
     0
 62
     7
  6
Continuous
370
    15
390
F
  0
LAYER
  5
78
330
2
100
AcDbSymbolTableRecord
100
AcDbLayerTableRecord
  2
개별주서
 70
     0
 62
   100
  6
Continuous
370
    30
390
F
  0
LAYER
  5
79
330
2
100
AcDbSymbolTableRecord
100
AcDbLayerTableRecord
  2
중간선
 70
     0
 62
     2
  6
Continuous
370
    15
390
F
  0
LAYER
  5
7A
330
2
100
AcDbSymbolTableRecord
100
AcDbLayerTableRecord
  2
윤곽선
 70
     0
 62
     3
  6
Continuous
370
    40
390
F
  0
LAYER
  5
7B
330
2
100
AcDbSymbolTableRecord
100
AcDbLayerTableRecord
  2
중심마크
 70
     0
 62
   100
  6
Continuous
370
    30
390
F
  0
LAYER
  5
7C
330
2
100
AcDbSymbolTableRecord
100
AcDbLayerTableRecord
  2
가상선
 70
     0
 62
     4
  6
PHANTOM
370
    -3
390
F
  0
LAYER
  5
7D
330
2
100
AcDbSymbolTableRecord
100
AcDbLayerTableRecord
  2
특수지정선
 70
     0
 62
     5
  6
CENTERX2
370
    60
390
F
  0
LAYER
  5
7E
330
2
100
AcDbSymbolTableRecord
100
AcDbLayerTableRecord
  2
참조1
 70
     0
 62
    -4
  6
Continuous
370
    -3
390
F
  0
LAYER
  5
14E
330
2
100
AcDbSymbolTableRecord
100
AcDbLayerTableRecord
  2
Defpoints
 70
     0
 62
     7
  6
Continuous
290
     0
370
    -3
390
F
  0
ENDTAB
  0
TABLE
  2
STYLE
  5
3
330
0
100
AcDbSymbolTable
 70
     2
  0
STYLE
  5
11
330
3
100
AcDbSymbolTableRecord
100
AcDbTextStyleTableRecord
  2
Standard
 70
     0
 40
0.0
 41
1.0
 50
0.0
 71
     0
 42
3.5
  3
txt
  4

  0
STYLE
  5
94
330
3
100
AcDbSymbolTableRecord
100
AcDbTextStyleTableRecord
  2
SLDTEXTSTYLE0
 70
     0
 40
0.0
 41
0.75
 50
0.0
 71
     0
 42
3.5
  3
TXT
  4

  0
ENDTAB
  0
TABLE
  2
VIEW
  5
6
330
0
100
AcDbSymbolTable
 70
     0
  0
ENDTAB
  0
TABLE
  2
UCS
  5
7
330
0
100
AcDbSymbolTable
 70
     0
  0
ENDTAB
  0
TABLE
  2
APPID
  5
9
330
0
100
AcDbSymbolTable
 70
     2
  0
APPID
  5
12
330
9
100
AcDbSymbolTableRecord
100
AcDbRegAppTableRecord
  2
ACAD
 70
     0
  0
APPID
  5
159
330
9
100
AcDbSymbolTableRecord
100
AcDbRegAppTableRecord
  2
ACAD_DSTYLE_DIMRADIAL_EXTENSION
 70
     0
  0
ENDTAB
  0
TABLE
  2
DIMSTYLE
  5
A
330
0
100
AcDbSymbolTable
 70
     5
100
AcDbDimStyleTable
  0
DIMSTYLE
105
27
330
A
100
AcDbSymbolTableRecord
100
AcDbDimStyleTableRecord
  2
ISO-25
 70
     0
 41
2.5
 42
0.625
 43
3.75
 44
1.25
 73
     0
 74
     0
 77
     1
 78
     8
140
2.5
141
2.5
143
0.03937007874016
147
0.625
171
     3
172
     1
178
     0
271
     2
272
     2
274
     3
278
    44
283
     0
284
     8
340
11
  0
DIMSTYLE
105
D0
330
A
100
AcDbSymbolTableRecord
100
AcDbDimStyleTableRecord
  2
SLDDIMSTYLE0
 70
     0
 41
3.302
 44
0.0
 45
0.000000001
 73
     0
 74
     0
 77
     1
 78
    12
 79
     3
140
3.5
147
0.875
172
     1
173
     1
178
     0
271
     2
272
     2
276
     2
284
    12
289
     0
340
94
  0
DIMSTYLE
105
DE
102
{ACAD_REACTORS
330
1A5
330
1B3
330
1C0
330
1CE
330
227
330
228
330
229
330
22A
102
}
330
A
100
AcDbSymbolTableRecord
100
AcDbDimStyleTableRecord
  2
SLDDIMSTYLE1
 70
     0
 41
3.302
 44
0.0
 45
0.000000001
 73
     0
 74
     0
 77
     1
 78
     4
 79
     1
140
3.5
143
0.0393700787401575
147
0.875
148
0.000000001
170
     1
173
     1
178
     0
271
     2
272
     2
276
     2
284
    12
340
94
  0
DIMSTYLE
105
F2
102
{ACAD_REACTORS
330
1E8
330
278
102
}
330
A
100
AcDbSymbolTableRecord
100
AcDbDimStyleTableRecord
  2
SLDDIMSTYLE2
 70
     0
 41
3.302
 44
0.0
 45
0.000000001
 73
     0
 74
     0
 77
     1
 78
    12
 79
     3
140
3.5
143
0.0393700787401575
147
0.875
148
0.000000001
170
     1
172
     1
173
     1
178
     0
271
     2
272
     2
276
     2
284
    12
289
     0
340
94
  0
DIMSTYLE
105
108
330
A
100
AcDbSymbolTableRecord
100
AcDbDimStyleTableRecord
  2
SLDDIMSTYLE3
 70
     0
 41
3.302
 44
0.0
 45
0.000000001
 73
     0
 74
     0
 77
     1
 78
    12
 79
     3
140
3.5
143
0.0393700787401575
147
0.875
148
0.000000001
170
     1
173
     1
178
     0
271
     2
272
     2
276
     2
284
    12
340
94
  0
ENDTAB
  0
TABLE
  2
BLOCK_RECORD
  5
1
330
0
100
AcDbSymbolTable
 70
    19
  0
BLOCK_RECORD
  5
1F
330
1
100
AcDbSymbolTableRecord
100
AcDbBlockTableRecord
  2
*Model_Space
340
22
  0
BLOCK_RECORD
  5
1B
330
1
100
AcDbSymbolTableRecord
100
AcDbBlockTableRecord
  2
*Paper_Space
340
1E
  0
BLOCK_RECORD
  5
23
330
1
100
AcDbSymbolTableRecord
100
AcDbBlockTableRecord
  2
*Paper_Space0
340
26
  0
BLOCK_RECORD
  5
7F
330
1
100
AcDbSymbolTableRecord
100
AcDbBlockTableRecord
  2
블럭10
340
0
102
{BLKREFS
331
C8
102
}
  0
BLOCK_RECORD
  5
D1
330
1
100
AcDbSymbolTableRecord
100
AcDbBlockTableRecord
  2
_D
340
0
  0
BLOCK_RECORD
  5
DF
330
1
100
AcDbSymbolTableRecord
100
AcDbBlockTableRecord
  2
_D_1
340
0
  0
BLOCK_RECORD
  5
F3
330
1
100
AcDbSymbolTableRecord
100
AcDbBlockTableRecord
  2
_D_2
340
0
  0
BLOCK_RECORD
  5
109
330
1
100
AcDbSymbolTableRecord
100
AcDbBlockTableRecord
  2
_D_3
340
0
  0
BLOCK_RECORD
  5
122
330
1
100
AcDbSymbolTableRecord
100
AcDbBlockTableRecord
  2
SW_DOWELSYMBOL_0
340
0
102
{BLKREFS
331
0
331
1DD
331
22B
102
}
  0
BLOCK_RECORD
  5
1A6
330
1
100
AcDbSymbolTableRecord
100
AcDbBlockTableRecord
  2
*D8
340
0
  0
BLOCK_RECORD
  5
1B4
330
1
100
AcDbSymbolTableRecord
100
AcDbBlockTableRecord
  2
*D9
340
0
  0
BLOCK_RECORD
  5
1C1
330
1
100
AcDbSymbolTableRecord
100
AcDbBlockTableRecord
  2
*D10
340
0
  0
BLOCK_RECORD
  5
1CF
330
1
100
AcDbSymbolTableRecord
100
AcDbBlockTableRecord
  2
*D11
340
0
  0
BLOCK_RECORD
  5
1EB
330
1
100
AcDbSymbolTableRecord
100
AcDbBlockTableRecord
  2
*D12
340
0
  0
BLOCK_RECORD
  5
234
330
1
100
AcDbSymbolTableRecord
100
AcDbBlockTableRecord
  2
*D13
340
0
  0
BLOCK_RECORD
  5
241
330
1
100
AcDbSymbolTableRecord
100
AcDbBlockTableRecord
  2
*D14
340
0
  0
BLOCK_RECORD
  5
24D
330
1
100
AcDbSymbolTableRecord
100
AcDbBlockTableRecord
  2
*D15
340
0
  0
BLOCK_RECORD
  5
25A
330
1
100
AcDbSymbolTableRecord
100
AcDbBlockTableRecord
  2
*D16
340
0
  0
BLOCK_RECORD
  5
268
330
1
100
AcDbSymbolTableRecord
100
AcDbBlockTableRecord
  2
*D17
340
0
  0
BLOCK_RECORD
  5
27B
330
1
100
AcDbSymbolTableRecord
100
AcDbBlockTableRecord
  2
*D18
340
0
  0
ENDTAB
  0
ENDSEC
  0
SECTION
  2
BLOCKS
  0
BLOCK
  5
20
330
1F
100
AcDbEntity
  8
0
100
AcDbBlockBegin
  2
*Model_Space
 70
     0
 10
0.0
 20
0.0
 30
0.0
  3
*Model_Space
  1
*Model_Space
  0
ENDBLK
  5
21
330
1F
100
AcDbEntity
  8
0
100
AcDbBlockEnd
  0
BLOCK
  5
1C
330
1B
100
AcDbEntity
 67
     1
  8
0
100
AcDbBlockBegin
  2
*Paper_Space
 70
     0
 10
0.0
 20
0.0
 30
0.0
  3
*Paper_Space
  1
*Paper_Space
  0
ENDBLK
  5
1D
330
1B
100
AcDbEntity
 67
     1
  8
0
100
AcDbBlockEnd
  0
BLOCK
  5
24
330
23
100
AcDbEntity
  8
0
100
AcDbBlockBegin
  2
*Paper_Space0
 70
     0
 10
0.0
 20
0.0
 30
0.0
  3
*Paper_Space0
  1
*Paper_Space0
  0
ENDBLK
  5
25
330
23
100
AcDbEntity
  8
0
100
AcDbBlockEnd
  0
BLOCK
  5
80
330
7F
100
AcDbEntity
  8
0
100
AcDbBlockBegin
  2
블럭10
 70
     2
 10
0.0
 20
0.0
 30
0.0
  3
블럭10
  1
블럭10
  0
ELLIPSE
  5
82
330
7F
100
AcDbEntity
  8
중심선
100
AcDbEllipse
 10
20.54032771741204
 20
12.0471743016438
 30
0.0
 11
6.600054785286829
 21
-1.261213355974178E-13
 31
0.0
210
0.0
220
0.0
230
1.0
 40
0.636358354079598
 41
0.9219305317359503
 42
6.513795318482858
  0
ELLIPSE
  5
83
330
7F
100
AcDbEntity
  8
중심선
100
AcDbEllipse
 10
20.54032771746488
 20
12.04717430159265
 30
0.0
 11
3.960054785062283
 21
1.540847449632565E-10
 31
0.0
210
0.0
220
0.0
230
1.0
 40
0.3939339440162632
 41
1.131841032648279
 42
5.62031148352944
  0
LINE
  5
84
330
7F
100
AcDbEntity
  8
중심선
100
AcDbLine
 10
2.268634060543552
 20
16.24717430164393
 30
0.0
 11
5.714909304380834
 21
16.24717430164393
 31
0.0
  0
LINE
  5
85
330
7F
100
AcDbEntity
  8
중심선
100
AcDbLine
 10
5.245725140726316
 20
7.84717430164391
 30
0.0
 11
8.692000384563599
 21
7.84717430164391
 31
0.0
  0
LINE
  5
86
330
7F
100
AcDbEntity
  8
중심선
100
AcDbLine
 10
15.74043728645272
 20
16.24717430164393
 30
0.0
 11
8.692000384563599
 21
7.84717430164391
 31
0.0
  0
LINE
  5
87
330
7F
100
AcDbEntity
  8
중심선
100
AcDbLine
 10
0.1404042013395286
 20
13.71084872107135
 30
0.0
 11
3.58671253028996
 21
13.71088815037384
 31
0.0
  0
LINE
  5
88
330
7F
100
AcDbEntity
  8
중심선
100
AcDbLine
 10
2.750260043222114
 20
10.84717430164391
 30
0.0
 11
6.196535287059397
 21
10.84717430164391
 31
0.0
  0
LINE
  5
89
330
7F
100
AcDbEntity
  8
중심선
100
AcDbLine
 10
12.29416204261559
 20
16.24717430164393
 30
0.0
 11
5.245725140726316
 21
7.84717430164391
 31
0.0
  0
LINE
  5
8A
330
7F
100
AcDbEntity
  8
중심선
100
AcDbLine
 10
10.72767329541681
 20
16.24717430164393
 30
0.0
 11
6.196535287059397
 21
10.84717430164391
 31
0.0
  0
LINE
  5
8B
330
7F
100
AcDbEntity
  8
중심선
100
AcDbLine
 10
7.28139805157953
 20
16.24717430164393
 30
0.0
 11
2.750260043222114
 21
10.84717430164391
 31
0.0
  0
LINE
  5
8C
330
7F
100
AcDbEntity
  8
중심선
100
AcDbLine
 10
5.714909304380834
 20
16.24717430164393
 30
0.0
 11
3.58671253028996
 21
13.71088815037384
 31
0.0
  0
LINE
  5
8D
330
7F
100
AcDbEntity
  8
중심선
100
AcDbLine
 10
2.268634060543552
 20
16.24717430164393
 30
0.0
 11
0.1404042013395286
 21
13.71084872107135
 31
0.0
  0
LINE
  5
8E
330
7F
100
AcDbEntity
  8
중심선
100
AcDbLine
 10
7.28139805157953
 20
16.24717430164393
 30
0.0
 11
10.72767329541681
 21
16.24717430164393
 31
0.0
  0
LINE
  5
8F
330
7F
100
AcDbEntity
  8
중심선
100
AcDbLine
 10
12.29416204261559
 20
16.24717430164393
 30
0.0
 11
15.74043728645272
 21
16.24717430164393
 31
0.0
  0
LINE
  5
90
330
7F
100
AcDbEntity
  8
중심선
100
AcDbLine
 10
19.22036997980202
 20
11.08717430171403
 30
0.0
 11
23.66174974927406
 21
11.08717430171406
 31
0.0
  0
LINE
  5
91
330
7F
100
AcDbEntity
  8
중심선
100
AcDbLine
 10
19.22039502424796
 20
13.00717430171391
 30
0.0
 11
19.22036997980202
 21
11.08717430171403
 31
0.0
  0
LINE
  5
92
330
7F
100
AcDbEntity
  8
중심선
100
AcDbLine
 10
19.22039502424796
 20
13.00717430171391
 30
0.0
 11
26.96566020931264
 21
13.00717430171391
 31
0.0
  0
LINE
  5
93
330
7F
100
AcDbEntity
  8
중심선
100
AcDbLine
 10
22.22332737316547
 20
13.45928029700563
 30
0.0
 11
24.52862924686651
 21
15.39360700705356
 31
0.0
  0
ATTDEF
  5
95
330
7F
100
AcDbEntity
  8
FORMAT
 62
     2
100
AcDbText
 10
3.448148490846466
 20
2.075366912832191
 30
0.0
 40
4.233333333333333
  1
EM649908
 41
0.75
  7
SLDTEXTSTYLE0
 11
3.448148490846466
 21
-0.0412997538344756
 31
0.0
100
AcDbAttributeDefinition
  3

  2
AUTOATTR0
 70
     0
 74
     1
  0
ENDBLK
  5
81
330
7F
100
AcDbEntity
  8
0
100
AcDbBlockEnd
  0
BLOCK
  5
D2
330
D1
100
AcDbEntity
  8
0
100
AcDbBlockBegin
  2
_D
 70
     0
 10
0.0
 20
0.0
 30
0.0
  3
_D
  1
_D
  0
SOLID
  5
D4
330
D1
100
AcDbEntity
  8
치수문자_일반주서
100
AcDbTrace
 10
-66.34124999999999
 20
3.969824928723885
 30
0.0
 11
-65.83324999999999
 21
7.271824928723885
 31
0.0
 12
-66.84924999999998
 22
7.271824928723885
 32
0.0
 13
-66.84924999999998
 23
7.271824928723885
 33
0.0
  0
SOLID
  5
D5
330
D1
100
AcDbEntity
  8
치수문자_일반주서
100
AcDbTrace
 10
-66.34124999999999
 20
-3.967675071276101
 30
0.0
 11
-66.84924999999998
 21
-7.269675071276101
 31
0.0
 12
-65.83324999999999
 22
-7.269675071276101
 32
0.0
 13
-65.83324999999999
 23
-7.269675071276101
 33
0.0
  0
LINE
  5
D6
330
D1
100
AcDbEntity
  8
치수문자_일반주서
100
AcDbLine
 10
-53.70624999999998
 20
3.969824928723886
 30
0.0
 11
-67.34124999999999
 21
3.969824928723885
 31
0.0
  0
LINE
  5
D7
330
D1
100
AcDbEntity
  8
치수문자_일반주서
100
AcDbLine
 10
-53.70624999999998
 20
-3.9676750712761
 30
0.0
 11
-67.34124999999999
 21
-3.967675071276101
 31
0.0
  0
LINE
  5
D8
330
D1
100
AcDbEntity
  8
치수문자_일반주서
100
AcDbLine
 10
-66.34124999999999
 20
3.969824928723885
 30
0.0
 11
-66.34124999999999
 21
10.31982492872388
 31
0.0
  0
LINE
  5
D9
330
D1
100
AcDbEntity
  8
치수문자_일반주서
100
AcDbLine
 10
-66.34124999999999
 20
3.969824928723885
 30
0.0
 11
-66.34124999999999
 21
-3.967675071276101
 31
0.0
  0
LINE
  5
DA
330
D1
100
AcDbEntity
  8
치수문자_일반주서
100
AcDbLine
 10
-66.34124999999999
 20
-3.967675071276101
 30
0.0
 11
-66.34124999999999
 21
-10.3176750712761
 31
0.0
  0
MTEXT
  5
DB
330
D1
100
AcDbEntity
  8
치수문자_일반주서
100
AcDbMText
 10
-70.85298708920183
 20
-8.81253953903687
 30
0.0
 40
3.5
 41
0.0
 71
     1
 72
     1
  1
%%c
  7
SLDTEXTSTYLE0
 11
-7.044195017643634E-15
 21
1.0
 31
0.0
 73
     1
 44
1.0
  0
MTEXT
  5
DC
330
D1
100
AcDbEntity
  8
치수문자_일반주서
100
AcDbMText
 10
-70.90645926586173
 20
-3.53410214066279
 30
0.0
 40
3.5
 41
0.0
 71
     1
 72
     1
  1
7.94
  7
SLDTEXTSTYLE0
 11
-7.044195017643634E-15
 21
1.0
 31
0.0
 73
     1
 44
1.0
  0
ENDBLK
  5
D3
330
D1
100
AcDbEntity
  8
0
100
AcDbBlockEnd
  0
BLOCK
  5
E0
330
DF
100
AcDbEntity
  8
0
100
AcDbBlockBegin
  2
_D_1
 70
     0
 10
0.0
 20
0.0
 30
0.0
  3
_D_1
  1
_D_1
  0
SOLID
  5
E2
330
DF
100
AcDbEntity
  8
치수문자_일반주서
100
AcDbTrace
 10
22.70000000000003
 20
29.59571624465812
 30
0.0
 11
19.39800000000003
 21
30.10371624465812
 31
0.0
 12
19.39800000000003
 22
29.08771624465813
 32
0.0
 13
19.39800000000003
 23
29.08771624465813
 33
0.0
  0
SOLID
  5
E3
330
DF
100
AcDbEntity
  8
치수문자_일반주서
100
AcDbTrace
 10
-53.49999999999999
 20
29.59571624465812
 30
0.0
 11
-50.19799999999999
 21
29.08771624465812
 31
0.0
 12
-50.19799999999999
 22
30.10371624465812
 32
0.0
 13
-50.19799999999999
 23
30.10371624465812
 33
0.0
  0
LINE
  5
E4
330
DF
100
AcDbEntity
  8
치수문자_일반주서
100
AcDbLine
 10
-20.81436608182264
 20
40.38859796070085
 30
0.0
 11
-21.52530356738714
 21
40.38859796070086
 31
0.0
  0
LINE
  5
E5
330
DF
100
AcDbEntity
  8
치수문자_일반주서
100
AcDbLine
 10
-21.52530356738714
 20
40.38859796070086
 30
0.0
 11
-21.52530356738718
 21
34.83234796964155
 31
0.0
  0
LINE
  5
E6
330
DF
100
AcDbEntity
  8
치수문자_일반주서
100
AcDbLine
 10
-21.52530356738718
 20
34.83234796964155
 30
0.0
 11
-20.81436608182268
 21
34.83234796964155
 31
0.0
  0
LINE
  5
E7
330
DF
100
AcDbEntity
  8
치수문자_일반주서
100
AcDbLine
 10
-9.985633219685385
 20
40.38859796070077
 30
0.0
 11
-9.274695734120884
 21
40.38859796070076
 31
0.0
  0
LINE
  5
E8
330
DF
100
AcDbEntity
  8
치수문자_일반주서
100
AcDbLine
 10
-9.274695734120884
 20
40.38859796070076
 30
0.0
 11
-9.274695734120925
 21
34.83234796964146
 31
0.0
  0
LINE
  5
E9
330
DF
100
AcDbEntity
  8
치수문자_일반주서
100
AcDbLine
 10
-9.274695734120925
 20
34.83234796964146
 30
0.0
 11
-9.985633219685425
 21
34.83234796964147
 31
0.0
  0
LINE
  5
EA
330
DF
100
AcDbEntity
  8
치수문자_일반주서
100
AcDbLine
 10
22.70000000000003
 20
3.439386346532308
 30
0.0
 11
22.70000000000003
 21
30.59571624465812
 31
0.0
  0
LINE
  5
EB
330
DF
100
AcDbEntity
  8
치수문자_일반주서
100
AcDbLine
 10
-53.49999999999999
 20
4.176074928723895
 30
0.0
 11
-53.49999999999999
 21
30.59571624465812
 31
0.0
  0
LINE
  5
EC
330
DF
100
AcDbEntity
  8
치수문자_일반주서
100
AcDbLine
 10
22.70000000000003
 20
29.59571624465812
 30
0.0
 11
-53.49999999999999
 21
29.59571624465812
 31
0.0
  0
MTEXT
  5
ED
330
DF
100
AcDbEntity
  8
치수문자_일반주서
100
AcDbMText
 10
-22.03906229287388
 20
34.16092551051985
 30
0.0
 40
3.5
 41
0.0
 71
     1
 72
     1
  1

  7
SLDTEXTSTYLE0
 73
     1
 44
1.0
  0
MTEXT
  5
EE
330
DF
100
AcDbEntity
  8
치수문자_일반주서
100
AcDbMText
 10
-19.92569418121128
 20
39.34408488422044
 30
0.0
 40
3.5
 41
0.0
 71
     1
 72
     1
  1
3.00
  7
SLDTEXTSTYLE0
 73
     1
 44
1.0
  0
MTEXT
  5
EF
330
DF
100
AcDbEntity
  8
치수문자_일반주서
100
AcDbMText
 10
-21.21874989438804
 20
34.10745333385998
 30
0.0
 40
3.5
 41
0.0
 71
     1
 72
     1
  1
76.20
  7
SLDTEXTSTYLE0
 73
     1
 44
1.0
  0
MTEXT
  5
F0
330
DF
100
AcDbEntity
  8
치수문자_일반주서
100
AcDbMText
 10
-7.428992488980318
 20
34.16092551051974
 30
0.0
 40
3.5
 41
0.0
 71
     1
 72
     1
  1

  7
SLDTEXTSTYLE0
 73
     1
 44
1.0
  0
ENDBLK
  5
E1
330
DF
100
AcDbEntity
  8
0
100
AcDbBlockEnd
  0
BLOCK
  5
F4
330
F3
100
AcDbEntity
  8
0
100
AcDbBlockBegin
  2
_D_2
 70
     0
 10
0.0
 20
0.0
 30
0.0
  3
_D_2
  1
_D_2
  0
SOLID
  5
F6
330
F3
100
AcDbEntity
  8
치수문자_일반주서
100
AcDbTrace
 10
22.70000000000006
 20
12.73415034573505
 30
0.0
 11
26.00200000000006
 21
12.22615034573504
 31
0.0
 12
26.00200000000006
 22
13.24215034573504
 32
0.0
 13
26.00200000000006
 23
13.24215034573504
 33
0.0
  0
SOLID
  5
F7
330
F3
100
AcDbEntity
  8
치수문자_일반주서
100
AcDbTrace
 10
2.062500000000059
 20
12.73415034573511
 30
0.0
 11
-1.239499999999939
 21
13.24215034573512
 31
0.0
 12
-1.239499999999942
 22
12.22615034573511
 32
0.0
 13
-1.239499999999942
 23
12.22615034573511
 33
0.0
  0
LINE
  5
F8
330
F3
100
AcDbEntity
  8
치수문자_일반주서
100
AcDbLine
 10
6.966883918177389
 20
23.52703206177781
 30
0.0
 11
6.255946432612888
 21
23.52703206177782
 31
0.0
  0
LINE
  5
F9
330
F3
100
AcDbEntity
  8
치수문자_일반주서
100
AcDbLine
 10
6.255946432612888
 20
23.52703206177782
 30
0.0
 11
6.255946432612833
 21
17.97078207071851
 31
0.0
  0
LINE
  5
FA
330
F3
100
AcDbEntity
  8
치수문자_일반주서
100
AcDbLine
 10
6.255946432612833
 20
17.97078207071851
 30
0.0
 11
6.966883918177333
 21
17.97078207071851
 31
0.0
  0
LINE
  5
FB
330
F3
100
AcDbEntity
  8
치수문자_일반주서
100
AcDbLine
 10
17.79561678031465
 20
23.5270320617777
 30
0.0
 11
18.50655426587915
 21
23.5270320617777
 31
0.0
  0
LINE
  5
FC
330
F3
100
AcDbEntity
  8
치수문자_일반주서
100
AcDbLine
 10
18.50655426587915
 20
23.5270320617777
 30
0.0
 11
18.50655426587909
 21
17.97078207071839
 31
0.0
  0
LINE
  5
FD
330
F3
100
AcDbEntity
  8
치수문자_일반주서
100
AcDbLine
 10
18.50655426587909
 20
17.97078207071839
 30
0.0
 11
17.79561678031459
 21
17.9707820707184
 31
0.0
  0
LINE
  5
FE
330
F3
100
AcDbEntity
  8
치수문자_일반주서
100
AcDbLine
 10
22.70000000000003
 20
3.439386346532308
 30
0.0
 11
22.70000000000006
 21
13.73415034573505
 31
0.0
  0
LINE
  5
FF
330
F3
100
AcDbEntity
  8
치수문자_일반주서
100
AcDbLine
 10
2.062500000000039
 20
4.964137866546282
 30
0.0
 11
2.062500000000062
 21
13.7341503457351
 31
0.0
  0
LINE
  5
100
330
F3
100
AcDbEntity
  8
치수문자_일반주서
100
AcDbLine
 10
22.70000000000006
 20
12.73415034573505
 30
0.0
 11
29.05000000000006
 21
12.73415034573504
 31
0.0
  0
LINE
  5
101
330
F3
100
AcDbEntity
  8
치수문자_일반주서
100
AcDbLine
 10
22.70000000000006
 20
12.73415034573505
 30
0.0
 11
2.062500000000059
 21
12.73415034573511
 31
0.0
  0
LINE
  5
102
330
F3
100
AcDbEntity
  8
치수문자_일반주서
100
AcDbLine
 10
2.062500000000059
 20
12.73415034573511
 30
0.0
 11
-4.287499999999941
 21
12.73415034573512
 31
0.0
  0
MTEXT
  5
103
330
F3
100
AcDbEntity
  8
치수문자_일반주서
100
AcDbMText
 10
5.742187707126131
 20
17.2993596115968
 30
0.0
 40
3.5
 41
0.0
 71
     1
 72
     1
  1

  7
SLDTEXTSTYLE0
 73
     1
 44
1.0
  0
MTEXT
  5
104
330
F3
100
AcDbEntity
  8
치수문자_일반주서
100
AcDbMText
 10
7.855555818788749
 20
22.48251898529739
 30
0.0
 40
3.5
 41
0.0
 71
     1
 72
     1
  1
0.81
  7
SLDTEXTSTYLE0
 73
     1
 44
1.0
  0
MTEXT
  5
105
330
F3
100
AcDbEntity
  8
치수문자_일반주서
100
AcDbMText
 10
6.562500105611972
 20
17.24588743493693
 30
0.0
 40
3.5
 41
0.0
 71
     1
 72
     1
  1
20.64
  7
SLDTEXTSTYLE0
 73
     1
 44
1.0
  0
MTEXT
  5
106
330
F3
100
AcDbEntity
  8
치수문자_일반주서
100
AcDbMText
 10
20.3522575110197
 20
17.29935961159665
 30
0.0
 40
3.5
 41
0.0
 71
     1
 72
     1
  1

  7
SLDTEXTSTYLE0
 73
     1
 44
1.0
  0
ENDBLK
  5
F5
330
F3
100
AcDbEntity
  8
0
100
AcDbBlockEnd
  0
BLOCK
  5
10A
330
109
100
AcDbEntity
  8
0
100
AcDbBlockBegin
  2
_D_3
 70
     0
 10
0.0
 20
0.0
 30
0.0
  3
_D_3
  1
_D_3
  0
SOLID
  5
10C
330
109
100
AcDbEntity
  8
치수문자_일반주서
100
AcDbTrace
 10
40.14107629384317
 20
3.969824928723895
 30
0.0
 11
39.63307629384317
 21
0.6678249287238955
 31
0.0
 12
40.64907629384317
 22
0.6678249287238955
 32
0.0
 13
40.64907629384317
 23
0.6678249287238955
 33
0.0
  0
SOLID
  5
10D
330
109
100
AcDbEntity
  8
치수문자_일반주서
100
AcDbTrace
 10
40.14107629384317
 20
-3.967675071276112
 30
0.0
 11
40.64907629384317
 21
-0.6656750712761124
 31
0.0
 12
39.63307629384317
 22
-0.6656750712761124
 32
0.0
 13
39.63307629384317
 23
-0.6656750712761124
 33
0.0
  0
LINE
  5
10E
330
109
100
AcDbEntity
  8
치수문자_일반주서
100
AcDbLine
 10
29.34819457780045
 20
6.862645431786015
 30
0.0
 11
29.34819457780045
 21
6.151707946221515
 31
0.0
  0
LINE
  5
10F
330
109
100
AcDbEntity
  8
치수문자_일반주서
100
AcDbLine
 10
29.34819457780045
 20
6.151707946221515
 30
0.0
 11
34.90444456885976
 21
6.151707946221554
 31
0.0
  0
LINE
  5
110
330
109
100
AcDbEntity
  8
치수문자_일반주서
100
AcDbLine
 10
34.90444456885976
 20
6.151707946221554
 30
0.0
 11
34.90444456885975
 21
6.862645431786055
 31
0.0
  0
LINE
  5
111
330
109
100
AcDbEntity
  8
치수문자_일반주서
100
AcDbLine
 10
29.34819457780037
 20
17.69137829392328
 30
0.0
 11
29.34819457780036
 21
18.40231577948778
 31
0.0
  0
LINE
  5
112
330
109
100
AcDbEntity
  8
치수문자_일반주서
100
AcDbLine
 10
29.34819457780036
 20
18.40231577948778
 30
0.0
 11
34.90444456885967
 21
18.40231577948781
 31
0.0
  0
LINE
  5
113
330
109
100
AcDbEntity
  8
치수문자_일반주서
100
AcDbLine
 10
34.90444456885967
 20
18.40231577948781
 30
0.0
 11
34.90444456885967
 21
17.69137829392331
 31
0.0
  0
LINE
  5
114
330
109
100
AcDbEntity
  8
치수문자_일반주서
100
AcDbLine
 10
15.91112627813402
 20
3.969824928723896
 30
0.0
 11
41.14107629384317
 21
3.969824928723895
 31
0.0
  0
LINE
  5
115
330
109
100
AcDbEntity
  8
치수문자_일반주서
100
AcDbLine
 10
15.91112627813402
 20
-3.96767507127611
 30
0.0
 11
41.14107629384317
 21
-3.967675071276112
 31
0.0
  0
LINE
  5
116
330
109
100
AcDbEntity
  8
치수문자_일반주서
100
AcDbLine
 10
40.14107629384317
 20
3.969824928723895
 30
0.0
 11
40.14107629384317
 21
19.44192555816032
 31
0.0
  0
LINE
  5
117
330
109
100
AcDbEntity
  8
치수문자_일반주서
100
AcDbLine
 10
40.14107629384317
 20
3.969824928723895
 30
0.0
 11
40.14107629384317
 21
-3.967675071276112
 31
0.0
  0
MTEXT
  5
118
330
109
100
AcDbEntity
  8
치수문자_일반주서
100
AcDbMText
 10
30.39270765428085
 20
7.751317332397393
 30
0.0
 40
3.5
 41
0.0
 71
     1
 72
     1
  1
0.31
  7
SLDTEXTSTYLE0
 11
-7.044195017643634E-15
 21
1.0
 31
0.0
 73
     1
 44
1.0
  0
MTEXT
  5
119
330
109
100
AcDbEntity
  8
치수문자_일반주서
100
AcDbMText
 10
35.62933920464133
 20
5.112098167549101
 30
0.0
 40
3.5
 41
0.0
 71
     1
 72
     1
  1
%%c
  7
SLDTEXTSTYLE0
 11
-7.044195017643634E-15
 21
1.0
 31
0.0
 73
     1
 44
1.0
  0
MTEXT
  5
11A
330
109
100
AcDbEntity
  8
치수문자_일반주서
100
AcDbMText
 10
35.62933920464129
 20
10.39053556592318
 30
0.0
 40
3.5
 41
0.0
 71
     1
 72
     1
  1
7.94
  7
SLDTEXTSTYLE0
 11
-7.044195017643634E-15
 21
1.0
 31
0.0
 73
     1
 44
1.0
  0
ENDBLK
  5
10B
330
109
100
AcDbEntity
  8
0
100
AcDbBlockEnd
  0
BLOCK
  5
123
330
122
100
AcDbEntity
  8
0
100
AcDbBlockBegin
  2
SW_DOWELSYMBOL_0
 70
     0
 10
0.0
 20
0.0
 30
0.0
  3
SW_DOWELSYMBOL_0
  1
SW_DOWELSYMBOL_0
  0
CIRCLE
  5
125
330
122
100
AcDbEntity
  8
해칭선
 62
     0
100
AcDbCircle
 10
0.0
 20
0.0
 30
0.0
 40
3.000000000000001
  0
HATCH
  5
126
330
122
100
AcDbEntity
  8
0
  6
Continuous
 62
     0
370
     0
100
AcDbHatch
 10
0.0
 20
0.0
 30
0.0
210
0.0
220
0.0
230
1.0
  2
SOLID
 70
     1
 71
     0
 91
        1
 92
        0
 93
        3
 72
     2
 10
0.0
 20
0.0
 40
3.000000000000001
 50
0.0
 51
90.0
 73
     1
 72
     1
 10
0.0
 20
3.000000000000001
 11
0.0
 21
0.0
 72
     1
 10
0.0
 20
0.0
 11
3.000000000000001
 21
0.0
 97
        0
 75
     0
 76
     1
 98
        1
 10
0.0
 20
0.0
  0
HATCH
  5
127
330
122
100
AcDbEntity
  8
0
  6
Continuous
 62
     0
370
     0
100
AcDbHatch
 10
0.0
 20
0.0
 30
0.0
210
0.0
220
0.0
230
1.0
  2
SOLID
 70
     1
 71
     0
 91
        1
 92
        0
 93
        3
 72
     2
 10
0.0
 20
0.0
 40
3.000000000000001
 50
180.0
 51
270.0000000000008
 73
     1
 72
     1
 10
0.0
 20
-3.000000000000001
 11
0.0
 21
0.0
 72
     1
 10
0.0
 20
0.0
 11
-3.000000000000001
 21
0.0
 97
        0
 75
     0
 76
     1
 98
        1
 10
0.0
 20
0.0
  0
ENDBLK
  5
124
330
122
100
AcDbEntity
  8
0
100
AcDbBlockEnd
  0
BLOCK
  5
1A7
330
1A6
100
AcDbEntity
  8
0
100
AcDbBlockBegin
  2
*D8
 70
     1
 10
0.0
 20
0.0
 30
0.0
  3
*D8
  1
*D8
  0
LINE
  5
1A8
330
1A6
100
AcDbEntity
  8
0
  6
Continuous
 62
     0
370
    -2
100
AcDbLine
 10
17.94750000000005
 20
40.33555947730691
 30
0.0
 11
4.37500000000003
 21
40.33555947730686
 31
0.0
  0
LINE
  5
1A9
330
1A6
100
AcDbEntity
  8
0
  6
Continuous
 62
     0
370
    -2
100
AcDbLine
 10
17.94750000000005
 20
32.39805947730692
 30
0.0
 11
4.375000000000058
 21
32.39805947730687
 31
0.0
  0
LINE
  5
1AA
330
1A6
100
AcDbEntity
  8
0
  6
Continuous
 62
     0
370
    -2
100
AcDbLine
 10
4.375000000000019
 20
43.63755947730686
 30
0.0
 11
4.375000000000007
 21
46.93955947730686
 31
0.0
  0
LINE
  5
1AB
330
1A6
100
AcDbEntity
  8
0
  6
Continuous
 62
     0
370
    -2
100
AcDbLine
 10
4.375000000000069
 20
29.09605947730687
 30
0.0
 11
4.375000000000081
 21
25.79405947730687
 31
0.0
  0
SOLID
  5
1AC
330
1A6
100
AcDbEntity
  8
0
 62
     0
100
AcDbTrace
 10
3.824666666666686
 20
43.63755947730686
 30
0.0
 11
4.925333333333352
 21
43.63755947730686
 31
0.0
 12
4.37500000000003
 22
40.33555947730686
 32
0.0
 13
4.37500000000003
 23
40.33555947730686
 33
0.0
  0
SOLID
  5
1AD
330
1A6
100
AcDbEntity
  8
0
 62
     0
100
AcDbTrace
 10
4.925333333333403
 20
29.09605947730688
 30
0.0
 11
3.824666666666736
 21
29.09605947730687
 31
0.0
 12
4.375000000000058
 22
32.39805947730687
 32
0.0
 13
4.375000000000058
 23
32.39805947730687
 33
0.0
  0
MTEXT
  5
1AE
330
1A6
100
AcDbEntity
  8
0
 62
     0
370
    15
100
AcDbMText
 10
0.0000000000000497
 20
34.71810870485176
 30
0.0
 40
3.5
 41
0.0
 71
     2
 72
     1
  1
\A1;%%c7.94 [5/16]
  7
SLDTEXTSTYLE0
 11
-3.468791308435141E-15
 21
1.0
 31
0.0
 73
     1
 44
1.0
  0
POINT
  5
1AF
330
1A6
100
AcDbEntity
  8
Defpoints
 62
     0
100
AcDbPoint
 10
18.01000000000005
 20
40.33555947730691
 30
0.0
  0
POINT
  5
1B0
330
1A6
100
AcDbEntity
  8
Defpoints
 62
     0
100
AcDbPoint
 10
18.01000000000005
 20
32.39805947730692
 30
0.0
  0
POINT
  5
1B1
330
1A6
100
AcDbEntity
  8
Defpoints
 62
     0
100
AcDbPoint
 10
4.375000000000057
 20
32.39805947730687
 30
0.0
  0
ENDBLK
  5
1B2
330
1A6
100
AcDbEntity
  8
0
100
AcDbBlockEnd
  0
BLOCK
  5
1B5
330
1B4
100
AcDbEntity
  8
0
100
AcDbBlockBegin
  2
*D9
 70
     1
 10
0.0
 20
0.0
 30
0.0
  3
*D9
  1
*D9
  0
LINE
  5
1B6
330
1B4
100
AcDbEntity
  8
0
  6
Continuous
 62
     0
370
    -2
100
AcDbLine
 10
93.41625000000005
 20
40.39805947730692
 30
0.0
 11
93.41625000000005
 21
66.96105748467878
 31
0.0
  0
LINE
  5
1B7
330
1B4
100
AcDbEntity
  8
0
  6
Continuous
 62
     0
370
    -2
100
AcDbLine
 10
17.21625000000005
 20
39.60430947730691
 30
0.0
 11
17.21625000000005
 21
66.96105748467878
 31
0.0
  0
LINE
  5
1B8
330
1B4
100
AcDbEntity
  8
0
  6
Continuous
 62
     0
370
    -2
100
AcDbLine
 10
90.11425000000006
 20
66.96105748467878
 30
0.0
 11
20.51825000000005
 21
66.96105748467878
 31
0.0
  0
SOLID
  5
1B9
330
1B4
100
AcDbEntity
  8
0
 62
     0
100
AcDbTrace
 10
90.11425000000006
 20
66.41072415134545
 30
0.0
 11
90.11425000000006
 21
67.5113908180121
 31
0.0
 12
93.41625000000005
 22
66.96105748467878
 32
0.0
 13
93.41625000000005
 23
66.96105748467878
 33
0.0
  0
SOLID
  5
1BA
330
1B4
100
AcDbEntity
  8
0
 62
     0
100
AcDbTrace
 10
20.51825000000005
 20
67.5113908180121
 30
0.0
 11
20.51825000000005
 21
66.41072415134545
 31
0.0
 12
17.21625000000005
 22
66.96105748467878
 32
0.0
 13
17.21625000000005
 23
66.96105748467878
 33
0.0
  0
MTEXT
  5
1BB
330
1B4
100
AcDbEntity
  8
0
 62
     0
370
    15
100
AcDbMText
 10
55.31625000000006
 20
71.33605748467878
 30
0.0
 40
3.5
 41
0.0
 71
     2
 72
     1
  1
\A1;76.20 [3]
  7
SLDTEXTSTYLE0
 73
     1
 44
1.0
  0
POINT
  5
1BC
330
1B4
100
AcDbEntity
  8
Defpoints
 62
     0
100
AcDbPoint
 10
93.41625000000005
 20
40.33555947730692
 30
0.0
  0
POINT
  5
1BD
330
1B4
100
AcDbEntity
  8
Defpoints
 62
     0
100
AcDbPoint
 10
17.21625000000005
 20
39.54180947730691
 30
0.0
  0
POINT
  5
1BE
330
1B4
100
AcDbEntity
  8
Defpoints
 62
     0
100
AcDbPoint
 10
17.21625000000005
 20
66.96105748467878
 30
0.0
  0
ENDBLK
  5
1BF
330
1B4
100
AcDbEntity
  8
0
100
AcDbBlockEnd
  0
BLOCK
  5
1C2
330
1C1
100
AcDbEntity
  8
0
100
AcDbBlockBegin
  2
*D10
 70
     1
 10
0.0
 20
0.0
 30
0.0
  3
*D10
  1
*D10
  0
LINE
  5
1C3
330
1C1
100
AcDbEntity
  8
0
  6
Continuous
 62
     0
370
    -2
100
AcDbLine
 10
93.41625000000005
 20
40.39805947730692
 30
0.0
 11
93.41625000000005
 21
50.09949158575567
 31
0.0
  0
LINE
  5
1C4
330
1C1
100
AcDbEntity
  8
0
  6
Continuous
 62
     0
370
    -2
100
AcDbLine
 10
72.77875000000006
 20
40.3923724151293
 30
0.0
 11
72.77875000000006
 21
50.09949158575567
 31
0.0
  0
LINE
  5
1C5
330
1C1
100
AcDbEntity
  8
0
  6
Continuous
 62
     0
370
    -2
100
AcDbLine
 10
72.77875000000006
 20
50.09949158575567
 30
0.0
 11
40.16425000000005
 21
50.09949158575567
 31
0.0
  0
LINE
  5
1C6
330
1C1
100
AcDbEntity
  8
0
  6
Continuous
 62
     0
370
    -2
100
AcDbLine
 10
90.11425000000006
 20
50.09949158575567
 30
0.0
 11
76.08075000000005
 21
50.09949158575567
 31
0.0
  0
SOLID
  5
1C7
330
1C1
100
AcDbEntity
  8
0
 62
     0
100
AcDbTrace
 10
90.11425000000006
 20
49.54915825242234
 30
0.0
 11
90.11425000000006
 21
50.64982491908901
 31
0.0
 12
93.41625000000005
 22
50.09949158575567
 32
0.0
 13
93.41625000000005
 23
50.09949158575567
 33
0.0
  0
SOLID
  5
1C8
330
1C1
100
AcDbEntity
  8
0
 62
     0
100
AcDbTrace
 10
76.08075000000005
 20
50.64982491908901
 30
0.0
 11
76.08075000000005
 21
49.54915825242234
 31
0.0
 12
72.77875000000006
 22
50.09949158575567
 32
0.0
 13
72.77875000000006
 23
50.09949158575567
 33
0.0
  0
MTEXT
  5
1C9
330
1C1
100
AcDbEntity
  8
0
 62
     0
370
    15
100
AcDbMText
 10
54.82050000000005
 20
54.47449158575567
 30
0.0
 40
3.5
 41
0.0
 71
     2
 72
     1
  1
\A1;20.64 [13/16]
  7
SLDTEXTSTYLE0
 73
     1
 44
1.0
  0
POINT
  5
1CA
330
1C1
100
AcDbEntity
  8
Defpoints
 62
     0
100
AcDbPoint
 10
93.41625000000005
 20
40.33555947730692
 30
0.0
  0
POINT
  5
1CB
330
1C1
100
AcDbEntity
  8
Defpoints
 62
     0
100
AcDbPoint
 10
72.77875000000006
 20
40.3298724151293
 30
0.0
  0
POINT
  5
1CC
330
1C1
100
AcDbEntity
  8
Defpoints
 62
     0
100
AcDbPoint
 10
72.77875000000006
 20
50.09949158575567
 30
0.0
  0
ENDBLK
  5
1CD
330
1C1
100
AcDbEntity
  8
0
100
AcDbBlockEnd
  0
BLOCK
  5
1D0
330
1CF
100
AcDbEntity
  8
0
100
AcDbBlockBegin
  2
*D11
 70
     1
 10
0.0
 20
0.0
 30
0.0
  3
*D11
  1
*D11
  0
LINE
  5
1D1
330
1CF
100
AcDbEntity
  8
0
  6
Continuous
 62
     0
370
    -2
100
AcDbLine
 10
93.47875000000005
 20
40.33555947730692
 30
0.0
 11
110.8573262938432
 21
40.33555947730698
 31
0.0
  0
LINE
  5
1D2
330
1CF
100
AcDbEntity
  8
0
  6
Continuous
 62
     0
370
    -2
100
AcDbLine
 10
93.47875000000005
 20
32.39805947730694
 30
0.0
 11
110.8573262938432
 21
32.398059477307
 31
0.0
  0
LINE
  5
1D3
330
1CF
100
AcDbEntity
  8
0
  6
Continuous
 62
     0
370
    -2
100
AcDbLine
 10
110.8573262938432
 20
40.33555947730698
 30
0.0
 11
110.8573262938431
 21
74.939559477307
 31
0.0
  0
LINE
  5
1D4
330
1CF
100
AcDbEntity
  8
0
  6
Continuous
 62
     0
370
    -2
100
AcDbLine
 10
110.8573262938432
 20
43.63755947730698
 30
0.0
 11
110.8573262938432
 21
46.93955947730698
 31
0.0
  0
LINE
  5
1D5
330
1CF
100
AcDbEntity
  8
0
  6
Continuous
 62
     0
370
    -2
100
AcDbLine
 10
110.8573262938432
 20
29.096059477307
 30
0.0
 11
110.8573262938433
 21
25.794059477307
 31
0.0
  0
SOLID
  5
1D6
330
1CF
100
AcDbEntity
  8
0
 62
     0
100
AcDbTrace
 10
110.3069929605099
 20
43.63755947730698
 30
0.0
 11
111.4076596271765
 21
43.63755947730698
 31
0.0
 12
110.8573262938432
 22
40.33555947730698
 32
0.0
 13
110.8573262938432
 23
40.33555947730698
 33
0.0
  0
SOLID
  5
1D7
330
1CF
100
AcDbEntity
  8
0
 62
     0
100
AcDbTrace
 10
111.4076596271766
 20
29.096059477307
 30
0.0
 11
110.3069929605099
 21
29.096059477307
 31
0.0
 12
110.8573262938432
 22
32.398059477307
 32
0.0
 13
110.8573262938432
 23
32.398059477307
 33
0.0
  0
MTEXT
  5
1D8
330
1CF
100
AcDbEntity
  8
0
 62
     0
370
    15
100
AcDbMText
 10
106.4823262938431
 20
60.93955947730699
 30
0.0
 40
3.5
 41
0.0
 71
     2
 72
     1
  1
\A1;%%c7.94 [5/16]
  7
SLDTEXTSTYLE0
 11
-3.580687802255632E-15
 21
1.0
 31
0.0
 73
     1
 44
1.0
  0
POINT
  5
1D9
330
1CF
100
AcDbEntity
  8
Defpoints
 62
     0
100
AcDbPoint
 10
93.41625000000005
 20
40.33555947730692
 30
0.0
  0
POINT
  5
1DA
330
1CF
100
AcDbEntity
  8
Defpoints
 62
     0
100
AcDbPoint
 10
93.41625000000005
 20
32.39805947730694
 30
0.0
  0
POINT
  5
1DB
330
1CF
100
AcDbEntity
  8
Defpoints
 62
     0
100
AcDbPoint
 10
110.8573262938432
 20
32.398059477307
 30
0.0
  0
ENDBLK
  5
1DC
330
1CF
100
AcDbEntity
  8
0
100
AcDbBlockEnd
  0
BLOCK
  5
1EC
330
1EB
100
AcDbEntity
  8
0
100
AcDbBlockBegin
  2
*D12
 70
     1
 10
0.0
 20
0.0
 30
0.0
  3
*D12
  1
*D12
  0
LINE
  5
1ED
330
1EB
100
AcDbEntity
  8
0
  6
Continuous
 62
     0
370
    -2
100
AcDbLine
 10
94.18682882882648
 20
29.39611232924108
 30
0.0
 11
106.1561412642439
 21
-0.0000000000000338
 31
0.0
  0
MTEXT
  5
1EE
330
1EB
100
AcDbEntity
  8
0
 62
     0
370
    15
100
AcDbMText
 10
103.225286451571
 20
14.15886883297994
 30
0.0
 40
3.5
 41
0.0
 71
     5
 72
     1
  1
\A1;R.76 [R0.030]
  7
SLDTEXTSTYLE0
 11
0.377110932289968
 21
-0.9261680974571469
 31
0.0
 73
     1
 44
1.0
  0
LINE
  5
1EF
330
1EB
100
AcDbEntity
  8
0
  6
Continuous
 62
     0
370
    -2
100
AcDbLine
 10
92.65425000000005
 20
33.16005947730693
 30
0.0
 11
92.941608530405
 21
32.45431938704458
 31
0.0
  0
SOLID
  5
1F0
330
1EB
100
AcDbEntity
  8
0
 62
     0
100
AcDbTrace
 10
94.69653000512706
 20
29.60364904564466
 30
0.0
 11
93.6771276525259
 21
29.1885756128375
 31
0.0
 12
92.941608530405
 22
32.45431938704458
 32
0.0
 13
92.941608530405
 23
32.45431938704458
 33
0.0
  0
POINT
  5
1F1
330
1EB
100
AcDbEntity
  8
Defpoints
 62
     0
100
AcDbPoint
 10
92.941608530405
 20
32.45431938704458
 30
0.0
  0
POINT
  5
1F2
330
1EB
100
AcDbEntity
  8
Defpoints
 62
     0
100
AcDbPoint
 10
92.65425000000005
 20
33.16005947730693
 30
0.0
  0
ENDBLK
  5
1F3
330
1EB
100
AcDbEntity
  8
0
100
AcDbBlockEnd
  0
BLOCK
  5
235
330
234
100
AcDbEntity
  8
0
100
AcDbBlockBegin
  2
*D13
 70
     1
 10
0.0
 20
0.0
 30
0.0
  3
*D13
  1
*D13
  0
LINE
  5
237
330
234
100
AcDbEntity
  8
0
  6
Continuous
 62
     0
370
    -2
100
AcDbLine
 10
-44.83125000000001
 20
3.969824928723888
 30
0.0
 11
-58.40375000000005
 21
3.969824928723838
 31
0.0
  0
LINE
  5
238
330
234
100
AcDbEntity
  8
0
  6
Continuous
 62
     0
370
    -2
100
AcDbLine
 10
-44.83125000000001
 20
-3.967675071276098
 30
0.0
 11
-58.40375000000002
 21
-3.967675071276148
 31
0.0
  0
LINE
  5
239
330
234
100
AcDbEntity
  8
0
  6
Continuous
 62
     0
370
    -2
100
AcDbLine
 10
-58.40375000000007
 20
7.271824928723838
 30
0.0
 11
-58.40375000000008
 21
10.57382492872384
 31
0.0
  0
LINE
  5
23A
330
234
100
AcDbEntity
  8
0
  6
Continuous
 62
     0
370
    -2
100
AcDbLine
 10
-58.40375000000001
 20
-7.269675071276147
 30
0.0
 11
-58.40375
 21
-10.57167507127615
 31
0.0
  0
SOLID
  5
23B
330
234
100
AcDbEntity
  8
0
 62
     0
100
AcDbTrace
 10
-58.9540833333334
 20
7.271824928723836
 30
0.0
 11
-57.85341666666673
 21
7.27182492872384
 31
0.0
 12
-58.40375000000005
 22
3.969824928723838
 32
0.0
 13
-58.40375000000005
 23
3.969824928723838
 33
0.0
  0
SOLID
  5
23C
330
234
100
AcDbEntity
  8
0
 62
     0
100
AcDbTrace
 10
-57.85341666666667
 20
-7.269675071276145
 30
0.0
 11
-58.95408333333334
 21
-7.269675071276149
 31
0.0
 12
-58.40375000000002
 22
-3.967675071276148
 32
0.0
 13
-58.40375000000002
 23
-3.967675071276148
 33
0.0
  0
MTEXT
  5
23D
330
234
100
AcDbEntity
  8
0
 62
     0
370
    15
100
AcDbMText
 10
-62.77875000000003
 20
-1.647625843731264
 30
0.0
 40
3.5
 41
0.0
 71
     2
 72
     1
  1
\A1;%%c7.94 [5/16]
  7
SLDTEXTSTYLE0
 11
-3.580687802255629E-15
 21
1.0
 31
0.0
 73
     1
 44
1.0
  0
POINT
  5
23E
330
234
100
AcDbEntity
  8
Defpoints
 62
     0
100
AcDbPoint
 10
-44.76875000000001
 20
3.969824928723888
 30
0.0
  0
POINT
  5
23F
330
234
100
AcDbEntity
  8
Defpoints
 62
     0
100
AcDbPoint
 10
-44.76875000000001
 20
-3.967675071276098
 30
0.0
  0
POINT
  5
240
330
234
100
AcDbEntity
  8
Defpoints
 62
     0
100
AcDbPoint
 10
-58.40375000000002
 20
-3.967675071276149
 30
0.0
  0
ENDBLK
  5
236
330
234
100
AcDbEntity
  8
0
100
AcDbBlockEnd
  0
BLOCK
  5
242
330
241
100
AcDbEntity
  8
0
100
AcDbBlockBegin
  2
*D14
 70
     1
 10
0.0
 20
0.0
 30
0.0
  3
*D14
  1
*D14
  0
LINE
  5
244
330
241
100
AcDbEntity
  8
0
  6
Continuous
 62
     0
370
    -2
100
AcDbLine
 10
30.63749999999999
 20
4.032324928723895
 30
0.0
 11
30.63749999999999
 21
30.59532293609576
 31
0.0
  0
LINE
  5
245
330
241
100
AcDbEntity
  8
0
  6
Continuous
 62
     0
370
    -2
100
AcDbLine
 10
-45.56250000000003
 20
3.238574928723892
 30
0.0
 11
-45.56250000000003
 21
30.59532293609576
 31
0.0
  0
LINE
  5
246
330
241
100
AcDbEntity
  8
0
  6
Continuous
 62
     0
370
    -2
100
AcDbLine
 10
27.33549999999999
 20
30.59532293609576
 30
0.0
 11
-42.26050000000003
 21
30.59532293609576
 31
0.0
  0
SOLID
  5
247
330
241
100
AcDbEntity
  8
0
 62
     0
100
AcDbTrace
 10
27.33549999999999
 20
30.04498960276242
 30
0.0
 11
27.33549999999999
 21
31.14565626942909
 31
0.0
 12
30.63749999999999
 22
30.59532293609576
 32
0.0
 13
30.63749999999999
 23
30.59532293609576
 33
0.0
  0
SOLID
  5
248
330
241
100
AcDbEntity
  8
0
 62
     0
100
AcDbTrace
 10
-42.26050000000003
 20
31.14565626942909
 30
0.0
 11
-42.26050000000003
 21
30.04498960276242
 31
0.0
 12
-45.56250000000003
 22
30.59532293609576
 32
0.0
 13
-45.56250000000003
 23
30.59532293609576
 33
0.0
  0
MTEXT
  5
249
330
241
100
AcDbEntity
  8
0
 62
     0
370
    15
100
AcDbMText
 10
-7.462500000000006
 20
34.97032293609576
 30
0.0
 40
3.5
 41
0.0
 71
     2
 72
     1
  1
\A1;76.20 [3]
  7
SLDTEXTSTYLE0
 73
     1
 44
1.0
  0
POINT
  5
24A
330
241
100
AcDbEntity
  8
Defpoints
 62
     0
100
AcDbPoint
 10
30.63749999999999
 20
3.969824928723895
 30
0.0
  0
POINT
  5
24B
330
241
100
AcDbEntity
  8
Defpoints
 62
     0
100
AcDbPoint
 10
-45.56250000000003
 20
3.176074928723892
 30
0.0
  0
POINT
  5
24C
330
241
100
AcDbEntity
  8
Defpoints
 62
     0
100
AcDbPoint
 10
-45.56250000000003
 20
30.59532293609576
 30
0.0
  0
ENDBLK
  5
243
330
241
100
AcDbEntity
  8
0
100
AcDbBlockEnd
  0
BLOCK
  5
24E
330
24D
100
AcDbEntity
  8
0
100
AcDbBlockBegin
  2
*D15
 70
     1
 10
0.0
 20
0.0
 30
0.0
  3
*D15
  1
*D15
  0
LINE
  5
250
330
24D
100
AcDbEntity
  8
0
  6
Continuous
 62
     0
370
    -2
100
AcDbLine
 10
30.63749999999999
 20
4.032324928723895
 30
0.0
 11
30.63749999999999
 21
13.73375703717265
 31
0.0
  0
LINE
  5
251
330
24D
100
AcDbEntity
  8
0
  6
Continuous
 62
     0
370
    -2
100
AcDbLine
 10
10.0
 20
4.026637866546281
 30
0.0
 11
10.0
 21
13.73375703717265
 31
0.0
  0
LINE
  5
252
330
24D
100
AcDbEntity
  8
0
  6
Continuous
 62
     0
370
    -2
100
AcDbLine
 10
10.0
 20
13.73375703717265
 30
0.0
 11
-22.61450000000002
 21
13.73375703717265
 31
0.0
  0
LINE
  5
253
330
24D
100
AcDbEntity
  8
0
  6
Continuous
 62
     0
370
    -2
100
AcDbLine
 10
27.33549999999999
 20
13.73375703717265
 30
0.0
 11
13.302
 21
13.73375703717265
 31
0.0
  0
SOLID
  5
254
330
24D
100
AcDbEntity
  8
0
 62
     0
100
AcDbTrace
 10
27.33549999999999
 20
13.18342370383932
 30
0.0
 11
27.33549999999999
 21
14.28409037050598
 31
0.0
 12
30.63749999999999
 22
13.73375703717265
 32
0.0
 13
30.63749999999999
 23
13.73375703717265
 33
0.0
  0
SOLID
  5
255
330
24D
100
AcDbEntity
  8
0
 62
     0
100
AcDbTrace
 10
13.302
 20
14.28409037050598
 30
0.0
 11
13.302
 21
13.18342370383932
 31
0.0
 12
10.0
 22
13.73375703717265
 32
0.0
 13
10.0
 23
13.73375703717265
 33
0.0
  0
MTEXT
  5
256
330
24D
100
AcDbEntity
  8
0
 62
     0
370
    15
100
AcDbMText
 10
-7.958250000000021
 20
18.10875703717265
 30
0.0
 40
3.5
 41
0.0
 71
     2
 72
     1
  1
\A1;20.64 [13/16]
  7
SLDTEXTSTYLE0
 73
     1
 44
1.0
  0
POINT
  5
257
330
24D
100
AcDbEntity
  8
Defpoints
 62
     0
100
AcDbPoint
 10
30.63749999999999
 20
3.969824928723895
 30
0.0
  0
POINT
  5
258
330
24D
100
AcDbEntity
  8
Defpoints
 62
     0
100
AcDbPoint
 10
10.0
 20
3.964137866546281
 30
0.0
  0
POINT
  5
259
330
24D
100
AcDbEntity
  8
Defpoints
 62
     0
100
AcDbPoint
 10
10.0
 20
13.73375703717265
 30
0.0
  0
ENDBLK
  5
24F
330
24D
100
AcDbEntity
  8
0
100
AcDbBlockEnd
  0
BLOCK
  5
25B
330
25A
100
AcDbEntity
  8
0
100
AcDbBlockBegin
  2
*D16
 70
     1
 10
0.0
 20
0.0
 30
0.0
  3
*D16
  1
*D16
  0
LINE
  5
25D
330
25A
100
AcDbEntity
  8
0
  6
Continuous
 62
     0
370
    -2
100
AcDbLine
 10
30.69999999999999
 20
3.969824928723896
 30
0.0
 11
48.07857629384314
 21
3.969824928723959
 31
0.0
  0
LINE
  5
25E
330
25A
100
AcDbEntity
  8
0
  6
Continuous
 62
     0
370
    -2
100
AcDbLine
 10
30.69999999999999
 20
-3.967675071276083
 30
0.0
 11
48.07857629384317
 21
-3.96767507127602
 31
0.0
  0
LINE
  5
25F
330
25A
100
AcDbEntity
  8
0
  6
Continuous
 62
     0
370
    -2
100
AcDbLine
 10
48.07857629384314
 20
3.969824928723959
 30
0.0
 11
48.07857629384302
 21
38.57382492872398
 31
0.0
  0
LINE
  5
260
330
25A
100
AcDbEntity
  8
0
  6
Continuous
 62
     0
370
    -2
100
AcDbLine
 10
48.07857629384313
 20
7.271824928723959
 30
0.0
 11
48.07857629384311
 21
10.57382492872396
 31
0.0
  0
LINE
  5
261
330
25A
100
AcDbEntity
  8
0
  6
Continuous
 62
     0
370
    -2
100
AcDbLine
 10
48.07857629384318
 20
-7.269675071276019
 30
0.0
 11
48.0785762938432
 21
-10.57167507127602
 31
0.0
  0
SOLID
  5
262
330
25A
100
AcDbEntity
  8
0
 62
     0
100
AcDbTrace
 10
47.52824296050979
 20
7.271824928723957
 30
0.0
 11
48.62890962717646
 21
7.27182492872396
 31
0.0
 12
48.07857629384314
 22
3.969824928723959
 32
0.0
 13
48.07857629384314
 23
3.969824928723959
 33
0.0
  0
SOLID
  5
263
330
25A
100
AcDbEntity
  8
0
 62
     0
100
AcDbTrace
 10
48.62890962717652
 20
-7.269675071276017
 30
0.0
 11
47.52824296050985
 21
-7.269675071276021
 31
0.0
 12
48.07857629384317
 22
-3.96767507127602
 32
0.0
 13
48.07857629384317
 23
-3.96767507127602
 33
0.0
  0
MTEXT
  5
264
330
25A
100
AcDbEntity
  8
0
 62
     0
370
    15
100
AcDbMText
 10
43.70357629384307
 20
24.57382492872396
 30
0.0
 40
3.5
 41
0.0
 71
     2
 72
     1
  1
\A1;%%c7.94 [5/16]
  7
SLDTEXTSTYLE0
 11
-3.580687802255633E-15
 21
1.0
 31
0.0
 73
     1
 44
1.0
  0
POINT
  5
265
330
25A
100
AcDbEntity
  8
Defpoints
 62
     0
100
AcDbPoint
 10
30.63749999999999
 20
3.969824928723895
 30
0.0
  0
POINT
  5
266
330
25A
100
AcDbEntity
  8
Defpoints
 62
     0
100
AcDbPoint
 10
30.63749999999999
 20
-3.967675071276084
 30
0.0
  0
POINT
  5
267
330
25A
100
AcDbEntity
  8
Defpoints
 62
     0
100
AcDbPoint
 10
48.07857629384318
 20
-3.967675071276018
 30
0.0
  0
ENDBLK
  5
25C
330
25A
100
AcDbEntity
  8
0
100
AcDbBlockEnd
  0
BLOCK
  5
269
330
268
100
AcDbEntity
  8
0
100
AcDbBlockBegin
  2
*D17
 70
     1
 10
0.0
 20
0.0
 30
0.0
  3
*D17
  1
*D17
  0
LINE
  5
26B
330
268
100
AcDbEntity
  8
0
  6
Continuous
 62
     0
370
    -2
100
AcDbLine
 10
155.9329544611509
 20
-16.57278256262364
 30
0.0
 11
167.9022668965683
 21
-45.96889489186475
 31
0.0
  0
MTEXT
  5
26C
330
268
100
AcDbEntity
  8
0
 62
     0
370
    15
100
AcDbMText
 10
164.9714120838953
 20
-31.81002605888477
 30
0.0
 40
3.5
 41
0.0
 71
     5
 72
     1
  1
\A1;R.76 [R0.030]
  7
SLDTEXTSTYLE0
 11
0.377110932289968
 21
-0.9261680974571469
 31
0.0
 73
     1
 44
1.0
  0
LINE
  5
26D
330
268
100
AcDbEntity
  8
0
  6
Continuous
 62
     0
370
    -2
100
AcDbLine
 10
154.4003756323244
 20
-12.80883541455778
 30
0.0
 11
154.6877341627294
 21
-13.51457550482014
 31
0.0
  0
SOLID
  5
26E
330
268
100
AcDbEntity
  8
0
 62
     0
100
AcDbTrace
 10
156.4426556374515
 20
-16.36524584622006
 30
0.0
 11
155.4232532848503
 21
-16.78031927902721
 31
0.0
 12
154.6877341627294
 22
-13.51457550482014
 32
0.0
 13
154.6877341627294
 23
-13.51457550482014
 33
0.0
  0
POINT
  5
26F
330
268
100
AcDbEntity
  8
Defpoints
 62
     0
100
AcDbPoint
 10
154.6877341627294
 20
-13.51457550482014
 30
0.0
  0
POINT
  5
270
330
268
100
AcDbEntity
  8
Defpoints
 62
     0
100
AcDbPoint
 10
154.4003756323244
 20
-12.80883541455778
 30
0.0
  0
ENDBLK
  5
26A
330
268
100
AcDbEntity
  8
0
100
AcDbBlockEnd
  0
BLOCK
  5
27C
330
27B
100
AcDbEntity
  8
0
100
AcDbBlockBegin
  2
*D18
 70
     1
 10
0.0
 20
0.0
 30
0.0
  3
*D18
  1
*D18
  0
LINE
  5
27E
330
27B
100
AcDbEntity
  8
0
  6
Continuous
 62
     0
370
    -2
100
AcDbLine
 10
31.39145309188147
 20
-6.698226247509336
 30
0.0
 11
54.28167672490328
 21
-49.4504796759052
 31
0.0
  0
MTEXT
  5
27F
330
27B
100
AcDbEntity
  8
0
 62
     0
370
    15
100
AcDbMText
 10
49.47134567579972
 20
-34.90494327257754
 30
0.0
 40
3.5
 41
0.0
 71
     5
 72
     1
  1
\A1;R1.52 [R0.060]
  7
SLDTEXTSTYLE0
 11
0.472016803125047
 21
-0.8815895516438536
 31
0.0
 73
     1
 44
1.0
  0
LINE
  5
280
330
27B
100
AcDbEntity
  8
0
  6
Continuous
 62
     0
370
    -2
100
AcDbLine
 10
29.11349999999999
 20
-2.443675071276093
 30
0.0
 11
29.83285360796256
 21
-3.787217547981331
 31
0.0
  0
SOLID
  5
281
330
27B
100
AcDbEntity
  8
0
 62
     0
100
AcDbTrace
 10
31.87662120846947
 20
-6.438459666856185
 30
0.0
 11
30.90628497529347
 21
-6.957992828162486
 31
0.0
 12
29.83285360796256
 22
-3.787217547981331
 32
0.0
 13
29.83285360796256
 23
-3.787217547981331
 33
0.0
  0
POINT
  5
282
330
27B
100
AcDbEntity
  8
Defpoints
 62
     0
100
AcDbPoint
 10
29.83285360796256
 20
-3.787217547981331
 30
0.0
  0
POINT
  5
283
330
27B
100
AcDbEntity
  8
Defpoints
 62
     0
100
AcDbPoint
 10
29.11349999999999
 20
-2.443675071276093
 30
0.0
  0
ENDBLK
  5
27D
330
27B
100
AcDbEntity
  8
0
100
AcDbBlockEnd
  0
ENDSEC
  0
SECTION
  2
ENTITIES
  0
LINE
  5
C5
330
1F
100
AcDbEntity
  8
참조1
100
AcDbLine
 10
-15.39999999999998
 20
0.0010749287238892
 30
0.0
 11
-15.39999999999998
 21
-39.99892507127611
 31
0.0
  0
LINE
  5
C6
330
1F
100
AcDbEntity
  8
참조1
100
AcDbLine
 10
-15.39999999999998
 20
-39.99892507127611
 30
0.0
 11
-30.55885681430864
 21
-39.9989250712761
 31
0.0
  0
INSERT
  5
C8
330
1F
100
AcDbEntity
  8
0
  6
Continuous
 62
     7
100
AcDbBlockReference
 66
     1
  2
블럭10
 10
-29.34027293212519
 20
-52.04609937292004
 30
0.0
  0
ATTRIB
  5
C9
330
C8
100
AcDbEntity
  8
FORMAT
 62
     2
100
AcDbText
 10
-39.48190894426182
 20
-49.97073246008785
 30
0.0
 40
4.233333333333333
  1
EM649908 [ 4 FLUTE ]
 41
0.75
  7
SLDTEXTSTYLE0
 11
-39.48190894426182
 21
-52.08739912675452
 31
0.0
100
AcDbAttribute
  2
AUTOATTR0
 70
     0
 74
     1
  0
SEQEND
  5
CA
330
C8
100
AcDbEntity
  8
0
  6
Continuous
 62
     7
  0
HATCH
  5
CB
330
1F
100
AcDbEntity
  8
중심선
100
AcDbHatch
 10
0.0
 20
0.0
 30
0.0
210
0.0
220
0.0
230
1.0
  2
SOLID
 70
     1
 71
     0
 91
        1
 92
        0
 93
        4
 72
     1
 10
-23.62536362774434
 20
-35.7989250712761
 11
-27.07163887158162
 21
-35.7989250712761
 72
     1
 10
-27.07163887158162
 20
-35.7989250712761
 11
-29.19986873078565
 21
-38.3352506518487
 72
     1
 10
-29.19986873078565
 20
-38.3352506518487
 11
-25.75356040183521
 21
-38.33521122254621
 72
     1
 10
-25.75356040183521
 20
-38.33521122254621
 11
-23.62536362774434
 21
-35.7989250712761
 97
        0
 75
     0
 76
     1
 98
        1
 10
0.0
 20
0.0
  0
HATCH
  5
CC
330
1F
100
AcDbEntity
  8
중심선
100
AcDbHatch
 10
0.0
 20
0.0
 30
0.0
210
0.0
220
0.0
230
1.0
  2
SOLID
 70
     1
 71
     0
 91
        1
 92
        0
 93
        4
 72
     1
 10
-18.61259963670836
 20
-35.7989250712761
 11
-22.05887488054564
 21
-35.7989250712761
 72
     1
 10
-22.05887488054564
 20
-35.7989250712761
 11
-26.59001288890306
 21
-41.19892507127612
 72
     1
 10
-26.59001288890306
 20
-41.19892507127612
 11
-23.14373764506578
 21
-41.19892507127612
 72
     1
 10
-23.14373764506578
 20
-41.19892507127612
 11
-18.61259963670836
 21
-35.7989250712761
 97
        0
 75
     0
 76
     1
 98
        1
 10
0.0
 20
0.0
  0
HATCH
  5
CD
330
1F
100
AcDbEntity
  8
중심선
100
AcDbHatch
 10
0.0
 20
0.0
 30
0.0
210
0.0
220
0.0
230
1.0
  2
SOLID
 70
     1
 71
     0
 91
        1
 92
        0
 93
        4
 72
     1
 10
-13.59983564567249
 20
-35.7989250712761
 11
-17.04611088950961
 21
-35.7989250712761
 72
     1
 10
-17.04611088950961
 20
-35.7989250712761
 11
-24.09454779139886
 21
-44.19892507127612
 72
     1
 10
-24.09454779139886
 20
-44.19892507127612
 11
-20.64827254756158
 21
-44.19892507127612
 72
     1
 10
-20.64827254756158
 20
-44.19892507127612
 11
-13.59983564567249
 21
-35.7989250712761
 97
        0
 75
     0
 76
     1
 98
        1
 10
0.0
 20
0.0
  0
HATCH
  5
CE
330
1F
100
AcDbEntity
  8
중심선
100
AcDbHatch
 10
0.0
 20
0.0
 30
0.0
210
0.0
220
0.0
230
1.0
  2
SOLID
 70
     1
 71
     0
 91
        1
 92
        0
 93
        6
 72
     3
 10
-8.799945214660292
 20
-39.99892507132738
 11
3.960054785062284
 21
1.540850780301639E-10
 40
0.3939339440162633
 50
17.09539180608434
 51
320.0019657685074
 73
     0
 72
     1
 10
-7.116945558959697
 20
-38.58681907591438
 11
-4.81164368525866
 21
-36.65249236586649
 72
     3
 10
-8.799945214713139
 20
-39.99892507127625
 11
6.600054785286829
 21
-1.249000902703301E-13
 40
0.6363583540795982
 50
39.99873849337408
 51
368.4976242363725
 73
     1
 72
     1
 10
-2.37461272281253
 20
-39.03892507120613
 11
-10.11987790787722
 21
-39.0389250712061
 72
     1
 10
-10.11987790787722
 20
-39.0389250712061
 11
-10.11990295232315
 21
-40.95892507120602
 72
     1
 10
-10.11990295232315
 20
-40.95892507120602
 11
-5.678523182851114
 21
-40.95892507120599
 97
        0
 75
     0
 76
     1
 98
        1
 10
0.0
 20
0.0
  0
LINE
  5
11B
330
1F
100
AcDbEntity
  8
참조1
100
AcDbLine
 10
67.41348381534561
 20
7.441074928723896
 30
0.0
 11
67.41348381534561
 21
-7.438925071276109
 31
0.0
  0
LINE
  5
11C
330
1F
100
AcDbEntity
  8
참조1
100
AcDbLine
 10
80.11348381534562
 20
5.441074928723896
 30
0.0
 11
67.41348381534561
 21
5.441074928723896
 31
0.0
  0
SOLID
  5
11D
330
1F
100
AcDbEntity
  8
참조1
100
AcDbTrace
 10
67.41348381534561
 20
5.441074928723896
 30
0.0
 11
73.76348381534561
 21
4.425074928723896
 31
0.0
 12
73.76348381534561
 22
6.457074928723896
 32
0.0
 13
73.76348381534561
 23
6.457074928723896
 33
0.0
  0
LINE
  5
11E
330
1F
100
AcDbEntity
  8
참조1
100
AcDbLine
 10
80.11348381534562
 20
-5.438925071276109
 30
0.0
 11
67.41348381534561
 21
-5.438925071276109
 31
0.0
  0
SOLID
  5
11F
330
1F
100
AcDbEntity
  8
참조1
100
AcDbTrace
 10
67.41348381534561
 20
-5.438925071276109
 30
0.0
 11
73.76348381534561
 21
-6.454925071276109
 31
0.0
 12
73.76348381534561
 22
-4.422925071276109
 32
0.0
 13
73.76348381534561
 23
-4.422925071276109
 33
0.0
  0
MTEXT
  5
120
330
1F
100
AcDbEntity
  8
참조1
100
AcDbMText
 10
76.81097390781589
 20
10.98929157337383
 30
0.0
 40
3.5
 41
0.0
 71
     1
 72
     1
  1
A
  7
SLDTEXTSTYLE0
 73
     1
 44
1.0
  0
MTEXT
  5
121
330
1F
100
AcDbEntity
  8
참조1
100
AcDbMText
 10
76.81097390781589
 20
0.1092915733738251
 30
0.0
 40
3.5
 41
0.0
 71
     1
 72
     1
  1
A
  7
SLDTEXTSTYLE0
 73
     1
 44
1.0
  0
LINE
  5
1FA
330
1F
100
AcDbEntity
  8
0
  6
Continuous
 62
     1
370
    15
100
AcDbLine
 10
24.88562097231369
 20
-1.158075903528456
 30
0.0
 11
24.944119480881
 21
-1.189588997834626
 31
0.0
  0
LINE
  5
1FB
330
1F
100
AcDbEntity
  8
0
  6
Continuous
 62
     1
370
    15
100
AcDbLine
 10
29.17783988153968
 20
1.167049443752553
 30
0.0
 11
29.13202785506451
 21
1.191774072459438
 31
0.0
  0
LINE
  5
1FC
330
1F
100
AcDbEntity
  8
0
  6
Continuous
 62
     1
370
    15
100
AcDbLine
 10
12.05090408013035
 20
3.969824928723895
 30
0.0
 11
10.0
 21
3.969824928723895
 31
0.0
  0
LINE
  5
1FD
330
1F
100
AcDbEntity
  8
0
  6
Continuous
 62
     1
370
    15
100
AcDbLine
 10
20.4297629936608
 20
-3.967675071276105
 30
0.0
 11
22.84821176388078
 21
-3.967675071276105
 31
0.0
  0
LINE
  5
1FE
330
1F
100
AcDbEntity
  8
0
  6
Continuous
 62
     1
370
    15
100
AcDbLine
 10
22.84821176388078
 20
3.969824928723895
 30
0.0
 11
20.42976299366086
 21
3.969824928723895
 31
0.0
  0
LINE
  5
1FF
330
1F
100
AcDbEntity
  8
0
  6
Continuous
 62
     1
370
    15
100
AcDbLine
 10
10.0
 20
-3.967675071276105
 30
0.0
 11
12.05090408013029
 21
-3.967675071276105
 31
0.0
  0
LINE
  5
200
330
1F
100
AcDbEntity
  8
외형선
  6
Continuous
370
    15
100
AcDbLine
 10
9.631149014022867
 20
-3.967675071276105
 30
0.0
 11
10.0
 21
-3.967675071276105
 31
0.0
  0
LINE
  5
201
330
1F
100
AcDbEntity
  8
외형선
  6
Continuous
370
    15
100
AcDbLine
 10
-44.76875000000001
 20
-3.967675071276105
 30
0.0
 11
9.499853625602839
 21
-3.967675071276105
 31
0.0
  0
LINE
  5
202
330
1F
100
AcDbEntity
  8
외형선
  6
Continuous
370
    15
100
AcDbLine
 10
9.499853625602839
 20
3.969824928723895
 30
0.0
 11
-44.76875000000001
 21
3.969824928723895
 31
0.0
  0
LINE
  5
203
330
1F
100
AcDbEntity
  8
외형선
  6
Continuous
370
    15
100
AcDbLine
 10
10.0
 20
3.969824928723895
 30
0.0
 11
9.631149014022867
 21
3.969824928723895
 31
0.0
  0
LINE
  5
204
330
1F
100
AcDbEntity
  8
외형선
  6
Continuous
370
    15
100
AcDbLine
 10
-44.76875000000001
 20
3.969824928723895
 30
0.0
 11
-45.56250000000003
 21
3.176074928723892
 31
0.0
  0
LINE
  5
205
330
1F
100
AcDbEntity
  8
외형선
  6
Continuous
370
    15
100
AcDbLine
 10
-45.56250000000003
 20
-3.173925071276109
 30
0.0
 11
-44.76875000000001
 21
-3.967675071276105
 31
0.0
  0
LINE
  5
206
330
1F
100
AcDbEntity
  8
0
  6
Continuous
 62
     1
370
    15
100
AcDbLine
 10
30.63749999999999
 20
-2.443675071276093
 30
0.0
 11
30.63749999999999
 21
0.397949766198586
 31
0.0
  0
SPLINE
  5
207
330
1F
100
AcDbEntity
  8
0
  6
Continuous
 62
     1
370
    15
100
AcDbSpline
210
0.0
220
0.0
230
1.0
 70
     8
 71
     3
 72
     8
 73
     4
 74
     0
 42
0.000000001
 43
0.00000001
 40
0.0
 40
0.0
 40
0.0
 40
0.0
 40
0.1332595370527086
 40
0.1332595370527086
 40
0.1332595370527086
 40
0.1332595370527086
 10
30.12949999999995
 20
-3.459117233417714
 30
0.0
 10
30.16437788891301
 20
-3.468966153852593
 30
0.0
 10
30.1981293383613
 20
-3.475906323780716
 30
0.0
 10
30.23091285807232
 20
-3.479997658415137
 30
0.0
  0
SPLINE
  5
208
330
1F
100
AcDbEntity
  8
0
  6
Continuous
 62
     1
370
    15
100
AcDbSpline
210
0.0
220
0.0
230
1.0
 70
     8
 71
     3
 72
    20
 73
    16
 74
     0
 42
0.000000001
 43
0.00000001
 40
0.0
 40
0.0
 40
0.0
 40
0.0
 40
0.0423532737219021
 40
0.120300477131328
 40
0.1983030336146505
 40
0.2762822544915643
 40
0.3542123671085888
 40
0.4321167677198291
 40
0.51001901580871
 40
0.591652136547951
 40
0.6733060769105077
 40
0.7549900442532961
 40
0.8366898442357156
 40
0.9183576367497104
 40
1.0
 40
1.0
 40
1.0
 40
1.0
 10
12.05090408013035
 20
3.949164643148876
 30
0.0
 10
12.30610188707675
 20
3.952434017862018
 30
0.0
 10
13.03096717470726
 20
3.961720368204013
 30
0.0
 10
14.22593213386097
 20
3.794223417600307
 30
0.0
 10
15.6358763927438
 20
3.468034176573553
 30
0.0
 10
17.04556926775086
 20
2.988552312355353
 30
0.0
 10
18.4544604720711
 20
2.386108975562273
 30
0.0
 10
19.86281285148755
 20
1.683324720598065
 30
0.0
 10
21.29342850551086
 20
0.8980233462692837
 30
0.0
 10
22.74686844906904
 20
0.0601578380302001
 30
0.0
 10
24.22311650442651
 20
-0.7932286177620043
 30
0.0
 10
25.69990037825954
 20
-1.610960736986442
 30
0.0
 10
27.17686321044704
 20
-2.351469609063933
 30
0.0
 10
28.65340189942765
 20
-2.995445680606522
 30
0.0
 10
29.63751837921569
 20
-3.304576094197245
 30
0.0
 10
30.12950000000001
 20
-3.459117233417722
 30
0.0
  0
SPLINE
  5
209
330
1F
100
AcDbEntity
  8
0
  6
Continuous
 62
     1
370
    15
100
AcDbSpline
210
0.0
220
0.0
230
1.0
 70
     8
 71
     3
 72
    17
 73
    13
 74
     0
 42
0.000000001
 43
0.00000001
 40
0.0
 40
0.0
 40
0.0
 40
0.0
 40
0.1014108281796006
 40
0.2028911208709052
 40
0.3043745246599042
 40
0.4057873821470888
 40
0.5071600289941761
 40
0.6085230901454909
 40
0.7099072514765268
 40
0.8113430647988562
 40
0.917647371120106
 40
1.0
 40
1.0
 40
1.0
 40
1.0
 10
30.12949999999995
 20
0.632524161571375
 30
0.0
 10
29.65987229271491
 20
0.8976918317935301
 30
0.0
 10
28.72029519199003
 20
1.428208807109215
 30
0.0
 10
27.31046757254609
 20
2.156755272647779
 30
0.0
 10
25.90062102543595
 20
2.79696268245884
 30
0.0
 10
24.49154611495794
 20
3.319692730165123
 30
0.0
 10
23.08311973135602
 20
3.703591366545979
 30
0.0
 10
21.67485899899691
 20
3.932137176496077
 30
0.0
 10
20.2662434797233
 20
3.997323283306052
 30
0.0
 10
18.83460794044271
 20
3.8890391606663
 30
0.0
 10
17.49086327908208
 20
3.644754386313579
 30
0.0
 10
16.61706008459146
 20
3.363417220509135
 30
0.0
 10
16.23562703463108
 20
3.240607766507814
 30
0.0
  0
SPLINE
  5
20A
330
1F
100
AcDbEntity
  8
0
  6
Continuous
 62
     1
370
    15
100
AcDbSpline
210
0.0
220
0.0
230
1.0
 70
     8
 71
     3
 72
    14
 73
    10
 74
     0
 42
0.000000001
 43
0.00000001
 40
0.0
 40
0.0
 40
0.0
 40
0.0
 40
0.2499999999999999
 40
0.2499999999999999
 40
0.4999999999999998
 40
0.4999999999999998
 40
0.7499999999999997
 40
0.7499999999999997
 40
1.0
 40
1.0
 40
1.0
 40
1.0
 10
30.63749999999999
 20
0.3979497661986287
 30
0.0
 10
30.63749999999993
 20
0.3979238744083062
 30
0.0
 10
30.6230458478957
 20
0.4019599297317029
 30
0.0
 10
30.56793255658533
 20
0.4208998105931059
 30
0.0
 10
30.5269225372287
 20
0.4360885200307791
 30
0.0
 10
30.42873439794755
 20
0.4776595960525256
 30
0.0
 10
30.37135386889753
 20
0.5041794565965247
 30
0.0
 10
30.25146268280861
 20
0.5647078723357595
 30
0.0
 10
30.19010960793702
 20
0.5980231170348489
 30
0.0
 10
30.12949999999995
 20
0.6325241615713821
 30
0.0
  0
SPLINE
  5
20B
330
1F
100
AcDbEntity
  8
0
  6
Continuous
 62
     1
370
    15
100
AcDbSpline
210
0.0
220
0.0
230
1.0
 70
     8
 71
     3
 72
    19
 73
    15
 74
     0
 42
0.000000001
 43
0.00000001
 40
0.0
 40
0.0
 40
0.0
 40
0.0
 40
0.0826266416290219
 40
0.1652657011511615
 40
0.2479421163380029
 40
0.3306772429797672
 40
0.4133876181974946
 40
0.4960459056595858
 40
0.5786769211173906
 40
0.6613056534550255
 40
0.7478916179030957
 40
0.834499665142414
 40
0.9211395611585436
 40
1.0
 40
1.0
 40
1.0
 40
1.0
 10
10.0
 20
1.168175362102481
 30
0.0
 10
10.469373062947
 20
0.9043192932017945
 30
0.0
 10
11.40818973055025
 20
0.3765675006789166
 30
0.0
 10
12.81669984367494
 20
-0.4439477561709992
 30
0.0
 10
14.22593003530568
 20
-1.242490782485291
 30
0.0
 10
15.63587695441373
 20
-1.989621850845907
 30
0.0
 10
17.04556911972389
 20
-2.653344859710742
 30
0.0
 10
18.45446050295016
 20
-3.205968558180238
 30
0.0
 10
19.86281287589458
 20
-3.624291252620381
 30
0.0
 10
21.29342837456852
 20
-3.894847584782681
 30
0.0
 10
22.7468689750711
 20
-3.998459798128245
 30
0.0
 10
24.22311454067534
 20
-3.916353290782745
 30
0.0
 10
25.65560896434044
 20
-3.675109900322653
 30
0.0
 10
26.59602275389136
 20
-3.383891287911396
 30
0.0
 10
27.04412724987537
 20
-3.245126447385161
 30
0.0
  0
SPLINE
  5
20C
330
1F
100
AcDbEntity
  8
외형선
  6
Continuous
370
    15
100
AcDbSpline
210
0.0
220
0.0
230
1.0
 70
    24
 71
     3
 72
    15
 73
    11
 74
     0
 42
0.000000001
 43
0.00000001
 40
0.0
 40
0.0
 40
0.0
 40
0.0
 40
0.1319201093000505
 40
0.2678744117576435
 40
0.3965138204761088
 40
0.5288837807620618
 40
0.6575231894805268
 40
0.7898931497664804
 40
0.9185325584849465
 40
1.0
 40
1.0
 40
1.0
 40
1.0
 10
10.0
 20
3.964137866546281
 30
0.0
 10
9.999999999999943
 20
3.835039360797573
 30
0.0
 10
9.999999999999943
 20
3.572894442409357
 30
0.0
 10
10.0
 20
3.165067489578682
 30
0.0
 10
9.999999999999943
 20
2.757798620420751
 30
0.0
 10
10.0
 20
2.368047128526783
 30
0.0
 10
9.999999999999943
 20
1.995956951666841
 30
0.0
 10
9.999999999999943
 20
1.661546978837031
 30
0.0
 10
10.0
 20
1.396648765236179
 30
0.0
 10
10.0
 20
1.26991010000485
 30
0.0
 10
9.999999999999943
 20
1.220768081141806
 30
0.0
  0
LINE
  5
20D
330
1F
100
AcDbEntity
  8
외형선
  6
Continuous
370
    15
100
AcDbLine
 10
10.0
 20
3.964137866546281
 30
0.0
 11
10.0
 21
3.969824928723895
 31
0.0
  0
SPLINE
  5
20E
330
1F
100
AcDbEntity
  8
0
  6
Continuous
 62
     1
370
    15
100
AcDbSpline
210
0.0
220
0.0
230
1.0
 70
     8
 71
     3
 72
    15
 73
    11
 74
     0
 42
0.000000001
 43
0.00000001
 40
0.0
 40
0.0
 40
0.0
 40
0.0
 40
0.0156591227954373
 40
0.1507877053619902
 40
0.2924018923381906
 40
0.4339959960065742
 40
0.5755368517999448
 40
0.7170404080051132
 40
0.8585227409528343
 40
1.0
 40
1.0
 40
1.0
 40
1.0
 10
20.4297629936608
 20
-3.959152055497327
 30
0.0
 10
20.37532889694103
 20
-3.961917069434747
 30
0.0
 10
19.85116208089067
 20
-3.988542450202551
 30
0.0
 10
18.83459842374339
 20
-3.878740762157541
 30
0.0
 10
17.37999658043918
 20
-3.614244429414953
 30
0.0
 10
15.90318494680309
 20
-3.161653797118042
 30
0.0
 10
14.42688433243222
 20
-2.568594678457629
 30
0.0
 10
12.95104559359481
 20
-1.856096255603084
 30
0.0
 10
11.47547502838404
 20
-1.059382930759689
 30
0.0
 10
10.49181912997381
 20
-0.4939997247966303
 30
0.0
 10
10.00000000000006
 20
-0.2113131909101966
 30
0.0
  0
LINE
  5
20F
330
1F
100
AcDbEntity
  8
외형선
  6
Continuous
370
    15
100
AcDbLine
 10
10.0
 20
-0.2113131909103245
 30
0.0
 11
10.0
 21
1.168175362102481
 31
0.0
  0
SPLINE
  5
210
330
1F
100
AcDbEntity
  8
0
  6
Continuous
 62
     1
370
    15
100
AcDbSpline
210
0.0
220
0.0
230
1.0
 70
     8
 71
     3
 72
    12
 73
     8
 74
     0
 42
0.000000001
 43
0.00000001
 40
0.0
 40
0.0
 40
0.0
 40
0.0
 40
0.2258448528883658
 40
0.4517236478224089
 40
0.6777045476518279
 40
0.903845924533673
 40
1.0
 40
1.0
 40
1.0
 40
1.0
 10
10.0
 20
-3.792189251491806
 30
0.0
 10
10.46937291575091
 20
-3.856419208474669
 30
0.0
 10
11.40818928893998
 20
-3.984888775510228
 30
0.0
 10
12.8167016107588
 20
-3.970208267752518
 30
0.0
 10
14.22592340344136
 20
-3.792597782387368
 30
0.0
 10
15.3657970876319
 20
-3.54248330273569
 30
0.0
 10
16.0357518076151
 20
-3.308318856925958
 30
0.0
 10
16.23562703463102
 20
-3.238457909060031
 30
0.0
  0
SPLINE
  5
211
330
1F
100
AcDbEntity
  8
외형선
  6
Continuous
370
    15
100
AcDbSpline
210
0.0
220
0.0
230
1.0
 70
    24
 71
     3
 72
    20
 73
    16
 74
     0
 42
0.000000001
 43
0.00000001
 40
0.0
 40
0.0
 40
0.0
 40
0.0
 40
0.0599525820167031
 40
0.1395877135315705
 40
0.2169785067988619
 40
0.2966136383137292
 40
0.374004431581021
 40
0.4536395630958889
 40
0.5310303563631331
 40
0.6106654878779494
 40
0.6880562811452874
 40
0.7676914126602061
 40
0.8450822059274983
 40
0.9247173374423666
 40
0.9999999999999999
 40
0.9999999999999999
 40
0.9999999999999999
 40
0.9999999999999999
 10
10.0
 20
-0.0666526959524347
 30
0.0
 10
10.0
 20
-0.0707841174415123
 30
0.0
 10
10.0
 20
-0.0804033141449025
 30
0.0
 10
10.0
 20
-0.1744757806692334
 30
0.0
 10
9.999999999999943
 20
-0.3336783169488982
 30
0.0
 10
9.999999999999943
 20
-0.553103080791054
 30
0.0
 10
10.0
 20
-0.8277971496643275
 30
0.0
 10
9.999999999999943
 20
-1.145762168193791
 30
0.0
 10
10.0
 20
-1.503523053933215
 30
0.0
 10
9.999999999999943
 20
-1.884583663285134
 30
0.0
 10
9.999999999999943
 20
-2.284936651522983
 30
0.0
 10
9.999999999999943
 20
-2.686293980679217
 30
0.0
 10
10.0
 20
-3.083598571758614
 30
0.0
 10
9.999999999999943
 20
-3.458477143904965
 30
0.0
 10
9.999999999999943
 20
-3.683055080540868
 30
0.0
 10
10.0
 20
-3.792189251491806
 30
0.0
  0
SPLINE
  5
212
330
1F
100
AcDbEntity
  8
0
  6
Continuous
 62
     1
370
    15
100
AcDbSpline
210
0.0
220
0.0
230
1.0
 70
     8
 71
     3
 72
    14
 73
    10
 74
     0
 42
0.000000001
 43
0.00000001
 40
0.0
 40
0.0
 40
0.0
 40
0.0
 40
0.25
 40
0.25
 40
0.5
 40
0.5
 40
0.75
 40
0.75
 40
1.0
 40
1.0
 40
1.0
 40
1.0
 10
30.12949999999995
 20
1.944794755127283
 30
0.0
 10
30.1949322566407
 20
1.911902254553766
 30
0.0
 10
30.25639998724347
 20
1.871414687503588
 30
0.0
 10
30.37349959788878
 20
1.778505633529264
 30
0.0
 10
30.42762494612185
 20
1.727002640111976
 30
0.0
 10
30.52228034184446
 20
1.620462987868748
 30
0.0
 10
30.56255310424905
 20
1.565772019804349
 30
0.0
 10
30.62075461774924
 20
1.461745301299622
 30
0.0
 10
30.63749999999999
 20
1.41424395318829
 30
0.0
 10
30.63749999999999
 20
1.376330291970859
 30
0.0
  0
LINE
  5
213
330
1F
100
AcDbEntity
  8
0
  6
Continuous
 62
     1
370
    15
100
AcDbLine
 10
30.63749999999999
 20
0.397949766198586
 30
0.0
 11
30.63749999999999
 21
1.376330291970852
 31
0.0
  0
SPLINE
  5
214
330
1F
100
AcDbEntity
  8
0
  6
Continuous
 62
     1
370
    15
100
AcDbSpline
210
0.0
220
0.0
230
1.0
 70
     8
 71
     3
 72
    12
 73
     8
 74
     0
 42
0.000000001
 43
0.00000001
 40
0.0
 40
0.0
 40
0.0
 40
0.0
 40
0.1888126573140054
 40
0.3916355313430861
 40
0.5944977181232235
 40
0.7972804297389253
 40
1.0
 40
1.0
 40
1.0
 40
1.0
 10
22.84821176388084
 20
3.963985714221813
 30
0.0
 10
23.30645351467768
 20
3.951022859003331
 30
0.0
 10
24.25693932484478
 20
3.924135282908431
 30
0.0
 10
25.69990084265379
 20
3.659098374625628
 30
0.0
 10
27.17686308665128
 20
3.233565975048606
 30
0.0
 10
28.6534019303603
 20
2.661742892674312
 30
0.0
 10
29.6375183895255
 20
2.183752658122962
 30
0.0
 10
30.12949999999995
 20
1.944794755127283
 30
0.0
  0
LINE
  5
216
330
1F
100
AcDbEntity
  8
외형선
  6
Continuous
370
    15
100
AcDbLine
 10
10.0
 20
-3.967675071276105
 30
0.0
 11
10.0
 21
-3.792189251491806
 31
0.0
  0
SPLINE
  5
217
330
1F
100
AcDbEntity
  8
외형선
  6
Continuous
370
    15
100
AcDbSpline
210
0.0
220
0.0
230
1.0
 70
    24
 71
     3
 72
    20
 73
    16
 74
     0
 42
0.000000001
 43
0.00000001
 40
0.0
 40
0.0
 40
0.0
 40
0.0
 40
0.1167863863734518
 40
0.194150488429177
 40
0.2737581546855352
 40
0.3511222567412608
 40
0.430729922997619
 40
0.5080940250532681
 40
0.587701691309701
 40
0.6650657933654259
 40
0.7446734596217837
 40
0.8220375616775079
 40
0.9016452279338644
 40
0.9790093299895909
 40
0.9999999999999999
 40
0.9999999999999999
 40
0.9999999999999999
 40
0.9999999999999999
 10
10.0
 20
-3.792189251491806
 30
0.0
 10
9.999999999999943
 20
-3.61976547442881
 30
0.0
 10
9.999999999999943
 20
-3.333121101115154
 30
0.0
 10
10.00000000000006
 20
-2.878506845244658
 30
0.0
 10
9.999999999999943
 20
-2.479904704983092
 30
0.0
 10
9.999999999999886
 20
-2.075732173751774
 30
0.0
 10
10.0
 20
-1.68576231012289
 30
0.0
 10
10.0
 20
-1.313721498116784
 30
0.0
 10
10.0
 20
-0.9769472281653435
 30
0.0
 10
10.00000000000006
 20
-0.678759178658396
 30
0.0
 10
9.999999999999943
 20
-0.4334578111894629
 30
0.0
 10
10.00000000000006
 20
-0.2417449640463616
 30
0.0
 10
10.0
 20
-0.1192958546687137
 30
0.0
 10
9.999999999999886
 20
-0.0611136338641529
 30
0.0
 10
9.999999999999943
 20
-0.0664728646909296
 30
0.0
 10
9.999999999999943
 20
-0.0676166205395958
 30
0.0
  0
SPLINE
  5
218
330
1F
100
AcDbEntity
  8
외형선
  6
Continuous
370
    15
100
AcDbSpline
210
0.0
220
0.0
230
1.0
 70
     8
 71
     3
 72
     8
 73
     4
 74
     0
 42
0.000000001
 43
0.00000001
 40
0.0
 40
0.0
 40
0.0
 40
0.0
 40
1.0
 40
1.0
 40
1.0
 40
1.0
 10
10.0
 20
-3.792189251491806
 30
0.0
 10
9.833232721255285
 20
-3.763939040182308
 30
0.0
 10
9.666297641328697
 20
-3.732341278258673
 30
0.0
 10
9.499853625602782
 20
-3.697527094058138
 30
0.0
  0
SPLINE
  5
219
330
1F
100
AcDbEntity
  8
외형선
  6
Continuous
370
    15
100
AcDbSpline
210
0.0
220
0.0
230
1.0
 70
     8
 71
     3
 72
     8
 73
     4
 74
     0
 42
0.000000001
 43
0.00000001
 40
0.0
 40
0.0
 40
0.0
 40
0.0
 40
1.0
 40
1.0
 40
1.0
 40
1.0
 10
10.0
 20
-0.2113131909101611
 30
0.0
 10
9.833232721255285
 20
-0.1153854007865505
 30
0.0
 10
9.666297641328697
 20
-0.0192386993380822
 30
0.0
 10
9.499853625602839
 20
0.0767472015480593
 30
0.0
  0
SPLINE
  5
21A
330
1F
100
AcDbEntity
  8
외형선
  6
Continuous
370
    15
100
AcDbSpline
210
0.0
220
0.0
230
1.0
 70
     8
 71
     3
 72
     8
 73
     4
 74
     0
 42
0.000000001
 43
0.00000001
 40
0.0
 40
0.0
 40
0.0
 40
0.0
 40
1.0
 40
1.0
 40
1.0
 40
1.0
 10
10.0
 20
3.96413786654589
 30
0.0
 10
9.833232721255285
 20
3.969278820218506
 30
0.0
 10
9.666297641328697
 20
3.970933939181272
 30
0.0
 10
9.499853625602839
 20
3.96910344041904
 30
0.0
  0
LINE
  5
21B
330
1F
100
AcDbEntity
  8
외형선
  6
Continuous
370
    15
100
AcDbLine
 10
9.499853625602839
 20
1.440253567043044
 30
0.0
 11
9.499853625602839
 21
3.969824928723895
 31
0.0
  0
SPLINE
  5
21C
330
1F
100
AcDbEntity
  8
외형선
  6
Continuous
370
    15
100
AcDbSpline
210
0.0
220
0.0
230
1.0
 70
     8
 71
     3
 72
     8
 73
     4
 74
     0
 42
0.000000001
 43
0.00000001
 40
0.0
 40
0.0
 40
0.0
 40
0.0
 40
1.0
 40
1.0
 40
1.0
 40
1.0
 10
10.0
 20
1.168175362102481
 30
0.0
 10
9.833232721255285
 20
1.259993093960951
 30
0.0
 10
9.666297641328697
 20
1.350814396856357
 30
0.0
 10
9.499853625602782
 20
1.440282919103538
 30
0.0
  0
LINE
  5
21D
330
1F
100
AcDbEntity
  8
외형선
  6
Continuous
370
    15
100
AcDbLine
 10
9.499853625602839
 20
-3.697538515461076
 30
0.0
 11
9.499853625602839
 21
0.0767731464871488
 31
0.0
  0
LINE
  5
21E
330
1F
100
AcDbEntity
  8
외형선
  6
Continuous
370
    15
100
AcDbLine
 10
9.631149014022867
 20
-3.967187972648972
 30
0.0
 11
9.499853625602839
 21
-3.966953582971257
 31
0.0
  0
LINE
  5
21F
330
1F
100
AcDbEntity
  8
외형선
  6
Continuous
370
    15
100
AcDbLine
 10
9.499853625602839
 20
-3.967675071276105
 30
0.0
 11
9.499853625602839
 21
-3.966953088103544
 31
0.0
  0
LINE
  5
220
330
1F
100
AcDbEntity
  8
외형선
  6
Continuous
370
    15
100
AcDbLine
 10
-44.76875000000001
 20
0.0010749287238951
 30
0.0
 11
-44.76875000000001
 21
3.969824928723895
 31
0.0
  0
LINE
  5
221
330
1F
100
AcDbEntity
  8
외형선
  6
Continuous
370
    15
100
AcDbLine
 10
-44.76875000000001
 20
-3.967675071276105
 30
0.0
 11
-44.76875000000001
 21
0.0010749287238951
 31
0.0
  0
LINE
  5
222
330
1F
100
AcDbEntity
  8
외형선
  6
Continuous
370
    15
100
AcDbLine
 10
-45.56250000000003
 20
0.0010749287238951
 30
0.0
 11
-45.56250000000003
 21
3.176074928723892
 31
0.0
  0
LINE
  5
223
330
1F
100
AcDbEntity
  8
외형선
  6
Continuous
370
    15
100
AcDbLine
 10
-45.56250000000003
 20
-3.173925071276109
 30
0.0
 11
-45.56250000000003
 21
0.0010749287238951
 31
0.0
  0
SPLINE
  5
224
330
1F
100
AcDbEntity
  8
외형선
  6
Continuous
370
    15
100
AcDbSpline
210
0.0
220
0.0
230
1.0
 70
    24
 71
     3
 72
    15
 73
    11
 74
     0
 42
0.000000001
 43
0.00000001
 40
0.0
 40
0.0
 40
0.0
 40
0.0
 40
0.0166111483151859
 40
0.1473973656033208
 40
0.2781835828914556
 40
0.4089698001795888
 40
0.539756017467722
 40
0.6705422347558593
 40
0.8013284520439968
 40
1.0
 40
1.0
 40
1.0
 40
1.0
 10
10.0
 20
1.22075808114181
 30
0.0
 10
10.0
 20
1.229881412378973
 30
0.0
 10
10.00000000000006
 20
1.310836380956026
 30
0.0
 10
9.999999999999943
 20
1.516521267217328
 30
0.0
 10
9.999999999999943
 20
1.830761115766862
 30
0.0
 10
9.999999999999943
 20
2.18813335279372
 30
0.0
 10
10.0
 20
2.570311858072969
 30
0.0
 10
9.999999999999943
 20
2.968600817762912
 30
0.0
 10
10.0
 20
3.443018151690872
 30
0.0
 10
10.0
 20
3.768103187466373
 30
0.0
 10
10.0
 20
3.964137866530592
 30
0.0
  0
LINE
  5
225
330
1F
100
AcDbEntity
  8
중심선
 48
0.8
100
AcDbLine
 10
-48.56250000000003
 20
0.0010749287238951
 30
0.0
 11
33.63749999999999
 21
0.0010749287239022
 31
0.0
  0
CIRCLE
  5
226
330
1F
100
AcDbEntity
  8
해칭선
100
AcDbCircle
 10
0.0
 20
0.0
 30
0.0
 40
3.000000000000002
  0
DIMENSION
  5
227
330
1F
100
AcDbEntity
  8
0
  6
Continuous
370
    15
100
AcDbDimension
  2
*D13
 10
-58.40375000000002
 20
-3.967675071276148
 30
0.0
 11
-58.40375000000003
 21
-1.647625843731248
 31
0.0
 70
   160
  1
%%c<>
 71
     2
 42
7.937499999999986
 52
-270.0
  3
SLDDIMSTYLE1
100
AcDbAlignedDimension
 13
-44.76875000000001
 23
3.969824928723888
 33
0.0
 14
-44.76875000000001
 24
-3.967675071276098
 34
0.0
 50
90.0000000000002
100
AcDbRotatedDimension
1001
ACAD
1000
DSTYLE
1002
{
1070
   171
1070
     6
1070
   273
1070
     7
1002
}
  0
DIMENSION
  5
228
330
1F
100
AcDbEntity
  8
0
  6
Continuous
370
    15
100
AcDbDimension
  2
*D14
 10
-45.56250000000003
 20
30.59532293609576
 30
0.0
 11
-7.462500000000006
 21
30.59532293609576
 31
0.0
 70
   160
  1
<>
 71
     2
 42
76.20000000000002
  3
SLDDIMSTYLE1
100
AcDbAlignedDimension
 13
30.63749999999999
 23
3.969824928723895
 33
0.0
 14
-45.56250000000003
 24
3.176074928723892
 34
0.0
 50
0.0000000000000053
100
AcDbRotatedDimension
1001
ACAD
1000
DSTYLE
1002
{
1070
   171
1070
     6
1070
   273
1070
     7
1002
}
  0
DIMENSION
  5
229
330
1F
100
AcDbEntity
  8
0
  6
Continuous
370
    15
100
AcDbDimension
  2
*D15
 10
10.0
 20
13.73375703717265
 30
0.0
 11
-7.958250000000021
 21
13.73375703717265
 31
0.0
 70
   160
  1
<>
 71
     2
 42
20.63749999999999
  3
SLDDIMSTYLE1
100
AcDbAlignedDimension
 13
30.63749999999999
 23
3.969824928723895
 33
0.0
 14
10.0
 24
3.964137866546281
 34
0.0
 50
-0.0000000000000049
100
AcDbRotatedDimension
1001
ACAD
1000
DSTYLE
1002
{
1070
   171
1070
     6
1070
   273
1070
     7
1002
}
  0
DIMENSION
  5
22A
330
1F
100
AcDbEntity
  8
0
  6
Continuous
370
    15
100
AcDbDimension
  2
*D16
 10
48.07857629384317
 20
-3.96767507127602
 30
0.0
 11
48.07857629384307
 21
24.57382492872398
 31
0.0
 70
   160
  1
%%c<>
 71
     2
 42
7.937499999999979
 52
-270.0
  3
SLDDIMSTYLE1
100
AcDbAlignedDimension
 13
30.63749999999999
 23
3.969824928723895
 33
0.0
 14
30.63749999999999
 24
-3.967675071276084
 34
0.0
 50
90.0000000000002
100
AcDbRotatedDimension
1001
ACAD
1000
DSTYLE
1002
{
1070
   171
1070
     6
1070
   273
1070
     7
1002
}
  0
INSERT
  5
22B
330
1F
100
AcDbEntity
  8
해칭선
100
AcDbBlockReference
  2
SW_DOWELSYMBOL_0
 10
0.0
 20
0.0
 30
0.0
  0
LINE
  5
22E
330
1F
100
AcDbEntity
  8
0
  6
Continuous
 62
     1
370
    15
100
AcDbLine
 10
30.63749999999999
 20
0.3979497661986287
 30
0.0
 11
30.63749999999999
 21
2.445824928723894
 31
0.0
  0
SPLINE
  5
22F
330
1F
100
AcDbEntity
  8
0
  6
Continuous
 62
     1
370
    15
100
AcDbSpline
210
0.0
220
0.0
230
1.0
 70
     8
 71
     3
 72
    48
 73
    44
 74
     0
 42
0.000000001
 43
0.00000001
 40
0.1540522906645133
 40
0.1540522906645133
 40
0.1540522906645133
 40
0.1540522906645133
 40
0.1562499999999957
 40
0.1562499999999957
 40
0.1874999999999948
 40
0.1874999999999948
 40
0.2499999999999946
 40
0.2499999999999946
 40
0.2812499999999937
 40
0.2812499999999937
 40
0.3124999999999929
 40
0.3124999999999929
 40
0.3749999999999911
 40
0.3749999999999911
 40
0.4062499999999903
 40
0.4062499999999903
 40
0.4374999999999894
 40
0.4374999999999894
 40
0.4999999999999877
 40
0.4999999999999877
 40
0.5312499999999876
 40
0.5312499999999876
 40
0.5624999999999875
 40
0.5624999999999875
 40
0.6249999999999889
 40
0.6249999999999889
 40
0.6562499999999903
 40
0.6562499999999903
 40
0.687499999999991
 40
0.687499999999991
 40
0.7499999999999923
 40
0.7499999999999923
 40
0.7812499999999934
 40
0.7812499999999934
 40
0.8124999999999944
 40
0.8124999999999944
 40
0.8749999999999966
 40
0.8749999999999966
 40
0.9062499999999976
 40
0.9062499999999976
 40
0.9374999999999987
 40
0.9374999999999987
 40
1.0
 40
1.0
 40
1.0
 40
1.0
 10
27.02871224778394
 20
-3.24989997665816
 30
0.0
 10
27.01398932512188
 20
-3.24501911544812
 30
0.0
 10
26.99925786393453
 20
-3.240114942227175
 30
0.0
 10
26.77490409851259
 20
-3.165121110853114
 30
0.0
 10
26.5642438229296
 20
-3.090413134809026
 30
0.0
 10
25.93308267813637
 20
-2.85372247837077
 30
0.0
 10
25.51754124788204
 20
-2.67977091759861
 30
0.0
 10
24.88695773803391
 20
-2.396906367170253
 30
0.0
 10
24.67618895401404
 20
-2.299041395050004
 30
0.0
 10
24.25614951683991
 20
-2.097392287420263
 30
0.0
 10
24.04795433095933
 20
-1.993793680829832
 30
0.0
 10
23.42119591584213
 20
-1.674759517297375
 30
0.0
 10
22.99768668879852
 20
-1.450513388076203
 30
0.0
 10
22.36974733221342
 20
-1.10516708370892
 30
0.0
 10
22.16204113065839
 20
-0.9886483982531189
 30
0.0
 10
21.74250834073257
 20
-0.7524117605951233
 30
0.0
 10
21.53179568942369
 20
-0.6328968363108771
 30
0.0
 10
20.90078549792639
 20
-0.2724050431078027
 30
0.0
 10
20.48533470469567
 20
-0.0302056229611054
 30
0.0
 10
19.85450846378268
 20
0.3327976634606671
 30
0.0
 10
19.6437612574307
 20
0.4535935214683633
 30
0.0
 10
19.22396905279999
 20
0.6932599612925401
 30
0.0
 10
19.01607749948687
 20
0.8119142193577389
 30
0.0
 10
18.38868683566176
 20
1.164701112673164
 30
0.0
 10
17.96516249114711
 20
1.395649347529371
 30
0.0
 10
17.33781187919186
 20
1.727074760521965
 30
0.0
 10
17.12990374187649
 20
1.835093310204542
 30
0.0
 10
16.71009435419836
 20
2.046397667368247
 30
0.0
 10
16.49934524409304
 20
2.149476550344033
 30
0.0
 10
15.86853347417872
 20
2.449036561568612
 30
0.0
 10
15.45307960697426
 20
2.63539710431246
 30
0.0
 10
14.82205805714057
 20
2.892522410000083
 30
0.0
 10
14.61134835410792
 20
2.974348441220485
 30
0.0
 10
14.19183480673092
 20
3.129231135882598
 30
0.0
 10
13.984138047258
 20
3.202173938456824
 30
0.0
 10
13.35616169809572
 20
3.40790434995899
 30
0.0
 10
12.93265459376363
 20
3.527195787648878
 30
0.0
 10
12.30593927983142
 20
3.674938231881882
 30
0.0
 10
12.09772037215669
 20
3.719095850417816
 30
0.0
 10
11.67766581573647
 20
3.797157565163815
 30
0.0
 10
11.46689617296687
 20
3.830974065624289
 30
0.0
 10
10.83633024315043
 20
3.916131259931625
 30
0.0
 10
10.42077959174509
 20
3.951166446709657
 30
0.0
 10
10.00000000000006
 20
3.964137866545883
 30
0.0
  0
SPLINE
  5
274
330
1F
100
AcDbEntity
  8
0
  6
Continuous
 62
     1
370
    15
100
AcDbSpline
210
0.0
220
0.0
230
1.0
 70
     8
 71
     3
 72
    10
 73
     6
 74
     4
 42
0.000000001
 43
0.0000000001
 44
0.0
 40
0.0
 40
0.0
 40
0.0
 40
0.0
 40
0.7636405725267462
 40
1.496007777724891
 40
2.225925733098051
 40
2.225925733098051
 40
2.225925733098051
 40
2.225925733098051
 10
27.04412724987532
 20
3.247276304832944
 30
0.0
 10
27.25870404712413
 20
3.384192320188144
 30
0.0
 10
27.67907007945968
 20
3.652417230225
 30
0.0
 10
28.37979946904819
 20
3.929484805971924
 30
0.0
 10
28.86920639987078
 20
3.956393244540774
 30
0.0
 10
29.11349999999999
 20
3.969824928723895
 30
0.0
 11
27.04412724987532
 21
3.247276304832944
 31
0.0
 11
27.70103751363465
 21
3.636655078492508
 31
0.0
 11
28.38786345285277
 21
3.890883032240482
 31
0.0
 11
29.11349999999999
 21
3.969824928723895
 31
0.0
  0
ARC
  5
275
330
1F
100
AcDbEntity
  8
0
  6
Continuous
 62
     1
370
    15
100
AcDbCircle
 10
29.11349999999999
 20
2.445824928723894
 30
0.0
 40
1.524
100
AcDbArc
 50
0.0
 51
90.0
  0
ARC
  5
276
102
{ACAD_REACTORS
102
}
330
1F
100
AcDbEntity
  8
0
  6
Continuous
 62
     1
370
    15
100
AcDbCircle
 10
29.11349999999999
 20
-2.443675071276093
 30
0.0
 40
1.524
100
AcDbArc
 50
270.0
 51
0.0
  0
SPLINE
  5
277
330
1F
100
AcDbEntity
  8
0
  6
Continuous
 62
     1
370
    15
100
AcDbSpline
210
0.0
220
0.0
230
1.0
 70
     8
 71
     3
 72
     9
 73
     5
 74
     3
 42
0.000000001
 43
0.0000000001
 44
0.0
 40
0.0
 40
0.0
 40
0.0
 40
0.0
 40
1.328464657815993
 40
2.206526219945126
 40
2.206526219945126
 40
2.206526219945126
 40
2.206526219945126
 10
27.02871224778391
 20
-3.249899976658156
 30
0.0
 10
27.43936215153546
 20
-3.417030868886357
 30
0.0
 10
28.12143508024654
 20
-3.694628540525302
 30
0.0
 10
28.8310978980937
 20
-3.889949397616141
 30
0.0
 10
29.11349999999999
 20
-3.967675071276094
 30
0.0
 11
27.02871224778391
 21
-3.249899976658156
 31
0.0
 11
28.27066269083664
 21
-3.721469106338303
 31
0.0
 11
29.11349999999999
 21
-3.967675071276094
 31
0.0
  0
DIMENSION
  5
278
102
{ACAD_REACTORS
102
}
102
{ACAD_XDICTIONARY
360
279
102
}
330
1F
100
AcDbEntity
  8
0
  6
Continuous
370
    15
100
AcDbDimension
  2
*D18
 10
29.11349999999999
 20
-2.443675071276093
 30
0.0
 11
47.15717310273461
 21
-36.14398738078079
 31
0.0
 70
   164
  1
<>
 71
     5
 42
1.524000000000006
  3
SLDDIMSTYLE2
100
AcDbRadialDimension
 15
29.83285360796256
 25
-3.787217547981331
 35
0.0
 40
0.0
1001
ACAD
1000
DSTYLE
1002
{
1070
   171
1070
     3
1002
}
1001
ACAD_DSTYLE_DIMRADIAL_EXTENSION
1070
   387
1070
     1
1070
   388
1040
4.71238898038469
1070
   390
1040
0.0
  0
ENDSEC
  0
SECTION
  2
OBJECTS
  0
DICTIONARY
  5
C
330
0
100
AcDbDictionary
281
     1
  3
ACAD_GROUP
350
D
  3
ACAD_IMAGE_VARS
350
14C
  3
ACAD_LAYOUT
350
1A
  3
ACAD_MLINESTYLE
350
17
  3
ACAD_PLOTSETTINGS
350
19
  3
ACAD_PLOTSTYLENAME
350
E
  3
ACAD_SCALELIST
350
47
  3
APPDATA
350
14A
  3
DWGPROPS
350
285
  0
DICTIONARY
  5
1F5
330
2
100
AcDbDictionary
280
     1
281
     1
  3
ACAD_LAYERSTATES
360
1F6
  0
DICTIONARY
  5
279
330
278
100
AcDbDictionary
280
     1
281
     1
  0
DICTIONARY
  5
D
102
{ACAD_REACTORS
330
C
102
}
330
C
100
AcDbDictionary
281
     1
  0
RASTERVARIABLES
  5
14C
102
{ACAD_REACTORS
330
C
102
}
330
C
100
AcDbRasterVariables
 90
        0
 70
     1
 71
     1
 72
     1
  0
DICTIONARY
  5
1A
102
{ACAD_REACTORS
330
C
102
}
330
C
100
AcDbDictionary
281
     1
  3
Layout1
350
1E
  3
Layout2
350
26
  3
Model
350
22
  0
DICTIONARY
  5
17
102
{ACAD_REACTORS
330
C
102
}
330
C
100
AcDbDictionary
281
     1
  3
Standard
350
18
  0
DICTIONARY
  5
19
102
{ACAD_REACTORS
330
C
102
}
330
C
100
AcDbDictionary
281
     1
  0
ACDBDICTIONARYWDFLT
  5
E
102
{ACAD_REACTORS
330
C
102
}
330
C
100
AcDbDictionary
281
     1
  3
Normal
350
F
100
AcDbDictionaryWithDefault
340
F
  0
DICTIONARY
  5
47
102
{ACAD_REACTORS
330
C
102
}
330
C
100
AcDbDictionary
281
     1
  3
A0
350
48
  3
A1
350
49
  3
A2
350
4A
  3
A3
350
4B
  3
A4
350
4C
  3
A5
350
4D
  3
A6
350
4E
  3
A7
350
4F
  3
A8
350
50
  3
A9
350
51
  3
B0
350
52
  3
B1
350
53
  3
B2
350
54
  3
B3
350
55
  3
B4
350
56
  3
B5
350
57
  3
B6
350
58
  3
B7
350
59
  3
B8
350
5A
  3
B9
350
5B
  3
C0
350
5C
  3
C1
350
5D
  3
C2
350
5E
  3
C3
350
5F
  3
C4
350
60
  3
C5
350
61
  3
C6
350
62
  3
C7
350
63
  3
C8
350
64
  3
C9
350
65
  3
D0
350
66
  3
D1
350
67
  3
D2
350
68
  0
DICTIONARY
  5
14A
102
{ACAD_REACTORS
330
C
102
}
330
C
100
AcDbDictionary
281
     1
  0
XRECORD
  5
285
102
{ACAD_REACTORS
330
C
102
}
330
C
100
AcDbXrecord
280
     1
  1
DWGPROPS COOKIE
  2

  3

  4

  6

  7

  8
12017012
  9

300
=
301
=
302
=
303
=
304
=
305
=
306
=
307
=
308
=
309
=
 40
0.0
 41
2458296.327907257
 42
2458296.384470278
  1

 90
        0
  0
DICTIONARY
  5
1F6
102
{ACAD_REACTORS
330
1F5
102
}
330
1F5
100
AcDbDictionary
281
     1
  0
LAYOUT
  5
1E
102
{ACAD_REACTORS
330
1A
102
}
330
1A
100
AcDbPlotSettings
  1

  2
none_device
  4

  6

 40
0.0
 41
0.0
 42
0.0
 43
0.0
 44
0.0
 45
0.0
 46
0.0
 47
0.0
 48
0.0
 49
0.0
140
0.0
141
0.0
142
1.0
143
1.0
 70
   688
 72
     1
 73
     0
 74
     5
  7

 75
    16
147
1.0
148
0.0
149
0.0
100
AcDbLayout
  1
Layout1
 70
     1
 71
     1
 10
0.0
 20
0.0
 11
420.0
 21
297.0
 12
0.0
 22
0.0
 32
0.0
 14
1.000000000000000E+20
 24
1.000000000000000E+20
 34
1.000000000000000E+20
 15
-1.000000000000000E+20
 25
-1.000000000000000E+20
 35
-1.000000000000000E+20
146
0.0
 13
0.0
 23
0.0
 33
0.0
 16
1.0
 26
0.0
 36
0.0
 17
0.0
 27
1.0
 37
0.0
 76
     0
330
1B
  0
LAYOUT
  5
26
102
{ACAD_REACTORS
330
1A
102
}
330
1A
100
AcDbPlotSettings
  1

  2
none_device
  4

  6

 40
0.0
 41
0.0
 42
0.0
 43
0.0
 44
0.0
 45
0.0
 46
0.0
 47
0.0
 48
0.0
 49
0.0
140
0.0
141
0.0
142
1.0
143
1.0
 70
   688
 72
     1
 73
     0
 74
     5
  7

 75
    16
147
1.0
148
0.0
149
0.0
100
AcDbLayout
  1
Layout2
 70
     1
 71
     2
 10
0.0
 20
0.0
 11
0.0
 21
0.0
 12
0.0
 22
0.0
 32
0.0
 14
0.0
 24
0.0
 34
0.0
 15
0.0
 25
0.0
 35
0.0
146
0.0
 13
0.0
 23
0.0
 33
0.0
 16
1.0
 26
0.0
 36
0.0
 17
0.0
 27
1.0
 37
0.0
 76
     0
330
23
  0
LAYOUT
  5
22
102
{ACAD_REACTORS
330
1A
102
}
330
1A
100
AcDbPlotSettings
  1

  2
none_device
  4
ANSI_A_(11.00_x_8.50_Inches)
  6

 40
6.35
 41
19.05
 42
6.35000508
 43
19.05000254
 44
279.4
 45
215.9
 46
124.9182692373073
 47
98.3565685841283
 48
0.0
 49
0.0
140
0.0
141
0.0
142
0.072109681528248
143
1.0
 70
  1696
 72
     0
 73
     0
 74
     0
  7

 75
     0
147
0.0235690232323232
148
0.0
149
0.0
100
AcDbLayout
  1
Model
 70
     1
 71
     0
 10
0.0
 20
0.0
 11
420.0
 21
297.0
 12
0.0
 22
0.0
 32
0.0
 14
1.000000000000000E+20
 24
1.000000000000000E+20
 34
1.000000000000000E+20
 15
-1.000000000000000E+20
 25
-1.000000000000000E+20
 35
-1.000000000000000E+20
146
0.0
 13
0.0
 23
0.0
 33
0.0
 16
1.0
 26
0.0
 36
0.0
 17
0.0
 27
1.0
 37
0.0
 76
     0
330
1F
331
29
  0
MLINESTYLE
  5
18
102
{ACAD_REACTORS
330
17
102
}
330
17
100
AcDbMlineStyle
  2
Standard
 70
     0
  3

 62
   256
 51
90.0
 52
90.0
 71
     2
 49
0.5
 62
   256
  6
BYLAYER
 49
-0.5
 62
   256
  6
BYLAYER
  0
ACDBPLACEHOLDER
  5
F
102
{ACAD_REACTORS
330
E
102
}
330
E
  0
SCALE
  5
48
102
{ACAD_REACTORS
330
47
102
}
330
47
100
AcDbScale
 70
     0
300
1:1
140
1.0
141
1.0
290
     1
  0
SCALE
  5
49
102
{ACAD_REACTORS
330
47
102
}
330
47
100
AcDbScale
 70
     0
300
1:2
140
1.0
141
2.0
290
     0
  0
SCALE
  5
4A
102
{ACAD_REACTORS
330
47
102
}
330
47
100
AcDbScale
 70
     0
300
1:4
140
1.0
141
4.0
290
     0
  0
SCALE
  5
4B
102
{ACAD_REACTORS
330
47
102
}
330
47
100
AcDbScale
 70
     0
300
1:5
140
1.0
141
5.0
290
     0
  0
SCALE
  5
4C
102
{ACAD_REACTORS
330
47
102
}
330
47
100
AcDbScale
 70
     0
300
1:8
140
1.0
141
8.0
290
     0
  0
SCALE
  5
4D
102
{ACAD_REACTORS
330
47
102
}
330
47
100
AcDbScale
 70
     0
300
1:10
140
1.0
141
10.0
290
     0
  0
SCALE
  5
4E
102
{ACAD_REACTORS
330
47
102
}
330
47
100
AcDbScale
 70
     0
300
1:16
140
1.0
141
16.0
290
     0
  0
SCALE
  5
4F
102
{ACAD_REACTORS
330
47
102
}
330
47
100
AcDbScale
 70
     0
300
1:20
140
1.0
141
20.0
290
     0
  0
SCALE
  5
50
102
{ACAD_REACTORS
330
47
102
}
330
47
100
AcDbScale
 70
     0
300
1:30
140
1.0
141
30.0
290
     0
  0
SCALE
  5
51
102
{ACAD_REACTORS
330
47
102
}
330
47
100
AcDbScale
 70
     0
300
1:40
140
1.0
141
40.0
290
     0
  0
SCALE
  5
52
102
{ACAD_REACTORS
330
47
102
}
330
47
100
AcDbScale
 70
     0
300
1:50
140
1.0
141
50.0
290
     0
  0
SCALE
  5
53
102
{ACAD_REACTORS
330
47
102
}
330
47
100
AcDbScale
 70
     0
300
1:100
140
1.0
141
100.0
290
     0
  0
SCALE
  5
54
102
{ACAD_REACTORS
330
47
102
}
330
47
100
AcDbScale
 70
     0
300
2:1
140
2.0
141
1.0
290
     0
  0
SCALE
  5
55
102
{ACAD_REACTORS
330
47
102
}
330
47
100
AcDbScale
 70
     0
300
4:1
140
4.0
141
1.0
290
     0
  0
SCALE
  5
56
102
{ACAD_REACTORS
330
47
102
}
330
47
100
AcDbScale
 70
     0
300
8:1
140
8.0
141
1.0
290
     0
  0
SCALE
  5
57
102
{ACAD_REACTORS
330
47
102
}
330
47
100
AcDbScale
 70
     0
300
10:1
140
10.0
141
1.0
290
     0
  0
SCALE
  5
58
102
{ACAD_REACTORS
330
47
102
}
330
47
100
AcDbScale
 70
     0
300
100:1
140
100.0
141
1.0
290
     0
  0
SCALE
  5
59
102
{ACAD_REACTORS
330
47
102
}
330
47
100
AcDbScale
 70
     0
300
1/128" = 1'-0"
140
0.0078125
141
12.0
290
     0
  0
SCALE
  5
5A
102
{ACAD_REACTORS
330
47
102
}
330
47
100
AcDbScale
 70
     0
300
1/64" = 1'-0"
140
0.015625
141
12.0
290
     0
  0
SCALE
  5
5B
102
{ACAD_REACTORS
330
47
102
}
330
47
100
AcDbScale
 70
     0
300
1/32" = 1'-0"
140
0.03125
141
12.0
290
     0
  0
SCALE
  5
5C
102
{ACAD_REACTORS
330
47
102
}
330
47
100
AcDbScale
 70
     0
300
1/16" = 1'-0"
140
0.0625
141
12.0
290
     0
  0
SCALE
  5
5D
102
{ACAD_REACTORS
330
47
102
}
330
47
100
AcDbScale
 70
     0
300
3/32" = 1'-0"
140
0.09375
141
12.0
290
     0
  0
SCALE
  5
5E
102
{ACAD_REACTORS
330
47
102
}
330
47
100
AcDbScale
 70
     0
300
1/8" = 1'-0"
140
0.125
141
12.0
290
     0
  0
SCALE
  5
5F
102
{ACAD_REACTORS
330
47
102
}
330
47
100
AcDbScale
 70
     0
300
3/16" = 1'-0"
140
0.1875
141
12.0
290
     0
  0
SCALE
  5
60
102
{ACAD_REACTORS
330
47
102
}
330
47
100
AcDbScale
 70
     0
300
1/4" = 1'-0"
140
0.25
141
12.0
290
     0
  0
SCALE
  5
61
102
{ACAD_REACTORS
330
47
102
}
330
47
100
AcDbScale
 70
     0
300
3/8" = 1'-0"
140
0.375
141
12.0
290
     0
  0
SCALE
  5
62
102
{ACAD_REACTORS
330
47
102
}
330
47
100
AcDbScale
 70
     0
300
1/2" = 1'-0"
140
0.5
141
12.0
290
     0
  0
SCALE
  5
63
102
{ACAD_REACTORS
330
47
102
}
330
47
100
AcDbScale
 70
     0
300
3/4" = 1'-0"
140
0.75
141
12.0
290
     0
  0
SCALE
  5
64
102
{ACAD_REACTORS
330
47
102
}
330
47
100
AcDbScale
 70
     0
300
1" = 1'-0"
140
1.0
141
12.0
290
     0
  0
SCALE
  5
65
102
{ACAD_REACTORS
330
47
102
}
330
47
100
AcDbScale
 70
     0
300
1-1/2" = 1'-0"
140
1.5
141
12.0
290
     0
  0
SCALE
  5
66
102
{ACAD_REACTORS
330
47
102
}
330
47
100
AcDbScale
 70
     0
300
3" = 1'-0"
140
3.0
141
12.0
290
     0
  0
SCALE
  5
67
102
{ACAD_REACTORS
330
47
102
}
330
47
100
AcDbScale
 70
     0
300
6" = 1'-0"
140
6.0
141
12.0
290
     0
  0
SCALE
  5
68
102
{ACAD_REACTORS
330
47
102
}
330
47
100
AcDbScale
 70
     0
300
1'-0" = 1'-0"
140
12.0
141
12.0
290
     0
  0
ENDSEC
  0
EOF
