  0
SECTION
  2
HEADER
  9
$ACADVER
  1
AC1015
  9
$ACADMAINTVER
 70
     6
  9
$DWGCODEPAGE
  3
ANSI_949
  9
$INSBASE
 10
0.0
 20
0.0
 30
0.0
  9
$EXTMIN
 10
1.000000000000000E+20
 20
1.000000000000000E+20
 30
1.000000000000000E+20
  9
$EXTMAX
 10
-1.000000000000000E+20
 20
-1.000000000000000E+20
 30
-1.000000000000000E+20
  9
$LIMMIN
 10
0.0
 20
0.0
  9
$LIMMAX
 10
420.0
 20
297.0
  9
$ORTHOMODE
 70
     1
  9
$REGENMODE
 70
     1
  9
$FILLMODE
 70
     1
  9
$QTEXTMODE
 70
     0
  9
$MIRRTEXT
 70
     1
  9
$LTSCALE
 40
1.0
  9
$ATTMODE
 70
     1
  9
$TEXTSIZE
 40
3.5
  9
$TRACEWID
 40
1.0
  9
$TEXTSTYLE
  7
Standard
  9
$CLAYER
  8
0
  9
$CELTYPE
  6
ByLayer
  9
$CECOLOR
 62
   256
  9
$CELTSCALE
 40
1.0
  9
$DISPSILH
 70
     0
  9
$DIMSCALE
 40
1.0
  9
$DIMASZ
 40
3.302
  9
$DIMEXO
 40
1.0
  9
$DIMDLI
 40
3.75
  9
$DIMRND
 40
0.0
  9
$DIMDLE
 40
0.0
  9
$DIMEXE
 40
1.0
  9
$DIMTP
 40
0.0
  9
$DIMTM
 40
0.0
  9
$DIMTXT
 40
3.5
  9
$DIMCEN
 40
2.5
  9
$DIMTSZ
 40
0.0
  9
$DIMTOL
 70
     0
  9
$DIMLIM
 70
     0
  9
$DIMTIH
 70
     1
  9
$DIMTOH
 70
     1
  9
$DIMSE1
 70
     0
  9
$DIMSE2
 70
     0
  9
$DIMTAD
 70
     1
  9
$DIMZIN
 70
     0
  9
$DIMBLK
  1

  9
$DIMASO
 70
     1
  9
$DIMSHO
 70
     1
  9
$DIMPOST
  1

  9
$DIMAPOST
  1

  9
$DIMALT
 70
     0
  9
$DIMALTD
 70
     3
  9
$DIMALTF
 40
0.0393700787401575
  9
$DIMLFAC
 40
1.0
  9
$DIMTOFL
 70
     1
  9
$DIMTVP
 40
0.0
  9
$DIMTIX
 70
     0
  9
$DIMSOXD
 70
     0
  9
$DIMSAH
 70
     0
  9
$DIMBLK1
  1

  9
$DIMBLK2
  1

  9
$DIMSTYLE
  2
ISO-25
  9
$DIMCLRD
 70
     0
  9
$DIMCLRE
 70
     0
  9
$DIMCLRT
 70
     0
  9
$DIMTFAC
 40
1.0
  9
$DIMGAP
 40
1.524
  9
$DIMJUST
 70
     0
  9
$DIMSD1
 70
     0
  9
$DIMSD2
 70
     0
  9
$DIMTOLJ
 70
     0
  9
$DIMTZIN
 70
     0
  9
$DIMALTZ
 70
     0
  9
$DIMALTTZ
 70
     0
  9
$DIMUPT
 70
     0
  9
$DIMDEC
 70
     2
  9
$DIMTDEC
 70
     2
  9
$DIMALTU
 70
     2
  9
$DIMALTTD
 70
     3
  9
$DIMTXSTY
  7
Standard
  9
$DIMAUNIT
 70
     0
  9
$DIMADEC
 70
     2
  9
$DIMALTRND
 40
0.0
  9
$DIMAZIN
 70
     0
  9
$DIMDSEP
 70
    44
  9
$DIMATFIT
 70
     3
  9
$DIMFRAC
 70
     0
  9
$DIMLDRBLK
  1

  9
$DIMLUNIT
 70
     2
  9
$DIMLWD
 70
    -2
  9
$DIMLWE
 70
    -2
  9
$DIMTMOVE
 70
     0
  9
$LUNITS
 70
     2
  9
$LUPREC
 70
     2
  9
$SKETCHINC
 40
1.0
  9
$FILLETRAD
 40
10.0
  9
$AUNITS
 70
     0
  9
$AUPREC
 70
     2
  9
$MENU
  1
.
  9
$ELEVATION
 40
0.0
  9
$PELEVATION
 40
0.0
  9
$THICKNESS
 40
0.0
  9
$LIMCHECK
 70
     0
  9
$CHAMFERA
 40
0.0
  9
$CHAMFERB
 40
0.0
  9
$CHAMFERC
 40
0.0
  9
$CHAMFERD
 40
0.0
  9
$SKPOLY
 70
     0
  9
$TDCREATE
 40
2458296.703769583
  9
$TDUCREATE
 40
2458296.328769583
  9
$TDUPDATE
 40
2458304.451270347
  9
$TDUUPDATE
 40
2458304.076270347
  9
$TDINDWG
 40
0.000896713
  9
$TDUSRTIMER
 40
2458304.075373773
  9
$USRTIMER
 70
     1
  9
$ANGBASE
 50
0.0
  9
$ANGDIR
 70
     0
  9
$PDMODE
 70
     0
  9
$PDSIZE
 40
-1.0
  9
$PLINEWID
 40
0.0
  9
$SPLFRAME
 70
     0
  9
$SPLINETYPE
 70
     6
  9
$SPLINESEGS
 70
     8
  9
$HANDSEED
  5
254
  9
$SURFTAB1
 70
     6
  9
$SURFTAB2
 70
     6
  9
$SURFTYPE
 70
     6
  9
$SURFU
 70
     6
  9
$SURFV
 70
     6
  9
$UCSBASE
  2

  9
$UCSNAME
  2

  9
$UCSORG
 10
0.0
 20
0.0
 30
0.0
  9
$UCSXDIR
 10
1.0
 20
0.0
 30
0.0
  9
$UCSYDIR
 10
0.0
 20
1.0
 30
0.0
  9
$UCSORTHOREF
  2

  9
$UCSORTHOVIEW
 70
     0
  9
$UCSORGTOP
 10
0.0
 20
0.0
 30
0.0
  9
$UCSORGBOTTOM
 10
0.0
 20
0.0
 30
0.0
  9
$UCSORGLEFT
 10
0.0
 20
0.0
 30
0.0
  9
$UCSORGRIGHT
 10
0.0
 20
0.0
 30
0.0
  9
$UCSORGFRONT
 10
0.0
 20
0.0
 30
0.0
  9
$UCSORGBACK
 10
0.0
 20
0.0
 30
0.0
  9
$PUCSBASE
  2

  9
$PUCSNAME
  2

  9
$PUCSORG
 10
0.0
 20
0.0
 30
0.0
  9
$PUCSXDIR
 10
1.0
 20
0.0
 30
0.0
  9
$PUCSYDIR
 10
0.0
 20
1.0
 30
0.0
  9
$PUCSORTHOREF
  2

  9
$PUCSORTHOVIEW
 70
     0
  9
$PUCSORGTOP
 10
0.0
 20
0.0
 30
0.0
  9
$PUCSORGBOTTOM
 10
0.0
 20
0.0
 30
0.0
  9
$PUCSORGLEFT
 10
0.0
 20
0.0
 30
0.0
  9
$PUCSORGRIGHT
 10
0.0
 20
0.0
 30
0.0
  9
$PUCSORGFRONT
 10
0.0
 20
0.0
 30
0.0
  9
$PUCSORGBACK
 10
0.0
 20
0.0
 30
0.0
  9
$USERI1
 70
     0
  9
$USERI2
 70
     0
  9
$USERI3
 70
     0
  9
$USERI4
 70
     0
  9
$USERI5
 70
     0
  9
$USERR1
 40
0.0
  9
$USERR2
 40
0.0
  9
$USERR3
 40
0.0
  9
$USERR4
 40
0.0
  9
$USERR5
 40
0.0
  9
$WORLDVIEW
 70
     1
  9
$SHADEDGE
 70
     3
  9
$SHADEDIF
 70
    70
  9
$TILEMODE
 70
     1
  9
$MAXACTVP
 70
    64
  9
$PINSBASE
 10
0.0
 20
0.0
 30
0.0
  9
$PLIMCHECK
 70
     0
  9
$PEXTMIN
 10
1.000000000000000E+20
 20
1.000000000000000E+20
 30
1.000000000000000E+20
  9
$PEXTMAX
 10
-1.000000000000000E+20
 20
-1.000000000000000E+20
 30
-1.000000000000000E+20
  9
$PLIMMIN
 10
0.0
 20
0.0
  9
$PLIMMAX
 10
0.0
 20
0.0
  9
$UNITMODE
 70
     0
  9
$VISRETAIN
 70
     1
  9
$PLINEGEN
 70
     0
  9
$PSLTSCALE
 70
     1
  9
$TREEDEPTH
 70
  3020
  9
$CMLSTYLE
  2
Standard
  9
$CMLJUST
 70
     0
  9
$CMLSCALE
 40
20.0
  9
$PROXYGRAPHICS
 70
     1
  9
$MEASUREMENT
 70
     1
  9
$CELWEIGHT
370
    -1
  9
$ENDCAPS
280
     0
  9
$JOINSTYLE
280
     0
  9
$LWDISPLAY
290
     1
  9
$INSUNITS
 70
     4
  9
$HYPERLINKBASE
  1

  9
$STYLESHEET
  1

  9
$XEDIT
290
     1
  9
$CEPSNTYPE
380
     0
  9
$PSTYLEMODE
290
     1
  9
$FINGERPRINTGUID
  2
{4BB69BE9-825D-4B10-94A4-E777C7EBC76D}
  9
$VERSIONGUID
  2
{FAEB1C32-E019-11D5-929B-00C0DF256EC4}
  9
$EXTNAMES
290
     1
  9
$PSVPSCALE
 40
0.0
  9
$OLESTARTUP
290
     0
  0
ENDSEC
  0
SECTION
  2
CLASSES
  0
CLASS
  1
ACDBDICTIONARYWDFLT
  2
AcDbDictionaryWithDefault
  3
ObjectDBX Classes
 90
        0
280
     0
281
     0
  0
CLASS
  1
VISUALSTYLE
  2
AcDbVisualStyle
  3
ObjectDBX Classes
 90
     4095
280
     0
281
     0
  0
CLASS
  1
MATERIAL
  2
AcDbMaterial
  3
ObjectDBX Classes
 90
     1153
280
     0
281
     0
  0
CLASS
  1
SCALE
  2
AcDbScale
  3
ObjectDBX Classes
 90
     1153
280
     0
281
     0
  0
CLASS
  1
SUN
  2
AcDbSun
  3
SCENEOE
 90
     1153
280
     0
281
     0
  0
CLASS
  1
ACDBPLACEHOLDER
  2
AcDbPlaceHolder
  3
ObjectDBX Classes
 90
        0
280
     0
281
     0
  0
CLASS
  1
LAYOUT
  2
AcDbLayout
  3
ObjectDBX Classes
 90
        0
280
     0
281
     0
  0
CLASS
  1
TABLESTYLE
  2
AcDbTableStyle
  3
ObjectDBX Classes
 90
     4095
280
     0
281
     0
  0
CLASS
  1
MLEADERSTYLE
  2
AcDbMLeaderStyle
  3
ACDB_MLEADERSTYLE_CLASS
 90
     4095
280
     0
281
     0
  0
CLASS
  1
RASTERVARIABLES
  2
AcDbRasterVariables
  3
ISM
 90
        0
280
     0
281
     0
  0
CLASS
  1
DIMASSOC
  2
AcDbDimAssoc
  3
"AcDbDimAssoc|Product Desc:     AcDim ARX App For Dimension|Company:          Autodesk, Inc.|WEB Address:      www.autodesk.com"
 90
        0
280
     0
281
     0
  0
ENDSEC
  0
SECTION
  2
TABLES
  0
TABLE
  2
VPORT
  5
8
330
0
100
AcDbSymbolTable
 70
     1
  0
VPORT
  5
29
330
8
100
AcDbSymbolTableRecord
100
AcDbViewportTableRecord
  2
*Active
 70
     0
 10
0.0
 20
0.0
 11
1.0
 21
1.0
 12
0.7566138471009936
 22
16.52452056006765
 13
0.0
 23
0.0
 14
10.0
 24
10.0
 15
10.0
 25
10.0
 16
0.0
 26
0.0
 36
1.0
 17
0.0
 27
0.0
 37
0.0
 40
151.1967967625297
 41
1.591876208897486
 42
50.0
 43
0.0
 44
0.0
 50
0.0
 51
0.0
 71
    16
 72
  2000
 73
     1
 74
     3
 75
     0
 76
     0
 77
     0
 78
     0
281
     0
 65
     1
110
0.0
120
0.0
130
0.0
111
1.0
121
0.0
131
0.0
112
0.0
122
1.0
132
0.0
 79
     0
146
0.0
  0
ENDTAB
  0
TABLE
  2
LTYPE
  5
5
330
0
100
AcDbSymbolTable
 70
     6
  0
LTYPE
  5
14
330
5
100
AcDbSymbolTableRecord
100
AcDbLinetypeTableRecord
  2
ByBlock
 70
     0
  3

 72
    65
 73
     0
 40
0.0
  0
LTYPE
  5
15
330
5
100
AcDbSymbolTableRecord
100
AcDbLinetypeTableRecord
  2
ByLayer
 70
     0
  3

 72
    65
 73
     0
 40
0.0
  0
LTYPE
  5
16
330
5
100
AcDbSymbolTableRecord
100
AcDbLinetypeTableRecord
  2
Continuous
 70
     0
  3
Solid line
 72
    65
 73
     0
 40
0.0
  0
LTYPE
  5
6A
330
5
100
AcDbSymbolTableRecord
100
AcDbLinetypeTableRecord
  2
HIDDEN
 70
     0
  3
Hidden __ __ __ __ __ __ __ __ __ __ __ __ __ __
 72
    65
 73
     2
 40
1.905
 49
1.27
 74
     0
 49
-0.635
 74
     0
  0
LTYPE
  5
6B
330
5
100
AcDbSymbolTableRecord
100
AcDbLinetypeTableRecord
  2
PHANTOM
 70
     0
  3
Phantom ______  __  __  ______  __  __  ______
 72
    65
 73
     6
 40
12.7
 49
6.35
 74
     0
 49
-1.27
 74
     0
 49
1.27
 74
     0
 49
-1.27
 74
     0
 49
1.27
 74
     0
 49
-1.27
 74
     0
  0
LTYPE
  5
6C
330
5
100
AcDbSymbolTableRecord
100
AcDbLinetypeTableRecord
  2
CENTER
 70
     0
  3
Center ____ _ ____ _ ____ _ ____ _ ____ _ ____
 72
    65
 73
     4
 40
10.16
 49
6.35
 74
     0
 49
-1.27
 74
     0
 49
1.27
 74
     0
 49
-1.27
 74
     0
  0
LTYPE
  5
6D
330
5
100
AcDbSymbolTableRecord
100
AcDbLinetypeTableRecord
  2
CENTERX2
 70
     0
  3
Center (2x) ________  __  ________  __  _____
 72
    65
 73
     4
 40
20.32
 49
12.7
 74
     0
 49
-2.54
 74
     0
 49
2.54
 74
     0
 49
-2.54
 74
     0
  0
LTYPE
  5
6E
330
5
100
AcDbSymbolTableRecord
100
AcDbLinetypeTableRecord
  2
DOT2
 70
     0
  3
Dot (.5x) ........................................
 72
    65
 73
     2
 40
0.635
 49
0.0
 74
     0
 49
-0.635
 74
     0
  0
ENDTAB
  0
TABLE
  2
LAYER
  5
2
102
{ACAD_XDICTIONARY
360
1D2
102
}
330
0
100
AcDbSymbolTable
 70
    18
  0
LAYER
  5
10
330
2
100
AcDbSymbolTableRecord
100
AcDbLayerTableRecord
  2
0
 70
     0
 62
     7
  6
Continuous
370
    -3
390
F
  0
LAYER
  5
6F
330
2
100
AcDbSymbolTableRecord
100
AcDbLayerTableRecord
  2
FORMAT
 70
     0
 62
     2
  6
Continuous
370
    -3
390
F
  0
LAYER
  5
70
330
2
100
AcDbSymbolTableRecord
100
AcDbLayerTableRecord
  2
외형선
 70
     0
 62
     4
  6
Continuous
370
    30
390
F
  0
LAYER
  5
71
330
2
100
AcDbSymbolTableRecord
100
AcDbLayerTableRecord
  2
숨은선
 70
     0
 62
     2
  6
HIDDEN
370
    15
390
F
  0
LAYER
  5
72
330
2
100
AcDbSymbolTableRecord
100
AcDbLayerTableRecord
  2
중심선
 70
     0
 62
     1
  6
CENTERX2
370
    -3
390
F
  0
LAYER
  5
73
330
2
100
AcDbSymbolTableRecord
100
AcDbLayerTableRecord
  2
파단선
 70
     0
 62
     4
  6
Continuous
370
    -3
390
F
  0
LAYER
  5
74
330
2
100
AcDbSymbolTableRecord
100
AcDbLayerTableRecord
  2
해칭선
 70
     0
 62
   100
  6
Continuous
370
    -3
390
F
  0
LAYER
  5
75
330
2
100
AcDbSymbolTableRecord
100
AcDbLayerTableRecord
  2
가는실선
 70
     0
 62
     4
  6
Continuous
370
    -3
390
F
  0
LAYER
  5
76
330
2
100
AcDbSymbolTableRecord
100
AcDbLayerTableRecord
  2
치수_보조선
 70
     0
 62
     4
  6
Continuous
370
    -3
390
F
  0
LAYER
  5
77
330
2
100
AcDbSymbolTableRecord
100
AcDbLayerTableRecord
  2
치수문자_일반주서
 70
     0
 62
     7
  6
Continuous
370
    15
390
F
  0
LAYER
  5
78
330
2
100
AcDbSymbolTableRecord
100
AcDbLayerTableRecord
  2
개별주서
 70
     0
 62
   100
  6
Continuous
370
    30
390
F
  0
LAYER
  5
79
330
2
100
AcDbSymbolTableRecord
100
AcDbLayerTableRecord
  2
중간선
 70
     0
 62
     2
  6
Continuous
370
    15
390
F
  0
LAYER
  5
7A
330
2
100
AcDbSymbolTableRecord
100
AcDbLayerTableRecord
  2
윤곽선
 70
     0
 62
     3
  6
Continuous
370
    40
390
F
  0
LAYER
  5
7B
330
2
100
AcDbSymbolTableRecord
100
AcDbLayerTableRecord
  2
중심마크
 70
     0
 62
   100
  6
Continuous
370
    30
390
F
  0
LAYER
  5
7C
330
2
100
AcDbSymbolTableRecord
100
AcDbLayerTableRecord
  2
가상선
 70
     0
 62
     4
  6
PHANTOM
370
    -3
390
F
  0
LAYER
  5
7D
330
2
100
AcDbSymbolTableRecord
100
AcDbLayerTableRecord
  2
특수지정선
 70
     0
 62
     5
  6
CENTERX2
370
    60
390
F
  0
LAYER
  5
7E
330
2
100
AcDbSymbolTableRecord
100
AcDbLayerTableRecord
  2
참조1
 70
     0
 62
    -4
  6
Continuous
370
    -3
390
F
  0
LAYER
  5
13C
330
2
100
AcDbSymbolTableRecord
100
AcDbLayerTableRecord
  2
Defpoints
 70
     0
 62
     7
  6
Continuous
290
     0
370
    -3
390
F
  0
ENDTAB
  0
TABLE
  2
STYLE
  5
3
330
0
100
AcDbSymbolTable
 70
     2
  0
STYLE
  5
11
330
3
100
AcDbSymbolTableRecord
100
AcDbTextStyleTableRecord
  2
Standard
 70
     0
 40
0.0
 41
1.0
 50
0.0
 71
     0
 42
3.5
  3
txt
  4

  0
STYLE
  5
94
330
3
100
AcDbSymbolTableRecord
100
AcDbTextStyleTableRecord
  2
SLDTEXTSTYLE0
 70
     0
 40
0.0
 41
0.75
 50
0.0
 71
     0
 42
3.5
  3
TXT
  4

  0
ENDTAB
  0
TABLE
  2
VIEW
  5
6
330
0
100
AcDbSymbolTable
 70
     0
  0
ENDTAB
  0
TABLE
  2
UCS
  5
7
330
0
100
AcDbSymbolTable
 70
     0
  0
ENDTAB
  0
TABLE
  2
APPID
  5
9
330
0
100
AcDbSymbolTable
 70
     4
  0
APPID
  5
12
330
9
100
AcDbSymbolTableRecord
100
AcDbRegAppTableRecord
  2
ACAD
 70
     0
  0
APPID
  5
147
330
9
100
AcDbSymbolTableRecord
100
AcDbRegAppTableRecord
  2
ACAD_DSTYLE_DIMRADIAL_EXTENSION
 70
     0
  0
APPID
  5
252
330
9
100
AcDbSymbolTableRecord
100
AcDbRegAppTableRecord
  2
ACAD_DSTYLE_DIMFLIPARROW_SYMBOL
 70
     0
  0
APPID
  5
253
330
9
100
AcDbSymbolTableRecord
100
AcDbRegAppTableRecord
  2
ACAD_DSTYLE_DIMFLIPARROW_WHICH_SYMBOL
 70
     0
  0
ENDTAB
  0
TABLE
  2
DIMSTYLE
  5
A
330
0
100
AcDbSymbolTable
 70
     5
100
AcDbDimStyleTable
  0
DIMSTYLE
105
27
330
A
100
AcDbSymbolTableRecord
100
AcDbDimStyleTableRecord
  2
ISO-25
 70
     0
 41
2.5
 42
0.625
 43
3.75
 44
1.25
 73
     0
 74
     0
 77
     1
 78
     8
140
2.5
141
2.5
143
0.03937007874016
147
0.625
171
     3
172
     1
178
     0
271
     2
272
     2
274
     3
278
    44
283
     0
284
     8
340
11
  0
DIMSTYLE
105
BE
330
A
100
AcDbSymbolTableRecord
100
AcDbDimStyleTableRecord
  2
SLDDIMSTYLE0
 70
     0
 41
3.302
 44
0.0
 45
0.000000001
 73
     0
 74
     0
 77
     1
 78
    12
 79
     3
140
3.5
147
0.875
172
     1
173
     1
178
     0
271
     2
272
     2
276
     2
284
    12
289
     0
340
94
  0
DIMSTYLE
105
CC
102
{ACAD_REACTORS
330
172
330
181
330
18E
330
19B
330
1C5
330
1E3
330
1E4
330
1E5
330
1E6
330
241
102
}
330
A
100
AcDbSymbolTableRecord
100
AcDbDimStyleTableRecord
  2
SLDDIMSTYLE1
 70
     0
 41
3.302
 44
0.0
 45
0.000000001
 73
     0
 74
     0
 77
     1
 78
     4
 79
     1
140
3.5
143
0.0393700787401575
147
0.875
148
0.000000001
170
     1
173
     1
178
     0
271
     2
272
     2
276
     2
284
    12
340
94
  0
DIMSTYLE
105
E0
330
A
100
AcDbSymbolTableRecord
100
AcDbDimStyleTableRecord
  2
SLDDIMSTYLE2
 70
     0
 41
3.302
 44
0.0
 45
0.000000001
 73
     0
 74
     0
 77
     1
 78
     4
 79
     1
140
3.5
143
0.0393700787401575
147
0.875
148
0.000000001
170
     1
172
     1
173
     1
178
     0
271
     2
272
     2
276
     2
284
    12
289
     0
340
94
  0
DIMSTYLE
105
F6
330
A
100
AcDbSymbolTableRecord
100
AcDbDimStyleTableRecord
  2
SLDDIMSTYLE3
 70
     0
 41
3.302
 44
0.0
 45
0.000000001
 73
     0
 74
     0
 77
     1
 78
    12
 79
     3
140
3.5
143
0.0393700787401575
147
0.875
148
0.000000001
170
     1
172
     1
173
     1
178
     0
271
     2
272
     2
276
     2
284
    12
289
     0
340
94
  0
ENDTAB
  0
TABLE
  2
BLOCK_RECORD
  5
1
330
0
100
AcDbSymbolTable
 70
    19
  0
BLOCK_RECORD
  5
1F
330
1
100
AcDbSymbolTableRecord
100
AcDbBlockTableRecord
  2
*Model_Space
340
22
  0
BLOCK_RECORD
  5
1B
330
1
100
AcDbSymbolTableRecord
100
AcDbBlockTableRecord
  2
*Paper_Space
340
1E
  0
BLOCK_RECORD
  5
23
330
1
100
AcDbSymbolTableRecord
100
AcDbBlockTableRecord
  2
*Paper_Space0
340
26
  0
BLOCK_RECORD
  5
7F
330
1
100
AcDbSymbolTableRecord
100
AcDbBlockTableRecord
  2
블럭10
340
0
102
{BLKREFS
331
B6
102
}
  0
BLOCK_RECORD
  5
BF
330
1
100
AcDbSymbolTableRecord
100
AcDbBlockTableRecord
  2
_D
340
0
  0
BLOCK_RECORD
  5
CD
330
1
100
AcDbSymbolTableRecord
100
AcDbBlockTableRecord
  2
_D_1
340
0
  0
BLOCK_RECORD
  5
E1
330
1
100
AcDbSymbolTableRecord
100
AcDbBlockTableRecord
  2
_D_2
340
0
  0
BLOCK_RECORD
  5
F7
330
1
100
AcDbSymbolTableRecord
100
AcDbBlockTableRecord
  2
_D_3
340
0
  0
BLOCK_RECORD
  5
111
330
1
100
AcDbSymbolTableRecord
100
AcDbBlockTableRecord
  2
SW_DOWELSYMBOL_0
340
0
102
{BLKREFS
331
0
331
1A9
331
1E7
102
}
  0
BLOCK_RECORD
  5
173
330
1
100
AcDbSymbolTableRecord
100
AcDbBlockTableRecord
  2
*D8
340
0
  0
BLOCK_RECORD
  5
182
330
1
100
AcDbSymbolTableRecord
100
AcDbBlockTableRecord
  2
*D9
340
0
  0
BLOCK_RECORD
  5
18F
330
1
100
AcDbSymbolTableRecord
100
AcDbBlockTableRecord
  2
*D10
340
0
  0
BLOCK_RECORD
  5
19C
330
1
100
AcDbSymbolTableRecord
100
AcDbBlockTableRecord
  2
*D11
340
0
  0
BLOCK_RECORD
  5
1C8
330
1
100
AcDbSymbolTableRecord
100
AcDbBlockTableRecord
  2
*D12
340
0
  0
BLOCK_RECORD
  5
200
330
1
100
AcDbSymbolTableRecord
100
AcDbBlockTableRecord
  2
*D13
340
0
  0
BLOCK_RECORD
  5
20E
330
1
100
AcDbSymbolTableRecord
100
AcDbBlockTableRecord
  2
*D14
340
0
  0
BLOCK_RECORD
  5
21A
330
1
100
AcDbSymbolTableRecord
100
AcDbBlockTableRecord
  2
*D15
340
0
  0
BLOCK_RECORD
  5
226
330
1
100
AcDbSymbolTableRecord
100
AcDbBlockTableRecord
  2
*D16
340
0
  0
BLOCK_RECORD
  5
233
330
1
100
AcDbSymbolTableRecord
100
AcDbBlockTableRecord
  2
*D17
340
0
  0
BLOCK_RECORD
  5
244
330
1
100
AcDbSymbolTableRecord
100
AcDbBlockTableRecord
  2
*D18
340
0
  0
ENDTAB
  0
ENDSEC
  0
SECTION
  2
BLOCKS
  0
BLOCK
  5
20
330
1F
100
AcDbEntity
  8
0
100
AcDbBlockBegin
  2
*Model_Space
 70
     0
 10
0.0
 20
0.0
 30
0.0
  3
*Model_Space
  1
*Model_Space
  0
ENDBLK
  5
21
330
1F
100
AcDbEntity
  8
0
100
AcDbBlockEnd
  0
BLOCK
  5
1C
330
1B
100
AcDbEntity
 67
     1
  8
0
100
AcDbBlockBegin
  2
*Paper_Space
 70
     0
 10
0.0
 20
0.0
 30
0.0
  3
*Paper_Space
  1
*Paper_Space
  0
ENDBLK
  5
1D
330
1B
100
AcDbEntity
 67
     1
  8
0
100
AcDbBlockEnd
  0
BLOCK
  5
24
330
23
100
AcDbEntity
  8
0
100
AcDbBlockBegin
  2
*Paper_Space0
 70
     0
 10
0.0
 20
0.0
 30
0.0
  3
*Paper_Space0
  1
*Paper_Space0
  0
ENDBLK
  5
25
330
23
100
AcDbEntity
  8
0
100
AcDbBlockEnd
  0
BLOCK
  5
80
330
7F
100
AcDbEntity
  8
0
100
AcDbBlockBegin
  2
블럭10
 70
     2
 10
0.0
 20
0.0
 30
0.0
  3
블럭10
  1
블럭10
  0
ELLIPSE
  5
82
330
7F
100
AcDbEntity
  8
중심선
100
AcDbEllipse
 10
20.54032771741204
 20
12.0471743016438
 30
0.0
 11
6.600054785286829
 21
-1.261213355974178E-13
 31
0.0
210
0.0
220
0.0
230
1.0
 40
0.636358354079598
 41
0.9219305317359503
 42
6.513795318482858
  0
ELLIPSE
  5
83
330
7F
100
AcDbEntity
  8
중심선
100
AcDbEllipse
 10
20.54032771746488
 20
12.04717430159265
 30
0.0
 11
3.960054785062283
 21
1.540847449632565E-10
 31
0.0
210
0.0
220
0.0
230
1.0
 40
0.3939339440162632
 41
1.131841032648279
 42
5.62031148352944
  0
LINE
  5
84
330
7F
100
AcDbEntity
  8
중심선
100
AcDbLine
 10
2.268634060543552
 20
16.24717430164393
 30
0.0
 11
5.714909304380834
 21
16.24717430164393
 31
0.0
  0
LINE
  5
85
330
7F
100
AcDbEntity
  8
중심선
100
AcDbLine
 10
5.245725140726316
 20
7.84717430164391
 30
0.0
 11
8.692000384563599
 21
7.84717430164391
 31
0.0
  0
LINE
  5
86
330
7F
100
AcDbEntity
  8
중심선
100
AcDbLine
 10
15.74043728645272
 20
16.24717430164393
 30
0.0
 11
8.692000384563599
 21
7.84717430164391
 31
0.0
  0
LINE
  5
87
330
7F
100
AcDbEntity
  8
중심선
100
AcDbLine
 10
0.1404042013395286
 20
13.71084872107135
 30
0.0
 11
3.58671253028996
 21
13.71088815037384
 31
0.0
  0
LINE
  5
88
330
7F
100
AcDbEntity
  8
중심선
100
AcDbLine
 10
2.750260043222114
 20
10.84717430164391
 30
0.0
 11
6.196535287059397
 21
10.84717430164391
 31
0.0
  0
LINE
  5
89
330
7F
100
AcDbEntity
  8
중심선
100
AcDbLine
 10
12.29416204261559
 20
16.24717430164393
 30
0.0
 11
5.245725140726316
 21
7.84717430164391
 31
0.0
  0
LINE
  5
8A
330
7F
100
AcDbEntity
  8
중심선
100
AcDbLine
 10
10.72767329541681
 20
16.24717430164393
 30
0.0
 11
6.196535287059397
 21
10.84717430164391
 31
0.0
  0
LINE
  5
8B
330
7F
100
AcDbEntity
  8
중심선
100
AcDbLine
 10
7.28139805157953
 20
16.24717430164393
 30
0.0
 11
2.750260043222114
 21
10.84717430164391
 31
0.0
  0
LINE
  5
8C
330
7F
100
AcDbEntity
  8
중심선
100
AcDbLine
 10
5.714909304380834
 20
16.24717430164393
 30
0.0
 11
3.58671253028996
 21
13.71088815037384
 31
0.0
  0
LINE
  5
8D
330
7F
100
AcDbEntity
  8
중심선
100
AcDbLine
 10
2.268634060543552
 20
16.24717430164393
 30
0.0
 11
0.1404042013395286
 21
13.71084872107135
 31
0.0
  0
LINE
  5
8E
330
7F
100
AcDbEntity
  8
중심선
100
AcDbLine
 10
7.28139805157953
 20
16.24717430164393
 30
0.0
 11
10.72767329541681
 21
16.24717430164393
 31
0.0
  0
LINE
  5
8F
330
7F
100
AcDbEntity
  8
중심선
100
AcDbLine
 10
12.29416204261559
 20
16.24717430164393
 30
0.0
 11
15.74043728645272
 21
16.24717430164393
 31
0.0
  0
LINE
  5
90
330
7F
100
AcDbEntity
  8
중심선
100
AcDbLine
 10
19.22036997980202
 20
11.08717430171403
 30
0.0
 11
23.66174974927406
 21
11.08717430171406
 31
0.0
  0
LINE
  5
91
330
7F
100
AcDbEntity
  8
중심선
100
AcDbLine
 10
19.22039502424796
 20
13.00717430171391
 30
0.0
 11
19.22036997980202
 21
11.08717430171403
 31
0.0
  0
LINE
  5
92
330
7F
100
AcDbEntity
  8
중심선
100
AcDbLine
 10
19.22039502424796
 20
13.00717430171391
 30
0.0
 11
26.96566020931264
 21
13.00717430171391
 31
0.0
  0
LINE
  5
93
330
7F
100
AcDbEntity
  8
중심선
100
AcDbLine
 10
22.22332737316547
 20
13.45928029700563
 30
0.0
 11
24.52862924686651
 21
15.39360700705356
 31
0.0
  0
ATTDEF
  5
95
330
7F
100
AcDbEntity
  8
FORMAT
 62
     2
100
AcDbText
 10
3.448148490846466
 20
2.075366912832191
 30
0.0
 40
4.233333333333333
  1
EM649910
 41
0.75
  7
SLDTEXTSTYLE0
 11
3.448148490846466
 21
-0.0412997538344756
 31
0.0
100
AcDbAttributeDefinition
  3

  2
AUTOATTR0
 70
     0
 74
     1
  0
ENDBLK
  5
81
330
7F
100
AcDbEntity
  8
0
100
AcDbBlockEnd
  0
BLOCK
  5
C0
330
BF
100
AcDbEntity
  8
0
100
AcDbBlockBegin
  2
_D
 70
     0
 10
0.0
 20
0.0
 30
0.0
  3
_D
  1
_D
  0
SOLID
  5
C2
330
BF
100
AcDbEntity
  8
치수문자_일반주서
100
AcDbTrace
 10
-66.34124999999999
 20
3.969824928723885
 30
0.0
 11
-65.83324999999999
 21
7.271824928723885
 31
0.0
 12
-66.84924999999998
 22
7.271824928723885
 32
0.0
 13
-66.84924999999998
 23
7.271824928723885
 33
0.0
  0
SOLID
  5
C3
330
BF
100
AcDbEntity
  8
치수문자_일반주서
100
AcDbTrace
 10
-66.34124999999999
 20
-3.967675071276101
 30
0.0
 11
-66.84924999999998
 21
-7.269675071276101
 31
0.0
 12
-65.83324999999999
 22
-7.269675071276101
 32
0.0
 13
-65.83324999999999
 23
-7.269675071276101
 33
0.0
  0
LINE
  5
C4
330
BF
100
AcDbEntity
  8
치수문자_일반주서
100
AcDbLine
 10
-53.70624999999998
 20
3.969824928723886
 30
0.0
 11
-67.34124999999999
 21
3.969824928723885
 31
0.0
  0
LINE
  5
C5
330
BF
100
AcDbEntity
  8
치수문자_일반주서
100
AcDbLine
 10
-53.70624999999998
 20
-3.9676750712761
 30
0.0
 11
-67.34124999999999
 21
-3.967675071276101
 31
0.0
  0
LINE
  5
C6
330
BF
100
AcDbEntity
  8
치수문자_일반주서
100
AcDbLine
 10
-66.34124999999999
 20
3.969824928723885
 30
0.0
 11
-66.34124999999999
 21
10.31982492872388
 31
0.0
  0
LINE
  5
C7
330
BF
100
AcDbEntity
  8
치수문자_일반주서
100
AcDbLine
 10
-66.34124999999999
 20
3.969824928723885
 30
0.0
 11
-66.34124999999999
 21
-3.967675071276101
 31
0.0
  0
LINE
  5
C8
330
BF
100
AcDbEntity
  8
치수문자_일반주서
100
AcDbLine
 10
-66.34124999999999
 20
-3.967675071276101
 30
0.0
 11
-66.34124999999999
 21
-10.3176750712761
 31
0.0
  0
MTEXT
  5
C9
330
BF
100
AcDbEntity
  8
치수문자_일반주서
100
AcDbMText
 10
-70.85298708920183
 20
-8.81253953903687
 30
0.0
 40
3.5
 41
0.0
 71
     1
 72
     1
  1
%%c
  7
SLDTEXTSTYLE0
 11
-7.044195017643634E-15
 21
1.0
 31
0.0
 73
     1
 44
1.0
  0
MTEXT
  5
CA
330
BF
100
AcDbEntity
  8
치수문자_일반주서
100
AcDbMText
 10
-70.90645926586173
 20
-3.53410214066279
 30
0.0
 40
3.5
 41
0.0
 71
     1
 72
     1
  1
7.94
  7
SLDTEXTSTYLE0
 11
-7.044195017643634E-15
 21
1.0
 31
0.0
 73
     1
 44
1.0
  0
ENDBLK
  5
C1
330
BF
100
AcDbEntity
  8
0
100
AcDbBlockEnd
  0
BLOCK
  5
CE
330
CD
100
AcDbEntity
  8
0
100
AcDbBlockBegin
  2
_D_1
 70
     0
 10
0.0
 20
0.0
 30
0.0
  3
_D_1
  1
_D_1
  0
SOLID
  5
D0
330
CD
100
AcDbEntity
  8
치수문자_일반주서
100
AcDbTrace
 10
22.70000000000002
 20
28.78146983164858
 30
0.0
 11
19.39800000000002
 21
29.28946983164857
 31
0.0
 12
19.39800000000002
 22
28.27346983164858
 32
0.0
 13
19.39800000000002
 23
28.27346983164858
 33
0.0
  0
SOLID
  5
D1
330
CD
100
AcDbEntity
  8
치수문자_일반주서
100
AcDbTrace
 10
-53.49999999999999
 20
28.78146983164857
 30
0.0
 11
-50.19799999999999
 21
28.27346983164857
 31
0.0
 12
-50.19799999999999
 22
29.28946983164857
 32
0.0
 13
-50.19799999999999
 23
29.28946983164857
 33
0.0
  0
LINE
  5
D2
330
CD
100
AcDbEntity
  8
치수문자_일반주서
100
AcDbLine
 10
-20.81436608182265
 20
39.5743515476913
 30
0.0
 11
-21.52530356738715
 21
39.57435154769131
 31
0.0
  0
LINE
  5
D3
330
CD
100
AcDbEntity
  8
치수문자_일반주서
100
AcDbLine
 10
-21.52530356738715
 20
39.57435154769131
 30
0.0
 11
-21.52530356738719
 21
34.018101556632
 31
0.0
  0
LINE
  5
D4
330
CD
100
AcDbEntity
  8
치수문자_일반주서
100
AcDbLine
 10
-21.52530356738719
 20
34.018101556632
 30
0.0
 11
-20.81436608182269
 21
34.018101556632
 31
0.0
  0
LINE
  5
D5
330
CD
100
AcDbEntity
  8
치수문자_일반주서
100
AcDbLine
 10
-9.985633219685392
 20
39.57435154769123
 30
0.0
 11
-9.274695734120892
 21
39.57435154769122
 31
0.0
  0
LINE
  5
D6
330
CD
100
AcDbEntity
  8
치수문자_일반주서
100
AcDbLine
 10
-9.274695734120892
 20
39.57435154769122
 30
0.0
 11
-9.274695734120932
 21
34.01810155663192
 31
0.0
  0
LINE
  5
D7
330
CD
100
AcDbEntity
  8
치수문자_일반주서
100
AcDbLine
 10
-9.274695734120932
 20
34.01810155663192
 30
0.0
 11
-9.985633219685432
 21
34.01810155663193
 31
0.0
  0
LINE
  5
D8
330
CD
100
AcDbEntity
  8
치수문자_일반주서
100
AcDbLine
 10
22.70000000000002
 20
2.625139933522749
 30
0.0
 11
22.70000000000002
 21
29.78146983164858
 31
0.0
  0
LINE
  5
D9
330
CD
100
AcDbEntity
  8
치수문자_일반주서
100
AcDbLine
 10
-53.49999999999999
 20
4.176074928723895
 30
0.0
 11
-53.49999999999999
 21
29.78146983164857
 31
0.0
  0
LINE
  5
DA
330
CD
100
AcDbEntity
  8
치수문자_일반주서
100
AcDbLine
 10
22.70000000000002
 20
28.78146983164858
 30
0.0
 11
-53.49999999999999
 21
28.78146983164857
 31
0.0
  0
MTEXT
  5
DB
330
CD
100
AcDbEntity
  8
치수문자_일반주서
100
AcDbMText
 10
-22.03906229287389
 20
33.3466790975103
 30
0.0
 40
3.5
 41
0.0
 71
     1
 72
     1
  1

  7
SLDTEXTSTYLE0
 73
     1
 44
1.0
  0
MTEXT
  5
DC
330
CD
100
AcDbEntity
  8
치수문자_일반주서
100
AcDbMText
 10
-19.92569418121129
 20
38.52983847121089
 30
0.0
 40
3.5
 41
0.0
 71
     1
 72
     1
  1
3.00
  7
SLDTEXTSTYLE0
 73
     1
 44
1.0
  0
MTEXT
  5
DD
330
CD
100
AcDbEntity
  8
치수문자_일반주서
100
AcDbMText
 10
-21.21874989438805
 20
33.29320692085043
 30
0.0
 40
3.5
 41
0.0
 71
     1
 72
     1
  1
76.20
  7
SLDTEXTSTYLE0
 73
     1
 44
1.0
  0
MTEXT
  5
DE
330
CD
100
AcDbEntity
  8
치수문자_일반주서
100
AcDbMText
 10
-7.428992488980326
 20
33.34667909751019
 30
0.0
 40
3.5
 41
0.0
 71
     1
 72
     1
  1

  7
SLDTEXTSTYLE0
 73
     1
 44
1.0
  0
ENDBLK
  5
CF
330
CD
100
AcDbEntity
  8
0
100
AcDbBlockEnd
  0
BLOCK
  5
E2
330
E1
100
AcDbEntity
  8
0
100
AcDbBlockBegin
  2
_D_2
 70
     0
 10
0.0
 20
0.0
 30
0.0
  3
_D_2
  1
_D_2
  0
SOLID
  5
E4
330
E1
100
AcDbEntity
  8
치수문자_일반주서
100
AcDbTrace
 10
35.40000000000002
 20
12.70699389053728
 30
0.0
 11
38.70200000000002
 21
12.19899389053728
 31
0.0
 12
38.70200000000002
 22
13.21499389053728
 32
0.0
 13
38.70200000000002
 23
13.21499389053728
 33
0.0
  0
SOLID
  5
E5
330
E1
100
AcDbEntity
  8
치수문자_일반주서
100
AcDbTrace
 10
10.00000000000002
 20
12.70699389053728
 30
0.0
 11
6.698000000000016
 21
13.21499389053728
 31
0.0
 12
6.698000000000016
 22
12.19899389053728
 32
0.0
 13
6.698000000000016
 23
12.19899389053728
 33
0.0
  0
LINE
  5
E6
330
E1
100
AcDbEntity
  8
치수문자_일반주서
100
AcDbLine
 10
17.28563391817735
 20
23.49987560658003
 30
0.0
 11
16.57469643261285
 21
23.49987560658003
 31
0.0
  0
LINE
  5
E7
330
E1
100
AcDbEntity
  8
치수문자_일반주서
100
AcDbLine
 10
16.57469643261285
 20
23.49987560658003
 30
0.0
 11
16.57469643261281
 21
17.94362561552073
 31
0.0
  0
LINE
  5
E8
330
E1
100
AcDbEntity
  8
치수문자_일반주서
100
AcDbLine
 10
16.57469643261281
 20
17.94362561552073
 30
0.0
 11
17.28563391817731
 21
17.94362561552072
 31
0.0
  0
LINE
  5
E9
330
E1
100
AcDbEntity
  8
치수문자_일반주서
100
AcDbLine
 10
28.11436678031461
 20
23.49987560657994
 30
0.0
 11
28.82530426587911
 21
23.49987560657994
 31
0.0
  0
LINE
  5
EA
330
E1
100
AcDbEntity
  8
치수문자_일반주서
100
AcDbLine
 10
28.82530426587911
 20
23.49987560657994
 30
0.0
 11
28.82530426587907
 21
17.94362561552064
 31
0.0
  0
LINE
  5
EB
330
E1
100
AcDbEntity
  8
치수문자_일반주서
100
AcDbLine
 10
28.82530426587907
 20
17.94362561552064
 30
0.0
 11
28.11436678031457
 21
17.94362561552064
 31
0.0
  0
LINE
  5
EC
330
E1
100
AcDbEntity
  8
치수문자_일반주서
100
AcDbLine
 10
35.40000000000002
 20
3.412229891334553
 30
0.0
 11
35.40000000000002
 21
13.70699389053728
 31
0.0
  0
LINE
  5
ED
330
E1
100
AcDbEntity
  8
치수문자_일반주서
100
AcDbLine
 10
10.00000000000002
 20
4.174145560841177
 30
0.0
 11
10.00000000000002
 21
13.70699389053728
 31
0.0
  0
LINE
  5
EE
330
E1
100
AcDbEntity
  8
치수문자_일반주서
100
AcDbLine
 10
35.40000000000002
 20
12.70699389053728
 30
0.0
 11
41.75000000000002
 21
12.70699389053728
 31
0.0
  0
LINE
  5
EF
330
E1
100
AcDbEntity
  8
치수문자_일반주서
100
AcDbLine
 10
35.40000000000002
 20
12.70699389053728
 30
0.0
 11
10.00000000000002
 21
12.70699389053728
 31
0.0
  0
LINE
  5
F0
330
E1
100
AcDbEntity
  8
치수문자_일반주서
100
AcDbLine
 10
10.00000000000002
 20
12.70699389053728
 30
0.0
 11
3.650000000000016
 21
12.70699389053728
 31
0.0
  0
MTEXT
  5
F1
330
E1
100
AcDbEntity
  8
치수문자_일반주서
100
AcDbMText
 10
16.0609377071261
 20
17.272203156399
 30
0.0
 40
3.5
 41
0.0
 71
     1
 72
     1
  1

  7
SLDTEXTSTYLE0
 73
     1
 44
1.0
  0
MTEXT
  5
F2
330
E1
100
AcDbEntity
  8
치수문자_일반주서
100
AcDbMText
 10
18.17430581878871
 20
22.45536253009961
 30
0.0
 40
3.5
 41
0.0
 71
     1
 72
     1
  1
1.00
  7
SLDTEXTSTYLE0
 73
     1
 44
1.0
  0
MTEXT
  5
F3
330
E1
100
AcDbEntity
  8
치수문자_일반주서
100
AcDbMText
 10
16.88125010561195
 20
17.21873097973915
 30
0.0
 40
3.5
 41
0.0
 71
     1
 72
     1
  1
25.40
  7
SLDTEXTSTYLE0
 73
     1
 44
1.0
  0
MTEXT
  5
F4
330
E1
100
AcDbEntity
  8
치수문자_일반주서
100
AcDbMText
 10
30.67100751101967
 20
17.2722031563989
 30
0.0
 40
3.5
 41
0.0
 71
     1
 72
     1
  1

  7
SLDTEXTSTYLE0
 73
     1
 44
1.0
  0
ENDBLK
  5
E3
330
E1
100
AcDbEntity
  8
0
100
AcDbBlockEnd
  0
BLOCK
  5
F8
330
F7
100
AcDbEntity
  8
0
100
AcDbBlockBegin
  2
_D_3
 70
     0
 10
0.0
 20
0.0
 30
0.0
  3
_D_3
  1
_D_3
  0
SOLID
  5
FA
330
F7
100
AcDbEntity
  8
치수문자_일반주서
100
AcDbTrace
 10
51.18935470969821
 20
3.176074928723893
 30
0.0
 11
51.69735470969821
 21
6.478074928723893
 31
0.0
 12
50.6813547096982
 22
6.478074928723893
 32
0.0
 13
50.6813547096982
 23
6.478074928723893
 33
0.0
  0
SOLID
  5
FB
330
F7
100
AcDbEntity
  8
치수문자_일반주서
100
AcDbTrace
 10
51.18935470969821
 20
-3.173925071276111
 30
0.0
 11
50.6813547096982
 21
-6.475925071276111
 31
0.0
 12
51.69735470969821
 22
-6.475925071276111
 32
0.0
 13
51.69735470969821
 23
-6.475925071276111
 33
0.0
  0
LINE
  5
FC
330
F7
100
AcDbEntity
  8
치수문자_일반주서
100
AcDbLine
 10
40.39647299365549
 20
4.407458044959863
 30
0.0
 11
40.3964729936555
 21
3.696520559395363
 31
0.0
  0
LINE
  5
FD
330
F7
100
AcDbEntity
  8
치수문자_일반주서
100
AcDbLine
 10
40.3964729936555
 20
3.696520559395363
 30
0.0
 11
45.9527229847148
 21
3.696520559395402
 31
0.0
  0
LINE
  5
FE
330
F7
100
AcDbEntity
  8
치수문자_일반주서
100
AcDbLine
 10
45.9527229847148
 20
3.696520559395402
 30
0.0
 11
45.9527229847148
 21
4.407458044959903
 31
0.0
  0
LINE
  5
FF
330
F7
100
AcDbEntity
  8
치수문자_일반주서
100
AcDbLine
 10
40.39647299365542
 20
15.23619090709712
 30
0.0
 11
40.39647299365541
 21
15.94712839266162
 31
0.0
  0
LINE
  5
100
330
F7
100
AcDbEntity
  8
치수문자_일반주서
100
AcDbLine
 10
40.39647299365541
 20
15.94712839266162
 30
0.0
 11
45.95272298471472
 21
15.94712839266166
 31
0.0
  0
LINE
  5
101
330
F7
100
AcDbEntity
  8
치수문자_일반주서
100
AcDbLine
 10
45.95272298471472
 20
15.94712839266166
 30
0.0
 11
45.95272298471473
 21
15.23619090709716
 31
0.0
  0
LINE
  5
102
330
F7
100
AcDbEntity
  8
치수문자_일반주서
100
AcDbLine
 10
26.95940469398906
 20
3.176074928723895
 30
0.0
 11
52.18935470969821
 21
3.176074928723893
 31
0.0
  0
LINE
  5
103
330
F7
100
AcDbEntity
  8
치수문자_일반주서
100
AcDbLine
 10
26.95940469398906
 20
-3.173925071276109
 30
0.0
 11
52.18935470969821
 21
-3.173925071276111
 31
0.0
  0
LINE
  5
104
330
F7
100
AcDbEntity
  8
치수문자_일반주서
100
AcDbLine
 10
51.18935470969821
 20
3.176074928723893
 30
0.0
 11
51.18935470969821
 21
16.98673817133417
 31
0.0
  0
LINE
  5
105
330
F7
100
AcDbEntity
  8
치수문자_일반주서
100
AcDbLine
 10
51.18935470969821
 20
3.176074928723893
 30
0.0
 11
51.18935470969821
 21
-3.173925071276111
 31
0.0
  0
LINE
  5
106
330
F7
100
AcDbEntity
  8
치수문자_일반주서
100
AcDbLine
 10
51.18935470969821
 20
-3.173925071276111
 30
0.0
 11
51.18935470969821
 21
-9.52392507127611
 31
0.0
  0
MTEXT
  5
107
330
F7
100
AcDbEntity
  8
치수문자_일반주서
100
AcDbMText
 10
41.44098607013591
 20
5.296129945571241
 30
0.0
 40
3.5
 41
0.0
 71
     1
 72
     1
  1
0.25
  7
SLDTEXTSTYLE0
 11
-7.044195017643634E-15
 21
1.0
 31
0.0
 73
     1
 44
1.0
  0
MTEXT
  5
108
330
F7
100
AcDbEntity
  8
치수문자_일반주서
100
AcDbMText
 10
46.67761762049638
 20
2.656910780722951
 30
0.0
 40
3.5
 41
0.0
 71
     1
 72
     1
  1
%%c
  7
SLDTEXTSTYLE0
 11
-7.044195017643634E-15
 21
1.0
 31
0.0
 73
     1
 44
1.0
  0
MTEXT
  5
109
330
F7
100
AcDbEntity
  8
치수문자_일반주서
100
AcDbMText
 10
46.67761762049636
 20
7.935348179097031
 30
0.0
 40
3.5
 41
0.0
 71
     1
 72
     1
  1
6.35
  7
SLDTEXTSTYLE0
 11
-7.044195017643634E-15
 21
1.0
 31
0.0
 73
     1
 44
1.0
  0
ENDBLK
  5
F9
330
F7
100
AcDbEntity
  8
0
100
AcDbBlockEnd
  0
BLOCK
  5
112
330
111
100
AcDbEntity
  8
0
100
AcDbBlockBegin
  2
SW_DOWELSYMBOL_0
 70
     0
 10
0.0
 20
0.0
 30
0.0
  3
SW_DOWELSYMBOL_0
  1
SW_DOWELSYMBOL_0
  0
CIRCLE
  5
114
330
111
100
AcDbEntity
  8
해칭선
 62
     0
100
AcDbCircle
 10
0.0
 20
0.0
 30
0.0
 40
3.000000000000001
  0
HATCH
  5
115
330
111
100
AcDbEntity
  8
0
  6
Continuous
 62
     0
370
     0
100
AcDbHatch
 10
0.0
 20
0.0
 30
0.0
210
0.0
220
0.0
230
1.0
  2
SOLID
 70
     1
 71
     0
 91
        1
 92
        0
 93
        3
 72
     2
 10
0.0
 20
0.0
 40
3.000000000000001
 50
0.0
 51
90.0
 73
     1
 72
     1
 10
0.0
 20
3.000000000000001
 11
0.0
 21
0.0
 72
     1
 10
0.0
 20
0.0
 11
3.000000000000001
 21
0.0
 97
        0
 75
     0
 76
     1
 98
        1
 10
0.0
 20
0.0
  0
HATCH
  5
116
330
111
100
AcDbEntity
  8
0
  6
Continuous
 62
     0
370
     0
100
AcDbHatch
 10
0.0
 20
0.0
 30
0.0
210
0.0
220
0.0
230
1.0
  2
SOLID
 70
     1
 71
     0
 91
        1
 92
        0
 93
        3
 72
     2
 10
0.0
 20
0.0
 40
3.000000000000001
 50
180.0
 51
270.0000000000008
 73
     1
 72
     1
 10
0.0
 20
-3.000000000000001
 11
0.0
 21
0.0
 72
     1
 10
0.0
 20
0.0
 11
-3.000000000000001
 21
0.0
 97
        0
 75
     0
 76
     1
 98
        1
 10
0.0
 20
0.0
  0
ENDBLK
  5
113
330
111
100
AcDbEntity
  8
0
100
AcDbBlockEnd
  0
BLOCK
  5
174
330
173
100
AcDbEntity
  8
0
100
AcDbBlockBegin
  2
*D8
 70
     1
 10
0.0
 20
0.0
 30
0.0
  3
*D8
  1
*D8
  0
LINE
  5
175
330
173
100
AcDbEntity
  8
0
  6
Continuous
 62
     0
370
    -2
100
AcDbLine
 10
11.18265619282813
 20
43.82493402670138
 30
0.0
 11
4.375000000000033
 21
43.82493402670136
 31
0.0
  0
LINE
  5
176
330
173
100
AcDbEntity
  8
0
  6
Continuous
 62
     0
370
    -2
100
AcDbLine
 10
11.18265619282813
 20
34.29993402670137
 30
0.0
 11
4.375000000000066
 21
34.29993402670135
 31
0.0
  0
LINE
  5
177
330
173
100
AcDbEntity
  8
0
  6
Continuous
 62
     0
370
    -2
100
AcDbLine
 10
4.375000000000033
 20
43.82493402670136
 30
0.0
 11
4.375000000000066
 21
34.29993402670135
 31
0.0
  0
LINE
  5
178
330
173
100
AcDbEntity
  8
0
  6
Continuous
 62
     0
370
    -2
100
AcDbLine
 10
4.375000000000021
 20
47.12693402670136
 30
0.0
 11
4.37500000000001
 21
50.42893402670136
 31
0.0
  0
LINE
  5
179
330
173
100
AcDbEntity
  8
0
  6
Continuous
 62
     0
370
    -2
100
AcDbLine
 10
4.375000000000077
 20
30.99793402670135
 30
0.0
 11
4.375000000000089
 21
27.69593402670135
 31
0.0
  0
SOLID
  5
17A
330
173
100
AcDbEntity
  8
0
 62
     0
100
AcDbTrace
 10
3.824666666666688
 20
47.12693402670136
 30
0.0
 11
4.925333333333355
 21
47.12693402670136
 31
0.0
 12
4.375000000000033
 22
43.82493402670136
 32
0.0
 13
4.375000000000033
 23
43.82493402670136
 33
0.0
  0
SOLID
  5
17B
330
173
100
AcDbEntity
  8
0
 62
     0
100
AcDbTrace
 10
4.925333333333411
 20
30.99793402670135
 30
0.0
 11
3.824666666666744
 21
30.99793402670135
 31
0.0
 12
4.375000000000066
 22
34.29993402670135
 32
0.0
 13
4.375000000000066
 23
34.29993402670135
 33
0.0
  0
MTEXT
  5
17C
330
173
100
AcDbEntity
  8
0
 62
     0
370
    15
100
AcDbMText
 10
0.0000000000000497
 20
39.06243402670122
 30
0.0
 40
3.5
 41
0.0
 71
     2
 72
     1
  1
\A1;%%c9.53 [3/8]
  7
SLDTEXTSTYLE0
 11
-3.450141892798382E-15
 21
1.0
 31
0.0
 73
     1
 44
1.0
  0
POINT
  5
17D
330
173
100
AcDbEntity
  8
Defpoints
 62
     0
100
AcDbPoint
 10
11.24515619282813
 20
43.82493402670138
 30
0.0
  0
POINT
  5
17E
330
173
100
AcDbEntity
  8
Defpoints
 62
     0
100
AcDbPoint
 10
11.24515619282813
 20
34.29993402670137
 30
0.0
  0
POINT
  5
17F
330
173
100
AcDbEntity
  8
Defpoints
 62
     0
100
AcDbPoint
 10
4.375000000000064
 20
34.29993402670134
 30
0.0
  0
ENDBLK
  5
180
330
173
100
AcDbEntity
  8
0
100
AcDbBlockEnd
  0
BLOCK
  5
183
330
182
100
AcDbEntity
  8
0
100
AcDbBlockBegin
  2
*D9
 70
     1
 10
0.0
 20
0.0
 30
0.0
  3
*D9
  1
*D9
  0
LINE
  5
184
330
182
100
AcDbEntity
  8
0
  6
Continuous
 62
     0
370
    -2
100
AcDbLine
 10
86.17515619282813
 20
45.47493402670142
 30
0.0
 11
86.17515619282813
 21
72.02751342165286
 31
0.0
  0
LINE
  5
185
330
182
100
AcDbEntity
  8
0
  6
Continuous
 62
     0
370
    -2
100
AcDbLine
 10
9.975156192828116
 20
42.61743402670138
 30
0.0
 11
9.975156192828116
 21
72.02751342165286
 31
0.0
  0
LINE
  5
186
330
182
100
AcDbEntity
  8
0
  6
Continuous
 62
     0
370
    -2
100
AcDbLine
 10
82.87315619282813
 20
72.02751342165286
 30
0.0
 11
13.27715619282812
 21
72.02751342165286
 31
0.0
  0
SOLID
  5
187
330
182
100
AcDbEntity
  8
0
 62
     0
100
AcDbTrace
 10
82.87315619282813
 20
71.47718008831953
 30
0.0
 11
82.87315619282813
 21
72.57784675498618
 31
0.0
 12
86.17515619282813
 22
72.02751342165286
 32
0.0
 13
86.17515619282813
 23
72.02751342165286
 33
0.0
  0
SOLID
  5
188
330
182
100
AcDbEntity
  8
0
 62
     0
100
AcDbTrace
 10
13.27715619282812
 20
72.57784675498618
 30
0.0
 11
13.27715619282812
 21
71.47718008831953
 31
0.0
 12
9.975156192828116
 22
72.02751342165286
 32
0.0
 13
9.975156192828116
 23
72.02751342165286
 33
0.0
  0
MTEXT
  5
189
330
182
100
AcDbEntity
  8
0
 62
     0
370
    15
100
AcDbMText
 10
48.07515619282813
 20
76.40251342165286
 30
0.0
 40
3.5
 41
0.0
 71
     2
 72
     1
  1
\A1;76.20 [3]
  7
SLDTEXTSTYLE0
 73
     1
 44
1.0
  0
POINT
  5
18A
330
182
100
AcDbEntity
  8
Defpoints
 62
     0
100
AcDbPoint
 10
86.17515619282813
 20
45.41243402670142
 30
0.0
  0
POINT
  5
18B
330
182
100
AcDbEntity
  8
Defpoints
 62
     0
100
AcDbPoint
 10
9.975156192828116
 20
42.55493402670138
 30
0.0
  0
POINT
  5
18C
330
182
100
AcDbEntity
  8
Defpoints
 62
     0
100
AcDbPoint
 10
9.975156192828116
 20
72.02751342165286
 30
0.0
  0
ENDBLK
  5
18D
330
182
100
AcDbEntity
  8
0
100
AcDbBlockEnd
  0
BLOCK
  5
190
330
18F
100
AcDbEntity
  8
0
100
AcDbBlockBegin
  2
*D10
 70
     1
 10
0.0
 20
0.0
 30
0.0
  3
*D10
  1
*D10
  0
LINE
  5
191
330
18F
100
AcDbEntity
  8
0
  6
Continuous
 62
     0
370
    -2
100
AcDbLine
 10
86.17515619282813
 20
45.47493402670142
 30
0.0
 11
86.17515619282813
 21
55.16594752272978
 31
0.0
  0
LINE
  5
192
330
18F
100
AcDbEntity
  8
0
  6
Continuous
 62
     0
370
    -2
100
AcDbLine
 10
60.77515619282809
 20
44.98752363431564
 30
0.0
 11
60.77515619282809
 21
55.16594752272978
 31
0.0
  0
LINE
  5
193
330
18F
100
AcDbEntity
  8
0
  6
Continuous
 62
     0
370
    -2
100
AcDbLine
 10
82.87315619282813
 20
55.16594752272978
 30
0.0
 11
64.07715619282808
 21
55.16594752272978
 31
0.0
  0
SOLID
  5
194
330
18F
100
AcDbEntity
  8
0
 62
     0
100
AcDbTrace
 10
82.87315619282813
 20
54.61561418939645
 30
0.0
 11
82.87315619282813
 21
55.71628085606311
 31
0.0
 12
86.17515619282813
 22
55.16594752272978
 32
0.0
 13
86.17515619282813
 23
55.16594752272978
 33
0.0
  0
SOLID
  5
195
330
18F
100
AcDbEntity
  8
0
 62
     0
100
AcDbTrace
 10
64.07715619282808
 20
55.71628085606311
 30
0.0
 11
64.07715619282808
 21
54.61561418939645
 31
0.0
 12
60.77515619282809
 22
55.16594752272978
 32
0.0
 13
60.77515619282809
 23
55.16594752272978
 33
0.0
  0
MTEXT
  5
196
330
18F
100
AcDbEntity
  8
0
 62
     0
370
    15
100
AcDbMText
 10
73.47515619282811
 20
59.54094752272978
 30
0.0
 40
3.5
 41
0.0
 71
     2
 72
     1
  1
\A1;25.40 [1]
  7
SLDTEXTSTYLE0
 73
     1
 44
1.0
  0
POINT
  5
197
330
18F
100
AcDbEntity
  8
Defpoints
 62
     0
100
AcDbPoint
 10
86.17515619282813
 20
45.41243402670142
 30
0.0
  0
POINT
  5
198
330
18F
100
AcDbEntity
  8
Defpoints
 62
     0
100
AcDbPoint
 10
60.77515619282809
 20
44.92502363431564
 30
0.0
  0
POINT
  5
199
330
18F
100
AcDbEntity
  8
Defpoints
 62
     0
100
AcDbPoint
 10
60.77515619282809
 20
55.16594752272978
 30
0.0
  0
ENDBLK
  5
19A
330
18F
100
AcDbEntity
  8
0
100
AcDbBlockEnd
  0
BLOCK
  5
19D
330
19C
100
AcDbEntity
  8
0
100
AcDbBlockBegin
  2
*D11
 70
     1
 10
0.0
 20
0.0
 30
0.0
  3
*D11
  1
*D11
  0
LINE
  5
19E
330
19C
100
AcDbEntity
  8
0
  6
Continuous
 62
     0
370
    -2
100
AcDbLine
 10
86.23765619282813
 20
43.82493402670138
 30
0.0
 11
98.94432374799874
 21
43.82493402670143
 31
0.0
  0
LINE
  5
19F
330
19C
100
AcDbEntity
  8
0
  6
Continuous
 62
     0
370
    -2
100
AcDbLine
 10
86.23765619282813
 20
34.29993402670137
 30
0.0
 11
98.94432374799877
 21
34.29993402670142
 31
0.0
  0
LINE
  5
1A0
330
19C
100
AcDbEntity
  8
0
  6
Continuous
 62
     0
370
    -2
100
AcDbLine
 10
98.94432374799874
 20
43.82493402670143
 30
0.0
 11
98.94432374799864
 21
75.62068402670144
 31
0.0
  0
LINE
  5
1A1
330
19C
100
AcDbEntity
  8
0
  6
Continuous
 62
     0
370
    -2
100
AcDbLine
 10
98.94432374799875
 20
40.52293402670143
 30
0.0
 11
98.94432374799875
 21
37.60193402670142
 31
0.0
  0
SOLID
  5
1A2
330
19C
100
AcDbEntity
  8
0
 62
     0
100
AcDbTrace
 10
99.49465708133208
 20
40.52293402670143
 30
0.0
 11
98.39399041466542
 21
40.52293402670143
 31
0.0
 12
98.94432374799874
 22
43.82493402670143
 32
0.0
 13
98.94432374799874
 23
43.82493402670143
 33
0.0
  0
SOLID
  5
1A3
330
19C
100
AcDbEntity
  8
0
 62
     0
100
AcDbTrace
 10
98.39399041466542
 20
37.60193402670142
 30
0.0
 11
99.49465708133208
 21
37.60193402670142
 31
0.0
 12
98.94432374799877
 22
34.29993402670142
 32
0.0
 13
98.94432374799877
 23
34.29993402670142
 33
0.0
  0
MTEXT
  5
1A4
330
19C
100
AcDbEntity
  8
0
 62
     0
370
    15
100
AcDbMText
 10
94.56932374799868
 20
62.49568402670143
 30
0.0
 40
3.5
 41
0.0
 71
     2
 72
     1
  1
\A1;%%c9.53 [3/8]
  7
SLDTEXTSTYLE0
 11
-2.983906501879684E-15
 21
1.0
 31
0.0
 73
     1
 44
1.0
  0
POINT
  5
1A5
330
19C
100
AcDbEntity
  8
Defpoints
 62
     0
100
AcDbPoint
 10
86.17515619282813
 20
43.82493402670138
 30
0.0
  0
POINT
  5
1A6
330
19C
100
AcDbEntity
  8
Defpoints
 62
     0
100
AcDbPoint
 10
86.17515619282813
 20
34.29993402670137
 30
0.0
  0
POINT
  5
1A7
330
19C
100
AcDbEntity
  8
Defpoints
 62
     0
100
AcDbPoint
 10
98.9443237479988
 20
34.29993402670142
 30
0.0
  0
ENDBLK
  5
1A8
330
19C
100
AcDbEntity
  8
0
100
AcDbBlockEnd
  0
BLOCK
  5
1C9
330
1C8
100
AcDbEntity
  8
0
100
AcDbBlockBegin
  2
*D12
 70
     1
 10
0.0
 20
0.0
 30
0.0
  3
*D12
  1
*D12
  0
LINE
  5
1CA
330
1C8
100
AcDbEntity
  8
0
  6
Continuous
 62
     0
370
    -2
100
AcDbLine
 10
86.66236696725068
 20
31.43698665741978
 30
0.0
 11
101.0747592205761
 21
0.0000000000000711
 31
0.0
  0
MTEXT
  5
1CB
330
1C8
100
AcDbEntity
  8
0
 62
     0
370
    15
100
AcDbMText
 10
98.08233232189671
 20
12.82603973635517
 30
0.0
 40
3.5
 41
0.0
 71
     5
 72
     1
  1
\A1;R1.52 [R.06]
  7
SLDTEXTSTYLE0
 11
0.4167448765898361
 21
-0.9090234913554889
 31
0.0
 73
     1
 44
1.0
  0
SOLID
  5
1CC
330
1C8
100
AcDbEntity
  8
0
 62
     0
100
AcDbTrace
 10
87.16263289532665
 20
31.66633525450306
 30
0.0
 11
86.1621010391747
 21
31.20763806033651
 31
0.0
 12
85.28627538475104
 22
34.43858222587561
 32
0.0
 13
85.28627538475104
 23
34.43858222587561
 33
0.0
  0
LINE
  5
1CD
330
1C8
100
AcDbEntity
  8
0
  6
Continuous
 62
     0
370
    15
100
AcDbLine
 10
84.56115619282812
 20
35.82393402670137
 30
0.0
 11
84.74115619282813
 21
35.82393402670137
 31
0.0
  0
LINE
  5
1CE
330
1C8
100
AcDbEntity
  8
0
  6
Continuous
 62
     0
370
    15
100
AcDbLine
 10
84.65115619282813
 20
35.73393402670137
 30
0.0
 11
84.65115619282813
 21
35.91393402670138
 31
0.0
  0
POINT
  5
1CF
330
1C8
100
AcDbEntity
  8
Defpoints
 62
     0
100
AcDbPoint
 10
85.28627538475104
 20
34.43858222587561
 30
0.0
  0
POINT
  5
1D0
330
1C8
100
AcDbEntity
  8
Defpoints
 62
     0
100
AcDbPoint
 10
84.65115619282813
 20
35.82393402670137
 30
0.0
  0
ENDBLK
  5
1D1
330
1C8
100
AcDbEntity
  8
0
100
AcDbBlockEnd
  0
BLOCK
  5
201
330
200
100
AcDbEntity
  8
0
100
AcDbBlockBegin
  2
*D13
 70
     1
 10
0.0
 20
0.0
 30
0.0
  3
*D13
  1
*D13
  0
LINE
  5
203
330
200
100
AcDbEntity
  8
0
  6
Continuous
 62
     0
370
    -2
100
AcDbLine
 10
-39.59250000000002
 20
4.762500000000003
 30
0.0
 11
-46.40015619282811
 21
4.762499999999977
 31
0.0
  0
LINE
  5
204
330
200
100
AcDbEntity
  8
0
  6
Continuous
 62
     0
370
    -2
100
AcDbLine
 10
-39.59250000000002
 20
-4.762500000000003
 30
0.0
 11
-46.40015619282808
 21
-4.762500000000029
 31
0.0
  0
LINE
  5
205
330
200
100
AcDbEntity
  8
0
  6
Continuous
 62
     0
370
    -2
100
AcDbLine
 10
-46.40015619282811
 20
4.762499999999977
 30
0.0
 11
-46.40015619282808
 21
-4.762500000000029
 31
0.0
  0
LINE
  5
206
330
200
100
AcDbEntity
  8
0
  6
Continuous
 62
     0
370
    -2
100
AcDbLine
 10
-46.40015619282813
 20
8.064499999999978
 30
0.0
 11
-46.40015619282814
 21
11.36649999999998
 31
0.0
  0
LINE
  5
207
330
200
100
AcDbEntity
  8
0
  6
Continuous
 62
     0
370
    -2
100
AcDbLine
 10
-46.40015619282806
 20
-8.064500000000027
 30
0.0
 11
-46.40015619282805
 21
-11.36650000000003
 31
0.0
  0
SOLID
  5
208
330
200
100
AcDbEntity
  8
0
 62
     0
100
AcDbTrace
 10
-46.95048952616146
 20
8.064499999999976
 30
0.0
 11
-45.84982285949479
 21
8.06449999999998
 31
0.0
 12
-46.40015619282811
 22
4.762499999999977
 32
0.0
 13
-46.40015619282811
 23
4.762499999999977
 33
0.0
  0
SOLID
  5
209
330
200
100
AcDbEntity
  8
0
 62
     0
100
AcDbTrace
 10
-45.84982285949473
 20
-8.064500000000026
 30
0.0
 11
-46.9504895261614
 21
-8.064500000000029
 31
0.0
 12
-46.40015619282808
 22
-4.762500000000029
 32
0.0
 13
-46.40015619282808
 23
-4.762500000000029
 33
0.0
  0
MTEXT
  5
20A
330
200
100
AcDbEntity
  8
0
 62
     0
370
    15
100
AcDbMText
 10
-50.77515619282809
 20
-0.0000000000001584
 30
0.0
 40
3.5
 41
0.0
 71
     2
 72
     1
  1
\A1;%%c9.53 [3/8]
  7
SLDTEXTSTYLE0
 11
-3.729883127349605E-15
 21
1.0
 31
0.0
 73
     1
 44
1.0
  0
POINT
  5
20B
330
200
100
AcDbEntity
  8
Defpoints
 62
     0
100
AcDbPoint
 10
-39.53000000000002
 20
4.762500000000003
 30
0.0
  0
POINT
  5
20C
330
200
100
AcDbEntity
  8
Defpoints
 62
     0
100
AcDbPoint
 10
-39.53000000000002
 20
-4.762500000000003
 30
0.0
  0
POINT
  5
20D
330
200
100
AcDbEntity
  8
Defpoints
 62
     0
100
AcDbPoint
 10
-46.40015619282808
 20
-4.762500000000029
 30
0.0
  0
ENDBLK
  5
202
330
200
100
AcDbEntity
  8
0
100
AcDbBlockEnd
  0
BLOCK
  5
20F
330
20E
100
AcDbEntity
  8
0
100
AcDbBlockBegin
  2
*D14
 70
     1
 10
0.0
 20
0.0
 30
0.0
  3
*D14
  1
*D14
  0
LINE
  5
211
330
20E
100
AcDbEntity
  8
0
  6
Continuous
 62
     0
370
    -2
100
AcDbLine
 10
35.39999999999998
 20
6.412500000000044
 30
0.0
 11
35.39999999999999
 21
32.96507939495148
 31
0.0
  0
LINE
  5
212
330
20E
100
AcDbEntity
  8
0
  6
Continuous
 62
     0
370
    -2
100
AcDbLine
 10
-40.80000000000003
 20
3.555000000000007
 30
0.0
 11
-40.80000000000002
 21
32.96507939495148
 31
0.0
  0
LINE
  5
213
330
20E
100
AcDbEntity
  8
0
  6
Continuous
 62
     0
370
    -2
100
AcDbLine
 10
32.09799999999999
 20
32.96507939495148
 30
0.0
 11
-37.49800000000002
 21
32.96507939495148
 31
0.0
  0
SOLID
  5
214
330
20E
100
AcDbEntity
  8
0
 62
     0
100
AcDbTrace
 10
32.09799999999999
 20
32.41474606161815
 30
0.0
 11
32.09799999999999
 21
33.51541272828482
 31
0.0
 12
35.39999999999999
 22
32.96507939495148
 32
0.0
 13
35.39999999999999
 23
32.96507939495148
 33
0.0
  0
SOLID
  5
215
330
20E
100
AcDbEntity
  8
0
 62
     0
100
AcDbTrace
 10
-37.49800000000002
 20
33.51541272828482
 30
0.0
 11
-37.49800000000002
 21
32.41474606161815
 31
0.0
 12
-40.80000000000002
 22
32.96507939495148
 32
0.0
 13
-40.80000000000002
 23
32.96507939495148
 33
0.0
  0
MTEXT
  5
216
330
20E
100
AcDbEntity
  8
0
 62
     0
370
    15
100
AcDbMText
 10
-2.70000000000001
 20
37.34007939495148
 30
0.0
 40
3.5
 41
0.0
 71
     2
 72
     1
  1
\A1;76.20 [3]
  7
SLDTEXTSTYLE0
 73
     1
 44
1.0
  0
POINT
  5
217
330
20E
100
AcDbEntity
  8
Defpoints
 62
     0
100
AcDbPoint
 10
35.39999999999998
 20
6.350000000000044
 30
0.0
  0
POINT
  5
218
330
20E
100
AcDbEntity
  8
Defpoints
 62
     0
100
AcDbPoint
 10
-40.80000000000003
 20
3.492500000000007
 30
0.0
  0
POINT
  5
219
330
20E
100
AcDbEntity
  8
Defpoints
 62
     0
100
AcDbPoint
 10
-40.80000000000003
 20
32.96507939495148
 30
0.0
  0
ENDBLK
  5
210
330
20E
100
AcDbEntity
  8
0
100
AcDbBlockEnd
  0
BLOCK
  5
21B
330
21A
100
AcDbEntity
  8
0
100
AcDbBlockBegin
  2
*D15
 70
     1
 10
0.0
 20
0.0
 30
0.0
  3
*D15
  1
*D15
  0
LINE
  5
21D
330
21A
100
AcDbEntity
  8
0
  6
Continuous
 62
     0
370
    -2
100
AcDbLine
 10
35.39999999999998
 20
6.412500000000044
 30
0.0
 11
35.39999999999998
 21
16.10351349602841
 31
0.0
  0
LINE
  5
21E
330
21A
100
AcDbEntity
  8
0
  6
Continuous
 62
     0
370
    -2
100
AcDbLine
 10
9.99999999999995
 20
5.925089607614268
 30
0.0
 11
9.99999999999995
 21
16.10351349602841
 31
0.0
  0
LINE
  5
21F
330
21A
100
AcDbEntity
  8
0
  6
Continuous
 62
     0
370
    -2
100
AcDbLine
 10
32.09799999999998
 20
16.10351349602841
 30
0.0
 11
13.30199999999995
 21
16.10351349602841
 31
0.0
  0
SOLID
  5
220
330
21A
100
AcDbEntity
  8
0
 62
     0
100
AcDbTrace
 10
32.09799999999998
 20
15.55318016269507
 30
0.0
 11
32.09799999999998
 21
16.65384682936174
 31
0.0
 12
35.39999999999998
 22
16.10351349602841
 32
0.0
 13
35.39999999999998
 23
16.10351349602841
 33
0.0
  0
SOLID
  5
221
330
21A
100
AcDbEntity
  8
0
 62
     0
100
AcDbTrace
 10
13.30199999999995
 20
16.65384682936174
 30
0.0
 11
13.30199999999995
 21
15.55318016269507
 31
0.0
 12
9.99999999999995
 22
16.10351349602841
 32
0.0
 13
9.99999999999995
 23
16.10351349602841
 33
0.0
  0
MTEXT
  5
222
330
21A
100
AcDbEntity
  8
0
 62
     0
370
    15
100
AcDbMText
 10
22.69999999999997
 20
20.47851349602841
 30
0.0
 40
3.5
 41
0.0
 71
     2
 72
     1
  1
\A1;25.40 [1]
  7
SLDTEXTSTYLE0
 73
     1
 44
1.0
  0
POINT
  5
223
330
21A
100
AcDbEntity
  8
Defpoints
 62
     0
100
AcDbPoint
 10
35.39999999999998
 20
6.350000000000044
 30
0.0
  0
POINT
  5
224
330
21A
100
AcDbEntity
  8
Defpoints
 62
     0
100
AcDbPoint
 10
9.99999999999995
 20
5.862589607614268
 30
0.0
  0
POINT
  5
225
330
21A
100
AcDbEntity
  8
Defpoints
 62
     0
100
AcDbPoint
 10
9.99999999999995
 20
16.10351349602841
 30
0.0
  0
ENDBLK
  5
21C
330
21A
100
AcDbEntity
  8
0
100
AcDbBlockEnd
  0
BLOCK
  5
227
330
226
100
AcDbEntity
  8
0
100
AcDbBlockBegin
  2
*D16
 70
     1
 10
0.0
 20
0.0
 30
0.0
  3
*D16
  1
*D16
  0
LINE
  5
229
330
226
100
AcDbEntity
  8
0
  6
Continuous
 62
     0
370
    -2
100
AcDbLine
 10
35.46249999999998
 20
4.762500000000003
 30
0.0
 11
48.16916755517061
 21
4.762500000000049
 31
0.0
  0
LINE
  5
22A
330
226
100
AcDbEntity
  8
0
  6
Continuous
 62
     0
370
    -2
100
AcDbLine
 10
35.46249999999998
 20
-4.762500000000003
 30
0.0
 11
48.16916755517065
 21
-4.762499999999957
 31
0.0
  0
LINE
  5
22B
330
226
100
AcDbEntity
  8
0
  6
Continuous
 62
     0
370
    -2
100
AcDbLine
 10
48.16916755517061
 20
4.762500000000049
 30
0.0
 11
48.16916755517049
 21
36.55825000000007
 31
0.0
  0
LINE
  5
22C
330
226
100
AcDbEntity
  8
0
  6
Continuous
 62
     0
370
    -2
100
AcDbLine
 10
48.16916755517062
 20
1.460500000000049
 30
0.0
 11
48.16916755517063
 21
-1.460499999999957
 31
0.0
  0
SOLID
  5
22D
330
226
100
AcDbEntity
  8
0
 62
     0
100
AcDbTrace
 10
48.71950088850396
 20
1.460500000000051
 30
0.0
 11
47.61883422183729
 21
1.460500000000047
 31
0.0
 12
48.16916755517061
 22
4.762500000000049
 32
0.0
 13
48.16916755517061
 23
4.762500000000049
 33
0.0
  0
SOLID
  5
22E
330
226
100
AcDbEntity
  8
0
 62
     0
100
AcDbTrace
 10
47.6188342218373
 20
-1.460499999999959
 30
0.0
 11
48.71950088850397
 21
-1.460499999999955
 31
0.0
 12
48.16916755517065
 22
-4.762499999999957
 32
0.0
 13
48.16916755517065
 23
-4.762499999999957
 33
0.0
  0
MTEXT
  5
22F
330
226
100
AcDbEntity
  8
0
 62
     0
370
    15
100
AcDbMText
 10
43.79416755517054
 20
23.43325000000005
 30
0.0
 40
3.5
 41
0.0
 71
     2
 72
     1
  1
\A1;%%c9.53 [3/8]
  7
SLDTEXTSTYLE0
 11
-3.729883127349605E-15
 21
1.0
 31
0.0
 73
     1
 44
1.0
  0
POINT
  5
230
330
226
100
AcDbEntity
  8
Defpoints
 62
     0
100
AcDbPoint
 10
35.39999999999998
 20
4.762500000000003
 30
0.0
  0
POINT
  5
231
330
226
100
AcDbEntity
  8
Defpoints
 62
     0
100
AcDbPoint
 10
35.39999999999998
 20
-4.762500000000003
 30
0.0
  0
POINT
  5
232
330
226
100
AcDbEntity
  8
Defpoints
 62
     0
100
AcDbPoint
 10
48.16916755517065
 20
-4.762499999999955
 30
0.0
  0
ENDBLK
  5
228
330
226
100
AcDbEntity
  8
0
100
AcDbBlockEnd
  0
BLOCK
  5
234
330
233
100
AcDbEntity
  8
0
100
AcDbBlockBegin
  2
*D17
 70
     1
 10
0.0
 20
0.0
 30
0.0
  3
*D17
  1
*D17
  0
LINE
  5
236
330
233
100
AcDbEntity
  8
0
  6
Continuous
 62
     0
370
    -2
100
AcDbLine
 10
35.88721077442253
 20
-7.625447369281592
 30
0.0
 11
50.29960302774798
 21
-39.0624340267013
 31
0.0
  0
MTEXT
  5
237
330
233
100
AcDbEntity
  8
0
 62
     0
370
    15
100
AcDbMText
 10
47.30717612906857
 20
-26.2363942903462
 30
0.0
 40
3.5
 41
0.0
 71
     5
 72
     1
  1
\A1;R1.52 [R.06]
  7
SLDTEXTSTYLE0
 11
0.4167448765898361
 21
-0.9090234913554889
 31
0.0
 73
     1
 44
1.0
  0
SOLID
  5
238
330
233
100
AcDbEntity
  8
0
 62
     0
100
AcDbTrace
 10
36.3874767024985
 20
-7.396098772198319
 30
0.0
 11
35.38694484634657
 21
-7.854795966364866
 31
0.0
 12
34.51111919192289
 22
-4.623851800825769
 32
0.0
 13
34.51111919192289
 23
-4.623851800825769
 33
0.0
  0
LINE
  5
239
330
233
100
AcDbEntity
  8
0
  6
Continuous
 62
     0
370
    15
100
AcDbLine
 10
33.78599999999998
 20
-3.238500000000002
 30
0.0
 11
33.96599999999999
 21
-3.238500000000002
 31
0.0
  0
LINE
  5
23A
330
233
100
AcDbEntity
  8
0
  6
Continuous
 62
     0
370
    15
100
AcDbLine
 10
33.87599999999998
 20
-3.328500000000002
 30
0.0
 11
33.87599999999998
 21
-3.148500000000002
 31
0.0
  0
POINT
  5
23B
330
233
100
AcDbEntity
  8
Defpoints
 62
     0
100
AcDbPoint
 10
34.51111919192289
 20
-4.623851800825769
 30
0.0
  0
POINT
  5
23C
330
233
100
AcDbEntity
  8
Defpoints
 62
     0
100
AcDbPoint
 10
33.87599999999998
 20
-3.238500000000002
 30
0.0
  0
ENDBLK
  5
235
330
233
100
AcDbEntity
  8
0
100
AcDbBlockEnd
  0
BLOCK
  5
245
330
244
100
AcDbEntity
  8
0
100
AcDbBlockBegin
  2
*D18
 70
     1
 10
0.0
 20
0.0
 30
0.0
  3
*D18
  1
*D18
  0
LINE
  5
247
330
244
100
AcDbEntity
  8
0
  6
Continuous
 62
     0
370
    -2
100
AcDbLine
 10
36.67200136460711
 20
-7.518870993624233
 30
0.0
 11
54.19962274491349
 21
-37.83776641069256
 31
0.0
  0
MTEXT
  5
248
330
244
100
AcDbEntity
  8
0
 62
     0
370
    15
100
AcDbMText
 10
49.90322903128038
 20
-25.1611244634948
 30
0.0
 40
3.5
 41
0.0
 71
     5
 72
     1
  1
\A1;R0.76 [R.03]
  7
SLDTEXTSTYLE0
 11
0.5004924617635653
 21
-0.8657408941004499
 31
0.0
 73
     1
 44
1.0
  0
SOLID
  5
249
330
244
100
AcDbEntity
  8
0
 62
     0
100
AcDbTrace
 10
37.14844743666039
 20
-7.243433308833684
 30
0.0
 11
36.19555529255383
 21
-7.794308678414782
 31
0.0
 12
35.01937525586382
 22
-4.660194561304548
 32
0.0
 13
35.01937525586382
 23
-4.660194561304548
 33
0.0
  0
LINE
  5
24A
330
244
100
AcDbEntity
  8
0
  6
Continuous
 62
     0
370
    15
100
AcDbLine
 10
34.54799999999998
 20
-4.000500000000005
 30
0.0
 11
34.72799999999999
 21
-4.000500000000005
 31
0.0
  0
LINE
  5
24B
330
244
100
AcDbEntity
  8
0
  6
Continuous
 62
     0
370
    15
100
AcDbLine
 10
34.63799999999998
 20
-4.090500000000005
 30
0.0
 11
34.63799999999998
 21
-3.910500000000005
 31
0.0
  0
POINT
  5
24C
330
244
100
AcDbEntity
  8
Defpoints
 62
     0
100
AcDbPoint
 10
35.01937525586382
 20
-4.660194561304548
 30
0.0
  0
POINT
  5
24D
330
244
100
AcDbEntity
  8
Defpoints
 62
     0
100
AcDbPoint
 10
34.63799999999998
 20
-4.000500000000005
 30
0.0
  0
ENDBLK
  5
246
330
244
100
AcDbEntity
  8
0
100
AcDbBlockEnd
  0
ENDSEC
  0
SECTION
  2
ENTITIES
  0
LINE
  5
B3
330
1F
100
AcDbEntity
  8
참조1
100
AcDbLine
 10
-9.049999999999988
 20
0.0010749287238892
 30
0.0
 11
-9.049999999999983
 21
-39.99892507127611
 31
0.0
  0
LINE
  5
B4
330
1F
100
AcDbEntity
  8
참조1
100
AcDbLine
 10
-9.049999999999983
 20
-39.99892507127611
 30
0.0
 11
-30.55885681430864
 21
-39.9989250712761
 31
0.0
  0
INSERT
  5
B6
330
1F
100
AcDbEntity
  8
0
  6
Continuous
 62
     7
100
AcDbBlockReference
 66
     1
  2
블럭10
 10
-22.99027293212519
 20
-52.04609937292004
 30
0.0
  0
ATTRIB
  5
B7
330
B6
100
AcDbEntity
  8
FORMAT
 62
     2
100
AcDbText
 10
-33.13190894426182
 20
-49.97073246008785
 30
0.0
 40
4.233333333333333
  1
EM649910 [ 4 FLUTE ]
 41
0.75
  7
SLDTEXTSTYLE0
 11
-33.13190894426182
 21
-52.08739912675452
 31
0.0
100
AcDbAttribute
  2
AUTOATTR0
 70
     0
 74
     1
  0
SEQEND
  5
B8
330
B6
100
AcDbEntity
  8
0
  6
Continuous
 62
     7
  0
HATCH
  5
B9
330
1F
100
AcDbEntity
  8
중심선
100
AcDbHatch
 10
0.0
 20
0.0
 30
0.0
210
0.0
220
0.0
230
1.0
  2
SOLID
 70
     1
 71
     0
 91
        1
 92
        0
 93
        4
 72
     1
 10
-17.27536362774434
 20
-35.7989250712761
 11
-20.72163887158163
 21
-35.7989250712761
 72
     1
 10
-20.72163887158163
 20
-35.7989250712761
 11
-22.84986873078565
 21
-38.3352506518487
 72
     1
 10
-22.84986873078565
 20
-38.3352506518487
 11
-19.40356040183522
 21
-38.33521122254621
 72
     1
 10
-19.40356040183522
 20
-38.33521122254621
 11
-17.27536362774434
 21
-35.7989250712761
 97
        0
 75
     0
 76
     1
 98
        1
 10
0.0
 20
0.0
  0
HATCH
  5
BA
330
1F
100
AcDbEntity
  8
중심선
100
AcDbHatch
 10
0.0
 20
0.0
 30
0.0
210
0.0
220
0.0
230
1.0
  2
SOLID
 70
     1
 71
     0
 91
        1
 92
        0
 93
        4
 72
     1
 10
-12.26259963670837
 20
-35.7989250712761
 11
-15.70887488054565
 21
-35.7989250712761
 72
     1
 10
-15.70887488054565
 20
-35.7989250712761
 11
-20.24001288890306
 21
-41.19892507127612
 72
     1
 10
-20.24001288890306
 20
-41.19892507127612
 11
-16.79373764506578
 21
-41.19892507127612
 72
     1
 10
-16.79373764506578
 20
-41.19892507127612
 11
-12.26259963670837
 21
-35.7989250712761
 97
        0
 75
     0
 76
     1
 98
        1
 10
0.0
 20
0.0
  0
HATCH
  5
BB
330
1F
100
AcDbEntity
  8
중심선
100
AcDbHatch
 10
0.0
 20
0.0
 30
0.0
210
0.0
220
0.0
230
1.0
  2
SOLID
 70
     1
 71
     0
 91
        1
 92
        0
 93
        4
 72
     1
 10
-7.249835645672498
 20
-35.7989250712761
 11
-10.69611088950961
 21
-35.7989250712761
 72
     1
 10
-10.69611088950961
 20
-35.7989250712761
 11
-17.74454779139886
 21
-44.19892507127612
 72
     1
 10
-17.74454779139886
 20
-44.19892507127612
 11
-14.29827254756158
 21
-44.19892507127612
 72
     1
 10
-14.29827254756158
 20
-44.19892507127612
 11
-7.249835645672498
 21
-35.7989250712761
 97
        0
 75
     0
 76
     1
 98
        1
 10
0.0
 20
0.0
  0
HATCH
  5
BC
330
1F
100
AcDbEntity
  8
중심선
100
AcDbHatch
 10
0.0
 20
0.0
 30
0.0
210
0.0
220
0.0
230
1.0
  2
SOLID
 70
     1
 71
     0
 91
        1
 92
        0
 93
        6
 72
     3
 10
-2.449945214660298
 20
-39.99892507132738
 11
3.960054785062284
 21
1.540850780301639E-10
 40
0.3939339440162633
 50
17.09539180608433
 51
320.0019657685079
 73
     0
 72
     1
 10
-0.766945558959703
 20
-38.58681907591441
 11
1.538356314741362
 21
-36.65249236586646
 72
     3
 10
-2.449945214713145
 20
-39.99892507127625
 11
6.600054785286829
 21
-1.249000902703301E-13
 40
0.6363583540795982
 50
39.99873849337412
 51
368.4976242363725
 73
     1
 72
     1
 10
3.975387277187465
 20
-39.03892507120613
 11
-3.769877907877222
 21
-39.03892507120613
 72
     1
 10
-3.769877907877222
 20
-39.03892507120613
 11
-3.769902952323156
 21
-40.95892507120602
 72
     1
 10
-3.769902952323156
 20
-40.95892507120602
 11
0.6714768171488803
 21
-40.95892507120599
 97
        0
 75
     0
 76
     1
 98
        1
 10
0.0
 20
0.0
  0
LINE
  5
10A
330
1F
100
AcDbEntity
  8
참조1
100
AcDbLine
 10
67.41348381534561
 20
7.441074928723896
 30
0.0
 11
67.41348381534561
 21
-7.438925071276109
 31
0.0
  0
LINE
  5
10B
330
1F
100
AcDbEntity
  8
참조1
100
AcDbLine
 10
80.11348381534562
 20
5.441074928723896
 30
0.0
 11
67.41348381534561
 21
5.441074928723896
 31
0.0
  0
SOLID
  5
10C
330
1F
100
AcDbEntity
  8
참조1
100
AcDbTrace
 10
67.41348381534561
 20
5.441074928723896
 30
0.0
 11
73.76348381534561
 21
4.425074928723896
 31
0.0
 12
73.76348381534561
 22
6.457074928723896
 32
0.0
 13
73.76348381534561
 23
6.457074928723896
 33
0.0
  0
LINE
  5
10D
330
1F
100
AcDbEntity
  8
참조1
100
AcDbLine
 10
80.11348381534562
 20
-5.438925071276109
 30
0.0
 11
67.41348381534561
 21
-5.438925071276109
 31
0.0
  0
SOLID
  5
10E
330
1F
100
AcDbEntity
  8
참조1
100
AcDbTrace
 10
67.41348381534561
 20
-5.438925071276109
 30
0.0
 11
73.76348381534561
 21
-6.454925071276109
 31
0.0
 12
73.76348381534561
 22
-4.422925071276109
 32
0.0
 13
73.76348381534561
 23
-4.422925071276109
 33
0.0
  0
MTEXT
  5
10F
330
1F
100
AcDbEntity
  8
참조1
100
AcDbMText
 10
76.81097390781589
 20
10.98929157337383
 30
0.0
 40
3.5
 41
0.0
 71
     1
 72
     1
  1
A
  7
SLDTEXTSTYLE0
 73
     1
 44
1.0
  0
MTEXT
  5
110
330
1F
100
AcDbEntity
  8
참조1
100
AcDbMText
 10
76.81097390781589
 20
0.1092915733738251
 30
0.0
 40
3.5
 41
0.0
 71
     1
 72
     1
  1
A
  7
SLDTEXTSTYLE0
 73
     1
 44
1.0
  0
LINE
  5
1D7
330
1F
100
AcDbEntity
  8
0
  6
Continuous
 62
     1
370
    15
100
AcDbLine
 10
26.05377138762214
 20
4.762499999999996
 30
0.0
 11
23.1504463185751
 21
4.762499999999996
 31
0.0
  0
LINE
  5
1D8
330
1F
100
AcDbEntity
  8
0
  6
Continuous
 62
     1
370
    15
100
AcDbLine
 10
23.15044631857504
 20
-4.76250000000001
 30
0.0
 11
26.05377138762217
 21
-4.76250000000001
 31
0.0
  0
LINE
  5
1D9
330
1F
100
AcDbEntity
  8
외형선
  6
Continuous
370
    15
100
AcDbLine
 10
-39.53000000000002
 20
4.762500000000003
 30
0.0
 11
-40.80000000000003
 21
3.492500000000007
 31
0.0
  0
LINE
  5
1DA
330
1F
100
AcDbEntity
  8
외형선
  6
Continuous
370
    15
100
AcDbLine
 10
-40.80000000000003
 20
-3.492500000000007
 30
0.0
 11
-39.53000000000002
 21
-4.762500000000003
 31
0.0
  0
SPLINE
  5
1DB
330
1F
100
AcDbEntity
  8
0
  6
Continuous
 62
     1
370
    15
100
AcDbSpline
210
0.0
220
0.0
230
1.0
 70
     8
 71
     3
 72
    18
 73
    14
 74
     0
 42
0.000000001
 43
0.00000001
 40
0.0
 40
0.0
 40
0.0
 40
0.0
 40
0.0883853443123383
 40
0.1768063120159699
 40
0.2652014765171716
 40
0.3535642365385396
 40
0.4419085192525871
 40
0.530248322244409
 40
0.6185976601899811
 40
0.7157958095163086
 40
0.812997707249123
 40
0.9102040135793357
 40
0.9999999999999999
 40
0.9999999999999999
 40
0.9999999999999999
 40
0.9999999999999999
 10
35.01899999999996
 20
0.6270534715081268
 30
0.0
 10
34.52109134636169
 20
0.910021815039137
 30
0.0
 10
33.5250733588147
 20
1.476072551461989
 30
0.0
 10
32.03087148101361
 20
2.271009591179258
 30
0.0
 10
30.53695536819169
 20
2.993357465912467
 30
0.0
 10
29.04357922484085
 20
3.617396516343362
 30
0.0
 10
27.55058117899004
 20
4.123231960402229
 30
0.0
 10
26.05766067977746
 20
4.494318842132202
 30
0.0
 10
24.5148842742475
 20
4.725768640458924
 30
0.0
 10
22.92189387490823
 20
4.792844353366476
 30
0.0
 10
21.27907340289853
 20
4.668938743398499
 30
0.0
 10
19.67792000715026
 20
4.381344111719159
 30
0.0
 10
18.62437318408542
 20
4.054656537491454
 30
0.0
 10
18.11847416634718
 20
3.897785557207634
 30
0.0
  0
SPLINE
  5
1DC
330
1F
100
AcDbEntity
  8
0
  6
Continuous
 62
     1
370
    15
100
AcDbSpline
210
0.0
220
0.0
230
1.0
 70
     8
 71
     3
 72
    14
 73
    10
 74
     0
 42
0.000000001
 43
0.00000001
 40
0.0
 40
0.0
 40
0.0
 40
0.0
 40
0.25
 40
0.25
 40
0.5
 40
0.5
 40
0.75
 40
0.75
 40
1.0
 40
1.0
 40
1.0
 40
1.0
 10
35.39999999999998
 20
0.466806942706711
 30
0.0
 10
35.39999999999998
 20
0.4625366698581885
 30
0.0
 10
35.3893363825105
 20
0.462373841941826
 30
0.0
 10
35.34815953998783
 20
0.4720934176361311
 30
0.0
 10
35.31738566527478
 20
0.4821666926832151
 30
0.0
 10
35.24353378561197
 20
0.5117413510350133
 30
0.0
 10
35.20048872046619
 20
0.531221206725867
 30
0.0
 10
35.11038183619699
 20
0.5761963695367314
 30
0.0
 10
35.06445135097332
 20
0.6010436592964226
 30
0.0
 10
35.01900000000001
 20
0.6270534715081268
 30
0.0
  0
SPLINE
  5
1DD
330
1F
100
AcDbEntity
  8
0
  6
Continuous
 62
     1
370
    15
100
AcDbSpline
210
0.0
220
0.0
230
1.0
 70
     8
 71
     3
 72
    10
 73
     6
 74
     0
 42
0.000000001
 43
0.00000001
 40
0.0
 40
0.0
 40
0.0
 40
0.0
 40
0.5
 40
0.5
 40
1.0
 40
1.0
 40
1.0
 40
1.0
 10
35.01899999999996
 20
2.21641443570077
 30
0.0
 10
35.11816449711967
 20
2.165745769660461
 30
0.0
 10
35.20901574417221
 20
2.091077511266377
 30
0.0
 10
35.35065507404273
 20
1.927693915736015
 30
0.0
 10
35.39999999999998
 20
1.839442940704025
 30
0.0
 10
35.39999999999998
 20
1.774014390262693
 30
0.0
  0
LINE
  5
1DE
330
1F
100
AcDbEntity
  8
0
  6
Continuous
 62
     1
370
    15
100
AcDbLine
 10
35.39999999999998
 20
0.466806942706711
 30
0.0
 11
35.39999999999998
 21
1.774014390262693
 31
0.0
  0
SPLINE
  5
1DF
330
1F
100
AcDbEntity
  8
0
  6
Continuous
 62
     1
370
    15
100
AcDbSpline
210
0.0
220
0.0
230
1.0
 70
     8
 71
     3
 72
    13
 73
     9
 74
     0
 42
0.000000001
 43
0.00000001
 40
0.0
 40
0.0
 40
0.0
 40
0.0
 40
0.0836628069076694
 40
0.2669494016612667
 40
0.4502270733010812
 40
0.633493905829908
 40
0.8167511346506166
 40
1.0
 40
1.0
 40
1.0
 40
1.0
 10
26.05377138762214
 20
4.742994058148547
 30
0.0
 10
26.30378320546209
 20
4.746626669789379
 30
0.0
 10
27.10151528794263
 20
4.758217525270204
 30
0.0
 10
28.44704000817507
 20
4.58795979119914
 30
0.0
 10
30.09017267279322
 20
4.233536310929018
 30
0.0
 10
31.73320913477009
 20
3.700827476918043
 30
0.0
 10
33.37614024163276
 20
3.030573259723866
 30
0.0
 10
34.47138841153504
 20
2.487796581751475
 30
0.0
 10
35.01900000000001
 20
2.216414435700756
 30
0.0
  0
SPLINE
  5
1E0
330
1F
100
AcDbEntity
  8
0
  6
Continuous
 62
     1
370
    15
100
AcDbSpline
210
0.0
220
0.0
230
1.0
 70
     8
 71
     3
 72
    12
 73
     8
 74
     0
 42
0.000000001
 43
0.00000001
 40
0.0
 40
0.0
 40
0.0
 40
0.0
 40
0.0336043751568623
 40
0.2751852123009221
 40
0.5167770063570851
 40
0.7583813926085566
 40
1.0
 40
1.0
 40
1.0
 40
1.0
 10
23.15044631857504
 20
-4.751213457993764
 30
0.0
 10
23.07427310008476
 20
-4.754840671541501
 30
0.0
 10
22.45049291658038
 20
-4.784543813633469
 30
0.0
 10
21.27906935286962
 20
-4.660227789266223
 30
0.0
 10
19.63614297170896
 20
-4.366952793720635
 30
0.0
 10
17.99311426987357
 20
-3.89212684909765
 30
0.0
 10
16.89771550240125
 20
-3.453173649875261
 30
0.0
 10
16.35
 20
-3.233690591118943
 30
0.0
  0
SPLINE
  5
1E1
330
1F
100
AcDbEntity
  8
0
  6
Continuous
 62
     1
370
    15
100
AcDbSpline
210
0.0
220
0.0
230
1.0
 70
     8
 71
     3
 72
     9
 73
     5
 74
     0
 42
0.000000001
 43
0.00000001
 40
0.0
 40
0.0
 40
0.0
 40
0.0
 40
0.8448440348887941
 40
1.0
 40
1.0
 40
1.0
 40
1.0
 10
16.34999999999994
 20
-4.396942205710715
 30
0.0
 10
16.84805090261865
 20
-4.281548265622014
 30
0.0
 10
17.43756906461193
 20
-4.144962179524015
 30
0.0
 10
18.02701769518684
 20
-3.930985340221135
 30
0.0
 10
18.11847416634712
 20
-3.897785557207655
 30
0.0
  0
CIRCLE
  5
1E2
330
1F
100
AcDbEntity
  8
해칭선
100
AcDbCircle
 10
0.0
 20
0.0
 30
0.0
 40
3.000000000000001
  0
DIMENSION
  5
1E3
330
1F
100
AcDbEntity
  8
0
  6
Continuous
370
    15
100
AcDbDimension
  2
*D13
 10
-46.40015619282808
 20
-4.762500000000029
 30
0.0
 11
-46.40015619282809
 21
-0.0000000000001421
 31
0.0
 70
   160
  1
%%c<>
 71
     2
 42
9.525000000000006
 52
-270.0
  3
SLDDIMSTYLE1
100
AcDbAlignedDimension
 13
-39.53000000000002
 23
4.762500000000003
 33
0.0
 14
-39.53000000000002
 24
-4.762500000000003
 34
0.0
 50
90.0000000000002
100
AcDbRotatedDimension
1001
ACAD
1000
DSTYLE
1002
{
1070
   171
1070
     6
1070
   273
1070
     7
1002
}
1001
ACAD_DSTYLE_DIMFLIPARROW_SYMBOL
1070
   385
1070
     0
1001
ACAD_DSTYLE_DIMFLIPARROW_WHICH_SYMBOL
1070
   386
1070
     3
  0
DIMENSION
  5
1E4
330
1F
100
AcDbEntity
  8
0
  6
Continuous
370
    15
100
AcDbDimension
  2
*D14
 10
-40.80000000000002
 20
32.96507939495148
 30
0.0
 11
-2.70000000000001
 21
32.96507939495148
 31
0.0
 70
   160
  1
<>
 71
     2
 42
76.20000000000002
  3
SLDDIMSTYLE1
100
AcDbAlignedDimension
 13
35.39999999999998
 23
6.350000000000044
 33
0.0
 14
-40.80000000000003
 24
3.492500000000007
 34
0.0
 50
0.000000000000004
100
AcDbRotatedDimension
1001
ACAD
1000
DSTYLE
1002
{
1070
   171
1070
     6
1070
   273
1070
     7
1002
}
  0
DIMENSION
  5
1E5
330
1F
100
AcDbEntity
  8
0
  6
Continuous
370
    15
100
AcDbDimension
  2
*D15
 10
9.99999999999995
 20
16.10351349602841
 30
0.0
 11
22.69999999999997
 21
16.10351349602841
 31
0.0
 70
   160
  1
<>
 71
     2
 42
25.40000000000003
  3
SLDDIMSTYLE1
100
AcDbAlignedDimension
 13
35.39999999999998
 23
6.350000000000044
 33
0.0
 14
9.99999999999995
 24
5.862589607614268
 34
0.0
100
AcDbRotatedDimension
1001
ACAD
1000
DSTYLE
1002
{
1070
   171
1070
     6
1070
   273
1070
     7
1002
}
  0
DIMENSION
  5
1E6
330
1F
100
AcDbEntity
  8
0
  6
Continuous
370
    15
100
AcDbDimension
  2
*D16
 10
48.16916755517065
 20
-4.762499999999957
 30
0.0
 11
48.16916755517054
 21
23.43325000000007
 31
0.0
 70
   160
  1
%%c<>
 71
     2
 42
9.525000000000006
 52
-270.0
  3
SLDDIMSTYLE1
100
AcDbAlignedDimension
 13
35.39999999999998
 23
4.762500000000003
 33
0.0
 14
35.39999999999998
 24
-4.762500000000003
 34
0.0
 50
90.0000000000002
100
AcDbRotatedDimension
1001
ACAD
1000
DSTYLE
1002
{
1070
   171
1070
     6
1070
   273
1070
     7
1002
}
  0
INSERT
  5
1E7
330
1F
100
AcDbEntity
  8
해칭선
100
AcDbBlockReference
  2
SW_DOWELSYMBOL_0
 10
0.0
 20
0.0
 30
0.0
  0
LINE
  5
1E8
330
1F
100
AcDbEntity
  8
외형선
  6
Continuous
370
    15
100
AcDbLine
 10
10.0
 20
4.762500000000003
 30
0.0
 11
10.0
 21
-4.762500000000003
 31
0.0
  0
LINE
  5
1E9
330
1F
100
AcDbEntity
  8
외형선
  6
Continuous
370
    15
100
AcDbLine
 10
-39.53000000000002
 20
-4.762500000000003
 30
0.0
 11
-39.53000000000002
 21
-0.0000000000000142
 31
0.0
  0
LINE
  5
1EA
330
1F
100
AcDbEntity
  8
외형선
  6
Continuous
370
    15
100
AcDbLine
 10
-40.80000000000003
 20
-0.0000000000000142
 30
0.0
 11
-40.80000000000003
 21
3.492500000000007
 31
0.0
  0
LINE
  5
1EB
330
1F
100
AcDbEntity
  8
외형선
  6
Continuous
370
    15
100
AcDbLine
 10
-40.80000000000003
 20
-3.492500000000007
 30
0.0
 11
-40.80000000000003
 21
-0.0000000000000142
 31
0.0
  0
LINE
  5
1EC
330
1F
100
AcDbEntity
  8
외형선
  6
Continuous
370
    15
100
AcDbLine
 10
-39.53000000000002
 20
-4.762500000000003
 30
0.0
 11
10.0
 21
-4.762500000000003
 31
0.0
  0
LINE
  5
1ED
330
1F
100
AcDbEntity
  8
외형선
  6
Continuous
370
    15
100
AcDbLine
 10
10.0
 20
4.762500000000003
 30
0.0
 11
-39.53000000000002
 21
4.762500000000003
 31
0.0
  0
LINE
  5
1EE
330
1F
100
AcDbEntity
  8
중심선
 48
0.8
100
AcDbLine
 10
-43.80000000000003
 20
-0.0000000000000071
 30
0.0
 11
38.39999999999998
 21
0.0
 31
0.0
  0
SPLINE
  5
1EF
330
1F
100
AcDbEntity
  8
0
  6
Continuous
 62
     1
370
    15
100
AcDbSpline
210
0.0
220
0.0
230
1.0
 70
  1064
 71
     3
 72
     9
 73
     5
 74
     3
 42
0.000000001
 43
0.0000000001
 44
0.0
 40
0.0
 40
0.0
 40
0.0
 40
0.0
 40
3.25459441863776
 40
6.361575890990247
 40
6.361575890990247
 40
6.361575890990247
 40
6.361575890990247
 10
16.34999999999994
 20
4.396942205710715
 30
0.0
 10
15.26879315851665
 20
4.488750330719611
 30
0.0
 10
13.15541788307057
 20
4.668202600197189
 30
0.0
 10
11.03540851304183
 20
4.731557559368802
 30
0.0
 10
10.0
 20
4.762500000000003
 30
0.0
 11
16.34999999999994
 21
4.396942205710715
 31
0.0
 11
13.10464309071332
 21
4.641979674628537
 31
0.0
 11
10.0
 21
4.762500000000003
 31
0.0
  0
LINE
  5
1F0
330
1F
100
AcDbEntity
  8
외형선
  6
Continuous
370
    15
100
AcDbLine
 10
-39.53000000000002
 20
-0.0000000000000142
 30
0.0
 11
-39.53000000000002
 21
4.762500000000003
 31
0.0
  0
SPLINE
  5
1F1
330
1F
100
AcDbEntity
  8
0
  6
Continuous
 62
     1
370
    15
100
AcDbSpline
210
0.0
220
0.0
230
1.0
 70
  1064
 71
     3
 72
     9
 73
     5
 74
     3
 42
0.000000001
 43
0.0000000001
 44
0.0
 40
0.0
 40
0.0
 40
0.0
 40
0.0
 40
2.86821953710518
 40
6.389109538441295
 40
6.389109538441295
 40
6.389109538441295
 40
6.389109538441295
 10
16.06882755652783
 20
2.88480962749324
 30
0.0
 10
15.20934610588822
 20
3.317150829453362
 30
0.0
 10
13.2948060703869
 20
4.280213545389145
 30
0.0
 10
11.17060043272487
 20
4.591150087318033
 30
0.0
 10
10.0
 20
4.762500000000003
 30
0.0
 11
16.06882755652783
 21
2.88480962749324
 31
0.0
 11
13.44812886707454
 21
4.050408912037312
 31
0.0
 11
10.0
 21
4.762500000000003
 31
0.0
  0
SPLINE
  5
1F2
330
1F
100
AcDbEntity
  8
0
  6
Continuous
 62
     1
370
    15
100
AcDbSpline
210
0.0
220
0.0
230
1.0
 70
  1080
 71
     3
 72
     8
 73
     4
 74
     2
 42
0.000000001
 43
0.0000000001
 44
0.0
 40
0.0
 40
0.0
 40
0.0
 40
0.0
 40
6.360513540663595
 40
6.360513540663595
 40
6.360513540663595
 40
6.360513540663595
 10
16.34999999999994
 20
-4.396942205710715
 30
0.0
 10
14.2333333333333
 20
-4.518794803807144
 30
0.0
 10
12.11666666666665
 20
-4.640647401903573
 30
0.0
 10
10.0
 20
-4.762500000000003
 30
0.0
 11
16.34999999999994
 21
-4.396942205710715
 31
0.0
 11
10.0
 21
-4.762500000000003
 31
0.0
  0
SPLINE
  5
1F3
330
1F
100
AcDbEntity
  8
0
  6
Continuous
 62
     1
370
    15
100
AcDbSpline
210
0.0
220
0.0
230
1.0
 70
    24
 71
     3
 72
     8
 73
     4
 74
     0
 42
0.000000001
 43
0.0000000001
 40
0.0
 40
0.0
 40
0.0
 40
0.0
 40
7.247161405518988
 40
7.247161405518988
 40
7.247161405518988
 40
7.247161405518988
 10
16.35
 20
-3.233690591118943
 30
0.0
 10
14.18809257062831
 20
-2.155793727412629
 30
0.0
 10
12.0261851412566
 20
-1.077896863706314
 30
0.0
 10
9.86427771188491
 20
-0.0000000000000071
 30
0.0
  0
SPLINE
  5
1F4
330
1F
100
AcDbEntity
  8
0
  6
Continuous
 62
     1
370
    15
100
AcDbSpline
210
0.0
220
0.0
230
1.0
 70
    24
 71
     3
 72
     8
 73
     4
 74
     0
 42
0.000000001
 43
0.0000000001
 40
0.0
 40
0.0
 40
0.0
 40
0.0
 40
7.122837189520761
 40
7.122837189520761
 40
7.122837189520761
 40
7.122837189520761
 10
16.34999999999994
 20
-1.829837558265751
 30
0.0
 10
14.2333333333333
 20
-0.7542338710060292
 30
0.0
 10
12.11666666666665
 20
0.3213698162537
 30
0.0
 10
9.999999999999993
 20
1.396973503513422
 30
0.0
  0
SPLINE
  5
1F5
330
1F
100
AcDbEntity
  8
0
  6
Continuous
 62
     1
370
    15
100
AcDbSpline
210
0.0
220
0.0
230
1.0
 70
     8
 71
     3
 72
    10
 73
     6
 74
     0
 42
0.000000001
 43
0.00000001
 40
0.166662601558963
 40
0.166662601558963
 40
0.166662601558963
 40
0.166662601558963
 40
0.3787612894518905
 40
0.7576752372627505
 40
0.9495153929784363
 40
0.9495153929784363
 40
0.9495153929784363
 40
0.9495153929784363
 10
34.63799999999998
 20
4.762500000000003
 30
0.0
 10
32.77942638052728
 20
4.724127801025894
 30
0.0
 10
32.14550237379553
 20
4.630616053316011
 30
0.0
 10
31.51655891524883
 20
4.43303961236245
 30
0.0
 10
30.831183267397
 20
4.150659360809101
 30
0.0
 10
30.58602378311438
 20
4.062024473309584
 30
0.0
  0
LINE
  5
1F6
330
1F
100
AcDbEntity
  8
0
  6
Continuous
 62
     1
370
    15
100
AcDbLine
 10
35.39999999999998
 20
1.774014390262693
 30
0.0
 11
35.39999999999998
 21
4.000500000000003
 31
0.0
  0
LINE
  5
1F7
330
1F
100
AcDbEntity
  8
0
  6
Continuous
 62
     1
370
    15
100
AcDbLine
 10
35.39999999999998
 20
-4.000500000000005
 30
0.0
 11
35.39999999999998
 21
0.4668069427067039
 31
0.0
  0
SPLINE
  5
1F8
330
1F
100
AcDbEntity
  8
0
  6
Continuous
 62
     1
370
    15
100
AcDbSpline
210
0.0
220
0.0
230
1.0
 70
     8
 71
     3
 72
    17
 73
    13
 74
     0
 42
0.000000001
 43
0.00000001
 40
0.0
 40
0.0
 40
0.0
 40
0.0
 40
0.1014621810699251
 40
0.2028844324849521
 40
0.3042827189041055
 40
0.4056730962801239
 40
0.5070716507370849
 40
0.6084944372055853
 40
0.7099574183085766
 40
0.821542555900308
 40
0.9331222610877735
 40
0.9419087837516374
 40
0.9419087837516374
 40
0.9419087837516374
 40
0.9419087837516374
 10
16.34999999999994
 20
-1.829837558265751
 30
0.0
 10
16.84804333520115
 20
-2.089428594126481
 30
0.0
 10
17.84393400450947
 20
-2.608508505807947
 30
0.0
 10
19.33739289923884
 20
-3.285956524424272
 30
0.0
 10
20.83044060566315
 20
-3.860210073064643
 30
0.0
 10
22.32334501377793
 20
-4.30709907302608
 30
0.0
 10
23.81639655526127
 20
-4.61364382336096
 30
0.0
 10
25.30986848507937
 20
-4.76887519922515
 30
0.0
 10
26.85348770997789
 20
-4.769865072556492
 30
0.0
 10
28.44703565996918
 20
-4.589529664409724
 30
0.0
 10
29.58562333641462
 20
-4.35263493815674
 30
0.0
 10
30.17646439655326
 20
-4.178685185912997
 30
0.0
 10
30.21959473124009
 20
-4.165751014978511
 30
0.0
  0
SPLINE
  5
1F9
330
1F
100
AcDbEntity
  8
0
  6
Continuous
 62
     1
370
    15
100
AcDbSpline
210
0.0
220
0.0
230
1.0
 70
     8
 71
     3
 72
    36
 73
    32
 74
     0
 42
0.000000001
 43
0.00000001
 40
0.0
 40
0.0
 40
0.0
 40
0.0
 40
0.0625
 40
0.0625
 40
0.125
 40
0.125
 40
0.1875
 40
0.1875
 40
0.25
 40
0.25
 40
0.3125
 40
0.3125
 40
0.375
 40
0.375
 40
0.4375
 40
0.4375
 40
0.5
 40
0.5
 40
0.5625
 40
0.5625
 40
0.625
 40
0.625
 40
0.6875
 40
0.6875
 40
0.75
 40
0.75
 40
0.8125
 40
0.8125
 40
0.875
 40
0.875
 40
0.9232464229860721
 40
0.9232464229860721
 40
0.9232464229860721
 40
0.9232464229860721
 10
34.63799999999998
 20
-4.762500000000005
 30
0.0
 10
32.91550711511059
 20
-4.750592330745306
 30
0.0
 10
32.28584057964554
 20
-4.638823856439814
 30
0.0
 10
31.74814401083027
 20
-4.524795155673011
 30
0.0
 10
31.35964074954303
 20
-4.448870944808043
 30
0.0
 10
30.5797899685596
 20
-4.267651161817355
 30
0.0
 10
30.1933416745045
 20
-4.162780804056212
 30
0.0
 10
29.41500054022661
 20
-3.92555673148518
 30
0.0
 10
29.02364114184574
 20
-3.793166617099111
 30
0.0
 10
28.24823134652642
 20
-3.504881256795983
 30
0.0
 10
27.85916068607546
 20
-3.348403040507556
 30
0.0
 10
27.07942349000619
 20
-3.013921136211998
 30
0.0
 10
26.69315356234461
 20
-2.836593223245053
 30
0.0
 10
25.91449173573674
 20
-2.463313588382277
 30
0.0
 10
25.52319866644417
 20
-2.26747797076623
 30
0.0
 10
24.74836835116216
 20
-1.863341205323373
 30
0.0
 10
24.35867076648041
 20
-1.653987633907732
 30
0.0
 10
23.57908203550483
 20
-1.225592436579944
 30
0.0
 10
23.1929305328074
 20
-1.007265362012049
 30
0.0
 10
22.41398273378108
 20
-0.5641198631904913
 30
0.0
 10
22.0227736452068
 20
-0.3395879277959111
 30
0.0
 10
21.24855696104098
 20
0.1086716121730475
 30
0.0
 10
20.85817302011564
 20
0.3338166897327568
 30
0.0
 10
20.0787676122707
 20
0.7801228197415071
 30
0.0
 10
19.69267457547932
 20
1.000731720441784
 30
0.0
 10
18.9134755665397
 20
1.43513971359485
 30
0.0
 10
18.52238469859257
 20
1.648529436474831
 30
0.0
 10
17.74878245570122
 20
2.061401745739779
 30
0.0
 10
17.35766947750293
 20
2.262408011122844
 30
0.0
 10
16.66733186775782
 20
2.603550677112885
 30
0.0
 10
16.36867297650395
 20
2.746953542802181
 30
0.0
 10
16.06882755652783
 20
2.88480962749324
 30
0.0
  0
SPLINE
  5
1FC
330
1F
100
AcDbEntity
  8
0
  6
Continuous
 62
     1
370
    15
100
AcDbSpline
210
0.0
220
0.0
230
1.0
 70
     8
 71
     3
 72
    38
 73
    34
 74
     0
 42
0.000000001
 43
0.00000001
 40
0.0243125811655453
 40
0.0243125811655453
 40
0.0243125811655453
 40
0.0243125811655453
 40
0.0625
 40
0.0625
 40
0.125
 40
0.125
 40
0.1875
 40
0.1875
 40
0.25
 40
0.25
 40
0.3124999999999999
 40
0.3124999999999999
 40
0.3749999999999999
 40
0.3749999999999999
 40
0.4375
 40
0.4375
 40
0.5
 40
0.5
 40
0.5625
 40
0.5625
 40
0.625
 40
0.625
 40
0.6875
 40
0.6875
 40
0.75
 40
0.75
 40
0.8125000000000001
 40
0.8125000000000001
 40
0.8750000000000001
 40
0.8750000000000001
 40
0.9375000000000001
 40
0.9375000000000001
 40
1.0
 40
1.0
 40
1.0
 40
1.0
 10
35.39507965417429
 20
-4.086954596380679
 30
0.0
 10
34.32600974051002
 20
-4.016450756392641
 30
0.0
 10
34.08767529046936
 20
-3.940855689331741
 30
0.0
 10
33.46264401083031
 20
-3.729201755197948
 30
0.0
 10
33.07414074954307
 20
-3.584894549265819
 30
0.0
 10
32.29428996855962
 20
-3.272963282745337
 30
0.0
 10
31.90784167450455
 20
-3.106030108012412
 30
0.0
 10
31.12950054022659
 20
-2.751834952684398
 30
0.0
 10
30.73814114184575
 20
-2.564589808201191
 30
0.0
 10
29.9627313465264
 20
-2.175463992330258
 30
0.0
 10
29.57366068607548
 20
-1.972770791377208
 30
0.0
 10
28.79392349000623
 20
-1.555285674923518
 30
0.0
 10
28.40765356234463
 20
-1.341306932382963
 30
0.0
 10
27.62899173573678
 20
-0.9047284760576062
 30
0.0
 10
27.23769866644415
 20
-0.6823115140792382
 30
0.0
 10
26.46286835116215
 20
-0.2358907614878092
 30
0.0
 10
26.07317076648039
 20
-0.0107117666819363
 30
0.0
 10
25.29358203550482
 20
0.4382603507834233
 30
0.0
 10
24.90743053280742
 20
0.6613345546181861
 30
0.0
 10
24.12848273378109
 20
1.10286246186228
 30
0.0
 10
23.73727364520676
 20
1.320990209360723
 30
0.0
 10
22.96305696104091
 20
1.745508884636095
 30
0.0
 10
22.57267302011562
 20
1.953248084422455
 30
0.0
 10
21.79326761227066
 20
2.354063806072439
 30
0.0
 10
21.40717457547925
 20
2.546679249181494
 30
0.0
 10
20.62797556653965
 20
2.91482520816767
 30
0.0
 10
20.23688469859261
 20
3.089967157015984
 30
0.0
 10
19.46328245570118
 20
3.417318601796083
 30
0.0
 10
19.07216947750289
 20
3.570735997480298
 30
0.0
 10
18.29298222349119
 20
3.852307950610744
 30
0.0
 10
17.90688768484396
 20
3.980312091324819
 30
0.0
 10
17.12747226592777
 20
4.209748463300855
 30
0.0
 10
16.73712411527072
 20
4.310801059780658
 30
0.0
 10
16.34999999999994
 20
4.396942205710715
 30
0.0
  0
ARC
  5
23F
330
1F
100
AcDbEntity
  8
0
  6
Continuous
 62
     1
370
    15
100
AcDbCircle
 10
34.63799999999998
 20
4.000500000000003
 30
0.0
 40
0.7619999999999998
100
AcDbArc
 50
0.0
 51
92.37569019429063
  0
ARC
  5
240
102
{ACAD_REACTORS
102
}
330
1F
100
AcDbEntity
  8
0
  6
Continuous
 62
     1
370
    15
100
AcDbCircle
 10
34.63799999999998
 20
-4.000500000000005
 30
0.0
 40
0.7619999999999998
100
AcDbArc
 50
267.6243098057094
 51
0.0
  0
DIMENSION
  5
241
102
{ACAD_REACTORS
102
}
102
{ACAD_XDICTIONARY
360
242
102
}
330
1F
100
AcDbEntity
  8
0
  6
Continuous
370
    15
100
AcDbDimension
  2
*D18
 10
34.63799999999998
 20
-4.000500000000005
 30
0.0
 11
47.6306591842667
 21
-26.47491717562416
 31
0.0
 70
   164
  1
<>
 71
     5
 42
0.7620000000000007
  3
SLDDIMSTYLE1
100
AcDbRadialDimension
 15
35.01937525586382
 25
-4.660194561304548
 35
0.0
 40
0.0
1001
ACAD
1000
DSTYLE
1002
{
1070
   285
1070
     4
1070
    78
1070
     0
1070
   171
1070
     2
1070
   273
1070
     2
1002
}
1001
ACAD_DSTYLE_DIMRADIAL_EXTENSION
1070
   387
1070
     1
1070
   388
1040
4.670925364486974
1070
   390
1040
0.0
  0
ENDSEC
  0
SECTION
  2
OBJECTS
  0
DICTIONARY
  5
C
330
0
100
AcDbDictionary
281
     1
  3
ACAD_GROUP
350
D
  3
ACAD_IMAGE_VARS
350
13B
  3
ACAD_LAYOUT
350
1A
  3
ACAD_MLINESTYLE
350
17
  3
ACAD_PLOTSETTINGS
350
19
  3
ACAD_PLOTSTYLENAME
350
E
  3
ACAD_SCALELIST
350
47
  3
APPDATA
350
139
  3
DWGPROPS
350
251
  0
DICTIONARY
  5
1D2
330
2
100
AcDbDictionary
280
     1
281
     1
  3
ACAD_LAYERSTATES
360
1D3
  0
DICTIONARY
  5
242
330
241
100
AcDbDictionary
280
     1
281
     1
  0
DICTIONARY
  5
D
102
{ACAD_REACTORS
330
C
102
}
330
C
100
AcDbDictionary
281
     1
  0
RASTERVARIABLES
  5
13B
102
{ACAD_REACTORS
330
C
102
}
330
C
100
AcDbRasterVariables
 90
        0
 70
     1
 71
     1
 72
     1
  0
DICTIONARY
  5
1A
102
{ACAD_REACTORS
330
C
102
}
330
C
100
AcDbDictionary
281
     1
  3
Layout1
350
1E
  3
Layout2
350
26
  3
Model
350
22
  0
DICTIONARY
  5
17
102
{ACAD_REACTORS
330
C
102
}
330
C
100
AcDbDictionary
281
     1
  3
Standard
350
18
  0
DICTIONARY
  5
19
102
{ACAD_REACTORS
330
C
102
}
330
C
100
AcDbDictionary
281
     1
  0
ACDBDICTIONARYWDFLT
  5
E
102
{ACAD_REACTORS
330
C
102
}
330
C
100
AcDbDictionary
281
     1
  3
Normal
350
F
100
AcDbDictionaryWithDefault
340
F
  0
DICTIONARY
  5
47
102
{ACAD_REACTORS
330
C
102
}
330
C
100
AcDbDictionary
281
     1
  3
A0
350
48
  3
A1
350
49
  3
A2
350
4A
  3
A3
350
4B
  3
A4
350
4C
  3
A5
350
4D
  3
A6
350
4E
  3
A7
350
4F
  3
A8
350
50
  3
A9
350
51
  3
B0
350
52
  3
B1
350
53
  3
B2
350
54
  3
B3
350
55
  3
B4
350
56
  3
B5
350
57
  3
B6
350
58
  3
B7
350
59
  3
B8
350
5A
  3
B9
350
5B
  3
C0
350
5C
  3
C1
350
5D
  3
C2
350
5E
  3
C3
350
5F
  3
C4
350
60
  3
C5
350
61
  3
C6
350
62
  3
C7
350
63
  3
C8
350
64
  3
C9
350
65
  3
D0
350
66
  3
D1
350
67
  3
D2
350
68
  0
DICTIONARY
  5
139
102
{ACAD_REACTORS
330
C
102
}
330
C
100
AcDbDictionary
281
     1
  0
XRECORD
  5
251
102
{ACAD_REACTORS
330
C
102
}
330
C
100
AcDbXrecord
280
     1
  1
DWGPROPS COOKIE
  2

  3

  4

  6

  7

  8
12016016
  9

300
=
301
=
302
=
303
=
304
=
305
=
306
=
307
=
308
=
309
=
 40
0.0
 41
2458296.328769583
 42
2458304.076270347
  1

 90
        0
  0
DICTIONARY
  5
1D3
102
{ACAD_REACTORS
330
1D2
102
}
330
1D2
100
AcDbDictionary
281
     1
  0
LAYOUT
  5
1E
102
{ACAD_REACTORS
330
1A
102
}
330
1A
100
AcDbPlotSettings
  1

  2
none_device
  4

  6

 40
0.0
 41
0.0
 42
0.0
 43
0.0
 44
0.0
 45
0.0
 46
0.0
 47
0.0
 48
0.0
 49
0.0
140
0.0
141
0.0
142
1.0
143
1.0
 70
   688
 72
     1
 73
     0
 74
     5
  7

 75
    16
147
1.0
148
0.0
149
0.0
100
AcDbLayout
  1
Layout1
 70
     1
 71
     1
 10
0.0
 20
0.0
 11
420.0
 21
297.0
 12
0.0
 22
0.0
 32
0.0
 14
1.000000000000000E+20
 24
1.000000000000000E+20
 34
1.000000000000000E+20
 15
-1.000000000000000E+20
 25
-1.000000000000000E+20
 35
-1.000000000000000E+20
146
0.0
 13
0.0
 23
0.0
 33
0.0
 16
1.0
 26
0.0
 36
0.0
 17
0.0
 27
1.0
 37
0.0
 76
     0
330
1B
  0
LAYOUT
  5
26
102
{ACAD_REACTORS
330
1A
102
}
330
1A
100
AcDbPlotSettings
  1

  2
none_device
  4

  6

 40
0.0
 41
0.0
 42
0.0
 43
0.0
 44
0.0
 45
0.0
 46
0.0
 47
0.0
 48
0.0
 49
0.0
140
0.0
141
0.0
142
1.0
143
1.0
 70
   688
 72
     1
 73
     0
 74
     5
  7

 75
    16
147
1.0
148
0.0
149
0.0
100
AcDbLayout
  1
Layout2
 70
     1
 71
     2
 10
0.0
 20
0.0
 11
0.0
 21
0.0
 12
0.0
 22
0.0
 32
0.0
 14
0.0
 24
0.0
 34
0.0
 15
0.0
 25
0.0
 35
0.0
146
0.0
 13
0.0
 23
0.0
 33
0.0
 16
1.0
 26
0.0
 36
0.0
 17
0.0
 27
1.0
 37
0.0
 76
     0
330
23
  0
LAYOUT
  5
22
102
{ACAD_REACTORS
330
1A
102
}
330
1A
100
AcDbPlotSettings
  1

  2
none_device
  4
ANSI_A_(11.00_x_8.50_Inches)
  6

 40
6.35
 41
19.05
 42
6.35000508
 43
19.05000254
 44
279.4
 45
215.9
 46
124.9182692373073
 47
99.1022497131293
 48
0.0
 49
0.0
140
0.0
141
0.0
142
0.072109681528248
143
1.0
 70
  1696
 72
     0
 73
     0
 74
     0
  7

 75
     0
147
0.0235690232323232
148
0.0
149
0.0
100
AcDbLayout
  1
Model
 70
     1
 71
     0
 10
0.0
 20
0.0
 11
420.0
 21
297.0
 12
0.0
 22
0.0
 32
0.0
 14
1.000000000000000E+20
 24
1.000000000000000E+20
 34
1.000000000000000E+20
 15
-1.000000000000000E+20
 25
-1.000000000000000E+20
 35
-1.000000000000000E+20
146
0.0
 13
0.0
 23
0.0
 33
0.0
 16
1.0
 26
0.0
 36
0.0
 17
0.0
 27
1.0
 37
0.0
 76
     0
330
1F
331
29
  0
MLINESTYLE
  5
18
102
{ACAD_REACTORS
330
17
102
}
330
17
100
AcDbMlineStyle
  2
Standard
 70
     0
  3

 62
   256
 51
90.0
 52
90.0
 71
     2
 49
0.5
 62
   256
  6
BYLAYER
 49
-0.5
 62
   256
  6
BYLAYER
  0
ACDBPLACEHOLDER
  5
F
102
{ACAD_REACTORS
330
E
102
}
330
E
  0
SCALE
  5
48
102
{ACAD_REACTORS
330
47
102
}
330
47
100
AcDbScale
 70
     0
300
1:1
140
1.0
141
1.0
290
     1
  0
SCALE
  5
49
102
{ACAD_REACTORS
330
47
102
}
330
47
100
AcDbScale
 70
     0
300
1:2
140
1.0
141
2.0
290
     0
  0
SCALE
  5
4A
102
{ACAD_REACTORS
330
47
102
}
330
47
100
AcDbScale
 70
     0
300
1:4
140
1.0
141
4.0
290
     0
  0
SCALE
  5
4B
102
{ACAD_REACTORS
330
47
102
}
330
47
100
AcDbScale
 70
     0
300
1:5
140
1.0
141
5.0
290
     0
  0
SCALE
  5
4C
102
{ACAD_REACTORS
330
47
102
}
330
47
100
AcDbScale
 70
     0
300
1:8
140
1.0
141
8.0
290
     0
  0
SCALE
  5
4D
102
{ACAD_REACTORS
330
47
102
}
330
47
100
AcDbScale
 70
     0
300
1:10
140
1.0
141
10.0
290
     0
  0
SCALE
  5
4E
102
{ACAD_REACTORS
330
47
102
}
330
47
100
AcDbScale
 70
     0
300
1:16
140
1.0
141
16.0
290
     0
  0
SCALE
  5
4F
102
{ACAD_REACTORS
330
47
102
}
330
47
100
AcDbScale
 70
     0
300
1:20
140
1.0
141
20.0
290
     0
  0
SCALE
  5
50
102
{ACAD_REACTORS
330
47
102
}
330
47
100
AcDbScale
 70
     0
300
1:30
140
1.0
141
30.0
290
     0
  0
SCALE
  5
51
102
{ACAD_REACTORS
330
47
102
}
330
47
100
AcDbScale
 70
     0
300
1:40
140
1.0
141
40.0
290
     0
  0
SCALE
  5
52
102
{ACAD_REACTORS
330
47
102
}
330
47
100
AcDbScale
 70
     0
300
1:50
140
1.0
141
50.0
290
     0
  0
SCALE
  5
53
102
{ACAD_REACTORS
330
47
102
}
330
47
100
AcDbScale
 70
     0
300
1:100
140
1.0
141
100.0
290
     0
  0
SCALE
  5
54
102
{ACAD_REACTORS
330
47
102
}
330
47
100
AcDbScale
 70
     0
300
2:1
140
2.0
141
1.0
290
     0
  0
SCALE
  5
55
102
{ACAD_REACTORS
330
47
102
}
330
47
100
AcDbScale
 70
     0
300
4:1
140
4.0
141
1.0
290
     0
  0
SCALE
  5
56
102
{ACAD_REACTORS
330
47
102
}
330
47
100
AcDbScale
 70
     0
300
8:1
140
8.0
141
1.0
290
     0
  0
SCALE
  5
57
102
{ACAD_REACTORS
330
47
102
}
330
47
100
AcDbScale
 70
     0
300
10:1
140
10.0
141
1.0
290
     0
  0
SCALE
  5
58
102
{ACAD_REACTORS
330
47
102
}
330
47
100
AcDbScale
 70
     0
300
100:1
140
100.0
141
1.0
290
     0
  0
SCALE
  5
59
102
{ACAD_REACTORS
330
47
102
}
330
47
100
AcDbScale
 70
     0
300
1/128" = 1'-0"
140
0.0078125
141
12.0
290
     0
  0
SCALE
  5
5A
102
{ACAD_REACTORS
330
47
102
}
330
47
100
AcDbScale
 70
     0
300
1/64" = 1'-0"
140
0.015625
141
12.0
290
     0
  0
SCALE
  5
5B
102
{ACAD_REACTORS
330
47
102
}
330
47
100
AcDbScale
 70
     0
300
1/32" = 1'-0"
140
0.03125
141
12.0
290
     0
  0
SCALE
  5
5C
102
{ACAD_REACTORS
330
47
102
}
330
47
100
AcDbScale
 70
     0
300
1/16" = 1'-0"
140
0.0625
141
12.0
290
     0
  0
SCALE
  5
5D
102
{ACAD_REACTORS
330
47
102
}
330
47
100
AcDbScale
 70
     0
300
3/32" = 1'-0"
140
0.09375
141
12.0
290
     0
  0
SCALE
  5
5E
102
{ACAD_REACTORS
330
47
102
}
330
47
100
AcDbScale
 70
     0
300
1/8" = 1'-0"
140
0.125
141
12.0
290
     0
  0
SCALE
  5
5F
102
{ACAD_REACTORS
330
47
102
}
330
47
100
AcDbScale
 70
     0
300
3/16" = 1'-0"
140
0.1875
141
12.0
290
     0
  0
SCALE
  5
60
102
{ACAD_REACTORS
330
47
102
}
330
47
100
AcDbScale
 70
     0
300
1/4" = 1'-0"
140
0.25
141
12.0
290
     0
  0
SCALE
  5
61
102
{ACAD_REACTORS
330
47
102
}
330
47
100
AcDbScale
 70
     0
300
3/8" = 1'-0"
140
0.375
141
12.0
290
     0
  0
SCALE
  5
62
102
{ACAD_REACTORS
330
47
102
}
330
47
100
AcDbScale
 70
     0
300
1/2" = 1'-0"
140
0.5
141
12.0
290
     0
  0
SCALE
  5
63
102
{ACAD_REACTORS
330
47
102
}
330
47
100
AcDbScale
 70
     0
300
3/4" = 1'-0"
140
0.75
141
12.0
290
     0
  0
SCALE
  5
64
102
{ACAD_REACTORS
330
47
102
}
330
47
100
AcDbScale
 70
     0
300
1" = 1'-0"
140
1.0
141
12.0
290
     0
  0
SCALE
  5
65
102
{ACAD_REACTORS
330
47
102
}
330
47
100
AcDbScale
 70
     0
300
1-1/2" = 1'-0"
140
1.5
141
12.0
290
     0
  0
SCALE
  5
66
102
{ACAD_REACTORS
330
47
102
}
330
47
100
AcDbScale
 70
     0
300
3" = 1'-0"
140
3.0
141
12.0
290
     0
  0
SCALE
  5
67
102
{ACAD_REACTORS
330
47
102
}
330
47
100
AcDbScale
 70
     0
300
6" = 1'-0"
140
6.0
141
12.0
290
     0
  0
SCALE
  5
68
102
{ACAD_REACTORS
330
47
102
}
330
47
100
AcDbScale
 70
     0
300
1'-0" = 1'-0"
140
12.0
141
12.0
290
     0
  0
ENDSEC
  0
EOF
