  0
SECTION
  2
HEADER
  9
$ACADVER
  1
AC1015
  9
$ACADMAINTVER
 70
     6
  9
$DWGCODEPAGE
  3
ANSI_949
  9
$INSBASE
 10
0.0
 20
0.0
 30
0.0
  9
$EXTMIN
 10
1.000000000000000E+20
 20
1.000000000000000E+20
 30
1.000000000000000E+20
  9
$EXTMAX
 10
-1.000000000000000E+20
 20
-1.000000000000000E+20
 30
-1.000000000000000E+20
  9
$LIMMIN
 10
0.0
 20
0.0
  9
$LIMMAX
 10
420.0
 20
297.0
  9
$ORTHOMODE
 70
     1
  9
$REGENMODE
 70
     1
  9
$FILLMODE
 70
     1
  9
$QTEXTMODE
 70
     0
  9
$MIRRTEXT
 70
     1
  9
$LTSCALE
 40
1.0
  9
$ATTMODE
 70
     1
  9
$TEXTSIZE
 40
3.5
  9
$TRACEWID
 40
1.0
  9
$TEXTSTYLE
  7
Standard
  9
$CLAYER
  8
0
  9
$CELTYPE
  6
ByLayer
  9
$CECOLOR
 62
   256
  9
$CELTSCALE
 40
1.0
  9
$DISPSILH
 70
     0
  9
$DIMSCALE
 40
1.0
  9
$DIMASZ
 40
3.302
  9
$DIMEXO
 40
1.0
  9
$DIMDLI
 40
3.75
  9
$DIMRND
 40
0.0
  9
$DIMDLE
 40
0.0
  9
$DIMEXE
 40
1.0
  9
$DIMTP
 40
0.0
  9
$DIMTM
 40
0.0
  9
$DIMTXT
 40
3.5
  9
$DIMCEN
 40
2.5
  9
$DIMTSZ
 40
0.0
  9
$DIMTOL
 70
     0
  9
$DIMLIM
 70
     0
  9
$DIMTIH
 70
     1
  9
$DIMTOH
 70
     1
  9
$DIMSE1
 70
     0
  9
$DIMSE2
 70
     0
  9
$DIMTAD
 70
     1
  9
$DIMZIN
 70
     0
  9
$DIMBLK
  1

  9
$DIMASO
 70
     1
  9
$DIMSHO
 70
     1
  9
$DIMPOST
  1

  9
$DIMAPOST
  1

  9
$DIMALT
 70
     0
  9
$DIMALTD
 70
     3
  9
$DIMALTF
 40
0.0393700787401575
  9
$DIMLFAC
 40
1.0
  9
$DIMTOFL
 70
     1
  9
$DIMTVP
 40
0.0
  9
$DIMTIX
 70
     0
  9
$DIMSOXD
 70
     0
  9
$DIMSAH
 70
     0
  9
$DIMBLK1
  1

  9
$DIMBLK2
  1

  9
$DIMSTYLE
  2
ISO-25
  9
$DIMCLRD
 70
     0
  9
$DIMCLRE
 70
     0
  9
$DIMCLRT
 70
     0
  9
$DIMTFAC
 40
1.0
  9
$DIMGAP
 40
1.524
  9
$DIMJUST
 70
     0
  9
$DIMSD1
 70
     0
  9
$DIMSD2
 70
     0
  9
$DIMTOLJ
 70
     0
  9
$DIMTZIN
 70
     0
  9
$DIMALTZ
 70
     0
  9
$DIMALTTZ
 70
     0
  9
$DIMUPT
 70
     0
  9
$DIMDEC
 70
     2
  9
$DIMTDEC
 70
     2
  9
$DIMALTU
 70
     2
  9
$DIMALTTD
 70
     3
  9
$DIMTXSTY
  7
Standard
  9
$DIMAUNIT
 70
     0
  9
$DIMADEC
 70
     2
  9
$DIMALTRND
 40
0.0
  9
$DIMAZIN
 70
     0
  9
$DIMDSEP
 70
    44
  9
$DIMATFIT
 70
     3
  9
$DIMFRAC
 70
     0
  9
$DIMLDRBLK
  1

  9
$DIMLUNIT
 70
     2
  9
$DIMLWD
 70
    -2
  9
$DIMLWE
 70
    -2
  9
$DIMTMOVE
 70
     0
  9
$LUNITS
 70
     2
  9
$LUPREC
 70
     2
  9
$SKETCHINC
 40
1.0
  9
$FILLETRAD
 40
10.0
  9
$AUNITS
 70
     0
  9
$AUPREC
 70
     2
  9
$MENU
  1
.
  9
$ELEVATION
 40
0.0
  9
$PELEVATION
 40
0.0
  9
$THICKNESS
 40
0.0
  9
$LIMCHECK
 70
     0
  9
$CHAMFERA
 40
0.0
  9
$CHAMFERB
 40
0.0
  9
$CHAMFERC
 40
0.0
  9
$CHAMFERD
 40
0.0
  9
$SKPOLY
 70
     0
  9
$TDCREATE
 40
2458296.704631921
  9
$TDUCREATE
 40
2458296.329631921
  9
$TDUPDATE
 40
2458304.44819713
  9
$TDUUPDATE
 40
2458304.07319713
  9
$TDINDWG
 40
0.0127589931
  9
$TDUSRTIMER
 40
2458304.072208218
  9
$USRTIMER
 70
     1
  9
$ANGBASE
 50
0.0
  9
$ANGDIR
 70
     0
  9
$PDMODE
 70
     0
  9
$PDSIZE
 40
-1.0
  9
$PLINEWID
 40
0.0
  9
$SPLFRAME
 70
     0
  9
$SPLINETYPE
 70
     6
  9
$SPLINESEGS
 70
     8
  9
$HANDSEED
  5
275
  9
$SURFTAB1
 70
     6
  9
$SURFTAB2
 70
     6
  9
$SURFTYPE
 70
     6
  9
$SURFU
 70
     6
  9
$SURFV
 70
     6
  9
$UCSBASE
  2

  9
$UCSNAME
  2

  9
$UCSORG
 10
0.0
 20
0.0
 30
0.0
  9
$UCSXDIR
 10
1.0
 20
0.0
 30
0.0
  9
$UCSYDIR
 10
0.0
 20
1.0
 30
0.0
  9
$UCSORTHOREF
  2

  9
$UCSORTHOVIEW
 70
     0
  9
$UCSORGTOP
 10
0.0
 20
0.0
 30
0.0
  9
$UCSORGBOTTOM
 10
0.0
 20
0.0
 30
0.0
  9
$UCSORGLEFT
 10
0.0
 20
0.0
 30
0.0
  9
$UCSORGRIGHT
 10
0.0
 20
0.0
 30
0.0
  9
$UCSORGFRONT
 10
0.0
 20
0.0
 30
0.0
  9
$UCSORGBACK
 10
0.0
 20
0.0
 30
0.0
  9
$PUCSBASE
  2

  9
$PUCSNAME
  2

  9
$PUCSORG
 10
0.0
 20
0.0
 30
0.0
  9
$PUCSXDIR
 10
1.0
 20
0.0
 30
0.0
  9
$PUCSYDIR
 10
0.0
 20
1.0
 30
0.0
  9
$PUCSORTHOREF
  2

  9
$PUCSORTHOVIEW
 70
     0
  9
$PUCSORGTOP
 10
0.0
 20
0.0
 30
0.0
  9
$PUCSORGBOTTOM
 10
0.0
 20
0.0
 30
0.0
  9
$PUCSORGLEFT
 10
0.0
 20
0.0
 30
0.0
  9
$PUCSORGRIGHT
 10
0.0
 20
0.0
 30
0.0
  9
$PUCSORGFRONT
 10
0.0
 20
0.0
 30
0.0
  9
$PUCSORGBACK
 10
0.0
 20
0.0
 30
0.0
  9
$USERI1
 70
     0
  9
$USERI2
 70
     0
  9
$USERI3
 70
     0
  9
$USERI4
 70
     0
  9
$USERI5
 70
     0
  9
$USERR1
 40
0.0
  9
$USERR2
 40
0.0
  9
$USERR3
 40
0.0
  9
$USERR4
 40
0.0
  9
$USERR5
 40
0.0
  9
$WORLDVIEW
 70
     1
  9
$SHADEDGE
 70
     3
  9
$SHADEDIF
 70
    70
  9
$TILEMODE
 70
     1
  9
$MAXACTVP
 70
    64
  9
$PINSBASE
 10
0.0
 20
0.0
 30
0.0
  9
$PLIMCHECK
 70
     0
  9
$PEXTMIN
 10
1.000000000000000E+20
 20
1.000000000000000E+20
 30
1.000000000000000E+20
  9
$PEXTMAX
 10
-1.000000000000000E+20
 20
-1.000000000000000E+20
 30
-1.000000000000000E+20
  9
$PLIMMIN
 10
0.0
 20
0.0
  9
$PLIMMAX
 10
0.0
 20
0.0
  9
$UNITMODE
 70
     0
  9
$VISRETAIN
 70
     1
  9
$PLINEGEN
 70
     0
  9
$PSLTSCALE
 70
     1
  9
$TREEDEPTH
 70
  3020
  9
$CMLSTYLE
  2
Standard
  9
$CMLJUST
 70
     0
  9
$CMLSCALE
 40
20.0
  9
$PROXYGRAPHICS
 70
     1
  9
$MEASUREMENT
 70
     1
  9
$CELWEIGHT
370
    -1
  9
$ENDCAPS
280
     0
  9
$JOINSTYLE
280
     0
  9
$LWDISPLAY
290
     1
  9
$INSUNITS
 70
     4
  9
$HYPERLINKBASE
  1

  9
$STYLESHEET
  1

  9
$XEDIT
290
     1
  9
$CEPSNTYPE
380
     0
  9
$PSTYLEMODE
290
     1
  9
$FINGERPRINTGUID
  2
{12E1A59D-5A38-43A7-8B4D-A8571E275B2D}
  9
$VERSIONGUID
  2
{FAEB1C32-E019-11D5-929B-00C0DF256EC4}
  9
$EXTNAMES
290
     1
  9
$PSVPSCALE
 40
0.0
  9
$OLESTARTUP
290
     0
  0
ENDSEC
  0
SECTION
  2
CLASSES
  0
CLASS
  1
ACDBDICTIONARYWDFLT
  2
AcDbDictionaryWithDefault
  3
ObjectDBX Classes
 90
        0
280
     0
281
     0
  0
CLASS
  1
VISUALSTYLE
  2
AcDbVisualStyle
  3
ObjectDBX Classes
 90
     4095
280
     0
281
     0
  0
CLASS
  1
MATERIAL
  2
AcDbMaterial
  3
ObjectDBX Classes
 90
     1153
280
     0
281
     0
  0
CLASS
  1
SCALE
  2
AcDbScale
  3
ObjectDBX Classes
 90
     1153
280
     0
281
     0
  0
CLASS
  1
SUN
  2
AcDbSun
  3
SCENEOE
 90
     1153
280
     0
281
     0
  0
CLASS
  1
ACDBPLACEHOLDER
  2
AcDbPlaceHolder
  3
ObjectDBX Classes
 90
        0
280
     0
281
     0
  0
CLASS
  1
LAYOUT
  2
AcDbLayout
  3
ObjectDBX Classes
 90
        0
280
     0
281
     0
  0
CLASS
  1
TABLESTYLE
  2
AcDbTableStyle
  3
ObjectDBX Classes
 90
     4095
280
     0
281
     0
  0
CLASS
  1
MLEADERSTYLE
  2
AcDbMLeaderStyle
  3
ACDB_MLEADERSTYLE_CLASS
 90
     4095
280
     0
281
     0
  0
CLASS
  1
RASTERVARIABLES
  2
AcDbRasterVariables
  3
ISM
 90
        0
280
     0
281
     0
  0
CLASS
  1
DIMASSOC
  2
AcDbDimAssoc
  3
"AcDbDimAssoc|Product Desc:     AcDim ARX App For Dimension|Company:          Autodesk, Inc.|WEB Address:      www.autodesk.com"
 90
        0
280
     0
281
     0
  0
ENDSEC
  0
SECTION
  2
TABLES
  0
TABLE
  2
VPORT
  5
8
330
0
100
AcDbSymbolTable
 70
     1
  0
VPORT
  5
29
330
8
100
AcDbSymbolTableRecord
100
AcDbViewportTableRecord
  2
*Active
 70
     0
 10
0.0
 20
0.0
 11
1.0
 21
1.0
 12
24.12639302805532
 22
9.393603562331585
 13
0.0
 23
0.0
 14
10.0
 24
10.0
 15
10.0
 25
10.0
 16
0.0
 26
0.0
 36
1.0
 17
0.0
 27
0.0
 37
0.0
 40
151.1967967625297
 41
1.591876208897486
 42
50.0
 43
0.0
 44
0.0
 50
0.0
 51
0.0
 71
    16
 72
  2000
 73
     1
 74
     3
 75
     0
 76
     0
 77
     0
 78
     0
281
     0
 65
     1
110
0.0
120
0.0
130
0.0
111
1.0
121
0.0
131
0.0
112
0.0
122
1.0
132
0.0
 79
     0
146
0.0
  0
ENDTAB
  0
TABLE
  2
LTYPE
  5
5
330
0
100
AcDbSymbolTable
 70
     6
  0
LTYPE
  5
14
330
5
100
AcDbSymbolTableRecord
100
AcDbLinetypeTableRecord
  2
ByBlock
 70
     0
  3

 72
    65
 73
     0
 40
0.0
  0
LTYPE
  5
15
330
5
100
AcDbSymbolTableRecord
100
AcDbLinetypeTableRecord
  2
ByLayer
 70
     0
  3

 72
    65
 73
     0
 40
0.0
  0
LTYPE
  5
16
330
5
100
AcDbSymbolTableRecord
100
AcDbLinetypeTableRecord
  2
Continuous
 70
     0
  3
Solid line
 72
    65
 73
     0
 40
0.0
  0
LTYPE
  5
6A
330
5
100
AcDbSymbolTableRecord
100
AcDbLinetypeTableRecord
  2
HIDDEN
 70
     0
  3
Hidden __ __ __ __ __ __ __ __ __ __ __ __ __ __
 72
    65
 73
     2
 40
1.905
 49
1.27
 74
     0
 49
-0.635
 74
     0
  0
LTYPE
  5
6B
330
5
100
AcDbSymbolTableRecord
100
AcDbLinetypeTableRecord
  2
PHANTOM
 70
     0
  3
Phantom ______  __  __  ______  __  __  ______
 72
    65
 73
     6
 40
12.7
 49
6.35
 74
     0
 49
-1.27
 74
     0
 49
1.27
 74
     0
 49
-1.27
 74
     0
 49
1.27
 74
     0
 49
-1.27
 74
     0
  0
LTYPE
  5
6C
330
5
100
AcDbSymbolTableRecord
100
AcDbLinetypeTableRecord
  2
CENTER
 70
     0
  3
Center ____ _ ____ _ ____ _ ____ _ ____ _ ____
 72
    65
 73
     4
 40
10.16
 49
6.35
 74
     0
 49
-1.27
 74
     0
 49
1.27
 74
     0
 49
-1.27
 74
     0
  0
LTYPE
  5
6D
330
5
100
AcDbSymbolTableRecord
100
AcDbLinetypeTableRecord
  2
CENTERX2
 70
     0
  3
Center (2x) ________  __  ________  __  _____
 72
    65
 73
     4
 40
20.32
 49
12.7
 74
     0
 49
-2.54
 74
     0
 49
2.54
 74
     0
 49
-2.54
 74
     0
  0
LTYPE
  5
6E
330
5
100
AcDbSymbolTableRecord
100
AcDbLinetypeTableRecord
  2
DOT2
 70
     0
  3
Dot (.5x) ........................................
 72
    65
 73
     2
 40
0.635
 49
0.0
 74
     0
 49
-0.635
 74
     0
  0
ENDTAB
  0
TABLE
  2
LAYER
  5
2
102
{ACAD_XDICTIONARY
360
1D4
102
}
330
0
100
AcDbSymbolTable
 70
    18
  0
LAYER
  5
10
330
2
100
AcDbSymbolTableRecord
100
AcDbLayerTableRecord
  2
0
 70
     0
 62
     7
  6
Continuous
370
    -3
390
F
  0
LAYER
  5
6F
330
2
100
AcDbSymbolTableRecord
100
AcDbLayerTableRecord
  2
FORMAT
 70
     0
 62
     2
  6
Continuous
370
    -3
390
F
  0
LAYER
  5
70
330
2
100
AcDbSymbolTableRecord
100
AcDbLayerTableRecord
  2
외형선
 70
     0
 62
     4
  6
Continuous
370
    30
390
F
  0
LAYER
  5
71
330
2
100
AcDbSymbolTableRecord
100
AcDbLayerTableRecord
  2
숨은선
 70
     0
 62
     2
  6
HIDDEN
370
    15
390
F
  0
LAYER
  5
72
330
2
100
AcDbSymbolTableRecord
100
AcDbLayerTableRecord
  2
중심선
 70
     0
 62
     1
  6
CENTERX2
370
    -3
390
F
  0
LAYER
  5
73
330
2
100
AcDbSymbolTableRecord
100
AcDbLayerTableRecord
  2
파단선
 70
     0
 62
     4
  6
Continuous
370
    -3
390
F
  0
LAYER
  5
74
330
2
100
AcDbSymbolTableRecord
100
AcDbLayerTableRecord
  2
해칭선
 70
     0
 62
   100
  6
Continuous
370
    -3
390
F
  0
LAYER
  5
75
330
2
100
AcDbSymbolTableRecord
100
AcDbLayerTableRecord
  2
가는실선
 70
     0
 62
     4
  6
Continuous
370
    -3
390
F
  0
LAYER
  5
76
330
2
100
AcDbSymbolTableRecord
100
AcDbLayerTableRecord
  2
치수_보조선
 70
     0
 62
     4
  6
Continuous
370
    -3
390
F
  0
LAYER
  5
77
330
2
100
AcDbSymbolTableRecord
100
AcDbLayerTableRecord
  2
치수문자_일반주서
 70
     0
 62
     7
  6
Continuous
370
    15
390
F
  0
LAYER
  5
78
330
2
100
AcDbSymbolTableRecord
100
AcDbLayerTableRecord
  2
개별주서
 70
     0
 62
   100
  6
Continuous
370
    30
390
F
  0
LAYER
  5
79
330
2
100
AcDbSymbolTableRecord
100
AcDbLayerTableRecord
  2
중간선
 70
     0
 62
     2
  6
Continuous
370
    15
390
F
  0
LAYER
  5
7A
330
2
100
AcDbSymbolTableRecord
100
AcDbLayerTableRecord
  2
윤곽선
 70
     0
 62
     3
  6
Continuous
370
    40
390
F
  0
LAYER
  5
7B
330
2
100
AcDbSymbolTableRecord
100
AcDbLayerTableRecord
  2
중심마크
 70
     0
 62
   100
  6
Continuous
370
    30
390
F
  0
LAYER
  5
7C
330
2
100
AcDbSymbolTableRecord
100
AcDbLayerTableRecord
  2
가상선
 70
     0
 62
     4
  6
PHANTOM
370
    -3
390
F
  0
LAYER
  5
7D
330
2
100
AcDbSymbolTableRecord
100
AcDbLayerTableRecord
  2
특수지정선
 70
     0
 62
     5
  6
CENTERX2
370
    60
390
F
  0
LAYER
  5
7E
330
2
100
AcDbSymbolTableRecord
100
AcDbLayerTableRecord
  2
참조1
 70
     0
 62
    -4
  6
Continuous
370
    -3
390
F
  0
LAYER
  5
138
330
2
100
AcDbSymbolTableRecord
100
AcDbLayerTableRecord
  2
Defpoints
 70
     0
 62
     7
  6
Continuous
290
     0
370
    -3
390
F
  0
ENDTAB
  0
TABLE
  2
STYLE
  5
3
330
0
100
AcDbSymbolTable
 70
     2
  0
STYLE
  5
11
330
3
100
AcDbSymbolTableRecord
100
AcDbTextStyleTableRecord
  2
Standard
 70
     0
 40
0.0
 41
1.0
 50
0.0
 71
     0
 42
3.5
  3
txt
  4

  0
STYLE
  5
94
330
3
100
AcDbSymbolTableRecord
100
AcDbTextStyleTableRecord
  2
SLDTEXTSTYLE0
 70
     0
 40
0.0
 41
0.75
 50
0.0
 71
     0
 42
3.5
  3
TXT
  4

  0
ENDTAB
  0
TABLE
  2
VIEW
  5
6
330
0
100
AcDbSymbolTable
 70
     0
  0
ENDTAB
  0
TABLE
  2
UCS
  5
7
330
0
100
AcDbSymbolTable
 70
     0
  0
ENDTAB
  0
TABLE
  2
APPID
  5
9
330
0
100
AcDbSymbolTable
 70
     4
  0
APPID
  5
12
330
9
100
AcDbSymbolTableRecord
100
AcDbRegAppTableRecord
  2
ACAD
 70
     0
  0
APPID
  5
144
330
9
100
AcDbSymbolTableRecord
100
AcDbRegAppTableRecord
  2
ACAD_DSTYLE_DIMRADIAL_EXTENSION
 70
     0
  0
APPID
  5
273
330
9
100
AcDbSymbolTableRecord
100
AcDbRegAppTableRecord
  2
ACAD_DSTYLE_DIMFLIPARROW_SYMBOL
 70
     0
  0
APPID
  5
274
330
9
100
AcDbSymbolTableRecord
100
AcDbRegAppTableRecord
  2
ACAD_DSTYLE_DIMFLIPARROW_WHICH_SYMBOL
 70
     0
  0
ENDTAB
  0
TABLE
  2
DIMSTYLE
  5
A
330
0
100
AcDbSymbolTable
 70
     5
100
AcDbDimStyleTable
  0
DIMSTYLE
105
27
330
A
100
AcDbSymbolTableRecord
100
AcDbDimStyleTableRecord
  2
ISO-25
 70
     0
 41
2.5
 42
0.625
 43
3.75
 44
1.25
 73
     0
 74
     0
 77
     1
 78
     8
140
2.5
141
2.5
143
0.03937007874016
147
0.625
171
     3
172
     1
178
     0
271
     2
272
     2
274
     3
278
    44
283
     0
284
     8
340
11
  0
DIMSTYLE
105
BA
330
A
100
AcDbSymbolTableRecord
100
AcDbDimStyleTableRecord
  2
SLDDIMSTYLE0
 70
     0
 41
3.302
 44
0.0
 45
0.000000001
 73
     0
 74
     0
 77
     1
 78
    12
 79
     3
140
3.5
147
0.875
172
     1
173
     1
178
     0
271
     2
272
     2
276
     2
284
    12
289
     0
340
94
  0
DIMSTYLE
105
C8
102
{ACAD_REACTORS
330
18C
330
199
330
1A6
330
1B3
330
202
330
203
330
204
330
205
330
265
102
}
330
A
100
AcDbSymbolTableRecord
100
AcDbDimStyleTableRecord
  2
SLDDIMSTYLE1
 70
     0
 41
3.302
 44
0.0
 45
0.000000001
 73
     0
 74
     0
 77
     1
 78
     4
 79
     1
140
3.5
143
0.0393700787401575
147
0.875
148
0.000000001
170
     1
173
     1
178
     0
271
     2
272
     2
276
     2
284
    12
340
94
  0
DIMSTYLE
105
DC
102
{ACAD_REACTORS
330
1CA
102
}
330
A
100
AcDbSymbolTableRecord
100
AcDbDimStyleTableRecord
  2
SLDDIMSTYLE2
 70
     0
 41
3.302
 44
0.0
 45
0.000000001
 73
     0
 74
     0
 77
     1
 78
     4
 79
     1
140
3.5
143
0.0393700787401575
147
0.875
148
0.000000001
170
     1
172
     1
173
     1
178
     0
271
     2
272
     2
276
     2
284
    12
289
     0
340
94
  0
DIMSTYLE
105
F2
330
A
100
AcDbSymbolTableRecord
100
AcDbDimStyleTableRecord
  2
SLDDIMSTYLE3
 70
     0
 41
3.302
 44
0.0
 45
0.000000001
 73
     0
 74
     0
 77
     1
 78
    12
 79
     3
140
3.5
143
0.0393700787401575
147
0.875
148
0.000000001
170
     1
172
     1
173
     1
178
     0
271
     2
272
     2
276
     2
284
    12
289
     0
340
94
  0
ENDTAB
  0
TABLE
  2
BLOCK_RECORD
  5
1
330
0
100
AcDbSymbolTable
 70
    20
  0
BLOCK_RECORD
  5
1F
330
1
100
AcDbSymbolTableRecord
100
AcDbBlockTableRecord
  2
*Model_Space
340
22
  0
BLOCK_RECORD
  5
1B
330
1
100
AcDbSymbolTableRecord
100
AcDbBlockTableRecord
  2
*Paper_Space
340
1E
  0
BLOCK_RECORD
  5
23
330
1
100
AcDbSymbolTableRecord
100
AcDbBlockTableRecord
  2
*Paper_Space0
340
26
  0
BLOCK_RECORD
  5
7F
330
1
100
AcDbSymbolTableRecord
100
AcDbBlockTableRecord
  2
블럭10
340
0
102
{BLKREFS
331
B2
102
}
  0
BLOCK_RECORD
  5
BB
330
1
100
AcDbSymbolTableRecord
100
AcDbBlockTableRecord
  2
_D
340
0
  0
BLOCK_RECORD
  5
C9
330
1
100
AcDbSymbolTableRecord
100
AcDbBlockTableRecord
  2
_D_1
340
0
  0
BLOCK_RECORD
  5
DD
330
1
100
AcDbSymbolTableRecord
100
AcDbBlockTableRecord
  2
_D_2
340
0
  0
BLOCK_RECORD
  5
F3
330
1
100
AcDbSymbolTableRecord
100
AcDbBlockTableRecord
  2
_D_3
340
0
  0
BLOCK_RECORD
  5
10D
330
1
100
AcDbSymbolTableRecord
100
AcDbBlockTableRecord
  2
SW_DOWELSYMBOL_0
340
0
102
{BLKREFS
331
0
331
1C1
331
206
102
}
  0
BLOCK_RECORD
  5
18D
330
1
100
AcDbSymbolTableRecord
100
AcDbBlockTableRecord
  2
*D8
340
0
  0
BLOCK_RECORD
  5
19A
330
1
100
AcDbSymbolTableRecord
100
AcDbBlockTableRecord
  2
*D9
340
0
  0
BLOCK_RECORD
  5
1A7
330
1
100
AcDbSymbolTableRecord
100
AcDbBlockTableRecord
  2
*D10
340
0
  0
BLOCK_RECORD
  5
1B4
330
1
100
AcDbSymbolTableRecord
100
AcDbBlockTableRecord
  2
*D11
340
0
  0
BLOCK_RECORD
  5
1CB
330
1
100
AcDbSymbolTableRecord
100
AcDbBlockTableRecord
  2
*D12
340
0
  0
BLOCK_RECORD
  5
20A
330
1
100
AcDbSymbolTableRecord
100
AcDbBlockTableRecord
  2
*D13
340
0
  0
BLOCK_RECORD
  5
216
330
1
100
AcDbSymbolTableRecord
100
AcDbBlockTableRecord
  2
*D14
340
0
  0
BLOCK_RECORD
  5
222
330
1
100
AcDbSymbolTableRecord
100
AcDbBlockTableRecord
  2
*D15
340
0
  0
BLOCK_RECORD
  5
22E
330
1
100
AcDbSymbolTableRecord
100
AcDbBlockTableRecord
  2
*D16
340
0
  0
BLOCK_RECORD
  5
23B
330
1
100
AcDbSymbolTableRecord
100
AcDbBlockTableRecord
  2
*D17
340
0
  0
BLOCK_RECORD
  5
254
330
1
100
AcDbSymbolTableRecord
100
AcDbBlockTableRecord
  2
*D18
340
0
  0
BLOCK_RECORD
  5
268
330
1
100
AcDbSymbolTableRecord
100
AcDbBlockTableRecord
  2
*D19
340
0
  0
ENDTAB
  0
ENDSEC
  0
SECTION
  2
BLOCKS
  0
BLOCK
  5
20
330
1F
100
AcDbEntity
  8
0
100
AcDbBlockBegin
  2
*Model_Space
 70
     0
 10
0.0
 20
0.0
 30
0.0
  3
*Model_Space
  1
*Model_Space
  0
ENDBLK
  5
21
330
1F
100
AcDbEntity
  8
0
100
AcDbBlockEnd
  0
BLOCK
  5
1C
330
1B
100
AcDbEntity
 67
     1
  8
0
100
AcDbBlockBegin
  2
*Paper_Space
 70
     0
 10
0.0
 20
0.0
 30
0.0
  3
*Paper_Space
  1
*Paper_Space
  0
ENDBLK
  5
1D
330
1B
100
AcDbEntity
 67
     1
  8
0
100
AcDbBlockEnd
  0
BLOCK
  5
24
330
23
100
AcDbEntity
  8
0
100
AcDbBlockBegin
  2
*Paper_Space0
 70
     0
 10
0.0
 20
0.0
 30
0.0
  3
*Paper_Space0
  1
*Paper_Space0
  0
ENDBLK
  5
25
330
23
100
AcDbEntity
  8
0
100
AcDbBlockEnd
  0
BLOCK
  5
80
330
7F
100
AcDbEntity
  8
0
100
AcDbBlockBegin
  2
블럭10
 70
     2
 10
0.0
 20
0.0
 30
0.0
  3
블럭10
  1
블럭10
  0
ELLIPSE
  5
82
330
7F
100
AcDbEntity
  8
중심선
100
AcDbEllipse
 10
20.54032771741204
 20
12.0471743016438
 30
0.0
 11
6.600054785286829
 21
-1.261213355974178E-13
 31
0.0
210
0.0
220
0.0
230
1.0
 40
0.636358354079598
 41
0.9219305317359503
 42
6.513795318482858
  0
ELLIPSE
  5
83
330
7F
100
AcDbEntity
  8
중심선
100
AcDbEllipse
 10
20.54032771746488
 20
12.04717430159265
 30
0.0
 11
3.960054785062283
 21
1.540847449632565E-10
 31
0.0
210
0.0
220
0.0
230
1.0
 40
0.3939339440162632
 41
1.131841032648279
 42
5.62031148352944
  0
LINE
  5
84
330
7F
100
AcDbEntity
  8
중심선
100
AcDbLine
 10
2.268634060543552
 20
16.24717430164393
 30
0.0
 11
5.714909304380834
 21
16.24717430164393
 31
0.0
  0
LINE
  5
85
330
7F
100
AcDbEntity
  8
중심선
100
AcDbLine
 10
5.245725140726316
 20
7.84717430164391
 30
0.0
 11
8.692000384563599
 21
7.84717430164391
 31
0.0
  0
LINE
  5
86
330
7F
100
AcDbEntity
  8
중심선
100
AcDbLine
 10
15.74043728645272
 20
16.24717430164393
 30
0.0
 11
8.692000384563599
 21
7.84717430164391
 31
0.0
  0
LINE
  5
87
330
7F
100
AcDbEntity
  8
중심선
100
AcDbLine
 10
0.1404042013395286
 20
13.71084872107135
 30
0.0
 11
3.58671253028996
 21
13.71088815037384
 31
0.0
  0
LINE
  5
88
330
7F
100
AcDbEntity
  8
중심선
100
AcDbLine
 10
2.750260043222114
 20
10.84717430164391
 30
0.0
 11
6.196535287059397
 21
10.84717430164391
 31
0.0
  0
LINE
  5
89
330
7F
100
AcDbEntity
  8
중심선
100
AcDbLine
 10
12.29416204261559
 20
16.24717430164393
 30
0.0
 11
5.245725140726316
 21
7.84717430164391
 31
0.0
  0
LINE
  5
8A
330
7F
100
AcDbEntity
  8
중심선
100
AcDbLine
 10
10.72767329541681
 20
16.24717430164393
 30
0.0
 11
6.196535287059397
 21
10.84717430164391
 31
0.0
  0
LINE
  5
8B
330
7F
100
AcDbEntity
  8
중심선
100
AcDbLine
 10
7.28139805157953
 20
16.24717430164393
 30
0.0
 11
2.750260043222114
 21
10.84717430164391
 31
0.0
  0
LINE
  5
8C
330
7F
100
AcDbEntity
  8
중심선
100
AcDbLine
 10
5.714909304380834
 20
16.24717430164393
 30
0.0
 11
3.58671253028996
 21
13.71088815037384
 31
0.0
  0
LINE
  5
8D
330
7F
100
AcDbEntity
  8
중심선
100
AcDbLine
 10
2.268634060543552
 20
16.24717430164393
 30
0.0
 11
0.1404042013395286
 21
13.71084872107135
 31
0.0
  0
LINE
  5
8E
330
7F
100
AcDbEntity
  8
중심선
100
AcDbLine
 10
7.28139805157953
 20
16.24717430164393
 30
0.0
 11
10.72767329541681
 21
16.24717430164393
 31
0.0
  0
LINE
  5
8F
330
7F
100
AcDbEntity
  8
중심선
100
AcDbLine
 10
12.29416204261559
 20
16.24717430164393
 30
0.0
 11
15.74043728645272
 21
16.24717430164393
 31
0.0
  0
LINE
  5
90
330
7F
100
AcDbEntity
  8
중심선
100
AcDbLine
 10
19.22036997980202
 20
11.08717430171403
 30
0.0
 11
23.66174974927406
 21
11.08717430171406
 31
0.0
  0
LINE
  5
91
330
7F
100
AcDbEntity
  8
중심선
100
AcDbLine
 10
19.22039502424796
 20
13.00717430171391
 30
0.0
 11
19.22036997980202
 21
11.08717430171403
 31
0.0
  0
LINE
  5
92
330
7F
100
AcDbEntity
  8
중심선
100
AcDbLine
 10
19.22039502424796
 20
13.00717430171391
 30
0.0
 11
26.96566020931264
 21
13.00717430171391
 31
0.0
  0
LINE
  5
93
330
7F
100
AcDbEntity
  8
중심선
100
AcDbLine
 10
22.22332737316547
 20
13.45928029700563
 30
0.0
 11
24.52862924686651
 21
15.39360700705356
 31
0.0
  0
ATTDEF
  5
95
330
7F
100
AcDbEntity
  8
FORMAT
 62
     2
100
AcDbText
 10
3.448148490846466
 20
2.075366912832191
 30
0.0
 40
4.233333333333333
  1
EM649912
 41
0.75
  7
SLDTEXTSTYLE0
 11
3.448148490846466
 21
-0.0412997538344756
 31
0.0
100
AcDbAttributeDefinition
  3

  2
AUTOATTR0
 70
     0
 74
     1
  0
ENDBLK
  5
81
330
7F
100
AcDbEntity
  8
0
100
AcDbBlockEnd
  0
BLOCK
  5
BC
330
BB
100
AcDbEntity
  8
0
100
AcDbBlockBegin
  2
_D
 70
     0
 10
0.0
 20
0.0
 30
0.0
  3
_D
  1
_D
  0
SOLID
  5
BE
330
BB
100
AcDbEntity
  8
치수문자_일반주서
100
AcDbTrace
 10
-66.34124999999999
 20
3.969824928723885
 30
0.0
 11
-65.83324999999999
 21
7.271824928723885
 31
0.0
 12
-66.84924999999998
 22
7.271824928723885
 32
0.0
 13
-66.84924999999998
 23
7.271824928723885
 33
0.0
  0
SOLID
  5
BF
330
BB
100
AcDbEntity
  8
치수문자_일반주서
100
AcDbTrace
 10
-66.34124999999999
 20
-3.967675071276101
 30
0.0
 11
-66.84924999999998
 21
-7.269675071276101
 31
0.0
 12
-65.83324999999999
 22
-7.269675071276101
 32
0.0
 13
-65.83324999999999
 23
-7.269675071276101
 33
0.0
  0
LINE
  5
C0
330
BB
100
AcDbEntity
  8
치수문자_일반주서
100
AcDbLine
 10
-53.70624999999998
 20
3.969824928723886
 30
0.0
 11
-67.34124999999999
 21
3.969824928723885
 31
0.0
  0
LINE
  5
C1
330
BB
100
AcDbEntity
  8
치수문자_일반주서
100
AcDbLine
 10
-53.70624999999998
 20
-3.9676750712761
 30
0.0
 11
-67.34124999999999
 21
-3.967675071276101
 31
0.0
  0
LINE
  5
C2
330
BB
100
AcDbEntity
  8
치수문자_일반주서
100
AcDbLine
 10
-66.34124999999999
 20
3.969824928723885
 30
0.0
 11
-66.34124999999999
 21
10.31982492872388
 31
0.0
  0
LINE
  5
C3
330
BB
100
AcDbEntity
  8
치수문자_일반주서
100
AcDbLine
 10
-66.34124999999999
 20
3.969824928723885
 30
0.0
 11
-66.34124999999999
 21
-3.967675071276101
 31
0.0
  0
LINE
  5
C4
330
BB
100
AcDbEntity
  8
치수문자_일반주서
100
AcDbLine
 10
-66.34124999999999
 20
-3.967675071276101
 30
0.0
 11
-66.34124999999999
 21
-10.3176750712761
 31
0.0
  0
MTEXT
  5
C5
330
BB
100
AcDbEntity
  8
치수문자_일반주서
100
AcDbMText
 10
-70.85298708920183
 20
-8.81253953903687
 30
0.0
 40
3.5
 41
0.0
 71
     1
 72
     1
  1
%%c
  7
SLDTEXTSTYLE0
 11
-7.044195017643634E-15
 21
1.0
 31
0.0
 73
     1
 44
1.0
  0
MTEXT
  5
C6
330
BB
100
AcDbEntity
  8
치수문자_일반주서
100
AcDbMText
 10
-70.90645926586173
 20
-3.53410214066279
 30
0.0
 40
3.5
 41
0.0
 71
     1
 72
     1
  1
7.94
  7
SLDTEXTSTYLE0
 11
-7.044195017643634E-15
 21
1.0
 31
0.0
 73
     1
 44
1.0
  0
ENDBLK
  5
BD
330
BB
100
AcDbEntity
  8
0
100
AcDbBlockEnd
  0
BLOCK
  5
CA
330
C9
100
AcDbEntity
  8
0
100
AcDbBlockBegin
  2
_D_1
 70
     0
 10
0.0
 20
0.0
 30
0.0
  3
_D_1
  1
_D_1
  0
SOLID
  5
CC
330
C9
100
AcDbEntity
  8
치수문자_일반주서
100
AcDbTrace
 10
22.70000000000002
 20
28.78146983164858
 30
0.0
 11
19.39800000000002
 21
29.28946983164857
 31
0.0
 12
19.39800000000002
 22
28.27346983164858
 32
0.0
 13
19.39800000000002
 23
28.27346983164858
 33
0.0
  0
SOLID
  5
CD
330
C9
100
AcDbEntity
  8
치수문자_일반주서
100
AcDbTrace
 10
-53.49999999999999
 20
28.78146983164857
 30
0.0
 11
-50.19799999999999
 21
28.27346983164857
 31
0.0
 12
-50.19799999999999
 22
29.28946983164857
 32
0.0
 13
-50.19799999999999
 23
29.28946983164857
 33
0.0
  0
LINE
  5
CE
330
C9
100
AcDbEntity
  8
치수문자_일반주서
100
AcDbLine
 10
-20.81436608182265
 20
39.5743515476913
 30
0.0
 11
-21.52530356738715
 21
39.57435154769131
 31
0.0
  0
LINE
  5
CF
330
C9
100
AcDbEntity
  8
치수문자_일반주서
100
AcDbLine
 10
-21.52530356738715
 20
39.57435154769131
 30
0.0
 11
-21.52530356738719
 21
34.018101556632
 31
0.0
  0
LINE
  5
D0
330
C9
100
AcDbEntity
  8
치수문자_일반주서
100
AcDbLine
 10
-21.52530356738719
 20
34.018101556632
 30
0.0
 11
-20.81436608182269
 21
34.018101556632
 31
0.0
  0
LINE
  5
D1
330
C9
100
AcDbEntity
  8
치수문자_일반주서
100
AcDbLine
 10
-9.985633219685392
 20
39.57435154769123
 30
0.0
 11
-9.274695734120892
 21
39.57435154769122
 31
0.0
  0
LINE
  5
D2
330
C9
100
AcDbEntity
  8
치수문자_일반주서
100
AcDbLine
 10
-9.274695734120892
 20
39.57435154769122
 30
0.0
 11
-9.274695734120932
 21
34.01810155663192
 31
0.0
  0
LINE
  5
D3
330
C9
100
AcDbEntity
  8
치수문자_일반주서
100
AcDbLine
 10
-9.274695734120932
 20
34.01810155663192
 30
0.0
 11
-9.985633219685432
 21
34.01810155663193
 31
0.0
  0
LINE
  5
D4
330
C9
100
AcDbEntity
  8
치수문자_일반주서
100
AcDbLine
 10
22.70000000000002
 20
2.625139933522749
 30
0.0
 11
22.70000000000002
 21
29.78146983164858
 31
0.0
  0
LINE
  5
D5
330
C9
100
AcDbEntity
  8
치수문자_일반주서
100
AcDbLine
 10
-53.49999999999999
 20
4.176074928723895
 30
0.0
 11
-53.49999999999999
 21
29.78146983164857
 31
0.0
  0
LINE
  5
D6
330
C9
100
AcDbEntity
  8
치수문자_일반주서
100
AcDbLine
 10
22.70000000000002
 20
28.78146983164858
 30
0.0
 11
-53.49999999999999
 21
28.78146983164857
 31
0.0
  0
MTEXT
  5
D7
330
C9
100
AcDbEntity
  8
치수문자_일반주서
100
AcDbMText
 10
-22.03906229287389
 20
33.3466790975103
 30
0.0
 40
3.5
 41
0.0
 71
     1
 72
     1
  1

  7
SLDTEXTSTYLE0
 73
     1
 44
1.0
  0
MTEXT
  5
D8
330
C9
100
AcDbEntity
  8
치수문자_일반주서
100
AcDbMText
 10
-19.92569418121129
 20
38.52983847121089
 30
0.0
 40
3.5
 41
0.0
 71
     1
 72
     1
  1
3.00
  7
SLDTEXTSTYLE0
 73
     1
 44
1.0
  0
MTEXT
  5
D9
330
C9
100
AcDbEntity
  8
치수문자_일반주서
100
AcDbMText
 10
-21.21874989438805
 20
33.29320692085043
 30
0.0
 40
3.5
 41
0.0
 71
     1
 72
     1
  1
76.20
  7
SLDTEXTSTYLE0
 73
     1
 44
1.0
  0
MTEXT
  5
DA
330
C9
100
AcDbEntity
  8
치수문자_일반주서
100
AcDbMText
 10
-7.428992488980326
 20
33.34667909751019
 30
0.0
 40
3.5
 41
0.0
 71
     1
 72
     1
  1

  7
SLDTEXTSTYLE0
 73
     1
 44
1.0
  0
ENDBLK
  5
CB
330
C9
100
AcDbEntity
  8
0
100
AcDbBlockEnd
  0
BLOCK
  5
DE
330
DD
100
AcDbEntity
  8
0
100
AcDbBlockBegin
  2
_D_2
 70
     0
 10
0.0
 20
0.0
 30
0.0
  3
_D_2
  1
_D_2
  0
SOLID
  5
E0
330
DD
100
AcDbEntity
  8
치수문자_일반주서
100
AcDbTrace
 10
35.40000000000002
 20
12.70699389053728
 30
0.0
 11
38.70200000000002
 21
12.19899389053728
 31
0.0
 12
38.70200000000002
 22
13.21499389053728
 32
0.0
 13
38.70200000000002
 23
13.21499389053728
 33
0.0
  0
SOLID
  5
E1
330
DD
100
AcDbEntity
  8
치수문자_일반주서
100
AcDbTrace
 10
10.00000000000002
 20
12.70699389053728
 30
0.0
 11
6.698000000000016
 21
13.21499389053728
 31
0.0
 12
6.698000000000016
 22
12.19899389053728
 32
0.0
 13
6.698000000000016
 23
12.19899389053728
 33
0.0
  0
LINE
  5
E2
330
DD
100
AcDbEntity
  8
치수문자_일반주서
100
AcDbLine
 10
17.28563391817735
 20
23.49987560658003
 30
0.0
 11
16.57469643261285
 21
23.49987560658003
 31
0.0
  0
LINE
  5
E3
330
DD
100
AcDbEntity
  8
치수문자_일반주서
100
AcDbLine
 10
16.57469643261285
 20
23.49987560658003
 30
0.0
 11
16.57469643261281
 21
17.94362561552073
 31
0.0
  0
LINE
  5
E4
330
DD
100
AcDbEntity
  8
치수문자_일반주서
100
AcDbLine
 10
16.57469643261281
 20
17.94362561552073
 30
0.0
 11
17.28563391817731
 21
17.94362561552072
 31
0.0
  0
LINE
  5
E5
330
DD
100
AcDbEntity
  8
치수문자_일반주서
100
AcDbLine
 10
28.11436678031461
 20
23.49987560657994
 30
0.0
 11
28.82530426587911
 21
23.49987560657994
 31
0.0
  0
LINE
  5
E6
330
DD
100
AcDbEntity
  8
치수문자_일반주서
100
AcDbLine
 10
28.82530426587911
 20
23.49987560657994
 30
0.0
 11
28.82530426587907
 21
17.94362561552064
 31
0.0
  0
LINE
  5
E7
330
DD
100
AcDbEntity
  8
치수문자_일반주서
100
AcDbLine
 10
28.82530426587907
 20
17.94362561552064
 30
0.0
 11
28.11436678031457
 21
17.94362561552064
 31
0.0
  0
LINE
  5
E8
330
DD
100
AcDbEntity
  8
치수문자_일반주서
100
AcDbLine
 10
35.40000000000002
 20
3.412229891334553
 30
0.0
 11
35.40000000000002
 21
13.70699389053728
 31
0.0
  0
LINE
  5
E9
330
DD
100
AcDbEntity
  8
치수문자_일반주서
100
AcDbLine
 10
10.00000000000002
 20
4.174145560841177
 30
0.0
 11
10.00000000000002
 21
13.70699389053728
 31
0.0
  0
LINE
  5
EA
330
DD
100
AcDbEntity
  8
치수문자_일반주서
100
AcDbLine
 10
35.40000000000002
 20
12.70699389053728
 30
0.0
 11
41.75000000000002
 21
12.70699389053728
 31
0.0
  0
LINE
  5
EB
330
DD
100
AcDbEntity
  8
치수문자_일반주서
100
AcDbLine
 10
35.40000000000002
 20
12.70699389053728
 30
0.0
 11
10.00000000000002
 21
12.70699389053728
 31
0.0
  0
LINE
  5
EC
330
DD
100
AcDbEntity
  8
치수문자_일반주서
100
AcDbLine
 10
10.00000000000002
 20
12.70699389053728
 30
0.0
 11
3.650000000000016
 21
12.70699389053728
 31
0.0
  0
MTEXT
  5
ED
330
DD
100
AcDbEntity
  8
치수문자_일반주서
100
AcDbMText
 10
16.0609377071261
 20
17.272203156399
 30
0.0
 40
3.5
 41
0.0
 71
     1
 72
     1
  1

  7
SLDTEXTSTYLE0
 73
     1
 44
1.0
  0
MTEXT
  5
EE
330
DD
100
AcDbEntity
  8
치수문자_일반주서
100
AcDbMText
 10
18.17430581878871
 20
22.45536253009961
 30
0.0
 40
3.5
 41
0.0
 71
     1
 72
     1
  1
1.00
  7
SLDTEXTSTYLE0
 73
     1
 44
1.0
  0
MTEXT
  5
EF
330
DD
100
AcDbEntity
  8
치수문자_일반주서
100
AcDbMText
 10
16.88125010561195
 20
17.21873097973915
 30
0.0
 40
3.5
 41
0.0
 71
     1
 72
     1
  1
25.40
  7
SLDTEXTSTYLE0
 73
     1
 44
1.0
  0
MTEXT
  5
F0
330
DD
100
AcDbEntity
  8
치수문자_일반주서
100
AcDbMText
 10
30.67100751101967
 20
17.2722031563989
 30
0.0
 40
3.5
 41
0.0
 71
     1
 72
     1
  1

  7
SLDTEXTSTYLE0
 73
     1
 44
1.0
  0
ENDBLK
  5
DF
330
DD
100
AcDbEntity
  8
0
100
AcDbBlockEnd
  0
BLOCK
  5
F4
330
F3
100
AcDbEntity
  8
0
100
AcDbBlockBegin
  2
_D_3
 70
     0
 10
0.0
 20
0.0
 30
0.0
  3
_D_3
  1
_D_3
  0
SOLID
  5
F6
330
F3
100
AcDbEntity
  8
치수문자_일반주서
100
AcDbTrace
 10
51.18935470969825
 20
3.176074928723893
 30
0.0
 11
51.69735470969825
 21
6.478074928723892
 31
0.0
 12
50.68135470969825
 22
6.478074928723892
 32
0.0
 13
50.68135470969825
 23
6.478074928723892
 33
0.0
  0
SOLID
  5
F7
330
F3
100
AcDbEntity
  8
치수문자_일반주서
100
AcDbTrace
 10
51.18935470969825
 20
-3.17392507127611
 30
0.0
 11
50.68135470969825
 21
-6.475925071276111
 31
0.0
 12
51.69735470969825
 22
-6.475925071276111
 32
0.0
 13
51.69735470969825
 23
-6.475925071276111
 33
0.0
  0
LINE
  5
F8
330
F3
100
AcDbEntity
  8
치수문자_일반주서
100
AcDbLine
 10
40.39647299365554
 20
4.407458044959849
 30
0.0
 11
40.39647299365554
 21
3.69652055939535
 31
0.0
  0
LINE
  5
F9
330
F3
100
AcDbEntity
  8
치수문자_일반주서
100
AcDbLine
 10
40.39647299365554
 20
3.69652055939535
 30
0.0
 11
45.95272298471485
 21
3.696520559395389
 31
0.0
  0
LINE
  5
FA
330
F3
100
AcDbEntity
  8
치수문자_일반주서
100
AcDbLine
 10
45.95272298471485
 20
3.696520559395389
 30
0.0
 11
45.95272298471484
 21
4.407458044959888
 31
0.0
  0
LINE
  5
FB
330
F3
100
AcDbEntity
  8
치수문자_일반주서
100
AcDbLine
 10
40.39647299365546
 20
15.23619090709711
 30
0.0
 11
40.39647299365546
 21
15.94712839266161
 31
0.0
  0
LINE
  5
FC
330
F3
100
AcDbEntity
  8
치수문자_일반주서
100
AcDbLine
 10
40.39647299365546
 20
15.94712839266161
 30
0.0
 11
45.95272298471476
 21
15.94712839266165
 31
0.0
  0
LINE
  5
FD
330
F3
100
AcDbEntity
  8
치수문자_일반주서
100
AcDbLine
 10
45.95272298471476
 20
15.94712839266165
 30
0.0
 11
45.95272298471477
 21
15.23619090709715
 31
0.0
  0
LINE
  5
FE
330
F3
100
AcDbEntity
  8
치수문자_일반주서
100
AcDbLine
 10
26.9594046939891
 20
3.176074928723895
 30
0.0
 11
52.18935470969825
 21
3.176074928723893
 31
0.0
  0
LINE
  5
FF
330
F3
100
AcDbEntity
  8
치수문자_일반주서
100
AcDbLine
 10
26.9594046939891
 20
-3.173925071276109
 30
0.0
 11
52.18935470969825
 21
-3.17392507127611
 31
0.0
  0
LINE
  5
100
330
F3
100
AcDbEntity
  8
치수문자_일반주서
100
AcDbLine
 10
51.18935470969825
 20
3.176074928723893
 30
0.0
 11
51.18935470969825
 21
16.98673817133413
 31
0.0
  0
LINE
  5
101
330
F3
100
AcDbEntity
  8
치수문자_일반주서
100
AcDbLine
 10
51.18935470969825
 20
3.176074928723893
 30
0.0
 11
51.18935470969825
 21
-3.17392507127611
 31
0.0
  0
LINE
  5
102
330
F3
100
AcDbEntity
  8
치수문자_일반주서
100
AcDbLine
 10
51.18935470969825
 20
-3.17392507127611
 30
0.0
 11
51.18935470969825
 21
-9.52392507127611
 31
0.0
  0
MTEXT
  5
103
330
F3
100
AcDbEntity
  8
치수문자_일반주서
100
AcDbMText
 10
41.44098607013594
 20
5.296129945571227
 30
0.0
 40
3.5
 41
0.0
 71
     1
 72
     1
  1
0.25
  7
SLDTEXTSTYLE0
 11
-7.044195017643634E-15
 21
1.0
 31
0.0
 73
     1
 44
1.0
  0
MTEXT
  5
104
330
F3
100
AcDbEntity
  8
치수문자_일반주서
100
AcDbMText
 10
46.67761762049643
 20
2.656910780722936
 30
0.0
 40
3.5
 41
0.0
 71
     1
 72
     1
  1
%%c
  7
SLDTEXTSTYLE0
 11
-7.044195017643634E-15
 21
1.0
 31
0.0
 73
     1
 44
1.0
  0
MTEXT
  5
105
330
F3
100
AcDbEntity
  8
치수문자_일반주서
100
AcDbMText
 10
46.67761762049639
 20
7.935348179097017
 30
0.0
 40
3.5
 41
0.0
 71
     1
 72
     1
  1
6.35
  7
SLDTEXTSTYLE0
 11
-7.044195017643634E-15
 21
1.0
 31
0.0
 73
     1
 44
1.0
  0
ENDBLK
  5
F5
330
F3
100
AcDbEntity
  8
0
100
AcDbBlockEnd
  0
BLOCK
  5
10E
330
10D
100
AcDbEntity
  8
0
100
AcDbBlockBegin
  2
SW_DOWELSYMBOL_0
 70
     0
 10
0.0
 20
0.0
 30
0.0
  3
SW_DOWELSYMBOL_0
  1
SW_DOWELSYMBOL_0
  0
CIRCLE
  5
110
330
10D
100
AcDbEntity
  8
해칭선
 62
     0
100
AcDbCircle
 10
0.0
 20
0.0
 30
0.0
 40
3.000000000000001
  0
HATCH
  5
111
330
10D
100
AcDbEntity
  8
0
  6
Continuous
 62
     0
370
     0
100
AcDbHatch
 10
0.0
 20
0.0
 30
0.0
210
0.0
220
0.0
230
1.0
  2
SOLID
 70
     1
 71
     0
 91
        1
 92
        0
 93
        3
 72
     2
 10
0.0
 20
0.0
 40
3.000000000000001
 50
0.0
 51
90.0
 73
     1
 72
     1
 10
0.0
 20
3.000000000000001
 11
0.0
 21
0.0
 72
     1
 10
0.0
 20
0.0
 11
3.000000000000001
 21
0.0
 97
        0
 75
     0
 76
     1
 98
        1
 10
0.0
 20
0.0
  0
HATCH
  5
112
330
10D
100
AcDbEntity
  8
0
  6
Continuous
 62
     0
370
     0
100
AcDbHatch
 10
0.0
 20
0.0
 30
0.0
210
0.0
220
0.0
230
1.0
  2
SOLID
 70
     1
 71
     0
 91
        1
 92
        0
 93
        3
 72
     2
 10
0.0
 20
0.0
 40
3.000000000000001
 50
180.0
 51
270.0000000000008
 73
     1
 72
     1
 10
0.0
 20
-3.000000000000001
 11
0.0
 21
0.0
 72
     1
 10
0.0
 20
0.0
 11
-3.000000000000001
 21
0.0
 97
        0
 75
     0
 76
     1
 98
        1
 10
0.0
 20
0.0
  0
ENDBLK
  5
10F
330
10D
100
AcDbEntity
  8
0
100
AcDbBlockEnd
  0
BLOCK
  5
18E
330
18D
100
AcDbEntity
  8
0
100
AcDbBlockBegin
  2
*D8
 70
     1
 10
0.0
 20
0.0
 30
0.0
  3
*D8
  1
*D13
  0
LINE
  5
18F
330
18D
100
AcDbEntity
  8
0
  6
Continuous
 62
     0
370
    -2
100
AcDbLine
 10
17.94750000000005
 20
41.59504370719055
 30
0.0
 11
4.375000000000012
 21
41.5950437071905
 31
0.0
  0
LINE
  5
190
330
18D
100
AcDbEntity
  8
0
  6
Continuous
 62
     0
370
    -2
100
AcDbLine
 10
17.94750000000005
 20
28.89504370719056
 30
0.0
 11
4.375000000000056
 21
28.89504370719051
 31
0.0
  0
LINE
  5
191
330
18D
100
AcDbEntity
  8
0
  6
Continuous
 62
     0
370
    -2
100
AcDbLine
 10
4.375000000000023
 20
38.2930437071905
 30
0.0
 11
4.375000000000044
 21
32.19704370719052
 31
0.0
  0
SOLID
  5
192
330
18D
100
AcDbEntity
  8
0
 62
     0
100
AcDbTrace
 10
4.925333333333357
 20
38.2930437071905
 30
0.0
 11
3.82466666666669
 21
38.2930437071905
 31
0.0
 12
4.375000000000012
 22
41.5950437071905
 32
0.0
 13
4.375000000000012
 23
41.5950437071905
 33
0.0
  0
SOLID
  5
193
330
18D
100
AcDbEntity
  8
0
 62
     0
100
AcDbTrace
 10
3.824666666666711
 20
32.19704370719052
 30
0.0
 11
4.925333333333378
 21
32.19704370719052
 31
0.0
 12
4.375000000000056
 22
28.89504370719051
 32
0.0
 13
4.375000000000056
 23
28.89504370719051
 33
0.0
  0
MTEXT
  5
194
330
18D
100
AcDbEntity
  8
0
 62
     0
370
    15
100
AcDbMText
 10
0.0000000000000426
 20
32.60712247126233
 30
0.0
 40
3.5
 41
0.0
 71
     2
 72
     1
  1
\A1;%%c12.70 [1/2]
  7
SLDTEXTSTYLE0
 11
-3.496765431890261E-15
 21
1.0
 31
0.0
 73
     1
 44
1.0
  0
POINT
  5
195
330
18D
100
AcDbEntity
  8
Defpoints
 62
     0
100
AcDbPoint
 10
18.01000000000005
 20
41.59504370719055
 30
0.0
  0
POINT
  5
196
330
18D
100
AcDbEntity
  8
Defpoints
 62
     0
100
AcDbPoint
 10
18.01000000000005
 20
28.89504370719056
 30
0.0
  0
POINT
  5
197
330
18D
100
AcDbEntity
  8
Defpoints
 62
     0
100
AcDbPoint
 10
4.375000000000057
 20
28.89504370719051
 30
0.0
  0
ENDBLK
  5
198
330
18D
100
AcDbEntity
  8
0
100
AcDbBlockEnd
  0
BLOCK
  5
19B
330
19A
100
AcDbEntity
  8
0
100
AcDbBlockBegin
  2
*D9
 70
     1
 10
0.0
 20
0.0
 30
0.0
  3
*D9
  1
*D14
  0
LINE
  5
19C
330
19A
100
AcDbEntity
  8
0
  6
Continuous
 62
     0
370
    -2
100
AcDbLine
 10
118.3400000000001
 20
41.65754370719061
 30
0.0
 11
118.3400000000001
 21
68.21012310214206
 31
0.0
  0
LINE
  5
19D
330
19A
100
AcDbEntity
  8
0
  6
Continuous
 62
     0
370
    -2
100
AcDbLine
 10
16.74000000000007
 20
40.38754370719056
 30
0.0
 11
16.74000000000007
 21
68.21012310214206
 31
0.0
  0
LINE
  5
19E
330
19A
100
AcDbEntity
  8
0
  6
Continuous
 62
     0
370
    -2
100
AcDbLine
 10
115.0380000000001
 20
68.21012310214206
 30
0.0
 11
20.04200000000007
 21
68.21012310214206
 31
0.0
  0
SOLID
  5
19F
330
19A
100
AcDbEntity
  8
0
 62
     0
100
AcDbTrace
 10
115.0380000000001
 20
67.65978976880874
 30
0.0
 11
115.0380000000001
 21
68.76045643547539
 31
0.0
 12
118.3400000000001
 22
68.21012310214206
 32
0.0
 13
118.3400000000001
 23
68.21012310214206
 33
0.0
  0
SOLID
  5
1A0
330
19A
100
AcDbEntity
  8
0
 62
     0
100
AcDbTrace
 10
20.04200000000007
 20
68.76045643547539
 30
0.0
 11
20.04200000000007
 21
67.65978976880874
 31
0.0
 12
16.74000000000007
 22
68.21012310214206
 32
0.0
 13
16.74000000000007
 23
68.21012310214206
 33
0.0
  0
MTEXT
  5
1A1
330
19A
100
AcDbEntity
  8
0
 62
     0
370
    15
100
AcDbMText
 10
67.54000000000006
 20
72.58512310214206
 30
0.0
 40
3.5
 41
0.0
 71
     2
 72
     1
  1
\A1;101.60 [4]
  7
SLDTEXTSTYLE0
 73
     1
 44
1.0
  0
POINT
  5
1A2
330
19A
100
AcDbEntity
  8
Defpoints
 62
     0
100
AcDbPoint
 10
118.3400000000001
 20
41.59504370719061
 30
0.0
  0
POINT
  5
1A3
330
19A
100
AcDbEntity
  8
Defpoints
 62
     0
100
AcDbPoint
 10
16.74000000000007
 20
40.32504370719056
 30
0.0
  0
POINT
  5
1A4
330
19A
100
AcDbEntity
  8
Defpoints
 62
     0
100
AcDbPoint
 10
16.74000000000007
 20
68.21012310214206
 30
0.0
  0
ENDBLK
  5
1A5
330
19A
100
AcDbEntity
  8
0
100
AcDbBlockEnd
  0
BLOCK
  5
1A8
330
1A7
100
AcDbEntity
  8
0
100
AcDbBlockBegin
  2
*D10
 70
     1
 10
0.0
 20
0.0
 30
0.0
  3
*D10
  1
*D15
  0
LINE
  5
1A9
330
1A7
100
AcDbEntity
  8
0
  6
Continuous
 62
     0
370
    -2
100
AcDbLine
 10
118.3400000000001
 20
41.65754370719061
 30
0.0
 11
118.3400000000001
 21
51.34855720321897
 31
0.0
  0
LINE
  5
1AA
330
1A7
100
AcDbEntity
  8
0
  6
Continuous
 62
     0
370
    -2
100
AcDbLine
 10
92.94000000000004
 20
41.17013331480484
 30
0.0
 11
92.94000000000004
 21
51.34855720321897
 31
0.0
  0
LINE
  5
1AB
330
1A7
100
AcDbEntity
  8
0
  6
Continuous
 62
     0
370
    -2
100
AcDbLine
 10
115.0380000000001
 20
51.34855720321897
 30
0.0
 11
96.24200000000005
 21
51.34855720321897
 31
0.0
  0
SOLID
  5
1AC
330
1A7
100
AcDbEntity
  8
0
 62
     0
100
AcDbTrace
 10
115.0380000000001
 20
50.79822386988564
 30
0.0
 11
115.0380000000001
 21
51.89889053655231
 31
0.0
 12
118.3400000000001
 22
51.34855720321897
 32
0.0
 13
118.3400000000001
 23
51.34855720321897
 33
0.0
  0
SOLID
  5
1AD
330
1A7
100
AcDbEntity
  8
0
 62
     0
100
AcDbTrace
 10
96.24200000000005
 20
51.89889053655231
 30
0.0
 11
96.24200000000005
 21
50.79822386988564
 31
0.0
 12
92.94000000000004
 22
51.34855720321897
 32
0.0
 13
92.94000000000004
 23
51.34855720321897
 33
0.0
  0
MTEXT
  5
1AE
330
1A7
100
AcDbEntity
  8
0
 62
     0
370
    15
100
AcDbMText
 10
105.6400000000001
 20
55.72355720321897
 30
0.0
 40
3.5
 41
0.0
 71
     2
 72
     1
  1
\A1;25.40 [1]
  7
SLDTEXTSTYLE0
 73
     1
 44
1.0
  0
POINT
  5
1AF
330
1A7
100
AcDbEntity
  8
Defpoints
 62
     0
100
AcDbPoint
 10
118.3400000000001
 20
41.59504370719061
 30
0.0
  0
POINT
  5
1B0
330
1A7
100
AcDbEntity
  8
Defpoints
 62
     0
100
AcDbPoint
 10
92.94000000000004
 20
41.10763331480484
 30
0.0
  0
POINT
  5
1B1
330
1A7
100
AcDbEntity
  8
Defpoints
 62
     0
100
AcDbPoint
 10
92.94000000000004
 20
51.34855720321897
 30
0.0
  0
ENDBLK
  5
1B2
330
1A7
100
AcDbEntity
  8
0
100
AcDbBlockEnd
  0
BLOCK
  5
1B5
330
1B4
100
AcDbEntity
  8
0
100
AcDbBlockBegin
  2
*D11
 70
     1
 10
0.0
 20
0.0
 30
0.0
  3
*D11
  1
*D16
  0
LINE
  5
1B6
330
1B4
100
AcDbEntity
  8
0
  6
Continuous
 62
     0
370
    -2
100
AcDbLine
 10
118.4025000000001
 20
41.59504370719061
 30
0.0
 11
131.1091675551707
 21
41.59504370719066
 31
0.0
  0
LINE
  5
1B7
330
1B4
100
AcDbEntity
  8
0
  6
Continuous
 62
     0
370
    -2
100
AcDbLine
 10
118.4025000000001
 20
28.8950437071906
 30
0.0
 11
131.1091675551708
 21
28.89504370719065
 31
0.0
  0
LINE
  5
1B8
330
1B4
100
AcDbEntity
  8
0
  6
Continuous
 62
     0
370
    -2
100
AcDbLine
 10
131.1091675551707
 20
41.59504370719066
 30
0.0
 11
131.1091675551706
 21
72.02204370719065
 31
0.0
  0
LINE
  5
1B9
330
1B4
100
AcDbEntity
  8
0
  6
Continuous
 62
     0
370
    -2
100
AcDbLine
 10
131.1091675551708
 20
38.29304370719066
 30
0.0
 11
131.1091675551708
 21
32.19704370719064
 31
0.0
  0
SOLID
  5
1BA
330
1B4
100
AcDbEntity
  8
0
 62
     0
100
AcDbTrace
 10
131.6595008885041
 20
38.29304370719066
 30
0.0
 11
130.5588342218374
 21
38.29304370719066
 31
0.0
 12
131.1091675551707
 22
41.59504370719066
 32
0.0
 13
131.1091675551707
 23
41.59504370719066
 33
0.0
  0
SOLID
  5
1BB
330
1B4
100
AcDbEntity
  8
0
 62
     0
100
AcDbTrace
 10
130.5588342218374
 20
32.19704370719064
 30
0.0
 11
131.6595008885041
 21
32.19704370719064
 31
0.0
 12
131.1091675551708
 22
28.89504370719065
 32
0.0
 13
131.1091675551708
 23
28.89504370719065
 33
0.0
  0
MTEXT
  5
1BC
330
1B4
100
AcDbEntity
  8
0
 62
     0
370
    15
100
AcDbMText
 10
126.7341675551706
 20
58.67829370719062
 30
0.0
 40
3.5
 41
0.0
 71
     2
 72
     1
  1
\A1;%%c12.70 [1/2]
  7
SLDTEXTSTYLE0
 11
-4.475859752819522E-15
 21
1.0
 31
0.0
 73
     1
 44
1.0
  0
POINT
  5
1BD
330
1B4
100
AcDbEntity
  8
Defpoints
 62
     0
100
AcDbPoint
 10
118.3400000000001
 20
41.59504370719061
 30
0.0
  0
POINT
  5
1BE
330
1B4
100
AcDbEntity
  8
Defpoints
 62
     0
100
AcDbPoint
 10
118.3400000000001
 20
28.8950437071906
 30
0.0
  0
POINT
  5
1BF
330
1B4
100
AcDbEntity
  8
Defpoints
 62
     0
100
AcDbPoint
 10
131.1091675551707
 20
28.89504370719064
 30
0.0
  0
ENDBLK
  5
1C0
330
1B4
100
AcDbEntity
  8
0
100
AcDbBlockEnd
  0
BLOCK
  5
1CC
330
1CB
100
AcDbEntity
  8
0
100
AcDbBlockBegin
  2
*D12
 70
     1
 10
0.0
 20
0.0
 30
0.0
  3
*D12
  1
*D18
  0
LINE
  5
1CD
330
1CB
100
AcDbEntity
  8
0
  6
Continuous
 62
     0
370
    -2
100
AcDbLine
 10
119.8548290226004
 20
26.29071847010412
 30
0.0
 11
137.636673206366
 21
-0.0000000000001421
 31
0.0
  0
MTEXT
  5
1CE
330
1CB
100
AcDbEntity
  8
0
 62
     0
370
    15
100
AcDbMText
 10
131.8450740632197
 20
13.24842843236898
 30
0.0
 40
3.5
 41
0.0
 71
     5
 72
     1
  1
\A1;R.76 [R0.030]
  7
SLDTEXTSTYLE0
 11
0.5602433618603188
 21
-0.8283280603066927
 31
0.0
 73
     1
 44
1.0
  0
LINE
  5
1CF
330
1CB
100
AcDbEntity
  8
0
  6
Continuous
 62
     0
370
    -2
100
AcDbLine
 10
117.5780000000001
 20
29.65704370719052
 30
0.0
 11
118.0049054417376
 21
29.02585772523682
 31
0.0
  0
SOLID
  5
1D0
330
1CB
100
AcDbEntity
  8
0
 62
     0
100
AcDbTrace
 10
120.3106855651225
 20
26.59903906691459
 30
0.0
 11
119.3989724800783
 21
25.98239787329366
 31
0.0
 12
118.0049054417376
 22
29.02585772523682
 32
0.0
 13
118.0049054417376
 23
29.02585772523682
 33
0.0
  0
POINT
  5
1D1
330
1CB
100
AcDbEntity
  8
Defpoints
 62
     0
100
AcDbPoint
 10
118.0049054417376
 20
29.02585772523682
 30
0.0
  0
POINT
  5
1D2
330
1CB
100
AcDbEntity
  8
Defpoints
 62
     0
100
AcDbPoint
 10
117.5780000000001
 20
29.65704370719052
 30
0.0
  0
ENDBLK
  5
1D3
330
1CB
100
AcDbEntity
  8
0
100
AcDbBlockEnd
  0
BLOCK
  5
20B
330
20A
100
AcDbEntity
  8
0
100
AcDbBlockBegin
  2
*D13
 70
     1
 10
0.0
 20
0.0
 30
0.0
  3
*D13
  1
*D13
  0
LINE
  5
20D
330
20A
100
AcDbEntity
  8
0
  6
Continuous
 62
     0
370
    -2
100
AcDbLine
 10
-39.59250000000002
 20
4.762500000000001
 30
0.0
 11
-46.40015619282811
 21
4.762499999999975
 31
0.0
  0
LINE
  5
20E
330
20A
100
AcDbEntity
  8
0
  6
Continuous
 62
     0
370
    -2
100
AcDbLine
 10
-39.59250000000002
 20
-4.762500000000001
 30
0.0
 11
-46.40015619282808
 21
-4.762500000000027
 31
0.0
  0
LINE
  5
20F
330
20A
100
AcDbEntity
  8
0
  6
Continuous
 62
     0
370
    -2
100
AcDbLine
 10
-46.40015619282811
 20
4.762499999999975
 30
0.0
 11
-46.40015619282808
 21
-4.762500000000027
 31
0.0
  0
LINE
  5
210
330
20A
100
AcDbEntity
  8
0
  6
Continuous
 62
     0
370
    -2
100
AcDbLine
 10
-46.40015619282813
 20
8.064499999999974
 30
0.0
 11
-46.40015619282814
 21
11.36649999999997
 31
0.0
  0
LINE
  5
211
330
20A
100
AcDbEntity
  8
0
  6
Continuous
 62
     0
370
    -2
100
AcDbLine
 10
-46.40015619282806
 20
-8.064500000000027
 30
0.0
 11
-46.40015619282805
 21
-11.36650000000003
 31
0.0
  0
SOLID
  5
212
330
20A
100
AcDbEntity
  8
0
 62
     0
100
AcDbTrace
 10
-46.95048952616146
 20
8.064499999999972
 30
0.0
 11
-45.84982285949479
 21
8.064499999999976
 31
0.0
 12
-46.40015619282811
 22
4.762499999999975
 32
0.0
 13
-46.40015619282811
 23
4.762499999999975
 33
0.0
  0
SOLID
  5
213
330
20A
100
AcDbEntity
  8
0
 62
     0
100
AcDbTrace
 10
-45.84982285949473
 20
-8.064500000000026
 30
0.0
 11
-46.9504895261614
 21
-8.064500000000029
 31
0.0
 12
-46.40015619282808
 22
-4.762500000000027
 32
0.0
 13
-46.40015619282808
 23
-4.762500000000027
 33
0.0
  0
MTEXT
  5
214
330
20A
100
AcDbEntity
  8
0
 62
     0
370
    15
100
AcDbMText
 10
-50.77515619282809
 20
-0.000000000000162
 30
0.0
 40
3.5
 41
0.0
 71
     2
 72
     1
  1
\A1;%%c9.53 [3/8]
  7
SLDTEXTSTYLE0
 11
-3.729883127349606E-15
 21
1.0
 31
0.0
 73
     1
 44
1.0
  0
POINT
  5
215
330
20A
100
AcDbEntity
  8
Defpoints
 62
     0
100
AcDbPoint
 10
-39.53000000000002
 20
4.762500000000001
 30
0.0
  0
POINT
  5
247
330
20A
100
AcDbEntity
  8
Defpoints
 62
     0
100
AcDbPoint
 10
-39.53000000000002
 20
-4.762500000000001
 30
0.0
  0
POINT
  5
248
330
20A
100
AcDbEntity
  8
Defpoints
 62
     0
100
AcDbPoint
 10
-46.40015619282808
 20
-4.762500000000027
 30
0.0
  0
ENDBLK
  5
20C
330
20A
100
AcDbEntity
  8
0
100
AcDbBlockEnd
  0
BLOCK
  5
217
330
216
100
AcDbEntity
  8
0
100
AcDbBlockBegin
  2
*D14
 70
     1
 10
0.0
 20
0.0
 30
0.0
  3
*D14
  1
*D14
  0
LINE
  5
219
330
216
100
AcDbEntity
  8
0
  6
Continuous
 62
     0
370
    -2
100
AcDbLine
 10
35.39999999999998
 20
6.412500000000046
 30
0.0
 11
35.39999999999999
 21
32.96507939495149
 31
0.0
  0
LINE
  5
21A
330
216
100
AcDbEntity
  8
0
  6
Continuous
 62
     0
370
    -2
100
AcDbLine
 10
-40.80000000000003
 20
3.555000000000004
 30
0.0
 11
-40.80000000000002
 21
32.96507939495149
 31
0.0
  0
LINE
  5
21B
330
216
100
AcDbEntity
  8
0
  6
Continuous
 62
     0
370
    -2
100
AcDbLine
 10
32.09799999999999
 20
32.96507939495149
 30
0.0
 11
-37.49800000000002
 21
32.96507939495149
 31
0.0
  0
SOLID
  5
21C
330
216
100
AcDbEntity
  8
0
 62
     0
100
AcDbTrace
 10
32.09799999999999
 20
32.41474606161816
 30
0.0
 11
32.09799999999999
 21
33.51541272828483
 31
0.0
 12
35.39999999999999
 22
32.96507939495149
 32
0.0
 13
35.39999999999999
 23
32.96507939495149
 33
0.0
  0
SOLID
  5
21D
330
216
100
AcDbEntity
  8
0
 62
     0
100
AcDbTrace
 10
-37.49800000000002
 20
33.51541272828483
 30
0.0
 11
-37.49800000000002
 21
32.41474606161816
 31
0.0
 12
-40.80000000000002
 22
32.96507939495149
 32
0.0
 13
-40.80000000000002
 23
32.96507939495149
 33
0.0
  0
MTEXT
  5
21E
330
216
100
AcDbEntity
  8
0
 62
     0
370
    15
100
AcDbMText
 10
-2.70000000000001
 20
37.34007939495149
 30
0.0
 40
3.5
 41
0.0
 71
     2
 72
     1
  1
\A1;76.20 [3]
  7
SLDTEXTSTYLE0
 73
     1
 44
1.0
  0
POINT
  5
21F
330
216
100
AcDbEntity
  8
Defpoints
 62
     0
100
AcDbPoint
 10
35.39999999999998
 20
6.350000000000046
 30
0.0
  0
POINT
  5
220
330
216
100
AcDbEntity
  8
Defpoints
 62
     0
100
AcDbPoint
 10
-40.80000000000003
 20
3.492500000000004
 30
0.0
  0
POINT
  5
221
330
216
100
AcDbEntity
  8
Defpoints
 62
     0
100
AcDbPoint
 10
-40.80000000000003
 20
32.96507939495149
 30
0.0
  0
ENDBLK
  5
218
330
216
100
AcDbEntity
  8
0
100
AcDbBlockEnd
  0
BLOCK
  5
223
330
222
100
AcDbEntity
  8
0
100
AcDbBlockBegin
  2
*D15
 70
     1
 10
0.0
 20
0.0
 30
0.0
  3
*D15
  1
*D15
  0
LINE
  5
225
330
222
100
AcDbEntity
  8
0
  6
Continuous
 62
     0
370
    -2
100
AcDbLine
 10
35.39999999999998
 20
6.412500000000046
 30
0.0
 11
35.39999999999998
 21
16.10351349602841
 31
0.0
  0
LINE
  5
226
330
222
100
AcDbEntity
  8
0
  6
Continuous
 62
     0
370
    -2
100
AcDbLine
 10
9.99999999999995
 20
5.92508960761427
 30
0.0
 11
9.99999999999995
 21
16.10351349602841
 31
0.0
  0
LINE
  5
227
330
222
100
AcDbEntity
  8
0
  6
Continuous
 62
     0
370
    -2
100
AcDbLine
 10
32.09799999999998
 20
16.10351349602841
 30
0.0
 11
13.30199999999995
 21
16.10351349602841
 31
0.0
  0
SOLID
  5
228
330
222
100
AcDbEntity
  8
0
 62
     0
100
AcDbTrace
 10
32.09799999999998
 20
15.55318016269507
 30
0.0
 11
32.09799999999998
 21
16.65384682936174
 31
0.0
 12
35.39999999999998
 22
16.10351349602841
 32
0.0
 13
35.39999999999998
 23
16.10351349602841
 33
0.0
  0
SOLID
  5
229
330
222
100
AcDbEntity
  8
0
 62
     0
100
AcDbTrace
 10
13.30199999999995
 20
16.65384682936174
 30
0.0
 11
13.30199999999995
 21
15.55318016269507
 31
0.0
 12
9.99999999999995
 22
16.10351349602841
 32
0.0
 13
9.99999999999995
 23
16.10351349602841
 33
0.0
  0
MTEXT
  5
22A
330
222
100
AcDbEntity
  8
0
 62
     0
370
    15
100
AcDbMText
 10
22.69999999999997
 20
20.47851349602841
 30
0.0
 40
3.5
 41
0.0
 71
     2
 72
     1
  1
\A1;25.40 [1]
  7
SLDTEXTSTYLE0
 73
     1
 44
1.0
  0
POINT
  5
22B
330
222
100
AcDbEntity
  8
Defpoints
 62
     0
100
AcDbPoint
 10
35.39999999999998
 20
6.350000000000046
 30
0.0
  0
POINT
  5
22C
330
222
100
AcDbEntity
  8
Defpoints
 62
     0
100
AcDbPoint
 10
9.99999999999995
 20
5.86258960761427
 30
0.0
  0
POINT
  5
22D
330
222
100
AcDbEntity
  8
Defpoints
 62
     0
100
AcDbPoint
 10
9.99999999999995
 20
16.10351349602841
 30
0.0
  0
ENDBLK
  5
224
330
222
100
AcDbEntity
  8
0
100
AcDbBlockEnd
  0
BLOCK
  5
22F
330
22E
100
AcDbEntity
  8
0
100
AcDbBlockBegin
  2
*D16
 70
     1
 10
0.0
 20
0.0
 30
0.0
  3
*D16
  1
*D16
  0
LINE
  5
231
330
22E
100
AcDbEntity
  8
0
  6
Continuous
 62
     0
370
    -2
100
AcDbLine
 10
35.4625
 20
4.7625
 30
0.0
 11
48.16916755517062
 21
4.762500000000045
 31
0.0
  0
LINE
  5
232
330
22E
100
AcDbEntity
  8
0
  6
Continuous
 62
     0
370
    -2
100
AcDbLine
 10
35.4625
 20
-4.762500000000001
 30
0.0
 11
48.16916755517066
 21
-4.762499999999957
 31
0.0
  0
LINE
  5
233
330
22E
100
AcDbEntity
  8
0
  6
Continuous
 62
     0
370
    -2
100
AcDbLine
 10
48.16916755517062
 20
4.762500000000045
 30
0.0
 11
48.1691675551705
 21
36.55825000000007
 31
0.0
  0
LINE
  5
234
330
22E
100
AcDbEntity
  8
0
  6
Continuous
 62
     0
370
    -2
100
AcDbLine
 10
48.16916755517064
 20
1.460500000000046
 30
0.0
 11
48.16916755517065
 21
-1.460499999999957
 31
0.0
  0
SOLID
  5
235
330
22E
100
AcDbEntity
  8
0
 62
     0
100
AcDbTrace
 10
48.71950088850397
 20
1.460500000000048
 30
0.0
 11
47.6188342218373
 21
1.460500000000044
 31
0.0
 12
48.16916755517062
 22
4.762500000000045
 32
0.0
 13
48.16916755517062
 23
4.762500000000045
 33
0.0
  0
SOLID
  5
236
330
22E
100
AcDbEntity
  8
0
 62
     0
100
AcDbTrace
 10
47.61883422183731
 20
-1.460499999999959
 30
0.0
 11
48.71950088850398
 21
-1.460499999999955
 31
0.0
 12
48.16916755517066
 22
-4.762499999999957
 32
0.0
 13
48.16916755517066
 23
-4.762499999999957
 33
0.0
  0
MTEXT
  5
237
330
22E
100
AcDbEntity
  8
0
 62
     0
370
    15
100
AcDbMText
 10
43.79416755517055
 20
23.43325000000005
 30
0.0
 40
3.5
 41
0.0
 71
     2
 72
     1
  1
\A1;%%c9.53 [3/8]
  7
SLDTEXTSTYLE0
 11
-3.729883127349607E-15
 21
1.0
 31
0.0
 73
     1
 44
1.0
  0
POINT
  5
238
330
22E
100
AcDbEntity
  8
Defpoints
 62
     0
100
AcDbPoint
 10
35.4
 20
4.7625
 30
0.0
  0
POINT
  5
239
330
22E
100
AcDbEntity
  8
Defpoints
 62
     0
100
AcDbPoint
 10
35.4
 20
-4.762500000000001
 30
0.0
  0
POINT
  5
23A
330
22E
100
AcDbEntity
  8
Defpoints
 62
     0
100
AcDbPoint
 10
48.16916755517066
 20
-4.762499999999953
 30
0.0
  0
ENDBLK
  5
230
330
22E
100
AcDbEntity
  8
0
100
AcDbBlockEnd
  0
BLOCK
  5
23C
330
23B
100
AcDbEntity
  8
0
100
AcDbBlockBegin
  2
*D17
 70
     1
 10
0.0
 20
0.0
 30
0.0
  3
*D17
  1
*D17
  0
LINE
  5
23E
330
23B
100
AcDbEntity
  8
0
  6
Continuous
 62
     0
370
    -2
100
AcDbLine
 10
38.91482900510781
 20
-8.953514826999106
 30
0.0
 11
56.6966731888734
 21
-35.24423329710338
 31
0.0
  0
MTEXT
  5
23F
330
23B
100
AcDbEntity
  8
0
 62
     0
370
    15
100
AcDbMText
 10
50.90507404572706
 20
-21.99580486473425
 30
0.0
 40
3.5
 41
0.0
 71
     5
 72
     1
  1
\A1;R.76 [R0.030]
  7
SLDTEXTSTYLE0
 11
0.5602433618603188
 21
-0.8283280603066927
 31
0.0
 73
     1
 44
1.0
  0
LINE
  5
240
330
23B
100
AcDbEntity
  8
0
  6
Continuous
 62
     0
370
    -2
100
AcDbLine
 10
36.63799998250748
 20
-5.587189589912711
 30
0.0
 11
37.06490542424504
 21
-6.218375571866407
 31
0.0
  0
SOLID
  5
241
330
23B
100
AcDbEntity
  8
0
 62
     0
100
AcDbTrace
 10
39.37068554762993
 20
-8.645194230188643
 30
0.0
 11
38.4589724625857
 21
-9.261835423809568
 31
0.0
 12
37.06490542424504
 22
-6.218375571866407
 32
0.0
 13
37.06490542424504
 23
-6.218375571866407
 33
0.0
  0
POINT
  5
242
330
23B
100
AcDbEntity
  8
Defpoints
 62
     0
100
AcDbPoint
 10
37.06490542424504
 20
-6.218375571866407
 30
0.0
  0
POINT
  5
243
330
23B
100
AcDbEntity
  8
Defpoints
 62
     0
100
AcDbPoint
 10
36.63799998250748
 20
-5.587189589912711
 30
0.0
  0
ENDBLK
  5
23D
330
23B
100
AcDbEntity
  8
0
100
AcDbBlockEnd
  0
BLOCK
  5
255
330
254
100
AcDbEntity
  8
0
100
AcDbBlockBegin
  2
*D18
 70
     1
 10
0.0
 20
0.0
 30
0.0
  3
*D18
  1
*D18
  0
LINE
  5
257
330
254
100
AcDbEntity
  8
0
  6
Continuous
 62
     0
370
    -2
100
AcDbLine
 10
37.17100457304623
 20
-7.275910788865337
 30
0.0
 11
56.13043728329898
 21
-32.2441260878287
 31
0.0
  0
MTEXT
  5
258
330
254
100
AcDbEntity
  8
0
 62
     0
370
    15
100
AcDbMText
 10
50.28366260911277
 20
-20.20371596569022
 30
0.0
 40
3.5
 41
0.0
 71
     5
 72
     1
  1
\A1;R0.57 [R.02]
  7
SLDTEXTSTYLE0
 11
0.6047514064918615
 21
-0.7964142994359878
 31
0.0
 73
     1
 44
1.0
  0
SOLID
  5
259
330
254
100
AcDbEntity
  8
0
 62
     0
100
AcDbTrace
 10
37.60929790916916
 20
-6.94309593149265
 30
0.0
 11
36.73271123692329
 21
-7.608725646238025
 31
0.0
 12
35.1741154288101
 22
-4.646150772127705
 32
0.0
 13
35.1741154288101
 23
-4.646150772127705
 33
0.0
  0
LINE
  5
25A
330
254
100
AcDbEntity
  8
0
  6
Continuous
 62
     0
370
    15
100
AcDbLine
 10
34.73849999999999
 20
-4.191000000000038
 30
0.0
 11
34.9185
 21
-4.191000000000038
 31
0.0
  0
LINE
  5
25B
330
254
100
AcDbEntity
  8
0
  6
Continuous
 62
     0
370
    15
100
AcDbLine
 10
34.8285
 20
-4.281000000000038
 30
0.0
 11
34.8285
 21
-4.101000000000038
 31
0.0
  0
POINT
  5
25C
330
254
100
AcDbEntity
  8
Defpoints
 62
     0
100
AcDbPoint
 10
35.1741154288101
 20
-4.646150772127705
 30
0.0
  0
POINT
  5
25D
330
254
100
AcDbEntity
  8
Defpoints
 62
     0
100
AcDbPoint
 10
34.8285
 20
-4.191000000000038
 30
0.0
  0
ENDBLK
  5
256
330
254
100
AcDbEntity
  8
0
100
AcDbBlockEnd
  0
BLOCK
  5
269
330
268
100
AcDbEntity
  8
0
100
AcDbBlockBegin
  2
*D19
 70
     1
 10
0.0
 20
0.0
 30
0.0
  3
*D19
  1
*D19
  0
LINE
  5
26B
330
268
100
AcDbEntity
  8
0
  6
Continuous
 62
     0
370
    -2
100
AcDbLine
 10
36.10854292186395
 20
-7.194386888122263
 30
0.0
 11
55.11019853374344
 21
-37.13139704394825
 31
0.0
  0
MTEXT
  5
26C
330
268
100
AcDbEntity
  8
0
 62
     0
370
    15
100
AcDbMText
 10
50.17569978064723
 20
-24.45870943956883
 30
0.0
 40
3.5
 41
0.0
 71
     5
 72
     1
  1
\A1;R2.29 [R.09]
  7
SLDTEXTSTYLE0
 11
0.5358881392025688
 21
-0.8442889921478356
 31
0.0
 73
     1
 44
1.0
  0
SOLID
  5
26D
330
268
100
AcDbEntity
  8
0
 62
     0
100
AcDbTrace
 10
36.57318329720931
 20
-6.899469782181116
 30
0.0
 11
35.64390254651859
 21
-7.489303994063411
 31
0.0
 12
34.33904028621707
 22
-4.406544636050111
 32
0.0
 13
34.33904028621707
 23
-4.406544636050111
 33
0.0
  0
LINE
  5
26E
330
268
100
AcDbEntity
  8
0
  6
Continuous
 62
     0
370
    15
100
AcDbLine
 10
33.02399999999999
 20
-2.476500000000157
 30
0.0
 11
33.204
 21
-2.476500000000157
 31
0.0
  0
LINE
  5
26F
330
268
100
AcDbEntity
  8
0
  6
Continuous
 62
     0
370
    15
100
AcDbLine
 10
33.114
 20
-2.566500000000157
 30
0.0
 11
33.114
 21
-2.386500000000157
 31
0.0
  0
POINT
  5
270
330
268
100
AcDbEntity
  8
Defpoints
 62
     0
100
AcDbPoint
 10
34.33904028621707
 20
-4.406544636050111
 30
0.0
  0
POINT
  5
271
330
268
100
AcDbEntity
  8
Defpoints
 62
     0
100
AcDbPoint
 10
33.114
 20
-2.476500000000157
 30
0.0
  0
ENDBLK
  5
26A
330
268
100
AcDbEntity
  8
0
100
AcDbBlockEnd
  0
ENDSEC
  0
SECTION
  2
ENTITIES
  0
LINE
  5
AF
330
1F
100
AcDbEntity
  8
참조1
100
AcDbLine
 10
-11.04999998250747
 20
0.0002645186365514
 30
0.0
 11
-11.04999998250747
 21
-39.99973548136345
 31
0.0
  0
LINE
  5
B0
330
1F
100
AcDbEntity
  8
참조1
100
AcDbLine
 10
-11.04999998250747
 20
-39.99973548136345
 30
0.0
 11
-32.55885679681613
 21
-39.99973548136344
 31
0.0
  0
INSERT
  5
B2
330
1F
100
AcDbEntity
  8
0
  6
Continuous
 62
     7
100
AcDbBlockReference
 66
     1
  2
블럭10
 10
-24.99027291463268
 20
-52.04690978300738
 30
0.0
  0
ATTRIB
  5
B3
330
B2
100
AcDbEntity
  8
FORMAT
 62
     2
100
AcDbText
 10
-35.13190892676931
 20
-49.97154287017519
 30
0.0
 40
4.233333333333333
  1
EM649912 [ 4 FLUTE ]
 41
0.75
  7
SLDTEXTSTYLE0
 11
-35.13190892676931
 21
-52.08820953684186
 31
0.0
100
AcDbAttribute
  2
AUTOATTR0
 70
     0
 74
     1
  0
SEQEND
  5
B4
330
B2
100
AcDbEntity
  8
0
  6
Continuous
 62
     7
  0
HATCH
  5
B5
330
1F
100
AcDbEntity
  8
중심선
100
AcDbHatch
 10
0.0
 20
0.0
 30
0.0
210
0.0
220
0.0
230
1.0
  2
SOLID
 70
     1
 71
     0
 91
        1
 92
        0
 93
        4
 72
     1
 10
-19.27536361025183
 20
-35.79973548136344
 11
-22.72163885408911
 21
-35.79973548136344
 72
     1
 10
-22.72163885408911
 20
-35.79973548136344
 11
-24.84986871329313
 21
-38.33606106193604
 72
     1
 10
-24.84986871329313
 20
-38.33606106193604
 11
-21.4035603843427
 21
-38.33602163263355
 72
     1
 10
-21.4035603843427
 20
-38.33602163263355
 11
-19.27536361025183
 21
-35.79973548136344
 97
        0
 75
     0
 76
     1
 98
        1
 10
-1.999999982507482
 20
-0.0008104100873378
  0
HATCH
  5
B6
330
1F
100
AcDbEntity
  8
중심선
100
AcDbHatch
 10
0.0
 20
0.0
 30
0.0
210
0.0
220
0.0
230
1.0
  2
SOLID
 70
     1
 71
     0
 91
        1
 92
        0
 93
        4
 72
     1
 10
-14.26259961921585
 20
-35.79973548136344
 11
-17.70887486305313
 21
-35.79973548136344
 72
     1
 10
-17.70887486305313
 20
-35.79973548136344
 11
-22.24001287141055
 21
-41.19973548136346
 72
     1
 10
-22.24001287141055
 20
-41.19973548136346
 11
-18.79373762757326
 21
-41.19973548136346
 72
     1
 10
-18.79373762757326
 20
-41.19973548136346
 11
-14.26259961921585
 21
-35.79973548136344
 97
        0
 75
     0
 76
     1
 98
        1
 10
-1.999999982507482
 20
-0.0008104100873378
  0
HATCH
  5
B7
330
1F
100
AcDbEntity
  8
중심선
100
AcDbHatch
 10
0.0
 20
0.0
 30
0.0
210
0.0
220
0.0
230
1.0
  2
SOLID
 70
     1
 71
     0
 91
        1
 92
        0
 93
        4
 72
     1
 10
-9.24983562817998
 20
-35.79973548136344
 11
-12.6961108720171
 21
-35.79973548136344
 72
     1
 10
-12.6961108720171
 20
-35.79973548136344
 11
-19.74454777390634
 21
-44.19973548136346
 72
     1
 10
-19.74454777390634
 20
-44.19973548136346
 11
-16.29827253006906
 21
-44.19973548136346
 72
     1
 10
-16.29827253006906
 20
-44.19973548136346
 11
-9.24983562817998
 21
-35.79973548136344
 97
        0
 75
     0
 76
     1
 98
        1
 10
-1.999999982507482
 20
-0.0008104100873378
  0
HATCH
  5
B8
330
1F
100
AcDbEntity
  8
중심선
100
AcDbHatch
 10
0.0
 20
0.0
 30
0.0
210
0.0
220
0.0
230
1.0
  2
SOLID
 70
     1
 71
     0
 91
        1
 92
        0
 93
        6
 72
     3
 10
-4.44994519716778
 20
-39.99973548141472
 11
3.960054785062283
 21
1.540882976769353E-10
 40
0.3939339440162628
 50
17.09539180608437
 51
320.0019657685079
 73
     0
 72
     1
 10
-2.766945541467186
 20
-38.58762948600175
 11
-0.4616436677661202
 21
-36.6533027759538
 72
     3
 10
-4.449945197220627
 20
-39.99973548136359
 11
6.600054785286829
 21
-1.278976924368180E-13
 40
0.636358354079598
 50
39.99873849337413
 51
368.4976242363725
 73
     1
 72
     1
 10
1.975387294679982
 20
-39.03973548129347
 11
-5.769877890384705
 21
-39.03973548129347
 72
     1
 10
-5.769877890384705
 20
-39.03973548129347
 11
-5.769902934830639
 21
-40.95973548129336
 72
     1
 10
-5.769902934830639
 20
-40.95973548129336
 11
-1.328523165358602
 21
-40.95973548129333
 97
        0
 75
     0
 76
     1
 98
        1
 10
-1.999999982507482
 20
-0.0008104100873378
  0
LINE
  5
106
330
1F
100
AcDbEntity
  8
참조1
100
AcDbLine
 10
65.41348383283812
 20
7.440264518636558
 30
0.0
 11
65.41348383283812
 21
-7.439735481363447
 31
0.0
  0
LINE
  5
107
330
1F
100
AcDbEntity
  8
참조1
100
AcDbLine
 10
78.11348383283814
 20
5.440264518636558
 30
0.0
 11
65.41348383283812
 21
5.440264518636558
 31
0.0
  0
SOLID
  5
108
330
1F
100
AcDbEntity
  8
참조1
100
AcDbTrace
 10
65.41348383283812
 20
5.440264518636558
 30
0.0
 11
71.76348383283812
 21
4.424264518636558
 31
0.0
 12
71.76348383283812
 22
6.456264518636558
 32
0.0
 13
71.76348383283812
 23
6.456264518636558
 33
0.0
  0
LINE
  5
109
330
1F
100
AcDbEntity
  8
참조1
100
AcDbLine
 10
78.11348383283814
 20
-5.439735481363447
 30
0.0
 11
65.41348383283812
 21
-5.439735481363447
 31
0.0
  0
SOLID
  5
10A
330
1F
100
AcDbEntity
  8
참조1
100
AcDbTrace
 10
65.41348383283812
 20
-5.439735481363447
 30
0.0
 11
71.76348383283812
 21
-6.455735481363447
 31
0.0
 12
71.76348383283812
 22
-4.423735481363447
 32
0.0
 13
71.76348383283812
 23
-4.423735481363447
 33
0.0
  0
MTEXT
  5
10B
330
1F
100
AcDbEntity
  8
참조1
100
AcDbMText
 10
74.81097392530842
 20
10.98848116328649
 30
0.0
 40
3.5
 41
0.0
 71
     1
 72
     1
  1
A
  7
SLDTEXTSTYLE0
 73
     1
 44
1.0
  0
MTEXT
  5
10C
330
1F
100
AcDbEntity
  8
참조1
100
AcDbMText
 10
74.81097392530842
 20
0.1084811632864872
 30
0.0
 40
3.5
 41
0.0
 71
     1
 72
     1
  1
A
  7
SLDTEXTSTYLE0
 73
     1
 44
1.0
  0
LINE
  5
1D9
330
1F
100
AcDbEntity
  8
0
  6
Continuous
 62
     1
370
    15
100
AcDbLine
 10
26.05377138762213
 20
4.762499999999998
 30
0.0
 11
23.1504463185751
 21
4.762499999999998
 31
0.0
  0
LINE
  5
1DA
330
1F
100
AcDbEntity
  8
0
  6
Continuous
 62
     1
370
    15
100
AcDbLine
 10
23.15044631857506
 20
-4.762500000000012
 30
0.0
 11
26.05377138762217
 21
-4.762500000000012
 31
0.0
  0
LINE
  5
1DB
330
1F
100
AcDbEntity
  8
외형선
  6
Continuous
370
    15
100
AcDbLine
 10
-39.53000000000002
 20
-4.762500000000001
 30
0.0
 11
10.0
 21
-4.762500000000001
 31
0.0
  0
LINE
  5
1DC
330
1F
100
AcDbEntity
  8
외형선
  6
Continuous
370
    15
100
AcDbLine
 10
10.0
 20
4.762500000000001
 30
0.0
 11
-39.53000000000002
 21
4.762500000000001
 31
0.0
  0
LINE
  5
1DD
330
1F
100
AcDbEntity
  8
외형선
  6
Continuous
370
    15
100
AcDbLine
 10
-39.53000000000002
 20
4.7625
 30
0.0
 11
-40.80000000000003
 21
3.492500000000004
 31
0.0
  0
LINE
  5
1DE
330
1F
100
AcDbEntity
  8
외형선
  6
Continuous
370
    15
100
AcDbLine
 10
-40.80000000000003
 20
-3.492500000000005
 30
0.0
 11
-39.53000000000002
 21
-4.762500000000001
 31
0.0
  0
LINE
  5
1DF
330
1F
100
AcDbEntity
  8
0
  6
Continuous
 62
     1
370
    15
100
AcDbLine
 10
35.39999999999998
 20
-2.476500000000157
 30
0.0
 11
35.39999999999998
 21
0.4668069427067039
 31
0.0
  0
SPLINE
  5
1E1
330
1F
100
AcDbEntity
  8
0
  6
Continuous
 62
     1
370
    15
100
AcDbSpline
210
0.0
220
0.0
230
1.0
 70
     8
 71
     3
 72
    38
 73
    34
 74
     0
 42
0.000000001
 43
0.00000001
 40
0.0172216981361044
 40
0.0172216981361044
 40
0.0172216981361044
 40
0.0172216981361044
 40
0.0625
 40
0.0625
 40
0.125
 40
0.125
 40
0.1875
 40
0.1875
 40
0.25
 40
0.25
 40
0.3124999999999999
 40
0.3124999999999999
 40
0.3749999999999999
 40
0.3749999999999999
 40
0.4375
 40
0.4375
 40
0.5
 40
0.5
 40
0.5625
 40
0.5625
 40
0.625
 40
0.625
 40
0.6875
 40
0.6875
 40
0.75
 40
0.75
 40
0.8125000000000001
 40
0.8125000000000001
 40
0.8750000000000001
 40
0.8750000000000001
 40
0.9375000000000001
 40
0.9375000000000001
 40
1.0
 40
1.0
 40
1.0
 40
1.0
 10
34.69701450720061
 20
-4.125700130364101
 30
0.0
 10
34.41456481378491
 20
-4.044363398108003
 30
0.0
 10
34.13169294178039
 20
-3.95576135785554
 30
0.0
 10
33.46264401083031
 20
-3.729201755197951
 30
0.0
 10
33.07414074954307
 20
-3.584894549265818
 30
0.0
 10
32.29428996855962
 20
-3.272963282745336
 30
0.0
 10
31.90784167450455
 20
-3.106030108012415
 30
0.0
 10
31.12950054022659
 20
-2.751834952684399
 30
0.0
 10
30.73814114184575
 20
-2.56458980820119
 30
0.0
 10
29.96273134652639
 20
-2.175463992330257
 30
0.0
 10
29.57366068607547
 20
-1.97277079137721
 30
0.0
 10
28.79392349000622
 20
-1.555285674923516
 30
0.0
 10
28.40765356234462
 20
-1.341306932382962
 30
0.0
 10
27.62899173573677
 20
-0.904728476057605
 30
0.0
 10
27.23769866644416
 20
-0.682311514079237
 30
0.0
 10
26.46286835116215
 20
-0.2358907614878061
 30
0.0
 10
26.07317076648038
 20
-0.010711766681935
 30
0.0
 10
25.29358203550482
 20
0.4382603507834211
 30
0.0
 10
24.90743053280741
 20
0.6613345546181894
 30
0.0
 10
24.12848273378108
 20
1.10286246186228
 30
0.0
 10
23.73727364520677
 20
1.320990209360726
 30
0.0
 10
22.96305696104091
 20
1.745508884636097
 30
0.0
 10
22.57267302011562
 20
1.953248084422457
 30
0.0
 10
21.79326761227066
 20
2.354063806072437
 30
0.0
 10
21.40717457547927
 20
2.546679249181494
 30
0.0
 10
20.62797556653965
 20
2.914825208167674
 30
0.0
 10
20.23688469859261
 20
3.089967157015982
 30
0.0
 10
19.4632824557012
 20
3.417318601796087
 30
0.0
 10
19.0721694775029
 20
3.570735997480295
 30
0.0
 10
18.29298222349118
 20
3.852307950610744
 30
0.0
 10
17.90688768484395
 20
3.980312091324816
 30
0.0
 10
17.12747226592779
 20
4.209748463300855
 30
0.0
 10
16.73712411527074
 20
4.310801059780657
 30
0.0
 10
16.34999999999996
 20
4.396942205710713
 30
0.0
  0
SPLINE
  5
1E2
330
1F
100
AcDbEntity
  8
0
  6
Continuous
 62
     1
370
    15
100
AcDbSpline
210
0.0
220
0.0
230
1.0
 70
     8
 71
     3
 72
    18
 73
    14
 74
     0
 42
0.000000001
 43
0.00000001
 40
0.0
 40
0.0
 40
0.0
 40
0.0
 40
0.0883853443123383
 40
0.1768063120159699
 40
0.2652014765171716
 40
0.3535642365385396
 40
0.4419085192525871
 40
0.530248322244409
 40
0.6185976601899811
 40
0.7157958095163086
 40
0.812997707249123
 40
0.9102040135793357
 40
0.9999999999999999
 40
0.9999999999999999
 40
0.9999999999999999
 40
0.9999999999999999
 10
35.01899999999996
 20
0.6270534715081283
 30
0.0
 10
34.52109134636169
 20
0.9100218150391403
 30
0.0
 10
33.52507335881472
 20
1.476072551461989
 30
0.0
 10
32.03087148101363
 20
2.27100959117926
 30
0.0
 10
30.53695536819169
 20
2.993357465912464
 30
0.0
 10
29.04357922484084
 20
3.617396516343359
 30
0.0
 10
27.55058117899004
 20
4.123231960402229
 30
0.0
 10
26.05766067977745
 20
4.4943188421322
 30
0.0
 10
24.5148842742475
 20
4.725768640458924
 30
0.0
 10
22.92189387490824
 20
4.79284435336648
 30
0.0
 10
21.27907340289853
 20
4.668938743398497
 30
0.0
 10
19.67792000715026
 20
4.381344111719162
 30
0.0
 10
18.62437318408544
 20
4.05465653749145
 30
0.0
 10
18.11847416634718
 20
3.897785557207635
 30
0.0
  0
SPLINE
  5
1E3
330
1F
100
AcDbEntity
  8
0
  6
Continuous
 62
     1
370
    15
100
AcDbSpline
210
0.0
220
0.0
230
1.0
 70
     8
 71
     3
 72
    14
 73
    10
 74
     0
 42
0.000000001
 43
0.00000001
 40
0.0
 40
0.0
 40
0.0
 40
0.0
 40
0.25
 40
0.25
 40
0.5
 40
0.5
 40
0.75
 40
0.75
 40
1.0
 40
1.0
 40
1.0
 40
1.0
 10
35.39999999999998
 20
0.4668069427067088
 30
0.0
 10
35.39999999999998
 20
0.4625366698581864
 30
0.0
 10
35.3893363825105
 20
0.4623738419418256
 30
0.0
 10
35.34815953998783
 20
0.4720934176361307
 30
0.0
 10
35.31738566527478
 20
0.4821666926832183
 30
0.0
 10
35.24353378561198
 20
0.5117413510350165
 30
0.0
 10
35.2004887204662
 20
0.5312212067258703
 30
0.0
 10
35.11038183619699
 20
0.5761963695367346
 30
0.0
 10
35.06445135097332
 20
0.601043659296424
 30
0.0
 10
35.01900000000001
 20
0.6270534715081283
 30
0.0
  0
SPLINE
  5
1E4
330
1F
100
AcDbEntity
  8
0
  6
Continuous
 62
     1
370
    15
100
AcDbSpline
210
0.0
220
0.0
230
1.0
 70
     8
 71
     3
 72
    17
 73
    13
 74
     0
 42
0.000000001
 43
0.00000001
 40
0.0
 40
0.0
 40
0.0
 40
0.0
 40
0.1014621810699251
 40
0.2028844324849521
 40
0.3042827189041055
 40
0.4056730962801239
 40
0.5070716507370849
 40
0.6084944372055853
 40
0.7099574183085766
 40
0.821542555900308
 40
0.9331222610877735
 40
0.9419087837516374
 40
0.9419087837516374
 40
0.9419087837516374
 40
0.9419087837516374
 10
16.34999999999996
 20
-1.829837558265752
 30
0.0
 10
16.84804333520115
 20
-2.089428594126482
 30
0.0
 10
17.84393400450947
 20
-2.608508505807946
 30
0.0
 10
19.33739289923884
 20
-3.285956524424271
 30
0.0
 10
20.83044060566314
 20
-3.860210073064645
 30
0.0
 10
22.32334501377793
 20
-4.307099073026078
 30
0.0
 10
23.81639655526127
 20
-4.61364382336096
 30
0.0
 10
25.30986848507936
 20
-4.768875199225151
 30
0.0
 10
26.85348770997789
 20
-4.769865072556494
 30
0.0
 10
28.44703565996917
 20
-4.589529664409723
 30
0.0
 10
29.58562333641461
 20
-4.352634938156739
 30
0.0
 10
30.17646439655328
 20
-4.178685185912994
 30
0.0
 10
30.21959473124009
 20
-4.165751014978515
 30
0.0
  0
SPLINE
  5
1E6
330
1F
100
AcDbEntity
  8
0
  6
Continuous
 62
     1
370
    15
100
AcDbSpline
210
0.0
220
0.0
230
1.0
 70
     8
 71
     3
 72
    36
 73
    32
 74
     0
 42
0.000000001
 43
0.00000001
 40
0.0
 40
0.0
 40
0.0
 40
0.0
 40
0.0625
 40
0.0625
 40
0.125
 40
0.125
 40
0.1875
 40
0.1875
 40
0.25
 40
0.25
 40
0.3125
 40
0.3125
 40
0.375
 40
0.375
 40
0.4375
 40
0.4375
 40
0.5
 40
0.5
 40
0.5625
 40
0.5625
 40
0.625
 40
0.625
 40
0.6875
 40
0.6875
 40
0.75
 40
0.75
 40
0.8125
 40
0.8125
 40
0.875
 40
0.875
 40
0.9232464229860721
 40
0.9232464229860721
 40
0.9232464229860721
 40
0.9232464229860721
 10
33.114
 20
-4.762500000000157
 30
0.0
 10
32.91550711511061
 20
-4.750592330745304
 30
0.0
 10
32.28584057964556
 20
-4.63882385643981
 30
0.0
 10
31.74814401083027
 20
-4.524795155673009
 30
0.0
 10
31.35964074954303
 20
-4.448870944808044
 30
0.0
 10
30.57978996855962
 20
-4.267651161817357
 30
0.0
 10
30.19334167450452
 20
-4.162780804056212
 30
0.0
 10
29.41500054022661
 20
-3.925556731485181
 30
0.0
 10
29.02364114184574
 20
-3.79316661709911
 30
0.0
 10
28.24823134652641
 20
-3.504881256795984
 30
0.0
 10
27.85916068607547
 20
-3.348403040507555
 30
0.0
 10
27.07942349000617
 20
-3.013921136212001
 30
0.0
 10
26.69315356234462
 20
-2.836593223245052
 30
0.0
 10
25.91449173573673
 20
-2.463313588382275
 30
0.0
 10
25.52319866644416
 20
-2.26747797076623
 30
0.0
 10
24.74836835116215
 20
-1.863341205323373
 30
0.0
 10
24.3586707664804
 20
-1.653987633907735
 30
0.0
 10
23.57908203550484
 20
-1.225592436579943
 30
0.0
 10
23.19293053280741
 20
-1.00726536201205
 30
0.0
 10
22.41398273378108
 20
-0.5641198631904901
 30
0.0
 10
22.02277364520681
 20
-0.339587927795908
 30
0.0
 10
21.248556961041
 20
0.1086716121730471
 30
0.0
 10
20.85817302011564
 20
0.3338166897327546
 30
0.0
 10
20.0787676122707
 20
0.7801228197415068
 30
0.0
 10
19.69267457547933
 20
1.000731720441786
 30
0.0
 10
18.9134755665397
 20
1.435139713594854
 30
0.0
 10
18.52238469859257
 20
1.648529436474831
 30
0.0
 10
17.74878245570124
 20
2.061401745739778
 30
0.0
 10
17.35766947750295
 20
2.262408011122844
 30
0.0
 10
16.66733186775782
 20
2.603550677112882
 30
0.0
 10
16.36867297650397
 20
2.746953542802179
 30
0.0
 10
16.06882755652782
 20
2.884809627493242
 30
0.0
  0
SPLINE
  5
1E8
330
1F
100
AcDbEntity
  8
0
  6
Continuous
 62
     1
370
    15
100
AcDbSpline
210
0.0
220
0.0
230
1.0
 70
     8
 71
     3
 72
    10
 73
     6
 74
     0
 42
0.000000001
 43
0.00000001
 40
0.0
 40
0.0
 40
0.0
 40
0.0
 40
0.5
 40
0.5
 40
1.0
 40
1.0
 40
1.0
 40
1.0
 10
35.01899999999996
 20
2.216414435700774
 30
0.0
 10
35.11816449711967
 20
2.165745769660463
 30
0.0
 10
35.20901574417221
 20
2.091077511266381
 30
0.0
 10
35.35065507404274
 20
1.927693915736014
 30
0.0
 10
35.39999999999998
 20
1.839442940704025
 30
0.0
 10
35.39999999999998
 20
1.774014390262694
 30
0.0
  0
LINE
  5
1E9
330
1F
100
AcDbEntity
  8
0
  6
Continuous
 62
     1
370
    15
100
AcDbLine
 10
35.39999999999998
 20
0.4668069427067088
 30
0.0
 11
35.39999999999998
 21
1.774014390262694
 31
0.0
  0
SPLINE
  5
1EA
330
1F
100
AcDbEntity
  8
0
  6
Continuous
 62
     1
370
    15
100
AcDbSpline
210
0.0
220
0.0
230
1.0
 70
     8
 71
     3
 72
    13
 73
     9
 74
     0
 42
0.000000001
 43
0.00000001
 40
0.0
 40
0.0
 40
0.0
 40
0.0
 40
0.0836628069076694
 40
0.2669494016612667
 40
0.4502270733010812
 40
0.633493905829908
 40
0.8167511346506166
 40
1.0
 40
1.0
 40
1.0
 40
1.0
 10
26.05377138762213
 20
4.742994058148547
 30
0.0
 10
26.30378320546209
 20
4.746626669789377
 30
0.0
 10
27.10151528794262
 20
4.758217525270204
 30
0.0
 10
28.44704000817508
 20
4.587959791199138
 30
0.0
 10
30.09017267279322
 20
4.233536310929017
 30
0.0
 10
31.73320913477009
 20
3.700827476918041
 30
0.0
 10
33.37614024163278
 20
3.030573259723868
 30
0.0
 10
34.47138841153504
 20
2.487796581751477
 30
0.0
 10
35.01900000000001
 20
2.216414435700752
 30
0.0
  0
SPLINE
  5
1EB
330
1F
100
AcDbEntity
  8
0
  6
Continuous
 62
     1
370
    15
100
AcDbSpline
210
0.0
220
0.0
230
1.0
 70
     8
 71
     3
 72
    12
 73
     8
 74
     0
 42
0.000000001
 43
0.00000001
 40
0.0
 40
0.0
 40
0.0
 40
0.0
 40
0.0336043751568623
 40
0.2751852123009221
 40
0.5167770063570851
 40
0.7583813926085566
 40
1.0
 40
1.0
 40
1.0
 40
1.0
 10
23.15044631857506
 20
-4.751213457993761
 30
0.0
 10
23.07427310008477
 20
-4.754840671541501
 30
0.0
 10
22.45049291658038
 20
-4.784543813633469
 30
0.0
 10
21.27906935286963
 20
-4.660227789266224
 30
0.0
 10
19.63614297170896
 20
-4.366952793720637
 30
0.0
 10
17.99311426987358
 20
-3.892126849097649
 30
0.0
 10
16.89771550240126
 20
-3.453173649875262
 30
0.0
 10
16.35
 20
-3.233690591118942
 30
0.0
  0
SPLINE
  5
1ED
330
1F
100
AcDbEntity
  8
0
  6
Continuous
 62
     1
370
    15
100
AcDbSpline
210
0.0
220
0.0
230
1.0
 70
     8
 71
     3
 72
    10
 73
     6
 74
     0
 42
0.000000001
 43
0.00000001
 40
0.166662601558963
 40
0.166662601558963
 40
0.166662601558963
 40
0.166662601558963
 40
0.3787612894518905
 40
0.7576752372627505
 40
0.9495153929784363
 40
0.9495153929784363
 40
0.9495153929784363
 40
0.9495153929784363
 10
33.114
 20
4.762500000000159
 30
0.0
 10
32.77942638052727
 20
4.724127801025892
 30
0.0
 10
32.14550237379552
 20
4.630616053316008
 30
0.0
 10
31.51655891524884
 20
4.43303961236245
 30
0.0
 10
30.831183267397
 20
4.150659360809103
 30
0.0
 10
30.58602378311439
 20
4.062024473309583
 30
0.0
  0
LINE
  5
1EE
330
1F
100
AcDbEntity
  8
0
  6
Continuous
 62
     1
370
    15
100
AcDbLine
 10
35.39999999999998
 20
1.774014390262694
 30
0.0
 11
35.39999999999998
 21
2.47650000000016
 31
0.0
  0
SPLINE
  5
1EF
330
1F
100
AcDbEntity
  8
0
  6
Continuous
 62
     1
370
    15
100
AcDbSpline
210
0.0
220
0.0
230
1.0
 70
     8
 71
     3
 72
     9
 73
     5
 74
     0
 42
0.000000001
 43
0.00000001
 40
0.0
 40
0.0
 40
0.0
 40
0.0
 40
0.8448440348887941
 40
1.0
 40
1.0
 40
1.0
 40
1.0
 10
16.34999999999996
 20
-4.396942205710717
 30
0.0
 10
16.84805090261865
 20
-4.281548265622016
 30
0.0
 10
17.43756906461194
 20
-4.144962179524015
 30
0.0
 10
18.02701769518684
 20
-3.930985340221134
 30
0.0
 10
18.11847416634713
 20
-3.897785557207654
 30
0.0
  0
LINE
  5
1FA
330
1F
100
AcDbEntity
  8
외형선
  6
Continuous
370
    15
100
AcDbLine
 10
-39.53000000000002
 20
-0.0000000000000124
 30
0.0
 11
-39.53000000000002
 21
4.7625
 31
0.0
  0
LINE
  5
1FB
330
1F
100
AcDbEntity
  8
외형선
  6
Continuous
370
    15
100
AcDbLine
 10
-39.53000000000002
 20
-4.762500000000001
 30
0.0
 11
-39.53000000000002
 21
-0.0000000000000124
 31
0.0
  0
LINE
  5
1FD
330
1F
100
AcDbEntity
  8
외형선
  6
Continuous
370
    15
100
AcDbLine
 10
-40.80000000000003
 20
-3.492500000000005
 30
0.0
 11
-40.80000000000003
 21
-0.0000000000000124
 31
0.0
  0
LINE
  5
200
330
1F
100
AcDbEntity
  8
중심선
 48
0.8
100
AcDbLine
 10
-43.80000000000003
 20
-0.0000000000000091
 30
0.0
 11
38.39999999999998
 21
0.0000000000000018
 31
0.0
  0
CIRCLE
  5
201
330
1F
100
AcDbEntity
  8
해칭선
100
AcDbCircle
 10
0.0
 20
0.0
 30
0.0
 40
3.000000000000001
  0
DIMENSION
  5
202
330
1F
100
AcDbEntity
  8
0
  6
Continuous
370
    15
100
AcDbDimension
  2
*D13
 10
-46.40015619282808
 20
-4.762500000000027
 30
0.0
 11
-46.40015619282809
 21
-0.0000000000001457
 31
0.0
 70
   160
  1
%%c<>
 71
     2
 42
9.525000000000002
 52
-270.0
  3
SLDDIMSTYLE1
100
AcDbAlignedDimension
 13
-39.53000000000002
 23
4.762500000000001
 33
0.0
 14
-39.53000000000002
 24
-4.762500000000001
 34
0.0
 50
90.0000000000002
100
AcDbRotatedDimension
1001
ACAD
1000
DSTYLE
1002
{
1070
   171
1070
     6
1070
   273
1070
     7
1002
}
1001
ACAD_DSTYLE_DIMFLIPARROW_SYMBOL
1070
   385
1070
     0
1001
ACAD_DSTYLE_DIMFLIPARROW_WHICH_SYMBOL
1070
   386
1070
     3
  0
DIMENSION
  5
203
330
1F
100
AcDbEntity
  8
0
  6
Continuous
370
    15
100
AcDbDimension
  2
*D14
 10
-40.80000000000002
 20
32.96507939495149
 30
0.0
 11
-2.70000000000001
 21
32.96507939495149
 31
0.0
 70
   160
  1
<>
 71
     2
 42
76.20000000000002
  3
SLDDIMSTYLE1
100
AcDbAlignedDimension
 13
35.39999999999998
 23
6.350000000000046
 33
0.0
 14
-40.80000000000003
 24
3.492500000000004
 34
0.0
 50
0.000000000000004
100
AcDbRotatedDimension
1001
ACAD
1000
DSTYLE
1002
{
1070
   171
1070
     6
1070
   273
1070
     7
1002
}
  0
DIMENSION
  5
204
330
1F
100
AcDbEntity
  8
0
  6
Continuous
370
    15
100
AcDbDimension
  2
*D15
 10
9.99999999999995
 20
16.10351349602841
 30
0.0
 11
22.69999999999997
 21
16.10351349602841
 31
0.0
 70
   160
  1
<>
 71
     2
 42
25.40000000000003
  3
SLDDIMSTYLE1
100
AcDbAlignedDimension
 13
35.39999999999998
 23
6.350000000000046
 33
0.0
 14
9.99999999999995
 24
5.86258960761427
 34
0.0
100
AcDbRotatedDimension
1001
ACAD
1000
DSTYLE
1002
{
1070
   171
1070
     6
1070
   273
1070
     7
1002
}
  0
DIMENSION
  5
205
330
1F
100
AcDbEntity
  8
0
  6
Continuous
370
    15
100
AcDbDimension
  2
*D16
 10
48.16916755517066
 20
-4.762499999999957
 30
0.0
 11
48.16916755517055
 21
23.43325000000007
 31
0.0
 70
   160
  1
%%c<>
 71
     2
 42
9.525000000000002
 52
-270.0
  3
SLDDIMSTYLE1
100
AcDbAlignedDimension
 13
35.4
 23
4.7625
 33
0.0
 14
35.4
 24
-4.762500000000001
 34
0.0
 50
90.0000000000002
100
AcDbRotatedDimension
1001
ACAD
1000
DSTYLE
1002
{
1070
   171
1070
     6
1070
   273
1070
     7
1002
}
  0
INSERT
  5
206
330
1F
100
AcDbEntity
  8
해칭선
100
AcDbBlockReference
  2
SW_DOWELSYMBOL_0
 10
0.0
 20
0.0
 30
0.0
  0
LINE
  5
245
330
1F
100
AcDbEntity
  8
외형선
  6
Continuous
370
    15
100
AcDbLine
 10
10.0
 20
4.762500000000001
 30
0.0
 11
10.0
 21
-4.762500000000001
 31
0.0
  0
LINE
  5
246
330
1F
100
AcDbEntity
  8
외형선
  6
Continuous
370
    15
100
AcDbLine
 10
-40.80000000000003
 20
-0.0000000000000124
 30
0.0
 11
-40.80000000000003
 21
3.492500000000004
 31
0.0
  0
SPLINE
  5
249
330
1F
100
AcDbEntity
  8
0
  6
Continuous
 62
     1
370
    15
100
AcDbSpline
210
0.0
220
0.0
230
1.0
 70
     8
 71
     3
 72
     9
 73
     5
 74
     3
 42
0.000000001
 43
0.0000000001
 44
0.0
 40
0.0
 40
0.0
 40
0.0
 40
0.0
 40
3.254594418637778
 40
6.361575890990261
 40
6.361575890990261
 40
6.361575890990261
 40
6.361575890990261
 10
16.34999999999996
 20
4.396942205710713
 30
0.0
 10
15.26879315851666
 20
4.488750330719609
 30
0.0
 10
13.15541788307057
 20
4.668202600197189
 30
0.0
 10
11.03540851304183
 20
4.731557559368801
 30
0.0
 10
10.0
 20
4.762500000000001
 30
0.0
 11
16.34999999999996
 21
4.396942205710713
 31
0.0
 11
13.10464309071332
 21
4.641979674628536
 31
0.0
 11
10.0
 21
4.762500000000001
 31
0.0
  0
SPLINE
  5
24B
330
1F
100
AcDbEntity
  8
0
  6
Continuous
 62
     1
370
    15
100
AcDbSpline
210
0.0
220
0.0
230
1.0
 70
     8
 71
     3
 72
     9
 73
     5
 74
     3
 42
0.000000001
 43
0.0000000001
 44
0.0
 40
0.0
 40
0.0
 40
0.0
 40
0.0
 40
2.868219537105169
 40
6.389109538441282
 40
6.389109538441282
 40
6.389109538441282
 40
6.389109538441282
 10
16.06882755652782
 20
2.884809627493242
 30
0.0
 10
15.20934610588821
 20
3.317150829453362
 30
0.0
 10
13.2948060703869
 20
4.280213545389143
 30
0.0
 10
11.17060043272488
 20
4.591150087318033
 30
0.0
 10
10.0
 20
4.762500000000001
 30
0.0
 11
16.06882755652782
 21
2.884809627493242
 31
0.0
 11
13.44812886707454
 21
4.05040891203731
 31
0.0
 11
10.0
 21
4.762500000000001
 31
0.0
  0
SPLINE
  5
24C
330
1F
100
AcDbEntity
  8
0
  6
Continuous
 62
     1
370
    15
100
AcDbSpline
210
0.0
220
0.0
230
1.0
 70
    24
 71
     3
 72
     8
 73
     4
 74
     0
 42
0.000000001
 43
0.0000000001
 40
0.0
 40
0.0
 40
0.0
 40
0.0
 40
7.122837189520761
 40
7.122837189520761
 40
7.122837189520761
 40
7.122837189520761
 10
16.34999999999996
 20
-1.829837558265752
 30
0.0
 10
14.23333333333331
 20
-0.754233871006027
 30
0.0
 10
12.11666666666665
 20
0.3213698162536983
 30
0.0
 10
9.999999999999993
 20
1.396973503513424
 30
0.0
  0
SPLINE
  5
24D
330
1F
100
AcDbEntity
  8
0
  6
Continuous
 62
     1
370
    15
100
AcDbSpline
210
0.0
220
0.0
230
1.0
 70
    24
 71
     3
 72
     8
 73
     4
 74
     0
 42
0.000000001
 43
0.0000000001
 40
0.0
 40
0.0
 40
0.0
 40
0.0
 40
7.247161405518988
 40
7.247161405518988
 40
7.247161405518988
 40
7.247161405518988
 10
16.35
 20
-3.233690591118942
 30
0.0
 10
14.1880925706283
 20
-2.15579372741263
 30
0.0
 10
12.02618514125661
 20
-1.077896863706318
 30
0.0
 10
9.864277711884911
 20
-0.0000000000000049
 30
0.0
  0
SPLINE
  5
24E
330
1F
100
AcDbEntity
  8
0
  6
Continuous
 62
     1
370
    15
100
AcDbSpline
210
0.0
220
0.0
230
1.0
 70
    24
 71
     3
 72
     8
 73
     4
 74
     2
 42
0.000000001
 43
0.0000000001
 44
0.0
 40
0.0
 40
0.0
 40
0.0
 40
0.0
 40
6.360513540663609
 40
6.360513540663609
 40
6.360513540663609
 40
6.360513540663609
 10
16.34999999999996
 20
-4.396942205710717
 30
0.0
 10
14.23333333333331
 20
-4.518794803807145
 30
0.0
 10
12.11666666666665
 20
-4.640647401903573
 30
0.0
 10
10.0
 20
-4.762500000000001
 30
0.0
 11
16.34999999999996
 21
-4.396942205710717
 31
0.0
 11
10.0
 21
-4.762500000000001
 31
0.0
  0
ARC
  5
263
330
1F
100
AcDbEntity
  8
0
  6
Continuous
 62
     1
370
    15
100
AcDbCircle
 10
33.114
 20
2.47650000000016
 30
0.0
 40
2.286
100
AcDbArc
 50
0.0
 51
90.0
  0
ARC
  5
264
102
{ACAD_REACTORS
102
}
330
1F
100
AcDbEntity
  8
0
  6
Continuous
 62
     1
370
    15
100
AcDbCircle
 10
33.114
 20
-2.476500000000157
 30
0.0
 40
2.286
100
AcDbArc
 50
270.0
 51
0.0
  0
DIMENSION
  5
265
102
{ACAD_REACTORS
102
}
102
{ACAD_XDICTIONARY
360
266
102
}
330
1F
100
AcDbEntity
  8
0
  6
Continuous
370
    15
100
AcDbDimension
  2
*D19
 10
33.114
 20
-2.476500000000157
 30
0.0
 11
47.95944117625916
 21
-25.86541580497557
 31
0.0
 70
   164
  1
<>
 71
     5
 42
2.286000000000001
  3
SLDDIMSTYLE1
100
AcDbRadialDimension
 15
34.33904028621707
 25
-4.406544636050111
 35
0.0
 40
0.0
1001
ACAD
1000
DSTYLE
1002
{
1070
   285
1070
     4
1070
   171
1070
     2
1070
   273
1070
     2
1002
}
1001
ACAD_DSTYLE_DIMRADIAL_EXTENSION
1070
   387
1070
     1
1070
   388
1040
4.71238898038469
1070
   390
1040
0.0
  0
ENDSEC
  0
SECTION
  2
OBJECTS
  0
DICTIONARY
  5
C
330
0
100
AcDbDictionary
281
     1
  3
ACAD_GROUP
350
D
  3
ACAD_IMAGE_VARS
350
137
  3
ACAD_LAYOUT
350
1A
  3
ACAD_MLINESTYLE
350
17
  3
ACAD_PLOTSETTINGS
350
19
  3
ACAD_PLOTSTYLENAME
350
E
  3
ACAD_SCALELIST
350
47
  3
APPDATA
350
135
  3
DWGPROPS
350
272
  0
DICTIONARY
  5
1D4
330
2
100
AcDbDictionary
280
     1
281
     1
  3
ACAD_LAYERSTATES
360
1D5
  0
DICTIONARY
  5
266
330
265
100
AcDbDictionary
280
     1
281
     1
  0
DICTIONARY
  5
D
102
{ACAD_REACTORS
330
C
102
}
330
C
100
AcDbDictionary
281
     1
  0
RASTERVARIABLES
  5
137
102
{ACAD_REACTORS
330
C
102
}
330
C
100
AcDbRasterVariables
 90
        0
 70
     1
 71
     1
 72
     1
  0
DICTIONARY
  5
1A
102
{ACAD_REACTORS
330
C
102
}
330
C
100
AcDbDictionary
281
     1
  3
Layout1
350
1E
  3
Layout2
350
26
  3
Model
350
22
  0
DICTIONARY
  5
17
102
{ACAD_REACTORS
330
C
102
}
330
C
100
AcDbDictionary
281
     1
  3
Standard
350
18
  0
DICTIONARY
  5
19
102
{ACAD_REACTORS
330
C
102
}
330
C
100
AcDbDictionary
281
     1
  0
ACDBDICTIONARYWDFLT
  5
E
102
{ACAD_REACTORS
330
C
102
}
330
C
100
AcDbDictionary
281
     1
  3
Normal
350
F
100
AcDbDictionaryWithDefault
340
F
  0
DICTIONARY
  5
47
102
{ACAD_REACTORS
330
C
102
}
330
C
100
AcDbDictionary
281
     1
  3
A0
350
48
  3
A1
350
49
  3
A2
350
4A
  3
A3
350
4B
  3
A4
350
4C
  3
A5
350
4D
  3
A6
350
4E
  3
A7
350
4F
  3
A8
350
50
  3
A9
350
51
  3
B0
350
52
  3
B1
350
53
  3
B2
350
54
  3
B3
350
55
  3
B4
350
56
  3
B5
350
57
  3
B6
350
58
  3
B7
350
59
  3
B8
350
5A
  3
B9
350
5B
  3
C0
350
5C
  3
C1
350
5D
  3
C2
350
5E
  3
C3
350
5F
  3
C4
350
60
  3
C5
350
61
  3
C6
350
62
  3
C7
350
63
  3
C8
350
64
  3
C9
350
65
  3
D0
350
66
  3
D1
350
67
  3
D2
350
68
  0
DICTIONARY
  5
135
102
{ACAD_REACTORS
330
C
102
}
330
C
100
AcDbDictionary
281
     1
  0
XRECORD
  5
272
102
{ACAD_REACTORS
330
C
102
}
330
C
100
AcDbXrecord
280
     1
  1
DWGPROPS COOKIE
  2

  3

  4

  6

  7

  8
12016016
  9

300
=
301
=
302
=
303
=
304
=
305
=
306
=
307
=
308
=
309
=
 40
0.0
 41
2458296.329631921
 42
2458304.07319713
  1

 90
        0
  0
DICTIONARY
  5
1D5
102
{ACAD_REACTORS
330
1D4
102
}
330
1D4
100
AcDbDictionary
281
     1
  0
LAYOUT
  5
1E
102
{ACAD_REACTORS
330
1A
102
}
330
1A
100
AcDbPlotSettings
  1

  2
none_device
  4

  6

 40
0.0
 41
0.0
 42
0.0
 43
0.0
 44
0.0
 45
0.0
 46
0.0
 47
0.0
 48
0.0
 49
0.0
140
0.0
141
0.0
142
1.0
143
1.0
 70
   688
 72
     1
 73
     0
 74
     5
  7

 75
    16
147
1.0
148
0.0
149
0.0
100
AcDbLayout
  1
Layout1
 70
     1
 71
     1
 10
0.0
 20
0.0
 11
420.0
 21
297.0
 12
0.0
 22
0.0
 32
0.0
 14
1.000000000000000E+20
 24
1.000000000000000E+20
 34
1.000000000000000E+20
 15
-1.000000000000000E+20
 25
-1.000000000000000E+20
 35
-1.000000000000000E+20
146
0.0
 13
0.0
 23
0.0
 33
0.0
 16
1.0
 26
0.0
 36
0.0
 17
0.0
 27
1.0
 37
0.0
 76
     0
330
1B
  0
LAYOUT
  5
26
102
{ACAD_REACTORS
330
1A
102
}
330
1A
100
AcDbPlotSettings
  1

  2
none_device
  4

  6

 40
0.0
 41
0.0
 42
0.0
 43
0.0
 44
0.0
 45
0.0
 46
0.0
 47
0.0
 48
0.0
 49
0.0
140
0.0
141
0.0
142
1.0
143
1.0
 70
   688
 72
     1
 73
     0
 74
     5
  7

 75
    16
147
1.0
148
0.0
149
0.0
100
AcDbLayout
  1
Layout2
 70
     1
 71
     2
 10
0.0
 20
0.0
 11
0.0
 21
0.0
 12
0.0
 22
0.0
 32
0.0
 14
0.0
 24
0.0
 34
0.0
 15
0.0
 25
0.0
 35
0.0
146
0.0
 13
0.0
 23
0.0
 33
0.0
 16
1.0
 26
0.0
 36
0.0
 17
0.0
 27
1.0
 37
0.0
 76
     0
330
23
  0
LAYOUT
  5
22
102
{ACAD_REACTORS
330
1A
102
}
330
1A
100
AcDbPlotSettings
  1

  2
none_device
  4
ANSI_A_(11.00_x_8.50_Inches)
  6

 40
6.35
 41
19.05
 42
6.35000508
 43
19.05000254
 44
279.4
 45
215.9
 46
124.9182692373073
 47
99.1022497131293
 48
0.0
 49
0.0
140
0.0
141
0.0
142
0.072109681528248
143
1.0
 70
  1696
 72
     0
 73
     0
 74
     0
  7

 75
     0
147
0.0235690232323232
148
0.0
149
0.0
100
AcDbLayout
  1
Model
 70
     1
 71
     0
 10
0.0
 20
0.0
 11
420.0
 21
297.0
 12
0.0
 22
0.0
 32
0.0
 14
1.000000000000000E+20
 24
1.000000000000000E+20
 34
1.000000000000000E+20
 15
-1.000000000000000E+20
 25
-1.000000000000000E+20
 35
-1.000000000000000E+20
146
0.0
 13
0.0
 23
0.0
 33
0.0
 16
1.0
 26
0.0
 36
0.0
 17
0.0
 27
1.0
 37
0.0
 76
     0
330
1F
331
29
  0
MLINESTYLE
  5
18
102
{ACAD_REACTORS
330
17
102
}
330
17
100
AcDbMlineStyle
  2
Standard
 70
     0
  3

 62
   256
 51
90.0
 52
90.0
 71
     2
 49
0.5
 62
   256
  6
BYLAYER
 49
-0.5
 62
   256
  6
BYLAYER
  0
ACDBPLACEHOLDER
  5
F
102
{ACAD_REACTORS
330
E
102
}
330
E
  0
SCALE
  5
48
102
{ACAD_REACTORS
330
47
102
}
330
47
100
AcDbScale
 70
     0
300
1:1
140
1.0
141
1.0
290
     1
  0
SCALE
  5
49
102
{ACAD_REACTORS
330
47
102
}
330
47
100
AcDbScale
 70
     0
300
1:2
140
1.0
141
2.0
290
     0
  0
SCALE
  5
4A
102
{ACAD_REACTORS
330
47
102
}
330
47
100
AcDbScale
 70
     0
300
1:4
140
1.0
141
4.0
290
     0
  0
SCALE
  5
4B
102
{ACAD_REACTORS
330
47
102
}
330
47
100
AcDbScale
 70
     0
300
1:5
140
1.0
141
5.0
290
     0
  0
SCALE
  5
4C
102
{ACAD_REACTORS
330
47
102
}
330
47
100
AcDbScale
 70
     0
300
1:8
140
1.0
141
8.0
290
     0
  0
SCALE
  5
4D
102
{ACAD_REACTORS
330
47
102
}
330
47
100
AcDbScale
 70
     0
300
1:10
140
1.0
141
10.0
290
     0
  0
SCALE
  5
4E
102
{ACAD_REACTORS
330
47
102
}
330
47
100
AcDbScale
 70
     0
300
1:16
140
1.0
141
16.0
290
     0
  0
SCALE
  5
4F
102
{ACAD_REACTORS
330
47
102
}
330
47
100
AcDbScale
 70
     0
300
1:20
140
1.0
141
20.0
290
     0
  0
SCALE
  5
50
102
{ACAD_REACTORS
330
47
102
}
330
47
100
AcDbScale
 70
     0
300
1:30
140
1.0
141
30.0
290
     0
  0
SCALE
  5
51
102
{ACAD_REACTORS
330
47
102
}
330
47
100
AcDbScale
 70
     0
300
1:40
140
1.0
141
40.0
290
     0
  0
SCALE
  5
52
102
{ACAD_REACTORS
330
47
102
}
330
47
100
AcDbScale
 70
     0
300
1:50
140
1.0
141
50.0
290
     0
  0
SCALE
  5
53
102
{ACAD_REACTORS
330
47
102
}
330
47
100
AcDbScale
 70
     0
300
1:100
140
1.0
141
100.0
290
     0
  0
SCALE
  5
54
102
{ACAD_REACTORS
330
47
102
}
330
47
100
AcDbScale
 70
     0
300
2:1
140
2.0
141
1.0
290
     0
  0
SCALE
  5
55
102
{ACAD_REACTORS
330
47
102
}
330
47
100
AcDbScale
 70
     0
300
4:1
140
4.0
141
1.0
290
     0
  0
SCALE
  5
56
102
{ACAD_REACTORS
330
47
102
}
330
47
100
AcDbScale
 70
     0
300
8:1
140
8.0
141
1.0
290
     0
  0
SCALE
  5
57
102
{ACAD_REACTORS
330
47
102
}
330
47
100
AcDbScale
 70
     0
300
10:1
140
10.0
141
1.0
290
     0
  0
SCALE
  5
58
102
{ACAD_REACTORS
330
47
102
}
330
47
100
AcDbScale
 70
     0
300
100:1
140
100.0
141
1.0
290
     0
  0
SCALE
  5
59
102
{ACAD_REACTORS
330
47
102
}
330
47
100
AcDbScale
 70
     0
300
1/128" = 1'-0"
140
0.0078125
141
12.0
290
     0
  0
SCALE
  5
5A
102
{ACAD_REACTORS
330
47
102
}
330
47
100
AcDbScale
 70
     0
300
1/64" = 1'-0"
140
0.015625
141
12.0
290
     0
  0
SCALE
  5
5B
102
{ACAD_REACTORS
330
47
102
}
330
47
100
AcDbScale
 70
     0
300
1/32" = 1'-0"
140
0.03125
141
12.0
290
     0
  0
SCALE
  5
5C
102
{ACAD_REACTORS
330
47
102
}
330
47
100
AcDbScale
 70
     0
300
1/16" = 1'-0"
140
0.0625
141
12.0
290
     0
  0
SCALE
  5
5D
102
{ACAD_REACTORS
330
47
102
}
330
47
100
AcDbScale
 70
     0
300
3/32" = 1'-0"
140
0.09375
141
12.0
290
     0
  0
SCALE
  5
5E
102
{ACAD_REACTORS
330
47
102
}
330
47
100
AcDbScale
 70
     0
300
1/8" = 1'-0"
140
0.125
141
12.0
290
     0
  0
SCALE
  5
5F
102
{ACAD_REACTORS
330
47
102
}
330
47
100
AcDbScale
 70
     0
300
3/16" = 1'-0"
140
0.1875
141
12.0
290
     0
  0
SCALE
  5
60
102
{ACAD_REACTORS
330
47
102
}
330
47
100
AcDbScale
 70
     0
300
1/4" = 1'-0"
140
0.25
141
12.0
290
     0
  0
SCALE
  5
61
102
{ACAD_REACTORS
330
47
102
}
330
47
100
AcDbScale
 70
     0
300
3/8" = 1'-0"
140
0.375
141
12.0
290
     0
  0
SCALE
  5
62
102
{ACAD_REACTORS
330
47
102
}
330
47
100
AcDbScale
 70
     0
300
1/2" = 1'-0"
140
0.5
141
12.0
290
     0
  0
SCALE
  5
63
102
{ACAD_REACTORS
330
47
102
}
330
47
100
AcDbScale
 70
     0
300
3/4" = 1'-0"
140
0.75
141
12.0
290
     0
  0
SCALE
  5
64
102
{ACAD_REACTORS
330
47
102
}
330
47
100
AcDbScale
 70
     0
300
1" = 1'-0"
140
1.0
141
12.0
290
     0
  0
SCALE
  5
65
102
{ACAD_REACTORS
330
47
102
}
330
47
100
AcDbScale
 70
     0
300
1-1/2" = 1'-0"
140
1.5
141
12.0
290
     0
  0
SCALE
  5
66
102
{ACAD_REACTORS
330
47
102
}
330
47
100
AcDbScale
 70
     0
300
3" = 1'-0"
140
3.0
141
12.0
290
     0
  0
SCALE
  5
67
102
{ACAD_REACTORS
330
47
102
}
330
47
100
AcDbScale
 70
     0
300
6" = 1'-0"
140
6.0
141
12.0
290
     0
  0
SCALE
  5
68
102
{ACAD_REACTORS
330
47
102
}
330
47
100
AcDbScale
 70
     0
300
1'-0" = 1'-0"
140
12.0
141
12.0
290
     0
  0
ENDSEC
  0
EOF
