  0
SECTION
  2
HEADER
  9
$ACADVER
  1
AC1015
  9
$ACADMAINTVER
 70
     6
  9
$DWGCODEPAGE
  3
ANSI_949
  9
$INSBASE
 10
0.0
 20
0.0
 30
0.0
  9
$EXTMIN
 10
1.000000000000000E+20
 20
1.000000000000000E+20
 30
1.000000000000000E+20
  9
$EXTMAX
 10
-1.000000000000000E+20
 20
-1.000000000000000E+20
 30
-1.000000000000000E+20
  9
$LIMMIN
 10
0.0
 20
0.0
  9
$LIMMAX
 10
420.0
 20
297.0
  9
$ORTHOMODE
 70
     0
  9
$REGENMODE
 70
     1
  9
$FILLMODE
 70
     1
  9
$QTEXTMODE
 70
     0
  9
$MIRRTEXT
 70
     1
  9
$LTSCALE
 40
1.0
  9
$ATTMODE
 70
     1
  9
$TEXTSIZE
 40
3.5
  9
$TRACEWID
 40
1.0
  9
$TEXTSTYLE
  7
Standard
  9
$CLAYER
  8
0
  9
$CELTYPE
  6
ByLayer
  9
$CECOLOR
 62
   256
  9
$CELTSCALE
 40
1.0
  9
$DISPSILH
 70
     0
  9
$DIMSCALE
 40
1.0
  9
$DIMASZ
 40
3.302
  9
$DIMEXO
 40
1.0
  9
$DIMDLI
 40
3.75
  9
$DIMRND
 40
0.0
  9
$DIMDLE
 40
0.0
  9
$DIMEXE
 40
1.0
  9
$DIMTP
 40
0.0
  9
$DIMTM
 40
0.0
  9
$DIMTXT
 40
3.5
  9
$DIMCEN
 40
2.5
  9
$DIMTSZ
 40
0.0
  9
$DIMTOL
 70
     0
  9
$DIMLIM
 70
     0
  9
$DIMTIH
 70
     1
  9
$DIMTOH
 70
     1
  9
$DIMSE1
 70
     0
  9
$DIMSE2
 70
     0
  9
$DIMTAD
 70
     1
  9
$DIMZIN
 70
     0
  9
$DIMBLK
  1

  9
$DIMASO
 70
     1
  9
$DIMSHO
 70
     1
  9
$DIMPOST
  1

  9
$DIMAPOST
  1

  9
$DIMALT
 70
     0
  9
$DIMALTD
 70
     3
  9
$DIMALTF
 40
0.0393700787401575
  9
$DIMLFAC
 40
1.0
  9
$DIMTOFL
 70
     1
  9
$DIMTVP
 40
0.0
  9
$DIMTIX
 70
     0
  9
$DIMSOXD
 70
     0
  9
$DIMSAH
 70
     0
  9
$DIMBLK1
  1

  9
$DIMBLK2
  1

  9
$DIMSTYLE
  2
ISO-25
  9
$DIMCLRD
 70
     0
  9
$DIMCLRE
 70
     0
  9
$DIMCLRT
 70
     0
  9
$DIMTFAC
 40
1.0
  9
$DIMGAP
 40
1.524
  9
$DIMJUST
 70
     0
  9
$DIMSD1
 70
     0
  9
$DIMSD2
 70
     0
  9
$DIMTOLJ
 70
     0
  9
$DIMTZIN
 70
     0
  9
$DIMALTZ
 70
     0
  9
$DIMALTTZ
 70
     0
  9
$DIMUPT
 70
     0
  9
$DIMDEC
 70
     2
  9
$DIMTDEC
 70
     2
  9
$DIMALTU
 70
     2
  9
$DIMALTTD
 70
     3
  9
$DIMTXSTY
  7
Standard
  9
$DIMAUNIT
 70
     0
  9
$DIMADEC
 70
     2
  9
$DIMALTRND
 40
0.0
  9
$DIMAZIN
 70
     0
  9
$DIMDSEP
 70
    44
  9
$DIMATFIT
 70
     3
  9
$DIMFRAC
 70
     0
  9
$DIMLDRBLK
  1

  9
$DIMLUNIT
 70
     2
  9
$DIMLWD
 70
    -2
  9
$DIMLWE
 70
    -2
  9
$DIMTMOVE
 70
     0
  9
$LUNITS
 70
     2
  9
$LUPREC
 70
     2
  9
$SKETCHINC
 40
1.0
  9
$FILLETRAD
 40
10.0
  9
$AUNITS
 70
     0
  9
$AUPREC
 70
     2
  9
$MENU
  1
.
  9
$ELEVATION
 40
0.0
  9
$PELEVATION
 40
0.0
  9
$THICKNESS
 40
0.0
  9
$LIMCHECK
 70
     0
  9
$CHAMFERA
 40
0.0
  9
$CHAMFERB
 40
0.0
  9
$CHAMFERC
 40
0.0
  9
$CHAMFERD
 40
0.0
  9
$SKPOLY
 70
     0
  9
$TDCREATE
 40
2458296.707219109
  9
$TDUCREATE
 40
2458296.332219109
  9
$TDUPDATE
 40
2458296.768381863
  9
$TDUUPDATE
 40
2458296.393381863
  9
$TDINDWG
 40
0.0012773495
  9
$TDUSRTIMER
 40
2458296.392104861
  9
$USRTIMER
 70
     1
  9
$ANGBASE
 50
0.0
  9
$ANGDIR
 70
     0
  9
$PDMODE
 70
     0
  9
$PDSIZE
 40
-1.0
  9
$PLINEWID
 40
0.0
  9
$SPLFRAME
 70
     0
  9
$SPLINETYPE
 70
     6
  9
$SPLINESEGS
 70
     8
  9
$HANDSEED
  5
26E
  9
$SURFTAB1
 70
     6
  9
$SURFTAB2
 70
     6
  9
$SURFTYPE
 70
     6
  9
$SURFU
 70
     6
  9
$SURFV
 70
     6
  9
$UCSBASE
  2

  9
$UCSNAME
  2

  9
$UCSORG
 10
0.0
 20
0.0
 30
0.0
  9
$UCSXDIR
 10
1.0
 20
0.0
 30
0.0
  9
$UCSYDIR
 10
0.0
 20
1.0
 30
0.0
  9
$UCSORTHOREF
  2

  9
$UCSORTHOVIEW
 70
     0
  9
$UCSORGTOP
 10
0.0
 20
0.0
 30
0.0
  9
$UCSORGBOTTOM
 10
0.0
 20
0.0
 30
0.0
  9
$UCSORGLEFT
 10
0.0
 20
0.0
 30
0.0
  9
$UCSORGRIGHT
 10
0.0
 20
0.0
 30
0.0
  9
$UCSORGFRONT
 10
0.0
 20
0.0
 30
0.0
  9
$UCSORGBACK
 10
0.0
 20
0.0
 30
0.0
  9
$PUCSBASE
  2

  9
$PUCSNAME
  2

  9
$PUCSORG
 10
0.0
 20
0.0
 30
0.0
  9
$PUCSXDIR
 10
1.0
 20
0.0
 30
0.0
  9
$PUCSYDIR
 10
0.0
 20
1.0
 30
0.0
  9
$PUCSORTHOREF
  2

  9
$PUCSORTHOVIEW
 70
     0
  9
$PUCSORGTOP
 10
0.0
 20
0.0
 30
0.0
  9
$PUCSORGBOTTOM
 10
0.0
 20
0.0
 30
0.0
  9
$PUCSORGLEFT
 10
0.0
 20
0.0
 30
0.0
  9
$PUCSORGRIGHT
 10
0.0
 20
0.0
 30
0.0
  9
$PUCSORGFRONT
 10
0.0
 20
0.0
 30
0.0
  9
$PUCSORGBACK
 10
0.0
 20
0.0
 30
0.0
  9
$USERI1
 70
     0
  9
$USERI2
 70
     0
  9
$USERI3
 70
     0
  9
$USERI4
 70
     0
  9
$USERI5
 70
     0
  9
$USERR1
 40
0.0
  9
$USERR2
 40
0.0
  9
$USERR3
 40
0.0
  9
$USERR4
 40
0.0
  9
$USERR5
 40
0.0
  9
$WORLDVIEW
 70
     1
  9
$SHADEDGE
 70
     3
  9
$SHADEDIF
 70
    70
  9
$TILEMODE
 70
     1
  9
$MAXACTVP
 70
    64
  9
$PINSBASE
 10
0.0
 20
0.0
 30
0.0
  9
$PLIMCHECK
 70
     0
  9
$PEXTMIN
 10
1.000000000000000E+20
 20
1.000000000000000E+20
 30
1.000000000000000E+20
  9
$PEXTMAX
 10
-1.000000000000000E+20
 20
-1.000000000000000E+20
 30
-1.000000000000000E+20
  9
$PLIMMIN
 10
0.0
 20
0.0
  9
$PLIMMAX
 10
0.0
 20
0.0
  9
$UNITMODE
 70
     0
  9
$VISRETAIN
 70
     1
  9
$PLINEGEN
 70
     0
  9
$PSLTSCALE
 70
     1
  9
$TREEDEPTH
 70
  3020
  9
$CMLSTYLE
  2
Standard
  9
$CMLJUST
 70
     0
  9
$CMLSCALE
 40
20.0
  9
$PROXYGRAPHICS
 70
     1
  9
$MEASUREMENT
 70
     1
  9
$CELWEIGHT
370
    -1
  9
$ENDCAPS
280
     0
  9
$JOINSTYLE
280
     0
  9
$LWDISPLAY
290
     1
  9
$INSUNITS
 70
     4
  9
$HYPERLINKBASE
  1

  9
$STYLESHEET
  1

  9
$XEDIT
290
     1
  9
$CEPSNTYPE
380
     0
  9
$PSTYLEMODE
290
     1
  9
$FINGERPRINTGUID
  2
{8346C04A-8F24-4BB0-8833-C73E115EA08D}
  9
$VERSIONGUID
  2
{FAEB1C32-E019-11D5-929B-00C0DF256EC4}
  9
$EXTNAMES
290
     1
  9
$PSVPSCALE
 40
0.0
  9
$OLESTARTUP
290
     0
  0
ENDSEC
  0
SECTION
  2
CLASSES
  0
CLASS
  1
ACDBDICTIONARYWDFLT
  2
AcDbDictionaryWithDefault
  3
ObjectDBX Classes
 90
        0
280
     0
281
     0
  0
CLASS
  1
VISUALSTYLE
  2
AcDbVisualStyle
  3
ObjectDBX Classes
 90
     4095
280
     0
281
     0
  0
CLASS
  1
MATERIAL
  2
AcDbMaterial
  3
ObjectDBX Classes
 90
     1153
280
     0
281
     0
  0
CLASS
  1
SCALE
  2
AcDbScale
  3
ObjectDBX Classes
 90
     1153
280
     0
281
     0
  0
CLASS
  1
SUN
  2
AcDbSun
  3
SCENEOE
 90
     1153
280
     0
281
     0
  0
CLASS
  1
ACDBPLACEHOLDER
  2
AcDbPlaceHolder
  3
ObjectDBX Classes
 90
        0
280
     0
281
     0
  0
CLASS
  1
LAYOUT
  2
AcDbLayout
  3
ObjectDBX Classes
 90
        0
280
     0
281
     0
  0
CLASS
  1
TABLESTYLE
  2
AcDbTableStyle
  3
ObjectDBX Classes
 90
     4095
280
     0
281
     0
  0
CLASS
  1
MLEADERSTYLE
  2
AcDbMLeaderStyle
  3
ACDB_MLEADERSTYLE_CLASS
 90
     4095
280
     0
281
     0
  0
CLASS
  1
RASTERVARIABLES
  2
AcDbRasterVariables
  3
ISM
 90
        0
280
     0
281
     0
  0
CLASS
  1
DIMASSOC
  2
AcDbDimAssoc
  3
"AcDbDimAssoc|Product Desc:     AcDim ARX App For Dimension|Company:          Autodesk, Inc.|WEB Address:      www.autodesk.com"
 90
        0
280
     0
281
     0
  0
ENDSEC
  0
SECTION
  2
TABLES
  0
TABLE
  2
VPORT
  5
8
330
0
100
AcDbSymbolTable
 70
     1
  0
VPORT
  5
29
330
8
100
AcDbSymbolTableRecord
100
AcDbViewportTableRecord
  2
*Active
 70
     0
 10
0.0
 20
0.0
 11
1.0
 21
1.0
 12
-7.518779185320653
 22
6.121842771361727
 13
0.0
 23
0.0
 14
10.0
 24
10.0
 15
10.0
 25
10.0
 16
0.0
 26
0.0
 36
1.0
 17
0.0
 27
0.0
 37
0.0
 40
95.16929755036779
 41
1.798434442270059
 42
50.0
 43
0.0
 44
0.0
 50
0.0
 51
0.0
 71
    16
 72
  2000
 73
     1
 74
     3
 75
     0
 76
     0
 77
     0
 78
     0
281
     0
 65
     1
110
0.0
120
0.0
130
0.0
111
1.0
121
0.0
131
0.0
112
0.0
122
1.0
132
0.0
 79
     0
146
0.0
  0
ENDTAB
  0
TABLE
  2
LTYPE
  5
5
330
0
100
AcDbSymbolTable
 70
     6
  0
LTYPE
  5
14
330
5
100
AcDbSymbolTableRecord
100
AcDbLinetypeTableRecord
  2
ByBlock
 70
     0
  3

 72
    65
 73
     0
 40
0.0
  0
LTYPE
  5
15
330
5
100
AcDbSymbolTableRecord
100
AcDbLinetypeTableRecord
  2
ByLayer
 70
     0
  3

 72
    65
 73
     0
 40
0.0
  0
LTYPE
  5
16
330
5
100
AcDbSymbolTableRecord
100
AcDbLinetypeTableRecord
  2
Continuous
 70
     0
  3
Solid line
 72
    65
 73
     0
 40
0.0
  0
LTYPE
  5
6A
330
5
100
AcDbSymbolTableRecord
100
AcDbLinetypeTableRecord
  2
HIDDEN
 70
     0
  3
Hidden __ __ __ __ __ __ __ __ __ __ __ __ __ __
 72
    65
 73
     2
 40
1.905
 49
1.27
 74
     0
 49
-0.635
 74
     0
  0
LTYPE
  5
6B
330
5
100
AcDbSymbolTableRecord
100
AcDbLinetypeTableRecord
  2
PHANTOM
 70
     0
  3
Phantom ______  __  __  ______  __  __  ______
 72
    65
 73
     6
 40
12.7
 49
6.35
 74
     0
 49
-1.27
 74
     0
 49
1.27
 74
     0
 49
-1.27
 74
     0
 49
1.27
 74
     0
 49
-1.27
 74
     0
  0
LTYPE
  5
6C
330
5
100
AcDbSymbolTableRecord
100
AcDbLinetypeTableRecord
  2
CENTER
 70
     0
  3
Center ____ _ ____ _ ____ _ ____ _ ____ _ ____
 72
    65
 73
     4
 40
10.16
 49
6.35
 74
     0
 49
-1.27
 74
     0
 49
1.27
 74
     0
 49
-1.27
 74
     0
  0
LTYPE
  5
6D
330
5
100
AcDbSymbolTableRecord
100
AcDbLinetypeTableRecord
  2
CENTERX2
 70
     0
  3
Center (2x) ________  __  ________  __  _____
 72
    65
 73
     4
 40
20.32
 49
12.7
 74
     0
 49
-2.54
 74
     0
 49
2.54
 74
     0
 49
-2.54
 74
     0
  0
LTYPE
  5
6E
330
5
100
AcDbSymbolTableRecord
100
AcDbLinetypeTableRecord
  2
DOT2
 70
     0
  3
Dot (.5x) ........................................
 72
    65
 73
     2
 40
0.635
 49
0.0
 74
     0
 49
-0.635
 74
     0
  0
ENDTAB
  0
TABLE
  2
LAYER
  5
2
102
{ACAD_XDICTIONARY
360
1E7
102
}
330
0
100
AcDbSymbolTable
 70
    18
  0
LAYER
  5
10
330
2
100
AcDbSymbolTableRecord
100
AcDbLayerTableRecord
  2
0
 70
     0
 62
     7
  6
Continuous
370
    -3
390
F
  0
LAYER
  5
6F
330
2
100
AcDbSymbolTableRecord
100
AcDbLayerTableRecord
  2
FORMAT
 70
     0
 62
     2
  6
Continuous
370
    -3
390
F
  0
LAYER
  5
70
330
2
100
AcDbSymbolTableRecord
100
AcDbLayerTableRecord
  2
외형선
 70
     0
 62
     4
  6
Continuous
370
    30
390
F
  0
LAYER
  5
71
330
2
100
AcDbSymbolTableRecord
100
AcDbLayerTableRecord
  2
숨은선
 70
     0
 62
     2
  6
HIDDEN
370
    15
390
F
  0
LAYER
  5
72
330
2
100
AcDbSymbolTableRecord
100
AcDbLayerTableRecord
  2
중심선
 70
     0
 62
     1
  6
CENTERX2
370
    -3
390
F
  0
LAYER
  5
73
330
2
100
AcDbSymbolTableRecord
100
AcDbLayerTableRecord
  2
파단선
 70
     0
 62
     4
  6
Continuous
370
    -3
390
F
  0
LAYER
  5
74
330
2
100
AcDbSymbolTableRecord
100
AcDbLayerTableRecord
  2
해칭선
 70
     0
 62
   100
  6
Continuous
370
    -3
390
F
  0
LAYER
  5
75
330
2
100
AcDbSymbolTableRecord
100
AcDbLayerTableRecord
  2
가는실선
 70
     0
 62
     4
  6
Continuous
370
    -3
390
F
  0
LAYER
  5
76
330
2
100
AcDbSymbolTableRecord
100
AcDbLayerTableRecord
  2
치수_보조선
 70
     0
 62
     4
  6
Continuous
370
    -3
390
F
  0
LAYER
  5
77
330
2
100
AcDbSymbolTableRecord
100
AcDbLayerTableRecord
  2
치수문자_일반주서
 70
     0
 62
     7
  6
Continuous
370
    15
390
F
  0
LAYER
  5
78
330
2
100
AcDbSymbolTableRecord
100
AcDbLayerTableRecord
  2
개별주서
 70
     0
 62
   100
  6
Continuous
370
    30
390
F
  0
LAYER
  5
79
330
2
100
AcDbSymbolTableRecord
100
AcDbLayerTableRecord
  2
중간선
 70
     0
 62
     2
  6
Continuous
370
    15
390
F
  0
LAYER
  5
7A
330
2
100
AcDbSymbolTableRecord
100
AcDbLayerTableRecord
  2
윤곽선
 70
     0
 62
     3
  6
Continuous
370
    40
390
F
  0
LAYER
  5
7B
330
2
100
AcDbSymbolTableRecord
100
AcDbLayerTableRecord
  2
중심마크
 70
     0
 62
   100
  6
Continuous
370
    30
390
F
  0
LAYER
  5
7C
330
2
100
AcDbSymbolTableRecord
100
AcDbLayerTableRecord
  2
가상선
 70
     0
 62
     4
  6
PHANTOM
370
    -3
390
F
  0
LAYER
  5
7D
330
2
100
AcDbSymbolTableRecord
100
AcDbLayerTableRecord
  2
특수지정선
 70
     0
 62
     5
  6
CENTERX2
370
    60
390
F
  0
LAYER
  5
7E
330
2
100
AcDbSymbolTableRecord
100
AcDbLayerTableRecord
  2
참조1
 70
     0
 62
    -4
  6
Continuous
370
    -3
390
F
  0
LAYER
  5
14A
330
2
100
AcDbSymbolTableRecord
100
AcDbLayerTableRecord
  2
Defpoints
 70
     0
 62
     7
  6
Continuous
290
     0
370
    -3
390
F
  0
ENDTAB
  0
TABLE
  2
STYLE
  5
3
330
0
100
AcDbSymbolTable
 70
     2
  0
STYLE
  5
11
330
3
100
AcDbSymbolTableRecord
100
AcDbTextStyleTableRecord
  2
Standard
 70
     0
 40
0.0
 41
1.0
 50
0.0
 71
     0
 42
3.5
  3
txt
  4

  0
STYLE
  5
94
330
3
100
AcDbSymbolTableRecord
100
AcDbTextStyleTableRecord
  2
SLDTEXTSTYLE0
 70
     0
 40
0.0
 41
0.75
 50
0.0
 71
     0
 42
3.5
  3
TXT
  4

  0
ENDTAB
  0
TABLE
  2
VIEW
  5
6
330
0
100
AcDbSymbolTable
 70
     0
  0
ENDTAB
  0
TABLE
  2
UCS
  5
7
330
0
100
AcDbSymbolTable
 70
     0
  0
ENDTAB
  0
TABLE
  2
APPID
  5
9
330
0
100
AcDbSymbolTable
 70
     2
  0
APPID
  5
12
330
9
100
AcDbSymbolTableRecord
100
AcDbRegAppTableRecord
  2
ACAD
 70
     0
  0
APPID
  5
155
330
9
100
AcDbSymbolTableRecord
100
AcDbRegAppTableRecord
  2
ACAD_DSTYLE_DIMRADIAL_EXTENSION
 70
     0
  0
ENDTAB
  0
TABLE
  2
DIMSTYLE
  5
A
330
0
100
AcDbSymbolTable
 70
     5
100
AcDbDimStyleTable
  0
DIMSTYLE
105
27
330
A
100
AcDbSymbolTableRecord
100
AcDbDimStyleTableRecord
  2
ISO-25
 70
     0
 41
2.5
 42
0.625
 43
3.75
 44
1.25
 73
     0
 74
     0
 77
     1
 78
     8
140
2.5
141
2.5
143
0.03937007874016
147
0.625
171
     3
172
     1
178
     0
271
     2
272
     2
274
     3
278
    44
283
     0
284
     8
340
11
  0
DIMSTYLE
105
CC
330
A
100
AcDbSymbolTableRecord
100
AcDbDimStyleTableRecord
  2
SLDDIMSTYLE0
 70
     0
 41
3.302
 44
0.0
 45
0.000000001
 73
     0
 74
     0
 77
     1
 78
    12
 79
     3
140
3.5
147
0.875
172
     1
173
     1
178
     0
271
     2
272
     2
276
     2
284
    12
289
     0
340
94
  0
DIMSTYLE
105
DA
102
{ACAD_REACTORS
330
199
330
1A6
330
1B3
330
1C0
330
211
330
212
330
213
330
214
102
}
330
A
100
AcDbSymbolTableRecord
100
AcDbDimStyleTableRecord
  2
SLDDIMSTYLE1
 70
     0
 41
3.302
 44
0.0
 45
0.000000001
 73
     0
 74
     0
 77
     1
 78
     4
 79
     1
140
3.5
143
0.0393700787401575
147
0.875
148
0.000000001
170
     1
173
     1
178
     0
271
     2
272
     2
276
     2
284
    12
340
94
  0
DIMSTYLE
105
EE
102
{ACAD_REACTORS
330
1DB
330
260
102
}
330
A
100
AcDbSymbolTableRecord
100
AcDbDimStyleTableRecord
  2
SLDDIMSTYLE2
 70
     0
 41
3.302
 44
0.0
 45
0.000000001
 73
     0
 74
     0
 77
     1
 78
     4
 79
     1
140
3.5
143
0.0393700787401575
147
0.875
148
0.000000001
170
     1
172
     1
173
     1
178
     0
271
     2
272
     2
276
     2
284
    12
289
     0
340
94
  0
DIMSTYLE
105
104
330
A
100
AcDbSymbolTableRecord
100
AcDbDimStyleTableRecord
  2
SLDDIMSTYLE3
 70
     0
 41
3.302
 44
0.0
 45
0.000000001
 73
     0
 74
     0
 77
     1
 78
    12
 79
     3
140
3.5
143
0.0393700787401575
147
0.875
148
0.000000001
170
     1
173
     1
178
     0
271
     2
272
     2
276
     2
284
    12
340
94
  0
ENDTAB
  0
TABLE
  2
BLOCK_RECORD
  5
1
330
0
100
AcDbSymbolTable
 70
    19
  0
BLOCK_RECORD
  5
1F
330
1
100
AcDbSymbolTableRecord
100
AcDbBlockTableRecord
  2
*Model_Space
340
22
  0
BLOCK_RECORD
  5
1B
330
1
100
AcDbSymbolTableRecord
100
AcDbBlockTableRecord
  2
*Paper_Space
340
1E
  0
BLOCK_RECORD
  5
23
330
1
100
AcDbSymbolTableRecord
100
AcDbBlockTableRecord
  2
*Paper_Space0
340
26
  0
BLOCK_RECORD
  5
7F
330
1
100
AcDbSymbolTableRecord
100
AcDbBlockTableRecord
  2
블럭10
340
0
102
{BLKREFS
331
C4
102
}
  0
BLOCK_RECORD
  5
CD
330
1
100
AcDbSymbolTableRecord
100
AcDbBlockTableRecord
  2
_D
340
0
  0
BLOCK_RECORD
  5
DB
330
1
100
AcDbSymbolTableRecord
100
AcDbBlockTableRecord
  2
_D_1
340
0
  0
BLOCK_RECORD
  5
EF
330
1
100
AcDbSymbolTableRecord
100
AcDbBlockTableRecord
  2
_D_2
340
0
  0
BLOCK_RECORD
  5
105
330
1
100
AcDbSymbolTableRecord
100
AcDbBlockTableRecord
  2
_D_3
340
0
  0
BLOCK_RECORD
  5
11E
330
1
100
AcDbSymbolTableRecord
100
AcDbBlockTableRecord
  2
SW_DOWELSYMBOL_0
340
0
102
{BLKREFS
331
0
331
1CE
331
215
102
}
  0
BLOCK_RECORD
  5
19A
330
1
100
AcDbSymbolTableRecord
100
AcDbBlockTableRecord
  2
*D8
340
0
  0
BLOCK_RECORD
  5
1A7
330
1
100
AcDbSymbolTableRecord
100
AcDbBlockTableRecord
  2
*D9
340
0
  0
BLOCK_RECORD
  5
1B4
330
1
100
AcDbSymbolTableRecord
100
AcDbBlockTableRecord
  2
*D10
340
0
  0
BLOCK_RECORD
  5
1C1
330
1
100
AcDbSymbolTableRecord
100
AcDbBlockTableRecord
  2
*D11
340
0
  0
BLOCK_RECORD
  5
1DE
330
1
100
AcDbSymbolTableRecord
100
AcDbBlockTableRecord
  2
*D12
340
0
  0
BLOCK_RECORD
  5
21F
330
1
100
AcDbSymbolTableRecord
100
AcDbBlockTableRecord
  2
*D13
340
0
  0
BLOCK_RECORD
  5
22B
330
1
100
AcDbSymbolTableRecord
100
AcDbBlockTableRecord
  2
*D14
340
0
  0
BLOCK_RECORD
  5
237
330
1
100
AcDbSymbolTableRecord
100
AcDbBlockTableRecord
  2
*D15
340
0
  0
BLOCK_RECORD
  5
243
330
1
100
AcDbSymbolTableRecord
100
AcDbBlockTableRecord
  2
*D16
340
0
  0
BLOCK_RECORD
  5
250
330
1
100
AcDbSymbolTableRecord
100
AcDbBlockTableRecord
  2
*D17
340
0
  0
BLOCK_RECORD
  5
263
330
1
100
AcDbSymbolTableRecord
100
AcDbBlockTableRecord
  2
*D18
340
0
  0
ENDTAB
  0
ENDSEC
  0
SECTION
  2
BLOCKS
  0
BLOCK
  5
20
330
1F
100
AcDbEntity
  8
0
100
AcDbBlockBegin
  2
*Model_Space
 70
     0
 10
0.0
 20
0.0
 30
0.0
  3
*Model_Space
  1
*Model_Space
  0
ENDBLK
  5
21
330
1F
100
AcDbEntity
  8
0
100
AcDbBlockEnd
  0
BLOCK
  5
1C
330
1B
100
AcDbEntity
 67
     1
  8
0
100
AcDbBlockBegin
  2
*Paper_Space
 70
     0
 10
0.0
 20
0.0
 30
0.0
  3
*Paper_Space
  1
*Paper_Space
  0
ENDBLK
  5
1D
330
1B
100
AcDbEntity
 67
     1
  8
0
100
AcDbBlockEnd
  0
BLOCK
  5
24
330
23
100
AcDbEntity
  8
0
100
AcDbBlockBegin
  2
*Paper_Space0
 70
     0
 10
0.0
 20
0.0
 30
0.0
  3
*Paper_Space0
  1
*Paper_Space0
  0
ENDBLK
  5
25
330
23
100
AcDbEntity
  8
0
100
AcDbBlockEnd
  0
BLOCK
  5
80
330
7F
100
AcDbEntity
  8
0
100
AcDbBlockBegin
  2
블럭10
 70
     2
 10
0.0
 20
0.0
 30
0.0
  3
블럭10
  1
블럭10
  0
ELLIPSE
  5
82
330
7F
100
AcDbEntity
  8
중심선
100
AcDbEllipse
 10
20.54032771741204
 20
12.0471743016438
 30
0.0
 11
6.600054785286829
 21
-1.261213355974178E-13
 31
0.0
210
0.0
220
0.0
230
1.0
 40
0.636358354079598
 41
0.9219305317359503
 42
6.513795318482858
  0
ELLIPSE
  5
83
330
7F
100
AcDbEntity
  8
중심선
100
AcDbEllipse
 10
20.54032771746488
 20
12.04717430159265
 30
0.0
 11
3.960054785062283
 21
1.540847449632565E-10
 31
0.0
210
0.0
220
0.0
230
1.0
 40
0.3939339440162632
 41
1.131841032648279
 42
5.62031148352944
  0
LINE
  5
84
330
7F
100
AcDbEntity
  8
중심선
100
AcDbLine
 10
2.268634060543552
 20
16.24717430164393
 30
0.0
 11
5.714909304380834
 21
16.24717430164393
 31
0.0
  0
LINE
  5
85
330
7F
100
AcDbEntity
  8
중심선
100
AcDbLine
 10
5.245725140726316
 20
7.84717430164391
 30
0.0
 11
8.692000384563599
 21
7.84717430164391
 31
0.0
  0
LINE
  5
86
330
7F
100
AcDbEntity
  8
중심선
100
AcDbLine
 10
15.74043728645272
 20
16.24717430164393
 30
0.0
 11
8.692000384563599
 21
7.84717430164391
 31
0.0
  0
LINE
  5
87
330
7F
100
AcDbEntity
  8
중심선
100
AcDbLine
 10
0.1404042013395286
 20
13.71084872107135
 30
0.0
 11
3.58671253028996
 21
13.71088815037384
 31
0.0
  0
LINE
  5
88
330
7F
100
AcDbEntity
  8
중심선
100
AcDbLine
 10
2.750260043222114
 20
10.84717430164391
 30
0.0
 11
6.196535287059397
 21
10.84717430164391
 31
0.0
  0
LINE
  5
89
330
7F
100
AcDbEntity
  8
중심선
100
AcDbLine
 10
12.29416204261559
 20
16.24717430164393
 30
0.0
 11
5.245725140726316
 21
7.84717430164391
 31
0.0
  0
LINE
  5
8A
330
7F
100
AcDbEntity
  8
중심선
100
AcDbLine
 10
10.72767329541681
 20
16.24717430164393
 30
0.0
 11
6.196535287059397
 21
10.84717430164391
 31
0.0
  0
LINE
  5
8B
330
7F
100
AcDbEntity
  8
중심선
100
AcDbLine
 10
7.28139805157953
 20
16.24717430164393
 30
0.0
 11
2.750260043222114
 21
10.84717430164391
 31
0.0
  0
LINE
  5
8C
330
7F
100
AcDbEntity
  8
중심선
100
AcDbLine
 10
5.714909304380834
 20
16.24717430164393
 30
0.0
 11
3.58671253028996
 21
13.71088815037384
 31
0.0
  0
LINE
  5
8D
330
7F
100
AcDbEntity
  8
중심선
100
AcDbLine
 10
2.268634060543552
 20
16.24717430164393
 30
0.0
 11
0.1404042013395286
 21
13.71084872107135
 31
0.0
  0
LINE
  5
8E
330
7F
100
AcDbEntity
  8
중심선
100
AcDbLine
 10
7.28139805157953
 20
16.24717430164393
 30
0.0
 11
10.72767329541681
 21
16.24717430164393
 31
0.0
  0
LINE
  5
8F
330
7F
100
AcDbEntity
  8
중심선
100
AcDbLine
 10
12.29416204261559
 20
16.24717430164393
 30
0.0
 11
15.74043728645272
 21
16.24717430164393
 31
0.0
  0
LINE
  5
90
330
7F
100
AcDbEntity
  8
중심선
100
AcDbLine
 10
19.22036997980202
 20
11.08717430171403
 30
0.0
 11
23.66174974927406
 21
11.08717430171406
 31
0.0
  0
LINE
  5
91
330
7F
100
AcDbEntity
  8
중심선
100
AcDbLine
 10
19.22039502424796
 20
13.00717430171391
 30
0.0
 11
19.22036997980202
 21
11.08717430171403
 31
0.0
  0
LINE
  5
92
330
7F
100
AcDbEntity
  8
중심선
100
AcDbLine
 10
19.22039502424796
 20
13.00717430171391
 30
0.0
 11
26.96566020931264
 21
13.00717430171391
 31
0.0
  0
LINE
  5
93
330
7F
100
AcDbEntity
  8
중심선
100
AcDbLine
 10
22.22332737316547
 20
13.45928029700563
 30
0.0
 11
24.52862924686651
 21
15.39360700705356
 31
0.0
  0
ATTDEF
  5
95
330
7F
100
AcDbEntity
  8
FORMAT
 62
     2
100
AcDbText
 10
3.448148490846466
 20
2.075366912832191
 30
0.0
 40
4.233333333333333
  1
EM649918
 41
0.75
  7
SLDTEXTSTYLE0
 11
3.448148490846466
 21
-0.0412997538344756
 31
0.0
100
AcDbAttributeDefinition
  3

  2
AUTOATTR0
 70
     0
 74
     1
  0
ENDBLK
  5
81
330
7F
100
AcDbEntity
  8
0
100
AcDbBlockEnd
  0
BLOCK
  5
CE
330
CD
100
AcDbEntity
  8
0
100
AcDbBlockBegin
  2
_D
 70
     0
 10
0.0
 20
0.0
 30
0.0
  3
_D
  1
_D
  0
SOLID
  5
D0
330
CD
100
AcDbEntity
  8
치수문자_일반주서
100
AcDbTrace
 10
-66.02375000000002
 20
5.557324928723905
 30
0.0
 11
-65.51575000000003
 21
8.859324928723904
 31
0.0
 12
-66.53175000000002
 22
8.859324928723904
 32
0.0
 13
-66.53175000000002
 23
8.859324928723904
 33
0.0
  0
SOLID
  5
D1
330
CD
100
AcDbEntity
  8
치수문자_일반주서
100
AcDbTrace
 10
-66.02375000000002
 20
-5.55517507127612
 30
0.0
 11
-66.53175000000002
 21
-8.85717507127612
 31
0.0
 12
-65.51575000000003
 22
-8.85717507127612
 32
0.0
 13
-65.51575000000003
 23
-8.85717507127612
 33
0.0
  0
LINE
  5
D2
330
CD
100
AcDbEntity
  8
치수문자_일반주서
100
AcDbLine
 10
-53.38874999999998
 20
5.557324928723906
 30
0.0
 11
-67.02375000000002
 21
5.557324928723905
 31
0.0
  0
LINE
  5
D3
330
CD
100
AcDbEntity
  8
치수문자_일반주서
100
AcDbLine
 10
-53.38874999999998
 20
-5.555175071276119
 30
0.0
 11
-67.02375000000002
 21
-5.55517507127612
 31
0.0
  0
LINE
  5
D4
330
CD
100
AcDbEntity
  8
치수문자_일반주서
100
AcDbLine
 10
-66.02375000000002
 20
5.557324928723905
 30
0.0
 11
-66.02375000000002
 21
11.9073249287239
 31
0.0
  0
LINE
  5
D5
330
CD
100
AcDbEntity
  8
치수문자_일반주서
100
AcDbLine
 10
-66.02375000000002
 20
5.557324928723905
 30
0.0
 11
-66.02375000000002
 21
-5.55517507127612
 31
0.0
  0
LINE
  5
D6
330
CD
100
AcDbEntity
  8
치수문자_일반주서
100
AcDbLine
 10
-66.02375000000002
 20
-5.55517507127612
 30
0.0
 11
-66.02375000000002
 21
-11.90517507127612
 31
0.0
  0
MTEXT
  5
D7
330
CD
100
AcDbEntity
  8
치수문자_일반주서
100
AcDbMText
 10
-70.53548708920184
 20
-10.76507509553433
 30
0.0
 40
3.5
 41
0.0
 71
     1
 72
     1
  1
%%c
  7
SLDTEXTSTYLE0
 11
-7.044195017643634E-15
 21
1.0
 31
0.0
 73
     1
 44
1.0
  0
MTEXT
  5
D8
330
CD
100
AcDbEntity
  8
치수문자_일반주서
100
AcDbMText
 10
-70.58895926586173
 20
-5.486637697160255
 30
0.0
 40
3.5
 41
0.0
 71
     1
 72
     1
  1
11.11
  7
SLDTEXTSTYLE0
 11
-7.044195017643634E-15
 21
1.0
 31
0.0
 73
     1
 44
1.0
  0
ENDBLK
  5
CF
330
CD
100
AcDbEntity
  8
0
100
AcDbBlockEnd
  0
BLOCK
  5
DC
330
DB
100
AcDbEntity
  8
0
100
AcDbBlockBegin
  2
_D_1
 70
     0
 10
0.0
 20
0.0
 30
0.0
  3
_D_1
  1
_D_1
  0
SOLID
  5
DE
330
DB
100
AcDbEntity
  8
치수문자_일반주서
100
AcDbTrace
 10
48.10000000000001
 20
30.4229520497203
 30
0.0
 11
44.79800000000001
 21
30.9309520497203
 31
0.0
 12
44.79800000000001
 22
29.91495204972031
 32
0.0
 13
44.79800000000001
 23
29.91495204972031
 33
0.0
  0
SOLID
  5
DF
330
DB
100
AcDbEntity
  8
치수문자_일반주서
100
AcDbTrace
 10
-53.49999999999999
 20
30.42295204972029
 30
0.0
 11
-50.19799999999999
 21
29.91495204972029
 31
0.0
 12
-50.19799999999999
 22
30.93095204972029
 32
0.0
 13
-50.19799999999999
 23
30.93095204972029
 33
0.0
  0
LINE
  5
E0
330
DB
100
AcDbEntity
  8
치수문자_일반주서
100
AcDbLine
 10
-8.114366081822656
 20
41.21583376576304
 30
0.0
 11
-8.825303567387156
 21
41.21583376576304
 31
0.0
  0
LINE
  5
E1
330
DB
100
AcDbEntity
  8
치수문자_일반주서
100
AcDbLine
 10
-8.825303567387156
 20
41.21583376576304
 30
0.0
 11
-8.825303567387197
 21
35.65958377470374
 31
0.0
  0
LINE
  5
E2
330
DB
100
AcDbEntity
  8
치수문자_일반주서
100
AcDbLine
 10
-8.825303567387197
 20
35.65958377470374
 30
0.0
 11
-8.114366081822697
 21
35.65958377470373
 31
0.0
  0
LINE
  5
E3
330
DB
100
AcDbEntity
  8
치수문자_일반주서
100
AcDbLine
 10
2.714366780314602
 20
41.21583376576296
 30
0.0
 11
3.425304265879102
 21
41.21583376576295
 31
0.0
  0
LINE
  5
E4
330
DB
100
AcDbEntity
  8
치수문자_일반주서
100
AcDbLine
 10
3.425304265879102
 20
41.21583376576295
 30
0.0
 11
3.425304265879063
 21
35.65958377470365
 31
0.0
  0
LINE
  5
E5
330
DB
100
AcDbEntity
  8
치수문자_일반주서
100
AcDbLine
 10
3.425304265879063
 20
35.65958377470365
 30
0.0
 11
2.714366780314563
 21
35.65958377470366
 31
0.0
  0
LINE
  5
E6
330
DB
100
AcDbEntity
  8
치수문자_일반주서
100
AcDbLine
 10
48.10000000000001
 20
4.266622151594462
 30
0.0
 11
48.10000000000001
 21
31.4229520497203
 31
0.0
  0
LINE
  5
E7
330
DB
100
AcDbEntity
  8
치수문자_일반주서
100
AcDbLine
 10
-53.49999999999999
 20
5.446074928723896
 30
0.0
 11
-53.49999999999999
 21
31.42295204972029
 31
0.0
  0
LINE
  5
E8
330
DB
100
AcDbEntity
  8
치수문자_일반주서
100
AcDbLine
 10
48.10000000000001
 20
30.4229520497203
 30
0.0
 11
-53.49999999999999
 21
30.42295204972029
 31
0.0
  0
MTEXT
  5
E9
330
DB
100
AcDbEntity
  8
치수문자_일반주서
100
AcDbMText
 10
-9.792361204326191
 20
34.98816131558202
 30
0.0
 40
3.5
 41
0.0
 71
     1
 72
     1
  1

  7
SLDTEXTSTYLE0
 73
     1
 44
1.0
  0
MTEXT
  5
EA
330
DB
100
AcDbEntity
  8
치수문자_일반주서
100
AcDbMText
 10
-7.225694181211293
 20
40.17132068928263
 30
0.0
 40
3.5
 41
0.0
 71
     1
 72
     1
  1
4.00
  7
SLDTEXTSTYLE0
 73
     1
 44
1.0
  0
MTEXT
  5
EB
330
DB
100
AcDbEntity
  8
치수문자_일반주서
100
AcDbMText
 10
-9.811805607564782
 20
34.93468913892217
 30
0.0
 40
3.5
 41
0.0
 71
     1
 72
     1
  1
101.60
  7
SLDTEXTSTYLE0
 73
     1
 44
1.0
  0
MTEXT
  5
EC
330
DB
100
AcDbEntity
  8
치수문자_일반주서
100
AcDbMText
 10
5.724306422471964
 20
34.98816131558191
 30
0.0
 40
3.5
 41
0.0
 71
     1
 72
     1
  1

  7
SLDTEXTSTYLE0
 73
     1
 44
1.0
  0
ENDBLK
  5
DD
330
DB
100
AcDbEntity
  8
0
100
AcDbBlockEnd
  0
BLOCK
  5
F0
330
EF
100
AcDbEntity
  8
0
100
AcDbBlockBegin
  2
_D_2
 70
     0
 10
0.0
 20
0.0
 30
0.0
  3
_D_2
  1
_D_2
  0
SOLID
  5
F2
330
EF
100
AcDbEntity
  8
치수문자_일반주서
100
AcDbTrace
 10
48.10000000000001
 20
13.56138615079719
 30
0.0
 11
51.40200000000001
 21
13.05338615079719
 31
0.0
 12
51.40200000000001
 22
14.06938615079719
 32
0.0
 13
51.40200000000001
 23
14.06938615079719
 33
0.0
  0
SOLID
  5
F3
330
EF
100
AcDbEntity
  8
치수문자_일반주서
100
AcDbTrace
 10
22.70000000000002
 20
13.56138615079719
 30
0.0
 11
19.39800000000002
 21
14.06938615079719
 31
0.0
 12
19.39800000000002
 22
13.05338615079719
 32
0.0
 13
19.39800000000002
 23
13.05338615079719
 33
0.0
  0
LINE
  5
F4
330
EF
100
AcDbEntity
  8
치수문자_일반주서
100
AcDbLine
 10
29.98563391817735
 20
24.35426786683993
 30
0.0
 11
29.27469643261285
 21
24.35426786683994
 31
0.0
  0
LINE
  5
F5
330
EF
100
AcDbEntity
  8
치수문자_일반주서
100
AcDbLine
 10
29.27469643261285
 20
24.35426786683994
 30
0.0
 11
29.27469643261281
 21
18.79801787578063
 31
0.0
  0
LINE
  5
F6
330
EF
100
AcDbEntity
  8
치수문자_일반주서
100
AcDbLine
 10
29.27469643261281
 20
18.79801787578063
 30
0.0
 11
29.98563391817731
 21
18.79801787578063
 31
0.0
  0
LINE
  5
F7
330
EF
100
AcDbEntity
  8
치수문자_일반주서
100
AcDbLine
 10
40.8143667803146
 20
24.35426786683985
 30
0.0
 11
41.5253042658791
 21
24.35426786683985
 31
0.0
  0
LINE
  5
F8
330
EF
100
AcDbEntity
  8
치수문자_일반주서
100
AcDbLine
 10
41.5253042658791
 20
24.35426786683985
 30
0.0
 11
41.52530426587906
 21
18.79801787578054
 31
0.0
  0
LINE
  5
F9
330
EF
100
AcDbEntity
  8
치수문자_일반주서
100
AcDbLine
 10
41.52530426587906
 20
18.79801787578054
 30
0.0
 11
40.81436678031456
 21
18.79801787578055
 31
0.0
  0
LINE
  5
FA
330
EF
100
AcDbEntity
  8
치수문자_일반주서
100
AcDbLine
 10
48.10000000000001
 20
4.266622151594462
 30
0.0
 11
48.10000000000001
 21
14.56138615079719
 31
0.0
  0
LINE
  5
FB
330
EF
100
AcDbEntity
  8
치수문자_일반주서
100
AcDbLine
 10
22.70000000000002
 20
6.545751737720199
 30
0.0
 11
22.70000000000002
 21
14.56138615079719
 31
0.0
  0
LINE
  5
FC
330
EF
100
AcDbEntity
  8
치수문자_일반주서
100
AcDbLine
 10
48.10000000000001
 20
13.56138615079719
 30
0.0
 11
54.45000000000001
 21
13.56138615079719
 31
0.0
  0
LINE
  5
FD
330
EF
100
AcDbEntity
  8
치수문자_일반주서
100
AcDbLine
 10
48.10000000000001
 20
13.56138615079719
 30
0.0
 11
22.70000000000002
 21
13.56138615079719
 31
0.0
  0
LINE
  5
FE
330
EF
100
AcDbEntity
  8
치수문자_일반주서
100
AcDbLine
 10
22.70000000000002
 20
13.56138615079719
 30
0.0
 11
16.35000000000002
 21
13.56138615079719
 31
0.0
  0
MTEXT
  5
FF
330
EF
100
AcDbEntity
  8
치수문자_일반주서
100
AcDbMText
 10
28.76093770712611
 20
18.12659541665891
 30
0.0
 40
3.5
 41
0.0
 71
     1
 72
     1
  1

  7
SLDTEXTSTYLE0
 73
     1
 44
1.0
  0
MTEXT
  5
100
330
EF
100
AcDbEntity
  8
치수문자_일반주서
100
AcDbMText
 10
30.87430581878871
 20
23.30975479035952
 30
0.0
 40
3.5
 41
0.0
 71
     1
 72
     1
  1
1.00
  7
SLDTEXTSTYLE0
 73
     1
 44
1.0
  0
MTEXT
  5
101
330
EF
100
AcDbEntity
  8
치수문자_일반주서
100
AcDbMText
 10
29.58125010561195
 20
18.07312323999905
 30
0.0
 40
3.5
 41
0.0
 71
     1
 72
     1
  1
25.40
  7
SLDTEXTSTYLE0
 73
     1
 44
1.0
  0
MTEXT
  5
102
330
EF
100
AcDbEntity
  8
치수문자_일반주서
100
AcDbMText
 10
43.37100751101968
 20
18.12659541665881
 30
0.0
 40
3.5
 41
0.0
 71
     1
 72
     1
  1

  7
SLDTEXTSTYLE0
 73
     1
 44
1.0
  0
ENDBLK
  5
F1
330
EF
100
AcDbEntity
  8
0
100
AcDbBlockEnd
  0
BLOCK
  5
106
330
105
100
AcDbEntity
  8
0
100
AcDbBlockBegin
  2
_D_3
 70
     0
 10
0.0
 20
0.0
 30
0.0
  3
_D_3
  1
_D_3
  0
SOLID
  5
108
330
105
100
AcDbEntity
  8
치수문자_일반주서
100
AcDbTrace
 10
62.42682382530209
 20
5.557324928723895
 30
0.0
 11
61.91882382530209
 21
2.255324928723896
 31
0.0
 12
62.9348238253021
 22
2.255324928723896
 32
0.0
 13
62.9348238253021
 23
2.255324928723896
 33
0.0
  0
SOLID
  5
109
330
105
100
AcDbEntity
  8
치수문자_일반주서
100
AcDbTrace
 10
62.42682382530209
 20
-5.555175071276112
 30
0.0
 11
62.9348238253021
 21
-2.253175071276113
 31
0.0
 12
61.91882382530209
 22
-2.253175071276113
 32
0.0
 13
61.91882382530209
 23
-2.253175071276113
 33
0.0
  0
LINE
  5
10A
330
105
100
AcDbEntity
  8
치수문자_일반주서
100
AcDbLine
 10
51.63394210925938
 20
11.77302020543836
 30
0.0
 11
51.63394210925939
 21
11.06208271987386
 31
0.0
  0
LINE
  5
10B
330
105
100
AcDbEntity
  8
치수문자_일반주서
100
AcDbLine
 10
51.63394210925939
 20
11.06208271987386
 30
0.0
 11
57.19019210031869
 21
11.0620827198739
 31
0.0
  0
LINE
  5
10C
330
105
100
AcDbEntity
  8
치수문자_일반주서
100
AcDbLine
 10
57.19019210031869
 20
11.0620827198739
 30
0.0
 11
57.19019210031868
 21
11.7730202054384
 31
0.0
  0
LINE
  5
10D
330
105
100
AcDbEntity
  8
치수문자_일반주서
100
AcDbLine
 10
51.63394210925931
 20
22.60175306757562
 30
0.0
 11
51.63394210925931
 21
23.31269055314012
 31
0.0
  0
LINE
  5
10E
330
105
100
AcDbEntity
  8
치수문자_일반주서
100
AcDbLine
 10
51.63394210925931
 20
23.31269055314012
 30
0.0
 11
57.19019210031861
 21
23.31269055314016
 31
0.0
  0
LINE
  5
10F
330
105
100
AcDbEntity
  8
치수문자_일반주서
100
AcDbLine
 10
57.19019210031861
 20
23.31269055314016
 30
0.0
 11
57.19019210031861
 21
22.60175306757566
 31
0.0
  0
LINE
  5
110
330
105
100
AcDbEntity
  8
치수문자_일반주서
100
AcDbLine
 10
38.19687380959295
 20
5.557324928723897
 30
0.0
 11
63.4268238253021
 21
5.557324928723895
 31
0.0
  0
LINE
  5
111
330
105
100
AcDbEntity
  8
치수문자_일반주서
100
AcDbLine
 10
38.19687380959295
 20
-5.555175071276111
 30
0.0
 11
63.4268238253021
 21
-5.555175071276112
 31
0.0
  0
LINE
  5
112
330
105
100
AcDbEntity
  8
치수문자_일반주서
100
AcDbLine
 10
62.42682382530209
 20
5.557324928723895
 30
0.0
 11
62.42682382530209
 21
25.64535557932809
 31
0.0
  0
LINE
  5
113
330
105
100
AcDbEntity
  8
치수문자_일반주서
100
AcDbLine
 10
62.42682382530209
 20
5.557324928723895
 30
0.0
 11
62.42682382530209
 21
-5.555175071276112
 31
0.0
  0
MTEXT
  5
114
330
105
100
AcDbEntity
  8
치수문자_일반주서
100
AcDbMText
 10
52.67845518573979
 20
12.66169210604974
 30
0.0
 40
3.5
 41
0.0
 71
     1
 72
     1
  1
0.44
  7
SLDTEXTSTYLE0
 11
-7.044195017643634E-15
 21
1.0
 31
0.0
 73
     1
 44
1.0
  0
MTEXT
  5
115
330
105
100
AcDbEntity
  8
치수문자_일반주서
100
AcDbMText
 10
57.91508673610029
 20
8.729417693686008
 30
0.0
 40
3.5
 41
0.0
 71
     1
 72
     1
  1
%%c
  7
SLDTEXTSTYLE0
 11
-7.044195017643634E-15
 21
1.0
 31
0.0
 73
     1
 44
1.0
  0
MTEXT
  5
116
330
105
100
AcDbEntity
  8
치수문자_일반주서
100
AcDbMText
 10
57.91508673610026
 20
14.00785509206009
 30
0.0
 40
3.5
 41
0.0
 71
     1
 72
     1
  1
11.11
  7
SLDTEXTSTYLE0
 11
-7.044195017643634E-15
 21
1.0
 31
0.0
 73
     1
 44
1.0
  0
ENDBLK
  5
107
330
105
100
AcDbEntity
  8
0
100
AcDbBlockEnd
  0
BLOCK
  5
11F
330
11E
100
AcDbEntity
  8
0
100
AcDbBlockBegin
  2
SW_DOWELSYMBOL_0
 70
     0
 10
0.0
 20
0.0
 30
0.0
  3
SW_DOWELSYMBOL_0
  1
SW_DOWELSYMBOL_0
  0
CIRCLE
  5
121
330
11E
100
AcDbEntity
  8
해칭선
 62
     0
100
AcDbCircle
 10
0.0
 20
0.0
 30
0.0
 40
3.000000000000001
  0
HATCH
  5
122
330
11E
100
AcDbEntity
  8
0
  6
Continuous
 62
     0
370
     0
100
AcDbHatch
 10
0.0
 20
0.0
 30
0.0
210
0.0
220
0.0
230
1.0
  2
SOLID
 70
     1
 71
     0
 91
        1
 92
        0
 93
        3
 72
     2
 10
0.0
 20
0.0
 40
3.000000000000001
 50
0.0
 51
90.0
 73
     1
 72
     1
 10
0.0
 20
3.000000000000001
 11
0.0
 21
0.0
 72
     1
 10
0.0
 20
0.0
 11
3.000000000000003
 21
0.0
 97
        0
 75
     0
 76
     1
 98
        1
 10
0.0
 20
0.0
  0
HATCH
  5
123
330
11E
100
AcDbEntity
  8
0
  6
Continuous
 62
     0
370
     0
100
AcDbHatch
 10
0.0
 20
0.0
 30
0.0
210
0.0
220
0.0
230
1.0
  2
SOLID
 70
     1
 71
     0
 91
        1
 92
        0
 93
        3
 72
     2
 10
0.0
 20
0.0
 40
3.000000000000001
 50
180.0
 51
270.0000000000008
 73
     1
 72
     1
 10
0.0
 20
-3.000000000000001
 11
0.0
 21
0.0
 72
     1
 10
0.0
 20
0.0
 11
-3.000000000000001
 21
0.0
 97
        0
 75
     0
 76
     1
 98
        1
 10
0.0
 20
0.0
  0
ENDBLK
  5
120
330
11E
100
AcDbEntity
  8
0
100
AcDbBlockEnd
  0
BLOCK
  5
19B
330
19A
100
AcDbEntity
  8
0
100
AcDbBlockBegin
  2
*D8
 70
     1
 10
0.0
 20
0.0
 30
0.0
  3
*D8
  1
*D8
  0
LINE
  5
19C
330
19A
100
AcDbEntity
  8
0
  6
Continuous
 62
     0
370
    -2
100
AcDbLine
 10
17.94750000000006
 20
42.47621951535329
 30
0.0
 11
4.375000000000015
 21
42.47621951535324
 31
0.0
  0
LINE
  5
19D
330
19A
100
AcDbEntity
  8
0
  6
Continuous
 62
     0
370
    -2
100
AcDbLine
 10
17.94750000000006
 20
31.36371951535326
 30
0.0
 11
4.375000000000054
 21
31.36371951535321
 31
0.0
  0
LINE
  5
19E
330
19A
100
AcDbEntity
  8
0
  6
Continuous
 62
     0
370
    -2
100
AcDbLine
 10
4.375000000000027
 20
39.17421951535324
 30
0.0
 11
4.375000000000043
 21
34.66571951535321
 31
0.0
  0
SOLID
  5
19F
330
19A
100
AcDbEntity
  8
0
 62
     0
100
AcDbTrace
 10
4.92533333333336
 20
39.17421951535324
 30
0.0
 11
3.824666666666694
 21
39.17421951535324
 31
0.0
 12
4.375000000000015
 22
42.47621951535324
 32
0.0
 13
4.375000000000015
 23
42.47621951535324
 33
0.0
  0
SOLID
  5
1A0
330
19A
100
AcDbEntity
  8
0
 62
     0
100
AcDbTrace
 10
3.82466666666671
 20
34.66571951535321
 30
0.0
 11
4.925333333333376
 21
34.66571951535321
 31
0.0
 12
4.375000000000054
 22
31.36371951535321
 32
0.0
 13
4.375000000000054
 23
31.36371951535321
 33
0.0
  0
MTEXT
  5
1A1
330
19A
100
AcDbEntity
  8
0
 62
     0
370
    15
100
AcDbMText
 10
0.0000000000000426
 20
34.61178843391608
 30
0.0
 40
3.5
 41
0.0
 71
     2
 72
     1
  1
\A1;%%c11.11 [7/16]
  7
SLDTEXTSTYLE0
 11
-3.516746948643907E-15
 21
1.0
 31
0.0
 73
     1
 44
1.0
  0
POINT
  5
1A2
330
19A
100
AcDbEntity
  8
Defpoints
 62
     0
100
AcDbPoint
 10
18.01000000000006
 20
42.47621951535329
 30
0.0
  0
POINT
  5
1A3
330
19A
100
AcDbEntity
  8
Defpoints
 62
     0
100
AcDbPoint
 10
18.01000000000006
 20
31.36371951535326
 30
0.0
  0
POINT
  5
1A4
330
19A
100
AcDbEntity
  8
Defpoints
 62
     0
100
AcDbPoint
 10
4.375000000000057
 20
31.36371951535321
 30
0.0
  0
ENDBLK
  5
1A5
330
19A
100
AcDbEntity
  8
0
100
AcDbBlockEnd
  0
BLOCK
  5
1A8
330
1A7
100
AcDbEntity
  8
0
100
AcDbBlockBegin
  2
*D9
 70
     1
 10
0.0
 20
0.0
 30
0.0
  3
*D9
  1
*D9
  0
LINE
  5
1A9
330
1A7
100
AcDbEntity
  8
0
  6
Continuous
 62
     0
370
    -2
100
AcDbLine
 10
118.4987500000001
 20
42.53871951535327
 30
0.0
 11
118.4987500000001
 21
69.09458369037957
 31
0.0
  0
LINE
  5
1AA
330
1A7
100
AcDbEntity
  8
0
  6
Continuous
 62
     0
370
    -2
100
AcDbLine
 10
16.89875000000005
 20
41.42746951535327
 30
0.0
 11
16.89875000000005
 21
69.09458369037957
 31
0.0
  0
LINE
  5
1AB
330
1A7
100
AcDbEntity
  8
0
  6
Continuous
 62
     0
370
    -2
100
AcDbLine
 10
115.1967500000001
 20
69.09458369037957
 30
0.0
 11
20.20075000000005
 21
69.09458369037957
 31
0.0
  0
SOLID
  5
1AC
330
1A7
100
AcDbEntity
  8
0
 62
     0
100
AcDbTrace
 10
115.1967500000001
 20
68.54425035704624
 30
0.0
 11
115.1967500000001
 21
69.64491702371289
 31
0.0
 12
118.4987500000001
 22
69.09458369037957
 32
0.0
 13
118.4987500000001
 23
69.09458369037957
 33
0.0
  0
SOLID
  5
1AD
330
1A7
100
AcDbEntity
  8
0
 62
     0
100
AcDbTrace
 10
20.20075000000005
 20
69.64491702371289
 30
0.0
 11
20.20075000000005
 21
68.54425035704624
 31
0.0
 12
16.89875000000005
 22
69.09458369037957
 32
0.0
 13
16.89875000000005
 23
69.09458369037957
 33
0.0
  0
MTEXT
  5
1AE
330
1A7
100
AcDbEntity
  8
0
 62
     0
370
    15
100
AcDbMText
 10
67.69875000000005
 20
73.46958369037957
 30
0.0
 40
3.5
 41
0.0
 71
     2
 72
     1
  1
\A1;101.60 [4]
  7
SLDTEXTSTYLE0
 73
     1
 44
1.0
  0
POINT
  5
1AF
330
1A7
100
AcDbEntity
  8
Defpoints
 62
     0
100
AcDbPoint
 10
118.4987500000001
 20
42.47621951535327
 30
0.0
  0
POINT
  5
1B0
330
1A7
100
AcDbEntity
  8
Defpoints
 62
     0
100
AcDbPoint
 10
16.89875000000005
 20
41.36496951535327
 30
0.0
  0
POINT
  5
1B1
330
1A7
100
AcDbEntity
  8
Defpoints
 62
     0
100
AcDbPoint
 10
16.89875000000005
 20
69.09458369037957
 30
0.0
  0
ENDBLK
  5
1B2
330
1A7
100
AcDbEntity
  8
0
100
AcDbBlockEnd
  0
BLOCK
  5
1B5
330
1B4
100
AcDbEntity
  8
0
100
AcDbBlockBegin
  2
*D10
 70
     1
 10
0.0
 20
0.0
 30
0.0
  3
*D10
  1
*D10
  0
LINE
  5
1B6
330
1B4
100
AcDbEntity
  8
0
  6
Continuous
 62
     0
370
    -2
100
AcDbLine
 10
118.4987500000001
 20
42.53871951535327
 30
0.0
 11
118.4987500000001
 21
52.23301779145647
 31
0.0
  0
LINE
  5
1B7
330
1B4
100
AcDbEntity
  8
0
  6
Continuous
 62
     0
370
    -2
100
AcDbLine
 10
93.09875000000008
 20
42.52714632434958
 30
0.0
 11
93.09875000000008
 21
52.23301779145647
 31
0.0
  0
LINE
  5
1B8
330
1B4
100
AcDbEntity
  8
0
  6
Continuous
 62
     0
370
    -2
100
AcDbLine
 10
115.1967500000001
 20
52.23301779145647
 30
0.0
 11
96.40075000000007
 21
52.23301779145647
 31
0.0
  0
SOLID
  5
1B9
330
1B4
100
AcDbEntity
  8
0
 62
     0
100
AcDbTrace
 10
115.1967500000001
 20
51.68268445812313
 30
0.0
 11
115.1967500000001
 21
52.7833511247898
 31
0.0
 12
118.4987500000001
 22
52.23301779145647
 32
0.0
 13
118.4987500000001
 23
52.23301779145647
 33
0.0
  0
SOLID
  5
1BA
330
1B4
100
AcDbEntity
  8
0
 62
     0
100
AcDbTrace
 10
96.40075000000007
 20
52.7833511247898
 30
0.0
 11
96.40075000000007
 21
51.68268445812313
 31
0.0
 12
93.09875000000008
 22
52.23301779145647
 32
0.0
 13
93.09875000000008
 23
52.23301779145647
 33
0.0
  0
MTEXT
  5
1BB
330
1B4
100
AcDbEntity
  8
0
 62
     0
370
    15
100
AcDbMText
 10
105.7987500000001
 20
56.60801779145647
 30
0.0
 40
3.5
 41
0.0
 71
     2
 72
     1
  1
\A1;25.40 [1]
  7
SLDTEXTSTYLE0
 73
     1
 44
1.0
  0
POINT
  5
1BC
330
1B4
100
AcDbEntity
  8
Defpoints
 62
     0
100
AcDbPoint
 10
118.4987500000001
 20
42.47621951535327
 30
0.0
  0
POINT
  5
1BD
330
1B4
100
AcDbEntity
  8
Defpoints
 62
     0
100
AcDbPoint
 10
93.09875000000008
 20
42.46464632434958
 30
0.0
  0
POINT
  5
1BE
330
1B4
100
AcDbEntity
  8
Defpoints
 62
     0
100
AcDbPoint
 10
93.09875000000008
 20
52.23301779145647
 30
0.0
  0
ENDBLK
  5
1BF
330
1B4
100
AcDbEntity
  8
0
100
AcDbBlockEnd
  0
BLOCK
  5
1C2
330
1C1
100
AcDbEntity
  8
0
100
AcDbBlockBegin
  2
*D11
 70
     1
 10
0.0
 20
0.0
 30
0.0
  3
*D11
  1
*D11
  0
LINE
  5
1C3
330
1C1
100
AcDbEntity
  8
0
  6
Continuous
 62
     0
370
    -2
100
AcDbLine
 10
118.5612500000001
 20
42.47621951535327
 30
0.0
 11
132.8255738253022
 21
42.47621951535332
 31
0.0
  0
LINE
  5
1C4
330
1C1
100
AcDbEntity
  8
0
  6
Continuous
 62
     0
370
    -2
100
AcDbLine
 10
118.5612500000001
 20
31.36371951535331
 30
0.0
 11
132.8255738253022
 21
31.36371951535336
 31
0.0
  0
LINE
  5
1C5
330
1C1
100
AcDbEntity
  8
0
  6
Continuous
 62
     0
370
    -2
100
AcDbLine
 10
132.8255738253022
 20
42.47621951535332
 30
0.0
 11
132.8255738253021
 21
72.90321951535336
 31
0.0
  0
LINE
  5
1C6
330
1C1
100
AcDbEntity
  8
0
  6
Continuous
 62
     0
370
    -2
100
AcDbLine
 10
132.8255738253022
 20
39.17421951535332
 30
0.0
 11
132.8255738253022
 21
34.66571951535336
 31
0.0
  0
SOLID
  5
1C7
330
1C1
100
AcDbEntity
  8
0
 62
     0
100
AcDbTrace
 10
133.3759071586355
 20
39.17421951535332
 30
0.0
 11
132.2752404919688
 21
39.17421951535332
 31
0.0
 12
132.8255738253022
 22
42.47621951535332
 32
0.0
 13
132.8255738253022
 23
42.47621951535332
 33
0.0
  0
SOLID
  5
1C8
330
1C1
100
AcDbEntity
  8
0
 62
     0
100
AcDbTrace
 10
132.2752404919689
 20
34.66571951535336
 30
0.0
 11
133.3759071586355
 21
34.66571951535336
 31
0.0
 12
132.8255738253022
 22
31.36371951535336
 32
0.0
 13
132.8255738253022
 23
31.36371951535336
 33
0.0
  0
MTEXT
  5
1C9
330
1C1
100
AcDbEntity
  8
0
 62
     0
370
    15
100
AcDbMText
 10
128.4505738253021
 20
59.34071951535335
 30
0.0
 40
3.5
 41
0.0
 71
     2
 72
     1
  1
\A1;%%c11.11 [7/16]
  7
SLDTEXTSTYLE0
 11
-2.557634144468311E-15
 21
1.0
 31
0.0
 73
     1
 44
1.0
  0
POINT
  5
1CA
330
1C1
100
AcDbEntity
  8
Defpoints
 62
     0
100
AcDbPoint
 10
118.4987500000001
 20
42.47621951535327
 30
0.0
  0
POINT
  5
1CB
330
1C1
100
AcDbEntity
  8
Defpoints
 62
     0
100
AcDbPoint
 10
118.4987500000001
 20
31.36371951535331
 30
0.0
  0
POINT
  5
1CC
330
1C1
100
AcDbEntity
  8
Defpoints
 62
     0
100
AcDbPoint
 10
132.8255738253022
 20
31.36371951535336
 30
0.0
  0
ENDBLK
  5
1CD
330
1C1
100
AcDbEntity
  8
0
100
AcDbBlockEnd
  0
BLOCK
  5
1DF
330
1DE
100
AcDbEntity
  8
0
100
AcDbBlockBegin
  2
*D12
 70
     1
 10
0.0
 20
0.0
 30
0.0
  3
*D12
  1
*D12
  0
LINE
  5
1E0
330
1DE
100
AcDbEntity
  8
0
  6
Continuous
 62
     0
370
    -2
100
AcDbLine
 10
119.4508818898992
 20
28.74537152612974
 30
0.0
 11
136.6337287458416
 21
0.0000000000000018
 31
0.0
  0
MTEXT
  5
1E1
330
1DE
100
AcDbEntity
  8
0
 62
     0
370
    15
100
AcDbMText
 10
131.1425451069163
 20
14.30240596214842
 30
0.0
 40
3.5
 41
0.0
 71
     5
 72
     1
  1
\A1;R1.52 [R0.060]
  7
SLDTEXTSTYLE0
 11
0.5130816182965531
 21
-0.8583398237098115
 31
0.0
 73
     1
 44
1.0
  0
LINE
  5
1E2
330
1DE
100
AcDbEntity
  8
0
  6
Continuous
 62
     0
370
    -2
100
AcDbLine
 10
116.9747500000001
 20
32.88771951535329
 30
0.0
 11
117.756686386284
 21
31.57960962401954
 31
0.0
  0
SOLID
  5
1E3
330
1DE
100
AcDbEntity
  8
0
 62
     0
100
AcDbTrace
 10
119.9232549062142
 20
29.02773744339894
 30
0.0
 11
118.9785088735843
 21
28.46300560886054
 31
0.0
 12
117.756686386284
 22
31.57960962401954
 32
0.0
 13
117.756686386284
 23
31.57960962401954
 33
0.0
  0
POINT
  5
1E4
330
1DE
100
AcDbEntity
  8
Defpoints
 62
     0
100
AcDbPoint
 10
117.756686386284
 20
31.57960962401954
 30
0.0
  0
POINT
  5
1E5
330
1DE
100
AcDbEntity
  8
Defpoints
 62
     0
100
AcDbPoint
 10
116.9747500000001
 20
32.88771951535329
 30
0.0
  0
ENDBLK
  5
1E6
330
1DE
100
AcDbEntity
  8
0
100
AcDbBlockEnd
  0
BLOCK
  5
220
330
21F
100
AcDbEntity
  8
0
100
AcDbBlockBegin
  2
*D13
 70
     1
 10
0.0
 20
0.0
 30
0.0
  3
*D13
  1
*D13
  0
LINE
  5
222
330
21F
100
AcDbEntity
  8
0
  6
Continuous
 62
     0
370
    -2
100
AcDbLine
 10
-65.15125000000002
 20
5.557324928723908
 30
0.0
 11
-78.72375000000007
 21
5.557324928723856
 31
0.0
  0
LINE
  5
223
330
21F
100
AcDbEntity
  8
0
  6
Continuous
 62
     0
370
    -2
100
AcDbLine
 10
-65.15125000000002
 20
-5.555175071276118
 30
0.0
 11
-78.72375000000002
 21
-5.55517507127617
 31
0.0
  0
LINE
  5
224
330
21F
100
AcDbEntity
  8
0
  6
Continuous
 62
     0
370
    -2
100
AcDbLine
 10
-78.72375000000005
 20
2.255324928723856
 30
0.0
 11
-78.72375000000004
 21
-2.25317507127617
 31
0.0
  0
SOLID
  5
225
330
21F
100
AcDbEntity
  8
0
 62
     0
100
AcDbTrace
 10
-78.17341666666672
 20
2.255324928723858
 30
0.0
 11
-79.27408333333338
 21
2.255324928723854
 31
0.0
 12
-78.72375000000007
 22
5.557324928723856
 32
0.0
 13
-78.72375000000007
 23
5.557324928723856
 33
0.0
  0
SOLID
  5
226
330
21F
100
AcDbEntity
  8
0
 62
     0
100
AcDbTrace
 10
-79.27408333333337
 20
-2.253175071276173
 30
0.0
 11
-78.17341666666671
 21
-2.253175071276168
 31
0.0
 12
-78.72375000000002
 22
-5.55517507127617
 32
0.0
 13
-78.72375000000002
 23
-5.55517507127617
 33
0.0
  0
MTEXT
  5
227
330
21F
100
AcDbEntity
  8
0
 62
     0
370
    15
100
AcDbMText
 10
-83.09875000000004
 20
-2.307106152713299
 30
0.0
 40
3.5
 41
0.0
 71
     2
 72
     1
  1
\A1;%%c11.11 [7/16]
  7
SLDTEXTSTYLE0
 11
-3.836451216702445E-15
 21
1.0
 31
0.0
 73
     1
 44
1.0
  0
POINT
  5
228
330
21F
100
AcDbEntity
  8
Defpoints
 62
     0
100
AcDbPoint
 10
-65.08875000000002
 20
5.557324928723908
 30
0.0
  0
POINT
  5
229
330
21F
100
AcDbEntity
  8
Defpoints
 62
     0
100
AcDbPoint
 10
-65.08875000000002
 20
-5.555175071276118
 30
0.0
  0
POINT
  5
22A
330
21F
100
AcDbEntity
  8
Defpoints
 62
     0
100
AcDbPoint
 10
-78.72375000000002
 20
-5.555175071276168
 30
0.0
  0
ENDBLK
  5
221
330
21F
100
AcDbEntity
  8
0
100
AcDbBlockEnd
  0
BLOCK
  5
22C
330
22B
100
AcDbEntity
  8
0
100
AcDbBlockBegin
  2
*D14
 70
     1
 10
0.0
 20
0.0
 30
0.0
  3
*D14
  1
*D14
  0
LINE
  5
22E
330
22B
100
AcDbEntity
  8
0
  6
Continuous
 62
     0
370
    -2
100
AcDbLine
 10
35.39999999999998
 20
5.619824928723894
 30
0.0
 11
35.39999999999998
 21
32.17568910375019
 31
0.0
  0
LINE
  5
22F
330
22B
100
AcDbEntity
  8
0
  6
Continuous
 62
     0
370
    -2
100
AcDbLine
 10
-66.20000000000003
 20
4.508574928723895
 30
0.0
 11
-66.20000000000003
 21
32.17568910375019
 31
0.0
  0
LINE
  5
230
330
22B
100
AcDbEntity
  8
0
  6
Continuous
 62
     0
370
    -2
100
AcDbLine
 10
32.09799999999998
 20
32.17568910375019
 30
0.0
 11
-62.89800000000003
 21
32.17568910375019
 31
0.0
  0
SOLID
  5
231
330
22B
100
AcDbEntity
  8
0
 62
     0
100
AcDbTrace
 10
32.09799999999998
 20
31.62535577041685
 30
0.0
 11
32.09799999999998
 21
32.72602243708352
 31
0.0
 12
35.39999999999998
 22
32.17568910375019
 32
0.0
 13
35.39999999999998
 23
32.17568910375019
 33
0.0
  0
SOLID
  5
232
330
22B
100
AcDbEntity
  8
0
 62
     0
100
AcDbTrace
 10
-62.89800000000003
 20
32.72602243708352
 30
0.0
 11
-62.89800000000003
 21
31.62535577041685
 31
0.0
 12
-66.20000000000003
 22
32.17568910375019
 32
0.0
 13
-66.20000000000003
 23
32.17568910375019
 33
0.0
  0
MTEXT
  5
233
330
22B
100
AcDbEntity
  8
0
 62
     0
370
    15
100
AcDbMText
 10
-15.40000000000003
 20
36.55068910375019
 30
0.0
 40
3.5
 41
0.0
 71
     2
 72
     1
  1
\A1;101.60 [4]
  7
SLDTEXTSTYLE0
 73
     1
 44
1.0
  0
POINT
  5
234
330
22B
100
AcDbEntity
  8
Defpoints
 62
     0
100
AcDbPoint
 10
35.39999999999998
 20
5.557324928723894
 30
0.0
  0
POINT
  5
235
330
22B
100
AcDbEntity
  8
Defpoints
 62
     0
100
AcDbPoint
 10
-66.20000000000003
 20
4.446074928723895
 30
0.0
  0
POINT
  5
236
330
22B
100
AcDbEntity
  8
Defpoints
 62
     0
100
AcDbPoint
 10
-66.20000000000003
 20
32.17568910375019
 30
0.0
  0
ENDBLK
  5
22D
330
22B
100
AcDbEntity
  8
0
100
AcDbBlockEnd
  0
BLOCK
  5
238
330
237
100
AcDbEntity
  8
0
100
AcDbBlockBegin
  2
*D15
 70
     1
 10
0.0
 20
0.0
 30
0.0
  3
*D15
  1
*D15
  0
LINE
  5
23A
330
237
100
AcDbEntity
  8
0
  6
Continuous
 62
     0
370
    -2
100
AcDbLine
 10
35.39999999999998
 20
5.619824928723894
 30
0.0
 11
35.39999999999998
 21
15.31412320482709
 31
0.0
  0
LINE
  5
23B
330
237
100
AcDbEntity
  8
0
  6
Continuous
 62
     0
370
    -2
100
AcDbLine
 10
10.0
 20
5.608251737720202
 30
0.0
 11
10.0
 21
15.31412320482709
 31
0.0
  0
LINE
  5
23C
330
237
100
AcDbEntity
  8
0
  6
Continuous
 62
     0
370
    -2
100
AcDbLine
 10
32.09799999999998
 20
15.31412320482709
 30
0.0
 11
13.302
 21
15.31412320482709
 31
0.0
  0
SOLID
  5
23D
330
237
100
AcDbEntity
  8
0
 62
     0
100
AcDbTrace
 10
32.09799999999998
 20
14.76378987149376
 30
0.0
 11
32.09799999999998
 21
15.86445653816042
 31
0.0
 12
35.39999999999998
 22
15.31412320482709
 32
0.0
 13
35.39999999999998
 23
15.31412320482709
 33
0.0
  0
SOLID
  5
23E
330
237
100
AcDbEntity
  8
0
 62
     0
100
AcDbTrace
 10
13.302
 20
15.86445653816042
 30
0.0
 11
13.302
 21
14.76378987149376
 31
0.0
 12
10.0
 22
15.31412320482709
 32
0.0
 13
10.0
 23
15.31412320482709
 33
0.0
  0
MTEXT
  5
23F
330
237
100
AcDbEntity
  8
0
 62
     0
370
    15
100
AcDbMText
 10
22.69999999999999
 20
19.68912320482709
 30
0.0
 40
3.5
 41
0.0
 71
     2
 72
     1
  1
\A1;25.40 [1]
  7
SLDTEXTSTYLE0
 73
     1
 44
1.0
  0
POINT
  5
240
330
237
100
AcDbEntity
  8
Defpoints
 62
     0
100
AcDbPoint
 10
35.39999999999998
 20
5.557324928723894
 30
0.0
  0
POINT
  5
241
330
237
100
AcDbEntity
  8
Defpoints
 62
     0
100
AcDbPoint
 10
10.0
 20
5.545751737720202
 30
0.0
  0
POINT
  5
242
330
237
100
AcDbEntity
  8
Defpoints
 62
     0
100
AcDbPoint
 10
10.0
 20
15.31412320482709
 30
0.0
  0
ENDBLK
  5
239
330
237
100
AcDbEntity
  8
0
100
AcDbBlockEnd
  0
BLOCK
  5
244
330
243
100
AcDbEntity
  8
0
100
AcDbBlockBegin
  2
*D16
 70
     1
 10
0.0
 20
0.0
 30
0.0
  3
*D16
  1
*D16
  0
LINE
  5
246
330
243
100
AcDbEntity
  8
0
  6
Continuous
 62
     0
370
    -2
100
AcDbLine
 10
35.46249999999998
 20
5.557324928723894
 30
0.0
 11
49.72682382530209
 21
5.557324928723947
 31
0.0
  0
LINE
  5
247
330
243
100
AcDbEntity
  8
0
  6
Continuous
 62
     0
370
    -2
100
AcDbLine
 10
35.46249999999998
 20
-5.555175071276071
 30
0.0
 11
49.72682382530213
 21
-5.555175071276018
 31
0.0
  0
LINE
  5
248
330
243
100
AcDbEntity
  8
0
  6
Continuous
 62
     0
370
    -2
100
AcDbLine
 10
49.72682382530209
 20
5.557324928723947
 30
0.0
 11
49.72682382530199
 21
35.98432492872399
 31
0.0
  0
LINE
  5
249
330
243
100
AcDbEntity
  8
0
  6
Continuous
 62
     0
370
    -2
100
AcDbLine
 10
49.7268238253021
 20
2.255324928723947
 30
0.0
 11
49.72682382530212
 21
-2.253175071276019
 31
0.0
  0
SOLID
  5
24A
330
243
100
AcDbEntity
  8
0
 62
     0
100
AcDbTrace
 10
50.27715715863543
 20
2.255324928723949
 30
0.0
 11
49.17649049196876
 21
2.255324928723946
 31
0.0
 12
49.72682382530209
 22
5.557324928723947
 32
0.0
 13
49.72682382530209
 23
5.557324928723947
 33
0.0
  0
SOLID
  5
24B
330
243
100
AcDbEntity
  8
0
 62
     0
100
AcDbTrace
 10
49.17649049196879
 20
-2.25317507127602
 30
0.0
 11
50.27715715863545
 21
-2.253175071276017
 31
0.0
 12
49.72682382530213
 22
-5.555175071276018
 32
0.0
 13
49.72682382530213
 23
-5.555175071276018
 33
0.0
  0
MTEXT
  5
24C
330
243
100
AcDbEntity
  8
0
 62
     0
370
    15
100
AcDbMText
 10
45.35182382530203
 20
22.42182492872397
 30
0.0
 40
3.5
 41
0.0
 71
     2
 72
     1
  1
\A1;%%c11.11 [7/16]
  7
SLDTEXTSTYLE0
 11
-3.197042680585388E-15
 21
1.0
 31
0.0
 73
     1
 44
1.0
  0
POINT
  5
24D
330
243
100
AcDbEntity
  8
Defpoints
 62
     0
100
AcDbPoint
 10
35.39999999999998
 20
5.557324928723894
 30
0.0
  0
POINT
  5
24E
330
243
100
AcDbEntity
  8
Defpoints
 62
     0
100
AcDbPoint
 10
35.39999999999998
 20
-5.555175071276071
 30
0.0
  0
POINT
  5
24F
330
243
100
AcDbEntity
  8
Defpoints
 62
     0
100
AcDbPoint
 10
49.72682382530212
 20
-5.555175071276018
 30
0.0
  0
ENDBLK
  5
245
330
243
100
AcDbEntity
  8
0
100
AcDbBlockEnd
  0
BLOCK
  5
251
330
250
100
AcDbEntity
  8
0
100
AcDbBlockBegin
  2
*D17
 70
     1
 10
0.0
 20
0.0
 30
0.0
  3
*D17
  1
*D17
  0
LINE
  5
253
330
250
100
AcDbEntity
  8
0
  6
Continuous
 62
     0
370
    -2
100
AcDbLine
 10
203.593127727591
 20
-27.30075333488245
 30
0.0
 11
220.7759745835334
 21
-56.0461248610122
 31
0.0
  0
MTEXT
  5
254
330
250
100
AcDbEntity
  8
0
 62
     0
370
    15
100
AcDbMText
 10
215.2847909446081
 20
-41.74371889886378
 30
0.0
 40
3.5
 41
0.0
 71
     5
 72
     1
  1
\A1;R1.52 [R0.060]
  7
SLDTEXTSTYLE0
 11
0.5130816182965531
 21
-0.8583398237098115
 31
0.0
 73
     1
 44
1.0
  0
LINE
  5
255
330
250
100
AcDbEntity
  8
0
  6
Continuous
 62
     0
370
    -2
100
AcDbLine
 10
201.1169958376919
 20
-23.15840534565891
 30
0.0
 11
201.8989322239758
 21
-24.46651523699266
 31
0.0
  0
SOLID
  5
256
330
250
100
AcDbEntity
  8
0
 62
     0
100
AcDbTrace
 10
204.065500743906
 20
-27.01838741761325
 30
0.0
 11
203.120754711276
 21
-27.58311925215166
 31
0.0
 12
201.8989322239758
 22
-24.46651523699266
 32
0.0
 13
201.8989322239758
 23
-24.46651523699266
 33
0.0
  0
POINT
  5
257
330
250
100
AcDbEntity
  8
Defpoints
 62
     0
100
AcDbPoint
 10
201.8989322239758
 20
-24.46651523699266
 30
0.0
  0
POINT
  5
258
330
250
100
AcDbEntity
  8
Defpoints
 62
     0
100
AcDbPoint
 10
201.1169958376919
 20
-23.15840534565891
 30
0.0
  0
ENDBLK
  5
252
330
250
100
AcDbEntity
  8
0
100
AcDbBlockEnd
  0
BLOCK
  5
264
330
263
100
AcDbEntity
  8
0
100
AcDbBlockBegin
  2
*D18
 70
     1
 10
0.0
 20
0.0
 30
0.0
  3
*D18
  1
*D18
  0
LINE
  5
266
330
263
100
AcDbEntity
  8
0
  6
Continuous
 62
     0
370
    -2
100
AcDbLine
 10
35.23155428239244
 20
-8.440413594214416
 30
0.0
 11
48.2538689096787
 21
-40.24195729885188
 31
0.0
  0
MTEXT
  5
267
330
263
100
AcDbEntity
  8
0
 62
     0
370
    15
100
AcDbMText
 10
44.79757617064958
 20
-24.87431622858236
 30
0.0
 40
3.5
 41
0.0
 71
     5
 72
     1
  1
\A1;R2.29 [R0.090]
  7
SLDTEXTSTYLE0
 11
0.3789467219743127
 21
-0.9254184901464435
 31
0.0
 73
     1
 44
1.0
  0
LINE
  5
268
330
263
100
AcDbEntity
  8
0
  6
Continuous
 62
     0
370
    -2
100
AcDbLine
 10
33.11399999999998
 20
-3.269175071276088
 30
0.0
 11
33.98027220643326
 21
-5.38468173975086
 31
0.0
  0
SOLID
  5
269
330
263
100
AcDbEntity
  8
0
 62
     0
100
AcDbTrace
 10
35.74084292480303
 20
-8.231866581554552
 30
0.0
 11
34.72226563998184
 21
-8.64896060687428
 31
0.0
 12
33.98027220643326
 22
-5.38468173975086
 32
0.0
 13
33.98027220643326
 23
-5.38468173975086
 33
0.0
  0
POINT
  5
26A
330
263
100
AcDbEntity
  8
Defpoints
 62
     0
100
AcDbPoint
 10
33.98027220643326
 20
-5.38468173975086
 30
0.0
  0
POINT
  5
26B
330
263
100
AcDbEntity
  8
Defpoints
 62
     0
100
AcDbPoint
 10
33.11399999999998
 20
-3.269175071276088
 30
0.0
  0
ENDBLK
  5
265
330
263
100
AcDbEntity
  8
0
100
AcDbBlockEnd
  0
ENDSEC
  0
SECTION
  2
ENTITIES
  0
LINE
  5
C1
330
1F
100
AcDbEntity
  8
참조1
100
AcDbLine
 10
-2.699999999999994
 20
0.0010749287238892
 30
0.0
 11
-2.699999999999989
 21
-39.99892507127611
 31
0.0
  0
LINE
  5
C2
330
1F
100
AcDbEntity
  8
참조1
100
AcDbLine
 10
-2.699999999999989
 20
-39.99892507127611
 30
0.0
 11
-30.55885681430864
 21
-39.9989250712761
 31
0.0
  0
INSERT
  5
C4
330
1F
100
AcDbEntity
  8
0
  6
Continuous
 62
     7
100
AcDbBlockReference
 66
     1
  2
블럭10
 10
-16.6402729321252
 20
-52.04609937292004
 30
0.0
  0
ATTRIB
  5
C5
330
C4
100
AcDbEntity
  8
FORMAT
 62
     2
100
AcDbText
 10
-26.78190894426183
 20
-49.97073246008785
 30
0.0
 40
4.233333333333333
  1
EM649918 [ 4 FLUTE ]
 41
0.75
  7
SLDTEXTSTYLE0
 11
-26.78190894426183
 21
-52.08739912675452
 31
0.0
100
AcDbAttribute
  2
AUTOATTR0
 70
     0
 74
     1
  0
SEQEND
  5
C6
330
C4
100
AcDbEntity
  8
0
  6
Continuous
 62
     7
  0
HATCH
  5
C7
330
1F
100
AcDbEntity
  8
중심선
100
AcDbHatch
 10
0.0
 20
0.0
 30
0.0
210
0.0
220
0.0
230
1.0
  2
SOLID
 70
     1
 71
     0
 91
        1
 92
        0
 93
        4
 72
     1
 10
-10.92536362774435
 20
-35.7989250712761
 11
-14.37163887158163
 21
-35.7989250712761
 72
     1
 10
-14.37163887158163
 20
-35.7989250712761
 11
-16.49986873078565
 21
-38.3352506518487
 72
     1
 10
-16.49986873078565
 20
-38.3352506518487
 11
-13.05356040183522
 21
-38.33521122254621
 72
     1
 10
-13.05356040183522
 20
-38.33521122254621
 11
-10.92536362774435
 21
-35.7989250712761
 97
        0
 75
     0
 76
     1
 98
        1
 10
0.0
 20
0.0
  0
HATCH
  5
C8
330
1F
100
AcDbEntity
  8
중심선
100
AcDbHatch
 10
0.0
 20
0.0
 30
0.0
210
0.0
220
0.0
230
1.0
  2
SOLID
 70
     1
 71
     0
 91
        1
 92
        0
 93
        4
 72
     1
 10
-5.912599636708372
 20
-35.7989250712761
 11
-9.358874880545653
 21
-35.7989250712761
 72
     1
 10
-9.358874880545653
 20
-35.7989250712761
 11
-13.89001288890307
 21
-41.19892507127612
 72
     1
 10
-13.89001288890307
 20
-41.19892507127612
 11
-10.44373764506579
 21
-41.19892507127612
 72
     1
 10
-10.44373764506579
 20
-41.19892507127612
 11
-5.912599636708372
 21
-35.7989250712761
 97
        0
 75
     0
 76
     1
 98
        1
 10
0.0
 20
0.0
  0
HATCH
  5
C9
330
1F
100
AcDbEntity
  8
중심선
100
AcDbHatch
 10
0.0
 20
0.0
 30
0.0
210
0.0
220
0.0
230
1.0
  2
SOLID
 70
     1
 71
     0
 91
        1
 92
        0
 93
        4
 72
     1
 10
-0.8998356456724477
 20
-35.79892507127608
 11
-4.346110889509591
 21
-35.7989250712761
 72
     1
 10
-4.346110889509591
 20
-35.7989250712761
 11
-11.39454779139887
 21
-44.19892507127612
 72
     1
 10
-11.39454779139887
 20
-44.19892507127612
 11
-7.948272547561586
 21
-44.19892507127612
 72
     1
 10
-7.948272547561586
 20
-44.19892507127612
 11
-0.8998356456724474
 21
-35.79892507127608
 97
        0
 75
     0
 76
     1
 98
        1
 10
0.0
 20
0.0
  0
HATCH
  5
CA
330
1F
100
AcDbEntity
  8
중심선
100
AcDbHatch
 10
0.0
 20
0.0
 30
0.0
210
0.0
220
0.0
230
1.0
  2
SOLID
 70
     1
 71
     0
 91
        1
 92
        0
 93
        6
 72
     3
 10
3.900054785339696
 20
-39.99892507132738
 11
3.960054785062284
 21
1.540850780301639E-10
 40
0.3939339440162633
 50
17.09539180608434
 51
320.0019657685081
 73
     0
 72
     1
 10
5.583054441040264
 20
-38.58681907591443
 11
7.88835631474133
 21
-36.65249236586649
 72
     3
 10
3.90005478528685
 20
-39.99892507127625
 11
6.600054785286829
 21
-1.249000902703301E-13
 40
0.6363583540795982
 50
39.99873849337408
 51
368.4976242363725
 73
     1
 72
     1
 10
10.32538727718746
 20
-39.03892507120613
 11
2.580122092122772
 21
-39.03892507120613
 72
     1
 10
2.580122092122772
 20
-39.03892507120613
 11
2.580097047676838
 21
-40.95892507120602
 72
     1
 10
2.580097047676838
 20
-40.95892507120602
 11
7.021476817148875
 21
-40.95892507120599
 97
        0
 75
     0
 76
     1
 98
        1
 10
0.0
 20
0.0
  0
LINE
  5
117
330
1F
100
AcDbEntity
  8
참조1
100
AcDbLine
 10
67.41348381534561
 20
7.441074928723896
 30
0.0
 11
67.41348381534561
 21
-7.438925071276109
 31
0.0
  0
LINE
  5
118
330
1F
100
AcDbEntity
  8
참조1
100
AcDbLine
 10
80.11348381534562
 20
5.441074928723896
 30
0.0
 11
67.41348381534561
 21
5.441074928723896
 31
0.0
  0
SOLID
  5
119
330
1F
100
AcDbEntity
  8
참조1
100
AcDbTrace
 10
67.41348381534561
 20
5.441074928723896
 30
0.0
 11
73.76348381534561
 21
4.425074928723896
 31
0.0
 12
73.76348381534561
 22
6.457074928723896
 32
0.0
 13
73.76348381534561
 23
6.457074928723896
 33
0.0
  0
LINE
  5
11A
330
1F
100
AcDbEntity
  8
참조1
100
AcDbLine
 10
80.11348381534562
 20
-5.438925071276109
 30
0.0
 11
67.41348381534561
 21
-5.438925071276109
 31
0.0
  0
SOLID
  5
11B
330
1F
100
AcDbEntity
  8
참조1
100
AcDbTrace
 10
67.41348381534561
 20
-5.438925071276109
 30
0.0
 11
73.76348381534561
 21
-6.454925071276109
 31
0.0
 12
73.76348381534561
 22
-4.422925071276109
 32
0.0
 13
73.76348381534561
 23
-4.422925071276109
 33
0.0
  0
MTEXT
  5
11C
330
1F
100
AcDbEntity
  8
참조1
100
AcDbMText
 10
76.81097390781589
 20
10.98929157337383
 30
0.0
 40
3.5
 41
0.0
 71
     1
 72
     1
  1
A
  7
SLDTEXTSTYLE0
 73
     1
 44
1.0
  0
MTEXT
  5
11D
330
1F
100
AcDbEntity
  8
참조1
100
AcDbMText
 10
76.81097390781589
 20
0.1092915733738251
 30
0.0
 40
3.5
 41
0.0
 71
     1
 72
     1
  1
A
  7
SLDTEXTSTYLE0
 73
     1
 44
1.0
  0
LINE
  5
1EC
330
1F
100
AcDbEntity
  8
0
  6
Continuous
 62
     1
370
    15
100
AcDbLine
 10
33.34454741733839
 20
1.640165699109808
 30
0.0
 11
33.29314410080457
 21
1.667928625146523
 31
0.0
  0
LINE
  5
1ED
330
1F
100
AcDbEntity
  8
0
  6
Continuous
 62
     1
370
    15
100
AcDbLine
 10
21.10751858931172
 20
-5.555175071276111
 30
0.0
 11
24.49661147999353
 21
-5.555175071276111
 31
0.0
  0
LINE
  5
1EE
330
1F
100
AcDbEntity
  8
0
  6
Continuous
 62
     1
370
    15
100
AcDbLine
 10
24.49661147999353
 20
5.557324928723894
 30
0.0
 11
21.10751858931178
 21
5.557324928723894
 31
0.0
  0
LINE
  5
1EF
330
1F
100
AcDbEntity
  8
외형선
  6
Continuous
370
    15
100
AcDbLine
 10
-65.08875000000002
 20
-5.555175071276107
 30
0.0
 11
9.49998773025726
 21
-5.555175071276107
 31
0.0
  0
LINE
  5
1F0
330
1F
100
AcDbEntity
  8
외형선
  6
Continuous
370
    15
100
AcDbLine
 10
9.49998773025726
 20
5.557324928723894
 30
0.0
 11
-65.08875000000002
 21
5.557324928723894
 31
0.0
  0
LINE
  5
1F1
330
1F
100
AcDbEntity
  8
외형선
  6
Continuous
370
    15
100
AcDbLine
 10
-65.08875000000002
 20
5.557324928723894
 30
0.0
 11
-66.20000000000003
 21
4.446074928723895
 31
0.0
  0
LINE
  5
1F2
330
1F
100
AcDbEntity
  8
외형선
  6
Continuous
370
    15
100
AcDbLine
 10
-66.20000000000003
 20
-4.443925071276112
 30
0.0
 11
-65.08875000000002
 21
-5.555175071276107
 31
0.0
  0
SPLINE
  5
1F3
330
1F
100
AcDbEntity
  8
0
  6
Continuous
 62
     1
370
    15
100
AcDbSpline
210
0.0
220
0.0
230
1.0
 70
     8
 71
     3
 72
    18
 73
    14
 74
     0
 42
0.000000001
 43
0.00000001
 40
0.0
 40
0.0
 40
0.0
 40
0.0
 40
0.097803275537714
 40
0.1956203234737764
 40
0.2934542713628344
 40
0.3912905174350545
 40
0.4891095483609859
 40
0.5869144065713765
 40
0.684708237335892
 40
0.774330681148577
 40
0.8639469768864974
 40
0.9535820054645527
 40
1.0
 40
1.0
 40
1.0
 40
1.0
 10
10.0
 20
-0.3573565797663747
 30
0.0
 10
10.66372970819845
 20
-0.7382790951897249
 30
0.0
 10
11.99128258925572
 20
-1.500177766536652
 30
0.0
 10
13.98283651594522
 20
-2.574867362262189
 30
0.0
 10
15.97469759405209
 20
-3.540743825897138
 30
0.0
 10
17.96658742470083
 20
-4.355227886506242
 30
0.0
 10
19.95819126470207
 20
-4.983924896166926
 30
0.0
 10
21.94942656516019
 20
-5.400085661209005
 30
0.0
 10
23.88510060042603
 20
-5.580007166456703
 30
0.0
 10
25.7647947954863
 20
-5.541501723364824
 30
0.0
 10
27.58918394210997
 20
-5.29714201332418
 30
0.0
 10
29.12043049265634
 20
-4.958579771798995
 30
0.0
 10
30.04373106631101
 20
-4.642825845629304
 30
0.0
 10
30.35873884784871
 20
-4.535098257633962
 30
0.0
  0
SPLINE
  5
1F4
330
1F
100
AcDbEntity
  8
외형선
  6
Continuous
370
    15
100
AcDbSpline
210
0.0
220
0.0
230
1.0
 70
    24
 71
     3
 72
    21
 73
    17
 74
     0
 42
0.000000001
 43
0.00000001
 40
0.0
 40
0.0
 40
0.0
 40
0.0
 40
0.0557841422490091
 40
0.1297842016987062
 40
0.2059302678855637
 40
0.279930327335262
 40
0.3560763935221218
 40
0.4300764529718204
 40
0.5062225191586808
 40
0.5802225786083832
 40
0.6563686447952385
 40
0.7303687042449357
 40
0.8065147704317945
 40
0.8805148298814892
 40
0.956660896068351
 40
0.9999999999999999
 40
0.9999999999999999
 40
0.9999999999999999
 40
0.9999999999999999
 10
9.999999999999943
 20
5.082143758808819
 30
0.0
 10
9.999999999999943
 20
4.974216188698776
 30
0.0
 10
10.0
 20
4.72311806361715
 30
0.0
 10
10.0
 20
4.270725118569977
 30
0.0
 10
9.999999999999886
 20
3.742741061823452
 30
0.0
 10
9.999999999999943
 20
3.184292473203513
 30
0.0
 10
10.0
 20
2.622586262375172
 30
0.0
 10
9.999999999999943
 20
2.06305145882272
 30
0.0
 10
9.999999999999886
 20
1.531685769135194
 30
0.0
 10
10.00000000000006
 20
1.03396739615399
 30
0.0
 10
9.999999999999886
 20
0.592846469104181
 30
0.0
 10
9.999999999999943
 20
0.2132518425596786
 30
0.0
 10
9.999999999999943
 20
-0.0886707811965763
 30
0.0
 10
9.999999999999943
 20
-0.304457285139577
 30
0.0
 10
10.0
 20
-0.4249583839322852
 30
0.0
 10
9.999999999999943
 20
-0.4348620440025286
 30
0.0
 10
9.999999999999943
 20
-0.4384542534178237
 30
0.0
  0
SPLINE
  5
1F6
330
1F
100
AcDbEntity
  8
0
  6
Continuous
 62
     1
370
    15
100
AcDbSpline
210
0.0
220
0.0
230
1.0
 70
     8
 71
     3
 72
    46
 73
    42
 74
     0
 42
0.000000001
 43
0.00000001
 40
0.0055337040699905
 40
0.0055337040699905
 40
0.0055337040699905
 40
0.0055337040699905
 40
0.0625000000000004
 40
0.0625000000000004
 40
0.1250000000000009
 40
0.1250000000000009
 40
0.1875000000000012
 40
0.1875000000000012
 40
0.2187500000000008
 40
0.2187500000000008
 40
0.2500000000000004
 40
0.2500000000000004
 40
0.3125000000000009
 40
0.3125000000000009
 40
0.3437500000000006
 40
0.3437500000000006
 40
0.3750000000000001
 40
0.3750000000000001
 40
0.4375000000000006
 40
0.4375000000000006
 40
0.500000000000001
 40
0.500000000000001
 40
0.5625000000000014
 40
0.5625000000000014
 40
0.6250000000000019
 40
0.6250000000000019
 40
0.6562500000000021
 40
0.6562500000000021
 40
0.6875000000000023
 40
0.6875000000000023
 40
0.7500000000000028
 40
0.7500000000000028
 40
0.7812500000000024
 40
0.7812500000000024
 40
0.8125000000000021
 40
0.8125000000000021
 40
0.8750000000000013
 40
0.8750000000000013
 40
0.9375000000000007
 40
0.9375000000000007
 40
1.0
 40
1.0
 40
1.0
 40
1.0
 10
34.75411865173487
 20
-4.861596751683354
 30
0.0
 10
34.28072962085974
 20
-4.729492692573114
 30
0.0
 10
33.80498875431627
 20
-4.579502544777053
 30
0.0
 10
32.81851010038349
 20
-4.232647422468744
 30
0.0
 10
32.29802778115049
 20
-4.031421986606752
 30
0.0
 10
31.25892385078623
 20
-3.595802403330751
 30
0.0
 10
30.74456738620847
 20
-3.362125160168354
 30
0.0
 10
29.96463455791792
 20
-2.989937425208822
 30
0.0
 10
29.70429171754716
 20
-2.862414040895302
 30
0.0
 10
29.18542521899019
 20
-2.601708265965364
 30
0.0
 10
28.92807197742917
 20
-2.468734197724189
 30
0.0
 10
28.15213980502341
 20
-2.061543613157973
 30
0.0
 10
27.62944143762803
 20
-1.778930997798319
 30
0.0
 10
26.85254929745696
 20
-1.34652519700375
 30
0.0
 10
26.59545780518573
 20
-1.201118758596657
 30
0.0
 10
26.07708933390825
 20
-0.9072246364368652
 30
0.0
 10
25.81683578388606
 20
-0.7589252775704978
 30
0.0
 10
25.03668730066272
 20
-0.312139681473802
 30
0.0
 10
24.5219959666743
 20
-0.0126559086407809
 30
0.0
 10
23.483602566554
 20
0.5855566256633935
 30
0.0
 10
22.9612763613481
 20
0.8839999896818327
 30
0.0
 10
21.93067839967955
 20
1.467990855983153
 30
0.0
 10
21.40842925921947
 20
1.75616320320362
 30
0.0
 10
20.36998250422255
 20
2.313604566216981
 30
0.0
 10
19.85532201133663
 20
2.582664290137636
 30
0.0
 10
19.07518432656224
 20
2.969057516910098
 30
0.0
 10
18.81492342669736
 20
3.094788198841151
 30
0.0
 10
18.2965185960835
 20
3.338905538551437
 30
0.0
 10
18.03941866875124
 20
3.457143905657531
 30
0.0
 10
17.26258792930361
 20
3.801054835936853
 30
0.0
 10
16.73988695438345
 20
4.01539375275285
 30
0.0
 10
15.96388580888225
 20
4.308264406801449
 30
0.0
 10
15.70655968059566
 20
4.40115497170536
 30
0.0
 10
15.18772446009103
 20
4.577657745669093
 30
0.0
 10
14.9273863964512
 20
4.661117157290796
 30
0.0
 10
14.14743507838483
 20
4.895860248784921
 30
0.0
 10
13.63306397609279
 20
5.031172173452809
 30
0.0
 10
12.59400318839204
 20
5.257801082921738
 30
0.0
 10
12.07339955864711
 20
5.348660701787281
 30
0.0
 10
11.04133709616644
 20
5.482762825037085
 30
0.0
 10
10.51882477786023
 20
5.526435621400402
 30
0.0
 10
10.0
 20
5.545751737720202
 30
0.0
  0
SPLINE
  5
1F7
330
1F
100
AcDbEntity
  8
0
  6
Continuous
 62
     1
370
    15
100
AcDbSpline
210
0.0
220
0.0
230
1.0
 70
     8
 71
     3
 72
    18
 73
    14
 74
     0
 42
0.000000001
 43
0.00000001
 40
0.0
 40
0.0
 40
0.0
 40
0.0
 40
0.1012371442482854
 40
0.2024886727285206
 40
0.3037578218730634
 40
0.4050278966102772
 40
0.5062802064211885
 40
0.6075179742685839
 40
0.7087444565826035
 40
0.8015127028797794
 40
0.8942750980459542
 40
0.987057395667591
 40
1.0
 40
1.0
 40
1.0
 40
1.0
 10
34.892
 20
0.7690526161170794
 30
0.0
 10
34.22826634176823
 20
1.145402752016047
 30
0.0
 10
32.90070471902061
 20
1.898156497345738
 30
0.0
 10
30.90913649238303
 20
2.937561161997046
 30
0.0
 10
28.91726567262344
 20
3.854015365452824
 30
0.0
 10
26.92538455270358
 20
4.605489337864313
 30
0.0
 10
24.93379478919951
 20
5.160631424056902
 30
0.0
 10
22.94257198861743
 20
5.495925566579587
 30
0.0
 10
21.00690678917272
 20
5.592804639675371
 30
0.0
 10
19.12722095883186
 20
5.475231631281979
 30
0.0
 10
17.30282096263642
 20
5.149627315014321
 30
0.0
 10
16.00170825081477
 20
4.826404530758758
 30
0.0
 10
15.30856258219774
 20
4.571838539647544
 30
0.0
 10
15.22370925088381
 20
4.540675144472473
 30
0.0
  0
SPLINE
  5
1F8
330
1F
100
AcDbEntity
  8
0
  6
Continuous
 62
     1
370
    15
100
AcDbSpline
210
0.0
220
0.0
230
1.0
 70
     8
 71
     3
 72
    14
 73
    10
 74
     0
 42
0.000000001
 43
0.00000001
 40
0.0
 40
0.0
 40
0.0
 40
0.0
 40
0.25
 40
0.25
 40
0.5
 40
0.5
 40
0.75
 40
0.75
 40
1.0
 40
1.0
 40
1.0
 40
1.0
 10
35.39999999999998
 20
0.5503025488538711
 30
0.0
 10
35.39999999999998
 20
0.5459627466527195
 30
0.0
 10
35.38571524823334
 20
0.5467789359136432
 30
0.0
 10
35.33074931076561
 20
0.5611949019441269
 30
0.0
 10
35.28971766435916
 20
0.5750589765122882
 30
0.0
 10
35.19132284925109
 20
0.6150173733113888
 30
0.0
 10
35.13403052037836
 20
0.6410790668355446
 30
0.0
 10
35.01376808866905
 20
0.7012832477822215
 30
0.0
 10
34.95259866682392
 20
0.7344134923257855
 30
0.0
 10
34.89199999999994
 20
0.7690526161170865
 30
0.0
  0
LINE
  5
1F9
330
1F
100
AcDbEntity
  8
외형선
  6
Continuous
370
    15
100
AcDbLine
 10
9.999999999999943
 20
5.082143758808819
 30
0.0
 11
10.0
 21
5.545751737720202
 31
0.0
  0
SPLINE
  5
1FA
330
1F
100
AcDbEntity
  8
0
  6
Continuous
 62
     1
370
    15
100
AcDbSpline
210
0.0
220
0.0
230
1.0
 70
     8
 71
     3
 72
    14
 73
    10
 74
     0
 42
0.000000001
 43
0.00000001
 40
0.0
 40
0.0
 40
0.0
 40
0.0
 40
0.0140430709604662
 40
0.1783017528909196
 40
0.342550074605413
 40
0.5068336362994446
 40
0.671197837497253
 40
0.8356445543468907
 40
0.9999999999999999
 40
0.9999999999999999
 40
0.9999999999999999
 40
0.9999999999999999
 10
21.10751858931172
 20
-5.546611779451091
 30
0.0
 10
21.05552105786052
 20
-5.549434717171881
 30
0.0
 10
20.39531995015079
 20
-5.585276930412519
 30
0.0
 10
19.12723361635676
 20
-5.456053226424718
 30
0.0
 10
17.30283037553539
 20
-5.160839378330557
 30
0.0
 10
15.47799873222596
 20
-4.657734337952164
 30
0.0
 10
13.65225489887979
 20
-3.992090508463683
 30
0.0
 10
11.82591871585629
 20
-3.187686299286007
 30
0.0
 10
10.60852692791883
 20
-2.560624579786328
 30
0.0
 10
9.999999999999943
 20
-2.247180752118332
 30
0.0
  0
LINE
  5
1FB
330
1F
100
AcDbEntity
  8
외형선
  6
Continuous
370
    15
100
AcDbLine
 10
9.999999999999943
 20
-2.247180752118332
 30
0.0
 11
10.0
 21
-0.3573565797663676
 31
0.0
  0
SPLINE
  5
1FC
330
1F
100
AcDbEntity
  8
0
  6
Continuous
 62
     1
370
    15
100
AcDbSpline
210
0.0
220
0.0
230
1.0
 70
     8
 71
     3
 72
    12
 73
     8
 74
     0
 42
0.000000001
 43
0.00000001
 40
0.0
 40
0.0
 40
0.0
 40
0.0
 40
0.5
 40
0.5
 40
0.75
 40
0.75
 40
1.0
 40
1.0
 40
1.0
 40
1.0
 10
34.89199999999994
 20
2.619363970854913
 30
0.0
 10
35.02368727452381
 20
2.552327813052514
 30
0.0
 10
35.14436122282189
 20
2.453153889295542
 30
0.0
 10
35.28598481075505
 20
2.290931846130583
 30
0.0
 10
35.32583918806904
 20
2.235244535328292
 30
0.0
 10
35.38341546565192
 20
2.127208104576503
 30
0.0
 10
35.39999999999998
 20
2.076712940475957
 30
0.0
 10
35.39999999999992
 20
2.034571995681539
 30
0.0
  0
LINE
  5
1FD
330
1F
100
AcDbEntity
  8
0
  6
Continuous
 62
     1
370
    15
100
AcDbLine
 10
35.39999999999998
 20
0.5503025488538711
 30
0.0
 11
35.39999999999998
 21
2.034571995681539
 31
0.0
  0
SPLINE
  5
1FE
330
1F
100
AcDbEntity
  8
0
  6
Continuous
 62
     1
370
    15
100
AcDbSpline
210
0.0
220
0.0
230
1.0
 70
     8
 71
     3
 72
    13
 73
     9
 74
     0
 42
0.000000001
 43
0.00000001
 40
0.0
 40
0.0
 40
0.0
 40
0.0
 40
0.1220100968972751
 40
0.2975105114616558
 40
0.4730476115549638
 40
0.6486699139023441
 40
0.824382745584583
 40
1.0
 40
1.0
 40
1.0
 40
1.0
 10
24.49661147999353
 20
5.536178247409786
 30
0.0
 10
24.9193580421952
 20
5.535269682550016
 30
0.0
 10
25.95018704026711
 20
5.533054229870288
 30
0.0
 10
27.58917094120704
 20
5.29979722305039
 30
0.0
 10
29.41399982256291
 20
4.878011083770474
 30
0.0
 10
31.23972272128236
 20
4.272058968430613
 30
0.0
 10
33.06606103285043
 20
3.52193517111639
 30
0.0
 10
34.28346407337642
 20
2.920166468406194
 30
0.0
 10
34.892
 20
2.619363970854884
 30
0.0
  0
SPLINE
  5
1FF
330
1F
100
AcDbEntity
  8
0
  6
Continuous
 62
     1
370
    15
100
AcDbSpline
210
0.0
220
0.0
230
1.0
 70
     8
 71
     3
 72
    10
 73
     6
 74
     0
 42
0.000000001
 43
0.00000001
 40
0.0
 40
0.0
 40
0.0
 40
0.0
 40
0.3811947654301445
 40
0.7624432096980269
 40
1.0
 40
1.0
 40
1.0
 40
1.0
 10
10.0
 20
-5.543601880272412
 30
0.0
 10
10.66373007047901
 20
-5.494400012255639
 30
0.0
 10
11.99128367614856
 20
-5.395989347745299
 30
0.0
 10
13.73251680620376
 20
-5.03455727995232
 30
0.0
 10
14.81004904574593
 20
-4.676125699822784
 30
0.0
 10
15.22370925088381
 20
-4.538525287024683
 30
0.0
  0
SPLINE
  5
200
330
1F
100
AcDbEntity
  8
외형선
  6
Continuous
370
    15
100
AcDbSpline
210
0.0
220
0.0
230
1.0
 70
    24
 71
     3
 72
    15
 73
    11
 74
     0
 42
0.000000001
 43
0.00000001
 40
0.0
 40
0.0
 40
0.0
 40
0.0
 40
0.0009118755605491
 40
0.1580005196537597
 40
0.3196447450676146
 40
0.4767333891608199
 40
0.6383776145746809
 40
0.7954662586678953
 40
0.9571104840817536
 40
1.0
 40
1.0
 40
1.0
 40
1.0
 10
9.999999999999943
 20
-2.317377896055667
 30
0.0
 10
9.999999999999943
 20
-2.318041058490465
 30
0.0
 10
10.00000000000131
 20
-2.432947098137809
 30
0.0
 10
9.999999999999261
 20
-2.730773040702246
 30
0.0
 10
10.00000000000011
 20
-3.197858678378225
 30
0.0
 10
9.999999999999886
 20
-3.722638569391876
 30
0.0
 10
10.00000000000006
 20
-4.269407480637447
 30
0.0
 10
9.99999999999983
 20
-4.835239658835889
 30
0.0
 10
9.999999999999943
 20
-5.26029321505203
 30
0.0
 10
9.999999999999943
 20
-5.494491818260528
 30
0.0
 10
10.0
 20
-5.543601880272412
 30
0.0
  0
LINE
  5
201
330
1F
100
AcDbEntity
  8
외형선
  6
Continuous
370
    15
100
AcDbLine
 10
9.49998773025726
 20
5.556889833979021
 30
0.0
 11
9.49998773025726
 21
5.557324928723894
 31
0.0
  0
SPLINE
  5
202
330
1F
100
AcDbEntity
  8
외형선
  6
Continuous
370
    15
100
AcDbSpline
210
0.0
220
0.0
230
1.0
 70
     8
 71
     3
 72
     8
 73
     4
 74
     0
 42
0.000000001
 43
0.00000001
 40
0.0
 40
0.0
 40
0.0
 40
0.0
 40
1.0
 40
1.0
 40
1.0
 40
1.0
 10
10.0
 20
5.545751737720202
 30
0.0
 10
9.832833589248139
 20
5.551975430135514
 30
0.0
 10
9.666051011450236
 20
5.555685110624999
 30
0.0
 10
9.49998773025726
 20
5.556889818509745
 30
0.0
  0
SPLINE
  5
203
330
1F
100
AcDbEntity
  8
외형선
  6
Continuous
370
    15
100
AcDbSpline
210
0.0
220
0.0
230
1.0
 70
     8
 71
     3
 72
     8
 73
     4
 74
     0
 42
0.000000001
 43
0.00000001
 40
0.0
 40
0.0
 40
0.0
 40
0.0
 40
1.0
 40
1.0
 40
1.0
 40
1.0
 10
9.999999999999943
 20
5.082143758808819
 30
0.0
 10
9.832833589248082
 20
5.121181766062939
 30
0.0
 10
9.666051011450236
 20
5.157890423749031
 30
0.0
 10
9.49998773025726
 20
5.192210681267902
 30
0.0
  0
LINE
  5
204
330
1F
100
AcDbEntity
  8
외형선
  6
Continuous
370
    15
100
AcDbLine
 10
9.49998773025726
 20
-0.0684578048979745
 30
0.0
 11
9.49998773025726
 21
5.192212913966884
 31
0.0
  0
SPLINE
  5
205
330
1F
100
AcDbEntity
  8
외형선
  6
Continuous
370
    15
100
AcDbSpline
210
0.0
220
0.0
230
1.0
 70
     8
 71
     3
 72
     8
 73
     4
 74
     0
 42
0.000000001
 43
0.00000001
 40
0.0
 40
0.0
 40
0.0
 40
0.0
 40
1.0
 40
1.0
 40
1.0
 40
1.0
 10
10.0
 20
-0.3573565797663747
 30
0.0
 10
9.832833589248139
 20
-0.2610805488256815
 30
0.0
 10
9.666051011450236
 20
-0.1647160795775875
 30
0.0
 10
9.49998773025726
 20
-0.0684590409157622
 30
0.0
  0
SPLINE
  5
206
330
1F
100
AcDbEntity
  8
외형선
  6
Continuous
370
    15
100
AcDbSpline
210
0.0
220
0.0
230
1.0
 70
     8
 71
     3
 72
     8
 73
     4
 74
     0
 42
0.000000001
 43
0.00000001
 40
0.0
 40
0.0
 40
0.0
 40
0.0
 40
1.0
 40
1.0
 40
1.0
 40
1.0
 10
9.999999999999943
 20
-2.247180752118332
 30
0.0
 10
9.832833589248082
 20
-2.158954664873114
 30
0.0
 10
9.666051011450236
 20
-2.069778731383835
 30
0.0
 10
9.49998773025726
 20
-1.979839925872149
 30
0.0
  0
LINE
  5
207
330
1F
100
AcDbEntity
  8
외형선
  6
Continuous
370
    15
100
AcDbLine
 10
9.49998773025726
 20
-5.555175071276107
 30
0.0
 11
9.49998773025726
 21
-1.979834074907323
 31
0.0
  0
SPLINE
  5
208
330
1F
100
AcDbEntity
  8
외형선
  6
Continuous
370
    15
100
AcDbSpline
210
0.0
220
0.0
230
1.0
 70
     8
 71
     3
 72
     8
 73
     4
 74
     0
 42
0.000000001
 43
0.00000001
 40
0.0
 40
0.0
 40
0.0
 40
0.0
 40
1.0
 40
1.0
 40
1.0
 40
1.0
 10
10.0
 20
-5.543601880272412
 30
0.0
 10
9.832833589248139
 20
-5.549825572687727
 30
0.0
 10
9.666051011450236
 20
-5.553535253177213
 30
0.0
 10
9.49998773025726
 20
-5.554739961061959
 30
0.0
  0
LINE
  5
209
330
1F
100
AcDbEntity
  8
외형선
  6
Continuous
370
    15
100
AcDbLine
 10
-65.08875000000002
 20
0.0010749287238951
 30
0.0
 11
-65.08875000000002
 21
5.557324928723894
 31
0.0
  0
LINE
  5
20A
330
1F
100
AcDbEntity
  8
외형선
  6
Continuous
370
    15
100
AcDbLine
 10
-65.08875000000002
 20
-5.555175071276107
 30
0.0
 11
-65.08875000000002
 21
0.0010749287238951
 31
0.0
  0
LINE
  5
20B
330
1F
100
AcDbEntity
  8
외형선
  6
Continuous
370
    15
100
AcDbLine
 10
-66.20000000000003
 20
0.0010749287238951
 30
0.0
 11
-66.20000000000003
 21
4.446074928723895
 31
0.0
  0
LINE
  5
20C
330
1F
100
AcDbEntity
  8
외형선
  6
Continuous
370
    15
100
AcDbLine
 10
-66.20000000000003
 20
-4.443925071276112
 30
0.0
 11
-66.20000000000003
 21
0.0010749287238951
 31
0.0
  0
SPLINE
  5
20D
330
1F
100
AcDbEntity
  8
외형선
  6
Continuous
370
    15
100
AcDbSpline
210
0.0
220
0.0
230
1.0
 70
    24
 71
     3
 72
    21
 73
    17
 74
     0
 42
0.000000001
 43
0.00000001
 40
0.0
 40
0.0
 40
0.0
 40
0.0
 40
0.0255575770786509
 40
0.0996764699343214
 40
0.1759448157039769
 40
0.2500637085596639
 40
0.3263320543293369
 40
0.4004509471850154
 40
0.4767192929546787
 40
0.5508381858103576
 40
0.6271065315800216
 40
0.7012254244356958
 40
0.7774937702053547
 40
0.8516126630610407
 40
0.927881008830713
 40
0.9999999999999999
 40
0.9999999999999999
 40
0.9999999999999999
 40
0.9999999999999999
 10
9.999999999999943
 20
-0.4377557840521575
 30
0.0
 10
10.0
 20
-0.4378247222212011
 30
0.0
 10
9.999999999999943
 20
-0.4380935862575939
 30
0.0
 10
10.00000000000011
 20
-0.339621031187626
 30
0.0
 10
9.999999999999886
 20
-0.1483064697545942
 30
0.0
 10
10.00000000000006
 20
0.1380762898320143
 30
0.0
 10
9.999999999999943
 20
0.4975553024413131
 30
0.0
 10
9.999999999999943
 20
0.9287636800278989
 30
0.0
 10
9.999999999999943
 20
1.411111833783337
 30
0.0
 10
9.999999999999943
 20
1.939788507345192
 30
0.0
 10
9.999999999999943
 20
2.49029818368669
 30
0.0
 10
9.999999999999943
 20
3.056871443414067
 30
0.0
 10
9.999999999999943
 20
3.613671505225959
 30
0.0
 10
9.999999999999886
 20
4.153462488422079
 30
0.0
 10
10.00000000000006
 20
4.652346091954016
 30
0.0
 10
9.999999999999943
 20
4.941573760630533
 30
0.0
 10
9.999999999999943
 20
5.082143758808854
 30
0.0
  0
SPLINE
  5
20E
330
1F
100
AcDbEntity
  8
외형선
  6
Continuous
370
    15
100
AcDbSpline
210
0.0
220
0.0
230
1.0
 70
    24
 71
     3
 72
    14
 73
    10
 74
     0
 42
0.000000001
 43
0.00000001
 40
0.0
 40
0.0
 40
0.0
 40
0.0
 40
0.1606768824177368
 40
0.3262661136717188
 40
0.4829659354510876
 40
0.6442100626776588
 40
0.8009098844570627
 40
0.9621540116836709
 40
1.0
 40
1.0
 40
1.0
 40
1.0
 10
10.0
 20
-5.543601880272412
 30
0.0
 10
9.999999999999943
 20
-5.357357904693909
 30
0.0
 10
9.999999999999886
 20
-4.979175946017438
 30
0.0
 10
10.0
 20
-4.406049507143784
 30
0.0
 10
9.999999999999943
 20
-3.844868551309602
 30
0.0
 10
9.999999999999943
 20
-3.317377156795558
 30
0.0
 10
9.999999999999943
 20
-2.831749944937648
 30
0.0
 10
9.999999999999943
 20
-2.495713828127911
 30
0.0
 10
9.999999999999943
 20
-2.34585523062195
 30
0.0
 10
9.999999999999943
 20
-2.317367896055664
 30
0.0
  0
LINE
  5
20F
330
1F
100
AcDbEntity
  8
중심선
 48
0.8
100
AcDbLine
 10
-69.20000000000003
 20
0.0010749287238951
 30
0.0
 11
38.39999999999998
 21
0.0010749287239022
 31
0.0
  0
CIRCLE
  5
210
330
1F
100
AcDbEntity
  8
해칭선
100
AcDbCircle
 10
0.0
 20
0.0
 30
0.0
 40
3.000000000000001
  0
DIMENSION
  5
211
330
1F
100
AcDbEntity
  8
0
  6
Continuous
370
    15
100
AcDbDimension
  2
*D13
 10
-78.72375000000002
 20
-5.55517507127617
 30
0.0
 11
-78.72375000000004
 21
-2.307106152713281
 31
0.0
 70
   160
  1
%%c<>
 71
     2
 42
11.11250000000003
 52
-270.0
  3
SLDDIMSTYLE1
100
AcDbAlignedDimension
 13
-65.08875000000002
 23
5.557324928723908
 33
0.0
 14
-65.08875000000002
 24
-5.555175071276118
 34
0.0
 50
90.0000000000002
100
AcDbRotatedDimension
1001
ACAD
1000
DSTYLE
1002
{
1070
   171
1070
     6
1070
   273
1070
     7
1002
}
  0
DIMENSION
  5
212
330
1F
100
AcDbEntity
  8
0
  6
Continuous
370
    15
100
AcDbDimension
  2
*D14
 10
-66.20000000000003
 20
32.17568910375019
 30
0.0
 11
-15.40000000000003
 21
32.17568910375019
 31
0.0
 70
   160
  1
<>
 71
     2
 42
101.6
  3
SLDDIMSTYLE1
100
AcDbAlignedDimension
 13
35.39999999999998
 23
5.557324928723894
 33
0.0
 14
-66.20000000000003
 24
4.446074928723895
 34
0.0
 50
0.000000000000004
100
AcDbRotatedDimension
1001
ACAD
1000
DSTYLE
1002
{
1070
   171
1070
     6
1070
   273
1070
     7
1002
}
  0
DIMENSION
  5
213
330
1F
100
AcDbEntity
  8
0
  6
Continuous
370
    15
100
AcDbDimension
  2
*D15
 10
10.0
 20
15.31412320482709
 30
0.0
 11
22.69999999999999
 21
15.31412320482709
 31
0.0
 70
   160
  1
<>
 71
     2
 42
25.39999999999998
  3
SLDDIMSTYLE1
100
AcDbAlignedDimension
 13
35.39999999999998
 23
5.557324928723894
 33
0.0
 14
10.0
 24
5.545751737720202
 34
0.0
 50
-0.000000000000004
100
AcDbRotatedDimension
1001
ACAD
1000
DSTYLE
1002
{
1070
   171
1070
     6
1070
   273
1070
     7
1002
}
  0
DIMENSION
  5
214
330
1F
100
AcDbEntity
  8
0
  6
Continuous
370
    15
100
AcDbDimension
  2
*D16
 10
49.72682382530213
 20
-5.555175071276018
 30
0.0
 11
49.72682382530203
 21
22.42182492872399
 31
0.0
 70
   160
  1
%%c<>
 71
     2
 42
11.11249999999997
 52
-270.0
  3
SLDDIMSTYLE1
100
AcDbAlignedDimension
 13
35.39999999999998
 23
5.557324928723894
 33
0.0
 14
35.39999999999998
 24
-5.555175071276071
 34
0.0
 50
90.0000000000002
100
AcDbRotatedDimension
1001
ACAD
1000
DSTYLE
1002
{
1070
   171
1070
     6
1070
   273
1070
     7
1002
}
  0
INSERT
  5
215
330
1F
100
AcDbEntity
  8
해칭선
100
AcDbBlockReference
  2
SW_DOWELSYMBOL_0
 10
0.0
 20
0.0
 30
0.0
  0
LINE
  5
216
330
1F
100
AcDbEntity
  8
0
  6
Continuous
 62
     1
370
    15
100
AcDbLine
 10
35.39999999999998
 20
2.031723444306081
 30
0.0
 11
35.39999999999998
 21
3.271324928723894
 31
0.0
  0
SPLINE
  5
217
330
1F
100
AcDbEntity
  8
0
  6
Continuous
 62
     1
370
    15
100
AcDbSpline
210
0.0
220
0.0
230
1.0
 70
     8
 71
     3
 72
    10
 73
     6
 74
     0
 42
0.000000001
 43
0.00000001
 40
0.0
 40
0.0
 40
0.0
 40
0.0
 40
0.4392536656200396
 40
0.8785697423902354
 40
1.0
 40
1.0
 40
1.0
 40
1.0
 10
33.11399999999998
 20
5.557324928723894
 30
0.0
 10
32.11997358549104
 20
5.508322299198198
 30
0.0
 10
31.37277897116209
 20
5.217176543192966
 30
0.0
 10
30.88673987518396
 20
4.908571688227347
 30
0.0
 10
30.54223903265699
 20
4.697874130809337
 30
0.0
 10
30.35873884784871
 20
4.537248115081752
 30
0.0
  0
LINE
  5
21A
330
1F
100
AcDbEntity
  8
0
  6
Continuous
 62
     1
370
    15
100
AcDbLine
 10
35.39999999999998
 20
-3.269175071276088
 30
0.0
 11
35.39999999999998
 21
0.5503025488538711
 31
0.0
  0
ARC
  5
25C
330
1F
100
AcDbEntity
  8
0
  6
Continuous
 62
     1
370
    15
100
AcDbCircle
 10
33.11399999999998
 20
3.271324928723894
 30
0.0
 40
2.285999999999999
100
AcDbArc
 50
0.0
 51
90.00000000000072
  0
ARC
  5
25D
102
{ACAD_REACTORS
102
}
330
1F
100
AcDbEntity
  8
0
  6
Continuous
 62
     1
370
    15
100
AcDbCircle
 10
33.11399999999998
 20
-3.269175071276088
 30
0.0
 40
2.285999999999999
100
AcDbArc
 50
269.9999999999993
 51
0.0
  0
SPLINE
  5
25E
330
1F
100
AcDbEntity
  8
0
  6
Continuous
 62
     1
370
    15
100
AcDbSpline
210
0.0
220
0.0
230
1.0
 70
     8
 71
     3
 72
     9
 73
     5
 74
     3
 42
0.000000001
 43
0.0000000001
 44
0.0
 40
0.0
 40
0.0
 40
0.0
 40
0.0
 40
1.397602672722168
 40
2.963225638113262
 40
2.963225638113262
 40
2.963225638113262
 40
2.963225638113262
 10
30.33052359240909
 20
-4.544747074861959
 30
0.0
 10
30.75908340409011
 20
-4.728366153223661
 30
0.0
 10
31.66772464113404
 20
-5.1176790611536
 30
0.0
 10
32.61402260743098
 20
-5.403932700271515
 30
0.0
 10
33.11399999999995
 20
-5.555175071276086
 30
0.0
 11
30.33052359240909
 21
-4.544747074861959
 31
0.0
 11
31.62457987469156
 21
-5.072678480525067
 31
0.0
 11
33.11399999999995
 21
-5.555175071276086
 31
0.0
  0
SPLINE
  5
25F
330
1F
100
AcDbEntity
  8
0
  6
Continuous
 62
     1
370
    15
100
AcDbSpline
210
0.0
220
0.0
230
1.0
 70
     8
 71
     3
 72
    42
 73
    38
 74
     0
 42
0.000000001
 43
0.00000001
 40
0.1832534171367333
 40
0.1832534171367333
 40
0.1832534171367333
 40
0.1832534171367333
 40
0.1875000000000064
 40
0.1875000000000064
 40
0.2187500000000069
 40
0.2187500000000069
 40
0.2500000000000073
 40
0.2500000000000073
 40
0.312500000000007
 40
0.312500000000007
 40
0.3437500000000069
 40
0.3437500000000069
 40
0.3750000000000067
 40
0.3750000000000067
 40
0.4375000000000065
 40
0.4375000000000065
 40
0.5000000000000062
 40
0.5000000000000062
 40
0.5625000000000059
 40
0.5625000000000059
 40
0.6250000000000056
 40
0.6250000000000056
 40
0.6562500000000049
 40
0.6562500000000049
 40
0.6875000000000041
 40
0.6875000000000041
 40
0.7500000000000026
 40
0.7500000000000026
 40
0.7812500000000018
 40
0.7812500000000018
 40
0.812500000000001
 40
0.812500000000001
 40
0.8750000000000007
 40
0.8750000000000007
 40
0.9375000000000003
 40
0.9375000000000003
 40
1.0
 40
1.0
 40
1.0
 40
1.0
 10
30.33052359240909
 20
-4.544747074861956
 30
0.0
 10
30.29524337382873
 20
-4.53304503818967
 30
0.0
 10
30.25994069410135
 20
-4.521249187797984
 30
0.0
 10
29.96463455791786
 20
-4.421867617363702
 30
0.0
 10
29.70429171754716
 20
-4.329407297813418
 30
0.0
 10
29.18542521899013
 20
-4.135476140980735
 30
0.0
 10
28.92807197742917
 20
-4.034169812342569
 30
0.0
 10
28.15213980502335
 20
-3.716941528197964
 30
0.0
 10
27.62944143762797
 20
-3.487529218435483
 30
0.0
 10
26.85254929745696
 20
-3.1231942803255
 30
0.0
 10
26.59545780518573
 20
-2.998520943513149
 30
0.0
 10
26.07708933390825
 20
-2.742251857623543
 30
0.0
 10
25.81683578388606
 20
-2.61081078354195
 30
0.0
 10
25.03668730066278
 20
-2.208469664319217
 30
0.0
 10
24.5219959666743
 20
-1.93038428025384
 30
0.0
 10
23.48360256655394
 20
-1.358248484859267
 30
0.0
 10
22.9612763613481
 20
-1.064399413261235
 30
0.0
 10
21.93067839967949
 20
-0.4726565205060496
 30
0.0
 10
21.40842925921947
 20
-0.1721036716655746
 30
0.0
 10
20.36998250422249
 20
0.4267550589435913
 30
0.0
 10
19.85532201133663
 20
0.7247596255641824
 30
0.0
 10
19.07518432656218
 20
1.166656578770457
 30
0.0
 10
18.81492342669736
 20
1.312883116552882
 30
0.0
 10
18.29651859608344
 20
1.601768014133121
 30
0.0
 10
18.03941866875118
 20
1.744239444783339
 30
0.0
 10
17.26258792930355
 20
2.166524134863437
 30
0.0
 10
16.73988695438345
 20
2.440659603766861
 30
0.0
 10
15.9638858088822
 20
2.832788037215884
 30
0.0
 10
15.70655968059566
 20
2.960343382791287
 30
0.0
 10
15.18772446009098
 20
3.209422844018114
 30
0.0
 10
14.92738639645114
 20
3.330745615849885
 30
0.0
 10
14.14743507838472
 20
3.683257061442838
 30
0.0
 10
13.63306397609279
 20
3.902418428376997
 30
0.0
 10
12.59400318839198
 20
4.306380825804922
 30
0.0
 10
12.07339955864711
 20
4.490521068431541
 30
0.0
 10
11.04133709616639
 20
4.817262359326001
 30
0.0
 10
10.51882477786017
 20
4.960983740174527
 30
0.0
 10
9.999999999999943
 20
5.082143758808819
 30
0.0
  0
DIMENSION
  5
260
102
{ACAD_REACTORS
102
}
102
{ACAD_XDICTIONARY
360
261
102
}
330
1F
100
AcDbEntity
  8
0
  6
Continuous
370
    15
100
AcDbDimension
  2
*D18
 10
33.11399999999998
 20
-3.269175071276088
 30
0.0
 11
42.36835263401516
 21
-25.86905137376493
 31
0.0
 70
   164
  1
<>
 71
     5
 42
2.286000000000003
  3
SLDDIMSTYLE2
100
AcDbRadialDimension
 15
33.98027220643326
 25
-5.38468173975086
 35
0.0
 40
0.0
1001
ACAD
1000
DSTYLE
1002
{
1070
   171
1070
     3
1002
}
1001
ACAD_DSTYLE_DIMRADIAL_EXTENSION
1070
   387
1070
     1
1070
   388
1040
4.712388980384677
1070
   390
1040
0.0
  0
ENDSEC
  0
SECTION
  2
OBJECTS
  0
DICTIONARY
  5
C
330
0
100
AcDbDictionary
281
     1
  3
ACAD_GROUP
350
D
  3
ACAD_IMAGE_VARS
350
148
  3
ACAD_LAYOUT
350
1A
  3
ACAD_MLINESTYLE
350
17
  3
ACAD_PLOTSETTINGS
350
19
  3
ACAD_PLOTSTYLENAME
350
E
  3
ACAD_SCALELIST
350
47
  3
APPDATA
350
146
  3
DWGPROPS
350
26D
  0
DICTIONARY
  5
1E7
330
2
100
AcDbDictionary
280
     1
281
     1
  3
ACAD_LAYERSTATES
360
1E8
  0
DICTIONARY
  5
261
330
260
100
AcDbDictionary
280
     1
281
     1
  0
DICTIONARY
  5
D
102
{ACAD_REACTORS
330
C
102
}
330
C
100
AcDbDictionary
281
     1
  0
RASTERVARIABLES
  5
148
102
{ACAD_REACTORS
330
C
102
}
330
C
100
AcDbRasterVariables
 90
        0
 70
     1
 71
     1
 72
     1
  0
DICTIONARY
  5
1A
102
{ACAD_REACTORS
330
C
102
}
330
C
100
AcDbDictionary
281
     1
  3
Layout1
350
1E
  3
Layout2
350
26
  3
Model
350
22
  0
DICTIONARY
  5
17
102
{ACAD_REACTORS
330
C
102
}
330
C
100
AcDbDictionary
281
     1
  3
Standard
350
18
  0
DICTIONARY
  5
19
102
{ACAD_REACTORS
330
C
102
}
330
C
100
AcDbDictionary
281
     1
  0
ACDBDICTIONARYWDFLT
  5
E
102
{ACAD_REACTORS
330
C
102
}
330
C
100
AcDbDictionary
281
     1
  3
Normal
350
F
100
AcDbDictionaryWithDefault
340
F
  0
DICTIONARY
  5
47
102
{ACAD_REACTORS
330
C
102
}
330
C
100
AcDbDictionary
281
     1
  3
A0
350
48
  3
A1
350
49
  3
A2
350
4A
  3
A3
350
4B
  3
A4
350
4C
  3
A5
350
4D
  3
A6
350
4E
  3
A7
350
4F
  3
A8
350
50
  3
A9
350
51
  3
B0
350
52
  3
B1
350
53
  3
B2
350
54
  3
B3
350
55
  3
B4
350
56
  3
B5
350
57
  3
B6
350
58
  3
B7
350
59
  3
B8
350
5A
  3
B9
350
5B
  3
C0
350
5C
  3
C1
350
5D
  3
C2
350
5E
  3
C3
350
5F
  3
C4
350
60
  3
C5
350
61
  3
C6
350
62
  3
C7
350
63
  3
C8
350
64
  3
C9
350
65
  3
D0
350
66
  3
D1
350
67
  3
D2
350
68
  0
DICTIONARY
  5
146
102
{ACAD_REACTORS
330
C
102
}
330
C
100
AcDbDictionary
281
     1
  0
XRECORD
  5
26D
102
{ACAD_REACTORS
330
C
102
}
330
C
100
AcDbXrecord
280
     1
  1
DWGPROPS COOKIE
  2

  3

  4

  6

  7

  8
12017012
  9

300
=
301
=
302
=
303
=
304
=
305
=
306
=
307
=
308
=
309
=
 40
0.0
 41
2458296.332219109
 42
2458296.393381863
  1

 90
        0
  0
DICTIONARY
  5
1E8
102
{ACAD_REACTORS
330
1E7
102
}
330
1E7
100
AcDbDictionary
281
     1
  0
LAYOUT
  5
1E
102
{ACAD_REACTORS
330
1A
102
}
330
1A
100
AcDbPlotSettings
  1

  2
none_device
  4

  6

 40
0.0
 41
0.0
 42
0.0
 43
0.0
 44
0.0
 45
0.0
 46
0.0
 47
0.0
 48
0.0
 49
0.0
140
0.0
141
0.0
142
1.0
143
1.0
 70
   688
 72
     1
 73
     0
 74
     5
  7

 75
    16
147
1.0
148
0.0
149
0.0
100
AcDbLayout
  1
Layout1
 70
     1
 71
     1
 10
0.0
 20
0.0
 11
420.0
 21
297.0
 12
0.0
 22
0.0
 32
0.0
 14
1.000000000000000E+20
 24
1.000000000000000E+20
 34
1.000000000000000E+20
 15
-1.000000000000000E+20
 25
-1.000000000000000E+20
 35
-1.000000000000000E+20
146
0.0
 13
0.0
 23
0.0
 33
0.0
 16
1.0
 26
0.0
 36
0.0
 17
0.0
 27
1.0
 37
0.0
 76
     0
330
1B
  0
LAYOUT
  5
26
102
{ACAD_REACTORS
330
1A
102
}
330
1A
100
AcDbPlotSettings
  1

  2
none_device
  4

  6

 40
0.0
 41
0.0
 42
0.0
 43
0.0
 44
0.0
 45
0.0
 46
0.0
 47
0.0
 48
0.0
 49
0.0
140
0.0
141
0.0
142
1.0
143
1.0
 70
   688
 72
     1
 73
     0
 74
     5
  7

 75
    16
147
1.0
148
0.0
149
0.0
100
AcDbLayout
  1
Layout2
 70
     1
 71
     2
 10
0.0
 20
0.0
 11
0.0
 21
0.0
 12
0.0
 22
0.0
 32
0.0
 14
0.0
 24
0.0
 34
0.0
 15
0.0
 25
0.0
 35
0.0
146
0.0
 13
0.0
 23
0.0
 33
0.0
 16
1.0
 26
0.0
 36
0.0
 17
0.0
 27
1.0
 37
0.0
 76
     0
330
23
  0
LAYOUT
  5
22
102
{ACAD_REACTORS
330
1A
102
}
330
1A
100
AcDbPlotSettings
  1

  2
none_device
  4
ANSI_A_(11.00_x_8.50_Inches)
  6

 40
6.35
 41
19.05
 42
6.35000508
 43
19.05000254
 44
279.4
 45
215.9
 46
124.6091284214175
 47
97.61731890548309
 48
0.0
 49
0.0
140
0.0
141
0.0
142
0.0722616022497513
143
1.0
 70
  1696
 72
     0
 73
     0
 74
     0
  7

 75
     0
147
0.0235690232323232
148
0.0
149
0.0
100
AcDbLayout
  1
Model
 70
     1
 71
     0
 10
0.0
 20
0.0
 11
420.0
 21
297.0
 12
0.0
 22
0.0
 32
0.0
 14
1.000000000000000E+20
 24
1.000000000000000E+20
 34
1.000000000000000E+20
 15
-1.000000000000000E+20
 25
-1.000000000000000E+20
 35
-1.000000000000000E+20
146
0.0
 13
0.0
 23
0.0
 33
0.0
 16
1.0
 26
0.0
 36
0.0
 17
0.0
 27
1.0
 37
0.0
 76
     0
330
1F
331
29
  0
MLINESTYLE
  5
18
102
{ACAD_REACTORS
330
17
102
}
330
17
100
AcDbMlineStyle
  2
Standard
 70
     0
  3

 62
   256
 51
90.0
 52
90.0
 71
     2
 49
0.5
 62
   256
  6
BYLAYER
 49
-0.5
 62
   256
  6
BYLAYER
  0
ACDBPLACEHOLDER
  5
F
102
{ACAD_REACTORS
330
E
102
}
330
E
  0
SCALE
  5
48
102
{ACAD_REACTORS
330
47
102
}
330
47
100
AcDbScale
 70
     0
300
1:1
140
1.0
141
1.0
290
     1
  0
SCALE
  5
49
102
{ACAD_REACTORS
330
47
102
}
330
47
100
AcDbScale
 70
     0
300
1:2
140
1.0
141
2.0
290
     0
  0
SCALE
  5
4A
102
{ACAD_REACTORS
330
47
102
}
330
47
100
AcDbScale
 70
     0
300
1:4
140
1.0
141
4.0
290
     0
  0
SCALE
  5
4B
102
{ACAD_REACTORS
330
47
102
}
330
47
100
AcDbScale
 70
     0
300
1:5
140
1.0
141
5.0
290
     0
  0
SCALE
  5
4C
102
{ACAD_REACTORS
330
47
102
}
330
47
100
AcDbScale
 70
     0
300
1:8
140
1.0
141
8.0
290
     0
  0
SCALE
  5
4D
102
{ACAD_REACTORS
330
47
102
}
330
47
100
AcDbScale
 70
     0
300
1:10
140
1.0
141
10.0
290
     0
  0
SCALE
  5
4E
102
{ACAD_REACTORS
330
47
102
}
330
47
100
AcDbScale
 70
     0
300
1:16
140
1.0
141
16.0
290
     0
  0
SCALE
  5
4F
102
{ACAD_REACTORS
330
47
102
}
330
47
100
AcDbScale
 70
     0
300
1:20
140
1.0
141
20.0
290
     0
  0
SCALE
  5
50
102
{ACAD_REACTORS
330
47
102
}
330
47
100
AcDbScale
 70
     0
300
1:30
140
1.0
141
30.0
290
     0
  0
SCALE
  5
51
102
{ACAD_REACTORS
330
47
102
}
330
47
100
AcDbScale
 70
     0
300
1:40
140
1.0
141
40.0
290
     0
  0
SCALE
  5
52
102
{ACAD_REACTORS
330
47
102
}
330
47
100
AcDbScale
 70
     0
300
1:50
140
1.0
141
50.0
290
     0
  0
SCALE
  5
53
102
{ACAD_REACTORS
330
47
102
}
330
47
100
AcDbScale
 70
     0
300
1:100
140
1.0
141
100.0
290
     0
  0
SCALE
  5
54
102
{ACAD_REACTORS
330
47
102
}
330
47
100
AcDbScale
 70
     0
300
2:1
140
2.0
141
1.0
290
     0
  0
SCALE
  5
55
102
{ACAD_REACTORS
330
47
102
}
330
47
100
AcDbScale
 70
     0
300
4:1
140
4.0
141
1.0
290
     0
  0
SCALE
  5
56
102
{ACAD_REACTORS
330
47
102
}
330
47
100
AcDbScale
 70
     0
300
8:1
140
8.0
141
1.0
290
     0
  0
SCALE
  5
57
102
{ACAD_REACTORS
330
47
102
}
330
47
100
AcDbScale
 70
     0
300
10:1
140
10.0
141
1.0
290
     0
  0
SCALE
  5
58
102
{ACAD_REACTORS
330
47
102
}
330
47
100
AcDbScale
 70
     0
300
100:1
140
100.0
141
1.0
290
     0
  0
SCALE
  5
59
102
{ACAD_REACTORS
330
47
102
}
330
47
100
AcDbScale
 70
     0
300
1/128" = 1'-0"
140
0.0078125
141
12.0
290
     0
  0
SCALE
  5
5A
102
{ACAD_REACTORS
330
47
102
}
330
47
100
AcDbScale
 70
     0
300
1/64" = 1'-0"
140
0.015625
141
12.0
290
     0
  0
SCALE
  5
5B
102
{ACAD_REACTORS
330
47
102
}
330
47
100
AcDbScale
 70
     0
300
1/32" = 1'-0"
140
0.03125
141
12.0
290
     0
  0
SCALE
  5
5C
102
{ACAD_REACTORS
330
47
102
}
330
47
100
AcDbScale
 70
     0
300
1/16" = 1'-0"
140
0.0625
141
12.0
290
     0
  0
SCALE
  5
5D
102
{ACAD_REACTORS
330
47
102
}
330
47
100
AcDbScale
 70
     0
300
3/32" = 1'-0"
140
0.09375
141
12.0
290
     0
  0
SCALE
  5
5E
102
{ACAD_REACTORS
330
47
102
}
330
47
100
AcDbScale
 70
     0
300
1/8" = 1'-0"
140
0.125
141
12.0
290
     0
  0
SCALE
  5
5F
102
{ACAD_REACTORS
330
47
102
}
330
47
100
AcDbScale
 70
     0
300
3/16" = 1'-0"
140
0.1875
141
12.0
290
     0
  0
SCALE
  5
60
102
{ACAD_REACTORS
330
47
102
}
330
47
100
AcDbScale
 70
     0
300
1/4" = 1'-0"
140
0.25
141
12.0
290
     0
  0
SCALE
  5
61
102
{ACAD_REACTORS
330
47
102
}
330
47
100
AcDbScale
 70
     0
300
3/8" = 1'-0"
140
0.375
141
12.0
290
     0
  0
SCALE
  5
62
102
{ACAD_REACTORS
330
47
102
}
330
47
100
AcDbScale
 70
     0
300
1/2" = 1'-0"
140
0.5
141
12.0
290
     0
  0
SCALE
  5
63
102
{ACAD_REACTORS
330
47
102
}
330
47
100
AcDbScale
 70
     0
300
3/4" = 1'-0"
140
0.75
141
12.0
290
     0
  0
SCALE
  5
64
102
{ACAD_REACTORS
330
47
102
}
330
47
100
AcDbScale
 70
     0
300
1" = 1'-0"
140
1.0
141
12.0
290
     0
  0
SCALE
  5
65
102
{ACAD_REACTORS
330
47
102
}
330
47
100
AcDbScale
 70
     0
300
1-1/2" = 1'-0"
140
1.5
141
12.0
290
     0
  0
SCALE
  5
66
102
{ACAD_REACTORS
330
47
102
}
330
47
100
AcDbScale
 70
     0
300
3" = 1'-0"
140
3.0
141
12.0
290
     0
  0
SCALE
  5
67
102
{ACAD_REACTORS
330
47
102
}
330
47
100
AcDbScale
 70
     0
300
6" = 1'-0"
140
6.0
141
12.0
290
     0
  0
SCALE
  5
68
102
{ACAD_REACTORS
330
47
102
}
330
47
100
AcDbScale
 70
     0
300
1'-0" = 1'-0"
140
12.0
141
12.0
290
     0
  0
ENDSEC
  0
EOF
