  0
SECTION
  2
HEADER
  9
$ACADVER
  1
AC1015
  9
$ACADMAINTVER
 70
     6
  9
$DWGCODEPAGE
  3
ANSI_949
  9
$INSBASE
 10
0.0
 20
0.0
 30
0.0
  9
$EXTMIN
 10
-55.85750000000006
 20
-49.97180738881175
 30
0.0
  9
$EXTMAX
 10
85.28848381534559
 20
37.61650000000017
 30
0.0
  9
$LIMMIN
 10
0.0
 20
0.0
  9
$LIMMAX
 10
420.0
 20
297.0
  9
$ORTHOMODE
 70
     1
  9
$REGENMODE
 70
     1
  9
$FILLMODE
 70
     1
  9
$QTEXTMODE
 70
     0
  9
$MIRRTEXT
 70
     1
  9
$LTSCALE
 40
1.0
  9
$ATTMODE
 70
     1
  9
$TEXTSIZE
 40
3.5
  9
$TRACEWID
 40
1.0
  9
$TEXTSTYLE
  7
Standard
  9
$CLAYER
  8
0
  9
$CELTYPE
  6
ByLayer
  9
$CECOLOR
 62
   256
  9
$CELTSCALE
 40
1.0
  9
$DISPSILH
 70
     0
  9
$DIMSCALE
 40
1.0
  9
$DIMASZ
 40
3.302
  9
$DIMEXO
 40
1.0
  9
$DIMDLI
 40
3.75
  9
$DIMRND
 40
0.0
  9
$DIMDLE
 40
0.0
  9
$DIMEXE
 40
1.0
  9
$DIMTP
 40
0.0
  9
$DIMTM
 40
0.0
  9
$DIMTXT
 40
3.5
  9
$DIMCEN
 40
2.5
  9
$DIMTSZ
 40
0.0
  9
$DIMTOL
 70
     0
  9
$DIMLIM
 70
     0
  9
$DIMTIH
 70
     1
  9
$DIMTOH
 70
     1
  9
$DIMSE1
 70
     0
  9
$DIMSE2
 70
     0
  9
$DIMTAD
 70
     1
  9
$DIMZIN
 70
     0
  9
$DIMBLK
  1

  9
$DIMASO
 70
     1
  9
$DIMSHO
 70
     1
  9
$DIMPOST
  1

  9
$DIMAPOST
  1

  9
$DIMALT
 70
     0
  9
$DIMALTD
 70
     3
  9
$DIMALTF
 40
0.0393700787401575
  9
$DIMLFAC
 40
1.0
  9
$DIMTOFL
 70
     1
  9
$DIMTVP
 40
0.0
  9
$DIMTIX
 70
     0
  9
$DIMSOXD
 70
     0
  9
$DIMSAH
 70
     0
  9
$DIMBLK1
  1

  9
$DIMBLK2
  1

  9
$DIMSTYLE
  2
ISO-25
  9
$DIMCLRD
 70
     0
  9
$DIMCLRE
 70
     0
  9
$DIMCLRT
 70
     0
  9
$DIMTFAC
 40
1.0
  9
$DIMGAP
 40
1.524
  9
$DIMJUST
 70
     0
  9
$DIMSD1
 70
     0
  9
$DIMSD2
 70
     0
  9
$DIMTOLJ
 70
     0
  9
$DIMTZIN
 70
     0
  9
$DIMALTZ
 70
     0
  9
$DIMALTTZ
 70
     0
  9
$DIMUPT
 70
     0
  9
$DIMDEC
 70
     2
  9
$DIMTDEC
 70
     2
  9
$DIMALTU
 70
     2
  9
$DIMALTTD
 70
     3
  9
$DIMTXSTY
  7
Standard
  9
$DIMAUNIT
 70
     0
  9
$DIMADEC
 70
     2
  9
$DIMALTRND
 40
0.0
  9
$DIMAZIN
 70
     0
  9
$DIMDSEP
 70
    44
  9
$DIMATFIT
 70
     3
  9
$DIMFRAC
 70
     0
  9
$DIMLDRBLK
  1

  9
$DIMLUNIT
 70
     2
  9
$DIMLWD
 70
    -2
  9
$DIMLWE
 70
    -2
  9
$DIMTMOVE
 70
     0
  9
$LUNITS
 70
     2
  9
$LUPREC
 70
     2
  9
$SKETCHINC
 40
1.0
  9
$FILLETRAD
 40
10.0
  9
$AUNITS
 70
     0
  9
$AUPREC
 70
     2
  9
$MENU
  1
.
  9
$ELEVATION
 40
0.0
  9
$PELEVATION
 40
0.0
  9
$THICKNESS
 40
0.0
  9
$LIMCHECK
 70
     0
  9
$CHAMFERA
 40
0.0
  9
$CHAMFERB
 40
0.0
  9
$CHAMFERC
 40
0.0
  9
$CHAMFERD
 40
0.0
  9
$SKPOLY
 70
     0
  9
$TDCREATE
 40
2458295.489430127
  9
$TDUCREATE
 40
2458295.114430127
  9
$TDUPDATE
 40
2458301.629496609
  9
$TDUUPDATE
 40
2458301.254496609
  9
$TDINDWG
 40
0.0050459722
  9
$TDUSRTIMER
 40
0.0059679282
  9
$USRTIMER
 70
     1
  9
$ANGBASE
 50
0.0
  9
$ANGDIR
 70
     0
  9
$PDMODE
 70
     0
  9
$PDSIZE
 40
-1.0
  9
$PLINEWID
 40
0.0
  9
$SPLFRAME
 70
     0
  9
$SPLINETYPE
 70
     6
  9
$SPLINESEGS
 70
     8
  9
$HANDSEED
  5
1DE
  9
$SURFTAB1
 70
     6
  9
$SURFTAB2
 70
     6
  9
$SURFTYPE
 70
     6
  9
$SURFU
 70
     6
  9
$SURFV
 70
     6
  9
$UCSBASE
  2

  9
$UCSNAME
  2

  9
$UCSORG
 10
0.0
 20
0.0
 30
0.0
  9
$UCSXDIR
 10
1.0
 20
0.0
 30
0.0
  9
$UCSYDIR
 10
0.0
 20
1.0
 30
0.0
  9
$UCSORTHOREF
  2

  9
$UCSORTHOVIEW
 70
     0
  9
$UCSORGTOP
 10
0.0
 20
0.0
 30
0.0
  9
$UCSORGBOTTOM
 10
0.0
 20
0.0
 30
0.0
  9
$UCSORGLEFT
 10
0.0
 20
0.0
 30
0.0
  9
$UCSORGRIGHT
 10
0.0
 20
0.0
 30
0.0
  9
$UCSORGFRONT
 10
0.0
 20
0.0
 30
0.0
  9
$UCSORGBACK
 10
0.0
 20
0.0
 30
0.0
  9
$PUCSBASE
  2

  9
$PUCSNAME
  2

  9
$PUCSORG
 10
0.0
 20
0.0
 30
0.0
  9
$PUCSXDIR
 10
1.0
 20
0.0
 30
0.0
  9
$PUCSYDIR
 10
0.0
 20
1.0
 30
0.0
  9
$PUCSORTHOREF
  2

  9
$PUCSORTHOVIEW
 70
     0
  9
$PUCSORGTOP
 10
0.0
 20
0.0
 30
0.0
  9
$PUCSORGBOTTOM
 10
0.0
 20
0.0
 30
0.0
  9
$PUCSORGLEFT
 10
0.0
 20
0.0
 30
0.0
  9
$PUCSORGRIGHT
 10
0.0
 20
0.0
 30
0.0
  9
$PUCSORGFRONT
 10
0.0
 20
0.0
 30
0.0
  9
$PUCSORGBACK
 10
0.0
 20
0.0
 30
0.0
  9
$USERI1
 70
     0
  9
$USERI2
 70
     0
  9
$USERI3
 70
     0
  9
$USERI4
 70
     0
  9
$USERI5
 70
     0
  9
$USERR1
 40
0.0
  9
$USERR2
 40
0.0
  9
$USERR3
 40
0.0
  9
$USERR4
 40
0.0
  9
$USERR5
 40
0.0
  9
$WORLDVIEW
 70
     1
  9
$SHADEDGE
 70
     3
  9
$SHADEDIF
 70
    70
  9
$TILEMODE
 70
     1
  9
$MAXACTVP
 70
    64
  9
$PINSBASE
 10
0.0
 20
0.0
 30
0.0
  9
$PLIMCHECK
 70
     0
  9
$PEXTMIN
 10
1.000000000000000E+20
 20
1.000000000000000E+20
 30
1.000000000000000E+20
  9
$PEXTMAX
 10
-1.000000000000000E+20
 20
-1.000000000000000E+20
 30
-1.000000000000000E+20
  9
$PLIMMIN
 10
0.0
 20
0.0
  9
$PLIMMAX
 10
0.0
 20
0.0
  9
$UNITMODE
 70
     0
  9
$VISRETAIN
 70
     1
  9
$PLINEGEN
 70
     0
  9
$PSLTSCALE
 70
     1
  9
$TREEDEPTH
 70
  3020
  9
$CMLSTYLE
  2
Standard
  9
$CMLJUST
 70
     0
  9
$CMLSCALE
 40
20.0
  9
$PROXYGRAPHICS
 70
     1
  9
$MEASUREMENT
 70
     1
  9
$CELWEIGHT
370
    -1
  9
$ENDCAPS
280
     0
  9
$JOINSTYLE
280
     0
  9
$LWDISPLAY
290
     1
  9
$INSUNITS
 70
     4
  9
$HYPERLINKBASE
  1

  9
$STYLESHEET
  1

  9
$XEDIT
290
     1
  9
$CEPSNTYPE
380
     0
  9
$PSTYLEMODE
290
     1
  9
$FINGERPRINTGUID
  2
{0E385051-0785-4BDC-80F2-CA6809A16E2F}
  9
$VERSIONGUID
  2
{FAEB1C32-E019-11D5-929B-00C0DF256EC4}
  9
$EXTNAMES
290
     1
  9
$PSVPSCALE
 40
0.0
  9
$OLESTARTUP
290
     0
  0
ENDSEC
  0
SECTION
  2
CLASSES
  0
CLASS
  1
ACDBDICTIONARYWDFLT
  2
AcDbDictionaryWithDefault
  3
ObjectDBX Classes
 90
        0
280
     0
281
     0
  0
CLASS
  1
VISUALSTYLE
  2
AcDbVisualStyle
  3
ObjectDBX Classes
 90
     4095
280
     0
281
     0
  0
CLASS
  1
MATERIAL
  2
AcDbMaterial
  3
ObjectDBX Classes
 90
     1153
280
     0
281
     0
  0
CLASS
  1
SCALE
  2
AcDbScale
  3
ObjectDBX Classes
 90
     1153
280
     0
281
     0
  0
CLASS
  1
SUN
  2
AcDbSun
  3
SCENEOE
 90
     1153
280
     0
281
     0
  0
CLASS
  1
ACDBPLACEHOLDER
  2
AcDbPlaceHolder
  3
ObjectDBX Classes
 90
        0
280
     0
281
     0
  0
CLASS
  1
LAYOUT
  2
AcDbLayout
  3
ObjectDBX Classes
 90
        0
280
     0
281
     0
  0
CLASS
  1
TABLESTYLE
  2
AcDbTableStyle
  3
ObjectDBX Classes
 90
     4095
280
     0
281
     0
  0
CLASS
  1
MLEADERSTYLE
  2
AcDbMLeaderStyle
  3
ACDB_MLEADERSTYLE_CLASS
 90
     4095
280
     0
281
     0
  0
CLASS
  1
DICTIONARYVAR
  2
AcDbDictionaryVar
  3
ObjectDBX Classes
 90
        0
280
     0
281
     0
  0
CLASS
  1
DIMASSOC
  2
AcDbDimAssoc
  3
"AcDbDimAssoc|Product Desc:     AcDim ARX App For Dimension|Company:          Autodesk, Inc.|WEB Address:      www.autodesk.com"
 90
        0
280
     0
281
     0
  0
ENDSEC
  0
SECTION
  2
TABLES
  0
TABLE
  2
VPORT
  5
8
330
0
100
AcDbSymbolTable
 70
     1
  0
VPORT
  5
29
330
8
100
AcDbSymbolTableRecord
100
AcDbViewportTableRecord
  2
*Active
 70
     0
 10
0.0
 20
0.0
 11
1.0
 21
1.0
 12
14.71549190767276
 22
-6.177653694405656
 13
0.0
 23
0.0
 14
10.0
 24
10.0
 15
10.0
 25
10.0
 16
0.0
 26
0.0
 36
1.0
 17
0.0
 27
0.0
 37
0.0
 40
89.3400735365884
 41
2.400311526479751
 42
50.0
 43
0.0
 44
0.0
 50
0.0
 51
0.0
 71
    16
 72
  2000
 73
     1
 74
     3
 75
     0
 76
     0
 77
     0
 78
     0
281
     0
 65
     1
110
0.0
120
0.0
130
0.0
111
1.0
121
0.0
131
0.0
112
0.0
122
1.0
132
0.0
 79
     0
146
0.0
  0
ENDTAB
  0
TABLE
  2
LTYPE
  5
5
330
0
100
AcDbSymbolTable
 70
     6
  0
LTYPE
  5
14
330
5
100
AcDbSymbolTableRecord
100
AcDbLinetypeTableRecord
  2
ByBlock
 70
     0
  3

 72
    65
 73
     0
 40
0.0
  0
LTYPE
  5
15
330
5
100
AcDbSymbolTableRecord
100
AcDbLinetypeTableRecord
  2
ByLayer
 70
     0
  3

 72
    65
 73
     0
 40
0.0
  0
LTYPE
  5
16
330
5
100
AcDbSymbolTableRecord
100
AcDbLinetypeTableRecord
  2
Continuous
 70
     0
  3
Solid line
 72
    65
 73
     0
 40
0.0
  0
LTYPE
  5
6A
330
5
100
AcDbSymbolTableRecord
100
AcDbLinetypeTableRecord
  2
HIDDEN
 70
     0
  3
Hidden __ __ __ __ __ __ __ __ __ __ __ __ __ __
 72
    65
 73
     2
 40
1.905
 49
1.27
 74
     0
 49
-0.635
 74
     0
  0
LTYPE
  5
6B
330
5
100
AcDbSymbolTableRecord
100
AcDbLinetypeTableRecord
  2
PHANTOM
 70
     0
  3
Phantom ______  __  __  ______  __  __  ______
 72
    65
 73
     6
 40
12.7
 49
6.35
 74
     0
 49
-1.27
 74
     0
 49
1.27
 74
     0
 49
-1.27
 74
     0
 49
1.27
 74
     0
 49
-1.27
 74
     0
  0
LTYPE
  5
6C
330
5
100
AcDbSymbolTableRecord
100
AcDbLinetypeTableRecord
  2
CENTER
 70
     0
  3
Center ____ _ ____ _ ____ _ ____ _ ____ _ ____
 72
    65
 73
     4
 40
10.16
 49
6.35
 74
     0
 49
-1.27
 74
     0
 49
1.27
 74
     0
 49
-1.27
 74
     0
  0
LTYPE
  5
6D
330
5
100
AcDbSymbolTableRecord
100
AcDbLinetypeTableRecord
  2
CENTERX2
 70
     0
  3
Center (2x) ________  __  ________  __  _____
 72
    65
 73
     4
 40
20.32
 49
12.7
 74
     0
 49
-2.54
 74
     0
 49
2.54
 74
     0
 49
-2.54
 74
     0
  0
LTYPE
  5
6E
330
5
100
AcDbSymbolTableRecord
100
AcDbLinetypeTableRecord
  2
DOT2
 70
     0
  3
Dot (.5x) ........................................
 72
    65
 73
     2
 40
0.635
 49
0.0
 74
     0
 49
-0.635
 74
     0
  0
ENDTAB
  0
TABLE
  2
LAYER
  5
2
330
0
100
AcDbSymbolTable
 70
    18
  0
LAYER
  5
10
330
2
100
AcDbSymbolTableRecord
100
AcDbLayerTableRecord
  2
0
 70
     0
 62
     7
  6
Continuous
370
    -3
390
F
  0
LAYER
  5
6F
330
2
100
AcDbSymbolTableRecord
100
AcDbLayerTableRecord
  2
FORMAT
 70
     0
 62
     2
  6
Continuous
370
    -3
390
F
  0
LAYER
  5
70
330
2
100
AcDbSymbolTableRecord
100
AcDbLayerTableRecord
  2
외형선
 70
     0
 62
     4
  6
Continuous
370
    30
390
F
  0
LAYER
  5
71
330
2
100
AcDbSymbolTableRecord
100
AcDbLayerTableRecord
  2
숨은선
 70
     0
 62
     2
  6
HIDDEN
370
    15
390
F
  0
LAYER
  5
72
330
2
100
AcDbSymbolTableRecord
100
AcDbLayerTableRecord
  2
중심선
 70
     0
 62
     1
  6
CENTERX2
370
    -3
390
F
  0
LAYER
  5
73
330
2
100
AcDbSymbolTableRecord
100
AcDbLayerTableRecord
  2
파단선
 70
     0
 62
     4
  6
Continuous
370
    -3
390
F
  0
LAYER
  5
74
330
2
100
AcDbSymbolTableRecord
100
AcDbLayerTableRecord
  2
해칭선
 70
     0
 62
   100
  6
Continuous
370
    -3
390
F
  0
LAYER
  5
75
330
2
100
AcDbSymbolTableRecord
100
AcDbLayerTableRecord
  2
가는실선
 70
     0
 62
     4
  6
Continuous
370
    -3
390
F
  0
LAYER
  5
76
330
2
100
AcDbSymbolTableRecord
100
AcDbLayerTableRecord
  2
치수_보조선
 70
     0
 62
     4
  6
Continuous
370
    -3
390
F
  0
LAYER
  5
77
330
2
100
AcDbSymbolTableRecord
100
AcDbLayerTableRecord
  2
치수문자_일반주서
 70
     0
 62
     7
  6
Continuous
370
    15
390
F
  0
LAYER
  5
78
330
2
100
AcDbSymbolTableRecord
100
AcDbLayerTableRecord
  2
개별주서
 70
     0
 62
   100
  6
Continuous
370
    30
390
F
  0
LAYER
  5
79
330
2
100
AcDbSymbolTableRecord
100
AcDbLayerTableRecord
  2
중간선
 70
     0
 62
     2
  6
Continuous
370
    15
390
F
  0
LAYER
  5
7A
330
2
100
AcDbSymbolTableRecord
100
AcDbLayerTableRecord
  2
윤곽선
 70
     0
 62
     3
  6
Continuous
370
    40
390
F
  0
LAYER
  5
7B
330
2
100
AcDbSymbolTableRecord
100
AcDbLayerTableRecord
  2
중심마크
 70
     0
 62
   100
  6
Continuous
370
    30
390
F
  0
LAYER
  5
7C
330
2
100
AcDbSymbolTableRecord
100
AcDbLayerTableRecord
  2
가상선
 70
     0
 62
     4
  6
PHANTOM
370
    -3
390
F
  0
LAYER
  5
7D
330
2
100
AcDbSymbolTableRecord
100
AcDbLayerTableRecord
  2
특수지정선
 70
     0
 62
     5
  6
CENTERX2
370
    60
390
F
  0
LAYER
  5
7E
330
2
100
AcDbSymbolTableRecord
100
AcDbLayerTableRecord
  2
참조1
 70
     0
 62
    -4
  6
Continuous
370
    -3
390
F
  0
LAYER
  5
162
330
2
100
AcDbSymbolTableRecord
100
AcDbLayerTableRecord
  2
Defpoints
 70
     0
 62
     7
  6
Continuous
290
     0
370
    -3
390
F
  0
ENDTAB
  0
TABLE
  2
STYLE
  5
3
330
0
100
AcDbSymbolTable
 70
     2
  0
STYLE
  5
11
330
3
100
AcDbSymbolTableRecord
100
AcDbTextStyleTableRecord
  2
Standard
 70
     0
 40
0.0
 41
1.0
 50
0.0
 71
     0
 42
3.5
  3
txt
  4

  0
STYLE
  5
94
330
3
100
AcDbSymbolTableRecord
100
AcDbTextStyleTableRecord
  2
SLDTEXTSTYLE0
 70
     0
 40
0.0
 41
0.75
 50
0.0
 71
     0
 42
3.5
  3
TXT
  4

  0
ENDTAB
  0
TABLE
  2
VIEW
  5
6
330
0
100
AcDbSymbolTable
 70
     0
  0
ENDTAB
  0
TABLE
  2
UCS
  5
7
330
0
100
AcDbSymbolTable
 70
     0
  0
ENDTAB
  0
TABLE
  2
APPID
  5
9
330
0
100
AcDbSymbolTable
 70
     5
  0
APPID
  5
12
330
9
100
AcDbSymbolTableRecord
100
AcDbRegAppTableRecord
  2
ACAD
 70
     0
  0
APPID
  5
169
330
9
100
AcDbSymbolTableRecord
100
AcDbRegAppTableRecord
  2
PE_URL
 70
     0
  0
APPID
  5
1A5
330
9
100
AcDbSymbolTableRecord
100
AcDbRegAppTableRecord
  2
ACAD_DSTYLE_DIMFLIPARROW_SYMBOL
 70
     0
  0
APPID
  5
1A6
330
9
100
AcDbSymbolTableRecord
100
AcDbRegAppTableRecord
  2
ACAD_DSTYLE_DIMFLIPARROW_WHICH_SYMBOL
 70
     0
  0
APPID
  5
1CF
330
9
100
AcDbSymbolTableRecord
100
AcDbRegAppTableRecord
  2
ACAD_DSTYLE_DIMRADIAL_EXTENSION
 70
     0
  0
ENDTAB
  0
TABLE
  2
DIMSTYLE
  5
A
330
0
100
AcDbSymbolTable
 70
     3
100
AcDbDimStyleTable
  0
DIMSTYLE
105
27
102
{ACAD_REACTORS
330
190
102
}
330
A
100
AcDbSymbolTableRecord
100
AcDbDimStyleTableRecord
  2
ISO-25
 70
     0
 41
2.5
 42
0.625
 43
3.75
 44
1.25
 73
     0
 74
     0
 77
     1
 78
     8
140
2.5
141
2.5
143
0.03937007874016
147
0.625
171
     3
172
     1
178
     0
271
     2
272
     2
274
     3
278
    44
283
     0
284
     8
340
11
  0
DIMSTYLE
105
E2
102
{ACAD_REACTORS
330
E1
330
10B
330
F7
330
11F
102
}
330
A
100
AcDbSymbolTableRecord
100
AcDbDimStyleTableRecord
  2
SLDDIMSTYLE0
 70
     0
 41
3.302
 44
0.0
 45
0.000000001
 73
     0
 74
     0
 77
     1
 78
    12
 79
     3
140
3.5
143
0.0393700787401575
147
0.875
148
0.000000001
170
     1
172
     1
173
     1
178
     0
271
     2
272
     2
276
     2
284
    12
289
     0
340
94
  0
DIMSTYLE
105
F8
330
A
100
AcDbSymbolTableRecord
100
AcDbDimStyleTableRecord
  2
SLDDIMSTYLE1
 70
     0
 41
3.302
 44
0.0
 45
0.000000001
 73
     0
 74
     0
 77
     1
 78
    12
 79
     3
140
3.5
143
0.0393700787401575
147
0.875
148
0.000000001
170
     1
173
     1
178
     0
271
     2
272
     2
276
     2
284
    12
340
94
  0
ENDTAB
  0
TABLE
  2
BLOCK_RECORD
  5
1
330
0
100
AcDbSymbolTable
 70
     8
  0
BLOCK_RECORD
  5
1F
330
1
100
AcDbSymbolTableRecord
100
AcDbBlockTableRecord
  2
*Model_Space
340
22
  0
BLOCK_RECORD
  5
1B
330
1
100
AcDbSymbolTableRecord
100
AcDbBlockTableRecord
  2
*Paper_Space
340
1E
  0
BLOCK_RECORD
  5
23
330
1
100
AcDbSymbolTableRecord
100
AcDbBlockTableRecord
  2
*Paper_Space0
340
26
  0
BLOCK_RECORD
  5
7F
330
1
100
AcDbSymbolTableRecord
100
AcDbBlockTableRecord
  2
블럭10
340
0
102
{BLKREFS
331
DA
102
}
  0
BLOCK_RECORD
  5
E3
330
1
100
AcDbSymbolTableRecord
100
AcDbBlockTableRecord
  2
_D
340
0
  0
BLOCK_RECORD
  5
F9
330
1
100
AcDbSymbolTableRecord
100
AcDbBlockTableRecord
  2
_D_1
340
0
  0
BLOCK_RECORD
  5
10C
330
1
100
AcDbSymbolTableRecord
100
AcDbBlockTableRecord
  2
_D_2
340
0
  0
BLOCK_RECORD
  5
120
330
1
100
AcDbSymbolTableRecord
100
AcDbBlockTableRecord
  2
_D_3
340
0
  0
BLOCK_RECORD
  5
139
330
1
100
AcDbSymbolTableRecord
100
AcDbBlockTableRecord
  2
SW_DOWELSYMBOL_0
340
0
102
{BLKREFS
331
13F
102
}
  0
BLOCK_RECORD
  5
1D3
330
1
100
AcDbSymbolTableRecord
100
AcDbBlockTableRecord
  2
*D7
340
0
  0
ENDTAB
  0
ENDSEC
  0
SECTION
  2
BLOCKS
  0
BLOCK
  5
20
330
1F
100
AcDbEntity
  8
0
100
AcDbBlockBegin
  2
*Model_Space
 70
     0
 10
0.0
 20
0.0
 30
0.0
  3
*Model_Space
  1

  0
ENDBLK
  5
21
330
1F
100
AcDbEntity
  8
0
100
AcDbBlockEnd
  0
BLOCK
  5
1C
330
1B
100
AcDbEntity
 67
     1
  8
0
100
AcDbBlockBegin
  2
*Paper_Space
 70
     0
 10
0.0
 20
0.0
 30
0.0
  3
*Paper_Space
  1

  0
ENDBLK
  5
1D
330
1B
100
AcDbEntity
 67
     1
  8
0
100
AcDbBlockEnd
  0
BLOCK
  5
24
330
23
100
AcDbEntity
  8
0
100
AcDbBlockBegin
  2
*Paper_Space0
 70
     0
 10
0.0
 20
0.0
 30
0.0
  3
*Paper_Space0
  1

  0
ENDBLK
  5
25
330
23
100
AcDbEntity
  8
0
100
AcDbBlockEnd
  0
BLOCK
  5
80
330
7F
100
AcDbEntity
  8
0
100
AcDbBlockBegin
  2
블럭10
 70
     2
 10
0.0
 20
0.0
 30
0.0
  3
블럭10
  1

  0
ELLIPSE
  5
82
330
7F
100
AcDbEntity
  8
중심선
100
AcDbEllipse
 10
20.54032771741204
 20
12.0471743016438
 30
0.0
 11
6.600054785286829
 21
-1.261213355974178E-13
 31
0.0
210
0.0
220
0.0
230
1.0
 40
0.636358354079598
 41
0.9219305317359503
 42
6.513795318482858
  0
ELLIPSE
  5
83
330
7F
100
AcDbEntity
  8
중심선
100
AcDbEllipse
 10
20.54032771746488
 20
12.04717430159265
 30
0.0
 11
3.960054785062283
 21
1.540847449632565E-10
 31
0.0
210
0.0
220
0.0
230
1.0
 40
0.3939339440162632
 41
1.131841032648279
 42
5.62031148352944
  0
LINE
  5
84
330
7F
100
AcDbEntity
  8
중심선
100
AcDbLine
 10
2.268634060543552
 20
16.24717430164393
 30
0.0
 11
5.714909304380834
 21
16.24717430164393
 31
0.0
  0
LINE
  5
85
330
7F
100
AcDbEntity
  8
중심선
100
AcDbLine
 10
5.245725140726316
 20
7.84717430164391
 30
0.0
 11
8.692000384563599
 21
7.84717430164391
 31
0.0
  0
LINE
  5
86
330
7F
100
AcDbEntity
  8
중심선
100
AcDbLine
 10
15.74043728645272
 20
16.24717430164393
 30
0.0
 11
8.692000384563599
 21
7.84717430164391
 31
0.0
  0
LINE
  5
87
330
7F
100
AcDbEntity
  8
중심선
100
AcDbLine
 10
0.1404042013395286
 20
13.71084872107135
 30
0.0
 11
3.58671253028996
 21
13.71088815037384
 31
0.0
  0
LINE
  5
88
330
7F
100
AcDbEntity
  8
중심선
100
AcDbLine
 10
2.750260043222114
 20
10.84717430164391
 30
0.0
 11
6.196535287059397
 21
10.84717430164391
 31
0.0
  0
LINE
  5
89
330
7F
100
AcDbEntity
  8
중심선
100
AcDbLine
 10
12.29416204261559
 20
16.24717430164393
 30
0.0
 11
5.245725140726316
 21
7.84717430164391
 31
0.0
  0
LINE
  5
8A
330
7F
100
AcDbEntity
  8
중심선
100
AcDbLine
 10
10.72767329541681
 20
16.24717430164393
 30
0.0
 11
6.196535287059397
 21
10.84717430164391
 31
0.0
  0
LINE
  5
8B
330
7F
100
AcDbEntity
  8
중심선
100
AcDbLine
 10
7.28139805157953
 20
16.24717430164393
 30
0.0
 11
2.750260043222114
 21
10.84717430164391
 31
0.0
  0
LINE
  5
8C
330
7F
100
AcDbEntity
  8
중심선
100
AcDbLine
 10
5.714909304380834
 20
16.24717430164393
 30
0.0
 11
3.58671253028996
 21
13.71088815037384
 31
0.0
  0
LINE
  5
8D
330
7F
100
AcDbEntity
  8
중심선
100
AcDbLine
 10
2.268634060543552
 20
16.24717430164393
 30
0.0
 11
0.1404042013395286
 21
13.71084872107135
 31
0.0
  0
LINE
  5
8E
330
7F
100
AcDbEntity
  8
중심선
100
AcDbLine
 10
7.28139805157953
 20
16.24717430164393
 30
0.0
 11
10.72767329541681
 21
16.24717430164393
 31
0.0
  0
LINE
  5
8F
330
7F
100
AcDbEntity
  8
중심선
100
AcDbLine
 10
12.29416204261559
 20
16.24717430164393
 30
0.0
 11
15.74043728645272
 21
16.24717430164393
 31
0.0
  0
LINE
  5
90
330
7F
100
AcDbEntity
  8
중심선
100
AcDbLine
 10
19.22036997980202
 20
11.08717430171403
 30
0.0
 11
23.66174974927406
 21
11.08717430171406
 31
0.0
  0
LINE
  5
91
330
7F
100
AcDbEntity
  8
중심선
100
AcDbLine
 10
19.22039502424796
 20
13.00717430171391
 30
0.0
 11
19.22036997980202
 21
11.08717430171403
 31
0.0
  0
LINE
  5
92
330
7F
100
AcDbEntity
  8
중심선
100
AcDbLine
 10
19.22039502424796
 20
13.00717430171391
 30
0.0
 11
26.96566020931264
 21
13.00717430171391
 31
0.0
  0
LINE
  5
93
330
7F
100
AcDbEntity
  8
중심선
100
AcDbLine
 10
22.22332737316547
 20
13.45928029700563
 30
0.0
 11
24.52862924686651
 21
15.39360700705356
 31
0.0
  0
ATTDEF
  5
95
330
7F
100
AcDbEntity
  8
FORMAT
 62
     2
100
AcDbText
 10
3.448148490846466
 20
2.075366912832191
 30
0.0
 40
4.233333333333333
  1
EM668024
 41
0.75
  7
SLDTEXTSTYLE0
 11
3.448148490846466
 21
-0.0412997538344756
 31
0.0
100
AcDbAttributeDefinition
  3

  2
AUTOATTR0
 70
     0
 74
     1
  0
ENDBLK
  5
81
330
7F
100
AcDbEntity
  8
0
100
AcDbBlockEnd
  0
BLOCK
  5
E4
330
E3
100
AcDbEntity
  8
0
100
AcDbBlockBegin
  2
_D
 70
     0
 10
0.0
 20
0.0
 30
0.0
  3
_D
  1

  0
LINE
  5
E6
330
E3
100
AcDbEntity
  8
치수문자_일반주서
 62
     0
370
    -2
100
AcDbLine
 10
34.225
 20
4.325000000000284
 30
0.0
 11
34.225
 21
15.27919346789349
 31
0.0
  0
LINE
  5
E7
330
E3
100
AcDbEntity
  8
치수문자_일반주서
 62
     0
370
    -2
100
AcDbLine
 10
11.99999999999998
 20
4.573549759961465
 30
0.0
 11
11.99999999999998
 21
15.27919346789349
 31
0.0
  0
LINE
  5
E8
330
E3
100
AcDbEntity
  8
치수문자_일반주서
 62
     0
370
    -2
100
AcDbLine
 10
34.225
 20
15.27919346789349
 30
0.0
 11
67.07900000000001
 21
15.27919346789349
 31
0.0
  0
LINE
  5
E9
330
E3
100
AcDbEntity
  8
치수문자_일반주서
 62
     0
370
    -2
100
AcDbLine
 10
34.225
 20
15.27919346789349
 30
0.0
 11
11.99999999999998
 21
15.27919346789349
 31
0.0
  0
LINE
  5
EA
330
E3
100
AcDbEntity
  8
치수문자_일반주서
 62
     0
370
    -2
100
AcDbLine
 10
37.527
 20
15.27919346789349
 30
0.0
 11
40.829
 21
15.27919346789349
 31
0.0
  0
LINE
  5
EB
330
E3
100
AcDbEntity
  8
치수문자_일반주서
 62
     0
370
    -2
100
AcDbLine
 10
8.697999999999979
 20
15.27919346789349
 30
0.0
 11
5.395999999999979
 21
15.27919346789349
 31
0.0
  0
SOLID
  5
EC
330
E3
100
AcDbEntity
  8
치수문자_일반주서
 62
     0
100
AcDbTrace
 10
37.527
 20
15.82952680122682
 30
0.0
 11
37.527
 21
14.72886013456016
 31
0.0
 12
34.225
 22
15.27919346789349
 32
0.0
 13
34.225
 23
15.27919346789349
 33
0.0
  0
SOLID
  5
ED
330
E3
100
AcDbEntity
  8
치수문자_일반주서
 62
     0
100
AcDbTrace
 10
8.697999999999979
 20
14.72886013456016
 30
0.0
 11
8.697999999999979
 21
15.82952680122682
 31
0.0
 12
11.99999999999998
 22
15.27919346789349
 32
0.0
 13
11.99999999999998
 23
15.27919346789349
 33
0.0
  0
MTEXT
  5
EE
330
E3
100
AcDbEntity
  8
치수문자_일반주서
 62
     0
100
AcDbMText
 10
53.95400000000001
 20
19.65419346789349
 30
0.0
 40
3.5
 41
0.0
 71
     2
 72
     1
  1
\A1;22.23 [7/8]
  7
SLDTEXTSTYLE0
 73
     1
 44
1.0
  0
POINT
  5
197
330
E3
100
AcDbEntity
  8
Defpoints
 62
     0
100
AcDbPoint
 10
34.225
 20
4.262500000000284
 30
0.0
  0
POINT
  5
198
330
E3
100
AcDbEntity
  8
Defpoints
 62
     0
100
AcDbPoint
 10
11.99999999999998
 20
4.511049759961465
 30
0.0
  0
POINT
  5
199
330
E3
100
AcDbEntity
  8
Defpoints
 62
     0
100
AcDbPoint
 10
11.99999999999998
 20
15.27919346789349
 30
0.0
  0
ENDBLK
  5
E5
330
E3
100
AcDbEntity
  8
0
100
AcDbBlockEnd
  0
BLOCK
  5
FA
330
F9
100
AcDbEntity
  8
0
100
AcDbBlockBegin
  2
_D_1
 70
     0
 10
0.0
 20
0.0
 30
0.0
  3
_D_1
  1

  0
LINE
  5
FC
330
F9
100
AcDbEntity
  8
치수문자_일반주서
 62
     0
370
    -2
100
AcDbLine
 10
34.225
 20
4.325000000000284
 30
0.0
 11
34.22500000000001
 21
27.77512456925258
 31
0.0
  0
LINE
  5
FD
330
F9
100
AcDbEntity
  8
치수문자_일반주서
 62
     0
370
    -2
100
AcDbLine
 10
-38.8
 20
3.872500000000001
 30
0.0
 11
-38.79999999999999
 21
27.77512456925258
 31
0.0
  0
LINE
  5
FE
330
F9
100
AcDbEntity
  8
치수문자_일반주서
 62
     0
370
    -2
100
AcDbLine
 10
30.92300000000001
 20
27.77512456925258
 30
0.0
 11
-35.49799999999999
 21
27.77512456925258
 31
0.0
  0
SOLID
  5
FF
330
F9
100
AcDbEntity
  8
치수문자_일반주서
 62
     0
100
AcDbTrace
 10
30.92300000000001
 20
27.22479123591924
 30
0.0
 11
30.92300000000001
 21
28.32545790258591
 31
0.0
 12
34.22500000000001
 22
27.77512456925258
 32
0.0
 13
34.22500000000001
 23
27.77512456925258
 33
0.0
  0
SOLID
  5
100
330
F9
100
AcDbEntity
  8
치수문자_일반주서
 62
     0
100
AcDbTrace
 10
-35.49799999999999
 20
28.32545790258591
 30
0.0
 11
-35.49799999999999
 21
27.22479123591924
 31
0.0
 12
-38.79999999999999
 22
27.77512456925258
 32
0.0
 13
-38.79999999999999
 23
27.77512456925258
 33
0.0
  0
MTEXT
  5
101
330
F9
100
AcDbEntity
  8
치수문자_일반주서
 62
     0
100
AcDbMText
 10
-2.287500000000007
 20
32.15012456925258
 30
0.0
 40
3.5
 41
0.0
 71
     2
 72
     1
  1
\A1;73.03 [2 7/8]
  7
SLDTEXTSTYLE0
 73
     1
 44
1.0
  0
POINT
  5
102
330
F9
100
AcDbEntity
  8
Defpoints
 62
     0
100
AcDbPoint
 10
34.225
 20
4.262500000000284
 30
0.0
  0
POINT
  5
103
330
F9
100
AcDbEntity
  8
Defpoints
 62
     0
100
AcDbPoint
 10
-38.8
 20
3.810000000000001
 30
0.0
  0
POINT
  5
104
330
F9
100
AcDbEntity
  8
Defpoints
 62
     0
100
AcDbPoint
 10
-38.8
 20
27.77512456925258
 30
0.0
  0
ENDBLK
  5
FB
330
F9
100
AcDbEntity
  8
0
100
AcDbBlockEnd
  0
BLOCK
  5
10D
330
10C
100
AcDbEntity
  8
0
100
AcDbBlockBegin
  2
_D_2
 70
     0
 10
0.0
 20
0.0
 30
0.0
  3
_D_2
  1

  0
LINE
  5
10F
330
10C
100
AcDbEntity
  8
치수문자_일반주서
 62
     0
370
    -2
100
AcDbLine
 10
-37.91000000000001
 20
4.7625
 30
0.0
 11
-51.48250000000003
 21
4.762499999999948
 31
0.0
  0
LINE
  5
110
330
10C
100
AcDbEntity
  8
치수문자_일반주서
 62
     0
370
    -2
100
AcDbLine
 10
-37.91000000000001
 20
-4.762500000000006
 30
0.0
 11
-51.48249999999999
 21
-4.762500000000058
 31
0.0
  0
LINE
  5
111
330
10C
100
AcDbEntity
  8
치수문자_일반주서
 62
     0
370
    -2
100
AcDbLine
 10
-51.48250000000003
 20
4.762499999999948
 30
0.0
 11
-51.48249999999999
 21
-4.762500000000058
 31
0.0
  0
LINE
  5
112
330
10C
100
AcDbEntity
  8
치수문자_일반주서
 62
     0
370
    -2
100
AcDbLine
 10
-51.48250000000004
 20
8.064499999999947
 30
0.0
 11
-51.48250000000006
 21
11.36649999999995
 31
0.0
  0
LINE
  5
113
330
10C
100
AcDbEntity
  8
치수문자_일반주서
 62
     0
370
    -2
100
AcDbLine
 10
-51.48249999999998
 20
-8.064500000000058
 30
0.0
 11
-51.48249999999997
 21
-11.36650000000006
 31
0.0
  0
SOLID
  5
114
330
10C
100
AcDbEntity
  8
치수문자_일반주서
 62
     0
100
AcDbTrace
 10
-52.03283333333338
 20
8.064499999999946
 30
0.0
 11
-50.93216666666671
 21
8.06449999999995
 31
0.0
 12
-51.48250000000003
 22
4.762499999999948
 32
0.0
 13
-51.48250000000003
 23
4.762499999999948
 33
0.0
  0
SOLID
  5
115
330
10C
100
AcDbEntity
  8
치수문자_일반주서
 62
     0
100
AcDbTrace
 10
-50.93216666666665
 20
-8.064500000000056
 30
0.0
 11
-52.03283333333331
 21
-8.06450000000006
 31
0.0
 12
-51.48249999999999
 22
-4.762500000000058
 32
0.0
 13
-51.48249999999999
 23
-4.762500000000058
 33
0.0
  0
MTEXT
  5
116
330
10C
100
AcDbEntity
  8
치수문자_일반주서
 62
     0
100
AcDbMText
 10
-55.85750000000002
 20
-0.0000000000000178
 30
0.0
 40
3.5
 41
0.0
 71
     2
 72
     1
  1
\A1;%%c9.53 [3/8]
  7
SLDTEXTSTYLE0
 11
-3.729883127349606E-15
 21
1.0
 31
0.0
 73
     1
 44
1.0
  0
POINT
  5
117
330
10C
100
AcDbEntity
  8
Defpoints
 62
     0
100
AcDbPoint
 10
-37.84750000000001
 20
4.7625
 30
0.0
  0
POINT
  5
193
330
10C
100
AcDbEntity
  8
Defpoints
 62
     0
100
AcDbPoint
 10
-37.84750000000001
 20
-4.762500000000006
 30
0.0
  0
POINT
  5
194
330
10C
100
AcDbEntity
  8
Defpoints
 62
     0
100
AcDbPoint
 10
-51.48249999999999
 20
-4.762500000000056
 30
0.0
  0
ENDBLK
  5
10E
330
10C
100
AcDbEntity
  8
0
100
AcDbBlockEnd
  0
BLOCK
  5
121
330
120
100
AcDbEntity
  8
0
100
AcDbBlockBegin
  2
_D_3
 70
     0
 10
0.0
 20
0.0
 30
0.0
  3
_D_3
  1

  0
LINE
  5
123
330
120
100
AcDbEntity
  8
치수문자_일반주서
 62
     0
370
    -2
100
AcDbLine
 10
33.7875
 20
4.762500000000284
 30
0.0
 11
73.62711649126449
 21
4.762500000000433
 31
0.0
  0
LINE
  5
124
330
120
100
AcDbEntity
  8
치수문자_일반주서
 62
     0
370
    -2
100
AcDbLine
 10
34.28749999999999
 20
-4.762499999999918
 30
0.0
 11
73.62711649126452
 21
-4.762499999999768
 31
0.0
  0
LINE
  5
125
330
120
100
AcDbEntity
  8
치수문자_일반주서
 62
     0
370
    -2
100
AcDbLine
 10
73.62711649126449
 20
4.762500000000433
 30
0.0
 11
73.62711649126439
 21
37.61650000000043
 31
0.0
  0
LINE
  5
126
330
120
100
AcDbEntity
  8
치수문자_일반주서
 62
     0
370
    -2
100
AcDbLine
 10
73.62711649126449
 20
4.762500000000433
 30
0.0
 11
73.62711649126452
 21
-4.762499999999768
 31
0.0
  0
LINE
  5
127
330
120
100
AcDbEntity
  8
치수문자_일반주서
 62
     0
370
    -2
100
AcDbLine
 10
73.62711649126447
 20
8.064500000000432
 30
0.0
 11
73.62711649126446
 21
11.36650000000043
 31
0.0
  0
LINE
  5
128
330
120
100
AcDbEntity
  8
치수문자_일반주서
 62
     0
370
    -2
100
AcDbLine
 10
73.62711649126453
 20
-8.064499999999768
 30
0.0
 11
73.62711649126454
 21
-11.36649999999977
 31
0.0
  0
SOLID
  5
129
330
120
100
AcDbEntity
  8
치수문자_일반주서
 62
     0
100
AcDbTrace
 10
73.07678315793115
 20
8.06450000000043
 30
0.0
 11
74.1774498245978
 21
8.064500000000434
 31
0.0
 12
73.62711649126449
 22
4.762500000000433
 32
0.0
 13
73.62711649126449
 23
4.762500000000433
 33
0.0
  0
SOLID
  5
12A
330
120
100
AcDbEntity
  8
치수문자_일반주서
 62
     0
100
AcDbTrace
 10
74.17744982459786
 20
-8.064499999999766
 30
0.0
 11
73.0767831579312
 21
-8.06449999999977
 31
0.0
 12
73.62711649126452
 22
-4.762499999999768
 32
0.0
 13
73.62711649126452
 23
-4.762499999999768
 33
0.0
  0
MTEXT
  5
12B
330
120
100
AcDbEntity
  8
치수문자_일반주서
 62
     0
100
AcDbMText
 10
69.25211649126443
 20
24.49150000000042
 30
0.0
 40
3.5
 41
0.0
 71
     2
 72
     1
  1
\A1;%%c9.53 [3/8]
  7
SLDTEXTSTYLE0
 11
-2.983906501879622E-15
 21
1.0
 31
0.0
 73
     1
 44
1.0
  0
POINT
  5
12C
330
120
100
AcDbEntity
  8
Defpoints
 62
     0
100
AcDbPoint
 10
33.725
 20
4.762500000000284
 30
0.0
  0
POINT
  5
195
330
120
100
AcDbEntity
  8
Defpoints
 62
     0
100
AcDbPoint
 10
34.22499999999999
 20
-4.762499999999918
 30
0.0
  0
POINT
  5
196
330
120
100
AcDbEntity
  8
Defpoints
 62
     0
100
AcDbPoint
 10
73.62711649126452
 20
-4.762499999999771
 30
0.0
  0
ENDBLK
  5
122
330
120
100
AcDbEntity
  8
0
100
AcDbBlockEnd
  0
BLOCK
  5
13A
330
139
100
AcDbEntity
  8
0
100
AcDbBlockBegin
  2
SW_DOWELSYMBOL_0
 70
     0
 10
0.0
 20
0.0
 30
0.0
  3
SW_DOWELSYMBOL_0
  1

  0
CIRCLE
  5
13C
330
139
100
AcDbEntity
  8
해칭선
 62
     0
100
AcDbCircle
 10
0.0
 20
0.0
 30
0.0
 40
3.000000000000001
  0
HATCH
  5
13D
330
139
100
AcDbEntity
  8
0
  6
Continuous
 62
     0
370
     0
100
AcDbHatch
 10
0.0
 20
0.0
 30
0.0
210
0.0
220
0.0
230
1.0
  2
SOLID
 70
     1
 71
     0
 91
        1
 92
        0
 93
        3
 72
     2
 10
0.0
 20
0.0
 40
3.000000000000001
 50
0.0
 51
90.0
 73
     1
 72
     1
 10
0.0
 20
3.000000000000001
 11
0.0
 21
0.0
 72
     1
 10
0.0
 20
0.0
 11
3.000000000000001
 21
0.0
 97
        0
 75
     0
 76
     1
 98
        1
 10
0.0
 20
0.0
  0
HATCH
  5
13E
330
139
100
AcDbEntity
  8
0
  6
Continuous
 62
     0
370
     0
100
AcDbHatch
 10
0.0
 20
0.0
 30
0.0
210
0.0
220
0.0
230
1.0
  2
SOLID
 70
     1
 71
     0
 91
        1
 92
        0
 93
        3
 72
     2
 10
0.0
 20
0.0
 40
3.000000000000001
 50
180.0
 51
270.0000000000007
 73
     1
 72
     1
 10
0.0
 20
-3.000000000000001
 11
0.0
 21
0.0
 72
     1
 10
0.0
 20
0.0
 11
-3.000000000000001
 21
0.0
 97
        0
 75
     0
 76
     1
 98
        1
 10
0.0
 20
0.0
  0
ENDBLK
  5
13B
330
139
100
AcDbEntity
  8
0
100
AcDbBlockEnd
  0
BLOCK
  5
1D4
330
1D3
100
AcDbEntity
  8
0
100
AcDbBlockBegin
  2
*D7
 70
     1
 10
0.0
 20
0.0
 30
0.0
  3
*D7
  1

  0
LINE
  5
1D6
330
1D3
100
AcDbEntity
  8
0
 62
     0
370
    -2
100
AcDbLine
 10
61.61970288104125
 20
-34.20745855805858
 30
0.0
 11
46.67903621437458
 21
-34.20745855805858
 31
0.0
  0
LINE
  5
1D7
330
1D3
100
AcDbEntity
  8
0
 62
     0
370
    -2
100
AcDbLine
 10
46.67903621437458
 20
-34.20745855805858
 30
0.0
 11
35.23453378244562
 21
-7.751985887585237
 31
0.0
  0
MTEXT
  5
1D8
330
1D3
100
AcDbEntity
  8
0
 62
     0
100
AcDbMText
 10
54.91136954770791
 20
-30.64179189139192
 30
0.0
 40
3.5
 41
0.0
 71
     5
 72
     1
  1
R0,50
 73
     1
 44
1.0
  0
LINE
  5
1D9
330
1D3
100
AcDbEntity
  8
0
 62
     0
370
    -2
100
AcDbLine
 10
33.7249999999999
 20
-4.262500000000197
 30
0.0
 11
33.92351838275184
 21
-4.721401352917747
 31
0.0
  0
SOLID
  5
1DA
330
1D3
100
AcDbEntity
  8
0
 62
     0
100
AcDbTrace
 10
35.7396312048902
 20
-7.533483320969608
 30
0.0
 11
34.72943636000103
 21
-7.970488454200866
 31
0.0
 12
33.92351838275184
 22
-4.721401352917747
 32
0.0
 13
33.92351838275184
 23
-4.721401352917747
 33
0.0
  0
POINT
  5
1DB
330
1D3
100
AcDbEntity
  8
Defpoints
 62
     0
100
AcDbPoint
 10
33.92351838275184
 20
-4.721401352917747
 30
0.0
  0
POINT
  5
1DC
330
1D3
100
AcDbEntity
  8
Defpoints
 62
     0
100
AcDbPoint
 10
33.7249999999999
 20
-4.262500000000197
 30
0.0
  0
ENDBLK
  5
1D5
330
1D3
100
AcDbEntity
  8
0
100
AcDbBlockEnd
  0
ENDSEC
  0
SECTION
  2
ENTITIES
  0
LINE
  5
96
330
1F
100
AcDbEntity
  8
외형선
  6
Continuous
 62
     1
370
    15
100
AcDbLine
 10
23.88000729208273
 20
-0.927000783432782
 30
0.0
 11
23.92559266233038
 21
-0.9525206975579896
 31
0.0
  0
LINE
  5
97
330
1F
100
AcDbEntity
  8
외형선
  6
Continuous
 62
     1
370
    15
100
AcDbLine
 10
27.29909997395474
 20
0.9233664265035539
 30
0.0
 11
27.24696012869873
 21
0.9525320469653297
 31
0.0
  0
LINE
  5
98
330
1F
100
AcDbEntity
  8
외형선
  6
Continuous
 62
     1
370
    15
100
AcDbLine
 10
18.65603762281904
 20
0.9266024541011191
 30
0.0
 11
18.60979129185523
 21
0.9524967768821494
 31
0.0
  0
LINE
  5
9A
330
1F
100
AcDbEntity
  8
외형선
  6
Continuous
 62
     1
370
    15
100
AcDbLine
 10
17.94534997101236
 20
4.762499999999998
 30
0.0
 11
15.95185296734056
 21
4.762499999999998
 31
0.0
  0
LINE
  5
9B
330
1F
100
AcDbEntity
  8
외형선
  6
Continuous
 62
     1
370
    15
100
AcDbLine
 10
24.59039191074741
 20
-4.762500000000002
 30
0.0
 11
26.58348805177561
 21
-4.762500000000002
 31
0.0
  0
LINE
  5
9C
330
1F
100
AcDbEntity
  8
외형선
  6
Continuous
 62
     1
370
    15
100
AcDbLine
 10
26.58348805177561
 20
4.762499999999998
 30
0.0
 11
24.59039191074748
 21
4.762499999999998
 31
0.0
  0
LINE
  5
9D
330
1F
100
AcDbEntity
  8
외형선
  6
Continuous
 62
     1
370
    15
100
AcDbLine
 10
15.95185296734051
 20
-4.762500000000002
 30
0.0
 11
17.9453499710123
 21
-4.762500000000002
 31
0.0
  0
LINE
  5
A1
330
1F
100
AcDbEntity
  8
외형선
  6
Continuous
370
    15
100
AcDbLine
 10
-37.84750000000001
 20
-4.762500000000002
 30
0.0
 11
11.75013727030823
 21
-4.762500000000002
 31
0.0
  0
LINE
  5
A2
330
1F
100
AcDbEntity
  8
외형선
  6
Continuous
370
    15
100
AcDbLine
 10
11.75013727030823
 20
4.762499999999998
 30
0.0
 11
-37.84750000000001
 21
4.762499999999998
 31
0.0
  0
LINE
  5
A3
330
1F
100
AcDbEntity
  8
외형선
  6
Continuous
370
    15
100
AcDbLine
 10
-37.84750000000001
 20
4.762499999999998
 30
0.0
 11
-38.8
 21
3.810000000000001
 31
0.0
  0
LINE
  5
A4
330
1F
100
AcDbEntity
  8
외형선
  6
Continuous
370
    15
100
AcDbLine
 10
-38.8
 20
-3.810000000000006
 30
0.0
 11
-37.84750000000001
 21
-4.762500000000004
 31
0.0
  0
LINE
  5
A5
330
1F
100
AcDbEntity
  8
외형선
  6
Continuous
 62
     1
370
    15
100
AcDbLine
 10
34.22499999999992
 20
-4.262500000000222
 30
0.0
 11
34.225
 21
-2.528580473929778
 31
0.0
  0
SPLINE
  5
A7
330
1F
100
AcDbEntity
  8
외형선
  6
Continuous
 62
     1
370
    15
100
AcDbSpline
210
0.0
220
0.0
230
1.0
 70
     8
 71
     3
 72
    46
 73
    42
 74
     0
 42
0.000000001
 43
0.00000001
 40
0.0032299663065139
 40
0.0032299663065139
 40
0.0032299663065139
 40
0.0032299663065139
 40
0.0624999999999974
 40
0.0624999999999974
 40
0.1249999999999948
 40
0.1249999999999948
 40
0.1874999999999923
 40
0.1874999999999923
 40
0.218749999999991
 40
0.218749999999991
 40
0.2499999999999897
 40
0.2499999999999897
 40
0.3124999999999885
 40
0.3124999999999885
 40
0.3749999999999874
 40
0.3749999999999874
 40
0.4374999999999862
 40
0.4374999999999862
 40
0.4687499999999864
 40
0.4687499999999864
 40
0.4999999999999866
 40
0.4999999999999866
 40
0.5624999999999876
 40
0.5624999999999876
 40
0.5937499999999883
 40
0.5937499999999883
 40
0.6249999999999891
 40
0.6249999999999891
 40
0.6874999999999916
 40
0.6874999999999916
 40
0.749999999999994
 40
0.749999999999994
 40
0.8124999999999964
 40
0.8124999999999964
 40
0.8437499999999972
 40
0.8437499999999972
 40
0.874999999999998
 40
0.874999999999998
 40
0.937499999999999
 40
0.937499999999999
 40
1.0
 40
1.0
 40
1.0
 40
1.0
 10
33.86229362806858
 20
-4.743281093317869
 30
0.0
 10
33.21695808703219
 20
-4.628761585271114
 30
0.0
 10
32.78526546922952
 20
-4.562535427967765
 30
0.0
 10
31.90908330555289
 20
-4.389751268751733
 30
0.0
 10
31.45321309788686
 20
-4.280402177472078
 30
0.0
 10
30.54752543915716
 20
-4.024514365438882
 30
0.0
 10
30.09817789467416
 20
-3.878182070568117
 30
0.0
 10
29.4174281715366
 20
-3.63272168192422
 30
0.0
 10
29.19043304644435
 20
-3.546686480186567
 30
0.0
 10
28.73858509232487
 20
-3.367093980655509
 30
0.0
 10
28.51425849066784
 20
-3.273623895653194
 30
0.0
 10
27.83568595125735
 20
-2.981693986886441
 30
0.0
 10
27.37963940250475
 20
-2.772128117562718
 30
0.0
 10
26.47861010011072
 20
-2.331665442810116
 30
0.0
 10
26.02486982345954
 20
-2.099382400210843
 30
0.0
 10
25.11822587237271
 20
-1.618085384848218
 30
0.0
 10
24.66940827525095
 20
-1.369855035772262
 30
0.0
 10
23.98886177407211
 20
-0.9885938093643524
 30
0.0
 10
23.76172275345296
 20
-0.8601898890431041
 30
0.0
 10
23.30916858278432
 20
-0.6020567698329988
 30
0.0
 10
23.08476886633243
 20
-0.4725245297750458
 30
0.0
 10
22.40731635347474
 20
-0.0819581294451471
 30
0.0
 10
21.95117370552359
 20
0.1808299767442599
 30
0.0
 10
21.2740029502199
 20
0.5706750057409115
 30
0.0
 10
21.04951145839564
 20
0.6998923519815154
 30
0.0
 10
20.59682024551481
 20
0.9571645541992491
 30
0.0
 10
20.36965963947545
 20
1.085018252365197
 30
0.0
 10
19.68919028017441
 20
1.46427832446248
 30
0.0
 10
19.24042599977505
 20
1.710748121202683
 30
0.0
 10
18.33361024349216
 20
2.187741760182355
 30
0.0
 10
17.88034568398201
 20
2.417368311541042
 30
0.0
 10
16.97887298648968
 20
2.852013915871499
 30
0.0
 10
16.52279130965985
 20
3.058249944602967
 30
0.0
 10
15.84444942137786
 20
3.344667714524507
 30
0.0
 10
15.62015432107098
 20
3.436230969633155
 30
0.0
 10
15.16813516406482
 20
3.61187844131534
 30
0.0
 10
14.94110113446638
 20
3.695855085008716
 30
0.0
 10
14.2603767537149
 20
3.934916945361725
 30
0.0
 10
13.81118909903173
 20
4.076709693834693
 30
0.0
 10
12.90526088039863
 20
4.323118140581072
 30
0.0
 10
12.44968672564419
 20
4.427466809659075
 30
0.0
 10
11.99999999999998
 20
4.511049759961467
 30
0.0
  0
SPLINE
  5
A8
330
1F
100
AcDbEntity
  8
외형선
  6
Continuous
 62
     1
370
    15
100
AcDbSpline
210
0.0
220
0.0
230
1.0
 70
     8
 71
     3
 72
    21
 73
    17
 74
     0
 42
0.000000001
 43
0.00000001
 40
0.0
 40
0.0
 40
0.0
 40
0.0
 40
0.0721103609482002
 40
0.1442731627369245
 40
0.2163878677123904
 40
0.2884603223141431
 40
0.3605221515983366
 40
0.4326050610347485
 40
0.5047405966282746
 40
0.5768936884367231
 40
0.6524234897114924
 40
0.7279311103329302
 40
0.8034316432947667
 40
0.8789402145307226
 40
0.9544719126185492
 40
1.0
 40
1.0
 40
1.0
 40
1.0
 10
33.71700000000001
 20
-2.621159877215935
 30
0.0
 10
33.2102399379475
 20
-2.368265623411292
 30
0.0
 10
32.19635128256277
 20
-1.862293203434091
 30
0.0
 10
30.67524892916725
 20
-1.017208088329733
 30
0.0
 10
29.15478128319918
 20
-0.1436037706406714
 30
0.0
 10
27.63518730743573
 20
0.7364521817134447
 30
0.0
 10
26.11586119810131
 20
1.591061720107081
 30
0.0
 10
24.59601917700024
 20
2.392029773732995
 30
0.0
 10
23.07524786708301
 20
3.111856136369262
 30
0.0
 10
21.53014229666204
 20
3.735929187249716
 30
0.0
 10
19.96161847827746
 20
4.236848375689025
 30
0.0
 10
18.36962573097552
 20
4.587348732720605
 30
0.0
 10
16.77782434306774
 20
4.769354354703111
 30
0.0
 10
15.18580857078851
 20
4.767047544790751
 30
0.0
 10
13.80436779893603
 20
4.63447820281362
 30
0.0
 10
12.95346539836353
 20
4.436960144558324
 30
0.0
 10
12.63345856292947
 20
4.362677678413167
 30
0.0
  0
SPLINE
  5
A9
330
1F
100
AcDbEntity
  8
외형선
  6
Continuous
 62
     1
370
    15
100
AcDbSpline
210
0.0
220
0.0
230
1.0
 70
     8
 71
     3
 72
    10
 73
     6
 74
     0
 42
0.000000001
 43
0.00000001
 40
0.0
 40
0.0
 40
0.0
 40
0.0
 40
0.5
 40
0.5
 40
1.0
 40
1.0
 40
1.0
 40
1.0
 10
34.22499999999999
 20
-2.528580473929784
 30
0.0
 10
34.22499999999999
 20
-2.606178245446687
 30
0.0
 10
34.16228261763296
 20
-2.668686145912853
 30
0.0
 10
33.96762378843137
 20
-2.705920870648819
 30
0.0
 10
33.83983111535768
 20
-2.680320747882075
 30
0.0
 10
33.71700000000001
 20
-2.621159877215937
 30
0.0
  0
SPLINE
  5
AA
330
1F
100
AcDbEntity
  8
외형선
  6
Continuous
 62
     1
370
    15
100
AcDbSpline
210
0.0
220
0.0
230
1.0
 70
     8
 71
     3
 72
    19
 73
    15
 74
     0
 42
0.000000001
 43
0.00000001
 40
0.0
 40
0.0
 40
0.0
 40
0.0
 40
0.084956331052103
 40
0.1698472159411502
 40
0.2547097719243393
 40
0.3395813305190262
 40
0.424499155104717
 40
0.5094797341974528
 40
0.5944050132212321
 40
0.6792798883179665
 40
0.7681912156682982
 40
0.8571123178309985
 40
0.9460609620007194
 40
1.0
 40
1.0
 40
1.0
 40
1.0
 10
12.0
 20
0.9330736578693871
 30
0.0
 10
12.50706954236653
 20
0.643105926861054
 30
0.0
 10
13.52081800575873
 20
0.0633938416683332
 30
0.0
 10
15.04074458919106
 20
-0.8171440759159374
 30
0.0
 10
16.56008801684432
 20
-1.667585358084604
 30
0.0
 10
18.07962383173163
 20
-2.462206079014214
 30
0.0
 10
19.60000839807658
 20
-3.173399260551939
 30
0.0
 10
21.12109846485507
 20
-3.776803085757788
 30
0.0
 10
22.64159355829871
 20
-4.252732021692684
 30
0.0
 10
24.18532771403892
 20
-4.58936103266329
 30
0.0
 10
25.75303007352612
 20
-4.769086220810878
 30
0.0
 10
27.34504301864352
 20
-4.767317216064348
 30
0.0
 10
28.7284274826556
 20
-4.634872113424141
 30
0.0
 10
29.58126932701541
 20
-4.437098578475387
 30
0.0
 10
29.90321078447354
 20
-4.362440538993472
 30
0.0
  0
SPLINE
  5
AB
330
1F
100
AcDbEntity
  8
외형선
  6
Continuous
370
    15
100
AcDbSpline
210
0.0
220
0.0
230
1.0
 70
    24
 71
     3
 72
    22
 73
    18
 74
     0
 42
0.000000001
 43
0.00000001
 40
0.0
 40
0.0
 40
0.0
 40
0.0
 40
0.0433544937722185
 40
0.1142104083711117
 40
0.1871211492934936
 40
0.2579770638923727
 40
0.3308878048147409
 40
0.4017437194136212
 40
0.4746544603359905
 40
0.5455103749349469
 40
0.6184211158572402
 40
0.6892770304560578
 40
0.7621877713783578
 40
0.8330436859773017
 40
0.9059544268997397
 40
0.9768103414984763
 40
1.0
 40
1.0
 40
1.0
 40
1.0
 10
12.00000000000004
 20
4.014254637871931
 30
0.0
 10
12.00000000000003
 20
3.966531454296277
 30
0.0
 10
11.99999999999998
 20
3.840812438556374
 30
0.0
 10
12.00000000000003
 20
3.60605284718525
 30
0.0
 10
12.00000000000002
 20
3.312882121506283
 30
0.0
 10
11.99999999999993
 20
2.998659854567402
 30
0.0
 10
12.00000000000002
 20
2.678669074555459
 30
0.0
 10
12.0
 20
2.356010446591456
 30
0.0
 10
12.00000000000005
 20
2.045678552507328
 30
0.0
 10
11.99999999999998
 20
1.750850904270394
 30
0.0
 10
12.00000000000004
 20
1.485208248883029
 30
0.0
 10
12.00000000000001
 20
1.251392003457914
 30
0.0
 10
12.00000000000001
 20
1.060584480172448
 30
0.0
 10
12.00000000000001
 20
0.9134222637716912
 30
0.0
 10
12.00000000000001
 20
0.8216734574577209
 30
0.0
 10
12.00000000000003
 20
0.7801290429427337
 30
0.0
 10
12.0
 20
0.7879227964897946
 30
0.0
 10
12.00000000000001
 20
0.7898445720422567
 30
0.0
  0
SPLINE
  5
AC
330
1F
100
AcDbEntity
  8
외형선
  6
Continuous
 62
     1
370
    15
100
AcDbSpline
210
0.0
220
0.0
230
1.0
 70
     8
 71
     3
 72
    21
 73
    17
 74
     0
 42
0.000000001
 43
0.00000001
 40
0.002944817529102
 40
0.002944817529102
 40
0.002944817529102
 40
0.002944817529102
 40
0.0486217233950599
 40
0.1202908690331844
 40
0.1919122468819666
 40
0.2634916633862348
 40
0.3350605272593318
 40
0.4066503270781238
 40
0.4782923930454719
 40
0.5499518951280067
 40
0.6249650070555126
 40
0.6999560900645934
 40
0.774940133899811
 40
0.8499321610203819
 40
0.9249471567850982
 40
1.0
 40
1.0
 40
1.0
 40
1.0
 10
33.78059101969588
 20
-4.759400028707339
 30
0.0
 10
32.84311048650187
 20
-4.744574002060485
 30
0.0
 10
32.01276089661919
 20
-4.741280776811207
 30
0.0
 10
30.67524500321102
 20
-4.558331322048605
 30
0.0
 10
29.15478233416145
 20
-4.218690000347646
 30
0.0
 10
27.63518702601183
 20
-3.730070377687381
 30
0.0
 10
26.1158612732975
 20
-3.116826011875498
 30
0.0
 10
24.59601915768834
 20
-2.397491377305912
 30
0.0
 10
23.07524786906461
 20
-1.59716650195196
 30
0.0
 10
21.53014230820829
 20
-0.7293707046407129
 30
0.0
 10
19.96161842736213
 20
0.1790501396135988
 30
0.0
 10
18.36962592207672
 20
1.094283058917451
 30
0.0
 10
16.77782362959509
 20
1.969629586710106
 30
0.0
 10
15.18581123425801
 20
2.768961508908379
 30
0.0
 10
13.59323101689696
 20
3.476219984713839
 30
0.0
 10
12.53116629067856
 20
3.834879601895597
 30
0.0
 10
12.00000000000002
 20
4.014254637871928
 30
0.0
  0
LINE
  5
AD
330
1F
100
AcDbEntity
  8
외형선
  6
Continuous
 62
     1
370
    15
100
AcDbLine
 10
34.225
 20
-1.698864885138142
 30
0.0
 11
34.225
 21
1.698864885138216
 31
0.0
  0
SPLINE
  5
AE
330
1F
100
AcDbEntity
  8
외형선
  6
Continuous
 62
     1
370
    15
100
AcDbSpline
210
0.0
220
0.0
230
1.0
 70
     8
 71
     3
 72
    14
 73
    10
 74
     0
 42
0.000000001
 43
0.00000001
 40
0.0
 40
0.0
 40
0.0
 40
0.0
 40
0.25
 40
0.25
 40
0.5
 40
0.5
 40
0.75
 40
0.75
 40
1.0
 40
1.0
 40
1.0
 40
1.0
 10
33.71700000000001
 20
-1.592933118592354
 30
0.0
 10
33.78077966554681
 20
-1.627606984608412
 30
0.0
 10
33.84138996520387
 20
-1.658877219703051
 30
0.0
 10
33.95781639375224
 20
-1.713097173607488
 30
0.0
 10
34.01240552741032
 20
-1.735364244801695
 30
0.0
 10
34.10819170782393
 20
-1.763100367305225
 30
0.0
 10
34.1497190692486
 20
-1.768517756285505
 30
0.0
 10
34.20866910946654
 20
-1.753179642704294
 30
0.0
 10
34.225
 20
-1.732354227383941
 30
0.0
 10
34.225
 20
-1.698864885138144
 30
0.0
  0
SPLINE
  5
AF
330
1F
100
AcDbEntity
  8
외형선
  6
Continuous
 62
     1
370
    15
100
AcDbSpline
210
0.0
220
0.0
230
1.0
 70
     8
 71
     3
 72
    18
 73
    14
 74
     0
 42
0.000000001
 43
0.00000001
 40
0.0
 40
0.0
 40
0.0
 40
0.0
 40
0.008498737085362
 40
0.1048967832236047
 40
0.2013660677843463
 40
0.2977725761420383
 40
0.3941218663584446
 40
0.4950533054049169
 40
0.5959958407414592
 40
0.6969696415476072
 40
0.7979947319673759
 40
0.8990235946567061
 40
1.0
 40
1.0
 40
1.0
 40
1.0
 10
17.94534997101235
 20
4.756012069612026
 30
0.0
 10
17.99002379108322
 20
4.758137351464469
 30
0.0
 10
18.54141630654482
 20
4.784368922993913
 30
0.0
 10
19.60001531235043
 20
4.682770385194775
 30
0.0
 10
21.12109659990498
 20
4.442037473168329
 30
0.0
 10
22.64159410602006
 20
4.033692426424619
 30
0.0
 10
24.18532737264391
 20
3.484728839458178
 30
0.0
 10
25.753030905012
 20
2.801054479229779
 30
0.0
 10
27.34504005138956
 20
2.0031874879378
 30
0.0
 10
28.93763788284152
 20
1.130365074648228
 30
0.0
 10
30.53090057883155
 20
0.2168051999393287
 30
0.0
 10
32.12420576998713
 20
-0.7090299432916571
 30
0.0
 10
33.18616051388138
 20
-1.298349738947975
 30
0.0
 10
33.71700000000003
 20
-1.592933118592357
 30
0.0
  0
SPLINE
  5
B0
330
1F
100
AcDbEntity
  8
외형선
  6
Continuous
 62
     1
370
    15
100
AcDbSpline
210
0.0
220
0.0
230
1.0
 70
     8
 71
     3
 72
    16
 73
    12
 74
     0
 42
0.000000001
 43
0.00000001
 40
0.0
 40
0.0
 40
0.0
 40
0.0
 40
0.1222257314401194
 40
0.2445403491374441
 40
0.3667734436236356
 40
0.4889349245058625
 40
0.6110783956708532
 40
0.7332575973049457
 40
0.8555259993044436
 40
0.9778241587643418
 40
1.0
 40
1.0
 40
1.0
 40
1.0
 10
33.71700000000001
 20
2.132993112897562
 30
0.0
 10
33.21023993921501
 20
2.387607830714088
 30
0.0
 10
32.19635128636624
 20
2.897022429888644
 30
0.0
 10
30.67524891394467
 20
3.543030434086048
 30
0.0
 10
29.15478134022596
 20
4.074534204837272
 30
0.0
 10
27.63518709468343
 20
4.466825059500201
 30
0.0
 10
26.11586199210769
 20
4.707229514129774
 30
0.0
 10
24.596016211824
 20
4.791852989209985
 30
0.0
 10
23.07525894330372
 20
4.700346078836925
 30
0.0
 10
21.96905269520764
 20
4.555712551817201
 30
0.0
 10
21.37002553673544
 20
4.396912520805589
 30
0.0
 10
21.2780786736447
 20
4.372537724932444
 30
0.0
  0
SPLINE
  5
B1
330
1F
100
AcDbEntity
  8
외형선
  6
Continuous
 62
     1
370
    15
100
AcDbSpline
210
0.0
220
0.0
230
1.0
 70
     8
 71
     3
 72
    10
 73
     6
 74
     0
 42
0.000000001
 43
0.00000001
 40
0.0
 40
0.0
 40
0.0
 40
0.0
 40
0.5000000000000002
 40
0.5000000000000002
 40
1.0
 40
1.0
 40
1.0
 40
1.0
 10
34.22499999999999
 20
1.69886488513821
 30
0.0
 10
34.22500000000002
 20
1.763155569038193
 30
0.0
 10
34.16228261763293
 20
1.839276522137664
 30
0.0
 10
33.96762378843135
 20
1.992367025432541
 30
0.0
 10
33.83983111535767
 20
2.069638869479425
 30
0.0
 10
33.71700000000001
 20
2.132993112897553
 30
0.0
  0
LINE
  5
B2
330
1F
100
AcDbEntity
  8
외형선
  6
Continuous
370
    15
100
AcDbLine
 10
12.0
 20
4.014254637871935
 30
0.0
 11
11.99999999999998
 21
4.511049759961465
 31
0.0
  0
SPLINE
  5
B3
330
1F
100
AcDbEntity
  8
외형선
  6
Continuous
 62
     1
370
    15
100
AcDbSpline
210
0.0
220
0.0
230
1.0
 70
     8
 71
     3
 72
    15
 73
    11
 74
     0
 42
0.000000001
 43
0.00000001
 40
0.0
 40
0.0
 40
0.0
 40
0.0
 40
0.1203262913591299
 40
0.2411544700477258
 40
0.3676373150097952
 40
0.4940830160619235
 40
0.6205168480592487
 40
0.7469641410185003
 40
0.8734501623997809
 40
1.0
 40
1.0
 40
1.0
 40
1.0
 10
24.59039191074742
 20
-4.762185698963557
 30
0.0
 10
24.08538925025391
 20
-4.746812649162591
 30
0.0
 10
23.0732775364429
 20
-4.716002427756322
 30
0.0
 10
21.53013866798037
 20
-4.463251867540009
 30
0.0
 10
19.9616194212203
 20
-4.058311220018654
 30
0.0
 10
18.36962565584185
 20
-3.493099796920072
 30
0.0
 10
16.77782370091281
 20
-2.799075441499785
 30
0.0
 10
15.18581121523293
 20
-2.000649882290802
 30
0.0
 10
13.59323102165661
 20
-1.12838633328469
 30
0.0
 10
12.53116629226539
 20
-0.5176408878767778
 30
0.0
 10
12.00000000000002
 20
-0.2121911494778591
 30
0.0
  0
LINE
  5
B4
330
1F
100
AcDbEntity
  8
외형선
  6
Continuous
370
    15
100
AcDbLine
 10
12.0
 20
-0.2121911494778426
 30
0.0
 11
11.99999999999999
 21
0.9330736578693838
 31
0.0
  0
SPLINE
  5
B5
330
1F
100
AcDbEntity
  8
외형선
  6
Continuous
 62
     1
370
    15
100
AcDbSpline
210
0.0
220
0.0
230
1.0
 70
     8
 71
     3
 72
    14
 73
    10
 74
     0
 42
0.000000001
 43
0.00000001
 40
0.0
 40
0.0
 40
0.0
 40
0.0
 40
0.1639348030057235
 40
0.3277433187328512
 40
0.4914971699806671
 40
0.6552683929925899
 40
0.8191288925307839
 40
0.9831104854309767
 40
1.0
 40
1.0
 40
1.0
 40
1.0
 10
12.0
 20
-3.577976102092054
 30
0.0
 10
12.50706951211354
 20
-3.759335821099457
 30
0.0
 10
13.52081791502307
 20
-4.121915548540666
 30
0.0
 10
15.04074495175704
 20
-4.494205405033198
 30
0.0
 10
16.56008665763276
 20
-4.721847828984687
 30
0.0
 10
18.07962890795588
 20
-4.791303237204072
 30
0.0
 10
19.59998943551295
 20
-4.684101176499985
 30
0.0
 10
20.6664540782058
 20
-4.536918325262571
 30
0.0
 10
21.22584359059844
 20
-4.386576457798104
 30
0.0
 10
21.27807867364465
 20
-4.372537724932448
 30
0.0
  0
SPLINE
  5
B6
330
1F
100
AcDbEntity
  8
외형선
  6
Continuous
370
    15
100
AcDbSpline
210
0.0
220
0.0
230
1.0
 70
    24
 71
     3
 72
    23
 73
    19
 74
     0
 42
0.000000001
 43
0.00000001
 40
0.0
 40
0.0
 40
0.0
 40
0.0
 40
0.0071044105767876
 40
0.07585245597328
 40
0.1426629913186743
 40
0.2114110367151532
 40
0.2782215720605493
 40
0.3469696174570289
 40
0.4137801528024961
 40
0.4825281981989045
 40
0.5493387335442409
 40
0.6180867789406556
 40
0.684897314286111
 40
0.7536453596826559
 40
0.820455895027916
 40
0.8892039404245318
 40
0.9440742385528619
 40
1.0
 40
1.0
 40
1.0
 40
1.0
 10
12.0
 20
-0.1573899132973237
 30
0.0
 10
12.0
 20
-0.1566253960629189
 30
0.0
 10
12.0
 20
-0.1484627892939662
 30
0.0
 10
12.00000000000003
 20
-0.1841779018854452
 30
0.0
 10
11.99999999999993
 20
-0.2682441489280659
 30
0.0
 10
12.00000000000001
 20
-0.4075686505812111
 30
0.0
 10
11.99999999999999
 20
-0.5938035205356489
 30
0.0
 10
12.00000000000002
 20
-0.8201736926818788
 30
0.0
 10
12.00000000000005
 20
-1.083849959869605
 30
0.0
 10
12.00000000000004
 20
-1.372755630556708
 30
0.0
 10
11.99999999999991
 20
-1.68387865704726
 30
0.0
 10
12.00000000000004
 20
-2.002817998922882
 30
0.0
 10
12.00000000000001
 20
-2.326301079556909
 30
0.0
 10
12.00000000000004
 20
-2.639286261601539
 30
0.0
 10
11.99999999999994
 20
-2.938787031122004
 30
0.0
 10
12.00000000000001
 20
-3.1940386820166
 30
0.0
 10
12.0
 20
-3.410417709915963
 30
0.0
 10
11.99999999999999
 20
-3.521769718237625
 30
0.0
 10
11.99999999999999
 20
-3.577976102092054
 30
0.0
  0
LINE
  5
B7
330
1F
100
AcDbEntity
  8
외형선
  6
Continuous
 62
     1
370
    15
100
AcDbLine
 10
34.225
 20
-2.528580473929778
 30
0.0
 11
34.225
 21
-1.698864885138142
 31
0.0
  0
SPLINE
  5
B8
330
1F
100
AcDbEntity
  8
외형선
  6
Continuous
 62
     1
370
    15
100
AcDbSpline
210
0.0
220
0.0
230
1.0
 70
     8
 71
     3
 72
    14
 73
    10
 74
     0
 42
0.000000001
 43
0.00000001
 40
0.0
 40
0.0
 40
0.0
 40
0.0
 40
0.25
 40
0.25
 40
0.5
 40
0.5
 40
0.75
 40
0.75
 40
1.0
 40
1.0
 40
1.0
 40
1.0
 10
33.71700000000001
 20
3.090431657440195
 30
0.0
 10
33.78077966554681
 20
3.062437161554241
 30
0.0
 10
33.84138996520386
 20
3.026199165010687
 30
0.0
 10
33.95781639375221
 20
2.939597571965969
 30
0.0
 10
34.01240552741034
 20
2.889827564198084
 30
0.0
 10
34.10819170782392
 20
2.784011703245846
 30
0.0
 10
34.14971906924861
 20
2.727493863933744
 30
0.0
 10
34.20866910946654
 20
2.619062096281861
 30
0.0
 10
34.225
 20
2.569001545385244
 30
0.0
 10
34.225
 20
2.528580473929795
 30
0.0
  0
LINE
  5
B9
330
1F
100
AcDbEntity
  8
외형선
  6
Continuous
 62
     1
370
    15
100
AcDbLine
 10
34.225
 20
1.698864885138216
 30
0.0
 11
34.225
 21
2.528580473929794
 31
0.0
  0
SPLINE
  5
BA
330
1F
100
AcDbEntity
  8
외형선
  6
Continuous
 62
     1
370
    15
100
AcDbSpline
210
0.0
220
0.0
230
1.0
 70
     8
 71
     3
 72
    12
 73
     8
 74
     0
 42
0.000000001
 43
0.00000001
 40
0.0
 40
0.0
 40
0.0
 40
0.0
 40
0.1067472057760321
 40
0.3300001789113549
 40
0.5533665533313734
 40
0.7767412682356374
 40
1.0
 40
1.0
 40
1.0
 40
1.0
 10
26.58348805177561
 20
4.740376590332014
 30
0.0
 10
26.8372876068086
 20
4.744942540488107
 30
0.0
 10
27.62188799011263
 20
4.75905779865769
 30
0.0
 10
28.93763947737832
 20
4.592646128951037
 30
0.0
 10
30.53090015350546
 20
4.254190290868408
 30
0.0
 10
32.12420587625587
 20
3.756399972965871
 30
0.0
 10
33.18616054929814
 20
3.312382661357441
 30
0.0
 10
33.71700000000001
 20
3.090431657440198
 30
0.0
  0
SPLINE
  5
BB
330
1F
100
AcDbEntity
  8
외형선
  6
Continuous
 62
     1
370
    15
100
AcDbSpline
210
0.0
220
0.0
230
1.0
 70
     8
 71
     3
 72
    10
 73
     6
 74
     0
 42
0.000000001
 43
0.00000001
 40
0.0
 40
0.0
 40
0.0
 40
0.0
 40
0.398669745825262
 40
0.7976294163754616
 40
1.0
 40
1.0
 40
1.0
 40
1.0
 10
33.725
 20
4.762500000000284
 30
0.0
 10
33.21024258308097
 20
4.754433282417415
 30
0.0
 10
32.19635921988682
 20
4.754994070862351
 30
0.0
 10
30.9248448955622
 20
4.606656698917396
 30
0.0
 10
30.16045661723622
 20
4.423933776887405
 30
0.0
 10
29.90321078447352
 20
4.362440538993465
 30
0.0
  0
LINE
  5
BD
330
1F
100
AcDbEntity
  8
외형선
  6
Continuous
 62
     1
370
    15
100
AcDbLine
 10
34.225
 20
2.466080473929794
 30
0.0
 11
34.225
 21
4.262500000000284
 31
0.0
  0
SPLINE
  5
BE
330
1F
100
AcDbEntity
  8
외형선
  6
Continuous
 62
     1
370
    15
100
AcDbSpline
210
0.0
220
0.0
230
1.0
 70
     8
 71
     3
 72
    10
 73
     6
 74
     0
 42
0.000000001
 43
0.00000001
 40
0.0
 40
0.0
 40
0.0
 40
0.0
 40
0.1938234135688248
 40
0.5968100470004025
 40
1.0
 40
1.0
 40
1.0
 40
1.0
 10
15.95185296734051
 20
-4.740366474487755
 30
0.0
 10
15.69655703291456
 20
-4.744705737503122
 30
0.0
 10
14.91046429097829
 20
-4.758066949734735
 30
0.0
 10
13.59322909588171
 20
-4.599185405344079
 30
0.0
 10
12.5311656502325
 20
-4.350713215098332
 30
0.0
 10
12.00000000000002
 20
-4.226445787349805
 30
0.0
1001
PE_URL
1000

  0
LINE
  5
BF
330
1F
100
AcDbEntity
  8
외형선
  6
Continuous
370
    15
100
AcDbLine
 10
12.0
 20
-4.226445787349796
 30
0.0
 11
11.99999999999998
 21
-3.577976102092053
 31
0.0
  0
LINE
  5
C0
330
1F
100
AcDbEntity
  8
외형선
  6
Continuous
 62
     1
370
    15
100
AcDbLine
 10
12.0
 20
-4.511049759961461
 30
0.0
 11
12.63345856292942
 21
-4.362677678413174
 31
0.0
1001
PE_URL
1000

  0
LINE
  5
C1
330
1F
100
AcDbEntity
  8
외형선
  6
Continuous
370
    15
100
AcDbLine
 10
12.0
 20
-4.277598521771499
 30
0.0
 11
11.99999999999999
 21
-4.511049759961459
 31
0.0
  0
LINE
  5
C4
330
1F
100
AcDbEntity
  8
외형선
  6
Continuous
370
    15
100
AcDbLine
 10
11.75013727030823
 20
4.555328165086978
 30
0.0
 11
11.75013727030823
 21
4.762499999999998
 31
0.0
  0
SPLINE
  5
C5
330
1F
100
AcDbEntity
  8
외형선
  6
Continuous
370
    15
100
AcDbSpline
210
0.0
220
0.0
230
1.0
 70
     8
 71
     3
 72
     8
 73
     4
 74
     0
 42
0.000000001
 43
0.00000001
 40
0.0
 40
0.0
 40
0.0
 40
0.0
 40
1.0
 40
1.0
 40
1.0
 40
1.0
 10
12.0
 20
4.511049759961467
 30
0.0
 10
11.91690347323478
 20
4.526494852001861
 30
0.0
 10
11.83359691631361
 20
4.541260541955833
 30
0.0
 10
11.75013727030824
 20
4.555333611352995
 30
0.0
  0
SPLINE
  5
C6
330
1F
100
AcDbEntity
  8
외형선
  6
Continuous
370
    15
100
AcDbSpline
210
0.0
220
0.0
230
1.0
 70
     8
 71
     3
 72
     8
 73
     4
 74
     0
 42
0.000000001
 43
0.00000001
 40
0.0
 40
0.0
 40
0.0
 40
0.0
 40
1.0
 40
1.0
 40
1.0
 40
1.0
 10
12.0
 20
4.014254637871935
 30
0.0
 10
11.91690347323476
 20
4.040174367415434
 30
0.0
 10
11.83359691631359
 20
4.065499755793598
 30
0.0
 10
11.75013727030823
 20
4.090210621757464
 30
0.0
  0
LINE
  5
C7
330
1F
100
AcDbEntity
  8
외형선
  6
Continuous
370
    15
100
AcDbLine
 10
11.75013727030823
 20
1.07442110260383
 30
0.0
 11
11.75013727030823
 21
4.09022201607796
 31
0.0
  0
SPLINE
  5
C8
330
1F
100
AcDbEntity
  8
외형선
  6
Continuous
370
    15
100
AcDbSpline
210
0.0
220
0.0
230
1.0
 70
     8
 71
     3
 72
     8
 73
     4
 74
     0
 42
0.000000001
 43
0.00000001
 40
0.0
 40
0.0
 40
0.0
 40
0.0
 40
1.0
 40
1.0
 40
1.0
 40
1.0
 10
12.0
 20
0.9330736578693871
 30
0.0
 10
11.91690347323478
 20
0.9803100877911923
 30
0.0
 10
11.83359691631361
 20
1.027443027076748
 30
0.0
 10
11.75013727030824
 20
1.074439290009426
 30
0.0
  0
SPLINE
  5
C9
330
1F
100
AcDbEntity
  8
외형선
  6
Continuous
370
    15
100
AcDbSpline
210
0.0
220
0.0
230
1.0
 70
     8
 71
     3
 72
     8
 73
     4
 74
     0
 42
0.000000001
 43
0.00000001
 40
0.0
 40
0.0
 40
0.0
 40
0.0
 40
1.0
 40
1.0
 40
1.0
 40
1.0
 10
12.0
 20
-0.2121911494778459
 30
0.0
 10
11.91690347323476
 20
-0.1640690053802912
 30
0.0
 10
11.83359691631359
 20
-0.1158738228879086
 30
0.0
 10
11.75013727030823
 20
-0.0676387554356675
 30
0.0
  0
SPLINE
  5
CA
330
1F
100
AcDbEntity
  8
외형선
  6
Continuous
370
    15
100
AcDbSpline
210
0.0
220
0.0
230
1.0
 70
     8
 71
     3
 72
     8
 73
     4
 74
     0
 42
0.000000001
 43
0.00000001
 40
0.0
 40
0.0
 40
0.0
 40
0.0
 40
1.0
 40
1.0
 40
1.0
 40
1.0
 10
12.0
 20
-3.577976102092054
 30
0.0
 10
11.91690347323478
 20
-3.546184764210643
 30
0.0
 10
11.83359691631361
 20
-3.513817514879061
 30
0.0
 10
11.75013727030824
 20
-3.480894321343543
 30
0.0
  0
SPLINE
  5
CB
330
1F
100
AcDbEntity
  8
외형선
  6
Continuous
370
    15
100
AcDbSpline
210
0.0
220
0.0
230
1.0
 70
     8
 71
     3
 72
     8
 73
     4
 74
     0
 42
0.000000001
 43
0.00000001
 40
0.0
 40
0.0
 40
0.0
 40
0.0
 40
1.0
 40
1.0
 40
1.0
 40
1.0
 10
12.0
 20
-4.226445787349801
 30
0.0
 10
11.91690347323476
 20
-4.204243372795745
 30
0.0
 10
11.83359691631359
 20
-4.181373578681526
 30
0.0
 10
11.75013727030823
 20
-4.157849377193151
 30
0.0
  0
LINE
  5
CC
330
1F
100
AcDbEntity
  8
외형선
  6
Continuous
370
    15
100
AcDbLine
 10
11.75013727030823
 20
-4.762500000000002
 30
0.0
 11
11.75013727030823
 21
-4.157838529962558
 31
0.0
  0
SPLINE
  5
CD
330
1F
100
AcDbEntity
  8
외형선
  6
Continuous
370
    15
100
AcDbSpline
210
0.0
220
0.0
230
1.0
 70
     8
 71
     3
 72
     8
 73
     4
 74
     0
 42
0.000000001
 43
0.00000001
 40
0.0
 40
0.0
 40
0.0
 40
0.0
 40
1.0
 40
1.0
 40
1.0
 40
1.0
 10
12.0
 20
-4.511049759961461
 30
0.0
 10
11.91690347323478
 20
-4.526494852001854
 30
0.0
 10
11.83359691631361
 20
-4.541260541955829
 30
0.0
 10
11.75013727030824
 20
-4.555333611352991
 30
0.0
  0
LINE
  5
CE
330
1F
100
AcDbEntity
  8
외형선
  6
Continuous
370
    15
100
AcDbLine
 10
-37.84750000000001
 20
-0.0000000000000025
 30
0.0
 11
-37.84750000000001
 21
4.762499999999998
 31
0.0
  0
LINE
  5
CF
330
1F
100
AcDbEntity
  8
외형선
  6
Continuous
370
    15
100
AcDbLine
 10
-37.84750000000001
 20
-4.7625
 30
0.0
 11
-37.84750000000001
 21
-0.0000000000000025
 31
0.0
  0
LINE
  5
D0
330
1F
100
AcDbEntity
  8
외형선
  6
Continuous
370
    15
100
AcDbLine
 10
11.75013727030823
 20
-3.480907062483124
 30
0.0
 11
11.75013727030823
 21
-0.0676165138845783
 31
0.0
  0
LINE
  5
D1
330
1F
100
AcDbEntity
  8
외형선
  6
Continuous
370
    15
100
AcDbLine
 10
-38.8
 20
-0.0000000000000025
 30
0.0
 11
-38.8
 21
3.810000000000001
 31
0.0
  0
LINE
  5
D2
330
1F
100
AcDbEntity
  8
외형선
  6
Continuous
370
    15
100
AcDbLine
 10
-38.8
 20
-3.810000000000006
 30
0.0
 11
-38.8
 21
-0.0000000000000025
 31
0.0
  0
SPLINE
  5
D3
330
1F
100
AcDbEntity
  8
외형선
  6
Continuous
370
    15
100
AcDbSpline
210
0.0
220
0.0
230
1.0
 70
    24
 71
     3
 72
    22
 73
    18
 74
     0
 42
0.000000001
 43
0.00000001
 40
0.0
 40
0.0
 40
0.0
 40
0.0
 40
0.1160129422272211
 40
0.1837919616401442
 40
0.2515709810530671
 40
0.3193500004659892
 40
0.3871290198789115
 40
0.4549080392918355
 40
0.5226870587047594
 40
0.590466078117682
 40
0.6582450975306046
 40
0.7260241169435278
 40
0.793803136356451
 40
0.8615821557693374
 40
0.9293611751822237
 40
0.9971401945951833
 40
1.0
 40
1.0
 40
1.0
 40
1.0
 10
12.0
 20
-3.577976102092056
 30
0.0
 10
11.99999999999998
 20
-3.455011662403106
 30
0.0
 10
11.99999999999995
 20
-3.260206883310878
 30
0.0
 10
12.00000000000001
 20
-2.915848809743164
 30
0.0
 10
12.00000000000009
 20
-2.617325580257491
 30
0.0
 10
12.00000000000001
 20
-2.301685195927899
 30
0.0
 10
12.00000000000001
 20
-1.979581162794167
 30
0.0
 10
12.00000000000001
 20
-1.659733309837417
 30
0.0
 10
12.00000000000004
 20
-1.351031146817874
 30
0.0
 10
12.00000000000003
 20
-1.062851838777023
 30
0.0
 10
11.99999999999998
 20
-0.8024251079374046
 30
0.0
 10
12.00000000000001
 20
-0.5783098416215634
 30
0.0
 10
12.00000000000003
 20
-0.3958280828582031
 30
0.0
 10
12.00000000000001
 20
-0.2599050824588884
 30
0.0
 10
12.0
 20
-0.1801896162853785
 30
0.0
 10
12.00000000000004
 20
-0.1473382713755429
 30
0.0
 10
12.00000000000001
 20
-0.1558191932474835
 30
0.0
 10
12.00000000000001
 20
-0.1561625424788697
 30
0.0
  0
SPLINE
  5
D4
330
1F
100
AcDbEntity
  8
외형선
  6
Continuous
370
    15
100
AcDbSpline
210
0.0
220
0.0
230
1.0
 70
    24
 71
     3
 72
    22
 73
    18
 74
     0
 42
0.000000001
 43
0.00000001
 40
0.0
 40
0.0
 40
0.0
 40
0.0
 40
0.026753855722598
 40
0.0987306904961779
 40
0.1707075252697569
 40
0.2426843600433361
 40
0.3146611948169171
 40
0.386638029590498
 40
0.4586148643640775
 40
0.5305916991376569
 40
0.6025685339112371
 40
0.6745453686848172
 40
0.7465222034583582
 40
0.8184990382318992
 40
0.8904758730055179
 40
0.9624527077791365
 40
1.0
 40
1.0
 40
1.0
 40
1.0
 10
12.0
 20
0.7902202046758565
 30
0.0
 10
11.99999999999999
 20
0.7884709286931153
 30
0.0
 10
12.00000000000003
 20
0.7820155142872381
 30
0.0
 10
12.00000000000009
 20
0.826344098581791
 30
0.0
 10
12.00000000000002
 20
0.9232459586835091
 30
0.0
 10
12.00000000000001
 20
1.07275146106068
 30
0.0
 10
12.0
 20
1.268133069745869
 30
0.0
 10
12.00000000000006
 20
1.503264127284538
 30
0.0
 10
12.0
 20
1.772673284523194
 30
0.0
 10
11.99999999999997
 20
2.067570723240475
 30
0.0
 10
12.0
 20
2.38045771956783
 30
0.0
 10
12.00000000000004
 20
2.70192750379907
 30
0.0
 10
12.0
 20
3.022978920404825
 30
0.0
 10
12.00000000000003
 20
3.334875490879812
 30
0.0
 10
12.00000000000001
 20
3.627542118183182
 30
0.0
 10
12.00000000000001
 20
3.853208701867745
 30
0.0
 10
12.00000000000001
 20
3.973139655420642
 30
0.0
 10
12.00000000000001
 20
4.014254637871992
 30
0.0
  0
LINE
  5
D5
330
1F
100
AcDbEntity
  8
외형선
  6
Continuous
370
    15
100
AcDbLine
 10
11.99999999999999
 20
-4.511049759961459
 30
0.0
 11
12.0
 21
-4.277598521771499
 31
0.0
  0
LINE
  5
D6
330
1F
100
AcDbEntity
  8
중심선
 62
     1
100
AcDbLine
 10
-41.80000000000002
 20
-0.0000000000000029
 30
0.0
 11
37.22499999999999
 21
0.0000000000000029
 31
0.0
  0
LINE
  5
D7
330
1F
100
AcDbEntity
  8
참조1
100
AcDbLine
 10
-2.287500000000014
 20
-0.0000000000000068
 30
0.0
 11
-2.28750000000001
 21
-40.00000000000001
 31
0.0
  0
LINE
  5
D8
330
1F
100
AcDbEntity
  8
참조1
100
AcDbLine
 10
-2.28750000000001
 20
-40.00000000000001
 30
0.0
 11
-25.38385681430868
 21
-40.0
 31
0.0
  0
INSERT
  5
DA
330
1F
100
AcDbEntity
  8
0
  6
Continuous
 62
     7
100
AcDbBlockReference
 66
     1
  2
블럭10
 10
-16.22777293212522
 20
-52.04717430164393
 30
0.0
  0
ATTRIB
  5
DB
330
DA
100
AcDbEntity
  8
FORMAT
 62
     2
100
AcDbText
 10
-26.36940894426185
 20
-49.97180738881174
 30
0.0
 40
4.233333333333333
  1
EM668024 [ 6 FLUTE ]
 41
0.75
  7
SLDTEXTSTYLE0
 11
-26.36940894426185
 21
-52.08847405547841
 31
0.0
100
AcDbAttribute
  2
AUTOATTR0
 70
     0
 74
     1
  0
SEQEND
  5
DC
330
DA
100
AcDbEntity
  8
0
  6
Continuous
 62
     7
  0
HATCH
  5
DD
330
1F
100
AcDbEntity
  8
중심선
100
AcDbHatch
 10
0.0
 20
0.0
 30
0.0
210
0.0
220
0.0
230
1.0
  2
SOLID
 70
     1
 71
     0
 91
        1
 92
        0
 93
        4
 72
     1
 10
-10.51286362774438
 20
-35.8
 11
-13.95913887158166
 21
-35.8
 72
     1
 10
-13.95913887158166
 20
-35.8
 11
-16.08736873078572
 21
-38.3363255805726
 72
     1
 10
-16.08736873078572
 20
-38.3363255805726
 11
-12.64106040183526
 21
-38.33628615127011
 72
     1
 10
-12.64106040183526
 20
-38.33628615127011
 11
-10.51286362774438
 21
-35.8
 97
        0
 75
     0
 76
     1
 98
        1
 10
-4.350000000000009
 20
-0.001074928723896
  0
HATCH
  5
DE
330
1F
100
AcDbEntity
  8
중심선
100
AcDbHatch
 10
0.0
 20
0.0
 30
0.0
210
0.0
220
0.0
230
1.0
  2
SOLID
 70
     1
 71
     0
 91
        1
 92
        0
 93
        4
 72
     1
 10
-5.500099636708405
 20
-35.8
 11
-8.946374880545687
 21
-35.8
 72
     1
 10
-8.946374880545687
 20
-35.8
 11
-13.4775128889031
 21
-41.20000000000002
 72
     1
 10
-13.4775128889031
 20
-41.20000000000002
 11
-10.03123764506582
 21
-41.20000000000002
 72
     1
 10
-10.03123764506582
 20
-41.20000000000002
 11
-5.500099636708405
 21
-35.8
 97
        0
 75
     0
 76
     1
 98
        1
 10
-4.350000000000009
 20
-0.001074928723896
  0
HATCH
  5
DF
330
1F
100
AcDbEntity
  8
중심선
100
AcDbHatch
 10
0.0
 20
0.0
 30
0.0
210
0.0
220
0.0
230
1.0
  2
SOLID
 70
     1
 71
     0
 91
        1
 92
        0
 93
        4
 72
     1
 10
-0.4873356456725366
 20
-35.79999999999998
 11
-3.933610889509652
 21
-35.80000000000003
 72
     1
 10
-3.933610889509652
 20
-35.80000000000003
 11
-10.9820477913989
 21
-44.20000000000002
 72
     1
 10
-10.9820477913989
 20
-44.20000000000002
 11
-7.535772547561619
 21
-44.20000000000002
 72
     1
 10
-7.535772547561619
 20
-44.20000000000002
 11
-0.4873356456725366
 21
-35.79999999999998
 97
        0
 75
     0
 76
     1
 98
        1
 10
-4.350000000000009
 20
-0.001074928723896
  0
HATCH
  5
E0
330
1F
100
AcDbEntity
  8
중심선
100
AcDbHatch
 10
0.0
 20
0.0
 30
0.0
210
0.0
220
0.0
230
1.0
  2
SOLID
 70
     1
 71
     0
 91
        1
 92
        0
 93
        6
 72
     3
 10
4.312554785339662
 20
-40.00000000005127
 11
3.960054785062283
 21
1.540882976769353E-10
 40
0.3939339440162628
 50
17.09539180608436
 51
320.0019657685075
 73
     0
 72
     1
 10
5.995554441040259
 20
-38.58789400463827
 11
8.300856314741296
 21
-36.65356729459035
 72
     3
 10
4.312554785286816
 20
-40.00000000000015
 11
6.600054785286829
 21
-1.278976924368180E-13
 40
0.636358354079598
 50
39.9987384933743
 51
368.4976242363725
 73
     1
 72
     1
 10
10.73788727718743
 20
-39.03999999993002
 11
2.992622092122739
 21
-39.03999999993002
 72
     1
 10
2.992622092122739
 20
-39.03999999993002
 11
2.992597047676805
 21
-40.95999999992991
 72
     1
 10
2.992597047676805
 20
-40.95999999992991
 11
7.433976817148842
 21
-40.95999999992988
 97
        0
 75
     0
 76
     1
 98
        1
 10
-4.350000000000009
 20
-0.001074928723896
  0
DIMENSION
  5
E1
330
1F
100
AcDbEntity
  8
치수문자_일반주서
100
AcDbDimension
  2
_D
 10
11.99999999999998
 20
15.27919346789349
 30
0.0
 11
53.95400000000001
 21
15.27919346789349
 31
0.0
 70
   160
  1
<>
 71
     2
 42
22.22500000000002
  3
SLDDIMSTYLE0
100
AcDbAlignedDimension
 13
34.225
 23
4.262500000000284
 33
0.0
 14
11.99999999999998
 24
4.511049759961465
 34
0.0
 50
0.0000000000000458
100
AcDbRotatedDimension
1001
PE_URL
1000

1001
ACAD
1000
DSTYLE
1002
{
1070
   171
1070
     6
1070
   273
1070
     7
1002
}
  0
DIMENSION
  5
F7
330
1F
100
AcDbEntity
  8
치수문자_일반주서
100
AcDbDimension
  2
_D_1
 10
-38.79999999999999
 20
27.77512456925258
 30
0.0
 11
-2.287500000000007
 21
27.77512456925258
 31
0.0
 70
   160
  1
<>
 71
     2
 42
73.025
  3
SLDDIMSTYLE0
100
AcDbAlignedDimension
 13
34.225
 23
4.262500000000284
 33
0.0
 14
-38.8
 24
3.810000000000001
 34
0.0
 50
0.0000000000000056
100
AcDbRotatedDimension
1001
PE_URL
1000

1001
ACAD
1000
DSTYLE
1002
{
1070
   171
1070
     6
1070
   273
1070
     7
1002
}
  0
DIMENSION
  5
10B
330
1F
100
AcDbEntity
  8
치수문자_일반주서
100
AcDbDimension
  2
_D_2
 10
-51.48249999999999
 20
-4.762500000000058
 30
0.0
 11
-51.48250000000002
 21
-0.0000000000000016
 31
0.0
 70
   160
  1
%%c<>
 71
     2
 42
9.525000000000006
 52
-270.0
  3
SLDDIMSTYLE0
100
AcDbAlignedDimension
 13
-37.84750000000001
 23
4.7625
 33
0.0
 14
-37.84750000000001
 24
-4.762500000000006
 34
0.0
 50
90.0000000000002
100
AcDbRotatedDimension
1001
ACAD
1000
DSTYLE
1002
{
1070
   171
1070
     6
1070
   273
1070
     7
1002
}
1001
ACAD_DSTYLE_DIMFLIPARROW_SYMBOL
1070
   385
1070
     0
1001
ACAD_DSTYLE_DIMFLIPARROW_WHICH_SYMBOL
1070
   386
1070
     3
  0
DIMENSION
  5
11F
330
1F
100
AcDbEntity
  8
치수문자_일반주서
100
AcDbDimension
  2
_D_3
 10
73.62711649126452
 20
-4.762499999999768
 30
0.0
 11
73.62711649126443
 21
24.49150000000043
 31
0.0
 70
   160
  1
%%c<>
 71
     2
 42
9.525000000000203
 52
-270.0
  3
SLDDIMSTYLE0
100
AcDbAlignedDimension
 13
33.725
 23
4.762500000000284
 33
0.0
 14
34.22499999999999
 24
-4.762499999999918
 34
0.0
 50
90.0000000000002
100
AcDbRotatedDimension
1001
PE_URL
1000

1001
ACAD
1000
DSTYLE
1002
{
1070
   171
1070
     6
1070
   273
1070
     7
1002
}
  0
LINE
  5
132
330
1F
100
AcDbEntity
  8
참조1
100
AcDbLine
 10
72.58848381534558
 20
7.44
 30
0.0
 11
72.58848381534558
 21
-7.440000000000005
 31
0.0
  0
LINE
  5
133
330
1F
100
AcDbEntity
  8
참조1
100
AcDbLine
 10
85.28848381534559
 20
5.44
 30
0.0
 11
72.58848381534558
 21
5.44
 31
0.0
  0
SOLID
  5
134
330
1F
100
AcDbEntity
  8
참조1
100
AcDbTrace
 10
72.58848381534558
 20
5.44
 30
0.0
 11
78.93848381534558
 21
4.423999999999999
 31
0.0
 12
78.93848381534558
 22
6.456
 32
0.0
 13
78.93848381534558
 23
6.456
 33
0.0
  0
LINE
  5
135
330
1F
100
AcDbEntity
  8
참조1
100
AcDbLine
 10
85.28848381534559
 20
-5.440000000000005
 30
0.0
 11
72.58848381534558
 21
-5.440000000000005
 31
0.0
  0
SOLID
  5
136
330
1F
100
AcDbEntity
  8
참조1
100
AcDbTrace
 10
72.58848381534558
 20
-5.440000000000005
 30
0.0
 11
78.93848381534558
 21
-6.456000000000005
 31
0.0
 12
78.93848381534558
 22
-4.424000000000005
 32
0.0
 13
78.93848381534558
 23
-4.424000000000005
 33
0.0
  0
MTEXT
  5
137
330
1F
100
AcDbEntity
  8
참조1
100
AcDbMText
 10
81.98597390781586
 20
10.98821664464993
 30
0.0
 40
3.5
 41
0.0
 71
     1
 72
     1
  1
A
  7
SLDTEXTSTYLE0
 73
     1
 44
1.0
  0
MTEXT
  5
138
330
1F
100
AcDbEntity
  8
참조1
100
AcDbMText
 10
81.98597390781586
 20
0.1082166446499299
 30
0.0
 40
3.5
 41
0.0
 71
     1
 72
     1
  1
A
  7
SLDTEXTSTYLE0
 73
     1
 44
1.0
  0
INSERT
  5
13F
330
1F
100
AcDbEntity
  8
해칭선
100
AcDbBlockReference
  2
SW_DOWELSYMBOL_0
 10
0.0
 20
0.0
 30
0.0
  0
MTEXT
  5
18F
102
{ACAD_REACTORS
330
190
102
}
330
1F
100
AcDbEntity
  8
치수문자_일반주서
100
AcDbMText
 10
45.33095351621378
 20
-21.9336837378206
 30
0.0
 40
3.5
 41
0.0
 71
     7
 72
     1
  1
{R0.50[.020"]}
 73
     1
 44
1.0
1001
PE_URL
1000

1001
ACAD
1000
ACAD_MTEXT_DEFINED_HEIGHT_BEGIN
1070
    46
1040
3.5
1000
ACAD_MTEXT_DEFINED_HEIGHT_END
  0
LEADER
  5
190
102
{ACAD_XDICTIONARY
360
191
102
}
330
1F
100
AcDbEntity
  8
치수문자_일반주서
100
AcDbLeader
  3
ISO-25
 73
     0
 74
     0
 75
     1
 40
3.5
 41
30.33333333333334
 76
     3
 10
34.14990531728655
 20
-4.691128469133114
 30
0.0
 10
40.50495351621378
 20
-20.1836837378206
 30
0.0
 10
43.80695351621378
 20
-20.1836837378206
 30
0.0
340
18F
213
0.0
223
1.75
233
0.0
1001
ACAD
1000
DSTYLE
1002
{
1070
    77
1070
     0
1070
   179
1070
     2
1070
   143
1040
0.0393700787401575
1070
    41
1040
3.302
1070
    44
1040
1.0
1070
    42
1040
1.0
1070
   147
1040
1.524
1070
    73
1070
     1
1070
    74
1070
     1
1070
   140
1040
3.5
1070
   284
1070
     0
1070
    78
1070
     0
1002
}
1001
PE_URL
1000

  0
ARC
  5
1CD
330
1F
100
AcDbEntity
  8
외형선
  6
Continuous
 62
     1
370
    15
100
AcDbCircle
 10
33.725
 20
4.262500000000284
 30
0.0
 40
0.5
100
AcDbArc
 50
0.0
 51
91.77750852633847
1001
PE_URL
1000

  0
ARC
  5
1CE
102
{ACAD_REACTORS
330
1D2
102
}
330
1F
100
AcDbEntity
  8
외형선
  6
Continuous
 62
     1
370
    15
100
AcDbCircle
 10
33.7249999999999
 20
-4.262500000000197
 30
0.0
 40
0.5
100
AcDbArc
 50
276.3834594363403
 51
359.9999999999987
1001
PE_URL
1000

  0
ENDSEC
  0
SECTION
  2
OBJECTS
  0
DICTIONARY
  5
C
330
0
100
AcDbDictionary
281
     1
  3
ACAD_DETAILVIEWSTYLE
350
1A2
  3
ACAD_GROUP
350
D
  3
ACAD_LAYOUT
350
1A
  3
ACAD_MLINESTYLE
350
17
  3
ACAD_PLOTSETTINGS
350
19
  3
ACAD_PLOTSTYLENAME
350
E
  3
ACAD_SCALELIST
350
47
  3
ACAD_SECTIONVIEWSTYLE
350
1A3
  3
AcDbVariableDictionary
350
19D
  3
APPDATA
350
161
  3
DWGPROPS
350
1DD
  0
DICTIONARY
  5
191
330
190
100
AcDbDictionary
280
     1
281
     1
  0
DICTIONARY
  5
1A2
102
{ACAD_REACTORS
330
C
102
}
330
C
100
AcDbDictionary
281
     1
  0
DICTIONARY
  5
D
102
{ACAD_REACTORS
330
C
102
}
330
C
100
AcDbDictionary
281
     1
  0
DICTIONARY
  5
1A
102
{ACAD_REACTORS
330
C
102
}
330
C
100
AcDbDictionary
281
     1
  3
Layout1
350
1E
  3
Layout2
350
26
  3
Model
350
22
  0
DICTIONARY
  5
17
102
{ACAD_REACTORS
330
C
102
}
330
C
100
AcDbDictionary
281
     1
  3
Standard
350
18
  0
DICTIONARY
  5
19
102
{ACAD_REACTORS
330
C
102
}
330
C
100
AcDbDictionary
281
     1
  0
ACDBDICTIONARYWDFLT
  5
E
102
{ACAD_REACTORS
330
C
102
}
330
C
100
AcDbDictionary
281
     1
  3
Normal
350
F
100
AcDbDictionaryWithDefault
340
F
  0
DICTIONARY
  5
47
102
{ACAD_REACTORS
330
C
102
}
330
C
100
AcDbDictionary
281
     1
  3
A0
350
48
  3
A1
350
49
  3
A2
350
4A
  3
A3
350
4B
  3
A4
350
4C
  3
A5
350
4D
  3
A6
350
4E
  3
A7
350
4F
  3
A8
350
50
  3
A9
350
51
  3
B0
350
52
  3
B1
350
53
  3
B2
350
54
  3
B3
350
55
  3
B4
350
56
  3
B5
350
57
  3
B6
350
58
  3
B7
350
59
  3
B8
350
5A
  3
B9
350
5B
  3
C0
350
5C
  3
C1
350
5D
  3
C2
350
5E
  3
C3
350
5F
  3
C4
350
60
  3
C5
350
61
  3
C6
350
62
  3
C7
350
63
  3
C8
350
64
  3
C9
350
65
  3
D0
350
66
  3
D1
350
67
  3
D2
350
68
  0
DICTIONARY
  5
1A3
102
{ACAD_REACTORS
330
C
102
}
330
C
100
AcDbDictionary
281
     1
  0
DICTIONARY
  5
19D
102
{ACAD_REACTORS
330
C
102
}
330
C
100
AcDbDictionary
281
     1
  0
DICTIONARY
  5
161
102
{ACAD_REACTORS
330
C
102
}
330
C
100
AcDbDictionary
281
     1
  0
XRECORD
  5
1DD
102
{ACAD_REACTORS
330
C
102
}
330
C
100
AcDbXrecord
280
     1
  1
DWGPROPS COOKIE
  2

  3

  4

  6

  7

  8
H
  9

300
=
301
=
302
=
303
=
304
=
305
=
306
=
307
=
308
=
309
=
 40
0.0
 41
2458295.114430127
 42
2458301.254496609
  1

 90
        0
  0
LAYOUT
  5
1E
102
{ACAD_REACTORS
330
1A
102
}
330
1A
100
AcDbPlotSettings
  1

  2
none_device
  4

  6

 40
0.0
 41
0.0
 42
0.0
 43
0.0
 44
0.0
 45
0.0
 46
0.0
 47
0.0
 48
0.0
 49
0.0
140
0.0
141
0.0
142
1.0
143
1.0
 70
   688
 72
     1
 73
     0
 74
     5
  7

 75
    16
147
1.0
148
0.0
149
0.0
100
AcDbLayout
  1
Layout1
 70
     1
 71
     1
 10
0.0
 20
0.0
 11
420.0
 21
297.0
 12
0.0
 22
0.0
 32
0.0
 14
1.000000000000000E+20
 24
1.000000000000000E+20
 34
1.000000000000000E+20
 15
-1.000000000000000E+20
 25
-1.000000000000000E+20
 35
-1.000000000000000E+20
146
0.0
 13
0.0
 23
0.0
 33
0.0
 16
1.0
 26
0.0
 36
0.0
 17
0.0
 27
1.0
 37
0.0
 76
     0
330
1B
  0
LAYOUT
  5
26
102
{ACAD_REACTORS
330
1A
102
}
330
1A
100
AcDbPlotSettings
  1

  2
none_device
  4

  6

 40
0.0
 41
0.0
 42
0.0
 43
0.0
 44
0.0
 45
0.0
 46
0.0
 47
0.0
 48
0.0
 49
0.0
140
0.0
141
0.0
142
1.0
143
1.0
 70
   688
 72
     1
 73
     0
 74
     5
  7

 75
    16
147
1.0
148
0.0
149
0.0
100
AcDbLayout
  1
Layout2
 70
     1
 71
     2
 10
0.0
 20
0.0
 11
0.0
 21
0.0
 12
0.0
 22
0.0
 32
0.0
 14
0.0
 24
0.0
 34
0.0
 15
0.0
 25
0.0
 35
0.0
146
0.0
 13
0.0
 23
0.0
 33
0.0
 16
1.0
 26
0.0
 36
0.0
 17
0.0
 27
1.0
 37
0.0
 76
     0
330
23
  0
LAYOUT
  5
22
102
{ACAD_REACTORS
330
1A
102
}
330
1A
100
AcDbPlotSettings
  1

  2
none_device
  4
ANSI_A_(11.00_x_8.50_Inches)
  6

 40
6.35
 41
19.05
 42
6.35000508
 43
19.05000254
 44
279.4
 45
215.9
 46
103.6271574961274
 47
100.2833767655457
 48
0.0
 49
0.0
140
0.0
141
0.0
142
0.0737985546853514
143
1.0
 70
  1696
 72
     0
 73
     0
 74
     0
  7

 75
     0
147
0.0235690232323232
148
0.0
149
0.0
100
AcDbLayout
  1
Model
 70
     1
 71
     0
 10
0.0
 20
0.0
 11
420.0
 21
297.0
 12
0.0
 22
0.0
 32
0.0
 14
-55.85750000000006
 24
-49.97180738881175
 34
0.0
 15
85.28848381534559
 25
37.61650000000017
 35
0.0
146
0.0
 13
0.0
 23
0.0
 33
0.0
 16
1.0
 26
0.0
 36
0.0
 17
0.0
 27
1.0
 37
0.0
 76
     0
330
1F
331
29
  0
MLINESTYLE
  5
18
102
{ACAD_REACTORS
330
17
102
}
330
17
100
AcDbMlineStyle
  2
Standard
 70
     0
  3

 62
   256
 51
90.0
 52
90.0
 71
     2
 49
0.5
 62
   256
  6
BYLAYER
 49
-0.5
 62
   256
  6
BYLAYER
  0
ACDBPLACEHOLDER
  5
F
102
{ACAD_REACTORS
330
E
102
}
330
E
  0
SCALE
  5
48
102
{ACAD_REACTORS
330
47
102
}
330
47
100
AcDbScale
 70
     0
300
1:1
140
1.0
141
1.0
290
     1
  0
SCALE
  5
49
102
{ACAD_REACTORS
330
47
102
}
330
47
100
AcDbScale
 70
     0
300
1:2
140
1.0
141
2.0
290
     0
  0
SCALE
  5
4A
102
{ACAD_REACTORS
330
47
102
}
330
47
100
AcDbScale
 70
     0
300
1:4
140
1.0
141
4.0
290
     0
  0
SCALE
  5
4B
102
{ACAD_REACTORS
330
47
102
}
330
47
100
AcDbScale
 70
     0
300
1:5
140
1.0
141
5.0
290
     0
  0
SCALE
  5
4C
102
{ACAD_REACTORS
330
47
102
}
330
47
100
AcDbScale
 70
     0
300
1:8
140
1.0
141
8.0
290
     0
  0
SCALE
  5
4D
102
{ACAD_REACTORS
330
47
102
}
330
47
100
AcDbScale
 70
     0
300
1:10
140
1.0
141
10.0
290
     0
  0
SCALE
  5
4E
102
{ACAD_REACTORS
330
47
102
}
330
47
100
AcDbScale
 70
     0
300
1:16
140
1.0
141
16.0
290
     0
  0
SCALE
  5
4F
102
{ACAD_REACTORS
330
47
102
}
330
47
100
AcDbScale
 70
     0
300
1:20
140
1.0
141
20.0
290
     0
  0
SCALE
  5
50
102
{ACAD_REACTORS
330
47
102
}
330
47
100
AcDbScale
 70
     0
300
1:30
140
1.0
141
30.0
290
     0
  0
SCALE
  5
51
102
{ACAD_REACTORS
330
47
102
}
330
47
100
AcDbScale
 70
     0
300
1:40
140
1.0
141
40.0
290
     0
  0
SCALE
  5
52
102
{ACAD_REACTORS
330
47
102
}
330
47
100
AcDbScale
 70
     0
300
1:50
140
1.0
141
50.0
290
     0
  0
SCALE
  5
53
102
{ACAD_REACTORS
330
47
102
}
330
47
100
AcDbScale
 70
     0
300
1:100
140
1.0
141
100.0
290
     0
  0
SCALE
  5
54
102
{ACAD_REACTORS
330
47
102
}
330
47
100
AcDbScale
 70
     0
300
2:1
140
2.0
141
1.0
290
     0
  0
SCALE
  5
55
102
{ACAD_REACTORS
330
47
102
}
330
47
100
AcDbScale
 70
     0
300
4:1
140
4.0
141
1.0
290
     0
  0
SCALE
  5
56
102
{ACAD_REACTORS
330
47
102
}
330
47
100
AcDbScale
 70
     0
300
8:1
140
8.0
141
1.0
290
     0
  0
SCALE
  5
57
102
{ACAD_REACTORS
330
47
102
}
330
47
100
AcDbScale
 70
     0
300
10:1
140
10.0
141
1.0
290
     0
  0
SCALE
  5
58
102
{ACAD_REACTORS
330
47
102
}
330
47
100
AcDbScale
 70
     0
300
100:1
140
100.0
141
1.0
290
     0
  0
SCALE
  5
59
102
{ACAD_REACTORS
330
47
102
}
330
47
100
AcDbScale
 70
     0
300
1/128" = 1'-0"
140
0.0078125
141
12.0
290
     0
  0
SCALE
  5
5A
102
{ACAD_REACTORS
330
47
102
}
330
47
100
AcDbScale
 70
     0
300
1/64" = 1'-0"
140
0.015625
141
12.0
290
     0
  0
SCALE
  5
5B
102
{ACAD_REACTORS
330
47
102
}
330
47
100
AcDbScale
 70
     0
300
1/32" = 1'-0"
140
0.03125
141
12.0
290
     0
  0
SCALE
  5
5C
102
{ACAD_REACTORS
330
47
102
}
330
47
100
AcDbScale
 70
     0
300
1/16" = 1'-0"
140
0.0625
141
12.0
290
     0
  0
SCALE
  5
5D
102
{ACAD_REACTORS
330
47
102
}
330
47
100
AcDbScale
 70
     0
300
3/32" = 1'-0"
140
0.09375
141
12.0
290
     0
  0
SCALE
  5
5E
102
{ACAD_REACTORS
330
47
102
}
330
47
100
AcDbScale
 70
     0
300
1/8" = 1'-0"
140
0.125
141
12.0
290
     0
  0
SCALE
  5
5F
102
{ACAD_REACTORS
330
47
102
}
330
47
100
AcDbScale
 70
     0
300
3/16" = 1'-0"
140
0.1875
141
12.0
290
     0
  0
SCALE
  5
60
102
{ACAD_REACTORS
330
47
102
}
330
47
100
AcDbScale
 70
     0
300
1/4" = 1'-0"
140
0.25
141
12.0
290
     0
  0
SCALE
  5
61
102
{ACAD_REACTORS
330
47
102
}
330
47
100
AcDbScale
 70
     0
300
3/8" = 1'-0"
140
0.375
141
12.0
290
     0
  0
SCALE
  5
62
102
{ACAD_REACTORS
330
47
102
}
330
47
100
AcDbScale
 70
     0
300
1/2" = 1'-0"
140
0.5
141
12.0
290
     0
  0
SCALE
  5
63
102
{ACAD_REACTORS
330
47
102
}
330
47
100
AcDbScale
 70
     0
300
3/4" = 1'-0"
140
0.75
141
12.0
290
     0
  0
SCALE
  5
64
102
{ACAD_REACTORS
330
47
102
}
330
47
100
AcDbScale
 70
     0
300
1" = 1'-0"
140
1.0
141
12.0
290
     0
  0
SCALE
  5
65
102
{ACAD_REACTORS
330
47
102
}
330
47
100
AcDbScale
 70
     0
300
1-1/2" = 1'-0"
140
1.5
141
12.0
290
     0
  0
SCALE
  5
66
102
{ACAD_REACTORS
330
47
102
}
330
47
100
AcDbScale
 70
     0
300
3" = 1'-0"
140
3.0
141
12.0
290
     0
  0
SCALE
  5
67
102
{ACAD_REACTORS
330
47
102
}
330
47
100
AcDbScale
 70
     0
300
6" = 1'-0"
140
6.0
141
12.0
290
     0
  0
SCALE
  5
68
102
{ACAD_REACTORS
330
47
102
}
330
47
100
AcDbScale
 70
     0
300
1'-0" = 1'-0"
140
12.0
141
12.0
290
     0
  0
ENDSEC
  0
EOF
