  0
SECTION
  2
HEADER
  9
$ACADVER
  1
AC1015
  9
$ACADMAINTVER
 70
     6
  9
$DWGCODEPAGE
  3
ANSI_949
  9
$INSBASE
 10
0.0
 20
0.0
 30
0.0
  9
$EXTMIN
 10
-61.89000000000007
 20
-49.97180738881175
 30
0.0
  9
$EXTMAX
 10
79.1043391397055
 20
39.64150000000012
 30
0.0
  9
$LIMMIN
 10
0.0
 20
0.0
  9
$LIMMAX
 10
420.0
 20
297.0
  9
$ORTHOMODE
 70
     1
  9
$REGENMODE
 70
     1
  9
$FILLMODE
 70
     1
  9
$QTEXTMODE
 70
     0
  9
$MIRRTEXT
 70
     1
  9
$LTSCALE
 40
1.0
  9
$ATTMODE
 70
     1
  9
$TEXTSIZE
 40
3.5
  9
$TRACEWID
 40
1.0
  9
$TEXTSTYLE
  7
Standard
  9
$CLAYER
  8
0
  9
$CELTYPE
  6
ByLayer
  9
$CECOLOR
 62
   256
  9
$CELTSCALE
 40
1.0
  9
$DISPSILH
 70
     0
  9
$DIMSCALE
 40
1.0
  9
$DIMASZ
 40
3.302
  9
$DIMEXO
 40
1.0
  9
$DIMDLI
 40
3.75
  9
$DIMRND
 40
0.0
  9
$DIMDLE
 40
0.0
  9
$DIMEXE
 40
1.0
  9
$DIMTP
 40
0.0
  9
$DIMTM
 40
0.0
  9
$DIMTXT
 40
3.5
  9
$DIMCEN
 40
2.5
  9
$DIMTSZ
 40
0.0
  9
$DIMTOL
 70
     0
  9
$DIMLIM
 70
     0
  9
$DIMTIH
 70
     1
  9
$DIMTOH
 70
     1
  9
$DIMSE1
 70
     0
  9
$DIMSE2
 70
     0
  9
$DIMTAD
 70
     1
  9
$DIMZIN
 70
     0
  9
$DIMBLK
  1

  9
$DIMASO
 70
     1
  9
$DIMSHO
 70
     1
  9
$DIMPOST
  1

  9
$DIMAPOST
  1

  9
$DIMALT
 70
     0
  9
$DIMALTD
 70
     3
  9
$DIMALTF
 40
0.0393700787401575
  9
$DIMLFAC
 40
1.0
  9
$DIMTOFL
 70
     1
  9
$DIMTVP
 40
0.0
  9
$DIMTIX
 70
     0
  9
$DIMSOXD
 70
     0
  9
$DIMSAH
 70
     0
  9
$DIMBLK1
  1

  9
$DIMBLK2
  1

  9
$DIMSTYLE
  2
ISO-25
  9
$DIMCLRD
 70
     0
  9
$DIMCLRE
 70
     0
  9
$DIMCLRT
 70
     0
  9
$DIMTFAC
 40
1.0
  9
$DIMGAP
 40
1.524
  9
$DIMJUST
 70
     0
  9
$DIMSD1
 70
     0
  9
$DIMSD2
 70
     0
  9
$DIMTOLJ
 70
     0
  9
$DIMTZIN
 70
     0
  9
$DIMALTZ
 70
     0
  9
$DIMALTTZ
 70
     0
  9
$DIMUPT
 70
     0
  9
$DIMDEC
 70
     2
  9
$DIMTDEC
 70
     2
  9
$DIMALTU
 70
     2
  9
$DIMALTTD
 70
     3
  9
$DIMTXSTY
  7
Standard
  9
$DIMAUNIT
 70
     0
  9
$DIMADEC
 70
     2
  9
$DIMALTRND
 40
0.0
  9
$DIMAZIN
 70
     0
  9
$DIMDSEP
 70
    44
  9
$DIMATFIT
 70
     3
  9
$DIMFRAC
 70
     0
  9
$DIMLDRBLK
  1

  9
$DIMLUNIT
 70
     2
  9
$DIMLWD
 70
    -2
  9
$DIMLWE
 70
    -2
  9
$DIMTMOVE
 70
     0
  9
$LUNITS
 70
     2
  9
$LUPREC
 70
     2
  9
$SKETCHINC
 40
1.0
  9
$FILLETRAD
 40
10.0
  9
$AUNITS
 70
     0
  9
$AUPREC
 70
     2
  9
$MENU
  1
.
  9
$ELEVATION
 40
0.0
  9
$PELEVATION
 40
0.0
  9
$THICKNESS
 40
0.0
  9
$LIMCHECK
 70
     0
  9
$CHAMFERA
 40
0.0
  9
$CHAMFERB
 40
0.0
  9
$CHAMFERC
 40
0.0
  9
$CHAMFERD
 40
0.0
  9
$SKPOLY
 70
     0
  9
$TDCREATE
 40
2458295.489619364
  9
$TDUCREATE
 40
2458295.114619364
  9
$TDUPDATE
 40
2458301.958687535
  9
$TDUUPDATE
 40
2458301.583687535
  9
$TDINDWG
 40
0.3202893634
  9
$TDUSRTIMER
 40
0.329189838
  9
$USRTIMER
 70
     1
  9
$ANGBASE
 50
0.0
  9
$ANGDIR
 70
     0
  9
$PDMODE
 70
     0
  9
$PDSIZE
 40
-1.0
  9
$PLINEWID
 40
0.0
  9
$SPLFRAME
 70
     0
  9
$SPLINETYPE
 70
     6
  9
$SPLINESEGS
 70
     8
  9
$HANDSEED
  5
1A1
  9
$SURFTAB1
 70
     6
  9
$SURFTAB2
 70
     6
  9
$SURFTYPE
 70
     6
  9
$SURFU
 70
     6
  9
$SURFV
 70
     6
  9
$UCSBASE
  2

  9
$UCSNAME
  2

  9
$UCSORG
 10
0.0
 20
0.0
 30
0.0
  9
$UCSXDIR
 10
1.0
 20
0.0
 30
0.0
  9
$UCSYDIR
 10
0.0
 20
1.0
 30
0.0
  9
$UCSORTHOREF
  2

  9
$UCSORTHOVIEW
 70
     0
  9
$UCSORGTOP
 10
0.0
 20
0.0
 30
0.0
  9
$UCSORGBOTTOM
 10
0.0
 20
0.0
 30
0.0
  9
$UCSORGLEFT
 10
0.0
 20
0.0
 30
0.0
  9
$UCSORGRIGHT
 10
0.0
 20
0.0
 30
0.0
  9
$UCSORGFRONT
 10
0.0
 20
0.0
 30
0.0
  9
$UCSORGBACK
 10
0.0
 20
0.0
 30
0.0
  9
$PUCSBASE
  2

  9
$PUCSNAME
  2

  9
$PUCSORG
 10
0.0
 20
0.0
 30
0.0
  9
$PUCSXDIR
 10
1.0
 20
0.0
 30
0.0
  9
$PUCSYDIR
 10
0.0
 20
1.0
 30
0.0
  9
$PUCSORTHOREF
  2

  9
$PUCSORTHOVIEW
 70
     0
  9
$PUCSORGTOP
 10
0.0
 20
0.0
 30
0.0
  9
$PUCSORGBOTTOM
 10
0.0
 20
0.0
 30
0.0
  9
$PUCSORGLEFT
 10
0.0
 20
0.0
 30
0.0
  9
$PUCSORGRIGHT
 10
0.0
 20
0.0
 30
0.0
  9
$PUCSORGFRONT
 10
0.0
 20
0.0
 30
0.0
  9
$PUCSORGBACK
 10
0.0
 20
0.0
 30
0.0
  9
$USERI1
 70
     0
  9
$USERI2
 70
     0
  9
$USERI3
 70
     0
  9
$USERI4
 70
     0
  9
$USERI5
 70
     0
  9
$USERR1
 40
0.0
  9
$USERR2
 40
0.0
  9
$USERR3
 40
0.0
  9
$USERR4
 40
0.0
  9
$USERR5
 40
0.0
  9
$WORLDVIEW
 70
     1
  9
$SHADEDGE
 70
     3
  9
$SHADEDIF
 70
    70
  9
$TILEMODE
 70
     1
  9
$MAXACTVP
 70
    64
  9
$PINSBASE
 10
0.0
 20
0.0
 30
0.0
  9
$PLIMCHECK
 70
     0
  9
$PEXTMIN
 10
1.000000000000000E+20
 20
1.000000000000000E+20
 30
1.000000000000000E+20
  9
$PEXTMAX
 10
-1.000000000000000E+20
 20
-1.000000000000000E+20
 30
-1.000000000000000E+20
  9
$PLIMMIN
 10
0.0
 20
0.0
  9
$PLIMMAX
 10
0.0
 20
0.0
  9
$UNITMODE
 70
     0
  9
$VISRETAIN
 70
     1
  9
$PLINEGEN
 70
     0
  9
$PSLTSCALE
 70
     1
  9
$TREEDEPTH
 70
  3020
  9
$CMLSTYLE
  2
Standard
  9
$CMLJUST
 70
     0
  9
$CMLSCALE
 40
20.0
  9
$PROXYGRAPHICS
 70
     1
  9
$MEASUREMENT
 70
     1
  9
$CELWEIGHT
370
    -1
  9
$ENDCAPS
280
     0
  9
$JOINSTYLE
280
     0
  9
$LWDISPLAY
290
     1
  9
$INSUNITS
 70
     4
  9
$HYPERLINKBASE
  1

  9
$STYLESHEET
  1

  9
$XEDIT
290
     1
  9
$CEPSNTYPE
380
     0
  9
$PSTYLEMODE
290
     1
  9
$FINGERPRINTGUID
  2
{4A57EA86-D488-490A-A61F-D7843F94D34F}
  9
$VERSIONGUID
  2
{FAEB1C32-E019-11D5-929B-00C0DF256EC4}
  9
$EXTNAMES
290
     1
  9
$PSVPSCALE
 40
0.0
  9
$OLESTARTUP
290
     0
  0
ENDSEC
  0
SECTION
  2
CLASSES
  0
CLASS
  1
ACDBDICTIONARYWDFLT
  2
AcDbDictionaryWithDefault
  3
ObjectDBX Classes
 90
        0
280
     0
281
     0
  0
CLASS
  1
VISUALSTYLE
  2
AcDbVisualStyle
  3
ObjectDBX Classes
 90
     4095
280
     0
281
     0
  0
CLASS
  1
MATERIAL
  2
AcDbMaterial
  3
ObjectDBX Classes
 90
     1153
280
     0
281
     0
  0
CLASS
  1
SCALE
  2
AcDbScale
  3
ObjectDBX Classes
 90
     1153
280
     0
281
     0
  0
CLASS
  1
SUN
  2
AcDbSun
  3
SCENEOE
 90
     1153
280
     0
281
     0
  0
CLASS
  1
ACDBPLACEHOLDER
  2
AcDbPlaceHolder
  3
ObjectDBX Classes
 90
        0
280
     0
281
     0
  0
CLASS
  1
LAYOUT
  2
AcDbLayout
  3
ObjectDBX Classes
 90
        0
280
     0
281
     0
  0
CLASS
  1
TABLESTYLE
  2
AcDbTableStyle
  3
ObjectDBX Classes
 90
     4095
280
     0
281
     0
  0
CLASS
  1
MLEADERSTYLE
  2
AcDbMLeaderStyle
  3
ACDB_MLEADERSTYLE_CLASS
 90
     4095
280
     0
281
     0
  0
CLASS
  1
DICTIONARYVAR
  2
AcDbDictionaryVar
  3
ObjectDBX Classes
 90
        0
280
     0
281
     0
  0
ENDSEC
  0
SECTION
  2
TABLES
  0
TABLE
  2
VPORT
  5
8
330
0
100
AcDbSymbolTable
 70
     1
  0
VPORT
  5
29
330
8
100
AcDbSymbolTableRecord
100
AcDbViewportTableRecord
  2
*Active
 70
     0
 10
0.0
 20
0.0
 11
1.0
 21
1.0
 12
8.607169569852715
 22
-5.165153694405809
 13
0.0
 23
0.0
 14
10.0
 24
10.0
 15
10.0
 25
10.0
 16
0.0
 26
0.0
 36
1.0
 17
0.0
 27
0.0
 37
0.0
 40
91.40557353658812
 41
2.400311526479751
 42
50.0
 43
0.0
 44
0.0
 50
0.0
 51
0.0
 71
    16
 72
  2000
 73
     1
 74
     3
 75
     0
 76
     0
 77
     0
 78
     0
281
     0
 65
     1
110
0.0
120
0.0
130
0.0
111
1.0
121
0.0
131
0.0
112
0.0
122
1.0
132
0.0
 79
     0
146
0.0
  0
ENDTAB
  0
TABLE
  2
LTYPE
  5
5
330
0
100
AcDbSymbolTable
 70
     6
  0
LTYPE
  5
14
330
5
100
AcDbSymbolTableRecord
100
AcDbLinetypeTableRecord
  2
ByBlock
 70
     0
  3

 72
    65
 73
     0
 40
0.0
  0
LTYPE
  5
15
330
5
100
AcDbSymbolTableRecord
100
AcDbLinetypeTableRecord
  2
ByLayer
 70
     0
  3

 72
    65
 73
     0
 40
0.0
  0
LTYPE
  5
16
330
5
100
AcDbSymbolTableRecord
100
AcDbLinetypeTableRecord
  2
Continuous
 70
     0
  3
Solid line
 72
    65
 73
     0
 40
0.0
  0
LTYPE
  5
6A
330
5
100
AcDbSymbolTableRecord
100
AcDbLinetypeTableRecord
  2
HIDDEN
 70
     0
  3
Hidden __ __ __ __ __ __ __ __ __ __ __ __ __ __
 72
    65
 73
     2
 40
1.905
 49
1.27
 74
     0
 49
-0.635
 74
     0
  0
LTYPE
  5
6B
330
5
100
AcDbSymbolTableRecord
100
AcDbLinetypeTableRecord
  2
PHANTOM
 70
     0
  3
Phantom ______  __  __  ______  __  __  ______
 72
    65
 73
     6
 40
12.7
 49
6.35
 74
     0
 49
-1.27
 74
     0
 49
1.27
 74
     0
 49
-1.27
 74
     0
 49
1.27
 74
     0
 49
-1.27
 74
     0
  0
LTYPE
  5
6C
330
5
100
AcDbSymbolTableRecord
100
AcDbLinetypeTableRecord
  2
CENTER
 70
     0
  3
Center ____ _ ____ _ ____ _ ____ _ ____ _ ____
 72
    65
 73
     4
 40
10.16
 49
6.35
 74
     0
 49
-1.27
 74
     0
 49
1.27
 74
     0
 49
-1.27
 74
     0
  0
LTYPE
  5
6D
330
5
100
AcDbSymbolTableRecord
100
AcDbLinetypeTableRecord
  2
CENTERX2
 70
     0
  3
Center (2x) ________  __  ________  __  _____
 72
    65
 73
     4
 40
20.32
 49
12.7
 74
     0
 49
-2.54
 74
     0
 49
2.54
 74
     0
 49
-2.54
 74
     0
  0
LTYPE
  5
6E
330
5
100
AcDbSymbolTableRecord
100
AcDbLinetypeTableRecord
  2
DOT2
 70
     0
  3
Dot (.5x) ........................................
 72
    65
 73
     2
 40
0.635
 49
0.0
 74
     0
 49
-0.635
 74
     0
  0
ENDTAB
  0
TABLE
  2
LAYER
  5
2
330
0
100
AcDbSymbolTable
 70
    18
  0
LAYER
  5
10
330
2
100
AcDbSymbolTableRecord
100
AcDbLayerTableRecord
  2
0
 70
     0
 62
     7
  6
Continuous
370
    -3
390
F
  0
LAYER
  5
6F
330
2
100
AcDbSymbolTableRecord
100
AcDbLayerTableRecord
  2
FORMAT
 70
     0
 62
     2
  6
Continuous
370
    -3
390
F
  0
LAYER
  5
70
330
2
100
AcDbSymbolTableRecord
100
AcDbLayerTableRecord
  2
외형선
 70
     0
 62
     4
  6
Continuous
370
    30
390
F
  0
LAYER
  5
71
330
2
100
AcDbSymbolTableRecord
100
AcDbLayerTableRecord
  2
숨은선
 70
     0
 62
     2
  6
HIDDEN
370
    15
390
F
  0
LAYER
  5
72
330
2
100
AcDbSymbolTableRecord
100
AcDbLayerTableRecord
  2
중심선
 70
     0
 62
     1
  6
CENTERX2
370
    -3
390
F
  0
LAYER
  5
73
330
2
100
AcDbSymbolTableRecord
100
AcDbLayerTableRecord
  2
파단선
 70
     0
 62
     4
  6
Continuous
370
    -3
390
F
  0
LAYER
  5
74
330
2
100
AcDbSymbolTableRecord
100
AcDbLayerTableRecord
  2
해칭선
 70
     0
 62
   100
  6
Continuous
370
    -3
390
F
  0
LAYER
  5
75
330
2
100
AcDbSymbolTableRecord
100
AcDbLayerTableRecord
  2
가는실선
 70
     0
 62
     4
  6
Continuous
370
    -3
390
F
  0
LAYER
  5
76
330
2
100
AcDbSymbolTableRecord
100
AcDbLayerTableRecord
  2
치수_보조선
 70
     0
 62
     4
  6
Continuous
370
    -3
390
F
  0
LAYER
  5
77
330
2
100
AcDbSymbolTableRecord
100
AcDbLayerTableRecord
  2
치수문자_일반주서
 70
     0
 62
     7
  6
Continuous
370
    15
390
F
  0
LAYER
  5
78
330
2
100
AcDbSymbolTableRecord
100
AcDbLayerTableRecord
  2
개별주서
 70
     0
 62
   100
  6
Continuous
370
    30
390
F
  0
LAYER
  5
79
330
2
100
AcDbSymbolTableRecord
100
AcDbLayerTableRecord
  2
중간선
 70
     0
 62
     2
  6
Continuous
370
    15
390
F
  0
LAYER
  5
7A
330
2
100
AcDbSymbolTableRecord
100
AcDbLayerTableRecord
  2
윤곽선
 70
     0
 62
     3
  6
Continuous
370
    40
390
F
  0
LAYER
  5
7B
330
2
100
AcDbSymbolTableRecord
100
AcDbLayerTableRecord
  2
중심마크
 70
     0
 62
   100
  6
Continuous
370
    30
390
F
  0
LAYER
  5
7C
330
2
100
AcDbSymbolTableRecord
100
AcDbLayerTableRecord
  2
가상선
 70
     0
 62
     4
  6
PHANTOM
370
    -3
390
F
  0
LAYER
  5
7D
330
2
100
AcDbSymbolTableRecord
100
AcDbLayerTableRecord
  2
특수지정선
 70
     0
 62
     5
  6
CENTERX2
370
    60
390
F
  0
LAYER
  5
7E
330
2
100
AcDbSymbolTableRecord
100
AcDbLayerTableRecord
  2
참조1
 70
     0
 62
    -4
  6
Continuous
370
    -3
390
F
  0
LAYER
  5
161
330
2
100
AcDbSymbolTableRecord
100
AcDbLayerTableRecord
  2
Defpoints
 70
     0
 62
     7
  6
Continuous
290
     0
370
    -3
390
F
  0
ENDTAB
  0
TABLE
  2
STYLE
  5
3
330
0
100
AcDbSymbolTable
 70
     2
  0
STYLE
  5
11
330
3
100
AcDbSymbolTableRecord
100
AcDbTextStyleTableRecord
  2
Standard
 70
     0
 40
0.0
 41
1.0
 50
0.0
 71
     0
 42
3.5
  3
txt
  4

  0
STYLE
  5
94
330
3
100
AcDbSymbolTableRecord
100
AcDbTextStyleTableRecord
  2
SLDTEXTSTYLE0
 70
     0
 40
0.0
 41
0.75
 50
0.0
 71
     0
 42
3.5
  3
TXT
  4

  0
ENDTAB
  0
TABLE
  2
VIEW
  5
6
330
0
100
AcDbSymbolTable
 70
     0
  0
ENDTAB
  0
TABLE
  2
UCS
  5
7
330
0
100
AcDbSymbolTable
 70
     0
  0
ENDTAB
  0
TABLE
  2
APPID
  5
9
330
0
100
AcDbSymbolTable
 70
     4
  0
APPID
  5
12
330
9
100
AcDbSymbolTableRecord
100
AcDbRegAppTableRecord
  2
ACAD
 70
     0
  0
APPID
  5
164
330
9
100
AcDbSymbolTableRecord
100
AcDbRegAppTableRecord
  2
PE_URL
 70
     0
  0
APPID
  5
19F
330
9
100
AcDbSymbolTableRecord
100
AcDbRegAppTableRecord
  2
ACAD_DSTYLE_DIMFLIPARROW_SYMBOL
 70
     0
  0
APPID
  5
1A0
330
9
100
AcDbSymbolTableRecord
100
AcDbRegAppTableRecord
  2
ACAD_DSTYLE_DIMFLIPARROW_WHICH_SYMBOL
 70
     0
  0
ENDTAB
  0
TABLE
  2
DIMSTYLE
  5
A
330
0
100
AcDbSymbolTable
 70
     4
100
AcDbDimStyleTable
  0
DIMSTYLE
105
27
102
{ACAD_REACTORS
330
196
330
19C
102
}
330
A
100
AcDbSymbolTableRecord
100
AcDbDimStyleTableRecord
  2
ISO-25
 70
     0
 41
2.5
 42
0.625
 43
3.75
 44
1.25
 73
     0
 74
     0
 77
     1
 78
     8
140
2.5
141
2.5
143
0.03937007874016
147
0.625
171
     3
172
     1
178
     0
271
     2
272
     2
274
     3
278
    44
283
     0
284
     8
340
11
  0
DIMSTYLE
105
E0
102
{ACAD_REACTORS
330
DF
330
109
330
F5
330
11D
102
}
330
A
100
AcDbSymbolTableRecord
100
AcDbDimStyleTableRecord
  2
SLDDIMSTYLE0
 70
     0
 41
3.302
 44
0.0
 45
0.000000001
 73
     0
 74
     0
 77
     1
 78
     4
 79
     1
140
3.5
143
0.0393700787401575
147
0.875
148
0.000000001
170
     1
172
     1
173
     1
178
     0
271
     2
272
     2
276
     2
284
    12
289
     0
340
94
  0
DIMSTYLE
105
F6
330
A
100
AcDbSymbolTableRecord
100
AcDbDimStyleTableRecord
  2
SLDDIMSTYLE1
 70
     0
 41
3.302
 44
0.0
 45
0.000000001
 73
     0
 74
     0
 77
     1
 78
    12
 79
     3
140
3.5
143
0.0393700787401575
147
0.875
148
0.000000001
170
     1
173
     1
178
     0
271
     2
272
     2
276
     2
284
    12
340
94
  0
DIMSTYLE
105
11E
330
A
100
AcDbSymbolTableRecord
100
AcDbDimStyleTableRecord
  2
SLDDIMSTYLE2
 70
     0
 41
3.302
 44
0.0
 45
0.000000001
 73
     0
 74
     0
 77
     1
 78
     4
 79
     1
140
3.5
143
0.0393700787401575
147
0.875
148
0.000000001
170
     1
173
     1
178
     0
271
     2
272
     2
276
     2
284
    12
340
94
  0
ENDTAB
  0
TABLE
  2
BLOCK_RECORD
  5
1
330
0
100
AcDbSymbolTable
 70
     8
  0
BLOCK_RECORD
  5
1F
330
1
100
AcDbSymbolTableRecord
100
AcDbBlockTableRecord
  2
*Model_Space
340
22
  0
BLOCK_RECORD
  5
1B
330
1
100
AcDbSymbolTableRecord
100
AcDbBlockTableRecord
  2
*Paper_Space
340
1E
  0
BLOCK_RECORD
  5
23
330
1
100
AcDbSymbolTableRecord
100
AcDbBlockTableRecord
  2
*Paper_Space0
340
26
  0
BLOCK_RECORD
  5
7F
330
1
100
AcDbSymbolTableRecord
100
AcDbBlockTableRecord
  2
블럭10
340
0
102
{BLKREFS
331
D8
102
}
  0
BLOCK_RECORD
  5
E1
330
1
100
AcDbSymbolTableRecord
100
AcDbBlockTableRecord
  2
_D
340
0
  0
BLOCK_RECORD
  5
F7
330
1
100
AcDbSymbolTableRecord
100
AcDbBlockTableRecord
  2
_D_1
340
0
  0
BLOCK_RECORD
  5
10A
330
1
100
AcDbSymbolTableRecord
100
AcDbBlockTableRecord
  2
_D_2
340
0
  0
BLOCK_RECORD
  5
11F
330
1
100
AcDbSymbolTableRecord
100
AcDbBlockTableRecord
  2
_D_3
340
0
  0
BLOCK_RECORD
  5
138
330
1
100
AcDbSymbolTableRecord
100
AcDbBlockTableRecord
  2
SW_DOWELSYMBOL_0
340
0
102
{BLKREFS
331
13E
102
}
  0
ENDTAB
  0
ENDSEC
  0
SECTION
  2
BLOCKS
  0
BLOCK
  5
20
330
1F
100
AcDbEntity
  8
0
100
AcDbBlockBegin
  2
*Model_Space
 70
     0
 10
0.0
 20
0.0
 30
0.0
  3
*Model_Space
  1

  0
ENDBLK
  5
21
330
1F
100
AcDbEntity
  8
0
100
AcDbBlockEnd
  0
BLOCK
  5
1C
330
1B
100
AcDbEntity
 67
     1
  8
0
100
AcDbBlockBegin
  2
*Paper_Space
 70
     0
 10
0.0
 20
0.0
 30
0.0
  3
*Paper_Space
  1

  0
ENDBLK
  5
1D
330
1B
100
AcDbEntity
 67
     1
  8
0
100
AcDbBlockEnd
  0
BLOCK
  5
24
330
23
100
AcDbEntity
  8
0
100
AcDbBlockBegin
  2
*Paper_Space0
 70
     0
 10
0.0
 20
0.0
 30
0.0
  3
*Paper_Space0
  1

  0
ENDBLK
  5
25
330
23
100
AcDbEntity
  8
0
100
AcDbBlockEnd
  0
BLOCK
  5
80
330
7F
100
AcDbEntity
  8
0
100
AcDbBlockBegin
  2
블럭10
 70
     2
 10
0.0
 20
0.0
 30
0.0
  3
블럭10
  1

  0
ELLIPSE
  5
82
330
7F
100
AcDbEntity
  8
중심선
100
AcDbEllipse
 10
20.54032771741204
 20
12.0471743016438
 30
0.0
 11
6.600054785286829
 21
-1.261213355974178E-13
 31
0.0
210
0.0
220
0.0
230
1.0
 40
0.636358354079598
 41
0.9219305317359503
 42
6.513795318482858
  0
ELLIPSE
  5
83
330
7F
100
AcDbEntity
  8
중심선
100
AcDbEllipse
 10
20.54032771746488
 20
12.04717430159265
 30
0.0
 11
3.960054785062283
 21
1.540847449632565E-10
 31
0.0
210
0.0
220
0.0
230
1.0
 40
0.3939339440162632
 41
1.131841032648279
 42
5.62031148352944
  0
LINE
  5
84
330
7F
100
AcDbEntity
  8
중심선
100
AcDbLine
 10
2.268634060543552
 20
16.24717430164393
 30
0.0
 11
5.714909304380834
 21
16.24717430164393
 31
0.0
  0
LINE
  5
85
330
7F
100
AcDbEntity
  8
중심선
100
AcDbLine
 10
5.245725140726316
 20
7.84717430164391
 30
0.0
 11
8.692000384563599
 21
7.84717430164391
 31
0.0
  0
LINE
  5
86
330
7F
100
AcDbEntity
  8
중심선
100
AcDbLine
 10
15.74043728645272
 20
16.24717430164393
 30
0.0
 11
8.692000384563599
 21
7.84717430164391
 31
0.0
  0
LINE
  5
87
330
7F
100
AcDbEntity
  8
중심선
100
AcDbLine
 10
0.1404042013395286
 20
13.71084872107135
 30
0.0
 11
3.58671253028996
 21
13.71088815037384
 31
0.0
  0
LINE
  5
88
330
7F
100
AcDbEntity
  8
중심선
100
AcDbLine
 10
2.750260043222114
 20
10.84717430164391
 30
0.0
 11
6.196535287059397
 21
10.84717430164391
 31
0.0
  0
LINE
  5
89
330
7F
100
AcDbEntity
  8
중심선
100
AcDbLine
 10
12.29416204261559
 20
16.24717430164393
 30
0.0
 11
5.245725140726316
 21
7.84717430164391
 31
0.0
  0
LINE
  5
8A
330
7F
100
AcDbEntity
  8
중심선
100
AcDbLine
 10
10.72767329541681
 20
16.24717430164393
 30
0.0
 11
6.196535287059397
 21
10.84717430164391
 31
0.0
  0
LINE
  5
8B
330
7F
100
AcDbEntity
  8
중심선
100
AcDbLine
 10
7.28139805157953
 20
16.24717430164393
 30
0.0
 11
2.750260043222114
 21
10.84717430164391
 31
0.0
  0
LINE
  5
8C
330
7F
100
AcDbEntity
  8
중심선
100
AcDbLine
 10
5.714909304380834
 20
16.24717430164393
 30
0.0
 11
3.58671253028996
 21
13.71088815037384
 31
0.0
  0
LINE
  5
8D
330
7F
100
AcDbEntity
  8
중심선
100
AcDbLine
 10
2.268634060543552
 20
16.24717430164393
 30
0.0
 11
0.1404042013395286
 21
13.71084872107135
 31
0.0
  0
LINE
  5
8E
330
7F
100
AcDbEntity
  8
중심선
100
AcDbLine
 10
7.28139805157953
 20
16.24717430164393
 30
0.0
 11
10.72767329541681
 21
16.24717430164393
 31
0.0
  0
LINE
  5
8F
330
7F
100
AcDbEntity
  8
중심선
100
AcDbLine
 10
12.29416204261559
 20
16.24717430164393
 30
0.0
 11
15.74043728645272
 21
16.24717430164393
 31
0.0
  0
LINE
  5
90
330
7F
100
AcDbEntity
  8
중심선
100
AcDbLine
 10
19.22036997980202
 20
11.08717430171403
 30
0.0
 11
23.66174974927406
 21
11.08717430171406
 31
0.0
  0
LINE
  5
91
330
7F
100
AcDbEntity
  8
중심선
100
AcDbLine
 10
19.22039502424796
 20
13.00717430171391
 30
0.0
 11
19.22036997980202
 21
11.08717430171403
 31
0.0
  0
LINE
  5
92
330
7F
100
AcDbEntity
  8
중심선
100
AcDbLine
 10
19.22039502424796
 20
13.00717430171391
 30
0.0
 11
26.96566020931264
 21
13.00717430171391
 31
0.0
  0
LINE
  5
93
330
7F
100
AcDbEntity
  8
중심선
100
AcDbLine
 10
22.22332737316547
 20
13.45928029700563
 30
0.0
 11
24.52862924686651
 21
15.39360700705356
 31
0.0
  0
ATTDEF
  5
95
330
7F
100
AcDbEntity
  8
FORMAT
 62
     2
100
AcDbText
 10
3.448148490846466
 20
2.075366912832191
 30
0.0
 40
4.233333333333333
  1
EM668032
 41
0.75
  7
SLDTEXTSTYLE0
 11
3.448148490846466
 21
-0.0412997538344756
 31
0.0
100
AcDbAttributeDefinition
  3

  2
AUTOATTR0
 70
     0
 74
     1
  0
ENDBLK
  5
81
330
7F
100
AcDbEntity
  8
0
100
AcDbBlockEnd
  0
BLOCK
  5
E2
330
E1
100
AcDbEntity
  8
0
100
AcDbBlockBegin
  2
_D
 70
     0
 10
0.0
 20
0.0
 30
0.0
  3
_D
  1

  0
LINE
  5
E4
330
E1
100
AcDbEntity
  8
치수문자_일반주서
 62
     0
370
    -2
100
AcDbLine
 10
37.39999999999999
 20
6.309888906920539
 30
0.0
 11
37.39999999999999
 21
16.85708107406849
 31
0.0
  0
LINE
  5
E5
330
E1
100
AcDbEntity
  8
치수문자_일반주서
 62
     0
370
    -2
100
AcDbLine
 10
11.99999999999998
 20
6.384381731638875
 30
0.0
 11
11.99999999999998
 21
16.85708107406849
 31
0.0
  0
LINE
  5
E6
330
E1
100
AcDbEntity
  8
치수문자_일반주서
 62
     0
370
    -2
100
AcDbLine
 10
34.09799999999999
 20
16.85708107406849
 30
0.0
 11
15.30199999999998
 21
16.85708107406849
 31
0.0
  0
SOLID
  5
E7
330
E1
100
AcDbEntity
  8
치수문자_일반주서
 62
     0
100
AcDbTrace
 10
34.09799999999999
 20
16.30674774073516
 30
0.0
 11
34.09799999999999
 21
17.40741440740183
 31
0.0
 12
37.39999999999999
 22
16.85708107406849
 32
0.0
 13
37.39999999999999
 23
16.85708107406849
 33
0.0
  0
SOLID
  5
E8
330
E1
100
AcDbEntity
  8
치수문자_일반주서
 62
     0
100
AcDbTrace
 10
15.30199999999998
 20
17.40741440740183
 30
0.0
 11
15.30199999999998
 21
16.30674774073516
 31
0.0
 12
11.99999999999998
 22
16.85708107406849
 32
0.0
 13
11.99999999999998
 23
16.85708107406849
 33
0.0
  0
MTEXT
  5
E9
330
E1
100
AcDbEntity
  8
치수문자_일반주서
 62
     0
100
AcDbMText
 10
24.69999999999998
 20
21.23208107406849
 30
0.0
 40
3.5
 41
0.0
 71
     2
 72
     1
  1
\A1;25.40 [1]
  7
SLDTEXTSTYLE0
 73
     1
 44
1.0
  0
POINT
  5
EA
330
E1
100
AcDbEntity
  8
Defpoints
 62
     0
100
AcDbPoint
 10
37.39999999999999
 20
6.247388906920539
 30
0.0
  0
POINT
  5
EB
330
E1
100
AcDbEntity
  8
Defpoints
 62
     0
100
AcDbPoint
 10
11.99999999999998
 20
6.321881731638875
 30
0.0
  0
POINT
  5
EC
330
E1
100
AcDbEntity
  8
Defpoints
 62
     0
100
AcDbPoint
 10
11.99999999999998
 20
16.85708107406849
 30
0.0
  0
ENDBLK
  5
E3
330
E1
100
AcDbEntity
  8
0
100
AcDbBlockEnd
  0
BLOCK
  5
F8
330
F7
100
AcDbEntity
  8
0
100
AcDbBlockBegin
  2
_D_1
 70
     0
 10
0.0
 20
0.0
 30
0.0
  3
_D_1
  1

  0
LINE
  5
FA
330
F7
100
AcDbEntity
  8
치수문자_일반주서
 62
     0
370
    -2
100
AcDbLine
 10
37.39999999999999
 20
6.309888906920539
 30
0.0
 11
37.4
 21
29.35301217542758
 31
0.0
  0
LINE
  5
FB
330
F7
100
AcDbEntity
  8
치수문자_일반주서
 62
     0
370
    -2
100
AcDbLine
 10
-45.15000000000001
 20
5.1425
 30
0.0
 11
-45.15000000000001
 21
29.35301217542758
 31
0.0
  0
LINE
  5
FC
330
F7
100
AcDbEntity
  8
치수문자_일반주서
 62
     0
370
    -2
100
AcDbLine
 10
34.098
 20
29.35301217542758
 30
0.0
 11
-41.84800000000001
 21
29.35301217542758
 31
0.0
  0
SOLID
  5
FD
330
F7
100
AcDbEntity
  8
치수문자_일반주서
 62
     0
100
AcDbTrace
 10
34.098
 20
28.80267884209424
 30
0.0
 11
34.098
 21
29.90334550876091
 31
0.0
 12
37.4
 22
29.35301217542758
 32
0.0
 13
37.4
 23
29.35301217542758
 33
0.0
  0
SOLID
  5
FE
330
F7
100
AcDbEntity
  8
치수문자_일반주서
 62
     0
100
AcDbTrace
 10
-41.84800000000001
 20
29.90334550876091
 30
0.0
 11
-41.84800000000001
 21
28.80267884209424
 31
0.0
 12
-45.15000000000001
 22
29.35301217542758
 32
0.0
 13
-45.15000000000001
 23
29.35301217542758
 33
0.0
  0
MTEXT
  5
FF
330
F7
100
AcDbEntity
  8
치수문자_일반주서
 62
     0
100
AcDbMText
 10
-3.875000000000012
 20
33.72801217542758
 30
0.0
 40
3.5
 41
0.0
 71
     2
 72
     1
  1
\A1;82.55 [3 1/4]
  7
SLDTEXTSTYLE0
 73
     1
 44
1.0
  0
POINT
  5
100
330
F7
100
AcDbEntity
  8
Defpoints
 62
     0
100
AcDbPoint
 10
37.39999999999999
 20
6.247388906920539
 30
0.0
  0
POINT
  5
101
330
F7
100
AcDbEntity
  8
Defpoints
 62
     0
100
AcDbPoint
 10
-45.15000000000001
 20
5.08
 30
0.0
  0
POINT
  5
102
330
F7
100
AcDbEntity
  8
Defpoints
 62
     0
100
AcDbPoint
 10
-45.15000000000001
 20
29.35301217542758
 30
0.0
  0
ENDBLK
  5
F9
330
F7
100
AcDbEntity
  8
0
100
AcDbBlockEnd
  0
BLOCK
  5
10B
330
10A
100
AcDbEntity
  8
0
100
AcDbBlockBegin
  2
_D_2
 70
     0
 10
0.0
 20
0.0
 30
0.0
  3
_D_2
  1

  0
LINE
  5
10D
330
10A
100
AcDbEntity
  8
치수문자_일반주서
 62
     0
370
    -2
100
AcDbLine
 10
-43.94250000000002
 20
6.349999999999991
 30
0.0
 11
-57.51500000000005
 21
6.349999999999938
 31
0.0
  0
LINE
  5
10E
330
10A
100
AcDbEntity
  8
치수문자_일반주서
 62
     0
370
    -2
100
AcDbLine
 10
-43.94250000000002
 20
-6.349999999999998
 30
0.0
 11
-57.51500000000001
 21
-6.35000000000005
 31
0.0
  0
LINE
  5
10F
330
10A
100
AcDbEntity
  8
치수문자_일반주서
 62
     0
370
    -2
100
AcDbLine
 10
-57.51500000000005
 20
6.349999999999938
 30
0.0
 11
-57.51500000000001
 21
-6.35000000000005
 31
0.0
  0
LINE
  5
110
330
10A
100
AcDbEntity
  8
치수문자_일반주서
 62
     0
370
    -2
100
AcDbLine
 10
-57.51500000000006
 20
9.651999999999937
 30
0.0
 11
-57.51500000000008
 21
12.95399999999994
 31
0.0
  0
LINE
  5
111
330
10A
100
AcDbEntity
  8
치수문자_일반주서
 62
     0
370
    -2
100
AcDbLine
 10
-57.51499999999999
 20
-9.65200000000005
 30
0.0
 11
-57.51499999999998
 21
-12.95400000000005
 31
0.0
  0
SOLID
  5
112
330
10A
100
AcDbEntity
  8
치수문자_일반주서
 62
     0
100
AcDbTrace
 10
-58.0653333333334
 20
9.651999999999935
 30
0.0
 11
-56.96466666666673
 21
9.651999999999939
 31
0.0
 12
-57.51500000000005
 22
6.349999999999938
 32
0.0
 13
-57.51500000000005
 23
6.349999999999938
 33
0.0
  0
SOLID
  5
113
330
10A
100
AcDbEntity
  8
치수문자_일반주서
 62
     0
100
AcDbTrace
 10
-56.96466666666666
 20
-9.652000000000049
 30
0.0
 11
-58.06533333333333
 21
-9.652000000000053
 31
0.0
 12
-57.51500000000001
 22
-6.35000000000005
 32
0.0
 13
-57.51500000000001
 23
-6.35000000000005
 33
0.0
  0
MTEXT
  5
114
330
10A
100
AcDbEntity
  8
치수문자_일반주서
 62
     0
100
AcDbMText
 10
-61.89000000000003
 20
-0.0000000000000226
 30
0.0
 40
3.5
 41
0.0
 71
     2
 72
     1
  1
\A1;%%c12.70 [1/2]
  7
SLDTEXTSTYLE0
 11
-3.356894814614650E-15
 21
1.0
 31
0.0
 73
     1
 44
1.0
  0
POINT
  5
115
330
10A
100
AcDbEntity
  8
Defpoints
 62
     0
100
AcDbPoint
 10
-43.88000000000002
 20
6.349999999999991
 30
0.0
  0
POINT
  5
162
330
10A
100
AcDbEntity
  8
Defpoints
 62
     0
100
AcDbPoint
 10
-43.88000000000002
 20
-6.349999999999998
 30
0.0
  0
POINT
  5
163
330
10A
100
AcDbEntity
  8
Defpoints
 62
     0
100
AcDbPoint
 10
-57.51500000000001
 20
-6.350000000000048
 30
0.0
  0
ENDBLK
  5
10C
330
10A
100
AcDbEntity
  8
0
100
AcDbBlockEnd
  0
BLOCK
  5
120
330
11F
100
AcDbEntity
  8
0
100
AcDbBlockBegin
  2
_D_3
 70
     0
 10
0.0
 20
0.0
 30
0.0
  3
_D_3
  1

  0
LINE
  5
122
330
11F
100
AcDbEntity
  8
치수문자_일반주서
 62
     0
370
    -2
100
AcDbLine
 10
37.46249999999999
 20
6.350000000000037
 30
0.0
 11
60.34129056267452
 21
6.350000000000122
 31
0.0
  0
LINE
  5
123
330
11F
100
AcDbEntity
  8
치수문자_일반주서
 62
     0
370
    -2
100
AcDbLine
 10
37.46249999999999
 20
-6.349999999999969
 30
0.0
 11
60.34129056267457
 21
-6.349999999999881
 31
0.0
  0
LINE
  5
124
330
11F
100
AcDbEntity
  8
치수문자_일반주서
 62
     0
370
    -2
100
AcDbLine
 10
60.34129056267452
 20
6.350000000000122
 30
0.0
 11
60.34129056267442
 21
39.64150000000012
 31
0.0
  0
LINE
  5
125
330
11F
100
AcDbEntity
  8
치수문자_일반주서
 62
     0
370
    -2
100
AcDbLine
 10
60.34129056267452
 20
6.350000000000122
 30
0.0
 11
60.34129056267457
 21
-6.349999999999881
 31
0.0
  0
LINE
  5
126
330
11F
100
AcDbEntity
  8
치수문자_일반주서
 62
     0
370
    -2
100
AcDbLine
 10
60.34129056267451
 20
9.652000000000122
 30
0.0
 11
60.34129056267449
 21
12.95400000000012
 31
0.0
  0
LINE
  5
127
330
11F
100
AcDbEntity
  8
치수문자_일반주서
 62
     0
370
    -2
100
AcDbLine
 10
60.34129056267458
 20
-9.65199999999988
 30
0.0
 11
60.34129056267459
 21
-12.95399999999988
 31
0.0
  0
SOLID
  5
128
330
11F
100
AcDbEntity
  8
치수문자_일반주서
 62
     0
100
AcDbTrace
 10
59.79095722934117
 20
9.65200000000012
 30
0.0
 11
60.89162389600784
 21
9.652000000000124
 31
0.0
 12
60.34129056267452
 22
6.350000000000122
 32
0.0
 13
60.34129056267452
 23
6.350000000000122
 33
0.0
  0
SOLID
  5
129
330
11F
100
AcDbEntity
  8
치수문자_일반주서
 62
     0
100
AcDbTrace
 10
60.89162389600791
 20
-9.651999999999878
 30
0.0
 11
59.79095722934125
 21
-9.651999999999882
 31
0.0
 12
60.34129056267457
 22
-6.349999999999881
 32
0.0
 13
60.34129056267457
 23
-6.349999999999881
 33
0.0
  0
MTEXT
  5
12A
330
11F
100
AcDbEntity
  8
치수문자_일반주서
 62
     0
100
AcDbMText
 10
55.96629056267446
 20
26.29775000000011
 30
0.0
 40
3.5
 41
0.0
 71
     2
 72
     1
  1
\A1;%%c12.70 [1/2]
  7
SLDTEXTSTYLE0
 11
-3.356894814614645E-15
 21
1.0
 31
0.0
 73
     1
 44
1.0
  0
POINT
  5
12B
330
11F
100
AcDbEntity
  8
Defpoints
 62
     0
100
AcDbPoint
 10
37.39999999999999
 20
6.350000000000037
 30
0.0
  0
POINT
  5
165
330
11F
100
AcDbEntity
  8
Defpoints
 62
     0
100
AcDbPoint
 10
37.39999999999999
 20
-6.349999999999969
 30
0.0
  0
POINT
  5
166
330
11F
100
AcDbEntity
  8
Defpoints
 62
     0
100
AcDbPoint
 10
60.34129056267457
 20
-6.349999999999883
 30
0.0
  0
ENDBLK
  5
121
330
11F
100
AcDbEntity
  8
0
100
AcDbBlockEnd
  0
BLOCK
  5
139
330
138
100
AcDbEntity
  8
0
100
AcDbBlockBegin
  2
SW_DOWELSYMBOL_0
 70
     0
 10
0.0
 20
0.0
 30
0.0
  3
SW_DOWELSYMBOL_0
  1

  0
CIRCLE
  5
13B
330
138
100
AcDbEntity
  8
해칭선
 62
     0
100
AcDbCircle
 10
0.0
 20
0.0
 30
0.0
 40
3.000000000000001
  0
HATCH
  5
13C
330
138
100
AcDbEntity
  8
0
  6
Continuous
 62
     0
370
     0
100
AcDbHatch
 10
0.0
 20
0.0
 30
0.0
210
0.0
220
0.0
230
1.0
  2
SOLID
 70
     1
 71
     0
 91
        1
 92
        0
 93
        3
 72
     2
 10
0.0
 20
0.0
 40
3.000000000000001
 50
0.0
 51
90.0
 73
     1
 72
     1
 10
0.0
 20
3.000000000000001
 11
0.0
 21
0.0
 72
     1
 10
0.0
 20
0.0
 11
3.000000000000003
 21
0.0
 97
        0
 75
     0
 76
     1
 98
        1
 10
0.0
 20
0.0
  0
HATCH
  5
13D
330
138
100
AcDbEntity
  8
0
  6
Continuous
 62
     0
370
     0
100
AcDbHatch
 10
0.0
 20
0.0
 30
0.0
210
0.0
220
0.0
230
1.0
  2
SOLID
 70
     1
 71
     0
 91
        1
 92
        0
 93
        3
 72
     2
 10
0.0
 20
0.0
 40
3.000000000000001
 50
180.0
 51
270.0000000000008
 73
     1
 72
     1
 10
0.0
 20
-3.000000000000001
 11
0.0
 21
0.0
 72
     1
 10
0.0
 20
0.0
 11
-3.000000000000001
 21
0.0
 97
        0
 75
     0
 76
     1
 98
        1
 10
0.0
 20
0.0
  0
ENDBLK
  5
13A
330
138
100
AcDbEntity
  8
0
100
AcDbBlockEnd
  0
ENDSEC
  0
SECTION
  2
ENTITIES
  0
SPLINE
  5
96
330
1F
100
AcDbEntity
  8
외형선
  6
Continuous
370
    15
100
AcDbSpline
210
0.0
220
0.0
230
1.0
 70
     8
 71
     3
 72
     9
 73
     5
 74
     0
 42
0.000000001
 43
0.00000001
 40
0.0
 40
0.0
 40
0.0
 40
0.0
 40
0.5923373319792663
 40
1.0
 40
1.0
 40
1.0
 40
1.0
 10
11.99999999999998
 20
-1.144779447396639
 30
0.0
 10
12.0429474765511
 20
-1.18072324702133
 30
0.0
 10
12.11545257496796
 20
-1.241404547496834
 30
0.0
 10
12.19338498810977
 20
-1.289879419136661
 30
0.0
 10
12.22515512357646
 20
-1.309640814641316
 30
0.0
  0
LINE
  5
97
330
1F
100
AcDbEntity
  8
외형선
  6
Continuous
 62
     1
370
    15
100
AcDbLine
 10
16.64963221839789
 20
1.230861275982704
 30
0.0
 11
16.57977787023257
 21
1.269942336900176
 31
0.0
  0
LINE
  5
98
330
1F
100
AcDbEntity
  8
외형선
  6
Continuous
 62
     1
370
    15
100
AcDbLine
 10
15.69548258566737
 20
6.349999999999998
 30
0.0
 11
13.03589824241734
 21
6.349999999999998
 31
0.0
  0
LINE
  5
99
330
1F
100
AcDbEntity
  8
외형선
  6
Continuous
 62
     1
370
    15
100
AcDbLine
 10
36.07139922808732
 20
-6.350000000000005
 30
0.0
 11
36.88432242124637
 21
-6.349754153083639
 31
0.0
  0
LINE
  5
9A
330
1F
100
AcDbEntity
  8
외형선
  6
Continuous
 62
     1
370
    15
100
AcDbLine
 10
24.55381309835195
 20
-6.350000000000005
 30
0.0
 11
27.21275691890161
 21
-6.350000000000005
 31
0.0
  0
LINE
  5
9B
330
1F
100
AcDbEntity
  8
외형선
  6
Continuous
 62
     1
370
    15
100
AcDbLine
 10
27.2127569189016
 20
6.349999999999998
 30
0.0
 11
24.55381309835202
 21
6.349999999999998
 31
0.0
  0
LINE
  5
9C
330
1F
100
AcDbEntity
  8
외형선
  6
Continuous
 62
     1
370
    15
100
AcDbLine
 10
13.03589824241723
 20
-6.350000000000005
 30
0.0
 11
15.69548258566729
 21
-6.350000000000005
 31
0.0
  0
LINE
  5
A0
330
1F
100
AcDbEntity
  8
외형선
  6
Continuous
370
    15
100
AcDbLine
 10
-43.88000000000001
 20
-6.350000000000001
 30
0.0
 11
11.75014553794754
 21
-6.350000000000001
 31
0.0
  0
LINE
  5
A1
330
1F
100
AcDbEntity
  8
외형선
  6
Continuous
370
    15
100
AcDbLine
 10
11.75014553794754
 20
6.349999999999994
 30
0.0
 11
-43.88000000000001
 21
6.349999999999994
 31
0.0
  0
LINE
  5
A2
330
1F
100
AcDbEntity
  8
외형선
  6
Continuous
370
    15
100
AcDbLine
 10
-43.88000000000001
 20
6.349999999999996
 30
0.0
 11
-45.15000000000001
 21
5.08
 31
0.0
  0
LINE
  5
A3
330
1F
100
AcDbEntity
  8
외형선
  6
Continuous
370
    15
100
AcDbLine
 10
-45.15000000000001
 20
-5.080000000000005
 30
0.0
 11
-43.88000000000001
 21
-6.350000000000001
 31
0.0
  0
LINE
  5
A4
330
1F
100
AcDbEntity
  8
외형선
  6
Continuous
 62
     1
370
    15
100
AcDbLine
 10
37.4
 20
-2.336711650503707
 30
0.0
 11
37.4
 21
2.33671165050381
 31
0.0
  0
SPLINE
  5
A5
330
1F
100
AcDbEntity
  8
외형선
  6
Continuous
 62
     1
370
    15
100
AcDbSpline
210
0.0
220
0.0
230
1.0
 70
     8
 71
     3
 72
    14
 73
    10
 74
     0
 42
0.000000001
 43
0.00000001
 40
0.0
 40
0.0
 40
0.0
 40
0.0
 40
0.25
 40
0.25
 40
0.5
 40
0.5
 40
0.75
 40
0.75
 40
1.0
 40
1.0
 40
1.0
 40
1.0
 10
36.892
 20
-2.215854807506288
 30
0.0
 10
36.95608107726652
 20
-2.250522274211824
 30
0.0
 10
37.01700972166534
 20
-2.281612710689281
 30
0.0
 10
37.1338438114002
 20
-2.335626487942318
 30
0.0
 10
37.18846435262625
 20
-2.357848456097433
 30
0.0
 10
37.28399744824756
 20
-2.386678616449251
 30
0.0
 10
37.32503856410192
 20
-2.39326912227588
 30
0.0
 10
37.38370835721356
 20
-2.382843912330919
 30
0.0
 10
37.39999999999994
 20
-2.365861006665572
 30
0.0
 10
37.39999999999996
 20
-2.336711650503708
 30
0.0
  0
SPLINE
  5
A6
330
1F
100
AcDbEntity
  8
외형선
  6
Continuous
 62
     1
370
    15
100
AcDbSpline
210
0.0
220
0.0
230
1.0
 70
     8
 71
     3
 72
    19
 73
    15
 74
     0
 42
0.000000001
 43
0.00000001
 40
0.0
 40
0.0
 40
0.0
 40
0.0
 40
0.0135798766519856
 40
0.1074956572099957
 40
0.201404112358617
 40
0.2953201411750623
 40
0.3892586138449365
 40
0.4832343150578713
 40
0.5694104710845459
 40
0.6555070156887813
 40
0.7415754065374368
 40
0.8276691244072089
 40
0.913840887499345
 40
1.0
 40
1.0
 40
1.0
 40
1.0
 10
15.69548258566736
 20
6.337152232949965
 30
0.0
 10
15.79143344900131
 20
6.341273339032147
 30
0.0
 10
16.55096178480852
 20
6.373895211681591
 30
0.0
 10
17.9739130562349
 20
6.235721518881396
 30
0.0
 10
19.96446221187419
 20
5.912845795951958
 30
0.0
 10
21.95519438443502
 20
5.376796356202965
 30
0.0
 10
23.94649321047208
 20
4.670272917198425
 30
0.0
 10
25.88328241630988
 20
3.833382949657268
 30
0.0
 10
27.7647721800102
 20
2.908595064107216
 30
0.0
 10
29.58986677804304
 20
1.930494304852792
 30
0.0
 10
31.41431848957854
 20
0.8992738024541017
 30
0.0
 10
33.23934324293438
 20
-0.1557302256271726
 30
0.0
 10
35.06554815348863
 20
-1.210273081091434
 30
0.0
 10
36.28321251356274
 20
-1.880677303209838
 30
0.0
 10
36.89199999999999
 20
-2.215854807506287
 30
0.0
  0
SPLINE
  5
A7
330
1F
100
AcDbEntity
  8
외형선
  6
Continuous
 62
     1
370
    15
100
AcDbSpline
210
0.0
220
0.0
230
1.0
 70
     8
 71
     3
 72
    16
 73
    12
 74
     0
 42
0.000000001
 43
0.00000001
 40
0.0
 40
0.0
 40
0.0
 40
0.0
 40
0.1189613813508426
 40
0.2379707096534063
 40
0.3569453083904722
 40
0.4758762926379092
 40
0.5947824075360227
 40
0.7136824929962476
 40
0.8325954119333133
 40
0.9416549489934155
 40
1.0
 40
1.0
 40
1.0
 40
1.0
 10
36.89200000000002
 20
2.75618317154734
 30
0.0
 10
36.22812178796093
 20
3.092748153740959
 30
0.0
 10
34.90009779018596
 20
3.766013769419138
 30
0.0
 10
32.90782872764989
 20
4.628202951591678
 30
0.0
 10
30.9159401674634
 20
5.345715214578695
 30
0.0
 10
28.92477350677876
 20
5.886837792746185
 30
0.0
 10
26.93410373507804
 20
6.235309200382378
 30
0.0
 10
24.94356438058907
 20
6.382267460113653
 30
0.0
 10
23.0078941036287
 20
6.313579049899966
 30
0.0
 10
21.41016175491487
 20
6.124129845257473
 30
0.0
 10
20.47582908558934
 20
5.904519014721881
 30
0.0
 10
20.15018874395663
 20
5.827978668622803
 30
0.0
  0
SPLINE
  5
A8
330
1F
100
AcDbEntity
  8
외형선
  6
Continuous
 62
     1
370
    15
100
AcDbSpline
210
0.0
220
0.0
230
1.0
 70
     8
 71
     3
 72
    12
 73
     8
 74
     0
 42
0.000000001
 43
0.00000001
 40
0.0
 40
0.0
 40
0.0
 40
0.0
 40
0.4999999999999997
 40
0.4999999999999997
 40
0.7499999999999998
 40
0.7499999999999998
 40
1.0
 40
1.0
 40
1.0
 40
1.0
 10
37.4
 20
2.336711650503807
 30
0.0
 10
37.40000000000001
 20
2.392302897838465
 30
0.0
 10
37.33696260714658
 20
2.465181577144761
 30
0.0
 10
37.19059652859492
 20
2.577930156104228
 30
0.0
 10
37.13373885496585
 20
2.616183808863819
 30
0.0
 10
37.01471577967291
 20
2.68955377302788
 30
0.0
 10
36.95326018372783
 20
2.724323701967576
 30
0.0
 10
36.89200000000005
 20
2.75618317154733
 30
0.0
  0
LINE
  5
A9
330
1F
100
AcDbEntity
  8
외형선
  6
Continuous
 62
     1
370
    15
100
AcDbLine
 10
37.4
 20
-5.805332965242973
 30
0.0
 11
37.4
 21
-3.468621314739186
 31
0.0
  0
SPLINE
  5
AB
330
1F
100
AcDbEntity
  8
외형선
  6
Continuous
 62
     1
370
    15
100
AcDbSpline
210
0.0
220
0.0
230
1.0
 70
     8
 71
     3
 72
    38
 73
    34
 74
     0
 42
0.000000001
 43
0.00000001
 40
0.0
 40
0.0
 40
0.0
 40
0.0
 40
0.0625
 40
0.0625
 40
0.125
 40
0.125
 40
0.1875
 40
0.1875
 40
0.25
 40
0.25
 40
0.3125
 40
0.3125
 40
0.375
 40
0.375
 40
0.4375
 40
0.4375
 40
0.5
 40
0.5
 40
0.5625
 40
0.5625
 40
0.625
 40
0.625
 40
0.6875
 40
0.6875
 40
0.75
 40
0.75
 40
0.8125
 40
0.8125
 40
0.875
 40
0.875
 40
0.9375
 40
0.9375
 40
1.0
 40
1.0
 40
1.0
 40
1.0
 10
36.88432242124637
 20
-6.349754153083639
 30
0.0
 10
36.37334282014752
 20
-6.211693060871767
 30
0.0
 10
35.85146539906376
 20
-6.140793002661676
 30
0.0
 10
34.81685868110712
 20
-5.959042317897952
 30
0.0
 10
34.29885433272411
 20
-5.847961787861973
 30
0.0
 10
33.25905329141289
 20
-5.58724016135478
 30
0.0
 10
32.74378889933944
 20
-5.438205255150205
 30
0.0
 10
31.70600072030216
 20
-5.104255639113406
 30
0.0
 10
31.18418818912769
 20
-4.919299347021981
 30
0.0
 10
30.15030846203526
 20
-4.519073810170669
 30
0.0
 10
29.63154758143401
 20
-4.302991750694096
 30
0.0
 10
28.59189798667498
 20
-3.843244672230719
 30
0.0
 10
28.07687141645959
 20
-3.600504398264685
 30
0.0
 10
27.03865564764907
 20
-3.091409704520327
 30
0.0
 10
26.51693155525894
 20
-2.825220004559104
 30
0.0
 10
25.48382446821626
 20
-2.277602528674696
 30
0.0
 10
24.96422768864055
 20
-1.994746968254759
 30
0.0
 10
23.92477604733978
 20
-1.41754839306799
 30
0.0
 10
23.40990737707656
 20
-1.124164065100176
 30
0.0
 10
22.37131031170811
 20
-0.5301993486222383
 30
0.0
 10
21.84969819360909
 20
-0.2300084491395561
 30
0.0
 10
20.81740928138797
 20
0.3678114569432986
 30
0.0
 10
20.29689736015418
 20
0.6673316685932885
 30
0.0
 10
19.25769014969426
 20
1.259581202063796
 30
0.0
 10
18.74289943397245
 20
1.551582538088347
 30
0.0
 10
17.70396742205293
 20
2.125060171541584
 30
0.0
 10
17.18251293145685
 20
2.405990395326019
 30
0.0
 10
16.1510432742683
 20
2.94797905537767
 30
0.0
 10
15.62955930333728
 20
3.211037643265315
 30
0.0
 10
14.59064296465493
 20
3.713283796118529
 30
0.0
 10
14.07585024645859
 20
3.952125360454466
 30
0.0
 10
13.03662968790375
 20
4.403370969480399
 30
0.0
 10
12.51616548702778
 20
4.615109222682669
 30
0.0
 10
12.0
 20
4.810255174432161
 30
0.0
  0
SPLINE
  5
AC
330
1F
100
AcDbEntity
  8
외형선
  6
Continuous
370
    15
100
AcDbSpline
210
0.0
220
0.0
230
1.0
 70
    24
 71
     3
 72
    11
 73
     7
 74
     0
 42
0.000000001
 43
0.00000001
 40
0.0
 40
0.0
 40
0.0
 40
0.0
 40
0.35351349415022
 40
0.6340927929723081
 40
0.9228089104680358
 40
0.9999999999999999
 40
0.9999999999999999
 40
0.9999999999999999
 40
0.9999999999999999
 10
11.99999999999998
 20
6.321881731638792
 30
0.0
 10
11.99999999999998
 20
6.144058345205345
 30
0.0
 10
11.99999999999998
 20
5.825098730861843
 30
0.0
 10
12.00000000000001
 20
5.370206919741346
 30
0.0
 10
11.99999999999997
 20
5.058940581008093
 30
0.0
 10
12.00000000000001
 20
4.901381381821167
 30
0.0
 10
12.0
 20
4.868142992367682
 30
0.0
  0
SPLINE
  5
AD
330
1F
100
AcDbEntity
  8
외형선
  6
Continuous
 62
     1
370
    15
100
AcDbSpline
210
0.0
220
0.0
230
1.0
 70
     8
 71
     3
 72
    38
 73
    34
 74
     0
 42
0.000000001
 43
0.00000001
 40
0.0
 40
0.0
 40
0.0
 40
0.0
 40
0.0625
 40
0.0625
 40
0.125
 40
0.125
 40
0.1875
 40
0.1875
 40
0.25
 40
0.25
 40
0.3125
 40
0.3125
 40
0.375
 40
0.375
 40
0.4375
 40
0.4375
 40
0.5
 40
0.5
 40
0.5625
 40
0.5625
 40
0.625
 40
0.625
 40
0.6875
 40
0.6875
 40
0.75
 40
0.75
 40
0.8125
 40
0.8125
 40
0.875
 40
0.875
 40
0.9375
 40
0.9375
 40
1.0
 40
1.0
 40
1.0
 40
1.0
 10
36.892
 20
-3.576145564753097
 30
0.0
 10
36.37334282014751
 20
-3.328730218603728
 30
0.0
 10
35.85146539906376
 20
-3.068822347287715
 30
0.0
 10
34.81685868110711
 20
-2.531841579582705
 30
0.0
 10
34.29885433272413
 20
-2.253896160014864
 30
0.0
 10
33.25905329141289
 20
-1.684135036306074
 30
0.0
 10
32.74378889933947
 20
-1.393538017644451
 30
0.0
 10
31.70600072030216
 20
-0.8036555791141946
 30
0.0
 10
31.1841881891277
 20
-0.5044847195416824
 30
0.0
 10
30.15030846203526
 20
0.0933633815149875
 30
0.0
 10
29.63154758143401
 20
0.3933234558006669
 30
0.0
 10
28.59189798667497
 20
0.9890343962192266
 30
0.0
 10
28.07687141645953
 20
1.283668996727803
 30
0.0
 10
27.03865564764902
 20
1.86397592980866
 30
0.0
 10
26.51693155525894
 20
2.149332480964478
 30
0.0
 10
25.48382446821623
 20
2.701994761683761
 30
0.0
 10
24.96422768864055
 20
2.970776188359258
 30
0.0
 10
23.92477604733979
 20
3.486764753981019
 30
0.0
 10
23.40990737707654
 20
3.733197532867484
 30
0.0
 10
22.37131031170814
 20
4.200971566735948
 30
0.0
 10
21.84969819360906
 20
4.421893698247189
 30
0.0
 10
20.81740928138792
 20
4.831385284706094
 30
0.0
 10
20.29689736015419
 20
5.021266537374293
 30
0.0
 10
19.25769014969426
 20
5.366017788950698
 30
0.0
 10
18.74289943397245
 20
5.520561513327033
 30
0.0
 10
17.70396742205293
 20
5.79278769434922
 30
0.0
 10
17.18251293145681
 20
5.910093654764925
 30
0.0
 10
16.15104327426828
 20
6.103878429849305
 30
0.0
 10
15.62955930333728
 20
6.181071905344487
 30
0.0
 10
14.59064296465492
 20
6.293464301562429
 30
0.0
 10
14.0758502464586
 20
6.328720186193674
 30
0.0
 10
13.03662968790375
 20
6.357063445278136
 30
0.0
 10
12.5161654870277
 20
6.349982160538868
 30
0.0
 10
11.99999999999998
 20
6.321881731638799
 30
0.0
  0
SPLINE
  5
AE
330
1F
100
AcDbEntity
  8
외형선
  6
Continuous
 62
     1
370
    15
100
AcDbSpline
210
0.0
220
0.0
230
1.0
 70
     8
 71
     3
 72
    12
 73
     8
 74
     0
 42
0.000000001
 43
0.00000001
 40
0.0
 40
0.0
 40
0.0
 40
0.0
 40
0.4999999999999827
 40
0.4999999999999827
 40
0.7499999999999913
 40
0.7499999999999913
 40
1.0
 40
1.0
 40
1.0
 40
1.0
 10
37.4
 20
-3.468621314739187
 30
0.0
 10
37.39999999999998
 20
-3.553811107501601
 30
0.0
 10
37.33696260714651
 20
-3.619762350828739
 30
0.0
 10
37.19059652859484
 20
-3.649815311398214
 30
0.0
 10
37.13373885496583
 20
-3.6489006143317
 30
0.0
 10
37.01471577967294
 20
-3.626456608928035
 30
0.0
 10
36.95326018372783
 20
-3.605368547006045
 30
0.0
 10
36.89200000000005
 20
-3.576145564753118
 30
0.0
  0
SPLINE
  5
AF
330
1F
100
AcDbEntity
  8
외형선
  6
Continuous
 62
     1
370
    15
100
AcDbSpline
210
0.0
220
0.0
230
1.0
 70
     8
 71
     3
 72
    18
 73
    14
 74
     0
 42
0.000000001
 43
0.00000001
 40
0.0
 40
0.0
 40
0.0
 40
0.0
 40
0.1012695323306827
 40
0.2024992108218858
 40
0.3037049698201415
 40
0.4049028347923589
 40
0.5061088613194926
 40
0.6073390738482509
 40
0.708609404692956
 40
0.8014747700917416
 40
0.894254344429802
 40
0.9870035796471598
 40
1.0
 40
1.0
 40
1.0
 40
1.0
 10
11.99999999999998
 20
-1.184852756412113
 30
0.0
 10
12.66405777964784
 20
-1.557629855974463
 30
0.0
 10
13.99191200415171
 20
-2.303037351561134
 30
0.0
 10
15.98319053975808
 20
-3.335677038414858
 30
0.0
 10
17.97392077966025
 20
-4.261927646793332
 30
0.0
 10
19.96446012249089
 20
-5.048135572830731
 30
0.0
 10
21.95519501834777
 20
-5.669471820063491
 30
0.0
 10
23.94649276459326
 20
-6.105813457805263
 30
0.0
 10
25.88328352191539
 20
-6.334746361125006
 30
0.0
 10
27.76476854818036
 20
-6.373734415892558
 30
0.0
 10
29.58988032309136
 20
-6.221245157284509
 30
0.0
 10
30.89128178209862
 20
-6.031046749487466
 30
0.0
 10
31.58455579379635
 20
-5.848364009463607
 30
0.0
 10
31.66976100082957
 20
-5.825911818234033
 30
0.0
  0
SPLINE
  5
B0
330
1F
100
AcDbEntity
  8
외형선
  6
Continuous
370
    15
100
AcDbSpline
210
0.0
220
0.0
230
1.0
 70
    24
 71
     3
 72
    22
 73
    18
 74
     0
 42
0.000000001
 43
0.00000001
 40
0.0
 40
0.0
 40
0.0
 40
0.0
 40
0.0851018234746521
 40
0.1526460908197971
 40
0.2221491464937273
 40
0.28969341383884
 40
0.359196469512735
 40
0.4267407368578471
 40
0.4962437925317407
 40
0.5637880598768594
 40
0.6332911155507468
 40
0.7008353828958602
 40
0.7703384385697559
 40
0.8378827059148664
 40
0.9073857615887624
 40
0.9749300289338758
 40
1.0
 40
1.0
 40
1.0
 40
1.0
 10
11.99999999999998
 20
3.677887215432847
 30
0.0
 10
11.99999999999997
 20
3.596376387386399
 30
0.0
 10
11.99999999999998
 20
3.450171420762141
 30
0.0
 10
12.00000000000004
 20
3.143261513921137
 30
0.0
 10
11.99999999999998
 20
2.815066426709457
 30
0.0
 10
12.00000000000004
 20
2.440842964410334
 30
0.0
 10
11.99999999999993
 20
2.039677202716093
 30
0.0
 10
12.00000000000004
 20
1.615231245337662
 30
0.0
 10
11.99999999999988
 20
1.187286676856218
 30
0.0
 10
12.00000000000003
 20
0.7602120795105382
 30
0.0
 10
12.00000000000001
 20
0.3538220687892439
 30
0.0
 10
11.99999999999997
 20
-0.0278119427524308
 30
0.0
 10
11.99999999999998
 20
-0.366591215171973
 30
0.0
 10
11.99999999999993
 20
-0.6606220264066163
 30
0.0
 10
12.00000000000001
 20
-0.8903379881678133
 30
0.0
 10
11.99999999999999
 20
-1.035769958798422
 30
0.0
 10
11.99999999999998
 20
-1.077811323988417
 30
0.0
 10
11.99999999999998
 20
-1.08919160230171
 30
0.0
  0
SPLINE
  5
B1
330
1F
100
AcDbEntity
  8
외형선
  6
Continuous
 62
     1
370
    15
100
AcDbSpline
210
0.0
220
0.0
230
1.0
 70
     8
 71
     3
 72
    20
 73
    16
 74
     0
 42
0.000000001
 43
0.00000001
 40
0.0
 40
0.0
 40
0.0
 40
0.0
 40
0.0486478113075185
 40
0.131417451310243
 40
0.2141629372934918
 40
0.2968780898931565
 40
0.3795759461420233
 40
0.4622696089851241
 40
0.544972197366023
 40
0.620821870245271
 40
0.6967163389574719
 40
0.7725410433648635
 40
0.8483318518552951
 40
0.9241358483203475
 40
1.0
 40
1.0
 40
1.0
 40
1.0
 10
36.07139922808732
 20
-6.350000000000005
 30
0.0
 10
35.6810455513184
 20
-6.327710349996678
 30
0.0
 10
34.62654209203065
 20
-6.335565292652712
 30
0.0
 10
32.90782502294766
 20
-6.116895035615448
 30
0.0
 10
30.91594114652586
 20
-5.698154574160039
 30
0.0
 10
28.92477329336569
 20
-5.083830460004018
 30
0.0
 10
26.93410361008155
 20
-4.305875412533561
 30
0.0
 10
24.94356509395738
 20
-3.38654136830147
 30
0.0
 10
23.007891469889
 20
-2.385149264788055
 30
0.0
 10
21.12681015846261
 20
-1.342466274543321
 30
0.0
 10
19.30043207837366
 20
-0.2943539602196817
 30
0.0
 10
17.47512510037294
 20
0.7630950547566032
 30
0.0
 10
15.65064240570292
 20
1.797392227415544
 30
0.0
 10
13.82583100626308
 20
2.789684558229604
 30
0.0
 10
12.6087712404238
 20
3.38174138839927
 30
0.0
 10
11.99999999999999
 20
3.677887215432855
 30
0.0
  0
LINE
  5
B2
330
1F
100
AcDbEntity
  8
외형선
  6
Continuous
370
    15
100
AcDbLine
 10
11.99999999999998
 20
3.677887215432857
 30
0.0
 11
11.99999999999998
 21
4.810255174432166
 31
0.0
  0
SPLINE
  5
B3
330
1F
100
AcDbEntity
  8
외형선
  6
Continuous
 62
     1
370
    15
100
AcDbSpline
210
0.0
220
0.0
230
1.0
 70
     8
 71
     3
 72
    14
 73
    10
 74
     0
 42
0.000000001
 43
0.00000001
 40
0.0
 40
0.0
 40
0.0
 40
0.0
 40
0.1275237371867124
 40
0.2729588924590368
 40
0.4184799398476172
 40
0.5638672202452907
 40
0.7091895081682569
 40
0.8545370828863251
 40
0.9999999999999999
 40
0.9999999999999999
 40
0.9999999999999999
 40
0.9999999999999999
 10
24.55381309835195
 20
-6.333638041209939
 30
0.0
 10
24.02017898205825
 20
-6.327381200360239
 30
0.0
 10
22.87795887013807
 20
-6.31398871056733
 30
0.0
 10
21.1268093805261
 20
-6.068697288520605
 30
0.0
 10
19.30043228665759
 20
-5.666663688939234
 30
0.0
 10
17.4751250446325
 20
-5.103537885947199
 30
0.0
 10
15.65064242056673
 20
-4.400319816313209
 30
0.0
 10
13.82583100254342
 20
-3.580874043467544
 30
0.0
 10
12.60877123918358
 20
-2.956370256338658
 30
0.0
 10
11.99999999999998
 20
-2.643994516205924
 30
0.0
  0
LINE
  5
B4
330
1F
100
AcDbEntity
  8
외형선
  6
Continuous
370
    15
100
AcDbLine
 10
12.0
 20
-2.643994516205924
 30
0.0
 11
11.99999999999999
 21
-1.184852756412115
 31
0.0
  0
LINE
  5
B5
330
1F
100
AcDbEntity
  8
외형선
  6
Continuous
 62
     1
370
    15
100
AcDbLine
 10
37.4
 20
-3.468621314739185
 30
0.0
 11
37.4
 21
-2.336711650503707
 31
0.0
  0
SPLINE
  5
B6
330
1F
100
AcDbEntity
  8
외형선
  6
Continuous
 62
     1
370
    15
100
AcDbSpline
210
0.0
220
0.0
230
1.0
 70
     8
 71
     3
 72
    12
 73
     8
 74
     0
 42
0.000000001
 43
0.00000001
 40
0.0
 40
0.0
 40
0.0
 40
0.0
 40
0.2444070224939122
 40
0.4887178604985908
 40
0.7329709704589474
 40
0.9772050287326309
 40
1.0
 40
1.0
 40
1.0
 40
1.0
 10
11.99999999999998
 20
-5.995107930844235
 30
0.0
 10
12.66405785809592
 20
-6.10220646393539
 30
0.0
 10
13.99191223946507
 20
-6.316361382320158
 30
0.0
 10
15.98318959902935
 20
-6.383492665665461
 30
0.0
 10
17.97392430639217
 20
-6.236592872827245
 30
0.0
 10
19.36284451842206
 20
-6.040024606286034
 30
0.0
 10
20.08826326867319
 20
-5.844656311064133
 30
0.0
 10
20.15018874395656
 20
-5.827978668622812
 30
0.0
  0
SPLINE
  5
B7
330
1F
100
AcDbEntity
  8
외형선
  6
Continuous
370
    15
100
AcDbSpline
210
0.0
220
0.0
230
1.0
 70
    24
 71
     3
 72
    16
 73
    12
 74
     0
 42
0.000000001
 43
0.00000001
 40
0.0
 40
0.0
 40
0.0
 40
0.0
 40
0.0644163709384082
 40
0.1829135720977394
 40
0.2980711944087344
 40
0.4165683955680801
 40
0.5317260178790699
 40
0.6502232190384161
 40
0.7653808413494113
 40
0.8838780425087557
 40
1.0
 40
1.0
 40
1.0
 40
1.0
 10
11.99999999999997
 20
-2.70189233414144
 30
0.0
 10
11.99999999999998
 20
-2.749473945408675
 30
0.0
 10
12.00000000000001
 20
-2.884584358433617
 30
0.0
 10
12.0
 20
-3.164334588952396
 30
0.0
 10
11.99999999999998
 20
-3.528363507392885
 30
0.0
 10
11.99999999999998
 20
-3.92470929814317
 30
0.0
 10
11.99999999999996
 20
-4.345867157545625
 30
0.0
 10
11.99999999999999
 20
-4.773472977080219
 30
0.0
 10
11.99999999999998
 20
-5.201982710739054
 30
0.0
 10
12.0
 20
-5.616098630192564
 30
0.0
 10
11.99999999999999
 20
-5.869627056565264
 30
0.0
 10
11.99999999999999
 20
-5.995107930844235
 30
0.0
  0
SPLINE
  5
B8
330
1F
100
AcDbEntity
  8
외형선
  6
Continuous
 62
     1
370
    15
100
AcDbSpline
210
0.0
220
0.0
230
1.0
 70
     8
 71
     3
 72
    14
 73
    10
 74
     0
 42
0.000000001
 43
0.00000001
 40
0.0
 40
0.0
 40
0.0
 40
0.0
 40
0.25
 40
0.25
 40
0.5
 40
0.5
 40
0.75
 40
0.75
 40
1.0
 40
1.0
 40
1.0
 40
1.0
 10
36.892
 20
4.045650538224439
 30
0.0
 10
36.95608107726652
 20
4.017137473692188
 30
0.0
 10
37.01700972166534
 20
3.980496754061591
 30
0.0
 10
37.1338438114002
 20
3.893029946821999
 30
0.0
 10
37.18846435262625
 20
3.84285172618584
 30
0.0
 10
37.28399744824755
 20
3.73565125460021
 30
0.0
 10
37.32503856410191
 20
3.678475609683169
 30
0.0
 10
37.38370835721355
 20
3.566056674279641
 30
0.0
 10
37.39999999999994
 20
3.513290713783958
 30
0.0
 10
37.39999999999996
 20
3.468621314739209
 30
0.0
  0
LINE
  5
B9
330
1F
100
AcDbEntity
  8
외형선
  6
Continuous
 62
     1
370
    15
100
AcDbLine
 10
37.4
 20
2.33671165050381
 30
0.0
 11
37.4
 21
3.468621314739207
 31
0.0
  0
SPLINE
  5
BA
330
1F
100
AcDbEntity
  8
외형선
  6
Continuous
 62
     1
370
    15
100
AcDbSpline
210
0.0
220
0.0
230
1.0
 70
     8
 71
     3
 72
    13
 73
     9
 74
     0
 42
0.000000001
 43
0.00000001
 40
0.0
 40
0.0
 40
0.0
 40
0.0
 40
0.0570727731040082
 40
0.2456114406686319
 40
0.4340884556827544
 40
0.6226209331180128
 40
0.811324318018855
 40
0.9999999999999999
 40
0.9999999999999999
 40
0.9999999999999999
 40
0.9999999999999999
 10
27.2127569189016
 20
6.331556237118082
 30
0.0
 10
27.39692475998652
 20
6.336836757466882
 30
0.0
 10
28.18948706795902
 20
6.359561362209414
 30
0.0
 10
29.5898550169134
 20
6.222668586215132
 30
0.0
 10
31.41432164038375
 20
5.921606209669395
 30
0.0
 10
33.23934240176055
 20
5.44276262938558
 30
0.0
 10
35.06554836382541
 20
4.826051290873066
 30
0.0
 10
36.28321258367161
 20
4.305771391410987
 30
0.0
 10
36.89200000000003
 20
4.045650538224431
 30
0.0
  0
SPLINE
  5
BB
330
1F
100
AcDbEntity
  8
외형선
  6
Continuous
 62
     1
370
    15
100
AcDbSpline
210
0.0
220
0.0
230
1.0
 70
     8
 71
     3
 72
    10
 73
     6
 74
     0
 42
0.000000001
 43
0.00000001
 40
0.0
 40
0.0
 40
0.0
 40
0.0
 40
0.3813986826441032
 40
0.7629510866389094
 40
1.0
 40
1.0
 40
1.0
 40
1.0
 10
36.9
 20
6.350000000000035
 30
0.0
 10
36.22812320569603
 20
6.339328670277308
 30
0.0
 10
34.90010204396275
 20
6.353331359529005
 30
0.0
 10
33.15918626979813
 20
6.16573552221768
 30
0.0
 10
32.08239063483985
 20
5.920056407777546
 30
0.0
 10
31.66976100082959
 20
5.825911818234028
 30
0.0
  0
LINE
  5
BD
330
1F
100
AcDbEntity
  8
외형선
  6
Continuous
 62
     1
370
    15
100
AcDbLine
 10
37.4
 20
3.452795650447103
 30
0.0
 11
37.4
 21
5.850000000000035
 31
0.0
  0
LINE
  5
BE
330
1F
100
AcDbEntity
  8
외형선
  6
Continuous
 62
     1
370
    15
100
AcDbLine
 10
13.03589824241724
 20
-6.328538433301953
 30
0.0
 11
11.99999999999998
 21
-6.321881731638806
 31
0.0
  0
LINE
  5
BF
330
1F
100
AcDbEntity
  8
외형선
  6
Continuous
370
    15
100
AcDbLine
 10
11.99999999999999
 20
-6.321881731638806
 30
0.0
 11
11.99999999999999
 21
-5.995107930844235
 31
0.0
  0
LINE
  5
C0
330
1F
100
AcDbEntity
  8
외형선
  6
Continuous
 62
     1
370
    15
100
AcDbLine
 10
37.39999999999981
 20
-5.849999999999932
 30
0.0
 11
37.4
 21
-5.805332965242973
 31
0.0
  0
LINE
  5
C1
330
1F
100
AcDbEntity
  8
외형선
  6
Continuous
 62
     1
370
    15
100
AcDbLine
 10
37.4
 20
5.805332965242972
 30
0.0
 11
37.4
 21
5.841999999999999
 31
0.0
  0
SPLINE
  5
C2
330
1F
100
AcDbEntity
  8
외형선
  6
Continuous
370
    15
100
AcDbSpline
210
0.0
220
0.0
230
1.0
 70
     8
 71
     3
 72
     8
 73
     4
 74
     0
 42
0.000000001
 43
0.00000001
 40
0.0
 40
0.0
 40
0.0
 40
0.0
 40
1.0
 40
1.0
 40
1.0
 40
1.0
 10
12.0
 20
6.321881731638795
 30
0.0
 10
11.9168455342444
 20
6.317354741339338
 30
0.0
 10
11.8335500285882
 20
6.312279710117878
 30
0.0
 10
11.75014553794754
 20
6.306656971365594
 30
0.0
  0
LINE
  5
C3
330
1F
100
AcDbEntity
  8
외형선
  6
Continuous
370
    15
100
AcDbLine
 10
11.75014553794754
 20
4.903350559927745
 30
0.0
 11
11.75014553794754
 21
6.349999999999994
 31
0.0
  0
SPLINE
  5
C4
330
1F
100
AcDbEntity
  8
외형선
  6
Continuous
370
    15
100
AcDbSpline
210
0.0
220
0.0
230
1.0
 70
     8
 71
     3
 72
     8
 73
     4
 74
     0
 42
0.000000001
 43
0.00000001
 40
0.0
 40
0.0
 40
0.0
 40
0.0
 40
1.0
 40
1.0
 40
1.0
 40
1.0
 10
11.99999999999999
 20
4.810255174432164
 30
0.0
 10
11.91684553424438
 20
4.841693265063792
 30
0.0
 10
11.83355002858819
 20
4.872734048910507
 30
0.0
 10
11.75014553794754
 20
4.903364229742129
 30
0.0
  0
SPLINE
  5
C5
330
1F
100
AcDbEntity
  8
외형선
  6
Continuous
370
    15
100
AcDbSpline
210
0.0
220
0.0
230
1.0
 70
     8
 71
     3
 72
     8
 73
     4
 74
     0
 42
0.000000001
 43
0.00000001
 40
0.0
 40
0.0
 40
0.0
 40
0.0
 40
1.0
 40
1.0
 40
1.0
 40
1.0
 10
12.0
 20
3.677887215432836
 30
0.0
 10
11.9168455342444
 20
3.717145094737393
 30
0.0
 10
11.8335500285882
 20
3.756107788373643
 30
0.0
 10
11.75014553794754
 20
3.794759217831016
 30
0.0
  0
LINE
  5
C6
330
1F
100
AcDbEntity
  8
외형선
  6
Continuous
370
    15
100
AcDbLine
 10
11.75014553794754
 20
-1.042568553091084
 30
0.0
 11
11.75014553794754
 21
3.794780267839948
 31
0.0
  0
SPLINE
  5
C7
330
1F
100
AcDbEntity
  8
외형선
  6
Continuous
370
    15
100
AcDbSpline
210
0.0
220
0.0
230
1.0
 70
     8
 71
     3
 72
     8
 73
     4
 74
     0
 42
0.000000001
 43
0.00000001
 40
0.0
 40
0.0
 40
0.0
 40
0.0
 40
1.0
 40
1.0
 40
1.0
 40
1.0
 10
11.99999999999999
 20
-1.184852756412113
 30
0.0
 10
11.91684553424438
 20
-1.13754052179023
 30
0.0
 10
11.83355002858819
 20
-1.090099343103342
 30
0.0
 10
11.75014553794754
 20
-1.042547331353724
 30
0.0
  0
SPLINE
  5
C8
330
1F
100
AcDbEntity
  8
외형선
  6
Continuous
370
    15
100
AcDbSpline
210
0.0
220
0.0
230
1.0
 70
     8
 71
     3
 72
     8
 73
     4
 74
     0
 42
0.000000001
 43
0.00000001
 40
0.0
 40
0.0
 40
0.0
 40
0.0
 40
1.0
 40
1.0
 40
1.0
 40
1.0
 10
12.0
 20
-2.643994516205938
 30
0.0
 10
11.9168455342444
 20
-2.600209646601927
 30
0.0
 10
11.8335500285882
 20
-2.556171921744219
 30
0.0
 10
11.75014553794754
 20
-2.511897753534561
 30
0.0
  0
SPLINE
  5
C9
330
1F
100
AcDbEntity
  8
외형선
  6
Continuous
370
    15
100
AcDbSpline
210
0.0
220
0.0
230
1.0
 70
     8
 71
     3
 72
     8
 73
     4
 74
     0
 42
0.000000001
 43
0.00000001
 40
0.0
 40
0.0
 40
0.0
 40
0.0
 40
1.0
 40
1.0
 40
1.0
 40
1.0
 10
11.99999999999999
 20
-5.995107930844233
 30
0.0
 10
11.91684553424438
 20
-5.97923378685398
 30
0.0
 10
11.83355002858819
 20
-5.962833392013806
 30
0.0
 10
11.75014553794754
 20
-5.945911561095809
 30
0.0
  0
SPLINE
  5
CA
330
1F
100
AcDbEntity
  8
외형선
  6
Continuous
370
    15
100
AcDbSpline
210
0.0
220
0.0
230
1.0
 70
     8
 71
     3
 72
     8
 73
     4
 74
     0
 42
0.000000001
 43
0.00000001
 40
0.0
 40
0.0
 40
0.0
 40
0.0
 40
1.0
 40
1.0
 40
1.0
 40
1.0
 10
12.0
 20
-6.321881731638801
 30
0.0
 10
11.9168455342444
 20
-6.317354741339347
 30
0.0
 10
11.8335500285882
 20
-6.312279710117888
 30
0.0
 10
11.75014553794754
 20
-6.306656971365605
 30
0.0
  0
LINE
  5
CB
330
1F
100
AcDbEntity
  8
외형선
  6
Continuous
370
    15
100
AcDbLine
 10
11.75014553794754
 20
-6.350000000000001
 30
0.0
 11
11.75014553794754
 21
-6.306653909099388
 31
0.0
  0
LINE
  5
CC
330
1F
100
AcDbEntity
  8
외형선
  6
Continuous
370
    15
100
AcDbLine
 10
-43.88000000000001
 20
-0.0000000000000029
 30
0.0
 11
-43.88000000000001
 21
6.349999999999994
 31
0.0
  0
LINE
  5
CD
330
1F
100
AcDbEntity
  8
외형선
  6
Continuous
370
    15
100
AcDbLine
 10
-43.88000000000001
 20
-6.350000000000001
 30
0.0
 11
-43.88000000000001
 21
-0.0000000000000029
 31
0.0
  0
LINE
  5
CE
330
1F
100
AcDbEntity
  8
외형선
  6
Continuous
370
    15
100
AcDbLine
 10
11.75014553794754
 20
-5.945919113018784
 30
0.0
 11
11.75014553794754
 21
-2.511873641259412
 31
0.0
  0
LINE
  5
CF
330
1F
100
AcDbEntity
  8
외형선
  6
Continuous
370
    15
100
AcDbLine
 10
-45.15000000000001
 20
-0.0000000000000029
 30
0.0
 11
-45.15000000000001
 21
5.08
 31
0.0
  0
LINE
  5
D0
330
1F
100
AcDbEntity
  8
외형선
  6
Continuous
370
    15
100
AcDbLine
 10
-45.15000000000001
 20
-5.080000000000005
 30
0.0
 11
-45.15000000000001
 21
-0.0000000000000029
 31
0.0
  0
SPLINE
  5
D1
330
1F
100
AcDbEntity
  8
외형선
  6
Continuous
370
    15
100
AcDbSpline
210
0.0
220
0.0
230
1.0
 70
    24
 71
     3
 72
    24
 73
    20
 74
     0
 42
0.000000001
 43
0.00000001
 40
0.0
 40
0.0
 40
0.0
 40
0.0
 40
0.0498080209819928
 40
0.1059207914186704
 40
0.1669318027104983
 40
0.2297121374629686
 40
0.290723148754797
 40
0.3535034835072673
 40
0.4145144947990708
 40
0.4772948295515663
 40
0.5383058408433933
 40
0.6010861755958631
 40
0.6620971868876898
 40
0.7248775216401592
 40
0.7858885329319512
 40
0.8486688676843824
 40
0.9096798789762477
 40
0.9724602137287589
 40
1.0
 40
1.0
 40
1.0
 40
1.0
 10
12.0
 20
-1.182730096882045
 30
0.0
 10
12.00000000000001
 20
-1.179161563578333
 30
0.0
 10
12.00000000000004
 20
-1.171572788431661
 30
0.0
 10
11.99999999999999
 20
-1.086181421928967
 30
0.0
 10
11.99999999999999
 20
-0.9361013303766965
 30
0.0
 10
12.00000000000001
 20
-0.7155247737915718
 30
0.0
 10
11.99999999999995
 20
-0.4343375059086061
 30
0.0
 10
11.99999999999999
 20
-0.10501117985115
 30
0.0
 10
11.99999999999993
 20
0.2689127431534298
 30
0.0
 10
12.00000000000003
 20
0.6701598734864945
 30
0.0
 10
11.99999999999993
 20
1.094583724911383
 30
0.0
 10
12.00000000000004
 20
1.522536414998783
 30
0.0
 10
12.00000000000001
 20
1.949601014086836
 30
0.0
 10
11.99999999999995
 20
2.35602337856627
 30
0.0
 10
12.00000000000001
 20
2.737539495939805
 30
0.0
 10
12.0
 20
3.076763678696889
 30
0.0
 10
11.99999999999998
 20
3.369153680771738
 30
0.0
 10
12.00000000000002
 20
3.562338708626402
 30
0.0
 10
11.99999999999998
 20
3.650887523557623
 30
0.0
 10
11.99999999999999
 20
3.677887215432882
 30
0.0
  0
SPLINE
  5
D2
330
1F
100
AcDbEntity
  8
외형선
  6
Continuous
370
    15
100
AcDbSpline
210
0.0
220
0.0
230
1.0
 70
    24
 71
     3
 72
    16
 73
    12
 74
     0
 42
0.000000001
 43
0.00000001
 40
0.0
 40
0.0
 40
0.0
 40
0.0
 40
0.1047805069646403
 40
0.2095610139292813
 40
0.3264632994722007
 40
0.44336558501512
 40
0.56026787055804
 40
0.6771701561009598
 40
0.7940724416438801
 40
0.9109747271868002
 40
0.9999999999999999
 40
0.9999999999999999
 40
0.9999999999999999
 40
0.9999999999999999
 10
11.99999999999999
 20
-5.995107930844233
 30
0.0
 10
11.99999999999999
 20
-5.882260034093285
 30
0.0
 10
12.0
 20
-5.656564240591392
 30
0.0
 10
11.99999999999998
 20
-5.274253039945618
 30
0.0
 10
12.00000000000001
 20
-4.864249860017788
 30
0.0
 10
11.99999999999998
 20
-4.434176008237456
 30
0.0
 10
12.0
 20
-4.011968895285586
 30
0.0
 10
11.99999999999997
 20
-3.608225128024186
 30
0.0
 10
11.99999999999999
 20
-3.237790086673654
 30
0.0
 10
12.00000000000002
 20
-2.927890349139031
 30
0.0
 10
12.00000000000001
 20
-2.770098072615162
 30
0.0
 10
12.00000000000001
 20
-2.70188233414144
 30
0.0
  0
SPLINE
  5
D3
330
1F
100
AcDbEntity
  8
외형선
  6
Continuous
370
    15
100
AcDbSpline
210
0.0
220
0.0
230
1.0
 70
    24
 71
     3
 72
    12
 73
     8
 74
     0
 42
0.000000001
 43
0.00000001
 40
0.0
 40
0.0
 40
0.0
 40
0.0
 40
0.0137538606832095
 40
0.3029343684928295
 40
0.5839649698257869
 40
0.8731454776357735
 40
0.9999999999999999
 40
0.9999999999999999
 40
0.9999999999999999
 40
0.9999999999999999
 10
12.0
 20
4.868142992367682
 30
0.0
 10
11.99999999999999
 20
4.873964123204985
 30
0.0
 10
12.00000000000005
 20
5.002176894493632
 30
0.0
 10
11.99999999999998
 20
5.282053048903007
 30
0.0
 10
11.99999999999994
 20
5.700036328204952
 30
0.0
 10
12.00000000000001
 20
6.051196672643426
 30
0.0
 10
11.99999999999999
 20
6.258631990122494
 30
0.0
 10
11.99999999999998
 20
6.321881731638875
 30
0.0
  0
LINE
  5
D4
330
1F
100
AcDbEntity
  8
중심선
 62
     1
100
AcDbLine
 10
-48.15000000000003
 20
-0.0000000000000033
 30
0.0
 11
40.39999999999999
 21
0.0000000000000032
 31
0.0
  0
LINE
  5
D5
330
1F
100
AcDbEntity
  8
참조1
100
AcDbLine
 10
-3.87500000000002
 20
-0.0000000000000073
 30
0.0
 11
-3.875000000000014
 21
-40.00000000000001
 31
0.0
  0
LINE
  5
D6
330
1F
100
AcDbEntity
  8
참조1
100
AcDbLine
 10
-3.875000000000014
 20
-40.00000000000001
 30
0.0
 11
-31.73385681430868
 21
-40.0
 31
0.0
  0
INSERT
  5
D8
330
1F
100
AcDbEntity
  8
0
  6
Continuous
 62
     7
100
AcDbBlockReference
 66
     1
  2
블럭10
 10
-17.81527293212523
 20
-52.04717430164393
 30
0.0
  0
ATTRIB
  5
D9
330
D8
100
AcDbEntity
  8
FORMAT
 62
     2
100
AcDbText
 10
-27.95690894426185
 20
-49.97180738881175
 30
0.0
 40
4.233333333333333
  1
EM668032 [ 6 FLUTE ]
 41
0.75
  7
SLDTEXTSTYLE0
 11
-27.95690894426185
 21
-52.08847405547841
 31
0.0
100
AcDbAttribute
  2
AUTOATTR0
 70
     0
 74
     1
  0
SEQEND
  5
DA
330
D8
100
AcDbEntity
  8
0
  6
Continuous
 62
     7
  0
HATCH
  5
DB
330
1F
100
AcDbEntity
  8
중심선
100
AcDbHatch
 10
0.0
 20
0.0
 30
0.0
210
0.0
220
0.0
230
1.0
  2
SOLID
 70
     1
 71
     0
 91
        1
 92
        0
 93
        4
 72
     1
 10
-12.10036362774439
 20
-35.8
 11
-15.54663887158167
 21
-35.8
 72
     1
 10
-15.54663887158167
 20
-35.8
 11
-17.67486873078569
 21
-38.3363255805726
 72
     1
 10
-17.67486873078569
 20
-38.3363255805726
 11
-14.22856040183526
 21
-38.33628615127011
 72
     1
 10
-14.22856040183526
 20
-38.33628615127011
 11
-12.10036362774439
 21
-35.8
 97
        0
 75
     0
 76
     1
 98
        1
 10
-10.70000000000002
 20
-0.0010749287238965
  0
HATCH
  5
DC
330
1F
100
AcDbEntity
  8
중심선
100
AcDbHatch
 10
0.0
 20
0.0
 30
0.0
210
0.0
220
0.0
230
1.0
  2
SOLID
 70
     1
 71
     0
 91
        1
 92
        0
 93
        4
 72
     1
 10
-7.08759963670841
 20
-35.8
 11
-10.53387488054569
 21
-35.8
 72
     1
 10
-10.53387488054569
 20
-35.8
 11
-15.06501288890311
 21
-41.20000000000002
 72
     1
 10
-15.06501288890311
 20
-41.20000000000002
 11
-11.61873764506583
 21
-41.20000000000002
 72
     1
 10
-11.61873764506583
 20
-41.20000000000002
 11
-7.08759963670841
 21
-35.8
 97
        0
 75
     0
 76
     1
 98
        1
 10
-10.70000000000002
 20
-0.0010749287238965
  0
HATCH
  5
DD
330
1F
100
AcDbEntity
  8
중심선
100
AcDbHatch
 10
0.0
 20
0.0
 30
0.0
210
0.0
220
0.0
230
1.0
  2
SOLID
 70
     1
 71
     0
 91
        1
 92
        0
 93
        4
 72
     1
 10
-2.074835645672486
 20
-35.79999999999998
 11
-5.521110889509631
 21
-35.8
 72
     1
 10
-5.521110889509631
 20
-35.8
 11
-12.56954779139891
 21
-44.20000000000002
 72
     1
 10
-12.56954779139891
 20
-44.20000000000002
 11
-9.123272547561625
 21
-44.20000000000002
 72
     1
 10
-9.123272547561625
 20
-44.20000000000002
 11
-2.074835645672486
 21
-35.79999999999998
 97
        0
 75
     0
 76
     1
 98
        1
 10
-10.70000000000002
 20
-0.0010749287238965
  0
HATCH
  5
DE
330
1F
100
AcDbEntity
  8
중심선
100
AcDbHatch
 10
0.0
 20
0.0
 30
0.0
210
0.0
220
0.0
230
1.0
  2
SOLID
 70
     1
 71
     0
 91
        1
 92
        0
 93
        6
 72
     3
 10
2.725054785339657
 20
-40.00000000005127
 11
3.960054785062285
 21
1.540882976769353E-10
 40
0.3939339440162626
 50
17.09539180608436
 51
320.0019657685082
 73
     0
 72
     1
 10
4.408054441040225
 20
-38.58789400463833
 11
6.71335631474129
 21
-36.65356729459038
 72
     3
 10
2.72505478528681
 20
-40.00000000000015
 11
6.600054785286828
 21
-1.278976924368180E-13
 40
0.6363583540795982
 50
39.9987384933741
 51
368.4976242363725
 73
     1
 72
     1
 10
9.15038727718742
 20
-39.03999999993002
 11
1.405122092122733
 21
-39.03999999993002
 72
     1
 10
1.405122092122733
 20
-39.03999999993002
 11
1.405097047676799
 21
-40.95999999992991
 72
     1
 10
1.405097047676799
 20
-40.95999999992991
 11
5.846476817148837
 21
-40.95999999992988
 97
        0
 75
     0
 76
     1
 98
        1
 10
-10.70000000000002
 20
-0.0010749287238965
  0
DIMENSION
  5
DF
330
1F
100
AcDbEntity
  8
치수문자_일반주서
100
AcDbDimension
  2
_D
 10
11.99999999999998
 20
16.85708107406849
 30
0.0
 11
24.69999999999998
 21
16.85708107406849
 31
0.0
 70
   160
  1
<>
 71
     2
 42
25.40000000000001
  3
SLDDIMSTYLE0
100
AcDbAlignedDimension
 13
37.39999999999999
 23
6.247388906920539
 33
0.0
 14
11.99999999999998
 24
6.321881731638875
 34
0.0
100
AcDbRotatedDimension
1001
PE_URL
1000

1001
ACAD
1000
DSTYLE
1002
{
1070
   171
1070
     6
1070
   273
1070
     7
1002
}
  0
DIMENSION
  5
F5
330
1F
100
AcDbEntity
  8
치수문자_일반주서
100
AcDbDimension
  2
_D_1
 10
-45.15000000000001
 20
29.35301217542758
 30
0.0
 11
-3.875000000000012
 21
29.35301217542758
 31
0.0
 70
   160
  1
<>
 71
     2
 42
82.55000000000001
  3
SLDDIMSTYLE0
100
AcDbAlignedDimension
 13
37.39999999999999
 23
6.247388906920539
 33
0.0
 14
-45.15000000000001
 24
5.08
 34
0.0
 50
0.0000000000000049
100
AcDbRotatedDimension
1001
PE_URL
1000

1001
ACAD
1000
DSTYLE
1002
{
1070
   171
1070
     6
1070
   273
1070
     7
1002
}
  0
DIMENSION
  5
109
330
1F
100
AcDbEntity
  8
치수문자_일반주서
100
AcDbDimension
  2
_D_2
 10
-57.51500000000001
 20
-6.35000000000005
 30
0.0
 11
-57.51500000000003
 21
-0.0000000000000081
 31
0.0
 70
   160
  1
%%c<>
 71
     2
 42
12.69999999999999
 52
-270.0
  3
SLDDIMSTYLE0
100
AcDbAlignedDimension
 13
-43.88000000000002
 23
6.349999999999991
 33
0.0
 14
-43.88000000000002
 24
-6.349999999999998
 34
0.0
 50
90.0000000000002
100
AcDbRotatedDimension
1001
ACAD
1000
DSTYLE
1002
{
1070
   171
1070
     6
1070
   273
1070
     7
1002
}
1001
ACAD_DSTYLE_DIMFLIPARROW_SYMBOL
1070
   385
1070
     0
1001
ACAD_DSTYLE_DIMFLIPARROW_WHICH_SYMBOL
1070
   386
1070
     3
  0
DIMENSION
  5
11D
330
1F
100
AcDbEntity
  8
치수문자_일반주서
100
AcDbDimension
  2
_D_3
 10
60.34129056267457
 20
-6.349999999999881
 30
0.0
 11
60.34129056267446
 21
26.29775000000012
 31
0.0
 70
   160
  1
%%c<>
 71
     2
 42
12.70000000000001
 52
-270.0
  3
SLDDIMSTYLE0
100
AcDbAlignedDimension
 13
37.39999999999999
 23
6.350000000000037
 33
0.0
 14
37.39999999999999
 24
-6.349999999999969
 34
0.0
 50
90.0000000000002
100
AcDbRotatedDimension
1001
PE_URL
1000

1001
ACAD
1000
DSTYLE
1002
{
1070
   171
1070
     6
1070
   273
1070
     7
1002
}
  0
LINE
  5
131
330
1F
100
AcDbEntity
  8
참조1
100
AcDbLine
 10
66.23848381534557
 20
7.44
 30
0.0
 11
66.23848381534557
 21
-7.440000000000005
 31
0.0
  0
LINE
  5
132
330
1F
100
AcDbEntity
  8
참조1
100
AcDbLine
 10
78.93848381534558
 20
5.44
 30
0.0
 11
66.23848381534557
 21
5.44
 31
0.0
  0
SOLID
  5
133
330
1F
100
AcDbEntity
  8
참조1
100
AcDbTrace
 10
66.23848381534557
 20
5.44
 30
0.0
 11
72.58848381534557
 21
4.423999999999999
 31
0.0
 12
72.58848381534557
 22
6.456
 32
0.0
 13
72.58848381534557
 23
6.456
 33
0.0
  0
LINE
  5
134
330
1F
100
AcDbEntity
  8
참조1
100
AcDbLine
 10
78.93848381534558
 20
-5.440000000000005
 30
0.0
 11
66.23848381534557
 21
-5.440000000000005
 31
0.0
  0
SOLID
  5
135
330
1F
100
AcDbEntity
  8
참조1
100
AcDbTrace
 10
66.23848381534557
 20
-5.440000000000005
 30
0.0
 11
72.58848381534557
 21
-6.456000000000005
 31
0.0
 12
72.58848381534557
 22
-4.424000000000005
 32
0.0
 13
72.58848381534557
 23
-4.424000000000005
 33
0.0
  0
MTEXT
  5
136
330
1F
100
AcDbEntity
  8
참조1
100
AcDbMText
 10
75.63597390781585
 20
10.98821664464993
 30
0.0
 40
3.5
 41
0.0
 71
     1
 72
     1
  1
A
  7
SLDTEXTSTYLE0
 73
     1
 44
1.0
  0
MTEXT
  5
137
330
1F
100
AcDbEntity
  8
참조1
100
AcDbMText
 10
75.63597390781585
 20
0.1082166446499294
 30
0.0
 40
3.5
 41
0.0
 71
     1
 72
     1
  1
A
  7
SLDTEXTSTYLE0
 73
     1
 44
1.0
  0
INSERT
  5
13E
330
1F
100
AcDbEntity
  8
해칭선
100
AcDbBlockReference
  2
SW_DOWELSYMBOL_0
 10
0.0
 20
0.0
 30
0.0
  0
ARC
  5
16E
330
1F
100
AcDbEntity
  8
0
 62
     1
100
AcDbCircle
 10
36.9
 20
5.850000000000035
 30
0.0
 40
0.5
100
AcDbArc
 50
0.0
 51
91.79681269467099
  0
ARC
  5
16F
330
1F
100
AcDbEntity
  8
0
 62
     1
100
AcDbCircle
 10
36.89999999999981
 20
-5.849999999999916
 30
0.0
 40
0.5
100
AcDbArc
 50
268.2031873053273
 51
359.9999999999982
  0
MTEXT
  5
19B
102
{ACAD_REACTORS
330
19C
102
}
330
1F
100
AcDbEntity
  8
치수문자_일반주서
100
AcDbMText
 10
48.77100580637216
 20
-23.5316941713838
 30
0.0
 40
3.5
 41
0.0
 71
     7
 72
     1
  1
{R0.50[.020"]}
 73
     1
 44
1.0
1001
PE_URL
1000

1001
ACAD
1000
ACAD_MTEXT_DEFINED_HEIGHT_BEGIN
1070
    46
1040
3.5
1000
ACAD_MTEXT_DEFINED_HEIGHT_END
  0
LEADER
  5
19C
102
{ACAD_XDICTIONARY
360
19D
102
}
330
1F
100
AcDbEntity
  8
치수문자_일반주서
100
AcDbLeader
  3
ISO-25
 73
     0
 74
     0
 75
     1
 40
3.5
 41
30.33333333333334
 76
     3
 10
37.24796638531833
 20
-6.209053470514215
 30
0.0
 10
43.94500580637216
 20
-21.7816941713838
 30
0.0
 10
47.24700580637216
 20
-21.7816941713838
 30
0.0
340
19B
213
0.0
223
1.75
233
0.0
1001
ACAD
1000
DSTYLE
1002
{
1070
    77
1070
     0
1070
   179
1070
     2
1070
   143
1040
0.0393700787401575
1070
    41
1040
3.302
1070
    44
1040
1.0
1070
    42
1040
1.0
1070
   147
1040
1.524
1070
    73
1070
     1
1070
    74
1070
     1
1070
   140
1040
3.5
1070
   284
1070
     0
1070
    78
1070
     0
1002
}
1001
PE_URL
1000

  0
ENDSEC
  0
SECTION
  2
OBJECTS
  0
DICTIONARY
  5
C
330
0
100
AcDbDictionary
281
     1
  3
ACAD_DETAILVIEWSTYLE
350
16C
  3
ACAD_GROUP
350
D
  3
ACAD_LAYOUT
350
1A
  3
ACAD_MLINESTYLE
350
17
  3
ACAD_PLOTSETTINGS
350
19
  3
ACAD_PLOTSTYLENAME
350
E
  3
ACAD_SCALELIST
350
47
  3
ACAD_SECTIONVIEWSTYLE
350
16D
  3
AcDbVariableDictionary
350
167
  3
APPDATA
350
160
  3
DWGPROPS
350
19E
  0
DICTIONARY
  5
19D
330
19C
100
AcDbDictionary
280
     1
281
     1
  0
DICTIONARY
  5
16C
102
{ACAD_REACTORS
330
C
102
}
330
C
100
AcDbDictionary
281
     1
  0
DICTIONARY
  5
D
102
{ACAD_REACTORS
330
C
102
}
330
C
100
AcDbDictionary
281
     1
  0
DICTIONARY
  5
1A
102
{ACAD_REACTORS
330
C
102
}
330
C
100
AcDbDictionary
281
     1
  3
Layout1
350
1E
  3
Layout2
350
26
  3
Model
350
22
  0
DICTIONARY
  5
17
102
{ACAD_REACTORS
330
C
102
}
330
C
100
AcDbDictionary
281
     1
  3
Standard
350
18
  0
DICTIONARY
  5
19
102
{ACAD_REACTORS
330
C
102
}
330
C
100
AcDbDictionary
281
     1
  0
ACDBDICTIONARYWDFLT
  5
E
102
{ACAD_REACTORS
330
C
102
}
330
C
100
AcDbDictionary
281
     1
  3
Normal
350
F
100
AcDbDictionaryWithDefault
340
F
  0
DICTIONARY
  5
47
102
{ACAD_REACTORS
330
C
102
}
330
C
100
AcDbDictionary
281
     1
  3
A0
350
48
  3
A1
350
49
  3
A2
350
4A
  3
A3
350
4B
  3
A4
350
4C
  3
A5
350
4D
  3
A6
350
4E
  3
A7
350
4F
  3
A8
350
50
  3
A9
350
51
  3
B0
350
52
  3
B1
350
53
  3
B2
350
54
  3
B3
350
55
  3
B4
350
56
  3
B5
350
57
  3
B6
350
58
  3
B7
350
59
  3
B8
350
5A
  3
B9
350
5B
  3
C0
350
5C
  3
C1
350
5D
  3
C2
350
5E
  3
C3
350
5F
  3
C4
350
60
  3
C5
350
61
  3
C6
350
62
  3
C7
350
63
  3
C8
350
64
  3
C9
350
65
  3
D0
350
66
  3
D1
350
67
  3
D2
350
68
  0
DICTIONARY
  5
16D
102
{ACAD_REACTORS
330
C
102
}
330
C
100
AcDbDictionary
281
     1
  0
DICTIONARY
  5
167
102
{ACAD_REACTORS
330
C
102
}
330
C
100
AcDbDictionary
281
     1
  0
DICTIONARY
  5
160
102
{ACAD_REACTORS
330
C
102
}
330
C
100
AcDbDictionary
281
     1
  0
XRECORD
  5
19E
102
{ACAD_REACTORS
330
C
102
}
330
C
100
AcDbXrecord
280
     1
  1
DWGPROPS COOKIE
  2

  3

  4

  6

  7

  8
H
  9

300
=
301
=
302
=
303
=
304
=
305
=
306
=
307
=
308
=
309
=
 40
0.0
 41
2458295.114619364
 42
2458301.583687535
  1

 90
        0
  0
LAYOUT
  5
1E
102
{ACAD_REACTORS
330
1A
102
}
330
1A
100
AcDbPlotSettings
  1

  2
none_device
  4

  6

 40
0.0
 41
0.0
 42
0.0
 43
0.0
 44
0.0
 45
0.0
 46
0.0
 47
0.0
 48
0.0
 49
0.0
140
0.0
141
0.0
142
1.0
143
1.0
 70
   688
 72
     1
 73
     0
 74
     5
  7

 75
    16
147
1.0
148
0.0
149
0.0
100
AcDbLayout
  1
Layout1
 70
     1
 71
     1
 10
0.0
 20
0.0
 11
420.0
 21
297.0
 12
0.0
 22
0.0
 32
0.0
 14
1.000000000000000E+20
 24
1.000000000000000E+20
 34
1.000000000000000E+20
 15
-1.000000000000000E+20
 25
-1.000000000000000E+20
 35
-1.000000000000000E+20
146
0.0
 13
0.0
 23
0.0
 33
0.0
 16
1.0
 26
0.0
 36
0.0
 17
0.0
 27
1.0
 37
0.0
 76
     0
330
1B
  0
LAYOUT
  5
26
102
{ACAD_REACTORS
330
1A
102
}
330
1A
100
AcDbPlotSettings
  1

  2
none_device
  4

  6

 40
0.0
 41
0.0
 42
0.0
 43
0.0
 44
0.0
 45
0.0
 46
0.0
 47
0.0
 48
0.0
 49
0.0
140
0.0
141
0.0
142
1.0
143
1.0
 70
   688
 72
     1
 73
     0
 74
     5
  7

 75
    16
147
1.0
148
0.0
149
0.0
100
AcDbLayout
  1
Layout2
 70
     1
 71
     2
 10
0.0
 20
0.0
 11
0.0
 21
0.0
 12
0.0
 22
0.0
 32
0.0
 14
0.0
 24
0.0
 34
0.0
 15
0.0
 25
0.0
 35
0.0
146
0.0
 13
0.0
 23
0.0
 33
0.0
 16
1.0
 26
0.0
 36
0.0
 17
0.0
 27
1.0
 37
0.0
 76
     0
330
23
  0
LAYOUT
  5
22
102
{ACAD_REACTORS
330
1A
102
}
330
1A
100
AcDbPlotSettings
  1

  2
none_device
  4
ANSI_A_(11.00_x_8.50_Inches)
  6

 40
6.35
 41
19.05
 42
6.35000508
 43
19.05000254
 44
279.4
 45
215.9
 46
103.2648517509499
 47
98.82587140508382
 48
0.0
 49
0.0
140
0.0
141
0.0
142
0.0739576828310821
143
1.0
 70
  1696
 72
     0
 73
     0
 74
     0
  7

 75
     0
147
0.0235690232323232
148
0.0
149
0.0
100
AcDbLayout
  1
Model
 70
     1
 71
     0
 10
0.0
 20
0.0
 11
420.0
 21
297.0
 12
0.0
 22
0.0
 32
0.0
 14
-61.89000000000007
 24
-49.97180738881175
 34
0.0
 15
79.1043391397055
 25
39.64150000000012
 35
0.0
146
0.0
 13
0.0
 23
0.0
 33
0.0
 16
1.0
 26
0.0
 36
0.0
 17
0.0
 27
1.0
 37
0.0
 76
     0
330
1F
331
29
  0
MLINESTYLE
  5
18
102
{ACAD_REACTORS
330
17
102
}
330
17
100
AcDbMlineStyle
  2
Standard
 70
     0
  3

 62
   256
 51
90.0
 52
90.0
 71
     2
 49
0.5
 62
   256
  6
BYLAYER
 49
-0.5
 62
   256
  6
BYLAYER
  0
ACDBPLACEHOLDER
  5
F
102
{ACAD_REACTORS
330
E
102
}
330
E
  0
SCALE
  5
48
102
{ACAD_REACTORS
330
47
102
}
330
47
100
AcDbScale
 70
     0
300
1:1
140
1.0
141
1.0
290
     1
  0
SCALE
  5
49
102
{ACAD_REACTORS
330
47
102
}
330
47
100
AcDbScale
 70
     0
300
1:2
140
1.0
141
2.0
290
     0
  0
SCALE
  5
4A
102
{ACAD_REACTORS
330
47
102
}
330
47
100
AcDbScale
 70
     0
300
1:4
140
1.0
141
4.0
290
     0
  0
SCALE
  5
4B
102
{ACAD_REACTORS
330
47
102
}
330
47
100
AcDbScale
 70
     0
300
1:5
140
1.0
141
5.0
290
     0
  0
SCALE
  5
4C
102
{ACAD_REACTORS
330
47
102
}
330
47
100
AcDbScale
 70
     0
300
1:8
140
1.0
141
8.0
290
     0
  0
SCALE
  5
4D
102
{ACAD_REACTORS
330
47
102
}
330
47
100
AcDbScale
 70
     0
300
1:10
140
1.0
141
10.0
290
     0
  0
SCALE
  5
4E
102
{ACAD_REACTORS
330
47
102
}
330
47
100
AcDbScale
 70
     0
300
1:16
140
1.0
141
16.0
290
     0
  0
SCALE
  5
4F
102
{ACAD_REACTORS
330
47
102
}
330
47
100
AcDbScale
 70
     0
300
1:20
140
1.0
141
20.0
290
     0
  0
SCALE
  5
50
102
{ACAD_REACTORS
330
47
102
}
330
47
100
AcDbScale
 70
     0
300
1:30
140
1.0
141
30.0
290
     0
  0
SCALE
  5
51
102
{ACAD_REACTORS
330
47
102
}
330
47
100
AcDbScale
 70
     0
300
1:40
140
1.0
141
40.0
290
     0
  0
SCALE
  5
52
102
{ACAD_REACTORS
330
47
102
}
330
47
100
AcDbScale
 70
     0
300
1:50
140
1.0
141
50.0
290
     0
  0
SCALE
  5
53
102
{ACAD_REACTORS
330
47
102
}
330
47
100
AcDbScale
 70
     0
300
1:100
140
1.0
141
100.0
290
     0
  0
SCALE
  5
54
102
{ACAD_REACTORS
330
47
102
}
330
47
100
AcDbScale
 70
     0
300
2:1
140
2.0
141
1.0
290
     0
  0
SCALE
  5
55
102
{ACAD_REACTORS
330
47
102
}
330
47
100
AcDbScale
 70
     0
300
4:1
140
4.0
141
1.0
290
     0
  0
SCALE
  5
56
102
{ACAD_REACTORS
330
47
102
}
330
47
100
AcDbScale
 70
     0
300
8:1
140
8.0
141
1.0
290
     0
  0
SCALE
  5
57
102
{ACAD_REACTORS
330
47
102
}
330
47
100
AcDbScale
 70
     0
300
10:1
140
10.0
141
1.0
290
     0
  0
SCALE
  5
58
102
{ACAD_REACTORS
330
47
102
}
330
47
100
AcDbScale
 70
     0
300
100:1
140
100.0
141
1.0
290
     0
  0
SCALE
  5
59
102
{ACAD_REACTORS
330
47
102
}
330
47
100
AcDbScale
 70
     0
300
1/128" = 1'-0"
140
0.0078125
141
12.0
290
     0
  0
SCALE
  5
5A
102
{ACAD_REACTORS
330
47
102
}
330
47
100
AcDbScale
 70
     0
300
1/64" = 1'-0"
140
0.015625
141
12.0
290
     0
  0
SCALE
  5
5B
102
{ACAD_REACTORS
330
47
102
}
330
47
100
AcDbScale
 70
     0
300
1/32" = 1'-0"
140
0.03125
141
12.0
290
     0
  0
SCALE
  5
5C
102
{ACAD_REACTORS
330
47
102
}
330
47
100
AcDbScale
 70
     0
300
1/16" = 1'-0"
140
0.0625
141
12.0
290
     0
  0
SCALE
  5
5D
102
{ACAD_REACTORS
330
47
102
}
330
47
100
AcDbScale
 70
     0
300
3/32" = 1'-0"
140
0.09375
141
12.0
290
     0
  0
SCALE
  5
5E
102
{ACAD_REACTORS
330
47
102
}
330
47
100
AcDbScale
 70
     0
300
1/8" = 1'-0"
140
0.125
141
12.0
290
     0
  0
SCALE
  5
5F
102
{ACAD_REACTORS
330
47
102
}
330
47
100
AcDbScale
 70
     0
300
3/16" = 1'-0"
140
0.1875
141
12.0
290
     0
  0
SCALE
  5
60
102
{ACAD_REACTORS
330
47
102
}
330
47
100
AcDbScale
 70
     0
300
1/4" = 1'-0"
140
0.25
141
12.0
290
     0
  0
SCALE
  5
61
102
{ACAD_REACTORS
330
47
102
}
330
47
100
AcDbScale
 70
     0
300
3/8" = 1'-0"
140
0.375
141
12.0
290
     0
  0
SCALE
  5
62
102
{ACAD_REACTORS
330
47
102
}
330
47
100
AcDbScale
 70
     0
300
1/2" = 1'-0"
140
0.5
141
12.0
290
     0
  0
SCALE
  5
63
102
{ACAD_REACTORS
330
47
102
}
330
47
100
AcDbScale
 70
     0
300
3/4" = 1'-0"
140
0.75
141
12.0
290
     0
  0
SCALE
  5
64
102
{ACAD_REACTORS
330
47
102
}
330
47
100
AcDbScale
 70
     0
300
1" = 1'-0"
140
1.0
141
12.0
290
     0
  0
SCALE
  5
65
102
{ACAD_REACTORS
330
47
102
}
330
47
100
AcDbScale
 70
     0
300
1-1/2" = 1'-0"
140
1.5
141
12.0
290
     0
  0
SCALE
  5
66
102
{ACAD_REACTORS
330
47
102
}
330
47
100
AcDbScale
 70
     0
300
3" = 1'-0"
140
3.0
141
12.0
290
     0
  0
SCALE
  5
67
102
{ACAD_REACTORS
330
47
102
}
330
47
100
AcDbScale
 70
     0
300
6" = 1'-0"
140
6.0
141
12.0
290
     0
  0
SCALE
  5
68
102
{ACAD_REACTORS
330
47
102
}
330
47
100
AcDbScale
 70
     0
300
1'-0" = 1'-0"
140
12.0
141
12.0
290
     0
  0
ENDSEC
  0
EOF
