  0
SECTION
  2
HEADER
  9
$ACADVER
  1
AC1015
  9
$ACADMAINTVER
 70
     6
  9
$DWGCODEPAGE
  3
ANSI_949
  9
$INSBASE
 10
0.0
 20
0.0
 30
0.0
  9
$EXTMIN
 10
-64.74750000000006
 20
-49.97180738881175
 30
0.0
  9
$EXTMAX
 10
84.93244298246628
 20
42.54150000000014
 30
0.0
  9
$LIMMIN
 10
0.0
 20
0.0
  9
$LIMMAX
 10
420.0
 20
297.0
  9
$ORTHOMODE
 70
     1
  9
$REGENMODE
 70
     1
  9
$FILLMODE
 70
     1
  9
$QTEXTMODE
 70
     0
  9
$MIRRTEXT
 70
     1
  9
$LTSCALE
 40
1.0
  9
$ATTMODE
 70
     1
  9
$TEXTSIZE
 40
3.5
  9
$TRACEWID
 40
1.0
  9
$TEXTSTYLE
  7
Standard
  9
$CLAYER
  8
0
  9
$CELTYPE
  6
ByLayer
  9
$CECOLOR
 62
   256
  9
$CELTSCALE
 40
1.0
  9
$DISPSILH
 70
     0
  9
$DIMSCALE
 40
1.0
  9
$DIMASZ
 40
3.302
  9
$DIMEXO
 40
1.0
  9
$DIMDLI
 40
3.75
  9
$DIMRND
 40
0.0
  9
$DIMDLE
 40
0.0
  9
$DIMEXE
 40
1.0
  9
$DIMTP
 40
0.0
  9
$DIMTM
 40
0.0
  9
$DIMTXT
 40
3.5
  9
$DIMCEN
 40
2.5
  9
$DIMTSZ
 40
0.0
  9
$DIMTOL
 70
     0
  9
$DIMLIM
 70
     0
  9
$DIMTIH
 70
     1
  9
$DIMTOH
 70
     1
  9
$DIMSE1
 70
     0
  9
$DIMSE2
 70
     0
  9
$DIMTAD
 70
     1
  9
$DIMZIN
 70
     0
  9
$DIMBLK
  1

  9
$DIMASO
 70
     1
  9
$DIMSHO
 70
     1
  9
$DIMPOST
  1

  9
$DIMAPOST
  1

  9
$DIMALT
 70
     0
  9
$DIMALTD
 70
     3
  9
$DIMALTF
 40
0.0393700787401575
  9
$DIMLFAC
 40
1.0
  9
$DIMTOFL
 70
     1
  9
$DIMTVP
 40
0.0
  9
$DIMTIX
 70
     0
  9
$DIMSOXD
 70
     0
  9
$DIMSAH
 70
     0
  9
$DIMBLK1
  1

  9
$DIMBLK2
  1

  9
$DIMSTYLE
  2
ISO-25
  9
$DIMCLRD
 70
     0
  9
$DIMCLRE
 70
     0
  9
$DIMCLRT
 70
     0
  9
$DIMTFAC
 40
1.0
  9
$DIMGAP
 40
1.524
  9
$DIMJUST
 70
     0
  9
$DIMSD1
 70
     0
  9
$DIMSD2
 70
     0
  9
$DIMTOLJ
 70
     0
  9
$DIMTZIN
 70
     0
  9
$DIMALTZ
 70
     0
  9
$DIMALTTZ
 70
     0
  9
$DIMUPT
 70
     0
  9
$DIMDEC
 70
     2
  9
$DIMTDEC
 70
     2
  9
$DIMALTU
 70
     2
  9
$DIMALTTD
 70
     3
  9
$DIMTXSTY
  7
Standard
  9
$DIMAUNIT
 70
     0
  9
$DIMADEC
 70
     2
  9
$DIMALTRND
 40
0.0
  9
$DIMAZIN
 70
     0
  9
$DIMDSEP
 70
    44
  9
$DIMATFIT
 70
     3
  9
$DIMFRAC
 70
     0
  9
$DIMLDRBLK
  1

  9
$DIMLUNIT
 70
     2
  9
$DIMLWD
 70
    -2
  9
$DIMLWE
 70
    -2
  9
$DIMTMOVE
 70
     0
  9
$LUNITS
 70
     2
  9
$LUPREC
 70
     2
  9
$SKETCHINC
 40
1.0
  9
$FILLETRAD
 40
10.0
  9
$AUNITS
 70
     0
  9
$AUPREC
 70
     2
  9
$MENU
  1
.
  9
$ELEVATION
 40
0.0
  9
$PELEVATION
 40
0.0
  9
$THICKNESS
 40
0.0
  9
$LIMCHECK
 70
     0
  9
$CHAMFERA
 40
0.0
  9
$CHAMFERB
 40
0.0
  9
$CHAMFERC
 40
0.0
  9
$CHAMFERD
 40
0.0
  9
$SKPOLY
 70
     0
  9
$TDCREATE
 40
2458295.489808229
  9
$TDUCREATE
 40
2458295.114808229
  9
$TDUPDATE
 40
2458301.964304271
  9
$TDUUPDATE
 40
2458301.589304271
  9
$TDINDWG
 40
0.0048617477
  9
$TDUSRTIMER
 40
0.0048617361
  9
$USRTIMER
 70
     1
  9
$ANGBASE
 50
0.0
  9
$ANGDIR
 70
     0
  9
$PDMODE
 70
     0
  9
$PDSIZE
 40
-1.0
  9
$PLINEWID
 40
0.0
  9
$SPLFRAME
 70
     0
  9
$SPLINETYPE
 70
     6
  9
$SPLINESEGS
 70
     8
  9
$HANDSEED
  5
195
  9
$SURFTAB1
 70
     6
  9
$SURFTAB2
 70
     6
  9
$SURFTYPE
 70
     6
  9
$SURFU
 70
     6
  9
$SURFV
 70
     6
  9
$UCSBASE
  2

  9
$UCSNAME
  2

  9
$UCSORG
 10
0.0
 20
0.0
 30
0.0
  9
$UCSXDIR
 10
1.0
 20
0.0
 30
0.0
  9
$UCSYDIR
 10
0.0
 20
1.0
 30
0.0
  9
$UCSORTHOREF
  2

  9
$UCSORTHOVIEW
 70
     0
  9
$UCSORGTOP
 10
0.0
 20
0.0
 30
0.0
  9
$UCSORGBOTTOM
 10
0.0
 20
0.0
 30
0.0
  9
$UCSORGLEFT
 10
0.0
 20
0.0
 30
0.0
  9
$UCSORGRIGHT
 10
0.0
 20
0.0
 30
0.0
  9
$UCSORGFRONT
 10
0.0
 20
0.0
 30
0.0
  9
$UCSORGBACK
 10
0.0
 20
0.0
 30
0.0
  9
$PUCSBASE
  2

  9
$PUCSNAME
  2

  9
$PUCSORG
 10
0.0
 20
0.0
 30
0.0
  9
$PUCSXDIR
 10
1.0
 20
0.0
 30
0.0
  9
$PUCSYDIR
 10
0.0
 20
1.0
 30
0.0
  9
$PUCSORTHOREF
  2

  9
$PUCSORTHOVIEW
 70
     0
  9
$PUCSORGTOP
 10
0.0
 20
0.0
 30
0.0
  9
$PUCSORGBOTTOM
 10
0.0
 20
0.0
 30
0.0
  9
$PUCSORGLEFT
 10
0.0
 20
0.0
 30
0.0
  9
$PUCSORGRIGHT
 10
0.0
 20
0.0
 30
0.0
  9
$PUCSORGFRONT
 10
0.0
 20
0.0
 30
0.0
  9
$PUCSORGBACK
 10
0.0
 20
0.0
 30
0.0
  9
$USERI1
 70
     0
  9
$USERI2
 70
     0
  9
$USERI3
 70
     0
  9
$USERI4
 70
     0
  9
$USERI5
 70
     0
  9
$USERR1
 40
0.0
  9
$USERR2
 40
0.0
  9
$USERR3
 40
0.0
  9
$USERR4
 40
0.0
  9
$USERR5
 40
0.0
  9
$WORLDVIEW
 70
     1
  9
$SHADEDGE
 70
     3
  9
$SHADEDIF
 70
    70
  9
$TILEMODE
 70
     1
  9
$MAXACTVP
 70
    64
  9
$PINSBASE
 10
0.0
 20
0.0
 30
0.0
  9
$PLIMCHECK
 70
     0
  9
$PEXTMIN
 10
1.000000000000000E+20
 20
1.000000000000000E+20
 30
1.000000000000000E+20
  9
$PEXTMAX
 10
-1.000000000000000E+20
 20
-1.000000000000000E+20
 30
-1.000000000000000E+20
  9
$PLIMMIN
 10
0.0
 20
0.0
  9
$PLIMMAX
 10
0.0
 20
0.0
  9
$UNITMODE
 70
     0
  9
$VISRETAIN
 70
     1
  9
$PLINEGEN
 70
     0
  9
$PSLTSCALE
 70
     1
  9
$TREEDEPTH
 70
  3020
  9
$CMLSTYLE
  2
Standard
  9
$CMLJUST
 70
     0
  9
$CMLSCALE
 40
20.0
  9
$PROXYGRAPHICS
 70
     1
  9
$MEASUREMENT
 70
     1
  9
$CELWEIGHT
370
    -1
  9
$ENDCAPS
280
     0
  9
$JOINSTYLE
280
     0
  9
$LWDISPLAY
290
     1
  9
$INSUNITS
 70
     4
  9
$HYPERLINKBASE
  1

  9
$STYLESHEET
  1

  9
$XEDIT
290
     1
  9
$CEPSNTYPE
380
     0
  9
$PSTYLEMODE
290
     1
  9
$FINGERPRINTGUID
  2
{4A634302-8559-410B-9600-8CEA8319970F}
  9
$VERSIONGUID
  2
{FAEB1C32-E019-11D5-929B-00C0DF256EC4}
  9
$EXTNAMES
290
     1
  9
$PSVPSCALE
 40
0.0
  9
$OLESTARTUP
290
     0
  0
ENDSEC
  0
SECTION
  2
CLASSES
  0
CLASS
  1
ACDBDICTIONARYWDFLT
  2
AcDbDictionaryWithDefault
  3
ObjectDBX Classes
 90
        0
280
     0
281
     0
  0
CLASS
  1
VISUALSTYLE
  2
AcDbVisualStyle
  3
ObjectDBX Classes
 90
     4095
280
     0
281
     0
  0
CLASS
  1
MATERIAL
  2
AcDbMaterial
  3
ObjectDBX Classes
 90
     1153
280
     0
281
     0
  0
CLASS
  1
SCALE
  2
AcDbScale
  3
ObjectDBX Classes
 90
     1153
280
     0
281
     0
  0
CLASS
  1
SUN
  2
AcDbSun
  3
SCENEOE
 90
     1153
280
     0
281
     0
  0
CLASS
  1
ACDBPLACEHOLDER
  2
AcDbPlaceHolder
  3
ObjectDBX Classes
 90
        0
280
     0
281
     0
  0
CLASS
  1
LAYOUT
  2
AcDbLayout
  3
ObjectDBX Classes
 90
        0
280
     0
281
     0
  0
CLASS
  1
TABLESTYLE
  2
AcDbTableStyle
  3
ObjectDBX Classes
 90
     4095
280
     0
281
     0
  0
CLASS
  1
MLEADERSTYLE
  2
AcDbMLeaderStyle
  3
ACDB_MLEADERSTYLE_CLASS
 90
     4095
280
     0
281
     0
  0
ENDSEC
  0
SECTION
  2
TABLES
  0
TABLE
  2
VPORT
  5
8
330
0
100
AcDbSymbolTable
 70
     1
  0
VPORT
  5
29
330
8
100
AcDbSymbolTableRecord
100
AcDbViewportTableRecord
  2
*Active
 70
     0
 10
0.0
 20
0.0
 11
1.0
 21
1.0
 12
10.09247149123311
 22
-3.715153694405807
 13
0.0
 23
0.0
 14
10.0
 24
10.0
 15
10.0
 25
10.0
 16
0.0
 26
0.0
 36
1.0
 17
0.0
 27
0.0
 37
0.0
 40
94.36357353658812
 41
2.400311526479751
 42
50.0
 43
0.0
 44
0.0
 50
0.0
 51
0.0
 71
    16
 72
  2000
 73
     1
 74
     3
 75
     0
 76
     0
 77
     0
 78
     0
281
     0
 65
     1
110
0.0
120
0.0
130
0.0
111
1.0
121
0.0
131
0.0
112
0.0
122
1.0
132
0.0
 79
     0
146
0.0
  0
ENDTAB
  0
TABLE
  2
LTYPE
  5
5
330
0
100
AcDbSymbolTable
 70
     6
  0
LTYPE
  5
14
330
5
100
AcDbSymbolTableRecord
100
AcDbLinetypeTableRecord
  2
ByBlock
 70
     0
  3

 72
    65
 73
     0
 40
0.0
  0
LTYPE
  5
15
330
5
100
AcDbSymbolTableRecord
100
AcDbLinetypeTableRecord
  2
ByLayer
 70
     0
  3

 72
    65
 73
     0
 40
0.0
  0
LTYPE
  5
16
330
5
100
AcDbSymbolTableRecord
100
AcDbLinetypeTableRecord
  2
Continuous
 70
     0
  3
Solid line
 72
    65
 73
     0
 40
0.0
  0
LTYPE
  5
6A
330
5
100
AcDbSymbolTableRecord
100
AcDbLinetypeTableRecord
  2
HIDDEN
 70
     0
  3
Hidden __ __ __ __ __ __ __ __ __ __ __ __ __ __
 72
    65
 73
     2
 40
1.905
 49
1.27
 74
     0
 49
-0.635
 74
     0
  0
LTYPE
  5
6B
330
5
100
AcDbSymbolTableRecord
100
AcDbLinetypeTableRecord
  2
PHANTOM
 70
     0
  3
Phantom ______  __  __  ______  __  __  ______
 72
    65
 73
     6
 40
12.7
 49
6.35
 74
     0
 49
-1.27
 74
     0
 49
1.27
 74
     0
 49
-1.27
 74
     0
 49
1.27
 74
     0
 49
-1.27
 74
     0
  0
LTYPE
  5
6C
330
5
100
AcDbSymbolTableRecord
100
AcDbLinetypeTableRecord
  2
CENTER
 70
     0
  3
Center ____ _ ____ _ ____ _ ____ _ ____ _ ____
 72
    65
 73
     4
 40
10.16
 49
6.35
 74
     0
 49
-1.27
 74
     0
 49
1.27
 74
     0
 49
-1.27
 74
     0
  0
LTYPE
  5
6D
330
5
100
AcDbSymbolTableRecord
100
AcDbLinetypeTableRecord
  2
CENTERX2
 70
     0
  3
Center (2x) ________  __  ________  __  _____
 72
    65
 73
     4
 40
20.32
 49
12.7
 74
     0
 49
-2.54
 74
     0
 49
2.54
 74
     0
 49
-2.54
 74
     0
  0
LTYPE
  5
6E
330
5
100
AcDbSymbolTableRecord
100
AcDbLinetypeTableRecord
  2
DOT2
 70
     0
  3
Dot (.5x) ........................................
 72
    65
 73
     2
 40
0.635
 49
0.0
 74
     0
 49
-0.635
 74
     0
  0
ENDTAB
  0
TABLE
  2
LAYER
  5
2
330
0
100
AcDbSymbolTable
 70
    18
  0
LAYER
  5
10
330
2
100
AcDbSymbolTableRecord
100
AcDbLayerTableRecord
  2
0
 70
     0
 62
     7
  6
Continuous
370
    -3
390
F
  0
LAYER
  5
6F
330
2
100
AcDbSymbolTableRecord
100
AcDbLayerTableRecord
  2
FORMAT
 70
     0
 62
     2
  6
Continuous
370
    -3
390
F
  0
LAYER
  5
70
330
2
100
AcDbSymbolTableRecord
100
AcDbLayerTableRecord
  2
외형선
 70
     0
 62
     4
  6
Continuous
370
    30
390
F
  0
LAYER
  5
71
330
2
100
AcDbSymbolTableRecord
100
AcDbLayerTableRecord
  2
숨은선
 70
     0
 62
     2
  6
HIDDEN
370
    15
390
F
  0
LAYER
  5
72
330
2
100
AcDbSymbolTableRecord
100
AcDbLayerTableRecord
  2
중심선
 70
     0
 62
     1
  6
CENTERX2
370
    -3
390
F
  0
LAYER
  5
73
330
2
100
AcDbSymbolTableRecord
100
AcDbLayerTableRecord
  2
파단선
 70
     0
 62
     4
  6
Continuous
370
    -3
390
F
  0
LAYER
  5
74
330
2
100
AcDbSymbolTableRecord
100
AcDbLayerTableRecord
  2
해칭선
 70
     0
 62
   100
  6
Continuous
370
    -3
390
F
  0
LAYER
  5
75
330
2
100
AcDbSymbolTableRecord
100
AcDbLayerTableRecord
  2
가는실선
 70
     0
 62
     4
  6
Continuous
370
    -3
390
F
  0
LAYER
  5
76
330
2
100
AcDbSymbolTableRecord
100
AcDbLayerTableRecord
  2
치수_보조선
 70
     0
 62
     4
  6
Continuous
370
    -3
390
F
  0
LAYER
  5
77
330
2
100
AcDbSymbolTableRecord
100
AcDbLayerTableRecord
  2
치수문자_일반주서
 70
     0
 62
     7
  6
Continuous
370
    15
390
F
  0
LAYER
  5
78
330
2
100
AcDbSymbolTableRecord
100
AcDbLayerTableRecord
  2
개별주서
 70
     0
 62
   100
  6
Continuous
370
    30
390
F
  0
LAYER
  5
79
330
2
100
AcDbSymbolTableRecord
100
AcDbLayerTableRecord
  2
중간선
 70
     0
 62
     2
  6
Continuous
370
    15
390
F
  0
LAYER
  5
7A
330
2
100
AcDbSymbolTableRecord
100
AcDbLayerTableRecord
  2
윤곽선
 70
     0
 62
     3
  6
Continuous
370
    40
390
F
  0
LAYER
  5
7B
330
2
100
AcDbSymbolTableRecord
100
AcDbLayerTableRecord
  2
중심마크
 70
     0
 62
   100
  6
Continuous
370
    30
390
F
  0
LAYER
  5
7C
330
2
100
AcDbSymbolTableRecord
100
AcDbLayerTableRecord
  2
가상선
 70
     0
 62
     4
  6
PHANTOM
370
    -3
390
F
  0
LAYER
  5
7D
330
2
100
AcDbSymbolTableRecord
100
AcDbLayerTableRecord
  2
특수지정선
 70
     0
 62
     5
  6
CENTERX2
370
    60
390
F
  0
LAYER
  5
7E
330
2
100
AcDbSymbolTableRecord
100
AcDbLayerTableRecord
  2
참조1
 70
     0
 62
    -4
  6
Continuous
370
    -3
390
F
  0
LAYER
  5
15C
330
2
100
AcDbSymbolTableRecord
100
AcDbLayerTableRecord
  2
Defpoints
 70
     0
 62
     7
  6
Continuous
290
     0
370
    -3
390
F
  0
ENDTAB
  0
TABLE
  2
STYLE
  5
3
330
0
100
AcDbSymbolTable
 70
     2
  0
STYLE
  5
11
330
3
100
AcDbSymbolTableRecord
100
AcDbTextStyleTableRecord
  2
Standard
 70
     0
 40
0.0
 41
1.0
 50
0.0
 71
     0
 42
3.5
  3
txt
  4

  0
STYLE
  5
94
330
3
100
AcDbSymbolTableRecord
100
AcDbTextStyleTableRecord
  2
SLDTEXTSTYLE0
 70
     0
 40
0.0
 41
0.75
 50
0.0
 71
     0
 42
3.5
  3
TXT
  4

  0
ENDTAB
  0
TABLE
  2
VIEW
  5
6
330
0
100
AcDbSymbolTable
 70
     0
  0
ENDTAB
  0
TABLE
  2
UCS
  5
7
330
0
100
AcDbSymbolTable
 70
     0
  0
ENDTAB
  0
TABLE
  2
APPID
  5
9
330
0
100
AcDbSymbolTable
 70
     5
  0
APPID
  5
12
330
9
100
AcDbSymbolTableRecord
100
AcDbRegAppTableRecord
  2
ACAD
 70
     0
  0
APPID
  5
15D
330
9
100
AcDbSymbolTableRecord
100
AcDbRegAppTableRecord
  2
PE_URL
 70
     0
  0
APPID
  5
18E
330
9
100
AcDbSymbolTableRecord
100
AcDbRegAppTableRecord
  2
ACAD_DSTYLE_DIMRADIAL_EXTENSION
 70
     0
  0
APPID
  5
193
330
9
100
AcDbSymbolTableRecord
100
AcDbRegAppTableRecord
  2
ACAD_DSTYLE_DIMFLIPARROW_SYMBOL
 70
     0
  0
APPID
  5
194
330
9
100
AcDbSymbolTableRecord
100
AcDbRegAppTableRecord
  2
ACAD_DSTYLE_DIMFLIPARROW_WHICH_SYMBOL
 70
     0
  0
ENDTAB
  0
TABLE
  2
DIMSTYLE
  5
A
330
0
100
AcDbSymbolTable
 70
     3
100
AcDbDimStyleTable
  0
DIMSTYLE
105
27
102
{ACAD_REACTORS
330
185
330
18B
102
}
330
A
100
AcDbSymbolTableRecord
100
AcDbDimStyleTableRecord
  2
ISO-25
 70
     0
 41
2.5
 42
0.625
 43
3.75
 44
1.25
 73
     0
 74
     0
 77
     1
 78
     8
140
2.5
141
2.5
143
0.03937007874016
147
0.625
171
     3
172
     1
178
     0
271
     2
272
     2
274
     3
278
    44
283
     0
284
     8
340
11
  0
DIMSTYLE
105
E0
330
A
100
AcDbSymbolTableRecord
100
AcDbDimStyleTableRecord
  2
SLDDIMSTYLE0
 70
     0
 41
3.302
 44
0.0
 45
0.000000001
 73
     0
 74
     0
 77
     1
 78
    12
 79
     3
140
3.5
143
0.0393700787401575
147
0.875
148
0.000000001
170
     1
173
     1
178
     0
271
     2
272
     2
276
     2
284
    12
340
94
  0
DIMSTYLE
105
107
102
{ACAD_REACTORS
330
106
330
DF
330
F3
330
11B
102
}
330
A
100
AcDbSymbolTableRecord
100
AcDbDimStyleTableRecord
  2
SLDDIMSTYLE1
 70
     0
 41
3.302
 44
0.0
 45
0.000000001
 73
     0
 74
     0
 77
     1
 78
    12
 79
     3
140
3.5
143
0.0393700787401575
147
0.875
148
0.000000001
170
     1
172
     1
173
     1
178
     0
271
     2
272
     2
276
     2
284
    12
289
     0
340
94
  0
ENDTAB
  0
TABLE
  2
BLOCK_RECORD
  5
1
330
0
100
AcDbSymbolTable
 70
     8
  0
BLOCK_RECORD
  5
1F
330
1
100
AcDbSymbolTableRecord
100
AcDbBlockTableRecord
  2
*Model_Space
340
22
  0
BLOCK_RECORD
  5
1B
330
1
100
AcDbSymbolTableRecord
100
AcDbBlockTableRecord
  2
*Paper_Space
340
1E
  0
BLOCK_RECORD
  5
23
330
1
100
AcDbSymbolTableRecord
100
AcDbBlockTableRecord
  2
*Paper_Space0
340
26
  0
BLOCK_RECORD
  5
7F
330
1
100
AcDbSymbolTableRecord
100
AcDbBlockTableRecord
  2
블럭10
340
0
102
{BLKREFS
331
D8
102
}
  0
BLOCK_RECORD
  5
E1
330
1
100
AcDbSymbolTableRecord
100
AcDbBlockTableRecord
  2
_D
340
0
  0
BLOCK_RECORD
  5
F4
330
1
100
AcDbSymbolTableRecord
100
AcDbBlockTableRecord
  2
_D_1
340
0
  0
BLOCK_RECORD
  5
108
330
1
100
AcDbSymbolTableRecord
100
AcDbBlockTableRecord
  2
_D_2
340
0
  0
BLOCK_RECORD
  5
11C
330
1
100
AcDbSymbolTableRecord
100
AcDbBlockTableRecord
  2
_D_3
340
0
  0
BLOCK_RECORD
  5
133
330
1
100
AcDbSymbolTableRecord
100
AcDbBlockTableRecord
  2
SW_DOWELSYMBOL_0
340
0
102
{BLKREFS
331
139
102
}
  0
ENDTAB
  0
ENDSEC
  0
SECTION
  2
BLOCKS
  0
BLOCK
  5
20
330
1F
100
AcDbEntity
  8
0
100
AcDbBlockBegin
  2
*Model_Space
 70
     0
 10
0.0
 20
0.0
 30
0.0
  3
*Model_Space
  1

  0
ENDBLK
  5
21
330
1F
100
AcDbEntity
  8
0
100
AcDbBlockEnd
  0
BLOCK
  5
1C
330
1B
100
AcDbEntity
 67
     1
  8
0
100
AcDbBlockBegin
  2
*Paper_Space
 70
     0
 10
0.0
 20
0.0
 30
0.0
  3
*Paper_Space
  1

  0
ENDBLK
  5
1D
330
1B
100
AcDbEntity
 67
     1
  8
0
100
AcDbBlockEnd
  0
BLOCK
  5
24
330
23
100
AcDbEntity
  8
0
100
AcDbBlockBegin
  2
*Paper_Space0
 70
     0
 10
0.0
 20
0.0
 30
0.0
  3
*Paper_Space0
  1

  0
ENDBLK
  5
25
330
23
100
AcDbEntity
  8
0
100
AcDbBlockEnd
  0
BLOCK
  5
80
330
7F
100
AcDbEntity
  8
0
100
AcDbBlockBegin
  2
블럭10
 70
     2
 10
0.0
 20
0.0
 30
0.0
  3
블럭10
  1

  0
ELLIPSE
  5
82
330
7F
100
AcDbEntity
  8
중심선
100
AcDbEllipse
 10
20.54032771741204
 20
12.0471743016438
 30
0.0
 11
6.600054785286829
 21
-1.261213355974178E-13
 31
0.0
210
0.0
220
0.0
230
1.0
 40
0.636358354079598
 41
0.9219305317359503
 42
6.513795318482858
  0
ELLIPSE
  5
83
330
7F
100
AcDbEntity
  8
중심선
100
AcDbEllipse
 10
20.54032771746488
 20
12.04717430159265
 30
0.0
 11
3.960054785062283
 21
1.540847449632565E-10
 31
0.0
210
0.0
220
0.0
230
1.0
 40
0.3939339440162632
 41
1.131841032648279
 42
5.62031148352944
  0
LINE
  5
84
330
7F
100
AcDbEntity
  8
중심선
100
AcDbLine
 10
2.268634060543552
 20
16.24717430164393
 30
0.0
 11
5.714909304380834
 21
16.24717430164393
 31
0.0
  0
LINE
  5
85
330
7F
100
AcDbEntity
  8
중심선
100
AcDbLine
 10
5.245725140726316
 20
7.84717430164391
 30
0.0
 11
8.692000384563599
 21
7.84717430164391
 31
0.0
  0
LINE
  5
86
330
7F
100
AcDbEntity
  8
중심선
100
AcDbLine
 10
15.74043728645272
 20
16.24717430164393
 30
0.0
 11
8.692000384563599
 21
7.84717430164391
 31
0.0
  0
LINE
  5
87
330
7F
100
AcDbEntity
  8
중심선
100
AcDbLine
 10
0.1404042013395286
 20
13.71084872107135
 30
0.0
 11
3.58671253028996
 21
13.71088815037384
 31
0.0
  0
LINE
  5
88
330
7F
100
AcDbEntity
  8
중심선
100
AcDbLine
 10
2.750260043222114
 20
10.84717430164391
 30
0.0
 11
6.196535287059397
 21
10.84717430164391
 31
0.0
  0
LINE
  5
89
330
7F
100
AcDbEntity
  8
중심선
100
AcDbLine
 10
12.29416204261559
 20
16.24717430164393
 30
0.0
 11
5.245725140726316
 21
7.84717430164391
 31
0.0
  0
LINE
  5
8A
330
7F
100
AcDbEntity
  8
중심선
100
AcDbLine
 10
10.72767329541681
 20
16.24717430164393
 30
0.0
 11
6.196535287059397
 21
10.84717430164391
 31
0.0
  0
LINE
  5
8B
330
7F
100
AcDbEntity
  8
중심선
100
AcDbLine
 10
7.28139805157953
 20
16.24717430164393
 30
0.0
 11
2.750260043222114
 21
10.84717430164391
 31
0.0
  0
LINE
  5
8C
330
7F
100
AcDbEntity
  8
중심선
100
AcDbLine
 10
5.714909304380834
 20
16.24717430164393
 30
0.0
 11
3.58671253028996
 21
13.71088815037384
 31
0.0
  0
LINE
  5
8D
330
7F
100
AcDbEntity
  8
중심선
100
AcDbLine
 10
2.268634060543552
 20
16.24717430164393
 30
0.0
 11
0.1404042013395286
 21
13.71084872107135
 31
0.0
  0
LINE
  5
8E
330
7F
100
AcDbEntity
  8
중심선
100
AcDbLine
 10
7.28139805157953
 20
16.24717430164393
 30
0.0
 11
10.72767329541681
 21
16.24717430164393
 31
0.0
  0
LINE
  5
8F
330
7F
100
AcDbEntity
  8
중심선
100
AcDbLine
 10
12.29416204261559
 20
16.24717430164393
 30
0.0
 11
15.74043728645272
 21
16.24717430164393
 31
0.0
  0
LINE
  5
90
330
7F
100
AcDbEntity
  8
중심선
100
AcDbLine
 10
19.22036997980202
 20
11.08717430171403
 30
0.0
 11
23.66174974927406
 21
11.08717430171406
 31
0.0
  0
LINE
  5
91
330
7F
100
AcDbEntity
  8
중심선
100
AcDbLine
 10
19.22039502424796
 20
13.00717430171391
 30
0.0
 11
19.22036997980202
 21
11.08717430171403
 31
0.0
  0
LINE
  5
92
330
7F
100
AcDbEntity
  8
중심선
100
AcDbLine
 10
19.22039502424796
 20
13.00717430171391
 30
0.0
 11
26.96566020931264
 21
13.00717430171391
 31
0.0
  0
LINE
  5
93
330
7F
100
AcDbEntity
  8
중심선
100
AcDbLine
 10
22.22332737316547
 20
13.45928029700563
 30
0.0
 11
24.52862924686651
 21
15.39360700705356
 31
0.0
  0
ATTDEF
  5
95
330
7F
100
AcDbEntity
  8
FORMAT
 62
     2
100
AcDbText
 10
3.448148490846466
 20
2.075366912832191
 30
0.0
 40
4.233333333333333
  1
EM668040
 41
0.75
  7
SLDTEXTSTYLE0
 11
3.448148490846466
 21
-0.0412997538344756
 31
0.0
100
AcDbAttributeDefinition
  3

  2
AUTOATTR0
 70
     0
 74
     1
  0
ENDBLK
  5
81
330
7F
100
AcDbEntity
  8
0
100
AcDbBlockEnd
  0
BLOCK
  5
E2
330
E1
100
AcDbEntity
  8
0
100
AcDbBlockBegin
  2
_D
 70
     0
 10
0.0
 20
0.0
 30
0.0
  3
_D
  1

  0
LINE
  5
E4
330
E1
100
AcDbEntity
  8
치수문자_일반주서
 62
     0
370
    -2
100
AcDbLine
 10
43.75000000000002
 20
7.238000000000001
 30
0.0
 11
43.75000000000002
 21
18.18205064161513
 31
0.0
  0
LINE
  5
E5
330
E1
100
AcDbEntity
  8
치수문자_일반주서
 62
     0
370
    -2
100
AcDbLine
 10
12.00000000000001
 20
7.964910935791101
 30
0.0
 11
12.00000000000001
 21
18.18205064161513
 31
0.0
  0
LINE
  5
E6
330
E1
100
AcDbEntity
  8
치수문자_일반주서
 62
     0
370
    -2
100
AcDbLine
 10
40.44800000000002
 20
18.18205064161513
 30
0.0
 11
15.30200000000001
 21
18.18205064161513
 31
0.0
  0
SOLID
  5
E7
330
E1
100
AcDbEntity
  8
치수문자_일반주서
 62
     0
100
AcDbTrace
 10
40.44800000000002
 20
17.63171730828179
 30
0.0
 11
40.44800000000002
 21
18.73238397494846
 31
0.0
 12
43.75000000000002
 22
18.18205064161513
 32
0.0
 13
43.75000000000002
 23
18.18205064161513
 33
0.0
  0
SOLID
  5
E8
330
E1
100
AcDbEntity
  8
치수문자_일반주서
 62
     0
100
AcDbTrace
 10
15.30200000000001
 20
18.73238397494846
 30
0.0
 11
15.30200000000001
 21
17.63171730828179
 31
0.0
 12
12.00000000000001
 22
18.18205064161513
 32
0.0
 13
12.00000000000001
 23
18.18205064161513
 33
0.0
  0
MTEXT
  5
E9
330
E1
100
AcDbEntity
  8
치수문자_일반주서
 62
     0
100
AcDbMText
 10
27.87500000000001
 20
22.55705064161513
 30
0.0
 40
3.5
 41
0.0
 71
     2
 72
     1
  1
\A1;31.75 [1 1/4]
  7
SLDTEXTSTYLE0
 73
     1
 44
1.0
  0
POINT
  5
EA
330
E1
100
AcDbEntity
  8
Defpoints
 62
     0
100
AcDbPoint
 10
43.75000000000002
 20
7.175500000000001
 30
0.0
  0
POINT
  5
EB
330
E1
100
AcDbEntity
  8
Defpoints
 62
     0
100
AcDbPoint
 10
12.00000000000001
 20
7.902410935791101
 30
0.0
  0
POINT
  5
EC
330
E1
100
AcDbEntity
  8
Defpoints
 62
     0
100
AcDbPoint
 10
12.00000000000001
 20
18.18205064161513
 30
0.0
  0
ENDBLK
  5
E3
330
E1
100
AcDbEntity
  8
0
100
AcDbBlockEnd
  0
BLOCK
  5
F5
330
F4
100
AcDbEntity
  8
0
100
AcDbBlockBegin
  2
_D_1
 70
     0
 10
0.0
 20
0.0
 30
0.0
  3
_D_1
  1

  0
LINE
  5
F7
330
F4
100
AcDbEntity
  8
치수문자_일반주서
 62
     0
370
    -2
100
AcDbLine
 10
43.75000000000002
 20
7.238000000000001
 30
0.0
 11
43.75000000000002
 21
30.67798174297421
 31
0.0
  0
LINE
  5
F8
330
F4
100
AcDbEntity
  8
치수문자_일반주서
 62
     0
370
    -2
100
AcDbLine
 10
-48.32499999999998
 20
6.412499999999998
 30
0.0
 11
-48.32499999999998
 21
30.67798174297421
 31
0.0
  0
LINE
  5
F9
330
F4
100
AcDbEntity
  8
치수문자_일반주서
 62
     0
370
    -2
100
AcDbLine
 10
40.44800000000002
 20
30.67798174297421
 30
0.0
 11
-45.02299999999998
 21
30.67798174297421
 31
0.0
  0
SOLID
  5
FA
330
F4
100
AcDbEntity
  8
치수문자_일반주서
 62
     0
100
AcDbTrace
 10
40.44800000000002
 20
30.12764840964088
 30
0.0
 11
40.44800000000002
 21
31.22831507630755
 31
0.0
 12
43.75000000000002
 22
30.67798174297421
 32
0.0
 13
43.75000000000002
 23
30.67798174297421
 33
0.0
  0
SOLID
  5
FB
330
F4
100
AcDbEntity
  8
치수문자_일반주서
 62
     0
100
AcDbTrace
 10
-45.02299999999998
 20
31.22831507630755
 30
0.0
 11
-45.02299999999998
 21
30.12764840964088
 31
0.0
 12
-48.32499999999998
 22
30.67798174297421
 32
0.0
 13
-48.32499999999998
 23
30.67798174297421
 33
0.0
  0
MTEXT
  5
FC
330
F4
100
AcDbEntity
  8
치수문자_일반주서
 62
     0
100
AcDbMText
 10
-2.287499999999993
 20
35.05298174297421
 30
0.0
 40
3.5
 41
0.0
 71
     2
 72
     1
  1
\A1;92.08 [3 5/8]
  7
SLDTEXTSTYLE0
 73
     1
 44
1.0
  0
POINT
  5
FD
330
F4
100
AcDbEntity
  8
Defpoints
 62
     0
100
AcDbPoint
 10
43.75000000000002
 20
7.175500000000001
 30
0.0
  0
POINT
  5
FE
330
F4
100
AcDbEntity
  8
Defpoints
 62
     0
100
AcDbPoint
 10
-48.32499999999998
 20
6.349999999999998
 30
0.0
  0
POINT
  5
FF
330
F4
100
AcDbEntity
  8
Defpoints
 62
     0
100
AcDbPoint
 10
-48.32499999999998
 20
30.67798174297421
 30
0.0
  0
ENDBLK
  5
F6
330
F4
100
AcDbEntity
  8
0
100
AcDbBlockEnd
  0
BLOCK
  5
109
330
108
100
AcDbEntity
  8
0
100
AcDbBlockBegin
  2
_D_2
 70
     0
 10
0.0
 20
0.0
 30
0.0
  3
_D_2
  1

  0
LINE
  5
10B
330
108
100
AcDbEntity
  8
치수문자_일반주서
 62
     0
370
    -2
100
AcDbLine
 10
-46.79999999999999
 20
7.937500000000011
 30
0.0
 11
-60.37250000000002
 21
7.937499999999958
 31
0.0
  0
LINE
  5
10C
330
108
100
AcDbEntity
  8
치수문자_일반주서
 62
     0
370
    -2
100
AcDbLine
 10
-46.79999999999999
 20
-7.937500000000018
 30
0.0
 11
-60.37249999999997
 21
-7.93750000000007
 31
0.0
  0
LINE
  5
10D
330
108
100
AcDbEntity
  8
치수문자_일반주서
 62
     0
370
    -2
100
AcDbLine
 10
-60.37250000000002
 20
7.937499999999958
 30
0.0
 11
-60.37249999999997
 21
-7.93750000000007
 31
0.0
  0
LINE
  5
10E
330
108
100
AcDbEntity
  8
치수문자_일반주서
 62
     0
370
    -2
100
AcDbLine
 10
-60.37250000000004
 20
11.23949999999996
 30
0.0
 11
-60.37250000000005
 21
14.54149999999996
 31
0.0
  0
LINE
  5
10F
330
108
100
AcDbEntity
  8
치수문자_일반주서
 62
     0
370
    -2
100
AcDbLine
 10
-60.37249999999995
 20
-11.23950000000007
 30
0.0
 11
-60.37249999999994
 21
-14.54150000000007
 31
0.0
  0
SOLID
  5
110
330
108
100
AcDbEntity
  8
치수문자_일반주서
 62
     0
100
AcDbTrace
 10
-60.92283333333337
 20
11.23949999999996
 30
0.0
 11
-59.8221666666667
 21
11.23949999999996
 31
0.0
 12
-60.37250000000002
 22
7.937499999999958
 32
0.0
 13
-60.37250000000002
 23
7.937499999999958
 33
0.0
  0
SOLID
  5
111
330
108
100
AcDbEntity
  8
치수문자_일반주서
 62
     0
100
AcDbTrace
 10
-59.82216666666662
 20
-11.23950000000007
 30
0.0
 11
-60.92283333333329
 21
-11.23950000000007
 31
0.0
 12
-60.37249999999997
 22
-7.93750000000007
 32
0.0
 13
-60.37249999999997
 23
-7.93750000000007
 33
0.0
  0
MTEXT
  5
112
330
108
100
AcDbEntity
  8
치수문자_일반주서
 62
     0
100
AcDbMText
 10
-64.7475
 20
-0.0000000000000045
 30
0.0
 40
3.5
 41
0.0
 71
     2
 72
     1
  1
\A1;%%c15.88 [5/8]
  7
SLDTEXTSTYLE0
 11
-3.580687802255617E-15
 21
1.0
 31
0.0
 73
     1
 44
1.0
  0
POINT
  5
113
330
108
100
AcDbEntity
  8
Defpoints
 62
     0
100
AcDbPoint
 10
-46.73749999999999
 20
7.937500000000011
 30
0.0
  0
POINT
  5
18F
330
108
100
AcDbEntity
  8
Defpoints
 62
     0
100
AcDbPoint
 10
-46.73749999999999
 20
-7.937500000000018
 30
0.0
  0
POINT
  5
190
330
108
100
AcDbEntity
  8
Defpoints
 62
     0
100
AcDbPoint
 10
-60.37249999999997
 20
-7.937500000000068
 30
0.0
  0
ENDBLK
  5
10A
330
108
100
AcDbEntity
  8
0
100
AcDbBlockEnd
  0
BLOCK
  5
11D
330
11C
100
AcDbEntity
  8
0
100
AcDbBlockBegin
  2
_D_3
 70
     0
 10
0.0
 20
0.0
 30
0.0
  3
_D_3
  1

  0
LINE
  5
11F
330
11C
100
AcDbEntity
  8
치수문자_일반주서
 62
     0
370
    -2
100
AcDbLine
 10
43.81250000000001
 20
7.937500000000048
 30
0.0
 11
71.79090477829183
 21
7.937500000000149
 31
0.0
  0
LINE
  5
120
330
11C
100
AcDbEntity
  8
치수문자_일반주서
 62
     0
370
    -2
100
AcDbLine
 10
43.81250000000001
 20
-7.937499999999943
 30
0.0
 11
71.79090477829189
 21
-7.937499999999833
 31
0.0
  0
LINE
  5
121
330
11C
100
AcDbEntity
  8
치수문자_일반주서
 62
     0
370
    -2
100
AcDbLine
 10
71.79090477829183
 20
7.937500000000149
 30
0.0
 11
71.7909047782917
 21
42.54150000000015
 31
0.0
  0
LINE
  5
122
330
11C
100
AcDbEntity
  8
치수문자_일반주서
 62
     0
370
    -2
100
AcDbLine
 10
71.79090477829183
 20
7.937500000000149
 30
0.0
 11
71.79090477829189
 21
-7.937499999999833
 31
0.0
  0
LINE
  5
123
330
11C
100
AcDbEntity
  8
치수문자_일반주서
 62
     0
370
    -2
100
AcDbLine
 10
71.79090477829182
 20
11.23950000000015
 30
0.0
 11
71.7909047782918
 21
14.54150000000015
 31
0.0
  0
LINE
  5
124
330
11C
100
AcDbEntity
  8
치수문자_일반주서
 62
     0
370
    -2
100
AcDbLine
 10
71.7909047782919
 20
-11.23949999999983
 30
0.0
 11
71.79090477829192
 21
-14.54149999999983
 31
0.0
  0
SOLID
  5
125
330
11C
100
AcDbEntity
  8
치수문자_일반주서
 62
     0
100
AcDbTrace
 10
71.24057144495849
 20
11.23950000000015
 30
0.0
 11
72.34123811162515
 21
11.23950000000015
 31
0.0
 12
71.79090477829183
 22
7.937500000000149
 32
0.0
 13
71.79090477829183
 23
7.937500000000149
 33
0.0
  0
SOLID
  5
126
330
11C
100
AcDbEntity
  8
치수문자_일반주서
 62
     0
100
AcDbTrace
 10
72.34123811162523
 20
-11.23949999999983
 30
0.0
 11
71.24057144495858
 21
-11.23949999999983
 31
0.0
 12
71.79090477829189
 22
-7.937499999999833
 32
0.0
 13
71.79090477829189
 23
-7.937499999999833
 33
0.0
  0
MTEXT
  5
127
330
11C
100
AcDbEntity
  8
치수문자_일반주서
 62
     0
100
AcDbMText
 10
67.41590477829176
 20
28.54150000000013
 30
0.0
 40
3.5
 41
0.0
 71
     2
 72
     1
  1
\A1;%%c15.88 [5/8]
  7
SLDTEXTSTYLE0
 11
-3.580687802255625E-15
 21
1.0
 31
0.0
 73
     1
 44
1.0
  0
POINT
  5
128
330
11C
100
AcDbEntity
  8
Defpoints
 62
     0
100
AcDbPoint
 10
43.75000000000001
 20
7.937500000000048
 30
0.0
  0
POINT
  5
15E
330
11C
100
AcDbEntity
  8
Defpoints
 62
     0
100
AcDbPoint
 10
43.75000000000001
 20
-7.937499999999943
 30
0.0
  0
POINT
  5
15F
330
11C
100
AcDbEntity
  8
Defpoints
 62
     0
100
AcDbPoint
 10
71.79090477829189
 20
-7.937499999999838
 30
0.0
  0
ENDBLK
  5
11E
330
11C
100
AcDbEntity
  8
0
100
AcDbBlockEnd
  0
BLOCK
  5
134
330
133
100
AcDbEntity
  8
0
100
AcDbBlockBegin
  2
SW_DOWELSYMBOL_0
 70
     0
 10
0.0
 20
0.0
 30
0.0
  3
SW_DOWELSYMBOL_0
  1

  0
CIRCLE
  5
136
330
133
100
AcDbEntity
  8
해칭선
 62
     0
100
AcDbCircle
 10
0.0
 20
0.0
 30
0.0
 40
3.000000000000001
  0
HATCH
  5
137
330
133
100
AcDbEntity
  8
0
  6
Continuous
 62
     0
370
     0
100
AcDbHatch
 10
0.0
 20
0.0
 30
0.0
210
0.0
220
0.0
230
1.0
  2
SOLID
 70
     1
 71
     0
 91
        1
 92
        0
 93
        3
 72
     2
 10
0.0
 20
0.0
 40
3.000000000000001
 50
0.0
 51
90.0
 73
     1
 72
     1
 10
0.0
 20
3.000000000000001
 11
0.0
 21
0.0
 72
     1
 10
0.0
 20
0.0
 11
3.000000000000003
 21
0.0
 97
        0
 75
     0
 76
     1
 98
        1
 10
0.0
 20
0.0
  0
HATCH
  5
138
330
133
100
AcDbEntity
  8
0
  6
Continuous
 62
     0
370
     0
100
AcDbHatch
 10
0.0
 20
0.0
 30
0.0
210
0.0
220
0.0
230
1.0
  2
SOLID
 70
     1
 71
     0
 91
        1
 92
        0
 93
        3
 72
     2
 10
0.0
 20
0.0
 40
3.000000000000001
 50
180.0
 51
270.0000000000008
 73
     1
 72
     1
 10
0.0
 20
-3.000000000000001
 11
0.0
 21
0.0
 72
     1
 10
0.0
 20
0.0
 11
-3.000000000000001
 21
0.0
 97
        0
 75
     0
 76
     1
 98
        1
 10
0.0
 20
0.0
  0
ENDBLK
  5
135
330
133
100
AcDbEntity
  8
0
100
AcDbBlockEnd
  0
ENDSEC
  0
SECTION
  2
ENTITIES
  0
SPLINE
  5
96
330
1F
100
AcDbEntity
  8
외형선
  6
Continuous
370
    15
100
AcDbSpline
210
0.0
220
0.0
230
1.0
 70
     8
 71
     3
 72
     9
 73
     5
 74
     0
 42
0.000000001
 43
0.00000001
 40
0.0
 40
0.0
 40
0.0
 40
0.0
 40
0.5674546957827485
 40
1.0
 40
1.0
 40
1.0
 40
1.0
 10
12.0
 20
-1.43155792472429
 30
0.0
 10
12.05393451454848
 20
-1.476414415521366
 30
0.0
 10
12.14898089437283
 20
-1.555463000598631
 30
0.0
 10
12.25104829882475
 20
-1.618579450147378
 30
0.0
 10
12.29519707533407
 20
-1.645880174018554
 30
0.0
  0
LINE
  5
97
330
1F
100
AcDbEntity
  8
외형선
  6
Continuous
 62
     1
370
    15
100
AcDbLine
 10
17.81059036722941
 20
1.538935617793196
 30
0.0
 11
17.723595841658
 21
1.587542302827412
 31
0.0
  0
LINE
  5
98
330
1F
100
AcDbEntity
  8
외형선
  6
Continuous
 62
     1
370
    15
100
AcDbLine
 10
16.6182361598999
 20
7.937499999999993
 30
0.0
 11
13.29353158112523
 21
7.937499999999993
 31
0.0
  0
LINE
  5
99
330
1F
100
AcDbEntity
  8
외형선
  6
Continuous
 62
     1
370
    15
100
AcDbLine
 10
42.08895216085644
 20
-7.9375
 30
0.0
 11
42.98800000000003
 21
-7.9375
 31
0.0
  0
LINE
  5
9A
330
1F
100
AcDbEntity
  8
외형선
  6
Continuous
 62
     1
370
    15
100
AcDbLine
 10
27.69064603534213
 20
-7.9375
 30
0.0
 11
31.01555483336524
 21
-7.9375
 31
0.0
  0
LINE
  5
9B
330
1F
100
AcDbEntity
  8
외형선
  6
Continuous
 62
     1
370
    15
100
AcDbLine
 10
31.01555483336524
 20
7.937499999999993
 30
0.0
 11
27.69064603534224
 21
7.937499999999993
 31
0.0
  0
LINE
  5
9C
330
1F
100
AcDbEntity
  8
외형선
  6
Continuous
 62
     1
370
    15
100
AcDbLine
 10
13.29353158112514
 20
-7.9375
 30
0.0
 11
16.61823615989978
 21
-7.9375
 31
0.0
  0
ARC
  5
9D
330
1F
100
AcDbEntity
  8
외형선
  6
Continuous
 62
     1
370
    15
100
AcDbCircle
 10
42.98800000000003
 20
-7.175500000000007
 30
0.0
 40
0.7619999999999925
100
AcDbArc
 50
270.0000000000011
 51
0.0
  0
ARC
  5
9E
330
1F
100
AcDbEntity
  8
외형선
  6
Continuous
 62
     1
370
    15
100
AcDbCircle
 10
42.98800000000003
 20
7.1755
 30
0.0
 40
0.7619999999999916
100
AcDbArc
 50
0.0
 51
90.0
  0
LINE
  5
9F
330
1F
100
AcDbEntity
  8
외형선
  6
Continuous
 62
     1
370
    15
100
AcDbLine
 10
42.98800000000003
 20
7.937499999999993
 30
0.0
 11
42.08895216085645
 21
7.937499999999993
 31
0.0
  0
LINE
  5
A0
330
1F
100
AcDbEntity
  8
외형선
  6
Continuous
370
    15
100
AcDbLine
 10
-46.73749999999998
 20
-7.937500000000004
 30
0.0
 11
11.74984504460335
 21
-7.937500000000004
 31
0.0
  0
LINE
  5
A1
330
1F
100
AcDbEntity
  8
외형선
  6
Continuous
370
    15
100
AcDbLine
 10
11.74984504460335
 20
7.937499999999996
 30
0.0
 11
-46.73749999999998
 21
7.937499999999996
 31
0.0
  0
LINE
  5
A2
330
1F
100
AcDbEntity
  8
외형선
  6
Continuous
370
    15
100
AcDbLine
 10
-46.73749999999998
 20
7.937499999999995
 30
0.0
 11
-48.32499999999998
 21
6.349999999999998
 31
0.0
  0
LINE
  5
A3
330
1F
100
AcDbEntity
  8
외형선
  6
Continuous
370
    15
100
AcDbLine
 10
-48.32499999999998
 20
-6.350000000000005
 30
0.0
 11
-46.73749999999998
 21
-7.937500000000002
 31
0.0
  0
SPLINE
  5
A4
330
1F
100
AcDbEntity
  8
외형선
  6
Continuous
 62
     1
370
    15
100
AcDbSpline
210
0.0
220
0.0
230
1.0
 70
     8
 71
     3
 72
    19
 73
    15
 74
     0
 42
0.000000001
 43
0.00000001
 40
0.0
 40
0.0
 40
0.0
 40
0.0
 40
0.0884613789176106
 40
0.176953390843605
 40
0.2653793273591485
 40
0.3537746119279508
 40
0.4421796031962855
 40
0.5306345920554073
 40
0.6191301199875018
 40
0.7075607333262532
 40
0.800174442875424
 40
0.8927870189682087
 40
0.9854195394840042
 40
1.0
 40
1.0
 40
1.0
 40
1.0
 10
12.00000000000002
 20
-1.481680424439237
 30
0.0
 10
12.72322905363452
 20
-1.888286517749131
 30
0.0
 10
14.1699376055827
 20
-2.701639506694385
 30
0.0
 10
16.33994865402602
 20
-3.843887080525514
 30
0.0
 10
18.50886663676482
 20
-4.893877995086706
 30
0.0
 10
20.67697849161061
 20
-5.821372065877805
 30
0.0
 10
22.84535645597951
 20
-6.604553224297669
 30
0.0
 10
25.01482030032813
 20
-7.223507904430752
 30
0.0
 10
27.18487106109716
 20
-7.663228828964705
 30
0.0
 10
29.38833388244343
 20
-7.915532096820604
 30
0.0
 10
31.62551095631838
 20
-7.968933390002485
 30
0.0
 10
33.89700892730514
 20
-7.787577126820493
 30
0.0
 10
35.53060412068452
 20
-7.553910598131701
 30
0.0
 10
36.40719509851452
 20
-7.325984972052034
 30
0.0
 10
36.52640734331851
 20
-7.294988160288606
 30
0.0
  0
SPLINE
  5
A5
330
1F
100
AcDbEntity
  8
외형선
  6
Continuous
370
    15
100
AcDbSpline
210
0.0
220
0.0
230
1.0
 70
    24
 71
     3
 72
    22
 73
    18
 74
     0
 42
0.000000001
 43
0.00000001
 40
0.0
 40
0.0
 40
0.0
 40
0.0
 40
0.0848956343010512
 40
0.1522026611440379
 40
0.2214615963251756
 40
0.2887686231681291
 40
0.3580275583492302
 40
0.4253345851921849
 40
0.4945935203732872
 40
0.5619005472162473
 40
0.6311594823973418
 40
0.6984665092402974
 40
0.7677254444214004
 40
0.8350324712643528
 40
0.904291406445455
 40
0.9715984332884093
 40
1.0
 40
1.0
 40
1.0
 40
1.0
 10
12.00000000000004
 20
4.596849130137802
 30
0.0
 10
12.00000000000002
 20
4.494851680895415
 30
0.0
 10
12.0
 20
4.311988529775725
 30
0.0
 10
12.00000000000001
 20
3.92812123863938
 30
0.0
 10
12.0
 20
3.517826330232185
 30
0.0
 10
12.00000000000004
 20
3.050005960991171
 30
0.0
 10
12.00000000000003
 20
2.54852062805264
 30
0.0
 10
12.00000000000006
 20
2.017948036956216
 30
0.0
 10
12.00000000000001
 20
1.483015721993636
 30
0.0
 10
11.99999999999996
 20
0.9491852334168028
 30
0.0
 10
12.00000000000013
 20
0.4412211799760847
 30
0.0
 10
11.99999999999997
 20
-0.0357759155695983
 30
0.0
 10
12.00000000000006
 20
-0.4592275693732721
 30
0.0
 10
12.00000000000002
 20
-0.8266066537923877
 30
0.0
 10
12.00000000000005
 20
-1.114059333353217
 30
0.0
 10
11.99999999999997
 20
-1.298527194601575
 30
0.0
 10
12.00000000000002
 20
-1.352547073008475
 30
0.0
 10
12.00000000000002
 20
-1.368577495391092
 30
0.0
  0
SPLINE
  5
A6
330
1F
100
AcDbEntity
  8
외형선
  6
Continuous
 62
     1
370
    15
100
AcDbSpline
210
0.0
220
0.0
230
1.0
 70
     8
 71
     3
 72
    21
 73
    17
 74
     0
 42
0.000000001
 43
0.00000001
 40
0.0
 40
0.0
 40
0.0
 40
0.0
 40
0.0422163639817192
 40
0.1143551766217372
 40
0.186445014420929
 40
0.2585025275117848
 40
0.3305605948724702
 40
0.4026520916119366
 40
0.4747911050236949
 40
0.5468854053571741
 40
0.6223821089159967
 40
0.6978731160789946
 40
0.7733756150129582
 40
0.8489067415634879
 40
0.9244695339247669
 40
1.0
 40
1.0
 40
1.0
 40
1.0
 10
42.08895216085644
 20
-7.913538705760681
 30
0.0
 10
41.66554984056047
 20
-7.916364655577913
 30
0.0
 10
40.51864275163007
 20
-7.924019554294766
 30
0.0
 10
38.64826700203461
 20
-7.716904748131306
 30
0.0
 10
36.4791019092706
 20
-7.317989882885435
 30
0.0
 10
34.31089567382053
 20
-6.728435605845938
 30
0.0
 10
32.14267374767704
 20
-5.974149583522252
 30
0.0
 10
29.97346155810297
 20
-5.070681003555357
 30
0.0
 10
27.80336895513936
 20
-4.041975163374076
 30
0.0
 10
25.5996527993409
 20
-2.89433988899374
 30
0.0
 10
23.36233700635299
 20
-1.652493864147041
 30
0.0
 10
21.09090736557422
 20
-0.3467625757877549
 30
0.0
 10
18.81904992789944
 20
0.9691403887486942
 30
0.0
 10
16.54632014083526
 20
2.256355624972538
 30
0.0
 10
14.27296841524789
 20
3.490680680171427
 30
0.0
 10
12.75754806407776
 20
4.228178909208005
 30
0.0
 10
12.00000000000004
 20
4.596849130137802
 30
0.0
  0
LINE
  5
A7
330
1F
100
AcDbEntity
  8
외형선
  6
Continuous
 62
     1
370
    15
100
AcDbLine
 10
43.75000000000001
 20
-7.130302532789614
 30
0.0
 11
43.75000000000001
 21
-4.26152726445223
 31
0.0
  0
SPLINE
  5
A8
330
1F
100
AcDbEntity
  8
외형선
  6
Continuous
 62
     1
370
    15
100
AcDbSpline
210
0.0
220
0.0
230
1.0
 70
     8
 71
     3
 72
    14
 73
    10
 74
     0
 42
0.000000001
 43
0.00000001
 40
0.0
 40
0.0
 40
0.0
 40
0.0
 40
0.25
 40
0.25
 40
0.5
 40
0.5
 40
0.75
 40
0.75
 40
1.0
 40
1.0
 40
1.0
 40
1.0
 10
42.988
 20
-7.814374287093568
 30
0.0
 10
43.08383814737854
 20
-7.824075646560361
 30
0.0
 10
43.17493597560434
 20
-7.816274782658541
 30
0.0
 10
43.34980831159028
 20
-7.767063263324353
 30
0.0
 10
43.43171031235889
 20
-7.725538915413964
 30
0.0
 10
43.57523667794502
 20
-7.608253568453806
 30
0.0
 10
43.6372385231089
 20
-7.53191855377362
 30
0.0
 10
43.72551050066585
 20
-7.346817784617054
 30
0.0
 10
43.75000000000001
 20
-7.241154531805051
 30
0.0
 10
43.75000000000001
 20
-7.130302532789614
 30
0.0
  0
SPLINE
  5
A9
330
1F
100
AcDbEntity
  8
외형선
  6
Continuous
 62
     1
370
    15
100
AcDbSpline
210
0.0
220
0.0
230
1.0
 70
     8
 71
     3
 72
    48
 73
    44
 74
     0
 42
0.000000001
 43
0.00000001
 40
0.0
 40
0.0
 40
0.0
 40
0.0
 40
0.0625000000000007
 40
0.0625000000000007
 40
0.1250000000000014
 40
0.1250000000000014
 40
0.1875000000000022
 40
0.1875000000000022
 40
0.218750000000003
 40
0.218750000000003
 40
0.2500000000000039
 40
0.2500000000000039
 40
0.3125000000000046
 40
0.3125000000000046
 40
0.343750000000005
 40
0.343750000000005
 40
0.3750000000000053
 40
0.3750000000000053
 40
0.437500000000005
 40
0.437500000000005
 40
0.5000000000000047
 40
0.5000000000000047
 40
0.5625000000000042
 40
0.5625000000000042
 40
0.5937500000000037
 40
0.5937500000000037
 40
0.625000000000003
 40
0.625000000000003
 40
0.6562500000000023
 40
0.6562500000000023
 40
0.6875000000000017
 40
0.6875000000000017
 40
0.7500000000000013
 40
0.7500000000000013
 40
0.7812500000000011
 40
0.7812500000000011
 40
0.8125000000000009
 40
0.8125000000000009
 40
0.8750000000000007
 40
0.8750000000000007
 40
0.9375000000000003
 40
0.9375000000000003
 40
1.0
 40
1.0
 40
1.0
 40
1.0
 10
42.98800000000005
 20
-7.814374287093576
 30
0.0
 10
42.34179258126931
 20
-7.74896097693793
 30
0.0
 10
41.69268005903716
 20
-7.657462957994525
 30
0.0
 10
40.40782537718465
 20
-7.425302143685323
 30
0.0
 10
39.75870744129728
 20
-7.283837226297246
 30
0.0
 10
38.46629628301104
 20
-6.954044221856197
 30
0.0
 10
37.82447830288643
 20
-6.766000093406237
 30
0.0
 10
36.85395989394982
 20
-6.450572524467239
 30
0.0
 10
36.53023561393393
 20
-6.339971529150283
 30
0.0
 10
35.88475756474146
 20
-6.108700375133889
 30
0.0
 10
35.56403227656568
 20
-5.988170510243057
 30
0.0
 10
34.59678603955757
 20
-5.611424143248705
 30
0.0
 10
33.94729237468465
 20
-5.340189304392883
 30
0.0
 10
32.98048955212665
 20
-4.909270461156792
 30
0.0
 10
32.6596489152421
 20
-4.761677378445869
 30
0.0
 10
32.01393761430289
 20
-4.458250640431649
 30
0.0
 10
31.69017049958628
 20
-4.302577866959579
 30
0.0
 10
30.71974654865185
 20
-3.825397719152661
 30
0.0
 10
30.07809992534639
 20
-3.494449283537447
 30
0.0
 10
28.78534749953414
 20
-2.810054697295617
 30
0.0
 10
28.13713616860486
 20
-2.457064018057285
 30
0.0
 10
26.85148665405712
 20
-1.739183894172087
 30
0.0
 10
26.20226077388868
 20
-1.372104517910949
 30
0.0
 10
25.23323259762383
 20
-0.8173918784789371
 30
0.0
 10
24.9121040030969
 20
-0.6320190176611283
 30
0.0
 10
24.26803194221092
 20
-0.2601897720417551
 30
0.0
 10
23.9446501889448
 20
-0.0736476830608526
 30
0.0
 10
23.29759357239961
 20
0.2993065756316363
 30
0.0
 10
22.97392070021831
 20
0.485717597260462
 30
0.0
 10
22.32869135548744
 20
0.8570228660385276
 30
0.0
 10
22.00801434030839
 20
1.041750367136296
 30
0.0
 10
21.04035590180762
 20
1.593970186127257
 30
0.0
 10
20.39088044941124
 20
1.95886865848845
 30
0.0
 10
19.42454313198558
 20
2.493248242459231
 30
0.0
 10
19.10352244371408
 20
2.669265803194886
 30
0.0
 10
18.45759814242059
 20
3.017303311274503
 30
0.0
 10
18.13379764739653
 20
3.189117878906294
 30
0.0
 10
17.16349415328243
 20
3.696020278982518
 30
0.0
 10
16.52195999008868
 20
4.021926266879658
 30
0.0
 10
15.22890564008007
 20
4.646703097071075
 30
0.0
 10
14.58153925561856
 20
4.94482404226328
 30
0.0
 10
13.29512992074918
 20
5.505269087502752
 30
0.0
 10
12.64581419003082
 20
5.769050913320683
 30
0.0
 10
12.00000000000006
 20
6.012410636621675
 30
0.0
  0
SPLINE
  5
AA
330
1F
100
AcDbEntity
  8
외형선
  6
Continuous
370
    15
100
AcDbSpline
210
0.0
220
0.0
230
1.0
 70
    24
 71
     3
 72
    11
 73
     7
 74
     0
 42
0.000000001
 43
0.00000001
 40
0.0
 40
0.0
 40
0.0
 40
0.0
 40
0.3522137449418593
 40
0.6314561368557284
 40
0.9187965770523316
 40
1.0
 40
1.0
 40
1.0
 40
1.0
 10
12.00000000000004
 20
7.902410935819935
 30
0.0
 10
12.00000000000003
 20
7.679892432965877
 30
0.0
 10
11.99999999999998
 20
7.280956627055346
 30
0.0
 10
12.0
 20
6.712054854928418
 30
0.0
 10
12.0
 20
6.320526034365253
 30
0.0
 10
12.00000000000002
 20
6.121297359861348
 30
0.0
 10
12.00000000000002
 20
6.077400141817831
 30
0.0
  0
SPLINE
  5
AB
330
1F
100
AcDbEntity
  8
외형선
  6
Continuous
 62
     1
370
    15
100
AcDbSpline
210
0.0
220
0.0
230
1.0
 70
     8
 71
     3
 72
    48
 73
    44
 74
     0
 42
0.000000001
 43
0.00000001
 40
0.0
 40
0.0
 40
0.0
 40
0.0
 40
0.0625000000000009
 40
0.0625000000000009
 40
0.1250000000000017
 40
0.1250000000000017
 40
0.1875000000000026
 40
0.1875000000000026
 40
0.218750000000003
 40
0.218750000000003
 40
0.2500000000000034
 40
0.2500000000000034
 40
0.3125000000000043
 40
0.3125000000000043
 40
0.3437500000000047
 40
0.3437500000000047
 40
0.3750000000000052
 40
0.3750000000000052
 40
0.437500000000005
 40
0.437500000000005
 40
0.5000000000000049
 40
0.5000000000000049
 40
0.5625000000000048
 40
0.5625000000000048
 40
0.5937500000000042
 40
0.5937500000000042
 40
0.6250000000000036
 40
0.6250000000000036
 40
0.656250000000003
 40
0.656250000000003
 40
0.6875000000000024
 40
0.6875000000000024
 40
0.7500000000000013
 40
0.7500000000000013
 40
0.7812500000000008
 40
0.7812500000000008
 40
0.8125000000000002
 40
0.8125000000000002
 40
0.8749999999999999
 40
0.8749999999999999
 40
0.9374999999999997
 40
0.9374999999999997
 40
1.0
 40
1.0
 40
1.0
 40
1.0
 10
42.98800000000005
 20
-4.40952055361497
 30
0.0
 10
42.34179258126932
 20
-4.09951481184542
 30
0.0
 10
41.6926800590371
 20
-3.774387020360023
 30
0.0
 10
40.40782537718464
 20
-3.103661835012788
 30
0.0
 10
39.75870744129732
 20
-2.755747331303291
 30
0.0
 10
38.46629628301107
 20
-2.04500365243925
 30
0.0
 10
37.82447830288648
 20
-1.68250448206639
 30
0.0
 10
36.85395989394988
 20
-1.130756653514223
 30
0.0
 10
36.53023561393397
 20
-0.9457097525844456
 30
0.0
 10
35.88475756474146
 20
-0.574734570708769
 30
0.0
 10
35.56403227656568
 20
-0.3890055608286886
 30
0.0
 10
34.5967860395576
 20
0.1696579450027496
 30
0.0
 10
33.94729237468465
 20
0.5436644590349009
 30
0.0
 10
32.98048955212659
 20
1.098710729887097
 30
0.0
 10
32.65964891524209
 20
1.28270043192497
 30
0.0
 10
32.01393761430286
 20
1.649022581736807
 30
0.0
 10
31.69017049958627
 20
1.831142198798141
 30
0.0
 10
30.71974654865183
 20
2.372336114220425
 30
0.0
 10
30.07809992534645
 20
2.725495508175891
 30
0.0
 10
28.78534749953414
 20
3.413207947188929
 30
0.0
 10
28.13713616860485
 20
3.747181127618759
 30
0.0
 10
26.85148665405719
 20
4.386414982327459
 30
0.0
 10
26.20226077388868
 20
4.693609575072154
 30
0.0
 10
25.23323259762382
 20
5.128833988738561
 30
0.0
 10
24.91210400309687
 20
5.269510749084434
 30
0.0
 10
24.26803194221094
 20
5.542207785554709
 30
0.0
 10
23.9446501889448
 20
5.674277906533385
 30
0.0
 10
23.29759357239959
 20
5.928837200535522
 30
0.0
 10
22.97392070021834
 20
6.051325575890784
 30
0.0
 10
22.32869135548746
 20
6.285836780305395
 30
0.0
 10
22.00801434030841
 20
6.397770698456453
 30
0.0
 10
21.04035590180764
 20
6.718102596483462
 30
0.0
 10
20.39088044941126
 20
6.910527258276234
 30
0.0
 10
19.42454313198562
 20
7.163239548803048
 30
0.0
 10
19.10352244371411
 20
7.241547117109219
 30
0.0
 10
18.45759814242065
 20
7.386374224965307
 30
0.0
 10
18.13379764739653
 20
7.452793505522623
 30
0.0
 10
17.16349415328239
 20
7.633300393609204
 30
0.0
 10
16.52195999008869
 20
7.72847459905852
 30
0.0
 10
15.22890564008007
 20
7.867648967147876
 30
0.0
 10
14.58153925561858
 20
7.911363182184632
 30
0.0
 10
13.29512992074921
 20
7.9462240654138
 30
0.0
 10
12.64581419003082
 20
7.937421555964324
 30
0.0
 10
12.00000000000004
 20
7.902410935819935
 30
0.0
  0
SPLINE
  5
AC
330
1F
100
AcDbEntity
  8
외형선
  6
Continuous
 62
     1
370
    15
100
AcDbSpline
210
0.0
220
0.0
230
1.0
 70
     8
 71
     3
 72
    14
 73
    10
 74
     0
 42
0.000000001
 43
0.00000001
 40
0.0
 40
0.0
 40
0.0
 40
0.0
 40
0.25
 40
0.25
 40
0.5
 40
0.5
 40
0.75
 40
0.75
 40
1.0
 40
1.0
 40
1.0
 40
1.0
 10
43.75000000000001
 20
-4.261527264452235
 30
0.0
 10
43.75000000000002
 20
-4.322031012611811
 30
0.0
 10
43.72756592996517
 20
-4.376439965252908
 30
0.0
 10
43.64406146393986
 20
-4.461998297155965
 30
0.0
 10
43.58262912477292
 20
-4.492748007422836
 30
0.0
 10
43.43650236873979
 20
-4.521554524942106
 30
0.0
 10
43.35106931544769
 20
-4.519879732647576
 30
0.0
 10
43.17270178170353
 20
-4.485701147411728
 30
0.0
 10
43.08002044696781
 20
-4.453665616165068
 30
0.0
 10
42.98800000000001
 20
-4.409520553614959
 30
0.0
  0
LINE
  5
AD
330
1F
100
AcDbEntity
  8
외형선
  6
Continuous
 62
     1
370
    15
100
AcDbLine
 10
43.75000000000001
 20
-2.868775268337282
 30
0.0
 11
43.75000000000001
 21
2.868775268337409
 31
0.0
  0
SPLINE
  5
AE
330
1F
100
AcDbEntity
  8
외형선
  6
Continuous
 62
     1
370
    15
100
AcDbSpline
210
0.0
220
0.0
230
1.0
 70
     8
 71
     3
 72
    14
 73
    10
 74
     0
 42
0.000000001
 43
0.00000001
 40
0.0
 40
0.0
 40
0.0
 40
0.0
 40
0.25
 40
0.25
 40
0.5
 40
0.5
 40
0.75
 40
0.75
 40
1.0
 40
1.0
 40
1.0
 40
1.0
 10
42.988
 20
-2.701120991377599
 30
0.0
 10
43.08383814737855
 20
-2.753114641148837
 30
0.0
 10
43.17493597560434
 20
-2.79989570753064
 30
0.0
 10
43.34980831159023
 20
-2.881062282788436
 30
0.0
 10
43.43171031235885
 20
-2.914413456027415
 30
0.0
 10
43.57523667794504
 20
-2.956628494640015
 30
0.0
 10
43.6372385231089
 20
-2.965441015858694
 30
0.0
 10
43.72551050066579
 20
-2.945356694309078
 30
0.0
 10
43.74999999999999
 20
-2.916428561255092
 30
0.0
 10
43.75000000000001
 20
-2.868775268337282
 30
0.0
  0
SPLINE
  5
AF
330
1F
100
AcDbEntity
  8
외형선
  6
Continuous
 62
     1
370
    15
100
AcDbSpline
210
0.0
220
0.0
230
1.0
 70
     8
 71
     3
 72
    19
 73
    15
 74
     0
 42
0.000000001
 43
0.00000001
 40
0.0
 40
0.0
 40
0.0
 40
0.0
 40
0.071708337823781
 40
0.153924824750733
 40
0.2361503398825159
 40
0.3184223577920136
 40
0.4007320811083036
 40
0.4829814273372738
 40
0.5691214729013492
 40
0.6552604642372171
 40
0.7414180058883191
 40
0.8276136179714214
 40
0.913828585200778
 40
1.0
 40
1.0
 40
1.0
 40
1.0
 10
16.6182361598999
 20
7.926482119695212
 30
0.0
 10
17.24853558960518
 20
7.916476482123716
 30
0.0
 10
18.60149860900033
 20
7.894998979556343
 30
0.0
 10
20.67697108193804
 20
7.622380983618934
 30
0.0
 10
22.84535845772294
 20
7.167290885925805
 30
0.0
 10
25.0148197074737
 20
6.529024443761061
 30
0.0
 10
27.18487142917367
 20
5.730300178837213
 30
0.0
 10
29.38833298372402
 20
4.773465913125287
 30
0.0
 10
31.62551434080089
 20
3.676331655179951
 30
0.0
 10
33.89699635258747
 20
2.462223033950963
 30
0.0
 10
36.16906957065238
 20
1.180517085443794
 30
0.0
 10
38.44203731832858
 20
-0.1319409659483795
 30
0.0
 10
40.71532133959704
 20
-1.445833053069767
 30
0.0
 10
42.23056805266118
 20
-2.28276216038701
 30
0.0
 10
42.98800000000003
 20
-2.701120991377618
 30
0.0
  0
SPLINE
  5
B0
330
1F
100
AcDbEntity
  8
외형선
  6
Continuous
 62
     1
370
    15
100
AcDbSpline
210
0.0
220
0.0
230
1.0
 70
     8
 71
     3
 72
    17
 73
    13
 74
     0
 42
0.000000001
 43
0.00000001
 40
0.0
 40
0.0
 40
0.0
 40
0.0
 40
0.1041799527208801
 40
0.2084216878756121
 40
0.3125926536040138
 40
0.4167169096131657
 40
0.5208419665510667
 40
0.6250153294746316
 40
0.7292573547477309
 40
0.8334347689093726
 40
0.9425287100129762
 40
1.0
 40
1.0
 40
1.0
 40
1.0
 10
42.98800000000008
 20
3.51100966721016
 30
0.0
 10
42.26493115640306
 20
3.877001685676154
 30
0.0
 10
40.81836466355271
 20
4.609202768950368
 30
0.0
 10
38.64827360559653
 20
5.568774763900903
 30
0.0
 10
36.47910014160546
 20
6.396837560173385
 30
0.0
 10
34.31089614602653
 20
7.064122627857731
 30
0.0
 10
32.14267362610636
 20
7.556594392481994
 30
0.0
 10
29.97346157195986
 20
7.860578183884465
 30
0.0
 10
27.80336902143699
 20
7.971781926427797
 30
0.0
 10
25.59965251508871
 20
7.874200638536937
 30
0.0
 10
23.72056723975531
 20
7.648142743732871
 30
0.0
 10
22.56454730108368
 20
7.374533278786343
 30
0.0
 10
22.16567680037257
 20
7.280127688855151
 30
0.0
  0
SPLINE
  5
B1
330
1F
100
AcDbEntity
  8
외형선
  6
Continuous
 62
     1
370
    15
100
AcDbSpline
210
0.0
220
0.0
230
1.0
 70
     8
 71
     3
 72
    14
 73
    10
 74
     0
 42
0.000000001
 43
0.00000001
 40
0.0
 40
0.0
 40
0.0
 40
0.0
 40
0.25
 40
0.25
 40
0.5
 40
0.5
 40
0.75
 40
0.75
 40
1.0
 40
1.0
 40
1.0
 40
1.0
 10
43.75000000000001
 20
2.868775268337403
 30
0.0
 10
43.75000000000001
 20
2.914396500348386
 30
0.0
 10
43.7275659299651
 20
2.964908283490944
 30
0.0
 10
43.64406146393977
 20
3.072197480708234
 30
0.0
 10
43.58262912477292
 20
3.129201985853711
 30
0.0
 10
43.43650236873976
 20
3.243132944226446
 30
0.0
 10
43.3510693154477
 20
3.300870049983143
 30
0.0
 10
43.17270178170356
 20
3.411014358430771
 30
0.0
 10
43.08002044696779
 20
3.463394834211744
 30
0.0
 10
42.98800000000001
 20
3.51100966721017
 30
0.0
  0
LINE
  5
B2
330
1F
100
AcDbEntity
  8
외형선
  6
Continuous
370
    15
100
AcDbLine
 10
12.00000000000002
 20
4.596849130137805
 30
0.0
 11
12.00000000000004
 21
6.012410636621677
 31
0.0
  0
SPLINE
  5
B3
330
1F
100
AcDbEntity
  8
외형선
  6
Continuous
 62
     1
370
    15
100
AcDbSpline
210
0.0
220
0.0
230
1.0
 70
     8
 71
     3
 72
    14
 73
    10
 74
     0
 42
0.000000001
 43
0.00000001
 40
0.0
 40
0.0
 40
0.0
 40
0.0
 40
0.1310896944338518
 40
0.2758651321136801
 40
0.4206296461616182
 40
0.5654161972799545
 40
0.7102576458378187
 40
0.8551598179954507
 40
1.0
 40
1.0
 40
1.0
 40
1.0
 10
27.69064603534213
 20
-7.93265647753198
 30
0.0
 10
27.00501571863306
 20
-7.917447447658864
 30
0.0
 10
25.56217538921628
 20
-7.885441567613238
 30
0.0
 10
23.36234399438745
 20
-7.578917040582763
 30
0.0
 10
21.09090549294999
 20
-7.07293137269796
 30
0.0
 10
18.81905042973278
 20
-6.3700128601243
 30
0.0
 10
16.54632000692706
 20
-5.492857412114692
 30
0.0
 10
14.27296844871405
 20
-4.472463288212673
 30
0.0
 10
12.75754807523156
 20
-3.694473483086151
 30
0.0
 10
12.00000000000004
 20
-3.305561805682112
 30
0.0
  0
LINE
  5
B4
330
1F
100
AcDbEntity
  8
외형선
  6
Continuous
370
    15
100
AcDbLine
 10
12.00000000000003
 20
-3.305561805682104
 30
0.0
 11
12.00000000000002
 21
-1.481680424439242
 31
0.0
  0
LINE
  5
B5
330
1F
100
AcDbEntity
  8
외형선
  6
Continuous
 62
     1
370
    15
100
AcDbLine
 10
43.75000000000001
 20
-4.26152726445223
 30
0.0
 11
43.75000000000001
 21
-2.868775268337282
 31
0.0
  0
SPLINE
  5
B6
330
1F
100
AcDbEntity
  8
외형선
  6
Continuous
 62
     1
370
    15
100
AcDbSpline
210
0.0
220
0.0
230
1.0
 70
     8
 71
     3
 72
    12
 73
     8
 74
     0
 42
0.000000001
 43
0.00000001
 40
0.0
 40
0.0
 40
0.0
 40
0.0
 40
0.2134273005512845
 40
0.4269285081608481
 40
0.640270298218279
 40
0.853538135525598
 40
1.0
 40
1.0
 40
1.0
 40
1.0
 10
12.00000000000002
 20
-7.494091061060868
 30
0.0
 10
12.72322914449189
 20
-7.613585243203703
 30
0.0
 10
14.16993787818626
 20
-7.852614986748078
 30
0.0
 10
16.33994756351061
 20
-7.967750989373032
 30
0.0
 10
18.50887072214294
 20
-7.891616271125434
 30
0.0
 10
20.45053395139998
 20
-7.667436031823623
 30
0.0
 10
21.66941602432201
 20
-7.392191788336715
 30
0.0
 10
22.16567680037246
 20
-7.280127688855156
 30
0.0
  0
SPLINE
  5
B7
330
1F
100
AcDbEntity
  8
외형선
  6
Continuous
370
    15
100
AcDbSpline
210
0.0
220
0.0
230
1.0
 70
    24
 71
     3
 72
    16
 73
    12
 74
     0
 42
0.000000001
 43
0.00000001
 40
0.0
 40
0.0
 40
0.0
 40
0.0
 40
0.0668818795392864
 40
0.1850868923177624
 40
0.2999605609245611
 40
0.4181655737030516
 40
0.5330392423098442
 40
0.651244255088334
 40
0.76611792369513
 40
0.8843229364736176
 40
1.0
 40
1.0
 40
1.0
 40
1.0
 10
12.0
 20
-3.370561310878259
 30
0.0
 10
11.99999999999999
 20
-3.432431250190375
 30
0.0
 10
11.99999999999999
 20
-3.603648250580472
 30
0.0
 10
12.00000000000012
 20
-3.956147722851993
 30
0.0
 10
11.99999999999996
 20
-4.411325828808788
 30
0.0
 10
12.00000000000006
 20
-4.906762129015926
 30
0.0
 10
12.00000000000003
 20
-5.433234537482816
 30
0.0
 10
12.00000000000004
 20
-5.967744086711429
 30
0.0
 10
11.99999999999995
 20
-6.503372768393517
 30
0.0
 10
12.00000000000008
 20
-7.020757989174189
 30
0.0
 10
12.00000000000003
 20
-7.337454390504332
 30
0.0
 10
12.00000000000002
 20
-7.494091061060868
 30
0.0
  0
SPLINE
  5
B8
330
1F
100
AcDbEntity
  8
외형선
  6
Continuous
 62
     1
370
    15
100
AcDbSpline
210
0.0
220
0.0
230
1.0
 70
     8
 71
     3
 72
    14
 73
    10
 74
     0
 42
0.000000001
 43
0.00000001
 40
0.0
 40
0.0
 40
0.0
 40
0.0
 40
0.25
 40
0.25
 40
0.5
 40
0.5
 40
0.75
 40
0.75
 40
1.0
 40
1.0
 40
1.0
 40
1.0
 10
42.988
 20
5.113253295715889
 30
0.0
 10
43.08383814737854
 20
5.07096100541145
 30
0.0
 10
43.17493597560434
 20
5.016379075127814
 30
0.0
 10
43.34980831159028
 20
4.88600098053583
 30
0.0
 10
43.43171031235885
 20
4.811125459386458
 30
0.0
 10
43.57523667794502
 20
4.651625073813703
 30
0.0
 10
43.6372385231089
 20
4.566477537914851
 30
0.0
 10
43.72551050066585
 20
4.401461090307903
 30
0.0
 10
43.75000000000001
 20
4.324725970549887
 30
0.0
 10
43.75000000000001
 20
4.261527264452258
 30
0.0
  0
LINE
  5
B9
330
1F
100
AcDbEntity
  8
외형선
  6
Continuous
 62
     1
370
    15
100
AcDbLine
 10
43.75000000000001
 20
2.868775268337409
 30
0.0
 11
43.75000000000001
 21
4.261527264452257
 31
0.0
  0
SPLINE
  5
BA
330
1F
100
AcDbEntity
  8
외형선
  6
Continuous
 62
     1
370
    15
100
AcDbSpline
210
0.0
220
0.0
230
1.0
 70
     8
 71
     3
 72
    13
 73
     9
 74
     0
 42
0.000000001
 43
0.00000001
 40
0.0
 40
0.0
 40
0.0
 40
0.0
 40
0.0509510179732001
 40
0.2406799482835404
 40
0.4304497373433419
 40
0.620303379977791
 40
0.8101996540749246
 40
1.0
 40
1.0
 40
1.0
 40
1.0
 10
31.01555483336522
 20
7.91622990109825
 30
0.0
 10
31.2188751694444
 20
7.922523200727102
 30
0.0
 10
32.17930991479663
 20
7.95225118437607
 30
0.0
 10
33.89699619382885
 20
7.788446746476135
 30
0.0
 10
36.16906961320157
 20
7.422959448823566
 30
0.0
 10
38.44203730697703
 20
6.835645343084279
 30
0.0
 10
40.71532134243355
 20
6.076688170231664
 30
0.0
 10
42.23056805360655
 20
5.434344159045086
 30
0.0
 10
42.98800000000004
 20
5.113253295715879
 30
0.0
  0
SPLINE
  5
BB
330
1F
100
AcDbEntity
  8
외형선
  6
Continuous
 62
     1
370
    15
100
AcDbSpline
210
0.0
220
0.0
230
1.0
 70
     8
 71
     3
 72
    10
 73
     6
 74
     0
 42
0.000000001
 43
0.00000001
 40
0.0
 40
0.0
 40
0.0
 40
0.0
 40
0.335732527154868
 40
0.6716641556925774
 40
1.0
 40
1.0
 40
1.0
 40
1.0
 10
42.98800000000003
 20
7.937499999999991
 30
0.0
 10
42.26493184246466
 20
7.928064169456224
 30
0.0
 10
40.81836672214443
 20
7.94313653461916
 30
0.0
 10
38.66413713083827
 20
7.730370440961012
 30
0.0
 10
37.23353102763171
 20
7.439005016016171
 30
0.0
 10
36.5264073433185
 20
7.294988160288598
 30
0.0
  0
LINE
  5
BD
330
1F
100
AcDbEntity
  8
외형선
  6
Continuous
 62
     1
370
    15
100
AcDbLine
 10
43.75000000000001
 20
4.245669156344002
 30
0.0
 11
43.75000000000001
 21
7.130302532789612
 31
0.0
  0
LINE
  5
BE
330
1F
100
AcDbEntity
  8
외형선
  6
Continuous
 62
     1
370
    15
100
AcDbLine
 10
13.29353158112514
 20
-7.910927528323342
 30
0.0
 11
12.00000000000004
 21
-7.902410935819949
 31
0.0
  0
LINE
  5
BF
330
1F
100
AcDbEntity
  8
외형선
  6
Continuous
370
    15
100
AcDbLine
 10
12.00000000000003
 20
-7.902410935819949
 30
0.0
 11
12.00000000000002
 21
-7.494091061060868
 31
0.0
  0
LINE
  5
C0
330
1F
100
AcDbEntity
  8
외형선
  6
Continuous
 62
     1
370
    15
100
AcDbLine
 10
43.75000000000001
 20
-7.175500000000007
 30
0.0
 11
43.75000000000001
 21
-7.130302532789614
 31
0.0
  0
LINE
  5
C1
330
1F
100
AcDbEntity
  8
외형선
  6
Continuous
 62
     1
370
    15
100
AcDbLine
 10
43.75000000000001
 20
7.130302532789612
 30
0.0
 11
43.75000000000001
 21
7.175500000000001
 31
0.0
  0
SPLINE
  5
C2
330
1F
100
AcDbEntity
  8
외형선
  6
Continuous
370
    15
100
AcDbSpline
210
0.0
220
0.0
230
1.0
 70
     8
 71
     3
 72
     8
 73
     4
 74
     0
 42
0.000000001
 43
0.00000001
 40
0.0
 40
0.0
 40
0.0
 40
0.0
 40
1.0
 40
1.0
 40
1.0
 40
1.0
 10
12.00000000000004
 20
7.902410935819939
 30
0.0
 10
11.9165496191497
 20
7.897886957205104
 30
0.0
 10
11.83315776067462
 20
7.892927516697867
 30
0.0
 10
11.74984504460334
 20
7.88753456419791
 30
0.0
  0
LINE
  5
C3
330
1F
100
AcDbEntity
  8
외형선
  6
Continuous
370
    15
100
AcDbLine
 10
11.74984504460335
 20
6.105710376358484
 30
0.0
 11
11.74984504460335
 21
7.937499999999996
 31
0.0
  0
SPLINE
  5
C4
330
1F
100
AcDbEntity
  8
외형선
  6
Continuous
370
    15
100
AcDbSpline
210
0.0
220
0.0
230
1.0
 70
     8
 71
     3
 72
     8
 73
     4
 74
     0
 42
0.000000001
 43
0.00000001
 40
0.0
 40
0.0
 40
0.0
 40
0.0
 40
1.0
 40
1.0
 40
1.0
 40
1.0
 10
12.00000000000002
 20
6.012410636621686
 30
0.0
 10
11.91654961914969
 20
6.043856928614943
 30
0.0
 10
11.83315776067464
 20
6.074963753909126
 30
0.0
 10
11.74984504460337
 20
6.105723944445867
 30
0.0
  0
SPLINE
  5
C5
330
1F
100
AcDbEntity
  8
외형선
  6
Continuous
370
    15
100
AcDbSpline
210
0.0
220
0.0
230
1.0
 70
     8
 71
     3
 72
     8
 73
     4
 74
     0
 42
0.000000001
 43
0.00000001
 40
0.0
 40
0.0
 40
0.0
 40
0.0
 40
1.0
 40
1.0
 40
1.0
 40
1.0
 10
12.00000000000004
 20
4.596849130137798
 30
0.0
 10
11.9165496191497
 20
4.636115858802979
 30
0.0
 10
11.83315776067462
 20
4.675119486999254
 30
0.0
 10
11.74984504460334
 20
4.713850759026821
 30
0.0
  0
LINE
  5
C6
330
1F
100
AcDbEntity
  8
외형선
  6
Continuous
370
    15
100
AcDbLine
 10
11.74984504460335
 20
-1.339542253710767
 30
0.0
 11
11.74984504460335
 21
4.713872943664096
 31
0.0
  0
SPLINE
  5
C7
330
1F
100
AcDbEntity
  8
외형선
  6
Continuous
370
    15
100
AcDbSpline
210
0.0
220
0.0
230
1.0
 70
     8
 71
     3
 72
     8
 73
     4
 74
     0
 42
0.000000001
 43
0.00000001
 40
0.0
 40
0.0
 40
0.0
 40
0.0
 40
1.0
 40
1.0
 40
1.0
 40
1.0
 10
12.00000000000002
 20
-1.481680424439237
 30
0.0
 10
11.91654961914969
 20
-1.434360882394423
 30
0.0
 10
11.83315776067464
 20
-1.386970552476476
 30
0.0
 10
11.74984504460337
 20
-1.339521324253585
 30
0.0
  0
SPLINE
  5
C8
330
1F
100
AcDbEntity
  8
외형선
  6
Continuous
370
    15
100
AcDbSpline
210
0.0
220
0.0
230
1.0
 70
     8
 71
     3
 72
     8
 73
     4
 74
     0
 42
0.000000001
 43
0.00000001
 40
0.0
 40
0.0
 40
0.0
 40
0.0
 40
1.0
 40
1.0
 40
1.0
 40
1.0
 10
12.00000000000004
 20
-3.305561805682118
 30
0.0
 10
11.9165496191497
 20
-3.261771098402103
 30
0.0
 10
11.83315776067462
 20
-3.21780802969859
 30
0.0
 10
11.74984504460334
 20
-3.173683805171068
 30
0.0
  0
SPLINE
  5
C9
330
1F
100
AcDbEntity
  8
외형선
  6
Continuous
370
    15
100
AcDbSpline
210
0.0
220
0.0
230
1.0
 70
     8
 71
     3
 72
     8
 73
     4
 74
     0
 42
0.000000001
 43
0.00000001
 40
0.0
 40
0.0
 40
0.0
 40
0.0
 40
1.0
 40
1.0
 40
1.0
 40
1.0
 10
12.00000000000002
 20
-7.494091061060868
 30
0.0
 10
11.91654961914969
 20
-7.478217811009312
 30
0.0
 10
11.83315776067464
 20
-7.461934306385547
 30
0.0
 10
11.74984504460337
 20
-7.445245268699399
 30
0.0
  0
SPLINE
  5
CA
330
1F
100
AcDbEntity
  8
외형선
  6
Continuous
370
    15
100
AcDbSpline
210
0.0
220
0.0
230
1.0
 70
     8
 71
     3
 72
     8
 73
     4
 74
     0
 42
0.000000001
 43
0.00000001
 40
0.0
 40
0.0
 40
0.0
 40
0.0
 40
1.0
 40
1.0
 40
1.0
 40
1.0
 10
12.00000000000004
 20
-7.902410935819953
 30
0.0
 10
11.9165496191497
 20
-7.89788695720512
 30
0.0
 10
11.83315776067462
 20
-7.892927516697883
 30
0.0
 10
11.74984504460334
 20
-7.887534564197924
 30
0.0
  0
LINE
  5
CB
330
1F
100
AcDbEntity
  8
외형선
  6
Continuous
370
    15
100
AcDbLine
 10
11.74984504460335
 20
-7.937500000000004
 30
0.0
 11
11.74984504460335
 21
-7.887531475151647
 31
0.0
  0
LINE
  5
CC
330
1F
100
AcDbEntity
  8
외형선
  6
Continuous
370
    15
100
AcDbLine
 10
-46.73749999999998
 20
-0.0000000000000038
 30
0.0
 11
-46.73749999999998
 21
7.937499999999996
 31
0.0
  0
LINE
  5
CD
330
1F
100
AcDbEntity
  8
외형선
  6
Continuous
370
    15
100
AcDbLine
 10
-46.73749999999998
 20
-7.937500000000004
 30
0.0
 11
-46.73749999999998
 21
-0.0000000000000038
 31
0.0
  0
LINE
  5
CE
330
1F
100
AcDbEntity
  8
외형선
  6
Continuous
370
    15
100
AcDbLine
 10
11.74984504460335
 20
-7.445252630069195
 30
0.0
 11
11.74984504460335
 21
-3.173658531487514
 31
0.0
  0
LINE
  5
CF
330
1F
100
AcDbEntity
  8
외형선
  6
Continuous
370
    15
100
AcDbLine
 10
-48.32499999999998
 20
-0.0000000000000038
 30
0.0
 11
-48.32499999999998
 21
6.349999999999998
 31
0.0
  0
LINE
  5
D0
330
1F
100
AcDbEntity
  8
외형선
  6
Continuous
370
    15
100
AcDbLine
 10
-48.32499999999998
 20
-6.350000000000005
 30
0.0
 11
-48.32499999999998
 21
-0.0000000000000038
 31
0.0
  0
SPLINE
  5
D1
330
1F
100
AcDbEntity
  8
외형선
  6
Continuous
370
    15
100
AcDbSpline
210
0.0
220
0.0
230
1.0
 70
    24
 71
     3
 72
    24
 73
    20
 74
     0
 42
0.000000001
 43
0.00000001
 40
0.0
 40
0.0
 40
0.0
 40
0.0
 40
0.0498485679718641
 40
0.1059734310005854
 40
0.1669826650515151
 40
0.2297611710229804
 40
0.2907704050739106
 40
0.3535489110453776
 40
0.4145581450962834
 40
0.4773366510677749
 40
0.5383458851187044
 40
0.60112439109017
 40
0.6621336251410995
 40
0.7249121311125649
 40
0.785921365163496
 40
0.8486998711349634
 40
0.9097091051858933
 40
0.9724876111573586
 40
1.0
 40
1.0
 40
1.0
 40
1.0
 10
12.00000000000002
 20
-1.479038333351052
 30
0.0
 10
12.00000000000002
 20
-1.47456236619551
 30
0.0
 10
12.00000000000003
 20
-1.465046875263323
 30
0.0
 10
12.00000000000004
 20
-1.358214136869023
 30
0.0
 10
11.99999999999999
 20
-1.170524631123468
 30
0.0
 10
12.00000000000004
 20
-0.8947350313784959
 30
0.0
 10
12.00000000000007
 20
-0.5431888478513471
 30
0.0
 10
11.99999999999994
 20
-0.131479285422594
 30
0.0
 10
12.00000000000001
 20
0.3359665018637134
 30
0.0
 10
12.00000000000004
 20
0.8375535790968747
 30
0.0
 10
12.00000000000009
 20
1.368098563179902
 30
0.0
 10
12.00000000000001
 20
1.903040893712981
 30
0.0
 10
12.00000000000002
 20
2.436859398366139
 30
0.0
 10
12.0
 20
2.944861950056757
 30
0.0
 10
11.99999999999998
 20
3.421718848301054
 30
0.0
 10
12.00000000000004
 20
3.845699556426924
 30
0.0
 10
12.00000000000004
 20
4.211127518799419
 30
0.0
 10
12.0
 20
4.452509408187387
 30
0.0
 10
12.00000000000001
 20
4.563139284083187
 30
0.0
 10
12.00000000000001
 20
4.596849130126081
 30
0.0
  0
SPLINE
  5
D2
330
1F
100
AcDbEntity
  8
외형선
  6
Continuous
370
    15
100
AcDbSpline
210
0.0
220
0.0
230
1.0
 70
    24
 71
     3
 72
    16
 73
    12
 74
     0
 42
0.000000001
 43
0.00000001
 40
0.0
 40
0.0
 40
0.0
 40
0.0
 40
0.104557080884534
 40
0.2091141617690681
 40
0.3257392819940743
 40
0.4423644022190806
 40
0.5589895224440884
 40
0.6756146426690964
 40
0.7922397628941047
 40
0.9088648831191131
 40
1.0
 40
1.0
 40
1.0
 40
1.0
 10
12.00000000000002
 20
-7.494091061060869
 30
0.0
 10
12.00000000000002
 20
-7.35299053366327
 30
0.0
 10
12.00000000000001
 20
-7.070789478868074
 30
0.0
 10
12.00000000000008
 20
-6.592805644072646
 30
0.0
 10
12.00000000000003
 20
-6.08025182192435
 30
0.0
 10
12.00000000000004
 20
-5.542662091863612
 30
0.0
 10
12.0
 20
-5.014913723637841
 30
0.0
 10
11.99999999999998
 20
-4.510279787460826
 30
0.0
 10
12.00000000000001
 20
-4.047211062459194
 30
0.0
 10
12.00000000000006
 20
-3.657320311791878
 30
0.0
 10
12.00000000000005
 20
-3.457989024671675
 30
0.0
 10
12.00000000000004
 20
-3.370551310878259
 30
0.0
  0
SPLINE
  5
D3
330
1F
100
AcDbEntity
  8
외형선
  6
Continuous
370
    15
100
AcDbSpline
210
0.0
220
0.0
230
1.0
 70
    24
 71
     3
 72
    12
 73
     8
 74
     0
 42
0.000000001
 43
0.00000001
 40
0.0
 40
0.0
 40
0.0
 40
0.0
 40
0.0187002912736129
 40
0.3064661847320009
 40
0.5861220394580918
 40
0.8738879329164724
 40
1.0
 40
1.0
 40
1.0
 40
1.0
 10
12.0
 20
6.077400141817831
 30
0.0
 10
11.99999999999998
 20
6.087336238205211
 30
0.0
 10
11.99999999999999
 20
6.25017207356283
 30
0.0
 10
12.00000000000002
 20
6.602741388193259
 30
0.0
 10
12.00000000000004
 20
7.125359813068165
 30
0.0
 10
12.00000000000002
 20
7.564207858844119
 30
0.0
 10
12.00000000000001
 20
7.823425238008216
 30
0.0
 10
12.00000000000001
 20
7.902410935791101
 30
0.0
  0
LINE
  5
D4
330
1F
100
AcDbEntity
  8
중심선
 62
     1
100
AcDbLine
 10
-51.325
 20
-0.0000000000000042
 30
0.0
 11
46.75
 21
0.0000000000000035
 31
0.0
  0
LINE
  5
D5
330
1F
100
AcDbEntity
  8
참조1
100
AcDbLine
 10
-2.2875
 20
-0.0000000000000082
 30
0.0
 11
-2.287499999999993
 21
-40.00000000000001
 31
0.0
  0
LINE
  5
D6
330
1F
100
AcDbEntity
  8
참조1
100
AcDbLine
 10
-2.287499999999993
 20
-40.00000000000001
 30
0.0
 11
-34.90885681430865
 21
-40.0
 31
0.0
  0
INSERT
  5
D8
330
1F
100
AcDbEntity
  8
0
  6
Continuous
 62
     7
100
AcDbBlockReference
 66
     1
  2
블럭10
 10
-16.2277729321252
 20
-52.04717430164393
 30
0.0
  0
ATTRIB
  5
D9
330
D8
100
AcDbEntity
  8
FORMAT
 62
     2
100
AcDbText
 10
-26.36940894426183
 20
-49.97180738881175
 30
0.0
 40
4.233333333333333
  1
EM668040 [ 6 FLUTE ]
 41
0.75
  7
SLDTEXTSTYLE0
 11
-26.36940894426183
 21
-52.08847405547841
 31
0.0
100
AcDbAttribute
  2
AUTOATTR0
 70
     0
 74
     1
  0
SEQEND
  5
DA
330
D8
100
AcDbEntity
  8
0
  6
Continuous
 62
     7
  0
HATCH
  5
DB
330
1F
100
AcDbEntity
  8
중심선
100
AcDbHatch
 10
0.0
 20
0.0
 30
0.0
210
0.0
220
0.0
230
1.0
  2
SOLID
 70
     1
 71
     0
 91
        1
 92
        0
 93
        4
 72
     1
 10
-10.51286362774436
 20
-35.8
 11
-13.95913887158164
 21
-35.8
 72
     1
 10
-13.95913887158164
 20
-35.8
 11
-16.08736873078566
 21
-38.33632558057257
 72
     1
 10
-16.08736873078566
 20
-38.33632558057257
 11
-12.64106040183523
 21
-38.33628615127008
 72
     1
 10
-12.64106040183523
 20
-38.33628615127008
 11
-10.51286362774436
 21
-35.8
 97
        0
 75
     0
 76
     1
 98
        1
 10
-13.87499999999999
 20
-0.0010749287238974
  0
HATCH
  5
DC
330
1F
100
AcDbEntity
  8
중심선
100
AcDbHatch
 10
0.0
 20
0.0
 30
0.0
210
0.0
220
0.0
230
1.0
  2
SOLID
 70
     1
 71
     0
 91
        1
 92
        0
 93
        4
 72
     1
 10
-5.500099636708375
 20
-35.8
 11
-8.946374880545687
 21
-35.8
 72
     1
 10
-8.946374880545687
 20
-35.8
 11
-13.47751288890307
 21
-41.20000000000002
 72
     1
 10
-13.47751288890307
 20
-41.20000000000002
 11
-10.03123764506579
 21
-41.20000000000002
 72
     1
 10
-10.03123764506579
 20
-41.20000000000002
 11
-5.500099636708375
 21
-35.8
 97
        0
 75
     0
 76
     1
 98
        1
 10
-13.87499999999999
 20
-0.0010749287238974
  0
HATCH
  5
DD
330
1F
100
AcDbEntity
  8
중심선
100
AcDbHatch
 10
0.0
 20
0.0
 30
0.0
210
0.0
220
0.0
230
1.0
  2
SOLID
 70
     1
 71
     0
 91
        1
 92
        0
 93
        4
 72
     1
 10
-0.4873356456724807
 20
-35.79999999999998
 11
-3.933610889509568
 21
-35.79999999999998
 72
     1
 10
-3.933610889509568
 20
-35.79999999999998
 11
-10.98204779139887
 21
-44.20000000000002
 72
     1
 10
-10.98204779139887
 20
-44.20000000000002
 11
-7.53577254756159
 21
-44.20000000000002
 72
     1
 10
-7.53577254756159
 20
-44.20000000000002
 11
-0.4873356456724807
 21
-35.79999999999998
 97
        0
 75
     0
 76
     1
 98
        1
 10
-13.87499999999999
 20
-0.0010749287238974
  0
HATCH
  5
DE
330
1F
100
AcDbEntity
  8
중심선
100
AcDbHatch
 10
0.0
 20
0.0
 30
0.0
210
0.0
220
0.0
230
1.0
  2
SOLID
 70
     1
 71
     0
 91
        1
 92
        0
 93
        6
 72
     3
 10
4.312554785339692
 20
-40.00000000005127
 11
3.960054785062283
 21
1.540882976769353E-10
 40
0.3939339440162628
 50
17.09539180608437
 51
320.0019657685079
 73
     0
 72
     1
 10
5.995554441040287
 20
-38.5878940046383
 11
8.300856314741353
 21
-36.65356729459038
 72
     3
 10
4.312554785286846
 20
-40.00000000000015
 11
6.600054785286829
 21
-1.278976924368180E-13
 40
0.636358354079598
 50
39.99873849337386
 51
368.4976242363725
 73
     1
 72
     1
 10
10.73788727718745
 20
-39.03999999993002
 11
2.992622092122765
 21
-39.03999999993002
 72
     1
 10
2.992622092122765
 20
-39.03999999993002
 11
2.992597047676831
 21
-40.95999999992991
 72
     1
 10
2.992597047676831
 20
-40.95999999992991
 11
7.433976817148871
 21
-40.95999999992988
 97
        0
 75
     0
 76
     1
 98
        1
 10
-13.87499999999999
 20
-0.0010749287238974
  0
DIMENSION
  5
DF
330
1F
100
AcDbEntity
  8
치수문자_일반주서
100
AcDbDimension
  2
_D
 10
12.00000000000001
 20
18.18205064161513
 30
0.0
 11
27.87500000000001
 21
18.18205064161513
 31
0.0
 70
   160
  1
<>
 71
     2
 42
31.75000000000001
  3
SLDDIMSTYLE1
100
AcDbAlignedDimension
 13
43.75000000000002
 23
7.175500000000001
 33
0.0
 14
12.00000000000001
 24
7.902410935791101
 34
0.0
 50
0.0000000000000128
100
AcDbRotatedDimension
1001
PE_URL
1000

1001
ACAD
1000
DSTYLE
1002
{
1070
   171
1070
     6
1070
   273
1070
     7
1002
}
  0
DIMENSION
  5
F3
330
1F
100
AcDbEntity
  8
치수문자_일반주서
100
AcDbDimension
  2
_D_1
 10
-48.32499999999998
 20
30.67798174297421
 30
0.0
 11
-2.287499999999993
 21
30.67798174297421
 31
0.0
 70
   160
  1
<>
 71
     2
 42
92.075
  3
SLDDIMSTYLE1
100
AcDbAlignedDimension
 13
43.75000000000002
 23
7.175500000000001
 33
0.0
 14
-48.32499999999998
 24
6.349999999999998
 34
0.0
 50
0.0000000000000044
100
AcDbRotatedDimension
1001
PE_URL
1000

1001
ACAD
1000
DSTYLE
1002
{
1070
   171
1070
     6
1070
   273
1070
     7
1002
}
  0
DIMENSION
  5
106
330
1F
100
AcDbEntity
  8
치수문자_일반주서
100
AcDbDimension
  2
_D_2
 10
-60.37249999999997
 20
-7.93750000000007
 30
0.0
 11
-60.3725
 21
0.000000000000011
 31
0.0
 70
   160
  1
%%c<>
 71
     2
 42
15.87500000000003
 52
-270.0
  3
SLDDIMSTYLE1
100
AcDbAlignedDimension
 13
-46.73749999999999
 23
7.937500000000011
 33
0.0
 14
-46.73749999999999
 24
-7.937500000000018
 34
0.0
 50
90.0000000000002
100
AcDbRotatedDimension
1001
ACAD
1000
DSTYLE
1002
{
1070
   171
1070
     6
1070
   273
1070
     7
1002
}
1001
ACAD_DSTYLE_DIMFLIPARROW_SYMBOL
1070
   385
1070
     0
1001
ACAD_DSTYLE_DIMFLIPARROW_WHICH_SYMBOL
1070
   386
1070
     3
  0
DIMENSION
  5
11B
330
1F
100
AcDbEntity
  8
치수문자_일반주서
100
AcDbDimension
  2
_D_3
 10
71.79090477829189
 20
-7.937499999999833
 30
0.0
 11
71.79090477829176
 21
28.54150000000015
 31
0.0
 70
   160
  1
%%c<>
 71
     2
 42
15.87499999999999
 52
-270.0
  3
SLDDIMSTYLE1
100
AcDbAlignedDimension
 13
43.75000000000001
 23
7.937500000000048
 33
0.0
 14
43.75000000000001
 24
-7.937499999999943
 34
0.0
 50
90.0000000000002
100
AcDbRotatedDimension
1001
ACAD
1000
DSTYLE
1002
{
1070
   171
1070
     6
1070
   273
1070
     7
1002
}
1001
PE_URL
1000

  0
LINE
  5
12C
330
1F
100
AcDbEntity
  8
참조1
100
AcDbLine
 10
63.06348381534561
 20
7.439999999999998
 30
0.0
 11
63.06348381534561
 21
-7.440000000000007
 31
0.0
  0
LINE
  5
12D
330
1F
100
AcDbEntity
  8
참조1
100
AcDbLine
 10
75.76348381534561
 20
5.439999999999998
 30
0.0
 11
63.06348381534561
 21
5.439999999999998
 31
0.0
  0
SOLID
  5
12E
330
1F
100
AcDbEntity
  8
참조1
100
AcDbTrace
 10
63.06348381534561
 20
5.439999999999998
 30
0.0
 11
69.4134838153456
 21
4.423999999999998
 31
0.0
 12
69.4134838153456
 22
6.455999999999998
 32
0.0
 13
69.4134838153456
 23
6.455999999999998
 33
0.0
  0
LINE
  5
12F
330
1F
100
AcDbEntity
  8
참조1
100
AcDbLine
 10
75.76348381534561
 20
-5.440000000000007
 30
0.0
 11
63.06348381534561
 21
-5.440000000000007
 31
0.0
  0
SOLID
  5
130
330
1F
100
AcDbEntity
  8
참조1
100
AcDbTrace
 10
63.06348381534561
 20
-5.440000000000007
 30
0.0
 11
69.4134838153456
 21
-6.456000000000007
 31
0.0
 12
69.4134838153456
 22
-4.424000000000007
 32
0.0
 13
69.4134838153456
 23
-4.424000000000007
 33
0.0
  0
MTEXT
  5
131
330
1F
100
AcDbEntity
  8
참조1
100
AcDbMText
 10
72.46097390781588
 20
10.98821664464993
 30
0.0
 40
3.5
 41
0.0
 71
     1
 72
     1
  1
A
  7
SLDTEXTSTYLE0
 73
     1
 44
1.0
  0
MTEXT
  5
132
330
1F
100
AcDbEntity
  8
참조1
100
AcDbMText
 10
72.46097390781588
 20
0.1082166446499286
 30
0.0
 40
3.5
 41
0.0
 71
     1
 72
     1
  1
A
  7
SLDTEXTSTYLE0
 73
     1
 44
1.0
  0
INSERT
  5
139
330
1F
100
AcDbEntity
  8
해칭선
100
AcDbBlockReference
  2
SW_DOWELSYMBOL_0
 10
0.0
 20
0.0
 30
0.0
  0
MTEXT
  5
18A
102
{ACAD_REACTORS
330
18B
102
}
330
1F
100
AcDbEntity
  8
치수문자_일반주서
100
AcDbMText
 10
54.01577631579961
 20
-21.62762964080564
 30
0.0
 40
3.5
 41
0.0
 71
     7
 72
     1
  1
{R0.76[.030"]}
 73
     1
 44
1.0
1001
PE_URL
1000

1001
ACAD
1000
ACAD_MTEXT_DEFINED_HEIGHT_BEGIN
1070
    46
1040
3.5
1000
ACAD_MTEXT_DEFINED_HEIGHT_END
  0
LEADER
  5
18B
102
{ACAD_XDICTIONARY
360
18C
102
}
330
1F
100
AcDbEntity
  8
치수문자_일반주서
100
AcDbLeader
  3
ISO-25
 73
     0
 74
     0
 75
     1
 40
3.5
 41
30.91666666666667
 76
     3
 10
43.52681536726418
 20
-7.714315367264147
 30
0.0
 10
49.18977631579961
 20
-19.87762964080564
 30
0.0
 10
52.49177631579961
 20
-19.87762964080564
 30
0.0
340
18A
213
0.0
223
1.75
233
0.0
1001
ACAD
1000
DSTYLE
1002
{
1070
    77
1070
     0
1070
   179
1070
     2
1070
   143
1040
0.0393700787401575
1070
    41
1040
3.302
1070
    44
1040
1.0
1070
    42
1040
1.0
1070
   147
1040
1.524
1070
    73
1070
     1
1070
    74
1070
     1
1070
   140
1040
3.5
1070
   284
1070
     0
1070
    78
1070
     0
1002
}
1001
PE_URL
1000

  0
ENDSEC
  0
SECTION
  2
OBJECTS
  0
DICTIONARY
  5
C
330
0
100
AcDbDictionary
281
     1
  3
ACAD_GROUP
350
D
  3
ACAD_LAYOUT
350
1A
  3
ACAD_MLINESTYLE
350
17
  3
ACAD_PLOTSETTINGS
350
19
  3
ACAD_PLOTSTYLENAME
350
E
  3
ACAD_SCALELIST
350
47
  3
APPDATA
350
15B
  3
DWGPROPS
350
192
  0
DICTIONARY
  5
18C
330
18B
100
AcDbDictionary
280
     1
281
     1
  0
DICTIONARY
  5
D
102
{ACAD_REACTORS
330
C
102
}
330
C
100
AcDbDictionary
281
     1
  0
DICTIONARY
  5
1A
102
{ACAD_REACTORS
330
C
102
}
330
C
100
AcDbDictionary
281
     1
  3
Layout1
350
1E
  3
Layout2
350
26
  3
Model
350
22
  0
DICTIONARY
  5
17
102
{ACAD_REACTORS
330
C
102
}
330
C
100
AcDbDictionary
281
     1
  3
Standard
350
18
  0
DICTIONARY
  5
19
102
{ACAD_REACTORS
330
C
102
}
330
C
100
AcDbDictionary
281
     1
  0
ACDBDICTIONARYWDFLT
  5
E
102
{ACAD_REACTORS
330
C
102
}
330
C
100
AcDbDictionary
281
     1
  3
Normal
350
F
100
AcDbDictionaryWithDefault
340
F
  0
DICTIONARY
  5
47
102
{ACAD_REACTORS
330
C
102
}
330
C
100
AcDbDictionary
281
     1
  3
A0
350
48
  3
A1
350
49
  3
A2
350
4A
  3
A3
350
4B
  3
A4
350
4C
  3
A5
350
4D
  3
A6
350
4E
  3
A7
350
4F
  3
A8
350
50
  3
A9
350
51
  3
B0
350
52
  3
B1
350
53
  3
B2
350
54
  3
B3
350
55
  3
B4
350
56
  3
B5
350
57
  3
B6
350
58
  3
B7
350
59
  3
B8
350
5A
  3
B9
350
5B
  3
C0
350
5C
  3
C1
350
5D
  3
C2
350
5E
  3
C3
350
5F
  3
C4
350
60
  3
C5
350
61
  3
C6
350
62
  3
C7
350
63
  3
C8
350
64
  3
C9
350
65
  3
D0
350
66
  3
D1
350
67
  3
D2
350
68
  0
DICTIONARY
  5
15B
102
{ACAD_REACTORS
330
C
102
}
330
C
100
AcDbDictionary
281
     1
  0
XRECORD
  5
192
102
{ACAD_REACTORS
330
C
102
}
330
C
100
AcDbXrecord
280
     1
  1
DWGPROPS COOKIE
  2

  3

  4

  6

  7

  8
H
  9

300
=
301
=
302
=
303
=
304
=
305
=
306
=
307
=
308
=
309
=
 40
0.0
 41
2458295.114808229
 42
2458301.589304271
  1

 90
        0
  0
LAYOUT
  5
1E
102
{ACAD_REACTORS
330
1A
102
}
330
1A
100
AcDbPlotSettings
  1

  2
none_device
  4

  6

 40
0.0
 41
0.0
 42
0.0
 43
0.0
 44
0.0
 45
0.0
 46
0.0
 47
0.0
 48
0.0
 49
0.0
140
0.0
141
0.0
142
1.0
143
1.0
 70
   688
 72
     1
 73
     0
 74
     5
  7

 75
    16
147
1.0
148
0.0
149
0.0
100
AcDbLayout
  1
Layout1
 70
     1
 71
     1
 10
0.0
 20
0.0
 11
420.0
 21
297.0
 12
0.0
 22
0.0
 32
0.0
 14
1.000000000000000E+20
 24
1.000000000000000E+20
 34
1.000000000000000E+20
 15
-1.000000000000000E+20
 25
-1.000000000000000E+20
 35
-1.000000000000000E+20
146
0.0
 13
0.0
 23
0.0
 33
0.0
 16
1.0
 26
0.0
 36
0.0
 17
0.0
 27
1.0
 37
0.0
 76
     0
330
1B
  0
LAYOUT
  5
26
102
{ACAD_REACTORS
330
1A
102
}
330
1A
100
AcDbPlotSettings
  1

  2
none_device
  4

  6

 40
0.0
 41
0.0
 42
0.0
 43
0.0
 44
0.0
 45
0.0
 46
0.0
 47
0.0
 48
0.0
 49
0.0
140
0.0
141
0.0
142
1.0
143
1.0
 70
   688
 72
     1
 73
     0
 74
     5
  7

 75
    16
147
1.0
148
0.0
149
0.0
100
AcDbLayout
  1
Layout2
 70
     1
 71
     2
 10
0.0
 20
0.0
 11
0.0
 21
0.0
 12
0.0
 22
0.0
 32
0.0
 14
0.0
 24
0.0
 34
0.0
 15
0.0
 25
0.0
 35
0.0
146
0.0
 13
0.0
 23
0.0
 33
0.0
 16
1.0
 26
0.0
 36
0.0
 17
0.0
 27
1.0
 37
0.0
 76
     0
330
23
  0
LAYOUT
  5
22
102
{ACAD_REACTORS
330
1A
102
}
330
1A
100
AcDbPlotSettings
  1

  2
none_device
  4
ANSI_A_(11.00_x_8.50_Inches)
  6

 40
6.35
 41
19.05
 42
6.35000508
 43
19.05000254
 44
279.4
 45
215.9
 46
102.9009801858271
 47
97.6001367553625
 48
0.0
 49
0.0
140
0.0
141
0.0
142
0.0741174986998969
143
1.0
 70
  1696
 72
     0
 73
     0
 74
     0
  7

 75
     0
147
0.0235690232323232
148
0.0
149
0.0
100
AcDbLayout
  1
Model
 70
     1
 71
     0
 10
0.0
 20
0.0
 11
420.0
 21
297.0
 12
0.0
 22
0.0
 32
0.0
 14
-64.74750000000006
 24
-49.97180738881175
 34
0.0
 15
84.93244298246628
 25
42.54150000000014
 35
0.0
146
0.0
 13
0.0
 23
0.0
 33
0.0
 16
1.0
 26
0.0
 36
0.0
 17
0.0
 27
1.0
 37
0.0
 76
     0
330
1F
331
29
  0
MLINESTYLE
  5
18
102
{ACAD_REACTORS
330
17
102
}
330
17
100
AcDbMlineStyle
  2
Standard
 70
     0
  3

 62
   256
 51
90.0
 52
90.0
 71
     2
 49
0.5
 62
   256
  6
BYLAYER
 49
-0.5
 62
   256
  6
BYLAYER
  0
ACDBPLACEHOLDER
  5
F
102
{ACAD_REACTORS
330
E
102
}
330
E
  0
SCALE
  5
48
102
{ACAD_REACTORS
330
47
102
}
330
47
100
AcDbScale
 70
     0
300
1:1
140
1.0
141
1.0
290
     1
  0
SCALE
  5
49
102
{ACAD_REACTORS
330
47
102
}
330
47
100
AcDbScale
 70
     0
300
1:2
140
1.0
141
2.0
290
     0
  0
SCALE
  5
4A
102
{ACAD_REACTORS
330
47
102
}
330
47
100
AcDbScale
 70
     0
300
1:4
140
1.0
141
4.0
290
     0
  0
SCALE
  5
4B
102
{ACAD_REACTORS
330
47
102
}
330
47
100
AcDbScale
 70
     0
300
1:5
140
1.0
141
5.0
290
     0
  0
SCALE
  5
4C
102
{ACAD_REACTORS
330
47
102
}
330
47
100
AcDbScale
 70
     0
300
1:8
140
1.0
141
8.0
290
     0
  0
SCALE
  5
4D
102
{ACAD_REACTORS
330
47
102
}
330
47
100
AcDbScale
 70
     0
300
1:10
140
1.0
141
10.0
290
     0
  0
SCALE
  5
4E
102
{ACAD_REACTORS
330
47
102
}
330
47
100
AcDbScale
 70
     0
300
1:16
140
1.0
141
16.0
290
     0
  0
SCALE
  5
4F
102
{ACAD_REACTORS
330
47
102
}
330
47
100
AcDbScale
 70
     0
300
1:20
140
1.0
141
20.0
290
     0
  0
SCALE
  5
50
102
{ACAD_REACTORS
330
47
102
}
330
47
100
AcDbScale
 70
     0
300
1:30
140
1.0
141
30.0
290
     0
  0
SCALE
  5
51
102
{ACAD_REACTORS
330
47
102
}
330
47
100
AcDbScale
 70
     0
300
1:40
140
1.0
141
40.0
290
     0
  0
SCALE
  5
52
102
{ACAD_REACTORS
330
47
102
}
330
47
100
AcDbScale
 70
     0
300
1:50
140
1.0
141
50.0
290
     0
  0
SCALE
  5
53
102
{ACAD_REACTORS
330
47
102
}
330
47
100
AcDbScale
 70
     0
300
1:100
140
1.0
141
100.0
290
     0
  0
SCALE
  5
54
102
{ACAD_REACTORS
330
47
102
}
330
47
100
AcDbScale
 70
     0
300
2:1
140
2.0
141
1.0
290
     0
  0
SCALE
  5
55
102
{ACAD_REACTORS
330
47
102
}
330
47
100
AcDbScale
 70
     0
300
4:1
140
4.0
141
1.0
290
     0
  0
SCALE
  5
56
102
{ACAD_REACTORS
330
47
102
}
330
47
100
AcDbScale
 70
     0
300
8:1
140
8.0
141
1.0
290
     0
  0
SCALE
  5
57
102
{ACAD_REACTORS
330
47
102
}
330
47
100
AcDbScale
 70
     0
300
10:1
140
10.0
141
1.0
290
     0
  0
SCALE
  5
58
102
{ACAD_REACTORS
330
47
102
}
330
47
100
AcDbScale
 70
     0
300
100:1
140
100.0
141
1.0
290
     0
  0
SCALE
  5
59
102
{ACAD_REACTORS
330
47
102
}
330
47
100
AcDbScale
 70
     0
300
1/128" = 1'-0"
140
0.0078125
141
12.0
290
     0
  0
SCALE
  5
5A
102
{ACAD_REACTORS
330
47
102
}
330
47
100
AcDbScale
 70
     0
300
1/64" = 1'-0"
140
0.015625
141
12.0
290
     0
  0
SCALE
  5
5B
102
{ACAD_REACTORS
330
47
102
}
330
47
100
AcDbScale
 70
     0
300
1/32" = 1'-0"
140
0.03125
141
12.0
290
     0
  0
SCALE
  5
5C
102
{ACAD_REACTORS
330
47
102
}
330
47
100
AcDbScale
 70
     0
300
1/16" = 1'-0"
140
0.0625
141
12.0
290
     0
  0
SCALE
  5
5D
102
{ACAD_REACTORS
330
47
102
}
330
47
100
AcDbScale
 70
     0
300
3/32" = 1'-0"
140
0.09375
141
12.0
290
     0
  0
SCALE
  5
5E
102
{ACAD_REACTORS
330
47
102
}
330
47
100
AcDbScale
 70
     0
300
1/8" = 1'-0"
140
0.125
141
12.0
290
     0
  0
SCALE
  5
5F
102
{ACAD_REACTORS
330
47
102
}
330
47
100
AcDbScale
 70
     0
300
3/16" = 1'-0"
140
0.1875
141
12.0
290
     0
  0
SCALE
  5
60
102
{ACAD_REACTORS
330
47
102
}
330
47
100
AcDbScale
 70
     0
300
1/4" = 1'-0"
140
0.25
141
12.0
290
     0
  0
SCALE
  5
61
102
{ACAD_REACTORS
330
47
102
}
330
47
100
AcDbScale
 70
     0
300
3/8" = 1'-0"
140
0.375
141
12.0
290
     0
  0
SCALE
  5
62
102
{ACAD_REACTORS
330
47
102
}
330
47
100
AcDbScale
 70
     0
300
1/2" = 1'-0"
140
0.5
141
12.0
290
     0
  0
SCALE
  5
63
102
{ACAD_REACTORS
330
47
102
}
330
47
100
AcDbScale
 70
     0
300
3/4" = 1'-0"
140
0.75
141
12.0
290
     0
  0
SCALE
  5
64
102
{ACAD_REACTORS
330
47
102
}
330
47
100
AcDbScale
 70
     0
300
1" = 1'-0"
140
1.0
141
12.0
290
     0
  0
SCALE
  5
65
102
{ACAD_REACTORS
330
47
102
}
330
47
100
AcDbScale
 70
     0
300
1-1/2" = 1'-0"
140
1.5
141
12.0
290
     0
  0
SCALE
  5
66
102
{ACAD_REACTORS
330
47
102
}
330
47
100
AcDbScale
 70
     0
300
3" = 1'-0"
140
3.0
141
12.0
290
     0
  0
SCALE
  5
67
102
{ACAD_REACTORS
330
47
102
}
330
47
100
AcDbScale
 70
     0
300
6" = 1'-0"
140
6.0
141
12.0
290
     0
  0
SCALE
  5
68
102
{ACAD_REACTORS
330
47
102
}
330
47
100
AcDbScale
 70
     0
300
1'-0" = 1'-0"
140
12.0
141
12.0
290
     0
  0
ENDSEC
  0
EOF
