  0
SECTION
  2
HEADER
  9
$ACADVER
  1
AC1015
  9
$ACADMAINTVER
 70
     6
  9
$DWGCODEPAGE
  3
ANSI_949
  9
$INSBASE
 10
0.0
 20
0.0
 30
0.0
  9
$EXTMIN
 10
-66.05000000000008
 20
-49.97180738881174
 30
0.0
  9
$EXTMAX
 10
93.22598381534559
 20
57.7096871005775
 30
0.0
  9
$LIMMIN
 10
0.0
 20
0.0
  9
$LIMMAX
 10
420.0
 20
297.0
  9
$ORTHOMODE
 70
     1
  9
$REGENMODE
 70
     1
  9
$FILLMODE
 70
     1
  9
$QTEXTMODE
 70
     0
  9
$MIRRTEXT
 70
     1
  9
$LTSCALE
 40
1.0
  9
$ATTMODE
 70
     1
  9
$TEXTSIZE
 40
3.5
  9
$TRACEWID
 40
1.0
  9
$TEXTSTYLE
  7
Standard
  9
$CLAYER
  8
0
  9
$CELTYPE
  6
ByLayer
  9
$CECOLOR
 62
   256
  9
$CELTSCALE
 40
1.0
  9
$DISPSILH
 70
     0
  9
$DIMSCALE
 40
1.0
  9
$DIMASZ
 40
3.302
  9
$DIMEXO
 40
1.0
  9
$DIMDLI
 40
3.75
  9
$DIMRND
 40
0.0
  9
$DIMDLE
 40
0.0
  9
$DIMEXE
 40
1.0
  9
$DIMTP
 40
0.0
  9
$DIMTM
 40
0.0
  9
$DIMTXT
 40
3.5
  9
$DIMCEN
 40
2.5
  9
$DIMTSZ
 40
0.0
  9
$DIMTOL
 70
     0
  9
$DIMLIM
 70
     0
  9
$DIMTIH
 70
     1
  9
$DIMTOH
 70
     1
  9
$DIMSE1
 70
     0
  9
$DIMSE2
 70
     0
  9
$DIMTAD
 70
     1
  9
$DIMZIN
 70
     0
  9
$DIMBLK
  1

  9
$DIMASO
 70
     1
  9
$DIMSHO
 70
     1
  9
$DIMPOST
  1

  9
$DIMAPOST
  1

  9
$DIMALT
 70
     0
  9
$DIMALTD
 70
     3
  9
$DIMALTF
 40
0.0393700787401575
  9
$DIMLFAC
 40
1.0
  9
$DIMTOFL
 70
     1
  9
$DIMTVP
 40
0.0
  9
$DIMTIX
 70
     0
  9
$DIMSOXD
 70
     0
  9
$DIMSAH
 70
     0
  9
$DIMBLK1
  1

  9
$DIMBLK2
  1

  9
$DIMSTYLE
  2
ISO-25
  9
$DIMCLRD
 70
     0
  9
$DIMCLRE
 70
     0
  9
$DIMCLRT
 70
     0
  9
$DIMTFAC
 40
1.0
  9
$DIMGAP
 40
1.524
  9
$DIMJUST
 70
     0
  9
$DIMSD1
 70
     0
  9
$DIMSD2
 70
     0
  9
$DIMTOLJ
 70
     0
  9
$DIMTZIN
 70
     0
  9
$DIMALTZ
 70
     0
  9
$DIMALTTZ
 70
     0
  9
$DIMUPT
 70
     0
  9
$DIMDEC
 70
     2
  9
$DIMTDEC
 70
     2
  9
$DIMALTU
 70
     2
  9
$DIMALTTD
 70
     3
  9
$DIMTXSTY
  7
Standard
  9
$DIMAUNIT
 70
     0
  9
$DIMADEC
 70
     2
  9
$DIMALTRND
 40
0.0
  9
$DIMAZIN
 70
     0
  9
$DIMDSEP
 70
    44
  9
$DIMATFIT
 70
     3
  9
$DIMFRAC
 70
     0
  9
$DIMLDRBLK
  1

  9
$DIMLUNIT
 70
     2
  9
$DIMLWD
 70
    -2
  9
$DIMLWE
 70
    -2
  9
$DIMTMOVE
 70
     0
  9
$LUNITS
 70
     2
  9
$LUPREC
 70
     2
  9
$SKETCHINC
 40
1.0
  9
$FILLETRAD
 40
10.0
  9
$AUNITS
 70
     0
  9
$AUPREC
 70
     2
  9
$MENU
  1
.
  9
$ELEVATION
 40
0.0
  9
$PELEVATION
 40
0.0
  9
$THICKNESS
 40
0.0
  9
$LIMCHECK
 70
     0
  9
$CHAMFERA
 40
0.0
  9
$CHAMFERB
 40
0.0
  9
$CHAMFERC
 40
0.0
  9
$CHAMFERD
 40
0.0
  9
$SKPOLY
 70
     0
  9
$TDCREATE
 40
2458295.510468761
  9
$TDUCREATE
 40
2458295.135468761
  9
$TDUPDATE
 40
2458301.975703993
  9
$TDUUPDATE
 40
2458301.600703993
  9
$TDINDWG
 40
0.0039145255
  9
$TDUSRTIMER
 40
0.0113987269
  9
$USRTIMER
 70
     1
  9
$ANGBASE
 50
0.0
  9
$ANGDIR
 70
     0
  9
$PDMODE
 70
     0
  9
$PDSIZE
 40
-1.0
  9
$PLINEWID
 40
0.0
  9
$SPLFRAME
 70
     0
  9
$SPLINETYPE
 70
     6
  9
$SPLINESEGS
 70
     8
  9
$HANDSEED
  5
1D4
  9
$SURFTAB1
 70
     6
  9
$SURFTAB2
 70
     6
  9
$SURFTYPE
 70
     6
  9
$SURFU
 70
     6
  9
$SURFV
 70
     6
  9
$UCSBASE
  2

  9
$UCSNAME
  2

  9
$UCSORG
 10
0.0
 20
0.0
 30
0.0
  9
$UCSXDIR
 10
1.0
 20
0.0
 30
0.0
  9
$UCSYDIR
 10
0.0
 20
1.0
 30
0.0
  9
$UCSORTHOREF
  2

  9
$UCSORTHOVIEW
 70
     0
  9
$UCSORGTOP
 10
0.0
 20
0.0
 30
0.0
  9
$UCSORGBOTTOM
 10
0.0
 20
0.0
 30
0.0
  9
$UCSORGLEFT
 10
0.0
 20
0.0
 30
0.0
  9
$UCSORGRIGHT
 10
0.0
 20
0.0
 30
0.0
  9
$UCSORGFRONT
 10
0.0
 20
0.0
 30
0.0
  9
$UCSORGBACK
 10
0.0
 20
0.0
 30
0.0
  9
$PUCSBASE
  2

  9
$PUCSNAME
  2

  9
$PUCSORG
 10
0.0
 20
0.0
 30
0.0
  9
$PUCSXDIR
 10
1.0
 20
0.0
 30
0.0
  9
$PUCSYDIR
 10
0.0
 20
1.0
 30
0.0
  9
$PUCSORTHOREF
  2

  9
$PUCSORTHOVIEW
 70
     0
  9
$PUCSORGTOP
 10
0.0
 20
0.0
 30
0.0
  9
$PUCSORGBOTTOM
 10
0.0
 20
0.0
 30
0.0
  9
$PUCSORGLEFT
 10
0.0
 20
0.0
 30
0.0
  9
$PUCSORGRIGHT
 10
0.0
 20
0.0
 30
0.0
  9
$PUCSORGFRONT
 10
0.0
 20
0.0
 30
0.0
  9
$PUCSORGBACK
 10
0.0
 20
0.0
 30
0.0
  9
$USERI1
 70
     0
  9
$USERI2
 70
     0
  9
$USERI3
 70
     0
  9
$USERI4
 70
     0
  9
$USERI5
 70
     0
  9
$USERR1
 40
0.0
  9
$USERR2
 40
0.0
  9
$USERR3
 40
0.0
  9
$USERR4
 40
0.0
  9
$USERR5
 40
0.0
  9
$WORLDVIEW
 70
     1
  9
$SHADEDGE
 70
     3
  9
$SHADEDIF
 70
    70
  9
$TILEMODE
 70
     1
  9
$MAXACTVP
 70
    64
  9
$PINSBASE
 10
0.0
 20
0.0
 30
0.0
  9
$PLIMCHECK
 70
     0
  9
$PEXTMIN
 10
1.000000000000000E+20
 20
1.000000000000000E+20
 30
1.000000000000000E+20
  9
$PEXTMAX
 10
-1.000000000000000E+20
 20
-1.000000000000000E+20
 30
-1.000000000000000E+20
  9
$PLIMMIN
 10
0.0
 20
0.0
  9
$PLIMMAX
 10
0.0
 20
0.0
  9
$UNITMODE
 70
     0
  9
$VISRETAIN
 70
     1
  9
$PLINEGEN
 70
     0
  9
$PSLTSCALE
 70
     1
  9
$TREEDEPTH
 70
  3020
  9
$CMLSTYLE
  2
Standard
  9
$CMLJUST
 70
     0
  9
$CMLSCALE
 40
20.0
  9
$PROXYGRAPHICS
 70
     1
  9
$MEASUREMENT
 70
     1
  9
$CELWEIGHT
370
    -1
  9
$ENDCAPS
280
     0
  9
$JOINSTYLE
280
     0
  9
$LWDISPLAY
290
     1
  9
$INSUNITS
 70
     4
  9
$HYPERLINKBASE
  1

  9
$STYLESHEET
  1

  9
$XEDIT
290
     1
  9
$CEPSNTYPE
380
     0
  9
$PSTYLEMODE
290
     1
  9
$FINGERPRINTGUID
  2
{E8207AB6-6AB7-4706-BD31-93B1C51706E2}
  9
$VERSIONGUID
  2
{FAEB1C32-E019-11D5-929B-00C0DF256EC4}
  9
$EXTNAMES
290
     1
  9
$PSVPSCALE
 40
0.0
  9
$OLESTARTUP
290
     0
  0
ENDSEC
  0
SECTION
  2
CLASSES
  0
CLASS
  1
ACDBDICTIONARYWDFLT
  2
AcDbDictionaryWithDefault
  3
ObjectDBX Classes
 90
        0
280
     0
281
     0
  0
CLASS
  1
VISUALSTYLE
  2
AcDbVisualStyle
  3
ObjectDBX Classes
 90
     4095
280
     0
281
     0
  0
CLASS
  1
MATERIAL
  2
AcDbMaterial
  3
ObjectDBX Classes
 90
     1153
280
     0
281
     0
  0
CLASS
  1
SCALE
  2
AcDbScale
  3
ObjectDBX Classes
 90
     1153
280
     0
281
     0
  0
CLASS
  1
SUN
  2
AcDbSun
  3
SCENEOE
 90
     1153
280
     0
281
     0
  0
CLASS
  1
ACDBPLACEHOLDER
  2
AcDbPlaceHolder
  3
ObjectDBX Classes
 90
        0
280
     0
281
     0
  0
CLASS
  1
LAYOUT
  2
AcDbLayout
  3
ObjectDBX Classes
 90
        0
280
     0
281
     0
  0
CLASS
  1
TABLESTYLE
  2
AcDbTableStyle
  3
ObjectDBX Classes
 90
     4095
280
     0
281
     0
  0
CLASS
  1
MLEADERSTYLE
  2
AcDbMLeaderStyle
  3
ACDB_MLEADERSTYLE_CLASS
 90
     4095
280
     0
281
     0
  0
CLASS
  1
DICTIONARYVAR
  2
AcDbDictionaryVar
  3
ObjectDBX Classes
 90
        0
280
     0
281
     0
  0
ENDSEC
  0
SECTION
  2
TABLES
  0
TABLE
  2
VPORT
  5
8
330
0
100
AcDbSymbolTable
 70
     1
  0
VPORT
  5
29
330
8
100
AcDbSymbolTableRecord
100
AcDbViewportTableRecord
  2
*Active
 70
     0
 10
0.0
 20
0.0
 11
1.0
 21
1.0
 12
13.58799190767276
 22
3.868939855882878
 13
0.0
 23
0.0
 14
10.0
 24
10.0
 15
10.0
 25
10.0
 16
0.0
 26
0.0
 36
1.0
 17
0.0
 27
0.0
 37
0.0
 40
109.835124379177
 41
2.400311526479751
 42
50.0
 43
0.0
 44
0.0
 50
0.0
 51
0.0
 71
    16
 72
  2000
 73
     1
 74
     3
 75
     0
 76
     0
 77
     0
 78
     0
281
     0
 65
     1
110
0.0
120
0.0
130
0.0
111
1.0
121
0.0
131
0.0
112
0.0
122
1.0
132
0.0
 79
     0
146
0.0
  0
ENDTAB
  0
TABLE
  2
LTYPE
  5
5
330
0
100
AcDbSymbolTable
 70
     6
  0
LTYPE
  5
14
330
5
100
AcDbSymbolTableRecord
100
AcDbLinetypeTableRecord
  2
ByBlock
 70
     0
  3

 72
    65
 73
     0
 40
0.0
  0
LTYPE
  5
15
330
5
100
AcDbSymbolTableRecord
100
AcDbLinetypeTableRecord
  2
ByLayer
 70
     0
  3

 72
    65
 73
     0
 40
0.0
  0
LTYPE
  5
16
330
5
100
AcDbSymbolTableRecord
100
AcDbLinetypeTableRecord
  2
Continuous
 70
     0
  3
Solid line
 72
    65
 73
     0
 40
0.0
  0
LTYPE
  5
6A
330
5
100
AcDbSymbolTableRecord
100
AcDbLinetypeTableRecord
  2
HIDDEN
 70
     0
  3
Hidden __ __ __ __ __ __ __ __ __ __ __ __ __ __
 72
    65
 73
     2
 40
1.905
 49
1.27
 74
     0
 49
-0.635
 74
     0
  0
LTYPE
  5
6B
330
5
100
AcDbSymbolTableRecord
100
AcDbLinetypeTableRecord
  2
PHANTOM
 70
     0
  3
Phantom ______  __  __  ______  __  __  ______
 72
    65
 73
     6
 40
12.7
 49
6.35
 74
     0
 49
-1.27
 74
     0
 49
1.27
 74
     0
 49
-1.27
 74
     0
 49
1.27
 74
     0
 49
-1.27
 74
     0
  0
LTYPE
  5
6C
330
5
100
AcDbSymbolTableRecord
100
AcDbLinetypeTableRecord
  2
CENTER
 70
     0
  3
Center ____ _ ____ _ ____ _ ____ _ ____ _ ____
 72
    65
 73
     4
 40
10.16
 49
6.35
 74
     0
 49
-1.27
 74
     0
 49
1.27
 74
     0
 49
-1.27
 74
     0
  0
LTYPE
  5
6D
330
5
100
AcDbSymbolTableRecord
100
AcDbLinetypeTableRecord
  2
CENTERX2
 70
     0
  3
Center (2x) ________  __  ________  __  _____
 72
    65
 73
     4
 40
20.32
 49
12.7
 74
     0
 49
-2.54
 74
     0
 49
2.54
 74
     0
 49
-2.54
 74
     0
  0
LTYPE
  5
6E
330
5
100
AcDbSymbolTableRecord
100
AcDbLinetypeTableRecord
  2
DOT2
 70
     0
  3
Dot (.5x) ........................................
 72
    65
 73
     2
 40
0.635
 49
0.0
 74
     0
 49
-0.635
 74
     0
  0
ENDTAB
  0
TABLE
  2
LAYER
  5
2
330
0
100
AcDbSymbolTable
 70
    18
  0
LAYER
  5
10
330
2
100
AcDbSymbolTableRecord
100
AcDbLayerTableRecord
  2
0
 70
     0
 62
     7
  6
Continuous
370
    -3
390
F
  0
LAYER
  5
6F
330
2
100
AcDbSymbolTableRecord
100
AcDbLayerTableRecord
  2
FORMAT
 70
     0
 62
     2
  6
Continuous
370
    -3
390
F
  0
LAYER
  5
70
330
2
100
AcDbSymbolTableRecord
100
AcDbLayerTableRecord
  2
외형선
 70
     0
 62
     4
  6
Continuous
370
    30
390
F
  0
LAYER
  5
71
330
2
100
AcDbSymbolTableRecord
100
AcDbLayerTableRecord
  2
숨은선
 70
     0
 62
     2
  6
HIDDEN
370
    15
390
F
  0
LAYER
  5
72
330
2
100
AcDbSymbolTableRecord
100
AcDbLayerTableRecord
  2
중심선
 70
     0
 62
     1
  6
CENTERX2
370
    -3
390
F
  0
LAYER
  5
73
330
2
100
AcDbSymbolTableRecord
100
AcDbLayerTableRecord
  2
파단선
 70
     0
 62
     4
  6
Continuous
370
    -3
390
F
  0
LAYER
  5
74
330
2
100
AcDbSymbolTableRecord
100
AcDbLayerTableRecord
  2
해칭선
 70
     0
 62
   100
  6
Continuous
370
    -3
390
F
  0
LAYER
  5
75
330
2
100
AcDbSymbolTableRecord
100
AcDbLayerTableRecord
  2
가는실선
 70
     0
 62
     4
  6
Continuous
370
    -3
390
F
  0
LAYER
  5
76
330
2
100
AcDbSymbolTableRecord
100
AcDbLayerTableRecord
  2
치수_보조선
 70
     0
 62
     4
  6
Continuous
370
    -3
390
F
  0
LAYER
  5
77
330
2
100
AcDbSymbolTableRecord
100
AcDbLayerTableRecord
  2
치수문자_일반주서
 70
     0
 62
     7
  6
Continuous
370
    15
390
F
  0
LAYER
  5
78
330
2
100
AcDbSymbolTableRecord
100
AcDbLayerTableRecord
  2
개별주서
 70
     0
 62
   100
  6
Continuous
370
    30
390
F
  0
LAYER
  5
79
330
2
100
AcDbSymbolTableRecord
100
AcDbLayerTableRecord
  2
중간선
 70
     0
 62
     2
  6
Continuous
370
    15
390
F
  0
LAYER
  5
7A
330
2
100
AcDbSymbolTableRecord
100
AcDbLayerTableRecord
  2
윤곽선
 70
     0
 62
     3
  6
Continuous
370
    40
390
F
  0
LAYER
  5
7B
330
2
100
AcDbSymbolTableRecord
100
AcDbLayerTableRecord
  2
중심마크
 70
     0
 62
   100
  6
Continuous
370
    30
390
F
  0
LAYER
  5
7C
330
2
100
AcDbSymbolTableRecord
100
AcDbLayerTableRecord
  2
가상선
 70
     0
 62
     4
  6
PHANTOM
370
    -3
390
F
  0
LAYER
  5
7D
330
2
100
AcDbSymbolTableRecord
100
AcDbLayerTableRecord
  2
특수지정선
 70
     0
 62
     5
  6
CENTERX2
370
    60
390
F
  0
LAYER
  5
7E
330
2
100
AcDbSymbolTableRecord
100
AcDbLayerTableRecord
  2
참조1
 70
     0
 62
    -4
  6
Continuous
370
    -3
390
F
  0
LAYER
  5
1C0
330
2
100
AcDbSymbolTableRecord
100
AcDbLayerTableRecord
  2
Defpoints
 70
     0
 62
     7
  6
Continuous
290
     0
370
    -3
390
F
  0
ENDTAB
  0
TABLE
  2
STYLE
  5
3
330
0
100
AcDbSymbolTable
 70
     2
  0
STYLE
  5
11
330
3
100
AcDbSymbolTableRecord
100
AcDbTextStyleTableRecord
  2
Standard
 70
     0
 40
0.0
 41
1.0
 50
0.0
 71
     0
 42
3.5
  3
txt
  4

  0
STYLE
  5
94
330
3
100
AcDbSymbolTableRecord
100
AcDbTextStyleTableRecord
  2
SLDTEXTSTYLE0
 70
     0
 40
0.0
 41
0.75
 50
0.0
 71
     0
 42
3.5
  3
TXT
  4

  0
ENDTAB
  0
TABLE
  2
VIEW
  5
6
330
0
100
AcDbSymbolTable
 70
     0
  0
ENDTAB
  0
TABLE
  2
UCS
  5
7
330
0
100
AcDbSymbolTable
 70
     0
  0
ENDTAB
  0
TABLE
  2
APPID
  5
9
330
0
100
AcDbSymbolTable
 70
     5
  0
APPID
  5
12
330
9
100
AcDbSymbolTableRecord
100
AcDbRegAppTableRecord
  2
ACAD
 70
     0
  0
APPID
  5
171
330
9
100
AcDbSymbolTableRecord
100
AcDbRegAppTableRecord
  2
PE_URL
 70
     0
  0
APPID
  5
1CE
330
9
100
AcDbSymbolTableRecord
100
AcDbRegAppTableRecord
  2
ACAD_DSTYLE_DIMRADIAL_EXTENSION
 70
     0
  0
APPID
  5
1D2
330
9
100
AcDbSymbolTableRecord
100
AcDbRegAppTableRecord
  2
ACAD_DSTYLE_DIMFLIPARROW_SYMBOL
 70
     0
  0
APPID
  5
1D3
330
9
100
AcDbSymbolTableRecord
100
AcDbRegAppTableRecord
  2
ACAD_DSTYLE_DIMFLIPARROW_WHICH_SYMBOL
 70
     0
  0
ENDTAB
  0
TABLE
  2
DIMSTYLE
  5
A
330
0
100
AcDbSymbolTable
 70
     4
100
AcDbDimStyleTable
  0
DIMSTYLE
105
27
102
{ACAD_REACTORS
330
1B8
330
1BE
102
}
330
A
100
AcDbSymbolTableRecord
100
AcDbDimStyleTableRecord
  2
ISO-25
 70
     0
 41
2.5
 42
0.625
 43
3.75
 44
1.25
 73
     0
 74
     0
 77
     1
 78
     8
140
2.5
141
2.5
143
0.03937007874016
147
0.625
171
     3
172
     1
178
     0
271
     2
272
     2
274
     3
278
    44
283
     0
284
     8
340
11
  0
DIMSTYLE
105
EC
102
{ACAD_REACTORS
330
EB
330
100
330
114
330
128
102
}
330
A
100
AcDbSymbolTableRecord
100
AcDbDimStyleTableRecord
  2
SLDDIMSTYLE0
 70
     0
 41
3.302
 44
0.0
 45
0.000000001
 73
     0
 74
     0
 77
     1
 78
    12
 79
     3
140
3.5
143
0.0393700787401575
147
0.875
148
0.000000001
170
     1
172
     1
173
     1
178
     0
271
     2
272
     2
276
     2
284
    12
289
     0
340
94
  0
DIMSTYLE
105
115
330
A
100
AcDbSymbolTableRecord
100
AcDbDimStyleTableRecord
  2
SLDDIMSTYLE1
 70
     0
 41
3.302
 44
0.0
 45
0.000000001
 73
     0
 74
     0
 77
     1
 78
     4
 79
     1
140
3.5
143
0.0393700787401575
147
0.875
148
0.000000001
170
     1
173
     1
178
     0
271
     2
272
     2
276
     2
284
    12
340
94
  0
DIMSTYLE
105
129
330
A
100
AcDbSymbolTableRecord
100
AcDbDimStyleTableRecord
  2
SLDDIMSTYLE2
 70
     0
 41
3.302
 44
0.0
 45
0.000000001
 73
     0
 74
     0
 77
     1
 78
    12
 79
     3
140
3.5
143
0.0393700787401575
147
0.875
148
0.000000001
170
     1
173
     1
178
     0
271
     2
272
     2
276
     2
284
    12
340
94
  0
ENDTAB
  0
TABLE
  2
BLOCK_RECORD
  5
1
330
0
100
AcDbSymbolTable
 70
     9
  0
BLOCK_RECORD
  5
1F
330
1
100
AcDbSymbolTableRecord
100
AcDbBlockTableRecord
  2
*Model_Space
340
22
  0
BLOCK_RECORD
  5
1B
330
1
100
AcDbSymbolTableRecord
100
AcDbBlockTableRecord
  2
*Paper_Space
340
1E
  0
BLOCK_RECORD
  5
23
330
1
100
AcDbSymbolTableRecord
100
AcDbBlockTableRecord
  2
*Paper_Space0
340
26
  0
BLOCK_RECORD
  5
7F
330
1
100
AcDbSymbolTableRecord
100
AcDbBlockTableRecord
  2
블럭10
340
0
102
{BLKREFS
331
E4
102
}
  0
BLOCK_RECORD
  5
ED
330
1
100
AcDbSymbolTableRecord
100
AcDbBlockTableRecord
  2
_D
340
0
  0
BLOCK_RECORD
  5
101
330
1
100
AcDbSymbolTableRecord
100
AcDbBlockTableRecord
  2
_D_1
340
0
  0
BLOCK_RECORD
  5
116
330
1
100
AcDbSymbolTableRecord
100
AcDbBlockTableRecord
  2
_D_2
340
0
  0
BLOCK_RECORD
  5
12A
330
1
100
AcDbSymbolTableRecord
100
AcDbBlockTableRecord
  2
_D_3
340
0
  0
BLOCK_RECORD
  5
143
330
1
100
AcDbSymbolTableRecord
100
AcDbBlockTableRecord
  2
SW_DOWELSYMBOL_0
340
0
102
{BLKREFS
331
149
102
}
  0
ENDTAB
  0
ENDSEC
  0
SECTION
  2
BLOCKS
  0
BLOCK
  5
20
330
1F
100
AcDbEntity
  8
0
100
AcDbBlockBegin
  2
*Model_Space
 70
     0
 10
0.0
 20
0.0
 30
0.0
  3
*Model_Space
  1

  0
ENDBLK
  5
21
330
1F
100
AcDbEntity
  8
0
100
AcDbBlockEnd
  0
BLOCK
  5
1C
330
1B
100
AcDbEntity
 67
     1
  8
0
100
AcDbBlockBegin
  2
*Paper_Space
 70
     0
 10
0.0
 20
0.0
 30
0.0
  3
*Paper_Space
  1

  0
ENDBLK
  5
1D
330
1B
100
AcDbEntity
 67
     1
  8
0
100
AcDbBlockEnd
  0
BLOCK
  5
24
330
23
100
AcDbEntity
  8
0
100
AcDbBlockBegin
  2
*Paper_Space0
 70
     0
 10
0.0
 20
0.0
 30
0.0
  3
*Paper_Space0
  1

  0
ENDBLK
  5
25
330
23
100
AcDbEntity
  8
0
100
AcDbBlockEnd
  0
BLOCK
  5
80
330
7F
100
AcDbEntity
  8
0
100
AcDbBlockBegin
  2
블럭10
 70
     2
 10
0.0
 20
0.0
 30
0.0
  3
블럭10
  1

  0
ELLIPSE
  5
82
330
7F
100
AcDbEntity
  8
중심선
100
AcDbEllipse
 10
20.54032771741204
 20
12.0471743016438
 30
0.0
 11
6.600054785286829
 21
-1.261213355974178E-13
 31
0.0
210
0.0
220
0.0
230
1.0
 40
0.636358354079598
 41
0.9219305317359503
 42
6.513795318482858
  0
ELLIPSE
  5
83
330
7F
100
AcDbEntity
  8
중심선
100
AcDbEllipse
 10
20.54032771746488
 20
12.04717430159265
 30
0.0
 11
3.960054785062283
 21
1.540847449632565E-10
 31
0.0
210
0.0
220
0.0
230
1.0
 40
0.3939339440162632
 41
1.131841032648279
 42
5.62031148352944
  0
LINE
  5
84
330
7F
100
AcDbEntity
  8
중심선
100
AcDbLine
 10
2.268634060543552
 20
16.24717430164393
 30
0.0
 11
5.714909304380834
 21
16.24717430164393
 31
0.0
  0
LINE
  5
85
330
7F
100
AcDbEntity
  8
중심선
100
AcDbLine
 10
5.245725140726316
 20
7.84717430164391
 30
0.0
 11
8.692000384563599
 21
7.84717430164391
 31
0.0
  0
LINE
  5
86
330
7F
100
AcDbEntity
  8
중심선
100
AcDbLine
 10
15.74043728645272
 20
16.24717430164393
 30
0.0
 11
8.692000384563599
 21
7.84717430164391
 31
0.0
  0
LINE
  5
87
330
7F
100
AcDbEntity
  8
중심선
100
AcDbLine
 10
0.1404042013395286
 20
13.71084872107135
 30
0.0
 11
3.58671253028996
 21
13.71088815037384
 31
0.0
  0
LINE
  5
88
330
7F
100
AcDbEntity
  8
중심선
100
AcDbLine
 10
2.750260043222114
 20
10.84717430164391
 30
0.0
 11
6.196535287059397
 21
10.84717430164391
 31
0.0
  0
LINE
  5
89
330
7F
100
AcDbEntity
  8
중심선
100
AcDbLine
 10
12.29416204261559
 20
16.24717430164393
 30
0.0
 11
5.245725140726316
 21
7.84717430164391
 31
0.0
  0
LINE
  5
8A
330
7F
100
AcDbEntity
  8
중심선
100
AcDbLine
 10
10.72767329541681
 20
16.24717430164393
 30
0.0
 11
6.196535287059397
 21
10.84717430164391
 31
0.0
  0
LINE
  5
8B
330
7F
100
AcDbEntity
  8
중심선
100
AcDbLine
 10
7.28139805157953
 20
16.24717430164393
 30
0.0
 11
2.750260043222114
 21
10.84717430164391
 31
0.0
  0
LINE
  5
8C
330
7F
100
AcDbEntity
  8
중심선
100
AcDbLine
 10
5.714909304380834
 20
16.24717430164393
 30
0.0
 11
3.58671253028996
 21
13.71088815037384
 31
0.0
  0
LINE
  5
8D
330
7F
100
AcDbEntity
  8
중심선
100
AcDbLine
 10
2.268634060543552
 20
16.24717430164393
 30
0.0
 11
0.1404042013395286
 21
13.71084872107135
 31
0.0
  0
LINE
  5
8E
330
7F
100
AcDbEntity
  8
중심선
100
AcDbLine
 10
7.28139805157953
 20
16.24717430164393
 30
0.0
 11
10.72767329541681
 21
16.24717430164393
 31
0.0
  0
LINE
  5
8F
330
7F
100
AcDbEntity
  8
중심선
100
AcDbLine
 10
12.29416204261559
 20
16.24717430164393
 30
0.0
 11
15.74043728645272
 21
16.24717430164393
 31
0.0
  0
LINE
  5
90
330
7F
100
AcDbEntity
  8
중심선
100
AcDbLine
 10
19.22036997980202
 20
11.08717430171403
 30
0.0
 11
23.66174974927406
 21
11.08717430171406
 31
0.0
  0
LINE
  5
91
330
7F
100
AcDbEntity
  8
중심선
100
AcDbLine
 10
19.22039502424796
 20
13.00717430171391
 30
0.0
 11
19.22036997980202
 21
11.08717430171403
 31
0.0
  0
LINE
  5
92
330
7F
100
AcDbEntity
  8
중심선
100
AcDbLine
 10
19.22039502424796
 20
13.00717430171391
 30
0.0
 11
26.96566020931264
 21
13.00717430171391
 31
0.0
  0
LINE
  5
93
330
7F
100
AcDbEntity
  8
중심선
100
AcDbLine
 10
22.22332737316547
 20
13.45928029700563
 30
0.0
 11
24.52862924686651
 21
15.39360700705356
 31
0.0
  0
ATTDEF
  5
95
330
7F
100
AcDbEntity
  8
FORMAT
 62
     2
100
AcDbText
 10
3.448148490846466
 20
2.075366912832191
 30
0.0
 40
4.233333333333333
  1
EM668048
 41
0.75
  7
SLDTEXTSTYLE0
 11
3.448148490846466
 21
-0.0412997538344756
 31
0.0
100
AcDbAttributeDefinition
  3

  2
AUTOATTR0
 70
     0
 74
     1
  0
ENDBLK
  5
81
330
7F
100
AcDbEntity
  8
0
100
AcDbBlockEnd
  0
BLOCK
  5
EE
330
ED
100
AcDbEntity
  8
0
100
AcDbBlockBegin
  2
_D
 70
     0
 10
0.0
 20
0.0
 30
0.0
  3
_D
  1

  0
LINE
  5
F0
330
ED
100
AcDbEntity
  8
치수문자_일반주서
 62
     0
370
    -2
100
AcDbLine
 10
50.04956577558104
 20
9.525000000000038
 30
0.0
 11
69.10000000000004
 21
9.525000000000109
 31
0.0
  0
LINE
  5
F1
330
ED
100
AcDbEntity
  8
치수문자_일반주서
 62
     0
370
    -2
100
AcDbLine
 10
50.16249999999999
 20
-9.524999999999956
 30
0.0
 11
69.10000000000011
 21
-9.524999999999888
 31
0.0
  0
LINE
  5
F2
330
ED
100
AcDbEntity
  8
치수문자_일반주서
 62
     0
370
    -2
100
AcDbLine
 10
69.10000000000004
 20
9.525000000000109
 30
0.0
 11
69.09999999999991
 21
43.6915000000001
 31
0.0
  0
LINE
  5
F3
330
ED
100
AcDbEntity
  8
치수문자_일반주서
 62
     0
370
    -2
100
AcDbLine
 10
69.10000000000004
 20
9.525000000000109
 30
0.0
 11
69.10000000000011
 21
-9.524999999999888
 31
0.0
  0
LINE
  5
F4
330
ED
100
AcDbEntity
  8
치수문자_일반주서
 62
     0
370
    -2
100
AcDbLine
 10
69.10000000000002
 20
12.82700000000011
 30
0.0
 11
69.10000000000001
 21
16.12900000000011
 31
0.0
  0
LINE
  5
F5
330
ED
100
AcDbEntity
  8
치수문자_일반주서
 62
     0
370
    -2
100
AcDbLine
 10
69.10000000000012
 20
-12.82699999999989
 30
0.0
 11
69.10000000000014
 21
-16.12899999999989
 31
0.0
  0
SOLID
  5
F6
330
ED
100
AcDbEntity
  8
치수문자_일반주서
 62
     0
100
AcDbTrace
 10
68.5496666666667
 20
12.82700000000011
 30
0.0
 11
69.65033333333335
 21
12.82700000000011
 31
0.0
 12
69.10000000000004
 22
9.525000000000109
 32
0.0
 13
69.10000000000004
 23
9.525000000000109
 33
0.0
  0
SOLID
  5
F7
330
ED
100
AcDbEntity
  8
치수문자_일반주서
 62
     0
100
AcDbTrace
 10
69.65033333333345
 20
-12.82699999999989
 30
0.0
 11
68.5496666666668
 21
-12.82699999999989
 31
0.0
 12
69.10000000000011
 22
-9.524999999999888
 32
0.0
 13
69.10000000000011
 23
-9.524999999999888
 33
0.0
  0
MTEXT
  5
F8
330
ED
100
AcDbEntity
  8
치수문자_일반주서
 62
     0
100
AcDbMText
 10
64.72499999999997
 20
29.91025000000009
 30
0.0
 40
3.5
 41
0.0
 71
     2
 72
     1
  1
\A1;%%c19.05 [3/4]
  7
SLDTEXTSTYLE0
 11
-3.729883127349609E-15
 21
1.0
 31
0.0
 73
     1
 44
1.0
  0
POINT
  5
1C3
330
ED
100
AcDbEntity
  8
Defpoints
 62
     0
100
AcDbPoint
 10
49.98706577558104
 20
9.525000000000038
 30
0.0
  0
POINT
  5
1C4
330
ED
100
AcDbEntity
  8
Defpoints
 62
     0
100
AcDbPoint
 10
50.09999999999999
 20
-9.524999999999956
 30
0.0
  0
POINT
  5
1C5
330
ED
100
AcDbEntity
  8
Defpoints
 62
     0
100
AcDbPoint
 10
69.10000000000011
 20
-9.524999999999885
 30
0.0
  0
ENDBLK
  5
EF
330
ED
100
AcDbEntity
  8
0
100
AcDbBlockEnd
  0
BLOCK
  5
102
330
101
100
AcDbEntity
  8
0
100
AcDbBlockBegin
  2
_D_1
 70
     0
 10
0.0
 20
0.0
 30
0.0
  3
_D_1
  1

  0
LINE
  5
104
330
101
100
AcDbEntity
  8
치수문자_일반주서
 62
     0
370
    -2
100
AcDbLine
 10
-52.83250000000003
 20
9.524999999999999
 30
0.0
 11
-61.67500000000006
 21
9.524999999999968
 31
0.0
  0
LINE
  5
105
330
101
100
AcDbEntity
  8
치수문자_일반주서
 62
     0
370
    -2
100
AcDbLine
 10
-52.83250000000003
 20
-9.525000000000013
 30
0.0
 11
-61.675
 21
-9.525000000000043
 31
0.0
  0
LINE
  5
106
330
101
100
AcDbEntity
  8
치수문자_일반주서
 62
     0
370
    -2
100
AcDbLine
 10
-61.67500000000006
 20
9.524999999999968
 30
0.0
 11
-61.675
 21
-9.525000000000043
 31
0.0
  0
LINE
  5
107
330
101
100
AcDbEntity
  8
치수문자_일반주서
 62
     0
370
    -2
100
AcDbLine
 10
-61.67500000000008
 20
12.82699999999997
 30
0.0
 11
-61.67500000000009
 21
16.12899999999997
 31
0.0
  0
LINE
  5
108
330
101
100
AcDbEntity
  8
치수문자_일반주서
 62
     0
370
    -2
100
AcDbLine
 10
-61.67499999999998
 20
-12.82700000000004
 30
0.0
 11
-61.67499999999997
 21
-16.12900000000004
 31
0.0
  0
SOLID
  5
109
330
101
100
AcDbEntity
  8
치수문자_일반주서
 62
     0
100
AcDbTrace
 10
-62.22533333333341
 20
12.82699999999997
 30
0.0
 11
-61.12466666666674
 21
12.82699999999997
 31
0.0
 12
-61.67500000000006
 22
9.524999999999968
 32
0.0
 13
-61.67500000000006
 23
9.524999999999968
 33
0.0
  0
SOLID
  5
10A
330
101
100
AcDbEntity
  8
치수문자_일반주서
 62
     0
100
AcDbTrace
 10
-61.12466666666665
 20
-12.82700000000004
 30
0.0
 11
-62.22533333333332
 21
-12.82700000000004
 31
0.0
 12
-61.675
 22
-9.525000000000043
 32
0.0
 13
-61.675
 23
-9.525000000000043
 33
0.0
  0
MTEXT
  5
10B
330
101
100
AcDbEntity
  8
치수문자_일반주서
 62
     0
100
AcDbMText
 10
-66.05000000000004
 20
-0.0000000000000161
 30
0.0
 40
3.5
 41
0.0
 71
     2
 72
     1
  1
\A1;%%c19.05 [3/4]
  7
SLDTEXTSTYLE0
 11
-3.356894814614644E-15
 21
1.0
 31
0.0
 73
     1
 44
1.0
  0
POINT
  5
10C
330
101
100
AcDbEntity
  8
Defpoints
 62
     0
100
AcDbPoint
 10
-52.77000000000003
 20
9.524999999999999
 30
0.0
  0
POINT
  5
1C1
330
101
100
AcDbEntity
  8
Defpoints
 62
     0
100
AcDbPoint
 10
-52.77000000000003
 20
-9.525000000000013
 30
0.0
  0
POINT
  5
1C2
330
101
100
AcDbEntity
  8
Defpoints
 62
     0
100
AcDbPoint
 10
-61.675
 20
-9.525000000000047
 30
0.0
  0
ENDBLK
  5
103
330
101
100
AcDbEntity
  8
0
100
AcDbBlockEnd
  0
BLOCK
  5
117
330
116
100
AcDbEntity
  8
0
100
AcDbBlockBegin
  2
_D_2
 70
     0
 10
0.0
 20
0.0
 30
0.0
  3
_D_2
  1

  0
LINE
  5
119
330
116
100
AcDbEntity
  8
치수문자_일반주서
 62
     0
370
    -2
100
AcDbLine
 10
50.09999999999999
 20
9.587500000000038
 30
0.0
 11
50.09999999999998
 21
31.07644732195054
 31
0.0
  0
LINE
  5
11A
330
116
100
AcDbEntity
  8
치수문자_일반주서
 62
     0
370
    -2
100
AcDbLine
 10
12.0
 20
9.552192039228355
 30
0.0
 11
12.0
 21
31.07644732195054
 31
0.0
  0
LINE
  5
11B
330
116
100
AcDbEntity
  8
치수문자_일반주서
 62
     0
370
    -2
100
AcDbLine
 10
46.79799999999998
 20
31.07644732195054
 30
0.0
 11
15.302
 21
31.07644732195054
 31
0.0
  0
SOLID
  5
11C
330
116
100
AcDbEntity
  8
치수문자_일반주서
 62
     0
100
AcDbTrace
 10
46.79799999999998
 20
30.52611398861721
 30
0.0
 11
46.79799999999998
 21
31.62678065528388
 31
0.0
 12
50.09999999999998
 22
31.07644732195054
 32
0.0
 13
50.09999999999998
 23
31.07644732195054
 33
0.0
  0
SOLID
  5
11D
330
116
100
AcDbEntity
  8
치수문자_일반주서
 62
     0
100
AcDbTrace
 10
15.302
 20
31.62678065528388
 30
0.0
 11
15.302
 21
30.52611398861721
 31
0.0
 12
12.0
 22
31.07644732195054
 32
0.0
 13
12.0
 23
31.07644732195054
 33
0.0
  0
MTEXT
  5
11E
330
116
100
AcDbEntity
  8
치수문자_일반주서
 62
     0
100
AcDbMText
 10
33.41743761909091
 20
35.45144732195054
 30
0.0
 40
3.5
 41
0.0
 71
     2
 72
     1
  1
\A1;38.1 [1 1/2]
  7
SLDTEXTSTYLE0
 73
     1
 44
1.0
  0
POINT
  5
11F
330
116
100
AcDbEntity
  8
Defpoints
 62
     0
100
AcDbPoint
 10
50.09999999999999
 20
9.525000000000038
 30
0.0
  0
POINT
  5
120
330
116
100
AcDbEntity
  8
Defpoints
 62
     0
100
AcDbPoint
 10
12.0
 20
9.489692039228355
 30
0.0
  0
POINT
  5
121
330
116
100
AcDbEntity
  8
Defpoints
 62
     0
100
AcDbPoint
 10
12.0
 20
31.07644732195054
 30
0.0
  0
ENDBLK
  5
118
330
116
100
AcDbEntity
  8
0
100
AcDbBlockEnd
  0
BLOCK
  5
12B
330
12A
100
AcDbEntity
  8
0
100
AcDbBlockBegin
  2
_D_3
 70
     0
 10
0.0
 20
0.0
 30
0.0
  3
_D_3
  1

  0
LINE
  5
12D
330
12A
100
AcDbEntity
  8
치수문자_일반주서
 62
     0
370
    -2
100
AcDbLine
 10
-54.67500000000003
 20
7.682499999999997
 30
0.0
 11
-54.67500000000003
 21
53.3346871005775
 31
0.0
  0
LINE
  5
12E
330
12A
100
AcDbEntity
  8
치수문자_일반주서
 62
     0
370
    -2
100
AcDbLine
 10
50.09999999999999
 20
9.587500000000038
 30
0.0
 11
50.09999999999999
 21
53.3346871005775
 31
0.0
  0
LINE
  5
12F
330
12A
100
AcDbEntity
  8
치수문자_일반주서
 62
     0
370
    -2
100
AcDbLine
 10
-51.37300000000003
 20
53.3346871005775
 30
0.0
 11
46.79799999999999
 21
53.3346871005775
 31
0.0
  0
SOLID
  5
130
330
12A
100
AcDbEntity
  8
치수문자_일반주서
 62
     0
100
AcDbTrace
 10
-51.37300000000003
 20
53.88502043391084
 30
0.0
 11
-51.37300000000003
 21
52.78435376724417
 31
0.0
 12
-54.67500000000003
 22
53.3346871005775
 32
0.0
 13
-54.67500000000003
 23
53.3346871005775
 33
0.0
  0
SOLID
  5
131
330
12A
100
AcDbEntity
  8
치수문자_일반주서
 62
     0
100
AcDbTrace
 10
46.79799999999999
 20
52.78435376724417
 30
0.0
 11
46.79799999999999
 21
53.88502043391084
 31
0.0
 12
50.09999999999999
 22
53.3346871005775
 32
0.0
 13
50.09999999999999
 23
53.3346871005775
 33
0.0
  0
MTEXT
  5
132
330
12A
100
AcDbEntity
  8
치수문자_일반주서
 62
     0
100
AcDbMText
 10
-1.158940071133104
 20
57.7096871005775
 30
0.0
 40
3.5
 41
0.0
 71
     2
 72
     1
  1
\A1;104.78 [4 1/8]
  7
SLDTEXTSTYLE0
 73
     1
 44
1.0
  0
POINT
  5
133
330
12A
100
AcDbEntity
  8
Defpoints
 62
     0
100
AcDbPoint
 10
-54.67500000000003
 20
7.619999999999997
 30
0.0
  0
POINT
  5
134
330
12A
100
AcDbEntity
  8
Defpoints
 62
     0
100
AcDbPoint
 10
50.09999999999999
 20
9.525000000000038
 30
0.0
  0
POINT
  5
135
330
12A
100
AcDbEntity
  8
Defpoints
 62
     0
100
AcDbPoint
 10
50.09999999999999
 20
53.3346871005775
 30
0.0
  0
ENDBLK
  5
12C
330
12A
100
AcDbEntity
  8
0
100
AcDbBlockEnd
  0
BLOCK
  5
144
330
143
100
AcDbEntity
  8
0
100
AcDbBlockBegin
  2
SW_DOWELSYMBOL_0
 70
     0
 10
0.0
 20
0.0
 30
0.0
  3
SW_DOWELSYMBOL_0
  1

  0
CIRCLE
  5
146
330
143
100
AcDbEntity
  8
해칭선
 62
     0
100
AcDbCircle
 10
0.0
 20
0.0
 30
0.0
 40
3.000000000000001
  0
HATCH
  5
147
330
143
100
AcDbEntity
  8
0
  6
Continuous
 62
     0
370
     0
100
AcDbHatch
 10
0.0
 20
0.0
 30
0.0
210
0.0
220
0.0
230
1.0
  2
SOLID
 70
     1
 71
     0
 91
        1
 92
        0
 93
        3
 72
     2
 10
-0.0000000000000069
 20
0.0
 40
3.000000000000001
 50
0.0
 51
90.0
 73
     1
 72
     1
 10
-0.0000000000000069
 20
3.000000000000001
 11
-0.0000000000000069
 21
0.0
 72
     1
 10
-0.0000000000000069
 20
0.0
 11
2.999999999999994
 21
0.0
 97
        0
 75
     0
 76
     1
 98
        1
 10
0.0
 20
0.0
  0
HATCH
  5
148
330
143
100
AcDbEntity
  8
0
  6
Continuous
 62
     0
370
     0
100
AcDbHatch
 10
0.0
 20
0.0
 30
0.0
210
0.0
220
0.0
230
1.0
  2
SOLID
 70
     1
 71
     0
 91
        1
 92
        0
 93
        3
 72
     2
 10
-0.0000000000000069
 20
0.0
 40
3.000000000000001
 50
180.0
 51
270.0000000000008
 73
     1
 72
     1
 10
-0.0000000000000069
 20
-3.000000000000001
 11
-0.0000000000000069
 21
0.0
 72
     1
 10
-0.0000000000000069
 20
0.0
 11
-3.000000000000008
 21
0.0
 97
        0
 75
     0
 76
     1
 98
        1
 10
0.0
 20
0.0
  0
ENDBLK
  5
145
330
143
100
AcDbEntity
  8
0
100
AcDbBlockEnd
  0
ENDSEC
  0
SECTION
  2
ENTITIES
  0
LINE
  5
96
330
1F
100
AcDbEntity
  8
외형선
  6
Continuous
 62
     1
370
    15
100
AcDbLine
 10
49.6779129566662
 20
-0.1404602262709079
 30
0.0
 11
50.1
 21
-0.3693009002046824
 31
0.0
  0
LINE
  5
97
330
1F
100
AcDbEntity
  8
외형선
  6
Continuous
 62
     1
370
    15
100
AcDbLine
 10
46.43083911330923
 20
-9.525000000000006
 30
0.0
 11
49.33799999999996
 21
-9.524773245161374
 31
0.0
  0
LINE
  5
98
330
1F
100
AcDbEntity
  8
외형선
  6
Continuous
 62
     1
370
    15
100
AcDbLine
 10
23.5367606686536
 20
9.524999999999991
 30
0.0
 11
20.51391947186388
 21
9.524999999999991
 31
0.0
  0
LINE
  5
99
330
1F
100
AcDbEntity
  8
외형선
  6
Continuous
 62
     1
370
    15
100
AcDbLine
 10
33.47330969033855
 20
-9.525000000000006
 30
0.0
 11
36.49238408374575
 21
-9.525000000000006
 31
0.0
  0
LINE
  5
9A
330
1F
100
AcDbEntity
  8
외형선
  6
Continuous
 62
     1
370
    15
100
AcDbLine
 10
36.49238408374577
 20
9.524999999999991
 30
0.0
 11
33.47330969033863
 21
9.524999999999991
 31
0.0
  0
LINE
  5
9B
330
1F
100
AcDbEntity
  8
외형선
  6
Continuous
 62
     1
370
    15
100
AcDbLine
 10
20.51391947186374
 20
-9.525000000000006
 30
0.0
 11
23.5367606686535
 21
-9.525000000000006
 31
0.0
  0
LINE
  5
9D
330
1F
100
AcDbEntity
  8
외형선
  6
Continuous
 62
     1
370
    15
100
AcDbLine
 10
49.33799999999999
 20
9.524999999999991
 30
0.0
 11
46.43083911330923
 21
9.524999999999991
 31
0.0
  0
LINE
  5
9F
330
1F
100
AcDbEntity
  8
외형선
  6
Continuous
370
    15
100
AcDbLine
 10
-52.77000000000002
 20
-9.525000000000002
 30
0.0
 11
11.49986971623979
 21
-9.525000000000002
 31
0.0
  0
LINE
  5
A0
330
1F
100
AcDbEntity
  8
외형선
  6
Continuous
370
    15
100
AcDbLine
 10
11.49986971623979
 20
9.524999999999991
 30
0.0
 11
-52.77000000000002
 21
9.524999999999991
 31
0.0
  0
LINE
  5
A1
330
1F
100
AcDbEntity
  8
외형선
  6
Continuous
370
    15
100
AcDbLine
 10
-52.77000000000002
 20
9.524999999999991
 30
0.0
 11
-54.67500000000003
 21
7.619999999999997
 31
0.0
  0
LINE
  5
A2
330
1F
100
AcDbEntity
  8
외형선
  6
Continuous
370
    15
100
AcDbLine
 10
-54.67500000000003
 20
-7.62000000000001
 30
0.0
 11
-52.77000000000002
 21
-9.525000000000006
 31
0.0
  0
LINE
  5
A3
330
1F
100
AcDbEntity
  8
외형선
  6
Continuous
 62
     1
370
    15
100
AcDbLine
 10
50.09999999999999
 20
-6.443959585054521
 30
0.0
 11
50.09999999999999
 21
-1.920895414945365
 31
0.0
  0
SPLINE
  5
A4
330
1F
100
AcDbEntity
  8
외형선
  6
Continuous
 62
     1
370
    15
100
AcDbSpline
210
0.0
220
0.0
230
1.0
 70
     8
 71
     3
 72
    14
 73
    10
 74
     0
 42
0.000000001
 43
0.00000001
 40
0.0
 40
0.0
 40
0.0
 40
0.0
 40
0.25
 40
0.25
 40
0.5
 40
0.5
 40
0.75
 40
0.75
 40
1.0
 40
1.0
 40
1.0
 40
1.0
 10
49.33799999999999
 20
-6.688557950458987
 30
0.0
 10
49.43286415527677
 20
-6.72753844957487
 30
0.0
 10
49.52349987643407
 20
-6.754438421086566
 30
0.0
 10
49.69812745561559
 20
-6.783102589464324
 30
0.0
 10
49.78040992451769
 20
-6.784138473990759
 30
0.0
 10
49.92473157635891
 20
-6.751960676091581
 30
0.0
 10
49.98752471232006
 20
-6.718146886367303
 30
0.0
 10
50.07596849252209
 20
-6.608041220834415
 30
0.0
 10
50.09999999999994
 20
-6.533020362920996
 30
0.0
 10
50.09999999999993
 20
-6.443959585054517
 30
0.0
  0
SPLINE
  5
A5
330
1F
100
AcDbEntity
  8
외형선
  6
Continuous
 62
     1
370
    15
100
AcDbSpline
210
0.0
220
0.0
230
1.0
 70
     8
 71
     3
 72
    52
 73
    48
 74
     0
 42
0.000000001
 43
0.00000001
 40
0.0
 40
0.0
 40
0.0
 40
0.0
 40
0.0624999999999998
 40
0.0624999999999998
 40
0.1249999999999995
 40
0.1249999999999995
 40
0.1562499999999994
 40
0.1562499999999994
 40
0.1874999999999993
 40
0.1874999999999993
 40
0.249999999999999
 40
0.249999999999999
 40
0.2812499999999989
 40
0.2812499999999989
 40
0.3124999999999988
 40
0.3124999999999988
 40
0.3749999999999984
 40
0.3749999999999984
 40
0.4062499999999987
 40
0.4062499999999987
 40
0.4374999999999989
 40
0.4374999999999989
 40
0.5000000000000003
 40
0.5000000000000003
 40
0.5312500000000006
 40
0.5312500000000006
 40
0.5625000000000008
 40
0.5625000000000008
 40
0.6250000000000012
 40
0.6250000000000012
 40
0.6562500000000011
 40
0.6562500000000011
 40
0.687500000000001
 40
0.687500000000001
 40
0.7500000000000007
 40
0.7500000000000007
 40
0.7812500000000004
 40
0.7812500000000004
 40
0.8125000000000002
 40
0.8125000000000002
 40
0.8749999999999998
 40
0.8749999999999998
 40
0.9374999999999994
 40
0.9374999999999994
 40
0.9687499999999997
 40
0.9687499999999997
 40
1.0
 40
1.0
 40
1.0
 40
1.0
 10
49.33799999999996
 20
-6.688557950458974
 30
0.0
 10
48.55973253874755
 20
-6.368761142099209
 30
0.0
 10
47.77826393207237
 20
-6.026121939489645
 30
0.0
 10
46.2285850192289
 20
-5.305034783630531
 30
0.0
 10
45.44636131194866
 20
-4.924414228266181
 30
0.0
 10
44.27946025631608
 20
-4.331790340851158
 30
0.0
 10
43.89273204941507
 20
-4.1308593128997
 30
0.0
 10
43.11547512661953
 20
-3.721801163571569
 30
0.0
 10
42.72556324261342
 20
-3.513771606598887
 30
0.0
 10
41.55635926707966
 20
-2.88149537975266
 30
0.0
 10
40.78243701553033
 20
-2.44996425527673
 30
0.0
 10
39.6142280949961
 20
-1.791238783973887
 30
0.0
 10
39.22410610750114
 20
-1.569849000137317
 30
0.0
 10
38.44535063767307
 20
-1.125101135272893
 30
0.0
 10
38.05778942838376
 20
-0.9019502857538988
 30
0.0
 10
36.89386419424629
 20
-0.2305688589059526
 30
0.0
 10
36.11146402603086
 20
0.2205199179772067
 30
0.0
 10
34.94571266118097
 20
0.8923009954271465
 30
0.0
 10
34.55895675585678
 20
1.115321563390775
 30
0.0
 10
33.78094951051954
 20
1.559992900256208
 30
0.0
 10
33.39089680713887
 20
1.781411564561694
 30
0.0
 10
32.22197866358098
 20
2.440418682270776
 30
0.0
 10
31.44834345017129
 20
2.872025302598558
 30
0.0
 10
30.27955381786879
 20
3.504471241434468
 30
0.0
 10
29.88947397962924
 20
3.712621144705376
 30
0.0
 10
29.11127319713819
 20
4.12203650443773
 30
0.0
 10
28.72440970970311
 20
4.323091000183696
 30
0.0
 10
27.55904267172116
 20
4.915786353048573
 30
0.0
 10
26.77661971354912
 20
5.296705945036281
 30
0.0
 10
25.61224346499093
 20
5.838258522964431
 30
0.0
 10
25.22494305010154
 20
6.013944283744006
 30
0.0
 10
24.44633630927739
 20
6.355596435709677
 30
0.0
 10
24.0562188800895
 20
6.52137579608132
 30
0.0
 10
22.88781404541071
 20
7.001701526229652
 30
0.0
 10
22.11402309595039
 20
7.298945066464115
 30
0.0
 10
20.94488014540253
 20
7.707928262249887
 30
0.0
 10
20.55491856765599
 20
7.837956263314235
 30
0.0
 10
19.77742342490397
 20
8.084469934621303
 30
0.0
 10
19.39074091767817
 20
8.20088733802314
 30
0.0
 10
18.22415725286216
 20
8.53001414374867
 30
0.0
 10
17.44186519070289
 20
8.7220099966597
 30
0.0
 10
15.89149639680991
 20
9.045611030295053
 30
0.0
 10
15.1107876318878
 20
9.17812342813103
 30
0.0
 10
13.94312325001506
 20
9.330130023889382
 30
0.0
 10
13.55604024834802
 20
9.372977972189751
 30
0.0
 10
12.77949892445859
 20
9.443100424869797
 30
0.0
 10
12.38975621533483
 20
9.470362107372505
 30
0.0
 10
11.99999999999999
 20
9.489692039228363
 30
0.0
  0
SPLINE
  5
A6
330
1F
100
AcDbEntity
  8
외형선
  6
Continuous
 62
     1
370
    15
100
AcDbSpline
210
0.0
220
0.0
230
1.0
 70
     8
 71
     3
 72
    20
 73
    16
 74
     0
 42
0.000000001
 43
0.00000001
 40
0.0
 40
0.0
 40
0.0
 40
0.0
 40
0.0773528538565388
 40
0.1547341044172984
 40
0.2321011831320545
 40
0.3094429719041056
 40
0.3867706518024017
 40
0.4640954502750945
 40
0.541428604250952
 40
0.6187813231751498
 40
0.6998316593414452
 40
0.7808841775083584
 40
0.8619206065555834
 40
0.942944917730856
 40
1.0
 40
1.0
 40
1.0
 40
1.0
 10
49.33800000000002
 20
-1.669867482631098
 30
0.0
 10
48.46674649676414
 20
-1.17058761155147
 30
0.0
 10
46.72391964781989
 20
-0.1718445807077574
 30
0.0
 10
44.10934675273094
 20
1.341214488829314
 30
0.0
 10
41.49507781972659
 20
2.817914199869894
 30
0.0
 10
38.88160097891669
 20
4.224816449190148
 30
0.0
 10
36.26869099202911
 20
5.525587178267488
 30
0.0
 10
33.65589926458784
 20
6.688039476902387
 30
0.0
 10
31.04276777103908
 20
7.682999738652408
 30
0.0
 10
28.38754456064562
 20
8.498453645130652
 30
0.0
 10
25.69019630598084
 20
9.101528202402257
 30
0.0
 10
22.95135462914704
 20
9.466160955893589
 30
0.0
 10
20.21295169351984
 20
9.561544933097199
 30
0.0
 10
17.74491417323474
 20
9.44127021050419
 30
0.0
 10
16.18967702788265
 20
9.178695298776326
 30
0.0
 10
15.54704541528207
 20
9.070198058045925
 30
0.0
  0
SPLINE
  5
A7
330
1F
100
AcDbEntity
  8
외형선
  6
Continuous
 62
     1
370
    15
100
AcDbSpline
210
0.0
220
0.0
230
1.0
 70
     8
 71
     3
 72
    14
 73
    10
 74
     0
 42
0.000000001
 43
0.00000001
 40
0.0
 40
0.0
 40
0.0
 40
0.0
 40
0.25
 40
0.25
 40
0.5
 40
0.5
 40
0.75
 40
0.75
 40
1.0
 40
1.0
 40
1.0
 40
1.0
 10
50.09999999999999
 20
-1.920895414945355
 30
0.0
 10
50.09999999999996
 20
-1.932215085013157
 30
0.0
 10
50.07751045635505
 20
-1.93768659512868
 30
0.0
 10
49.99423431756622
 20
-1.932252588830205
 30
0.0
 10
49.93318374023315
 20
-1.920998514441026
 30
0.0
 10
49.78783909047003
 20
-1.879181772161107
 30
0.0
 10
49.70256049437512
 20
-1.848237415390274
 30
0.0
 10
49.52452924548864
 20
-1.770096113564507
 30
0.0
 10
49.43088249151461
 20
-1.722643817083364
 30
0.0
 10
49.33799999999997
 20
-1.66986748263109
 30
0.0
  0
LINE
  5
A8
330
1F
100
AcDbEntity
  8
외형선
  6
Continuous
 62
     1
370
    15
100
AcDbLine
 10
50.09999999999999
 20
-8.762999999999991
 30
0.0
 11
50.09999999999999
 21
-7.403951412002884
 31
0.0
  0
SPLINE
  5
AA
330
1F
100
AcDbEntity
  8
외형선
  6
Continuous
 62
     1
370
    15
100
AcDbSpline
210
0.0
220
0.0
230
1.0
 70
     8
 71
     3
 72
    52
 73
    48
 74
     0
 42
0.000000001
 43
0.00000001
 40
0.0
 40
0.0
 40
0.0
 40
0.0
 40
0.0624999999999997
 40
0.0624999999999997
 40
0.1249999999999994
 40
0.1249999999999994
 40
0.1562499999999992
 40
0.1562499999999992
 40
0.1874999999999991
 40
0.1874999999999991
 40
0.2499999999999988
 40
0.2499999999999988
 40
0.2812499999999986
 40
0.2812499999999986
 40
0.3124999999999984
 40
0.3124999999999984
 40
0.3749999999999982
 40
0.3749999999999982
 40
0.406249999999998
 40
0.406249999999998
 40
0.4374999999999979
 40
0.4374999999999979
 40
0.4999999999999983
 40
0.4999999999999983
 40
0.5312499999999982
 40
0.5312499999999982
 40
0.562499999999998
 40
0.562499999999998
 40
0.6249999999999984
 40
0.6249999999999984
 40
0.6562499999999983
 40
0.6562499999999983
 40
0.6874999999999982
 40
0.6874999999999982
 40
0.7499999999999979
 40
0.7499999999999979
 40
0.7812499999999982
 40
0.7812499999999982
 40
0.8124999999999984
 40
0.8124999999999984
 40
0.8749999999999989
 40
0.8749999999999989
 40
0.9374999999999994
 40
0.9374999999999994
 40
0.9687499999999997
 40
0.9687499999999997
 40
1.0
 40
1.0
 40
1.0
 40
1.0
 10
49.33799999999996
 20
-9.524773245161374
 30
0.0
 10
48.55973253874755
 20
-9.521673891109796
 30
0.0
 10
47.77826393207237
 20
-9.486656767715004
 30
0.0
 10
46.22858501922892
 20
-9.354055459682876
 30
0.0
 10
45.44636131194861
 20
-9.256057064688804
 30
0.0
 10
44.27946025631606
 20
-9.063523387818787
 30
0.0
 10
43.89273204941504
 20
-8.991873787004401
 30
0.0
 10
43.11547512661954
 20
-8.8334935038033
 30
0.0
 10
42.7255632426134
 20
-8.74678088131683
 30
0.0
 10
41.5563592670796
 20
-8.464988371755378
 30
0.0
 10
40.78243701553033
 20
-8.248717704850101
 30
0.0
 10
39.61422809499603
 20
-7.883528056939515
 30
0.0
 10
39.22410610750112
 20
-7.75503616828006
 30
0.0
 10
38.44535063767305
 20
-7.48549311630857
 30
0.0
 10
38.05778942838376
 20
-7.344579526195864
 30
0.0
 10
36.89386419424631
 20
-6.903727360465034
 30
0.0
 10
36.11146402603084
 20
-6.584935347058704
 30
0.0
 10
34.94571266118097
 20
-6.076499568799322
 30
0.0
 10
34.55895675585676
 20
-5.902092558122468
 30
0.0
 10
33.78094951051951
 20
-5.543062995269913
 30
0.0
 10
33.39089680713888
 20
-5.35860989886906
 30
0.0
 10
32.22197866358098
 20
-4.792488596537187
 30
0.0
 10
31.4483434501713
 20
-4.398751953343395
 30
0.0
 10
30.27955381786881
 20
-3.786738568656204
 30
0.0
 10
29.88947397962924
 20
-3.579315258173803
 30
0.0
 10
29.11127319713818
 20
-3.159194593588533
 30
0.0
 10
28.72440970970311
 20
-2.946732345265093
 30
0.0
 10
27.55904267172118
 20
-2.301651671084027
 30
0.0
 10
26.77661971354916
 20
-1.861442172223547
 30
0.0
 10
25.61224346499097
 20
-1.195763601100219
 30
0.0
 10
25.22494305010157
 20
-0.9728486174458395
 30
0.0
 10
24.44633630927739
 20
-0.5250018569062619
 30
0.0
 10
24.05621888008952
 20
-0.3002971335900315
 30
0.0
 10
22.88781404541071
 20
0.373633068361764
 30
0.0
 10
22.11402309595035
 20
0.8221830865385611
 30
0.0
 10
20.94488014540256
 20
1.490280616422058
 30
0.0
 10
20.554918567656
 20
1.711967062728322
 30
0.0
 10
19.77742342490402
 20
2.151658797093637
 30
0.0
 10
19.39074091767819
 20
2.369508985934152
 30
0.0
 10
18.22415725286219
 20
3.017817204097081
 30
0.0
 10
17.44186519070292
 20
3.442196124424358
 30
0.0
 10
15.8914963968099
 20
4.262698298397578
 30
0.0
 10
15.11078763188778
 20
4.661052818811379
 30
0.0
 10
13.94312325001507
 20
5.232710468523941
 30
0.0
 10
13.55604024834805
 20
5.418714622852649
 30
0.0
 10
12.77949892445856
 20
5.781779439321826
 30
0.0
 10
12.38975621533483
 20
5.958871945434021
 30
0.0
 10
11.99999999999999
 20
6.130842299228107
 30
0.0
  0
SPLINE
  5
AB
330
1F
100
AcDbEntity
  8
외형선
  6
Continuous
370
    15
100
AcDbSpline
210
0.0
220
0.0
230
1.0
 70
    24
 71
     3
 72
    14
 73
    10
 74
     0
 42
0.000000001
 43
0.00000001
 40
0.0
 40
0.0
 40
0.0
 40
0.0
 40
0.2109289387380625
 40
0.3609340460685081
 40
0.5152893116736065
 40
0.6652944190039991
 40
0.8196496846090408
 40
0.9696547919394353
 40
1.0
 40
1.0
 40
1.0
 40
1.0
 10
12.00000000000002
 20
9.181808508264897
 30
0.0
 10
12.0
 20
8.972134825069983
 30
0.0
 10
11.99999999999999
 20
8.613348727333026
 30
0.0
 10
12.0
 20
8.067991558044024
 30
0.0
 10
11.99999999999998
 20
7.588338281625538
 30
0.0
 10
11.99999999999999
 20
7.114572063983279
 30
0.0
 10
12.0
 20
6.675544147118455
 30
0.0
 10
11.99999999999996
 20
6.36719533198665
 30
0.0
 10
11.99999999999996
 20
6.228382396024435
 30
0.0
 10
11.99999999999996
 20
6.205026143976081
 30
0.0
  0
SPLINE
  5
AC
330
1F
100
AcDbEntity
  8
외형선
  6
Continuous
 62
     1
370
    15
100
AcDbSpline
210
0.0
220
0.0
230
1.0
 70
     8
 71
     3
 72
    52
 73
    48
 74
     0
 42
0.000000001
 43
0.00000001
 40
0.0
 40
0.0
 40
0.0
 40
0.0
 40
0.0624999999999994
 40
0.0624999999999994
 40
0.1249999999999989
 40
0.1249999999999989
 40
0.1562499999999982
 40
0.1562499999999982
 40
0.1874999999999975
 40
0.1874999999999975
 40
0.2499999999999969
 40
0.2499999999999969
 40
0.2812499999999966
 40
0.2812499999999966
 40
0.3124999999999963
 40
0.3124999999999963
 40
0.3749999999999957
 40
0.3749999999999957
 40
0.4062499999999954
 40
0.4062499999999954
 40
0.4374999999999951
 40
0.4374999999999951
 40
0.4999999999999953
 40
0.4999999999999953
 40
0.5312499999999958
 40
0.5312499999999958
 40
0.5624999999999963
 40
0.5624999999999963
 40
0.6249999999999973
 40
0.6249999999999973
 40
0.6562499999999973
 40
0.6562499999999973
 40
0.6874999999999974
 40
0.6874999999999974
 40
0.7499999999999968
 40
0.7499999999999968
 40
0.7812499999999968
 40
0.7812499999999968
 40
0.812499999999997
 40
0.812499999999997
 40
0.874999999999998
 40
0.874999999999998
 40
0.937499999999999
 40
0.937499999999999
 40
0.9687499999999994
 40
0.9687499999999994
 40
1.0
 40
1.0
 40
1.0
 40
1.0
 10
49.338
 20
-7.81165569296941
 30
0.0
 10
48.5597325387476
 20
-7.554643937208166
 30
0.0
 10
47.7782639320725
 20
-7.271111523905237
 30
0.0
 10
46.22858501922897
 20
-6.659244502736079
 30
0.0
 10
45.44636131194873
 20
-6.329062585106156
 30
0.0
 10
44.27946025631623
 20
-5.804682710310523
 30
0.0
 10
43.89273204941517
 20
-5.625249435278385
 30
0.0
 10
43.11547512661959
 20
-5.256733671882811
 30
0.0
 10
42.7255632426135
 20
-5.067734000810133
 30
0.0
 10
41.55635926707971
 20
-4.488598529903606
 30
0.0
 10
40.78243701553045
 20
-4.0871692754157
 30
0.0
 10
39.61422809499623
 20
-3.465365792247729
 30
0.0
 10
39.22410610750124
 20
-3.254902689712917
 30
0.0
 10
38.44535063767316
 20
-2.829165105188836
 30
0.0
 10
38.0577894283839
 20
-2.614092081766607
 30
0.0
 10
36.89386419424639
 20
-1.962663359639447
 30
0.0
 10
36.11146402603097
 20
-1.519162358710897
 30
0.0
 10
34.94571266118113
 20
-0.8500084407171775
 30
0.0
 10
34.55895675585693
 20
-0.626414137237912
 30
0.0
 10
33.78094951051968
 20
-0.1776921423222481
 30
0.0
 10
33.39089680713903
 20
0.0472059520102023
 30
0.0
 10
32.22197866358114
 20
0.7209816000260729
 30
0.0
 10
31.4483434501714
 20
1.168174671756946
 30
0.0
 10
30.27955381786895
 20
1.832488859366682
 30
0.0
 10
29.88947397962938
 20
2.052671925448062
 30
0.0
 10
29.11127319713835
 20
2.488880643017261
 30
0.0
 10
28.72440970970325
 20
2.704676730336174
 30
0.0
 10
27.55904267172133
 20
3.345659612969349
 30
0.0
 10
26.77661971354928
 20
3.764211737778259
 30
0.0
 10
25.61224346499114
 20
4.36952488641746
 30
0.0
 10
25.22494305010175
 20
4.567688072266791
 30
0.0
 10
24.44633630927757
 20
4.956746907683613
 30
0.0
 10
24.05621888008971
 20
5.147434238857054
 30
0.0
 10
22.88781404541092
 20
5.70581896501214
 30
0.0
 10
22.11402309595056
 20
6.059479792636002
 30
0.0
 10
20.94488014540278
 20
6.55920447794859
 30
0.0
 10
20.55491856765623
 20
6.720471367643469
 30
0.0
 10
19.77742342490425
 20
7.031207335356157
 30
0.0
 10
19.39074091767844
 20
7.180581776455174
 30
0.0
 10
18.22415725286242
 20
7.611231028728626
 30
0.0
 10
17.44186519070317
 20
7.874345067783699
 30
0.0
 10
15.89149639681022
 20
8.344912816265555
 30
0.0
 10
15.11078763188804
 20
8.553667991043785
 30
0.0
 10
13.94312325001531
 20
8.822672713527457
 30
0.0
 10
13.55604024834833
 20
8.904903660748555
 30
0.0
 10
12.77949892445886
 20
9.05458523993024
 30
0.0
 10
12.38975621533512
 20
9.122033800180184
 30
0.0
 10
12.00000000000028
 20
9.181808508261145
 30
0.0
  0
SPLINE
  5
AD
330
1F
100
AcDbEntity
  8
외형선
  6
Continuous
 62
     1
370
    15
100
AcDbSpline
210
0.0
220
0.0
230
1.0
 70
     8
 71
     3
 72
    14
 73
    10
 74
     0
 42
0.000000001
 43
0.00000001
 40
0.0
 40
0.0
 40
0.0
 40
0.0
 40
0.25
 40
0.25
 40
0.5
 40
0.5
 40
0.75
 40
0.75
 40
1.0
 40
1.0
 40
1.0
 40
1.0
 10
50.09999999999999
 20
-7.403951412002879
 30
0.0
 10
50.09999999999996
 20
-7.487524539128071
 30
0.0
 10
50.07751045635501
 20
-7.566061821998132
 30
0.0
 10
49.99423431756619
 20
-7.700532022867765
 30
0.0
 10
49.93318374023315
 20
-7.755941271689986
 30
0.0
 10
49.78783909047003
 20
-7.831430543110776
 30
0.0
 10
49.70256049437507
 20
-7.852098669798072
 30
0.0
 10
49.52452924548861
 20
-7.857335517715342
 30
0.0
 10
49.43088249151459
 20
-7.842328814244759
 30
0.0
 10
49.33799999999997
 20
-7.811655692969411
 30
0.0
  0
SPLINE
  5
AE
330
1F
100
AcDbEntity
  8
외형선
  6
Continuous
 62
     1
370
    15
100
AcDbSpline
210
0.0
220
0.0
230
1.0
 70
     8
 71
     3
 72
    19
 73
    15
 74
     0
 42
0.000000001
 43
0.00000001
 40
0.0
 40
0.0
 40
0.0
 40
0.0
 40
0.0887748349682337
 40
0.1775622773542058
 40
0.266375182820009
 40
0.355216197582706
 40
0.4440307208190727
 40
0.5328191366963365
 40
0.6215942976773301
 40
0.710369099810655
 40
0.8033839538700138
 40
0.8964098853669461
 40
0.9894515597028123
 40
1.0
 40
1.0
 40
1.0
 40
1.0
 10
11.99999999999999
 20
-0.8193717108894181
 30
0.0
 10
12.87090127070952
 20
-1.318458196205708
 30
0.0
 10
14.6128274937567
 20
-2.316702044940288
 30
0.0
 10
17.22610606038243
 20
-3.75059869177707
 30
0.0
 10
19.84016906547866
 20
-5.092152672487325
 30
0.0
 10
22.45477859397837
 20
-6.30549896607494
 30
0.0
 10
25.06888064060912
 20
-7.361313185183759
 30
0.0
 10
27.68219043319162
 20
-8.232511760391262
 30
0.0
 10
30.29504070203901
 20
-8.897956159823845
 30
0.0
 10
32.9493099453244
 20
-9.34590834848579
 30
0.0
 10
35.64552105560959
 20
-9.560398792074228
 30
0.0
 10
38.38360879047246
 20
-9.490435590771988
 30
0.0
 10
40.31267395936656
 20
-9.323147406655437
 30
0.0
 10
41.32907431909768
 20
-9.110542764475802
 30
0.0
 10
41.4325729835276
 20
-9.08889352330177
 30
0.0
  0
SPLINE
  5
AF
330
1F
100
AcDbEntity
  8
외형선
  6
Continuous
370
    15
100
AcDbSpline
210
0.0
220
0.0
230
1.0
 70
    24
 71
     3
 72
    23
 73
    19
 74
     0
 42
0.000000001
 43
0.00000001
 40
0.0
 40
0.0
 40
0.0
 40
0.0
 40
0.0890367618029245
 40
0.1523565181649893
 40
0.2175125517511399
 40
0.2808323081131821
 40
0.3459883416993089
 40
0.4093080980613516
 40
0.4744641316474789
 40
0.5377838880095331
 40
0.6029399215956477
 40
0.6662596779576898
 40
0.731415711543817
 40
0.7947354679058589
 40
0.8598915014919868
 40
0.9232112578540299
 40
0.9883672914401569
 40
1.0
 40
1.0
 40
1.0
 40
1.0
 10
12.00000000000002
 20
4.700869328688129
 30
0.0
 10
12.0
 20
4.607317933472389
 30
0.0
 10
11.99999999999999
 20
4.447236136291857
 30
0.0
 10
11.99999999999998
 20
4.097321719486327
 30
0.0
 10
11.99999999999999
 20
3.736426229565201
 30
0.0
 10
11.99999999999999
 20
3.321964878956188
 30
0.0
 10
11.99999999999996
 20
2.875237451793687
 30
0.0
 10
12.00000000000002
 20
2.400282421176811
 30
0.0
 10
11.99999999999995
 20
1.919241705901843
 30
0.0
 10
11.99999999999992
 20
1.437037751415583
 30
0.0
 10
12.0
 20
0.9759898104148501
 30
0.0
 10
12.00000000000006
 20
0.5409185133769936
 30
0.0
 10
11.99999999999996
 20
0.151702852742286
 30
0.0
 10
12.00000000000004
 20
-0.1866475300732783
 30
0.0
 10
11.99999999999996
 20
-0.4621846375406466
 30
0.0
 10
12.00000000000002
 20
-0.6581613358091647
 30
0.0
 10
11.99999999999996
 20
-0.7744193462605307
 30
0.0
 10
12.0
 20
-0.7827357936283307
 30
0.0
 10
11.99999999999999
 20
-0.7839956502919412
 30
0.0
  0
SPLINE
  5
B0
330
1F
100
AcDbEntity
  8
외형선
  6
Continuous
 62
     1
370
    15
100
AcDbSpline
210
0.0
220
0.0
230
1.0
 70
     8
 71
     3
 72
    20
 73
    16
 74
     0
 42
0.000000001
 43
0.00000001
 40
0.0
 40
0.0
 40
0.0
 40
0.0
 40
0.0674236726611069
 40
0.1433526519257238
 40
0.2192568113371529
 40
0.2951471241306073
 40
0.3710346090584047
 40
0.4469302941772533
 40
0.5228451805711342
 40
0.6023889528886885
 40
0.6819348666478278
 40
0.7614649903518754
 40
0.8409832214310043
 40
0.9204935551302716
 40
1.0
 40
1.0
 40
1.0
 40
1.0
 10
46.43083911330922
 20
-9.513109248669021
 30
0.0
 10
45.65696087073762
 20
-9.49976805124945
 30
0.0
 10
44.01158182267154
 20
-9.471402701892515
 30
0.0
 10
41.49507410185957
 20
-9.136650839651203
 30
0.0
 10
38.88160197484936
 20
-8.582313376454177
 30
0.0
 10
36.26869072493311
 20
-7.807127108520927
 30
0.0
 10
33.65589933716849
 20
-6.838052233028676
 30
0.0
 10
31.042767747831
 20
-5.697242985074858
 30
0.0
 10
28.38754458157055
 20
-4.393524968410799
 30
0.0
 10
25.69019624347515
 20
-2.952477850397869
 30
0.0
 10
22.95135485694377
 20
-1.408370921187239
 30
0.0
 10
20.21295084507704
 20
0.1752075444501268
 30
0.0
 10
17.47502767293644
 20
1.751369842585576
 30
0.0
 10
14.73743323232488
 20
3.288623291717487
 30
0.0
 10
12.91246286727447
 20
4.23012832467853
 30
0.0
 10
12.00000000000028
 20
4.700869328686542
 30
0.0
  0
LINE
  5
B1
330
1F
100
AcDbEntity
  8
외형선
  6
Continuous
 62
     1
370
    15
100
AcDbLine
 10
50.09999999999999
 20
-0.3574274972446028
 30
0.0
 11
50.09999999999999
 21
4.687395064286856
 31
0.0
  0
SPLINE
  5
B2
330
1F
100
AcDbEntity
  8
외형선
  6
Continuous
 62
     1
370
    15
100
AcDbSpline
210
0.0
220
0.0
230
1.0
 70
     8
 71
     3
 72
    14
 73
    10
 74
     0
 42
0.000000001
 43
0.00000001
 40
0.0
 40
0.0
 40
0.0
 40
0.0
 40
0.25
 40
0.25
 40
0.5
 40
0.5
 40
0.75
 40
0.75
 40
1.0
 40
1.0
 40
1.0
 40
1.0
 10
49.33799999999999
 20
0.065723878903895
 30
0.0
 10
49.43286415527679
 20
0.0109749131691954
 30
0.0
 10
49.52349987643408
 20
-0.044195275656139
 30
0.0
 10
49.69812745561561
 20
-0.1528249503079348
 30
0.0
 10
49.78040992451776
 20
-0.2052657391619843
 30
0.0
 10
49.92473157635895
 20
-0.2943319346699214
 30
0.0
 10
49.98752471232013
 20
-0.3313053482483105
 30
0.0
 10
50.07596849252216
 20
-0.3719687688569077
 30
0.0
 10
50.09999999999992
 20
-0.3745709952654997
 30
0.0
 10
50.09999999999993
 20
-0.3574274972446028
 30
0.0
  0
SPLINE
  5
B3
330
1F
100
AcDbEntity
  8
외형선
  6
Continuous
 62
     1
370
    15
100
AcDbSpline
210
0.0
220
0.0
230
1.0
 70
     8
 71
     3
 72
    17
 73
    13
 74
     0
 42
0.000000001
 43
0.00000001
 40
0.0
 40
0.0
 40
0.0
 40
0.0
 40
0.0593896442494244
 40
0.1606757409872312
 40
0.2619467170959274
 40
0.3632172838462709
 40
0.4693247238002887
 40
0.5754448004299667
 40
0.6815828358292814
 40
0.787738690230097
 40
0.8938785577507069
 40
1.0
 40
1.0
 40
1.0
 40
1.0
 10
23.5367606686536
 20
9.49601933502488
 30
0.0
 10
24.04754992667083
 20
9.499426367312012
 30
0.0
 10
25.4294649651842
 20
9.508643924416813
 30
0.0
 10
27.68218445500428
 20
9.257880763473462
 30
0.0
 10
30.29504234909536
 20
8.77523657556278
 30
0.0
 10
32.94930929894073
 20
8.050810061410477
 30
0.0
 10
35.64552194944437
 20
7.104762313810898
 30
0.0
 10
38.38360588475576
 20
5.948004249755996
 30
0.0
 10
41.1222063968122
 20
4.627931646479788
 30
0.0
 10
43.86112295011799
 20
3.180715834337138
 30
0.0
 10
46.59976412560057
 20
1.646094976105428
 30
0.0
 10
48.42530753042644
 20
0.5924837585157674
 30
0.0
 10
49.33799999999996
 20
0.0657238789039134
 30
0.0
  0
SPLINE
  5
B4
330
1F
100
AcDbEntity
  8
외형선
  6
Continuous
 62
     1
370
    15
100
AcDbSpline
210
0.0
220
0.0
230
1.0
 70
     8
 71
     3
 72
    15
 73
    11
 74
     0
 42
0.000000001
 43
0.00000001
 40
0.0
 40
0.0
 40
0.0
 40
0.0
 40
0.1250617063171957
 40
0.2501693235492011
 40
0.3752540281780562
 40
0.5002978448082186
 40
0.6253188506468199
 40
0.7503351978854524
 40
0.8753650540436768
 40
1.0
 40
1.0
 40
1.0
 40
1.0
 10
49.33800000000002
 20
5.450106451666699
 30
0.0
 10
48.46674649789291
 20
5.849456309532426
 30
0.0
 10
46.72391965120663
 20
6.648302629031287
 30
0.0
 10
44.10934673917941
 20
7.643022929145176
 30
0.0
 10
41.49507787052664
 20
8.456376948353125
 30
0.0
 10
38.8816007893458
 20
9.05496098139648
 30
0.0
 10
36.26869169938778
 20
9.428620124728795
 30
0.0
 10
33.65589662465553
 20
9.561568591364559
 30
0.0
 10
31.04574905377979
 20
9.471687898309316
 30
0.0
 10
29.30637996130637
 20
9.213377745835466
 30
0.0
 10
28.43807104870654
 20
9.084426962141187
 30
0.0
  0
SPLINE
  5
B5
330
1F
100
AcDbEntity
  8
외형선
  6
Continuous
 62
     1
370
    15
100
AcDbSpline
210
0.0
220
0.0
230
1.0
 70
     8
 71
     3
 72
    14
 73
    10
 74
     0
 42
0.000000001
 43
0.00000001
 40
0.0
 40
0.0
 40
0.0
 40
0.0
 40
0.25
 40
0.25
 40
0.5
 40
0.5
 40
0.75
 40
0.75
 40
1.0
 40
1.0
 40
1.0
 40
1.0
 10
50.09999999999999
 20
4.687395064286865
 30
0.0
 10
50.09999999999997
 20
4.754959760480583
 30
0.0
 10
50.07751045635508
 20
4.825759159538621
 30
0.0
 10
49.99423431756627
 20
4.967914205813582
 30
0.0
 10
49.93318374023313
 20
5.039239119268924
 30
0.0
 10
49.78783909046999
 20
5.173866194756238
 30
0.0
 10
49.70256049437511
 20
5.238296250467767
 30
0.0
 10
49.52452924548864
 20
5.354041587208533
 30
0.0
 10
49.43088249151461
 20
5.406142564987309
 30
0.0
 10
49.33799999999997
 20
5.450106451666706
 30
0.0
  0
LINE
  5
B6
330
1F
100
AcDbEntity
  8
외형선
  6
Continuous
370
    15
100
AcDbLine
 10
11.99999999999999
 20
9.181808508261184
 30
0.0
 11
11.99999999999999
 21
9.489692039228366
 31
0.0
  0
LINE
  5
B7
330
1F
100
AcDbEntity
  8
외형선
  6
Continuous
 62
     1
370
    15
100
AcDbLine
 10
50.09999999999999
 20
-1.920895414945365
 30
0.0
 11
50.09999999999999
 21
-0.3574274972446028
 31
0.0
  0
LINE
  5
B8
330
1F
100
AcDbEntity
  8
외형선
  6
Continuous
370
    15
100
AcDbLine
 10
11.99999999999996
 20
4.700869328686696
 30
0.0
 11
11.99999999999998
 21
6.130842299228097
 31
0.0
  0
SPLINE
  5
B9
330
1F
100
AcDbEntity
  8
외형선
  6
Continuous
 62
     1
370
    15
100
AcDbSpline
210
0.0
220
0.0
230
1.0
 70
     8
 71
     3
 72
    15
 73
    11
 74
     0
 42
0.000000001
 43
0.00000001
 40
0.0
 40
0.0
 40
0.0
 40
0.0
 40
0.1131865478784825
 40
0.2349114258849928
 40
0.3624550005574875
 40
0.4900020089006112
 40
0.6175236988559846
 40
0.7450263197145561
 40
0.8725162776074566
 40
1.0
 40
1.0
 40
1.0
 40
1.0
 10
33.47330969033855
 20
-9.517242506147909
 30
0.0
 10
32.66320254809908
 20
-9.500462601031412
 30
0.0
 10
30.98187709494186
 20
-9.465636983402696
 30
0.0
 10
28.38754358486455
 20
-9.112352451539579
 30
0.0
 10
25.69019651580206
 20
-8.524771498934278
 30
0.0
 10
22.95135478399069
 20
-7.687976738000169
 30
0.0
 10
20.2129508646132
 20
-6.641753622510104
 30
0.0
 10
17.47502766772767
 20
-5.411318752621932
 30
0.0
 10
14.73743323362692
 20
-4.037342754490079
 30
0.0
 10
12.91246286770847
 20
-3.034956312679834
 30
0.0
 10
12.00000000000027
 20
-2.533775348688855
 30
0.0
  0
LINE
  5
BA
330
1F
100
AcDbEntity
  8
외형선
  6
Continuous
370
    15
100
AcDbLine
 10
11.99999999999998
 20
-2.533775348688699
 30
0.0
 11
11.99999999999999
 21
-0.8193717108894149
 31
0.0
  0
SPLINE
  5
BB
330
1F
100
AcDbEntity
  8
외형선
  6
Continuous
 62
     1
370
    15
100
AcDbSpline
210
0.0
220
0.0
230
1.0
 70
     8
 71
     3
 72
    14
 73
    10
 74
     0
 42
0.000000001
 43
0.00000001
 40
0.0
 40
0.0
 40
0.0
 40
0.0
 40
0.1589527139814242
 40
0.3179280017391504
 40
0.4769488815348335
 40
0.63602009146102
 40
0.7950438678998988
 40
0.9540208987088277
 40
1.0
 40
1.0
 40
1.0
 40
1.0
 10
11.99999999999999
 20
-7.289608885392672
 30
0.0
 10
12.87090126632975
 20
-7.595670625292738
 30
0.0
 10
14.61282748061681
 20
-8.20783757065617
 30
0.0
 10
17.22610611295702
 20
-8.871954659653209
 30
0.0
 10
19.84016886823538
 20
-9.325790284055863
 30
0.0
 10
22.45477933051263
 20
-9.54704477568471
 30
0.0
 10
25.0688778930428
 20
-9.513160543603291
 30
0.0
 10
27.06319344732725
 20
-9.353702472651118
 30
0.0
 10
28.18615091918756
 20
-9.13376656983855
 30
0.0
 10
28.43807104870643
 20
-9.084426962141205
 30
0.0
  0
SPLINE
  5
BC
330
1F
100
AcDbEntity
  8
외형선
  6
Continuous
370
    15
100
AcDbSpline
210
0.0
220
0.0
230
1.0
 70
    24
 71
     3
 72
    21
 73
    17
 74
     0
 42
0.000000001
 43
0.00000001
 40
0.0
 40
0.0
 40
0.0
 40
0.0
 40
0.0491504366043749
 40
0.1188382752486515
 40
0.1905470659346013
 40
0.2602349045788779
 40
0.3319436952648286
 40
0.4016315339091183
 40
0.4733403245950546
 40
0.5430281632393308
 40
0.6147369539252814
 40
0.684424792569557
 40
0.7561335832555082
 40
0.8258214218997855
 40
0.897530212585736
 40
1.0
 40
1.0
 40
1.0
 40
1.0
 10
11.99999999999999
 20
-2.29631621149691
 30
0.0
 10
11.99999999999999
 20
-2.300357023419312
 30
0.0
 10
11.99999999999999
 20
-2.310127091655486
 30
0.0
 10
11.99999999999999
 20
-2.419257327279227
 30
0.0
 10
12.0
 20
-2.605843748332238
 30
0.0
 10
12.0
 20
-2.869583802292874
 30
0.0
 10
11.99999999999998
 20
-3.1943776857
 30
0.0
 10
11.99999999999996
 20
-3.577920971864695
 30
0.0
 10
11.99999999999998
 20
-4.002177655535932
 30
0.0
 10
12.00000000000009
 20
-4.462841219874189
 30
0.0
 10
11.99999999999996
 20
-4.938594078627056
 30
0.0
 10
12.00000000000003
 20
-5.424416217684562
 30
0.0
 10
11.99999999999996
 20
-5.898265376709366
 30
0.0
 10
12.00000000000004
 20
-6.353559290572454
 30
0.0
 10
11.99999999999996
 20
-6.841079808607899
 30
0.0
 10
11.99999999999998
 20
-7.123474959165494
 30
0.0
 10
11.99999999999999
 20
-7.289608885392672
 30
0.0
  0
SPLINE
  5
BD
330
1F
100
AcDbEntity
  8
외형선
  6
Continuous
 62
     1
370
    15
100
AcDbSpline
210
0.0
220
0.0
230
1.0
 70
     8
 71
     3
 72
    14
 73
    10
 74
     0
 42
0.000000001
 43
0.00000001
 40
0.0
 40
0.0
 40
0.0
 40
0.0
 40
0.25
 40
0.25
 40
0.5
 40
0.5
 40
0.75
 40
0.75
 40
1.0
 40
1.0
 40
1.0
 40
1.0
 10
49.33799999999999
 20
6.781505551376546
 30
0.0
 10
49.43286415527677
 20
6.743059320624516
 30
0.0
 10
49.52349987643407
 20
6.691936862860729
 30
0.0
 10
49.69812745561559
 20
6.566975472069744
 30
0.0
 10
49.78040992451771
 20
6.493848881777236
 30
0.0
 10
49.92473157635891
 20
6.335712462241752
 30
0.0
 10
49.98752471232013
 20
6.249610369587732
 30
0.0
 10
50.07596849252216
 20
6.081997943137681
 30
0.0
 10
50.09999999999992
 20
6.003296981344846
 30
0.0
 10
50.09999999999993
 20
5.938480770886036
 30
0.0
  0
LINE
  5
BE
330
1F
100
AcDbEntity
  8
외형선
  6
Continuous
 62
     1
370
    15
100
AcDbLine
 10
50.09999999999999
 20
4.687395064286856
 30
0.0
 11
50.09999999999999
 21
5.93848077088604
 31
0.0
  0
SPLINE
  5
BF
330
1F
100
AcDbEntity
  8
외형선
  6
Continuous
 62
     1
370
    15
100
AcDbSpline
210
0.0
220
0.0
230
1.0
 70
     8
 71
     3
 72
    12
 73
     8
 74
     0
 42
0.000000001
 43
0.00000001
 40
0.0
 40
0.0
 40
0.0
 40
0.0
 40
0.1472207249826564
 40
0.3604140081440891
 40
0.5736430832948721
 40
0.7868400465315241
 40
0.9999999999999999
 40
0.9999999999999999
 40
0.9999999999999999
 40
0.9999999999999999
 10
36.49238408374577
 20
9.496997284279562
 30
0.0
 10
37.1227421721249
 20
9.496011717157465
 30
0.0
 10
38.66593444498955
 20
9.493598930528325
 30
0.0
 10
41.12220741556171
 20
9.189151543699204
 30
0.0
 10
43.8611226784763
 20
8.629937477923505
 30
0.0
 10
46.59976419349298
 20
7.837193597988144
 30
0.0
 10
48.42530755305593
 20
7.133381202181308
 30
0.0
 10
49.33799999999996
 20
6.781505551376559
 30
0.0
  0
SPLINE
  5
C0
330
1F
100
AcDbEntity
  8
외형선
  6
Continuous
 62
     1
370
    15
100
AcDbSpline
210
0.0
220
0.0
230
1.0
 70
     8
 71
     3
 72
    11
 73
     7
 74
     0
 42
0.000000001
 43
0.00000001
 40
0.0
 40
0.0
 40
0.0
 40
0.0
 40
0.3306475947753373
 40
0.6614165722984596
 40
0.9921249717490104
 40
1.0
 40
1.0
 40
1.0
 40
1.0
 10
49.33799999999999
 20
9.524999999999991
 30
0.0
 10
48.46674554229425
 20
9.44435915409786
 30
0.0
 10
46.72391678405982
 20
9.578138127415091
 30
0.0
 10
44.10935821180306
 20
9.450951111163725
 30
0.0
 10
42.3454805762628
 20
9.284209391948615
 30
0.0
 10
41.45332344569645
 20
9.09333306852582
 30
0.0
 10
41.4325729835276
 20
9.088893523301756
 30
0.0
  0
LINE
  5
C2
330
1F
100
AcDbEntity
  8
외형선
  6
Continuous
 62
     1
370
    15
100
AcDbLine
 10
50.09999999999999
 20
5.924519463737064
 30
0.0
 11
50.09999999999999
 21
8.762999999999991
 31
0.0
  0
LINE
  5
C3
330
1F
100
AcDbEntity
  8
외형선
  6
Continuous
 62
     1
370
    15
100
AcDbLine
 10
50.09999999999999
 20
-7.403951412002884
 30
0.0
 11
50.09999999999999
 21
-6.443959585054521
 31
0.0
  0
SPLINE
  5
C4
330
1F
100
AcDbEntity
  8
외형선
  6
Continuous
 62
     1
370
    15
100
AcDbSpline
210
0.0
220
0.0
230
1.0
 70
     8
 71
     3
 72
    11
 73
     7
 74
     0
 42
0.000000001
 43
0.00000001
 40
0.0
 40
0.0
 40
0.0
 40
0.0
 40
0.0353632148443492
 40
0.3569353434077347
 40
0.6784755349270273
 40
1.0
 40
1.0
 40
1.0
 40
1.0
 10
20.51391947186375
 20
-9.512182179104201
 30
0.0
 10
20.41355498286456
 20
-9.516356727895225
 30
0.0
 10
19.40053528133156
 20
-9.558492150617816
 30
0.0
 10
17.47503388874811
 20
-9.387441072806752
 30
0.0
 10
14.73743167852496
 20
-9.002460045349963
 30
0.0
 10
12.91246234934958
 20
-8.523595305369085
 30
0.0
 10
12.00000000000027
 20
-8.284168790809009
 30
0.0
  0
LINE
  5
C5
330
1F
100
AcDbEntity
  8
외형선
  6
Continuous
370
    15
100
AcDbLine
 10
11.99999999999998
 20
-8.28416879080892
 30
0.0
 11
11.99999999999999
 21
-7.289608885392672
 31
0.0
  0
SPLINE
  5
C6
330
1F
100
AcDbEntity
  8
외형선
  6
Continuous
 62
     1
370
    15
100
AcDbSpline
210
0.0
220
0.0
230
1.0
 70
     8
 71
     3
 72
     9
 73
     5
 74
     0
 42
0.000000001
 43
0.00000001
 40
0.0
 40
0.0
 40
0.0
 40
0.0
 40
0.7365951063408454
 40
1.0
 40
1.0
 40
1.0
 40
1.0
 10
12.0
 20
-9.489692039228373
 30
0.0
 10
12.87089646669594
 20
-9.43541115128112
 30
0.0
 10
14.05322371703877
 20
-9.361719529547575
 30
0.0
 10
15.23560135839545
 20
-9.130976817559723
 30
0.0
 10
15.54704541528196
 20
-9.07019805804594
 30
0.0
  0
SPLINE
  5
C7
330
1F
100
AcDbEntity
  8
외형선
  6
Continuous
370
    15
100
AcDbSpline
210
0.0
220
0.0
230
1.0
 70
    24
 71
     3
 72
     9
 73
     5
 74
     0
 42
0.000000001
 43
0.00000001
 40
0.0
 40
0.0
 40
0.0
 40
0.0
 40
0.3923362903464629
 40
1.0
 40
1.0
 40
1.0
 40
1.0
 10
11.99999999999996
 20
-8.358362635556901
 30
0.0
 10
11.99999999999996
 20
-8.50227604500698
 30
0.0
 10
11.99999999999999
 20
-8.869087408092938
 30
0.0
 10
11.99999999999999
 20
-9.255116294239269
 30
0.0
 10
11.99999999999999
 20
-9.48969203922837
 30
0.0
  0
LINE
  5
CA
330
1F
100
AcDbEntity
  8
외형선
  6
Continuous
370
    15
100
AcDbLine
 10
11.49986971623979
 20
9.510144783458738
 30
0.0
 11
11.49986971623979
 21
9.524999999999991
 31
0.0
  0
SPLINE
  5
CB
330
1F
100
AcDbEntity
  8
외형선
  6
Continuous
370
    15
100
AcDbSpline
210
0.0
220
0.0
230
1.0
 70
     8
 71
     3
 72
     8
 73
     4
 74
     0
 42
0.000000001
 43
0.00000001
 40
0.0
 40
0.0
 40
0.0
 40
0.0
 40
1.0
 40
1.0
 40
1.0
 40
1.0
 10
11.99999999999998
 20
9.489692039228355
 30
0.0
 10
11.83325394010034
 20
9.497961798242525
 30
0.0
 10
11.66650565261978
 20
9.504781264227628
 30
0.0
 10
11.49986971623979
 20
9.51014670886839
 30
0.0
  0
SPLINE
  5
CC
330
1F
100
AcDbEntity
  8
외형선
  6
Continuous
370
    15
100
AcDbSpline
210
0.0
220
0.0
230
1.0
 70
     8
 71
     3
 72
     8
 73
     4
 74
     0
 42
0.000000001
 43
0.00000001
 40
0.0
 40
0.0
 40
0.0
 40
0.0
 40
1.0
 40
1.0
 40
1.0
 40
1.0
 10
11.99999999999999
 20
9.181808508261184
 30
0.0
 10
11.83325394010035
 20
9.207381409120732
 30
0.0
 10
11.66650565261979
 20
9.23155114729278
 30
0.0
 10
11.49986971623981
 20
9.254302041508975
 30
0.0
  0
LINE
  5
CD
330
1F
100
AcDbEntity
  8
외형선
  6
Continuous
370
    15
100
AcDbLine
 10
11.49986971623979
 20
6.348675102269686
 30
0.0
 11
11.49986971623978
 21
9.254302468639484
 31
0.0
  0
SPLINE
  5
CE
330
1F
100
AcDbEntity
  8
외형선
  6
Continuous
370
    15
100
AcDbSpline
210
0.0
220
0.0
230
1.0
 70
     8
 71
     3
 72
     8
 73
     4
 74
     0
 42
0.000000001
 43
0.00000001
 40
0.0
 40
0.0
 40
0.0
 40
0.0
 40
1.0
 40
1.0
 40
1.0
 40
1.0
 10
11.99999999999998
 20
6.130842299228087
 30
0.0
 10
11.83325394010034
 20
6.204414901245673
 30
0.0
 10
11.66650565261978
 20
6.277050836509793
 30
0.0
 10
11.49986971623979
 20
6.34870081333793
 30
0.0
  0
SPLINE
  5
CF
330
1F
100
AcDbEntity
  8
외형선
  6
Continuous
370
    15
100
AcDbSpline
210
0.0
220
0.0
230
1.0
 70
     8
 71
     3
 72
     8
 73
     4
 74
     0
 42
0.000000001
 43
0.00000001
 40
0.0
 40
0.0
 40
0.0
 40
0.0
 40
1.0
 40
1.0
 40
1.0
 40
1.0
 10
11.99999999999999
 20
4.700869328686676
 30
0.0
 10
11.83325394010035
 20
4.784479830028389
 30
0.0
 10
11.66650565261979
 20
4.867372254357295
 30
0.0
 10
11.49986971623981
 20
4.949490118163957
 30
0.0
  0
SPLINE
  5
D0
330
1F
100
AcDbEntity
  8
외형선
  6
Continuous
370
    15
100
AcDbSpline
210
0.0
220
0.0
230
1.0
 70
     8
 71
     3
 72
     8
 73
     4
 74
     0
 42
0.000000001
 43
0.00000001
 40
0.0
 40
0.0
 40
0.0
 40
0.0
 40
1.0
 40
1.0
 40
1.0
 40
1.0
 10
11.99999999999998
 20
-0.8193717108894316
 30
0.0
 10
11.83325394010034
 20
-0.7235940983112507
 30
0.0
 10
11.66650565261978
 20
-0.6276908395301838
 30
0.0
 10
11.49986971623979
 20
-0.531727915196874
 30
0.0
  0
SPLINE
  5
D1
330
1F
100
AcDbEntity
  8
외형선
  6
Continuous
370
    15
100
AcDbSpline
210
0.0
220
0.0
230
1.0
 70
     8
 71
     3
 72
     8
 73
     4
 74
     0
 42
0.000000001
 43
0.00000001
 40
0.0
 40
0.0
 40
0.0
 40
0.0
 40
1.0
 40
1.0
 40
1.0
 40
1.0
 10
11.99999999999999
 20
-2.533775348688712
 30
0.0
 10
11.83325394010035
 20
-2.441105144593998
 30
0.0
 10
11.66650565261979
 20
-2.34804729206212
 30
0.0
 10
11.49986971623981
 20
-2.254665989569829
 30
0.0
  0
SPLINE
  5
D2
330
1F
100
AcDbEntity
  8
외형선
  6
Continuous
370
    15
100
AcDbSpline
210
0.0
220
0.0
230
1.0
 70
     8
 71
     3
 72
     8
 73
     4
 74
     0
 42
0.000000001
 43
0.00000001
 40
0.0
 40
0.0
 40
0.0
 40
0.0
 40
1.0
 40
1.0
 40
1.0
 40
1.0
 10
11.99999999999998
 20
-7.289608885392676
 30
0.0
 10
11.83325394010034
 20
-7.227731488730483
 30
0.0
 10
11.66650565261978
 20
-7.164739734750643
 30
0.0
 10
11.49986971623979
 20
-7.100677642501631
 30
0.0
  0
SPLINE
  5
D3
330
1F
100
AcDbEntity
  8
외형선
  6
Continuous
370
    15
100
AcDbSpline
210
0.0
220
0.0
230
1.0
 70
     8
 71
     3
 72
     8
 73
     4
 74
     0
 42
0.000000001
 43
0.00000001
 40
0.0
 40
0.0
 40
0.0
 40
0.0
 40
1.0
 40
1.0
 40
1.0
 40
1.0
 10
11.99999999999999
 20
-8.284168790808927
 30
0.0
 10
11.83325394010035
 20
-8.236723832692011
 30
0.0
 10
11.66650565261979
 20
-8.188012579885019
 30
0.0
 10
11.49986971623981
 20
-8.138069339235017
 30
0.0
  0
LINE
  5
D4
330
1F
100
AcDbEntity
  8
외형선
  6
Continuous
370
    15
100
AcDbLine
 10
11.49986971623979
 20
-9.525000000000002
 30
0.0
 11
11.49986971623978
 21
-8.138068401588637
 31
0.0
  0
SPLINE
  5
D5
330
1F
100
AcDbEntity
  8
외형선
  6
Continuous
370
    15
100
AcDbSpline
210
0.0
220
0.0
230
1.0
 70
     8
 71
     3
 72
     8
 73
     4
 74
     0
 42
0.000000001
 43
0.00000001
 40
0.0
 40
0.0
 40
0.0
 40
0.0
 40
1.0
 40
1.0
 40
1.0
 40
1.0
 10
11.99999999999998
 20
-9.489692039228363
 30
0.0
 10
11.83325394010034
 20
-9.497961798242528
 30
0.0
 10
11.66650565261978
 20
-9.504781264227638
 30
0.0
 10
11.49986971623979
 20
-9.510146708868398
 30
0.0
  0
LINE
  5
D6
330
1F
100
AcDbEntity
  8
외형선
  6
Continuous
370
    15
100
AcDbLine
 10
-52.77000000000002
 20
-0.0000000000000062
 30
0.0
 11
-52.77000000000002
 21
9.524999999999991
 31
0.0
  0
LINE
  5
D7
330
1F
100
AcDbEntity
  8
외형선
  6
Continuous
370
    15
100
AcDbLine
 10
-52.77000000000002
 20
-9.525000000000002
 30
0.0
 11
-52.77000000000002
 21
-0.0000000000000062
 31
0.0
  0
LINE
  5
D8
330
1F
100
AcDbEntity
  8
외형선
  6
Continuous
370
    15
100
AcDbLine
 10
11.49986971623979
 20
-0.5317623507286395
 30
0.0
 11
11.49986971623978
 21
4.949491659864099
 31
0.0
  0
LINE
  5
D9
330
1F
100
AcDbEntity
  8
외형선
  6
Continuous
370
    15
100
AcDbLine
 10
11.49986971623979
 20
-7.100700630629434
 30
0.0
 11
11.49986971623978
 21
-2.254664236407089
 31
0.0
  0
LINE
  5
DA
330
1F
100
AcDbEntity
  8
외형선
  6
Continuous
370
    15
100
AcDbLine
 10
-54.67500000000003
 20
-0.0000000000000062
 30
0.0
 11
-54.67500000000003
 21
7.619999999999997
 31
0.0
  0
LINE
  5
DB
330
1F
100
AcDbEntity
  8
외형선
  6
Continuous
370
    15
100
AcDbLine
 10
-54.67500000000003
 20
-7.62000000000001
 30
0.0
 11
-54.67500000000003
 21
-0.0000000000000062
 31
0.0
  0
SPLINE
  5
DC
330
1F
100
AcDbEntity
  8
외형선
  6
Continuous
370
    15
100
AcDbSpline
210
0.0
220
0.0
230
1.0
 70
    24
 71
     3
 72
    37
 73
    33
 74
     0
 42
0.000000001
 43
0.00000001
 40
0.0
 40
0.0
 40
0.0
 40
0.0
 40
0.0099664519885407
 40
0.0416359519742525
 40
0.0732249319586405
 40
0.1050332397170653
 40
0.1375332951429717
 40
0.1702723792882885
 40
0.201861359272677
 40
0.2336696670311017
 40
0.2661697224570077
 40
0.2989088066023248
 40
0.3304977865867055
 40
0.362306094345123
 40
0.3948061497710371
 40
0.4275452339163627
 40
0.4591342139007501
 40
0.4909425216591766
 40
0.5234425770850716
 40
0.5561816612304002
 40
0.5877706412147475
 40
0.6520218538875403
 40
0.6847609380328574
 40
0.7163499180172305
 40
0.7806011306899521
 40
0.8133402148352534
 40
0.8449291948196558
 40
0.8767375025780965
 40
0.9092375580040185
 40
0.941976642149352
 40
0.970904270750915
 40
1.0
 40
1.0
 40
1.0
 40
1.0
 10
11.99999999999996
 20
-0.7868109024508286
 30
0.0
 10
11.99999999999996
 20
-0.7847336398009661
 30
0.0
 10
11.99999999999993
 20
-0.7760556460648774
 30
0.0
 10
12.0
 20
-0.7288663184398982
 30
0.0
 10
11.99999999999998
 20
-0.6602527486896266
 30
0.0
 10
12.00000000000003
 20
-0.5691341507971657
 30
0.0
 10
11.99999999999996
 20
-0.459173494303217
 30
0.0
 10
12.00000000000004
 20
-0.3311940115717617
 30
0.0
 10
11.99999999999996
 20
-0.1874618261129641
 30
0.0
 10
12.00000000000003
 20
-0.0286060174409327
 30
0.0
 10
11.99999999999998
 20
0.146896678360477
 30
0.0
 10
11.99999999999999
 20
0.3356546647226394
 30
0.0
 10
12.0
 20
0.5350606989474729
 30
0.0
 10
11.99999999999998
 20
0.7444047092040842
 30
0.0
 10
11.99999999999999
 20
0.9654813026868295
 30
0.0
 10
11.99999999999996
 20
1.193785822931192
 30
0.0
 10
12.00000000000006
 20
1.426371126310481
 30
0.0
 10
11.99999999999996
 20
1.66260607996527
 30
0.0
 10
11.99999999999999
 20
1.904326007145658
 30
0.0
 10
11.99999999999999
 20
2.146456065278834
 30
0.0
 10
11.99999999999996
 20
2.466747249926741
 30
0.0
 10
11.99999999999986
 20
2.782703272423302
 30
0.0
 10
12.00000000000011
 20
3.086214137669502
 30
0.0
 10
11.99999999999986
 20
3.379728156034626
 30
0.0
 10
11.99999999999991
 20
3.655785304832981
 30
0.0
 10
12.00000000000007
 20
3.90714513735974
 30
0.0
 10
11.99999999999984
 20
4.081865623429027
 30
0.0
 10
12.0000000000002
 20
4.241833503362774
 30
0.0
 10
11.99999999999989
 20
4.388029407111539
 30
0.0
 10
12.00000000000007
 20
4.512967109965418
 30
0.0
 10
11.99999999999999
 20
4.618593097762392
 30
0.0
 10
11.99999999999999
 20
4.673390999674034
 30
0.0
 10
11.99999999999999
 20
4.700869328686688
 30
0.0
  0
SPLINE
  5
DD
330
1F
100
AcDbEntity
  8
외형선
  6
Continuous
370
    15
100
AcDbSpline
210
0.0
220
0.0
230
1.0
 70
    24
 71
     3
 72
    22
 73
    18
 74
     0
 42
0.000000001
 43
0.00000001
 40
0.0
 40
0.0
 40
0.0
 40
0.0
 40
0.067499118862915
 40
0.1368317637991574
 40
0.2064656934684629
 40
0.2781190118155149
 40
0.3477529414848202
 40
0.4194062598318732
 40
0.4890401895011621
 40
0.5606935078482331
 40
0.6303274375175394
 40
0.7019807558645927
 40
0.7716146855338972
 40
0.8432680038809497
 40
0.9129019335502223
 40
0.9845552518972395
 40
1.0
 40
1.0
 40
1.0
 40
1.0
 10
12.0
 20
-7.289608885392679
 30
0.0
 10
11.99999999999999
 20
-7.182896022907451
 30
0.0
 10
11.99999999999995
 20
-6.966571581345992
 30
0.0
 10
12.00000000000002
 20
-6.575992603995005
 30
0.0
 10
11.99999999999988
 20
-6.142009220681349
 30
0.0
 10
12.00000000000004
 20
-5.677855990512128
 30
0.0
 10
11.99999999999999
 20
-5.194535629110971
 30
0.0
 10
12.0
 20
-4.714042329705985
 30
0.0
 10
11.99999999999998
 20
-4.241434690316437
 30
0.0
 10
12.0
 20
-3.798556591557736
 30
0.0
 10
11.99999999999998
 20
-3.390023984834381
 30
0.0
 10
11.99999999999998
 20
-3.034587570259942
 30
0.0
 10
11.99999999999999
 20
-2.73652328875492
 30
0.0
 10
12.00000000000007
 20
-2.507352490523849
 30
0.0
 10
11.99999999999998
 20
-2.35796321873987
 30
0.0
 10
11.99999999999999
 20
-2.287779083015559
 30
0.0
 10
12.00000000000002
 20
-2.293051533314523
 30
0.0
 10
12.00000000000003
 20
-2.293986475616586
 30
0.0
  0
SPLINE
  5
DE
330
1F
100
AcDbEntity
  8
외형선
  6
Continuous
370
    15
100
AcDbSpline
210
0.0
220
0.0
230
1.0
 70
    24
 71
     3
 72
    15
 73
    11
 74
     0
 42
0.000000001
 43
0.00000001
 40
0.0
 40
0.0
 40
0.0
 40
0.0
 40
0.1002273157927723
 40
0.2544605688672052
 40
0.4043471023174736
 40
0.5585803553918318
 40
0.7084668888422423
 40
0.862700141916752
 40
0.9311511838558065
 40
1.0
 40
1.0
 40
1.0
 40
1.0
 10
11.99999999999999
 20
6.205026143976081
 30
0.0
 10
11.99999999999999
 20
6.286771511436816
 30
0.0
 10
11.99999999999996
 20
6.494309471939771
 30
0.0
 10
12.0000000000001
 20
6.877349083670715
 30
0.0
 10
11.99999999999998
 20
7.336477201593521
 30
0.0
 10
12.00000000000002
 20
7.812620617008448
 30
0.0
 10
12.00000000000004
 20
8.298434355904948
 30
0.0
 10
12.00000000000009
 20
8.686996200892743
 30
0.0
 10
11.99999999999989
 20
8.981115523216172
 30
0.0
 10
11.99999999999996
 20
9.114781764186432
 30
0.0
 10
11.99999999999999
 20
9.181808508261192
 30
0.0
  0
SPLINE
  5
DF
330
1F
100
AcDbEntity
  8
외형선
  6
Continuous
370
    15
100
AcDbSpline
210
0.0
220
0.0
230
1.0
 70
    24
 71
     3
 72
    10
 73
     6
 74
     0
 42
0.000000001
 43
0.00000001
 40
0.0
 40
0.0
 40
0.0
 40
0.0
 40
0.3993352471159223
 40
0.8095179186119043
 40
0.9999999999999999
 40
0.9999999999999999
 40
0.9999999999999999
 40
0.9999999999999999
 10
12.0
 20
-9.489692039228363
 30
0.0
 10
11.99999999999999
 20
-9.336321957154563
 30
0.0
 10
11.99999999999996
 20
-9.025415693521705
 30
0.0
 10
12.00000000000002
 20
-8.642143846479193
 30
0.0
 10
11.99999999999999
 20
-8.426680205351019
 30
0.0
 10
12.0
 20
-8.358352635556901
 30
0.0
  0
LINE
  5
E0
330
1F
100
AcDbEntity
  8
중심선
 62
     1
100
AcDbLine
 10
-57.67500000000002
 20
-0.0000000000000001
 30
0.0
 11
53.09999999999999
 21
0.0000000000000003
 31
0.0
  0
LINE
  5
E1
330
1F
100
AcDbEntity
  8
참조1
100
AcDbLine
 10
-2.287500000000012
 20
0.0000000000000003
 30
0.0
 11
-2.287500000000008
 21
-40.0
 31
0.0
  0
LINE
  5
E2
330
1F
100
AcDbEntity
  8
참조1
100
AcDbLine
 10
-2.287500000000008
 20
-40.0
 30
0.0
 11
-17.44635681430869
 21
-39.99999999999999
 31
0.0
  0
INSERT
  5
E4
330
1F
100
AcDbEntity
  8
0
  6
Continuous
 62
     7
100
AcDbBlockReference
 66
     1
  2
블럭10
 10
-16.22777293212522
 20
-52.04717430164393
 30
0.0
  0
ATTRIB
  5
E5
330
E4
100
AcDbEntity
  8
FORMAT
 62
     2
100
AcDbText
 10
-26.36940894426185
 20
-49.97180738881174
 30
0.0
 40
4.233333333333333
  1
EM668048 [ 8 FLUTE ]
 41
0.75
  7
SLDTEXTSTYLE0
 11
-26.36940894426185
 21
-52.08847405547841
 31
0.0
100
AcDbAttribute
  2
AUTOATTR0
 70
     0
 74
     1
  0
SEQEND
  5
E6
330
E4
100
AcDbEntity
  8
0
  6
Continuous
 62
     7
  0
HATCH
  5
E7
330
1F
100
AcDbEntity
  8
중심선
100
AcDbHatch
 10
0.0
 20
0.0
 30
0.0
210
0.0
220
0.0
230
1.0
  2
SOLID
 70
     1
 71
     0
 91
        1
 92
        0
 93
        4
 72
     1
 10
-10.51286362774438
 20
-35.79999999999999
 11
-13.95913887158166
 21
-35.79999999999999
 72
     1
 10
-13.95913887158166
 20
-35.79999999999999
 11
-16.08736873078569
 21
-38.33632558057259
 72
     1
 10
-16.08736873078569
 20
-38.33632558057259
 11
-12.64106040183526
 21
-38.3362861512701
 72
     1
 10
-12.64106040183526
 20
-38.3362861512701
 11
-10.51286362774438
 21
-35.79999999999999
 97
        0
 75
     0
 76
     1
 98
        1
 10
2.000000000000043
 20
-0.0010749287238889
  0
HATCH
  5
E8
330
1F
100
AcDbEntity
  8
중심선
100
AcDbHatch
 10
0.0
 20
0.0
 30
0.0
210
0.0
220
0.0
230
1.0
  2
SOLID
 70
     1
 71
     0
 91
        1
 92
        0
 93
        4
 72
     1
 10
-5.500099636708404
 20
-35.79999999999999
 11
-8.946374880545687
 21
-35.79999999999999
 72
     1
 10
-8.946374880545687
 20
-35.79999999999999
 11
-13.4775128889031
 21
-41.20000000000001
 72
     1
 10
-13.4775128889031
 20
-41.20000000000001
 11
-10.03123764506582
 21
-41.20000000000001
 72
     1
 10
-10.03123764506582
 20
-41.20000000000001
 11
-5.500099636708404
 21
-35.79999999999999
 97
        0
 75
     0
 76
     1
 98
        1
 10
2.000000000000043
 20
-0.0010749287238889
  0
HATCH
  5
E9
330
1F
100
AcDbEntity
  8
중심선
100
AcDbHatch
 10
0.0
 20
0.0
 30
0.0
210
0.0
220
0.0
230
1.0
  2
SOLID
 70
     1
 71
     0
 91
        1
 92
        0
 93
        4
 72
     1
 10
-0.4873356456725357
 20
-35.79999999999999
 11
-3.933610889509652
 21
-35.79999999999999
 72
     1
 10
-3.933610889509652
 20
-35.79999999999999
 11
-10.9820477913989
 21
-44.20000000000001
 72
     1
 10
-10.9820477913989
 20
-44.20000000000001
 11
-7.535772547561617
 21
-44.20000000000001
 72
     1
 10
-7.535772547561617
 20
-44.20000000000001
 11
-0.4873356456725357
 21
-35.79999999999999
 97
        0
 75
     0
 76
     1
 98
        1
 10
2.000000000000043
 20
-0.0010749287238889
  0
HATCH
  5
EA
330
1F
100
AcDbEntity
  8
중심선
100
AcDbHatch
 10
0.0
 20
0.0
 30
0.0
210
0.0
220
0.0
230
1.0
  2
SOLID
 70
     1
 71
     0
 91
        1
 92
        0
 93
        6
 72
     3
 10
4.312554785339664
 20
-40.00000000005127
 11
3.960054785062283
 21
1.540882976769353E-10
 40
0.3939339440162628
 50
17.09539180608437
 51
320.0019657685075
 73
     0
 72
     1
 10
5.995554441040259
 20
-38.58789400463827
 11
8.300856314741297
 21
-36.65356729459037
 72
     3
 10
4.312554785286817
 20
-40.00000000000014
 11
6.600054785286829
 21
-1.278976924368180E-13
 40
0.636358354079598
 50
39.99873849337411
 51
368.4976242363725
 73
     1
 72
     1
 10
10.73788727718743
 20
-39.03999999993002
 11
2.99262209212274
 21
-39.03999999992999
 72
     1
 10
2.99262209212274
 20
-39.03999999992999
 11
2.992597047676806
 21
-40.95999999992991
 72
     1
 10
2.992597047676806
 20
-40.95999999992991
 11
7.433976817148842
 21
-40.95999999992988
 97
        0
 75
     0
 76
     1
 98
        1
 10
2.000000000000043
 20
-0.0010749287238889
  0
DIMENSION
  5
EB
330
1F
100
AcDbEntity
  8
치수문자_일반주서
100
AcDbDimension
  2
_D
 10
69.10000000000011
 20
-9.524999999999888
 30
0.0
 11
69.09999999999997
 21
29.91025000000011
 31
0.0
 70
   160
  1
%%c<>
 71
     2
 42
19.04999999999999
 52
-270.0
  3
SLDDIMSTYLE0
100
AcDbAlignedDimension
 13
49.98706577558104
 23
9.525000000000038
 33
0.0
 14
50.09999999999999
 24
-9.524999999999956
 34
0.0
 50
90.0000000000002
100
AcDbRotatedDimension
1001
PE_URL
1000

1001
ACAD
1000
DSTYLE
1002
{
1070
   171
1070
     6
1070
   273
1070
     7
1002
}
  0
DIMENSION
  5
100
330
1F
100
AcDbEntity
  8
치수문자_일반주서
100
AcDbDimension
  2
_D_1
 10
-61.675
 20
-9.525000000000043
 30
0.0
 11
-61.67500000000003
 21
-0.0000000000000015
 31
0.0
 70
   160
  1
%%c<>
 71
     2
 42
19.05000000000001
 52
-270.0
  3
SLDDIMSTYLE0
100
AcDbAlignedDimension
 13
-52.77000000000003
 23
9.524999999999999
 33
0.0
 14
-52.77000000000003
 24
-9.525000000000013
 34
0.0
 50
90.0000000000002
100
AcDbRotatedDimension
1001
ACAD
1000
DSTYLE
1002
{
1070
   171
1070
     6
1070
   273
1070
     7
1002
}
1001
ACAD_DSTYLE_DIMFLIPARROW_SYMBOL
1070
   385
1070
     0
1001
ACAD_DSTYLE_DIMFLIPARROW_WHICH_SYMBOL
1070
   386
1070
     3
  0
DIMENSION
  5
114
330
1F
100
AcDbEntity
  8
치수문자_일반주서
100
AcDbDimension
  2
_D_2
 10
12.0
 20
31.07644732195054
 30
0.0
 11
33.41743761909091
 21
31.07644732195054
 31
0.0
 70
   160
  1
<>
 71
     2
 42
38.09999999999998
  3
SLDDIMSTYLE0
100
AcDbAlignedDimension
 13
50.09999999999999
 23
9.525000000000038
 33
0.0
 14
12.0
 24
9.489692039228355
 34
0.0
 50
-0.0000000000000321
100
AcDbRotatedDimension
1001
PE_URL
1000

1001
ACAD
1000
DSTYLE
1002
{
1070
   171
1070
     6
1070
   273
1070
     7
1002
}
  0
DIMENSION
  5
128
330
1F
100
AcDbEntity
  8
치수문자_일반주서
100
AcDbDimension
  2
_D_3
 10
50.09999999999999
 20
53.3346871005775
 30
0.0
 11
-1.158940071133104
 21
53.3346871005775
 31
0.0
 70
   160
  1
<>
 71
     2
 42
104.775
  3
SLDDIMSTYLE0
100
AcDbAlignedDimension
 13
-54.67500000000003
 23
7.619999999999997
 33
0.0
 14
50.09999999999999
 24
9.525000000000038
 34
0.0
100
AcDbRotatedDimension
1001
PE_URL
1000

1001
ACAD
1000
DSTYLE
1002
{
1070
   171
1070
     6
1070
   273
1070
     7
1002
}
  0
LINE
  5
13C
330
1F
100
AcDbEntity
  8
참조1
100
AcDbLine
 10
80.52598381534558
 20
7.440000000000007
 30
0.0
 11
80.52598381534558
 21
-7.439999999999998
 31
0.0
  0
LINE
  5
13D
330
1F
100
AcDbEntity
  8
참조1
100
AcDbLine
 10
93.22598381534559
 20
5.440000000000007
 30
0.0
 11
80.52598381534558
 21
5.440000000000007
 31
0.0
  0
SOLID
  5
13E
330
1F
100
AcDbEntity
  8
참조1
100
AcDbTrace
 10
80.52598381534558
 20
5.440000000000007
 30
0.0
 11
86.87598381534558
 21
4.424000000000007
 31
0.0
 12
86.87598381534558
 22
6.456000000000007
 32
0.0
 13
86.87598381534558
 23
6.456000000000007
 33
0.0
  0
LINE
  5
13F
330
1F
100
AcDbEntity
  8
참조1
100
AcDbLine
 10
93.22598381534559
 20
-5.439999999999998
 30
0.0
 11
80.52598381534558
 21
-5.439999999999998
 31
0.0
  0
SOLID
  5
140
330
1F
100
AcDbEntity
  8
참조1
100
AcDbTrace
 10
80.52598381534558
 20
-5.439999999999998
 30
0.0
 11
86.87598381534558
 21
-6.455999999999998
 31
0.0
 12
86.87598381534558
 22
-4.423999999999998
 32
0.0
 13
86.87598381534558
 23
-4.423999999999998
 33
0.0
  0
MTEXT
  5
141
330
1F
100
AcDbEntity
  8
참조1
100
AcDbMText
 10
89.92347390781585
 20
10.98821664464994
 30
0.0
 40
3.5
 41
0.0
 71
     1
 72
     1
  1
A
  7
SLDTEXTSTYLE0
 73
     1
 44
1.0
  0
MTEXT
  5
142
330
1F
100
AcDbEntity
  8
참조1
100
AcDbMText
 10
89.92347390781585
 20
0.108216644649937
 30
0.0
 40
3.5
 41
0.0
 71
     1
 72
     1
  1
A
  7
SLDTEXTSTYLE0
 73
     1
 44
1.0
  0
INSERT
  5
149
330
1F
100
AcDbEntity
  8
해칭선
100
AcDbBlockReference
  2
SW_DOWELSYMBOL_0
 10
0.0
 20
0.0
 30
0.0
  0
MTEXT
  5
1BD
102
{ACAD_REACTORS
330
1BE
102
}
330
1F
100
AcDbEntity
  8
치수문자_일반주서
100
AcDbMText
 10
60.35918503614811
 20
-23.22164125853749
 30
0.0
 40
3.5
 41
0.0
 71
     7
 72
     1
  1
{R0.76[.030"]}
 73
     1
 44
1.0
1001
PE_URL
1000

1001
ACAD
1000
ACAD_MTEXT_DEFINED_HEIGHT_BEGIN
1070
    46
1040
3.5
1000
ACAD_MTEXT_DEFINED_HEIGHT_END
  0
LEADER
  5
1BE
102
{ACAD_XDICTIONARY
360
1BF
102
}
330
1F
100
AcDbEntity
  8
치수문자_일반주서
100
AcDbLeader
  3
ISO-25
 73
     0
 74
     0
 75
     1
 40
3.5
 41
30.91666666666667
 76
     3
 10
49.87022408761268
 20
-9.308326984996
 30
0.0
 10
55.53318503614811
 20
-21.47164125853749
 30
0.0
 10
58.83518503614811
 20
-21.47164125853749
 30
0.0
340
1BD
213
0.0
223
1.75
233
0.0
1001
ACAD
1000
DSTYLE
1002
{
1070
    77
1070
     0
1070
   179
1070
     2
1070
   143
1040
0.0393700787401575
1070
    41
1040
3.302
1070
    44
1040
1.0
1070
    42
1040
1.0
1070
   147
1040
1.524
1070
    73
1070
     1
1070
    74
1070
     1
1070
   140
1040
3.5
1070
   284
1070
     0
1070
    78
1070
     0
1002
}
1001
PE_URL
1000

  0
ARC
  5
1C6
330
1F
100
AcDbEntity
  8
0
 62
     1
100
AcDbCircle
 10
49.33799999999999
 20
8.762999999999991
 30
0.0
 40
0.762
100
AcDbArc
 50
0.0
 51
99.6557974690418
  0
ARC
  5
1CF
330
1F
100
AcDbEntity
  8
0
 62
     1
100
AcDbCircle
 10
49.33799999999999
 20
-8.762999999999991
 30
0.0
 40
0.762
100
AcDbArc
 50
268.6066484650015
 51
0.0
  0
ENDSEC
  0
SECTION
  2
OBJECTS
  0
DICTIONARY
  5
C
330
0
100
AcDbDictionary
281
     1
  3
ACAD_DETAILVIEWSTYLE
350
1CC
  3
ACAD_GROUP
350
D
  3
ACAD_LAYOUT
350
1A
  3
ACAD_MLINESTYLE
350
17
  3
ACAD_PLOTSETTINGS
350
19
  3
ACAD_PLOTSTYLENAME
350
E
  3
ACAD_SCALELIST
350
47
  3
ACAD_SECTIONVIEWSTYLE
350
1CD
  3
AcDbVariableDictionary
350
1C7
  3
APPDATA
350
16B
  3
DWGPROPS
350
1D1
  0
DICTIONARY
  5
1BF
330
1BE
100
AcDbDictionary
280
     1
281
     1
  0
DICTIONARY
  5
1CC
102
{ACAD_REACTORS
330
C
102
}
330
C
100
AcDbDictionary
281
     1
  0
DICTIONARY
  5
D
102
{ACAD_REACTORS
330
C
102
}
330
C
100
AcDbDictionary
281
     1
  0
DICTIONARY
  5
1A
102
{ACAD_REACTORS
330
C
102
}
330
C
100
AcDbDictionary
281
     1
  3
Layout1
350
1E
  3
Layout2
350
26
  3
Model
350
22
  0
DICTIONARY
  5
17
102
{ACAD_REACTORS
330
C
102
}
330
C
100
AcDbDictionary
281
     1
  3
Standard
350
18
  0
DICTIONARY
  5
19
102
{ACAD_REACTORS
330
C
102
}
330
C
100
AcDbDictionary
281
     1
  0
ACDBDICTIONARYWDFLT
  5
E
102
{ACAD_REACTORS
330
C
102
}
330
C
100
AcDbDictionary
281
     1
  3
Normal
350
F
100
AcDbDictionaryWithDefault
340
F
  0
DICTIONARY
  5
47
102
{ACAD_REACTORS
330
C
102
}
330
C
100
AcDbDictionary
281
     1
  3
A0
350
48
  3
A1
350
49
  3
A2
350
4A
  3
A3
350
4B
  3
A4
350
4C
  3
A5
350
4D
  3
A6
350
4E
  3
A7
350
4F
  3
A8
350
50
  3
A9
350
51
  3
B0
350
52
  3
B1
350
53
  3
B2
350
54
  3
B3
350
55
  3
B4
350
56
  3
B5
350
57
  3
B6
350
58
  3
B7
350
59
  3
B8
350
5A
  3
B9
350
5B
  3
C0
350
5C
  3
C1
350
5D
  3
C2
350
5E
  3
C3
350
5F
  3
C4
350
60
  3
C5
350
61
  3
C6
350
62
  3
C7
350
63
  3
C8
350
64
  3
C9
350
65
  3
D0
350
66
  3
D1
350
67
  3
D2
350
68
  0
DICTIONARY
  5
1CD
102
{ACAD_REACTORS
330
C
102
}
330
C
100
AcDbDictionary
281
     1
  0
DICTIONARY
  5
1C7
102
{ACAD_REACTORS
330
C
102
}
330
C
100
AcDbDictionary
281
     1
  0
DICTIONARY
  5
16B
102
{ACAD_REACTORS
330
C
102
}
330
C
100
AcDbDictionary
281
     1
  0
XRECORD
  5
1D1
102
{ACAD_REACTORS
330
C
102
}
330
C
100
AcDbXrecord
280
     1
  1
DWGPROPS COOKIE
  2

  3

  4

  6

  7

  8
H
  9

300
=
301
=
302
=
303
=
304
=
305
=
306
=
307
=
308
=
309
=
 40
0.0
 41
2458295.135468761
 42
2458301.600703993
  1

 90
        0
  0
LAYOUT
  5
1E
102
{ACAD_REACTORS
330
1A
102
}
330
1A
100
AcDbPlotSettings
  1

  2
none_device
  4

  6

 40
0.0
 41
0.0
 42
0.0
 43
0.0
 44
0.0
 45
0.0
 46
0.0
 47
0.0
 48
0.0
 49
0.0
140
0.0
141
0.0
142
1.0
143
1.0
 70
   688
 72
     1
 73
     0
 74
     5
  7

 75
    16
147
1.0
148
0.0
149
0.0
100
AcDbLayout
  1
Layout1
 70
     1
 71
     1
 10
0.0
 20
0.0
 11
420.0
 21
297.0
 12
0.0
 22
0.0
 32
0.0
 14
1.000000000000000E+20
 24
1.000000000000000E+20
 34
1.000000000000000E+20
 15
-1.000000000000000E+20
 25
-1.000000000000000E+20
 35
-1.000000000000000E+20
146
0.0
 13
0.0
 23
0.0
 33
0.0
 16
1.0
 26
0.0
 36
0.0
 17
0.0
 27
1.0
 37
0.0
 76
     0
330
1B
  0
LAYOUT
  5
26
102
{ACAD_REACTORS
330
1A
102
}
330
1A
100
AcDbPlotSettings
  1

  2
none_device
  4

  6

 40
0.0
 41
0.0
 42
0.0
 43
0.0
 44
0.0
 45
0.0
 46
0.0
 47
0.0
 48
0.0
 49
0.0
140
0.0
141
0.0
142
1.0
143
1.0
 70
   688
 72
     1
 73
     0
 74
     5
  7

 75
    16
147
1.0
148
0.0
149
0.0
100
AcDbLayout
  1
Layout2
 70
     1
 71
     2
 10
0.0
 20
0.0
 11
0.0
 21
0.0
 12
0.0
 22
0.0
 32
0.0
 14
0.0
 24
0.0
 34
0.0
 15
0.0
 25
0.0
 35
0.0
146
0.0
 13
0.0
 23
0.0
 33
0.0
 16
1.0
 26
0.0
 36
0.0
 17
0.0
 27
1.0
 37
0.0
 76
     0
330
23
  0
LAYOUT
  5
22
102
{ACAD_REACTORS
330
1A
102
}
330
1A
100
AcDbPlotSettings
  1

  2
none_device
  4
ANSI_A_(11.00_x_8.50_Inches)
  6

 40
6.35
 41
19.05
 42
6.35000508
 43
19.05000254
 44
279.4
 45
215.9
 46
119.3621784951464
 47
77.70351354275472
 48
0.0
 49
0.0
140
0.0
141
0.0
142
0.0657236160498473
143
1.0
 70
  1696
 72
     0
 73
     0
 74
     0
  7

 75
     0
147
0.0235690232323232
148
0.0
149
0.0
100
AcDbLayout
  1
Model
 70
     1
 71
     0
 10
0.0
 20
0.0
 11
420.0
 21
297.0
 12
0.0
 22
0.0
 32
0.0
 14
-66.05000000000008
 24
-49.97180738881174
 34
0.0
 15
93.22598381534559
 25
57.7096871005775
 35
0.0
146
0.0
 13
0.0
 23
0.0
 33
0.0
 16
1.0
 26
0.0
 36
0.0
 17
0.0
 27
1.0
 37
0.0
 76
     0
330
1F
331
29
  0
MLINESTYLE
  5
18
102
{ACAD_REACTORS
330
17
102
}
330
17
100
AcDbMlineStyle
  2
Standard
 70
     0
  3

 62
   256
 51
90.0
 52
90.0
 71
     2
 49
0.5
 62
   256
  6
BYLAYER
 49
-0.5
 62
   256
  6
BYLAYER
  0
ACDBPLACEHOLDER
  5
F
102
{ACAD_REACTORS
330
E
102
}
330
E
  0
SCALE
  5
48
102
{ACAD_REACTORS
330
47
102
}
330
47
100
AcDbScale
 70
     0
300
1:1
140
1.0
141
1.0
290
     1
  0
SCALE
  5
49
102
{ACAD_REACTORS
330
47
102
}
330
47
100
AcDbScale
 70
     0
300
1:2
140
1.0
141
2.0
290
     0
  0
SCALE
  5
4A
102
{ACAD_REACTORS
330
47
102
}
330
47
100
AcDbScale
 70
     0
300
1:4
140
1.0
141
4.0
290
     0
  0
SCALE
  5
4B
102
{ACAD_REACTORS
330
47
102
}
330
47
100
AcDbScale
 70
     0
300
1:5
140
1.0
141
5.0
290
     0
  0
SCALE
  5
4C
102
{ACAD_REACTORS
330
47
102
}
330
47
100
AcDbScale
 70
     0
300
1:8
140
1.0
141
8.0
290
     0
  0
SCALE
  5
4D
102
{ACAD_REACTORS
330
47
102
}
330
47
100
AcDbScale
 70
     0
300
1:10
140
1.0
141
10.0
290
     0
  0
SCALE
  5
4E
102
{ACAD_REACTORS
330
47
102
}
330
47
100
AcDbScale
 70
     0
300
1:16
140
1.0
141
16.0
290
     0
  0
SCALE
  5
4F
102
{ACAD_REACTORS
330
47
102
}
330
47
100
AcDbScale
 70
     0
300
1:20
140
1.0
141
20.0
290
     0
  0
SCALE
  5
50
102
{ACAD_REACTORS
330
47
102
}
330
47
100
AcDbScale
 70
     0
300
1:30
140
1.0
141
30.0
290
     0
  0
SCALE
  5
51
102
{ACAD_REACTORS
330
47
102
}
330
47
100
AcDbScale
 70
     0
300
1:40
140
1.0
141
40.0
290
     0
  0
SCALE
  5
52
102
{ACAD_REACTORS
330
47
102
}
330
47
100
AcDbScale
 70
     0
300
1:50
140
1.0
141
50.0
290
     0
  0
SCALE
  5
53
102
{ACAD_REACTORS
330
47
102
}
330
47
100
AcDbScale
 70
     0
300
1:100
140
1.0
141
100.0
290
     0
  0
SCALE
  5
54
102
{ACAD_REACTORS
330
47
102
}
330
47
100
AcDbScale
 70
     0
300
2:1
140
2.0
141
1.0
290
     0
  0
SCALE
  5
55
102
{ACAD_REACTORS
330
47
102
}
330
47
100
AcDbScale
 70
     0
300
4:1
140
4.0
141
1.0
290
     0
  0
SCALE
  5
56
102
{ACAD_REACTORS
330
47
102
}
330
47
100
AcDbScale
 70
     0
300
8:1
140
8.0
141
1.0
290
     0
  0
SCALE
  5
57
102
{ACAD_REACTORS
330
47
102
}
330
47
100
AcDbScale
 70
     0
300
10:1
140
10.0
141
1.0
290
     0
  0
SCALE
  5
58
102
{ACAD_REACTORS
330
47
102
}
330
47
100
AcDbScale
 70
     0
300
100:1
140
100.0
141
1.0
290
     0
  0
SCALE
  5
59
102
{ACAD_REACTORS
330
47
102
}
330
47
100
AcDbScale
 70
     0
300
1/128" = 1'-0"
140
0.0078125
141
12.0
290
     0
  0
SCALE
  5
5A
102
{ACAD_REACTORS
330
47
102
}
330
47
100
AcDbScale
 70
     0
300
1/64" = 1'-0"
140
0.015625
141
12.0
290
     0
  0
SCALE
  5
5B
102
{ACAD_REACTORS
330
47
102
}
330
47
100
AcDbScale
 70
     0
300
1/32" = 1'-0"
140
0.03125
141
12.0
290
     0
  0
SCALE
  5
5C
102
{ACAD_REACTORS
330
47
102
}
330
47
100
AcDbScale
 70
     0
300
1/16" = 1'-0"
140
0.0625
141
12.0
290
     0
  0
SCALE
  5
5D
102
{ACAD_REACTORS
330
47
102
}
330
47
100
AcDbScale
 70
     0
300
3/32" = 1'-0"
140
0.09375
141
12.0
290
     0
  0
SCALE
  5
5E
102
{ACAD_REACTORS
330
47
102
}
330
47
100
AcDbScale
 70
     0
300
1/8" = 1'-0"
140
0.125
141
12.0
290
     0
  0
SCALE
  5
5F
102
{ACAD_REACTORS
330
47
102
}
330
47
100
AcDbScale
 70
     0
300
3/16" = 1'-0"
140
0.1875
141
12.0
290
     0
  0
SCALE
  5
60
102
{ACAD_REACTORS
330
47
102
}
330
47
100
AcDbScale
 70
     0
300
1/4" = 1'-0"
140
0.25
141
12.0
290
     0
  0
SCALE
  5
61
102
{ACAD_REACTORS
330
47
102
}
330
47
100
AcDbScale
 70
     0
300
3/8" = 1'-0"
140
0.375
141
12.0
290
     0
  0
SCALE
  5
62
102
{ACAD_REACTORS
330
47
102
}
330
47
100
AcDbScale
 70
     0
300
1/2" = 1'-0"
140
0.5
141
12.0
290
     0
  0
SCALE
  5
63
102
{ACAD_REACTORS
330
47
102
}
330
47
100
AcDbScale
 70
     0
300
3/4" = 1'-0"
140
0.75
141
12.0
290
     0
  0
SCALE
  5
64
102
{ACAD_REACTORS
330
47
102
}
330
47
100
AcDbScale
 70
     0
300
1" = 1'-0"
140
1.0
141
12.0
290
     0
  0
SCALE
  5
65
102
{ACAD_REACTORS
330
47
102
}
330
47
100
AcDbScale
 70
     0
300
1-1/2" = 1'-0"
140
1.5
141
12.0
290
     0
  0
SCALE
  5
66
102
{ACAD_REACTORS
330
47
102
}
330
47
100
AcDbScale
 70
     0
300
3" = 1'-0"
140
3.0
141
12.0
290
     0
  0
SCALE
  5
67
102
{ACAD_REACTORS
330
47
102
}
330
47
100
AcDbScale
 70
     0
300
6" = 1'-0"
140
6.0
141
12.0
290
     0
  0
SCALE
  5
68
102
{ACAD_REACTORS
330
47
102
}
330
47
100
AcDbScale
 70
     0
300
1'-0" = 1'-0"
140
12.0
141
12.0
290
     0
  0
ENDSEC
  0
EOF
