  0
SECTION
  2
HEADER
  9
$ACADVER
  1
AC1015
  9
$ACADMAINTVER
 70
     6
  9
$DWGCODEPAGE
  3
ANSI_949
  9
$INSBASE
 10
0.0
 20
0.0
 30
0.0
  9
$EXTMIN
 10
-55.85750000000007
 20
-50.03149670394835
 30
0.0
  9
$EXTMAX
 10
85.28848381534557
 20
37.55681068486358
 30
0.0
  9
$LIMMIN
 10
0.0
 20
0.0
  9
$LIMMAX
 10
420.0
 20
297.0
  9
$ORTHOMODE
 70
     1
  9
$REGENMODE
 70
     1
  9
$FILLMODE
 70
     1
  9
$QTEXTMODE
 70
     0
  9
$MIRRTEXT
 70
     1
  9
$LTSCALE
 40
1.0
  9
$ATTMODE
 70
     1
  9
$TEXTSIZE
 40
3.5
  9
$TRACEWID
 40
1.0
  9
$TEXTSTYLE
  7
Standard
  9
$CLAYER
  8
0
  9
$CELTYPE
  6
ByLayer
  9
$CECOLOR
 62
   256
  9
$CELTSCALE
 40
1.0
  9
$DISPSILH
 70
     0
  9
$DIMSCALE
 40
1.0
  9
$DIMASZ
 40
3.302
  9
$DIMEXO
 40
1.0
  9
$DIMDLI
 40
3.75
  9
$DIMRND
 40
0.0
  9
$DIMDLE
 40
0.0
  9
$DIMEXE
 40
1.0
  9
$DIMTP
 40
0.0
  9
$DIMTM
 40
0.0
  9
$DIMTXT
 40
3.5
  9
$DIMCEN
 40
2.5
  9
$DIMTSZ
 40
0.0
  9
$DIMTOL
 70
     0
  9
$DIMLIM
 70
     0
  9
$DIMTIH
 70
     1
  9
$DIMTOH
 70
     1
  9
$DIMSE1
 70
     0
  9
$DIMSE2
 70
     0
  9
$DIMTAD
 70
     1
  9
$DIMZIN
 70
     0
  9
$DIMBLK
  1

  9
$DIMASO
 70
     1
  9
$DIMSHO
 70
     1
  9
$DIMPOST
  1

  9
$DIMAPOST
  1

  9
$DIMALT
 70
     0
  9
$DIMALTD
 70
     3
  9
$DIMALTF
 40
0.0393700787401575
  9
$DIMLFAC
 40
1.0
  9
$DIMTOFL
 70
     1
  9
$DIMTVP
 40
0.0
  9
$DIMTIX
 70
     0
  9
$DIMSOXD
 70
     0
  9
$DIMSAH
 70
     0
  9
$DIMBLK1
  1

  9
$DIMBLK2
  1

  9
$DIMSTYLE
  2
ISO-25
  9
$DIMCLRD
 70
     0
  9
$DIMCLRE
 70
     0
  9
$DIMCLRT
 70
     0
  9
$DIMTFAC
 40
1.0
  9
$DIMGAP
 40
1.524
  9
$DIMJUST
 70
     0
  9
$DIMSD1
 70
     0
  9
$DIMSD2
 70
     0
  9
$DIMTOLJ
 70
     0
  9
$DIMTZIN
 70
     0
  9
$DIMALTZ
 70
     0
  9
$DIMALTTZ
 70
     0
  9
$DIMUPT
 70
     0
  9
$DIMDEC
 70
     2
  9
$DIMTDEC
 70
     2
  9
$DIMALTU
 70
     2
  9
$DIMALTTD
 70
     3
  9
$DIMTXSTY
  7
Standard
  9
$DIMAUNIT
 70
     0
  9
$DIMADEC
 70
     2
  9
$DIMALTRND
 40
0.0
  9
$DIMAZIN
 70
     0
  9
$DIMDSEP
 70
    44
  9
$DIMATFIT
 70
     3
  9
$DIMFRAC
 70
     0
  9
$DIMLDRBLK
  1

  9
$DIMLUNIT
 70
     2
  9
$DIMLWD
 70
    -2
  9
$DIMLWE
 70
    -2
  9
$DIMTMOVE
 70
     0
  9
$LUNITS
 70
     2
  9
$LUPREC
 70
     2
  9
$SKETCHINC
 40
1.0
  9
$FILLETRAD
 40
10.0
  9
$AUNITS
 70
     0
  9
$AUPREC
 70
     2
  9
$MENU
  1
.
  9
$ELEVATION
 40
0.0
  9
$PELEVATION
 40
0.0
  9
$THICKNESS
 40
0.0
  9
$LIMCHECK
 70
     0
  9
$CHAMFERA
 40
0.0
  9
$CHAMFERB
 40
0.0
  9
$CHAMFERC
 40
0.0
  9
$CHAMFERD
 40
0.0
  9
$SKPOLY
 70
     0
  9
$TDCREATE
 40
2458295.489997454
  9
$TDUCREATE
 40
2458295.114997454
  9
$TDUPDATE
 40
2458302.739456169
  9
$TDUUPDATE
 40
2458302.364456169
  9
$TDINDWG
 40
0.0054264352
  9
$TDUSRTIMER
 40
2458302.36431544
  9
$USRTIMER
 70
     1
  9
$ANGBASE
 50
0.0
  9
$ANGDIR
 70
     0
  9
$PDMODE
 70
     0
  9
$PDSIZE
 40
-1.0
  9
$PLINEWID
 40
0.0
  9
$SPLFRAME
 70
     0
  9
$SPLINETYPE
 70
     6
  9
$SPLINESEGS
 70
     8
  9
$HANDSEED
  5
1ED
  9
$SURFTAB1
 70
     6
  9
$SURFTAB2
 70
     6
  9
$SURFTYPE
 70
     6
  9
$SURFU
 70
     6
  9
$SURFV
 70
     6
  9
$UCSBASE
  2

  9
$UCSNAME
  2

  9
$UCSORG
 10
0.0
 20
0.0
 30
0.0
  9
$UCSXDIR
 10
1.0
 20
0.0
 30
0.0
  9
$UCSYDIR
 10
0.0
 20
1.0
 30
0.0
  9
$UCSORTHOREF
  2

  9
$UCSORTHOVIEW
 70
     0
  9
$UCSORGTOP
 10
0.0
 20
0.0
 30
0.0
  9
$UCSORGBOTTOM
 10
0.0
 20
0.0
 30
0.0
  9
$UCSORGLEFT
 10
0.0
 20
0.0
 30
0.0
  9
$UCSORGRIGHT
 10
0.0
 20
0.0
 30
0.0
  9
$UCSORGFRONT
 10
0.0
 20
0.0
 30
0.0
  9
$UCSORGBACK
 10
0.0
 20
0.0
 30
0.0
  9
$PUCSBASE
  2

  9
$PUCSNAME
  2

  9
$PUCSORG
 10
0.0
 20
0.0
 30
0.0
  9
$PUCSXDIR
 10
1.0
 20
0.0
 30
0.0
  9
$PUCSYDIR
 10
0.0
 20
1.0
 30
0.0
  9
$PUCSORTHOREF
  2

  9
$PUCSORTHOVIEW
 70
     0
  9
$PUCSORGTOP
 10
0.0
 20
0.0
 30
0.0
  9
$PUCSORGBOTTOM
 10
0.0
 20
0.0
 30
0.0
  9
$PUCSORGLEFT
 10
0.0
 20
0.0
 30
0.0
  9
$PUCSORGRIGHT
 10
0.0
 20
0.0
 30
0.0
  9
$PUCSORGFRONT
 10
0.0
 20
0.0
 30
0.0
  9
$PUCSORGBACK
 10
0.0
 20
0.0
 30
0.0
  9
$USERI1
 70
     0
  9
$USERI2
 70
     0
  9
$USERI3
 70
     0
  9
$USERI4
 70
     0
  9
$USERI5
 70
     0
  9
$USERR1
 40
0.0
  9
$USERR2
 40
0.0
  9
$USERR3
 40
0.0
  9
$USERR4
 40
0.0
  9
$USERR5
 40
0.0
  9
$WORLDVIEW
 70
     1
  9
$SHADEDGE
 70
     3
  9
$SHADEDIF
 70
    70
  9
$TILEMODE
 70
     1
  9
$MAXACTVP
 70
    64
  9
$PINSBASE
 10
0.0
 20
0.0
 30
0.0
  9
$PLIMCHECK
 70
     0
  9
$PEXTMIN
 10
1.000000000000000E+20
 20
1.000000000000000E+20
 30
1.000000000000000E+20
  9
$PEXTMAX
 10
-1.000000000000000E+20
 20
-1.000000000000000E+20
 30
-1.000000000000000E+20
  9
$PLIMMIN
 10
0.0
 20
0.0
  9
$PLIMMAX
 10
0.0
 20
0.0
  9
$UNITMODE
 70
     0
  9
$VISRETAIN
 70
     1
  9
$PLINEGEN
 70
     0
  9
$PSLTSCALE
 70
     1
  9
$TREEDEPTH
 70
  3020
  9
$CMLSTYLE
  2
Standard
  9
$CMLJUST
 70
     0
  9
$CMLSCALE
 40
20.0
  9
$PROXYGRAPHICS
 70
     1
  9
$MEASUREMENT
 70
     1
  9
$CELWEIGHT
370
    -1
  9
$ENDCAPS
280
     0
  9
$JOINSTYLE
280
     0
  9
$LWDISPLAY
290
     1
  9
$INSUNITS
 70
     4
  9
$HYPERLINKBASE
  1

  9
$STYLESHEET
  1

  9
$XEDIT
290
     1
  9
$CEPSNTYPE
380
     0
  9
$PSTYLEMODE
290
     1
  9
$FINGERPRINTGUID
  2
{FE60F84F-59D9-4068-89BD-3A5992DE48A6}
  9
$VERSIONGUID
  2
{FAEB1C32-E019-11D5-929B-00C0DF256EC4}
  9
$EXTNAMES
290
     1
  9
$PSVPSCALE
 40
0.0
  9
$OLESTARTUP
290
     0
  0
ENDSEC
  0
SECTION
  2
CLASSES
  0
CLASS
  1
ACDBDICTIONARYWDFLT
  2
AcDbDictionaryWithDefault
  3
ObjectDBX Classes
 90
        0
280
     0
281
     0
  0
CLASS
  1
VISUALSTYLE
  2
AcDbVisualStyle
  3
ObjectDBX Classes
 90
     4095
280
     0
281
     0
  0
CLASS
  1
MATERIAL
  2
AcDbMaterial
  3
ObjectDBX Classes
 90
     1153
280
     0
281
     0
  0
CLASS
  1
SCALE
  2
AcDbScale
  3
ObjectDBX Classes
 90
     1153
280
     0
281
     0
  0
CLASS
  1
SUN
  2
AcDbSun
  3
SCENEOE
 90
     1153
280
     0
281
     0
  0
CLASS
  1
ACDBPLACEHOLDER
  2
AcDbPlaceHolder
  3
ObjectDBX Classes
 90
        0
280
     0
281
     0
  0
CLASS
  1
LAYOUT
  2
AcDbLayout
  3
ObjectDBX Classes
 90
        0
280
     0
281
     0
  0
CLASS
  1
TABLESTYLE
  2
AcDbTableStyle
  3
ObjectDBX Classes
 90
     4095
280
     0
281
     0
  0
CLASS
  1
MLEADERSTYLE
  2
AcDbMLeaderStyle
  3
ACDB_MLEADERSTYLE_CLASS
 90
     4095
280
     0
281
     0
  0
CLASS
  1
DICTIONARYVAR
  2
AcDbDictionaryVar
  3
ObjectDBX Classes
 90
        0
280
     0
281
     0
  0
CLASS
  1
RASTERVARIABLES
  2
AcDbRasterVariables
  3
ISM
 90
        0
280
     0
281
     0
  0
ENDSEC
  0
SECTION
  2
TABLES
  0
TABLE
  2
VPORT
  5
8
330
0
100
AcDbSymbolTable
 70
     1
  0
VPORT
  5
29
330
8
100
AcDbSymbolTableRecord
100
AcDbViewportTableRecord
  2
*Active
 70
     0
 10
0.0
 20
0.0
 11
1.0
 21
1.0
 12
14.71549190767274
 22
-6.237343009542386
 13
0.0
 23
0.0
 14
10.0
 24
10.0
 15
10.0
 25
10.0
 16
0.0
 26
0.0
 36
1.0
 17
0.0
 27
0.0
 37
0.0
 40
89.34007353658816
 41
2.400311526479751
 42
50.0
 43
0.0
 44
0.0
 50
0.0
 51
0.0
 71
    16
 72
  2000
 73
     1
 74
     3
 75
     0
 76
     0
 77
     0
 78
     0
281
     0
 65
     1
110
0.0
120
0.0
130
0.0
111
1.0
121
0.0
131
0.0
112
0.0
122
1.0
132
0.0
 79
     0
146
0.0
  0
ENDTAB
  0
TABLE
  2
LTYPE
  5
5
330
0
100
AcDbSymbolTable
 70
     6
  0
LTYPE
  5
14
330
5
100
AcDbSymbolTableRecord
100
AcDbLinetypeTableRecord
  2
ByBlock
 70
     0
  3

 72
    65
 73
     0
 40
0.0
  0
LTYPE
  5
15
330
5
100
AcDbSymbolTableRecord
100
AcDbLinetypeTableRecord
  2
ByLayer
 70
     0
  3

 72
    65
 73
     0
 40
0.0
  0
LTYPE
  5
16
330
5
100
AcDbSymbolTableRecord
100
AcDbLinetypeTableRecord
  2
Continuous
 70
     0
  3
Solid line
 72
    65
 73
     0
 40
0.0
  0
LTYPE
  5
6A
330
5
100
AcDbSymbolTableRecord
100
AcDbLinetypeTableRecord
  2
HIDDEN
 70
     0
  3
Hidden __ __ __ __ __ __ __ __ __ __ __ __ __ __
 72
    65
 73
     2
 40
1.905
 49
1.27
 74
     0
 49
-0.635
 74
     0
  0
LTYPE
  5
6B
330
5
100
AcDbSymbolTableRecord
100
AcDbLinetypeTableRecord
  2
PHANTOM
 70
     0
  3
Phantom ______  __  __  ______  __  __  ______
 72
    65
 73
     6
 40
12.7
 49
6.35
 74
     0
 49
-1.27
 74
     0
 49
1.27
 74
     0
 49
-1.27
 74
     0
 49
1.27
 74
     0
 49
-1.27
 74
     0
  0
LTYPE
  5
6C
330
5
100
AcDbSymbolTableRecord
100
AcDbLinetypeTableRecord
  2
CENTER
 70
     0
  3
Center ____ _ ____ _ ____ _ ____ _ ____ _ ____
 72
    65
 73
     4
 40
10.16
 49
6.35
 74
     0
 49
-1.27
 74
     0
 49
1.27
 74
     0
 49
-1.27
 74
     0
  0
LTYPE
  5
6D
330
5
100
AcDbSymbolTableRecord
100
AcDbLinetypeTableRecord
  2
CENTERX2
 70
     0
  3
Center (2x) ________  __  ________  __  _____
 72
    65
 73
     4
 40
20.32
 49
12.7
 74
     0
 49
-2.54
 74
     0
 49
2.54
 74
     0
 49
-2.54
 74
     0
  0
LTYPE
  5
6E
330
5
100
AcDbSymbolTableRecord
100
AcDbLinetypeTableRecord
  2
DOT2
 70
     0
  3
Dot (.5x) ........................................
 72
    65
 73
     2
 40
0.635
 49
0.0
 74
     0
 49
-0.635
 74
     0
  0
ENDTAB
  0
TABLE
  2
LAYER
  5
2
330
0
100
AcDbSymbolTable
 70
    18
  0
LAYER
  5
10
330
2
100
AcDbSymbolTableRecord
100
AcDbLayerTableRecord
  2
0
 70
     0
 62
     7
  6
Continuous
370
    -3
390
F
  0
LAYER
  5
6F
330
2
100
AcDbSymbolTableRecord
100
AcDbLayerTableRecord
  2
FORMAT
 70
     0
 62
     2
  6
Continuous
370
    -3
390
F
  0
LAYER
  5
70
330
2
100
AcDbSymbolTableRecord
100
AcDbLayerTableRecord
  2
외형선
 70
     0
 62
     4
  6
Continuous
370
    30
390
F
  0
LAYER
  5
71
330
2
100
AcDbSymbolTableRecord
100
AcDbLayerTableRecord
  2
숨은선
 70
     0
 62
     2
  6
HIDDEN
370
    15
390
F
  0
LAYER
  5
72
330
2
100
AcDbSymbolTableRecord
100
AcDbLayerTableRecord
  2
중심선
 70
     0
 62
     1
  6
CENTERX2
370
    -3
390
F
  0
LAYER
  5
73
330
2
100
AcDbSymbolTableRecord
100
AcDbLayerTableRecord
  2
파단선
 70
     0
 62
     4
  6
Continuous
370
    -3
390
F
  0
LAYER
  5
74
330
2
100
AcDbSymbolTableRecord
100
AcDbLayerTableRecord
  2
해칭선
 70
     0
 62
   100
  6
Continuous
370
    -3
390
F
  0
LAYER
  5
75
330
2
100
AcDbSymbolTableRecord
100
AcDbLayerTableRecord
  2
가는실선
 70
     0
 62
     4
  6
Continuous
370
    -3
390
F
  0
LAYER
  5
76
330
2
100
AcDbSymbolTableRecord
100
AcDbLayerTableRecord
  2
치수_보조선
 70
     0
 62
     4
  6
Continuous
370
    -3
390
F
  0
LAYER
  5
77
330
2
100
AcDbSymbolTableRecord
100
AcDbLayerTableRecord
  2
치수문자_일반주서
 70
     0
 62
     7
  6
Continuous
370
    15
390
F
  0
LAYER
  5
78
330
2
100
AcDbSymbolTableRecord
100
AcDbLayerTableRecord
  2
개별주서
 70
     0
 62
   100
  6
Continuous
370
    30
390
F
  0
LAYER
  5
79
330
2
100
AcDbSymbolTableRecord
100
AcDbLayerTableRecord
  2
중간선
 70
     0
 62
     2
  6
Continuous
370
    15
390
F
  0
LAYER
  5
7A
330
2
100
AcDbSymbolTableRecord
100
AcDbLayerTableRecord
  2
윤곽선
 70
     0
 62
     3
  6
Continuous
370
    40
390
F
  0
LAYER
  5
7B
330
2
100
AcDbSymbolTableRecord
100
AcDbLayerTableRecord
  2
중심마크
 70
     0
 62
   100
  6
Continuous
370
    30
390
F
  0
LAYER
  5
7C
330
2
100
AcDbSymbolTableRecord
100
AcDbLayerTableRecord
  2
가상선
 70
     0
 62
     4
  6
PHANTOM
370
    -3
390
F
  0
LAYER
  5
7D
330
2
100
AcDbSymbolTableRecord
100
AcDbLayerTableRecord
  2
특수지정선
 70
     0
 62
     5
  6
CENTERX2
370
    60
390
F
  0
LAYER
  5
7E
330
2
100
AcDbSymbolTableRecord
100
AcDbLayerTableRecord
  2
참조1
 70
     0
 62
    -4
  6
Continuous
370
    -3
390
F
  0
LAYER
  5
160
330
2
100
AcDbSymbolTableRecord
100
AcDbLayerTableRecord
  2
Defpoints
 70
     0
 62
     7
  6
Continuous
290
     0
370
    -3
390
F
  0
ENDTAB
  0
TABLE
  2
STYLE
  5
3
330
0
100
AcDbSymbolTable
 70
     2
  0
STYLE
  5
11
330
3
100
AcDbSymbolTableRecord
100
AcDbTextStyleTableRecord
  2
Standard
 70
     0
 40
0.0
 41
1.0
 50
0.0
 71
     0
 42
3.5
  3
txt
  4

  0
STYLE
  5
94
330
3
100
AcDbSymbolTableRecord
100
AcDbTextStyleTableRecord
  2
SLDTEXTSTYLE0
 70
     0
 40
0.0
 41
0.75
 50
0.0
 71
     0
 42
3.5
  3
TXT
  4

  0
ENDTAB
  0
TABLE
  2
VIEW
  5
6
330
0
100
AcDbSymbolTable
 70
     0
  0
ENDTAB
  0
TABLE
  2
UCS
  5
7
330
0
100
AcDbSymbolTable
 70
     0
  0
ENDTAB
  0
TABLE
  2
APPID
  5
9
330
0
100
AcDbSymbolTable
 70
     5
  0
APPID
  5
12
330
9
100
AcDbSymbolTableRecord
100
AcDbRegAppTableRecord
  2
ACAD
 70
     0
  0
APPID
  5
168
330
9
100
AcDbSymbolTableRecord
100
AcDbRegAppTableRecord
  2
PE_URL
 70
     0
  0
APPID
  5
197
330
9
100
AcDbSymbolTableRecord
100
AcDbRegAppTableRecord
  2
ACAD_DSTYLE_DIMRADIAL_EXTENSION
 70
     0
  0
APPID
  5
1C7
330
9
100
AcDbSymbolTableRecord
100
AcDbRegAppTableRecord
  2
ACAD_DSTYLE_DIMFLIPARROW_SYMBOL
 70
     0
  0
APPID
  5
1C8
330
9
100
AcDbSymbolTableRecord
100
AcDbRegAppTableRecord
  2
ACAD_DSTYLE_DIMFLIPARROW_WHICH_SYMBOL
 70
     0
  0
ENDTAB
  0
TABLE
  2
DIMSTYLE
  5
A
330
0
100
AcDbSymbolTable
 70
     3
100
AcDbDimStyleTable
  0
DIMSTYLE
105
27
102
{ACAD_REACTORS
330
1C3
102
}
330
A
100
AcDbSymbolTableRecord
100
AcDbDimStyleTableRecord
  2
ISO-25
 70
     0
 41
2.5
 42
0.625
 43
3.75
 44
1.25
 73
     0
 74
     0
 77
     1
 78
     8
140
2.5
141
2.5
143
0.03937007874016
147
0.625
171
     3
172
     1
178
     0
271
     2
272
     2
274
     3
278
    44
283
     0
284
     8
340
11
  0
DIMSTYLE
105
E0
102
{ACAD_REACTORS
330
DF
330
109
330
F5
330
11D
102
}
330
A
100
AcDbSymbolTableRecord
100
AcDbDimStyleTableRecord
  2
SLDDIMSTYLE0
 70
     0
 41
3.302
 44
0.0
 45
0.000000001
 73
     0
 74
     0
 77
     1
 78
    12
 79
     3
140
3.5
143
0.0393700787401575
147
0.875
148
0.000000001
170
     1
172
     1
173
     1
178
     0
271
     2
272
     2
276
     2
284
    12
289
     0
340
94
  0
DIMSTYLE
105
F6
330
A
100
AcDbSymbolTableRecord
100
AcDbDimStyleTableRecord
  2
SLDDIMSTYLE1
 70
     0
 41
3.302
 44
0.0
 45
0.000000001
 73
     0
 74
     0
 77
     1
 78
    12
 79
     3
140
3.5
143
0.0393700787401575
147
0.875
148
0.000000001
170
     1
173
     1
178
     0
271
     2
272
     2
276
     2
284
    12
340
94
  0
ENDTAB
  0
TABLE
  2
BLOCK_RECORD
  5
1
330
0
100
AcDbSymbolTable
 70
     7
  0
BLOCK_RECORD
  5
1F
330
1
100
AcDbSymbolTableRecord
100
AcDbBlockTableRecord
  2
*Model_Space
340
22
  0
BLOCK_RECORD
  5
1B
330
1
100
AcDbSymbolTableRecord
100
AcDbBlockTableRecord
  2
*Paper_Space
340
1E
  0
BLOCK_RECORD
  5
23
330
1
100
AcDbSymbolTableRecord
100
AcDbBlockTableRecord
  2
*Paper_Space0
340
26
  0
BLOCK_RECORD
  5
7F
330
1
100
AcDbSymbolTableRecord
100
AcDbBlockTableRecord
  2
블럭10
340
0
102
{BLKREFS
331
D8
102
}
  0
BLOCK_RECORD
  5
E1
330
1
100
AcDbSymbolTableRecord
100
AcDbBlockTableRecord
  2
_D
340
0
  0
BLOCK_RECORD
  5
F7
330
1
100
AcDbSymbolTableRecord
100
AcDbBlockTableRecord
  2
_D_1
340
0
  0
BLOCK_RECORD
  5
10A
330
1
100
AcDbSymbolTableRecord
100
AcDbBlockTableRecord
  2
_D_2
340
0
  0
BLOCK_RECORD
  5
11E
330
1
100
AcDbSymbolTableRecord
100
AcDbBlockTableRecord
  2
_D_3
340
0
  0
BLOCK_RECORD
  5
137
330
1
100
AcDbSymbolTableRecord
100
AcDbBlockTableRecord
  2
SW_DOWELSYMBOL_0
340
0
102
{BLKREFS
331
13D
102
}
  0
ENDTAB
  0
ENDSEC
  0
SECTION
  2
BLOCKS
  0
BLOCK
  5
20
330
1F
100
AcDbEntity
  8
0
100
AcDbBlockBegin
  2
*Model_Space
 70
     0
 10
0.0
 20
0.0
 30
0.0
  3
*Model_Space
  1
*Model_Space
  0
ENDBLK
  5
21
330
1F
100
AcDbEntity
  8
0
100
AcDbBlockEnd
  0
BLOCK
  5
1C
330
1B
100
AcDbEntity
 67
     1
  8
0
100
AcDbBlockBegin
  2
*Paper_Space
 70
     0
 10
0.0
 20
0.0
 30
0.0
  3
*Paper_Space
  1
*Paper_Space
  0
ENDBLK
  5
1D
330
1B
100
AcDbEntity
 67
     1
  8
0
100
AcDbBlockEnd
  0
BLOCK
  5
24
330
23
100
AcDbEntity
  8
0
100
AcDbBlockBegin
  2
*Paper_Space0
 70
     0
 10
0.0
 20
0.0
 30
0.0
  3
*Paper_Space0
  1
*Paper_Space0
  0
ENDBLK
  5
25
330
23
100
AcDbEntity
  8
0
100
AcDbBlockEnd
  0
BLOCK
  5
80
330
7F
100
AcDbEntity
  8
0
100
AcDbBlockBegin
  2
블럭10
 70
     2
 10
0.0
 20
0.0
 30
0.0
  3
블럭10
  1
블럭10
  0
ELLIPSE
  5
82
330
7F
100
AcDbEntity
  8
중심선
100
AcDbEllipse
 10
20.54032771741204
 20
12.0471743016438
 30
0.0
 11
6.600054785286829
 21
-1.261213355974178E-13
 31
0.0
210
0.0
220
0.0
230
1.0
 40
0.636358354079598
 41
0.9219305317359503
 42
6.513795318482858
  0
ELLIPSE
  5
83
330
7F
100
AcDbEntity
  8
중심선
100
AcDbEllipse
 10
20.54032771746488
 20
12.04717430159265
 30
0.0
 11
3.960054785062283
 21
1.540847449632565E-10
 31
0.0
210
0.0
220
0.0
230
1.0
 40
0.3939339440162632
 41
1.131841032648279
 42
5.62031148352944
  0
LINE
  5
84
330
7F
100
AcDbEntity
  8
중심선
100
AcDbLine
 10
2.268634060543552
 20
16.24717430164393
 30
0.0
 11
5.714909304380834
 21
16.24717430164393
 31
0.0
  0
LINE
  5
85
330
7F
100
AcDbEntity
  8
중심선
100
AcDbLine
 10
5.245725140726316
 20
7.84717430164391
 30
0.0
 11
8.692000384563599
 21
7.84717430164391
 31
0.0
  0
LINE
  5
86
330
7F
100
AcDbEntity
  8
중심선
100
AcDbLine
 10
15.74043728645272
 20
16.24717430164393
 30
0.0
 11
8.692000384563599
 21
7.84717430164391
 31
0.0
  0
LINE
  5
87
330
7F
100
AcDbEntity
  8
중심선
100
AcDbLine
 10
0.1404042013395286
 20
13.71084872107135
 30
0.0
 11
3.58671253028996
 21
13.71088815037384
 31
0.0
  0
LINE
  5
88
330
7F
100
AcDbEntity
  8
중심선
100
AcDbLine
 10
2.750260043222114
 20
10.84717430164391
 30
0.0
 11
6.196535287059397
 21
10.84717430164391
 31
0.0
  0
LINE
  5
89
330
7F
100
AcDbEntity
  8
중심선
100
AcDbLine
 10
12.29416204261559
 20
16.24717430164393
 30
0.0
 11
5.245725140726316
 21
7.84717430164391
 31
0.0
  0
LINE
  5
8A
330
7F
100
AcDbEntity
  8
중심선
100
AcDbLine
 10
10.72767329541681
 20
16.24717430164393
 30
0.0
 11
6.196535287059397
 21
10.84717430164391
 31
0.0
  0
LINE
  5
8B
330
7F
100
AcDbEntity
  8
중심선
100
AcDbLine
 10
7.28139805157953
 20
16.24717430164393
 30
0.0
 11
2.750260043222114
 21
10.84717430164391
 31
0.0
  0
LINE
  5
8C
330
7F
100
AcDbEntity
  8
중심선
100
AcDbLine
 10
5.714909304380834
 20
16.24717430164393
 30
0.0
 11
3.58671253028996
 21
13.71088815037384
 31
0.0
  0
LINE
  5
8D
330
7F
100
AcDbEntity
  8
중심선
100
AcDbLine
 10
2.268634060543552
 20
16.24717430164393
 30
0.0
 11
0.1404042013395286
 21
13.71084872107135
 31
0.0
  0
LINE
  5
8E
330
7F
100
AcDbEntity
  8
중심선
100
AcDbLine
 10
7.28139805157953
 20
16.24717430164393
 30
0.0
 11
10.72767329541681
 21
16.24717430164393
 31
0.0
  0
LINE
  5
8F
330
7F
100
AcDbEntity
  8
중심선
100
AcDbLine
 10
12.29416204261559
 20
16.24717430164393
 30
0.0
 11
15.74043728645272
 21
16.24717430164393
 31
0.0
  0
LINE
  5
90
330
7F
100
AcDbEntity
  8
중심선
100
AcDbLine
 10
19.22036997980202
 20
11.08717430171403
 30
0.0
 11
23.66174974927406
 21
11.08717430171406
 31
0.0
  0
LINE
  5
91
330
7F
100
AcDbEntity
  8
중심선
100
AcDbLine
 10
19.22039502424796
 20
13.00717430171391
 30
0.0
 11
19.22036997980202
 21
11.08717430171403
 31
0.0
  0
LINE
  5
92
330
7F
100
AcDbEntity
  8
중심선
100
AcDbLine
 10
19.22039502424796
 20
13.00717430171391
 30
0.0
 11
26.96566020931264
 21
13.00717430171391
 31
0.0
  0
LINE
  5
93
330
7F
100
AcDbEntity
  8
중심선
100
AcDbLine
 10
22.22332737316547
 20
13.45928029700563
 30
0.0
 11
24.52862924686651
 21
15.39360700705356
 31
0.0
  0
ATTDEF
  5
95
330
7F
100
AcDbEntity
  8
FORMAT
 62
     2
100
AcDbText
 10
3.448148490846466
 20
2.075366912832191
 30
0.0
 40
4.233333333333333
  1
EM668901
 41
0.75
  7
SLDTEXTSTYLE0
 11
3.448148490846466
 21
-0.0412997538344756
 31
0.0
100
AcDbAttributeDefinition
  3

  2
AUTOATTR0
 70
     0
 74
     1
  0
ENDBLK
  5
81
330
7F
100
AcDbEntity
  8
0
100
AcDbBlockEnd
  0
BLOCK
  5
E2
330
E1
100
AcDbEntity
  8
0
100
AcDbBlockBegin
  2
_D
 70
     0
 10
0.0
 20
0.0
 30
0.0
  3
_D
  1
_D
  0
LINE
  5
E4
330
E1
100
AcDbEntity
  8
치수문자_일반주서
 62
     0
370
    -2
100
AcDbLine
 10
34.22499999999999
 20
4.76531068486343
 30
0.0
 11
34.22499999999999
 21
14.96336534858171
 31
0.0
  0
LINE
  5
E5
330
E1
100
AcDbEntity
  8
치수문자_일반주서
 62
     0
370
    -2
100
AcDbLine
 10
11.99999999999998
 20
4.51386044482486
 30
0.0
 11
11.99999999999998
 21
14.96336534858171
 31
0.0
  0
LINE
  5
E6
330
E1
100
AcDbEntity
  8
치수문자_일반주서
 62
     0
370
    -2
100
AcDbLine
 10
30.92299999999999
 20
14.96336534858171
 30
0.0
 11
15.30199999999998
 21
14.96336534858171
 31
0.0
  0
SOLID
  5
E7
330
E1
100
AcDbEntity
  8
치수문자_일반주서
 62
     0
100
AcDbTrace
 10
30.92299999999999
 20
14.41303201524838
 30
0.0
 11
30.92299999999999
 21
15.51369868191504
 31
0.0
 12
34.22499999999999
 22
14.96336534858171
 32
0.0
 13
34.22499999999999
 23
14.96336534858171
 33
0.0
  0
SOLID
  5
E8
330
E1
100
AcDbEntity
  8
치수문자_일반주서
 62
     0
100
AcDbTrace
 10
15.30199999999998
 20
15.51369868191504
 30
0.0
 11
15.30199999999998
 21
14.41303201524838
 31
0.0
 12
11.99999999999998
 22
14.96336534858171
 32
0.0
 13
11.99999999999998
 23
14.96336534858171
 33
0.0
  0
MTEXT
  5
E9
330
E1
100
AcDbEntity
  8
치수문자_일반주서
 62
     0
100
AcDbMText
 10
23.11249999999998
 20
19.33836534858171
 30
0.0
 40
3.5
 41
0.0
 71
     2
 72
     1
  1
\A1;22.23 [7/8]
  7
SLDTEXTSTYLE0
 73
     1
 44
1.0
  0
POINT
  5
EA
330
E1
100
AcDbEntity
  8
Defpoints
 62
     0
100
AcDbPoint
 10
34.22499999999999
 20
4.70281068486343
 30
0.0
  0
POINT
  5
EB
330
E1
100
AcDbEntity
  8
Defpoints
 62
     0
100
AcDbPoint
 10
11.99999999999998
 20
4.45136044482486
 30
0.0
  0
POINT
  5
EC
330
E1
100
AcDbEntity
  8
Defpoints
 62
     0
100
AcDbPoint
 10
11.99999999999998
 20
14.96336534858171
 30
0.0
  0
ENDBLK
  5
E3
330
E1
100
AcDbEntity
  8
0
100
AcDbBlockEnd
  0
BLOCK
  5
F8
330
F7
100
AcDbEntity
  8
0
100
AcDbBlockBegin
  2
_D_1
 70
     0
 10
0.0
 20
0.0
 30
0.0
  3
_D_1
  1
_D_1
  0
LINE
  5
FA
330
F7
100
AcDbEntity
  8
치수문자_일반주서
 62
     0
370
    -2
100
AcDbLine
 10
34.22499999999999
 20
3.974117239756199
 30
0.0
 11
34.22499999999998
 21
27.4592964499408
 31
0.0
  0
LINE
  5
FB
330
F7
100
AcDbEntity
  8
치수문자_일반주서
 62
     0
370
    -2
100
AcDbLine
 10
-38.80000000000003
 20
3.812810684863397
 30
0.0
 11
-38.80000000000003
 21
27.4592964499408
 31
0.0
  0
LINE
  5
FC
330
F7
100
AcDbEntity
  8
치수문자_일반주서
 62
     0
370
    -2
100
AcDbLine
 10
30.92299999999998
 20
27.4592964499408
 30
0.0
 11
-35.49800000000003
 21
27.4592964499408
 31
0.0
  0
SOLID
  5
FD
330
F7
100
AcDbEntity
  8
치수문자_일반주서
 62
     0
100
AcDbTrace
 10
30.92299999999998
 20
26.90896311660747
 30
0.0
 11
30.92299999999998
 21
28.00962978327414
 31
0.0
 12
34.22499999999998
 22
27.4592964499408
 32
0.0
 13
34.22499999999998
 23
27.4592964499408
 33
0.0
  0
SOLID
  5
FE
330
F7
100
AcDbEntity
  8
치수문자_일반주서
 62
     0
100
AcDbTrace
 10
-35.49800000000003
 20
28.00962978327414
 30
0.0
 11
-35.49800000000003
 21
26.90896311660747
 31
0.0
 12
-38.80000000000003
 22
27.4592964499408
 32
0.0
 13
-38.80000000000003
 23
27.4592964499408
 33
0.0
  0
MTEXT
  5
FF
330
F7
100
AcDbEntity
  8
치수문자_일반주서
 62
     0
100
AcDbMText
 10
-2.28750000000002
 20
31.8342964499408
 30
0.0
 40
3.5
 41
0.0
 71
     2
 72
     1
  1
\A1;73.03 [2 7/8]
  7
SLDTEXTSTYLE0
 73
     1
 44
1.0
  0
POINT
  5
100
330
F7
100
AcDbEntity
  8
Defpoints
 62
     0
100
AcDbPoint
 10
34.22499999999999
 20
3.911617239756199
 30
0.0
  0
POINT
  5
101
330
F7
100
AcDbEntity
  8
Defpoints
 62
     0
100
AcDbPoint
 10
-38.80000000000003
 20
3.750310684863397
 30
0.0
  0
POINT
  5
102
330
F7
100
AcDbEntity
  8
Defpoints
 62
     0
100
AcDbPoint
 10
-38.80000000000003
 20
27.4592964499408
 30
0.0
  0
ENDBLK
  5
F9
330
F7
100
AcDbEntity
  8
0
100
AcDbBlockEnd
  0
BLOCK
  5
10B
330
10A
100
AcDbEntity
  8
0
100
AcDbBlockBegin
  2
_D_2
 70
     0
 10
0.0
 20
0.0
 30
0.0
  3
_D_2
  1
_D_2
  0
LINE
  5
10D
330
10A
100
AcDbEntity
  8
치수문자_일반주서
 62
     0
370
    -2
100
AcDbLine
 10
-37.91000000000003
 20
4.702810684863397
 30
0.0
 11
-51.48250000000004
 21
4.702810684863345
 31
0.0
  0
LINE
  5
10E
330
10A
100
AcDbEntity
  8
치수문자_일반주서
 62
     0
370
    -2
100
AcDbLine
 10
-37.91000000000003
 20
-4.822189315136608
 30
0.0
 11
-51.48250000000001
 21
-4.82218931513666
 31
0.0
  0
LINE
  5
10F
330
10A
100
AcDbEntity
  8
치수문자_일반주서
 62
     0
370
    -2
100
AcDbLine
 10
-51.48250000000004
 20
4.702810684863345
 30
0.0
 11
-51.48250000000001
 21
-4.82218931513666
 31
0.0
  0
LINE
  5
110
330
10A
100
AcDbEntity
  8
치수문자_일반주서
 62
     0
370
    -2
100
AcDbLine
 10
-51.48250000000006
 20
8.004810684863346
 30
0.0
 11
-51.48250000000007
 21
11.30681068486335
 31
0.0
  0
LINE
  5
111
330
10A
100
AcDbEntity
  8
치수문자_일반주서
 62
     0
370
    -2
100
AcDbLine
 10
-51.48249999999999
 20
-8.12418931513666
 30
0.0
 11
-51.48249999999998
 21
-11.42618931513666
 31
0.0
  0
SOLID
  5
112
330
10A
100
AcDbEntity
  8
치수문자_일반주서
 62
     0
100
AcDbTrace
 10
-52.03283333333339
 20
8.004810684863344
 30
0.0
 11
-50.93216666666672
 21
8.004810684863347
 31
0.0
 12
-51.48250000000004
 22
4.702810684863345
 32
0.0
 13
-51.48250000000004
 23
4.702810684863345
 33
0.0
  0
SOLID
  5
113
330
10A
100
AcDbEntity
  8
치수문자_일반주서
 62
     0
100
AcDbTrace
 10
-50.93216666666666
 20
-8.124189315136658
 30
0.0
 11
-52.03283333333333
 21
-8.124189315136661
 31
0.0
 12
-51.48250000000001
 22
-4.82218931513666
 32
0.0
 13
-51.48250000000001
 23
-4.82218931513666
 33
0.0
  0
MTEXT
  5
114
330
10A
100
AcDbEntity
  8
치수문자_일반주서
 62
     0
100
AcDbMText
 10
-55.85750000000003
 20
-0.0596893151366214
 30
0.0
 40
3.5
 41
0.0
 71
     2
 72
     1
  1
\A1;%%c9.53 [3/8]
  7
SLDTEXTSTYLE0
 11
-3.729883127349606E-15
 21
1.0
 31
0.0
 73
     1
 44
1.0
  0
POINT
  5
115
330
10A
100
AcDbEntity
  8
Defpoints
 62
     0
100
AcDbPoint
 10
-37.84750000000003
 20
4.702810684863397
 30
0.0
  0
POINT
  5
18D
330
10A
100
AcDbEntity
  8
Defpoints
 62
     0
100
AcDbPoint
 10
-37.84750000000003
 20
-4.822189315136608
 30
0.0
  0
POINT
  5
18E
330
10A
100
AcDbEntity
  8
Defpoints
 62
     0
100
AcDbPoint
 10
-51.48250000000001
 20
-4.822189315136659
 30
0.0
  0
ENDBLK
  5
10C
330
10A
100
AcDbEntity
  8
0
100
AcDbBlockEnd
  0
BLOCK
  5
11F
330
11E
100
AcDbEntity
  8
0
100
AcDbBlockBegin
  2
_D_3
 70
     0
 10
0.0
 20
0.0
 30
0.0
  3
_D_3
  1
_D_3
  0
LINE
  5
121
330
11E
100
AcDbEntity
  8
치수문자_일반주서
 62
     0
370
    -2
100
AcDbLine
 10
34.28749999999999
 20
4.702810684863436
 30
0.0
 11
55.37697657067778
 21
4.702810684863515
 31
0.0
  0
LINE
  5
122
330
11E
100
AcDbEntity
  8
치수문자_일반주서
 62
     0
370
    -2
100
AcDbLine
 10
34.28749999999999
 20
-4.822189315136584
 30
0.0
 11
55.37697657067782
 21
-4.822189315136505
 31
0.0
  0
LINE
  5
123
330
11E
100
AcDbEntity
  8
치수문자_일반주서
 62
     0
370
    -2
100
AcDbLine
 10
55.37697657067778
 20
4.702810684863515
 30
0.0
 11
55.37697657067766
 21
37.55681068486358
 31
0.0
  0
LINE
  5
124
330
11E
100
AcDbEntity
  8
치수문자_일반주서
 62
     0
370
    -2
100
AcDbLine
 10
55.37697657067778
 20
4.702810684863515
 30
0.0
 11
55.37697657067782
 21
-4.822189315136505
 31
0.0
  0
LINE
  5
125
330
11E
100
AcDbEntity
  8
치수문자_일반주서
 62
     0
370
    -2
100
AcDbLine
 10
55.37697657067777
 20
8.004810684863514
 30
0.0
 11
55.37697657067775
 21
11.30681068486351
 31
0.0
  0
LINE
  5
126
330
11E
100
AcDbEntity
  8
치수문자_일반주서
 62
     0
370
    -2
100
AcDbLine
 10
55.37697657067783
 20
-8.124189315136505
 30
0.0
 11
55.37697657067785
 21
-11.4261893151365
 31
0.0
  0
SOLID
  5
127
330
11E
100
AcDbEntity
  8
치수문자_일반주서
 62
     0
100
AcDbTrace
 10
54.82664323734443
 20
8.004810684863513
 30
0.0
 11
55.9273099040111
 21
8.004810684863516
 31
0.0
 12
55.37697657067778
 22
4.702810684863515
 32
0.0
 13
55.37697657067778
 23
4.702810684863515
 33
0.0
  0
SOLID
  5
128
330
11E
100
AcDbEntity
  8
치수문자_일반주서
 62
     0
100
AcDbTrace
 10
55.92730990401117
 20
-8.124189315136503
 30
0.0
 11
54.8266432373445
 21
-8.124189315136507
 31
0.0
 12
55.37697657067782
 22
-4.822189315136505
 32
0.0
 13
55.37697657067782
 23
-4.822189315136505
 33
0.0
  0
MTEXT
  5
129
330
11E
100
AcDbEntity
  8
치수문자_일반주서
 62
     0
100
AcDbMText
 10
51.00197657067771
 20
24.43181068486356
 30
0.0
 40
3.5
 41
0.0
 71
     2
 72
     1
  1
\A1;%%c9.53 [3/8]
  7
SLDTEXTSTYLE0
 11
-3.729883127349599E-15
 21
1.0
 31
0.0
 73
     1
 44
1.0
  0
POINT
  5
12A
330
11E
100
AcDbEntity
  8
Defpoints
 62
     0
100
AcDbPoint
 10
34.22499999999999
 20
4.702810684863436
 30
0.0
  0
POINT
  5
169
330
11E
100
AcDbEntity
  8
Defpoints
 62
     0
100
AcDbPoint
 10
34.22499999999999
 20
-4.822189315136584
 30
0.0
  0
POINT
  5
16A
330
11E
100
AcDbEntity
  8
Defpoints
 62
     0
100
AcDbPoint
 10
55.37697657067782
 20
-4.822189315136505
 30
0.0
  0
ENDBLK
  5
120
330
11E
100
AcDbEntity
  8
0
100
AcDbBlockEnd
  0
BLOCK
  5
138
330
137
100
AcDbEntity
  8
0
100
AcDbBlockBegin
  2
SW_DOWELSYMBOL_0
 70
     0
 10
0.0
 20
0.0
 30
0.0
  3
SW_DOWELSYMBOL_0
  1
SW_DOWELSYMBOL_0
  0
CIRCLE
  5
13A
330
137
100
AcDbEntity
  8
해칭선
 62
     0
100
AcDbCircle
 10
0.0
 20
0.0
 30
0.0
 40
3.000000000000001
  0
HATCH
  5
13B
330
137
100
AcDbEntity
  8
0
  6
Continuous
 62
     0
370
     0
100
AcDbHatch
 10
0.0
 20
0.0
 30
0.0
210
0.0
220
0.0
230
1.0
  2
SOLID
 70
     1
 71
     0
 91
        1
 92
        0
 93
        3
 72
     2
 10
0.0
 20
0.0
 40
3.000000000000001
 50
0.0
 51
90.0
 73
     1
 72
     1
 10
0.0
 20
3.000000000000001
 11
0.0
 21
0.0
 72
     1
 10
0.0
 20
0.0
 11
3.000000000000001
 21
0.0
 97
        0
 75
     0
 76
     1
 98
        1
 10
0.0
 20
0.0
  0
HATCH
  5
13C
330
137
100
AcDbEntity
  8
0
  6
Continuous
 62
     0
370
     0
100
AcDbHatch
 10
0.0
 20
0.0
 30
0.0
210
0.0
220
0.0
230
1.0
  2
SOLID
 70
     1
 71
     0
 91
        1
 92
        0
 93
        3
 72
     2
 10
0.0
 20
0.0
 40
3.000000000000001
 50
180.0
 51
270.0000000000007
 73
     1
 72
     1
 10
0.0
 20
-3.000000000000001
 11
0.0
 21
0.0
 72
     1
 10
0.0
 20
0.0
 11
-3.000000000000001
 21
0.0
 97
        0
 75
     0
 76
     1
 98
        1
 10
0.0
 20
0.0
  0
ENDBLK
  5
139
330
137
100
AcDbEntity
  8
0
100
AcDbBlockEnd
  0
ENDSEC
  0
SECTION
  2
ENTITIES
  0
LINE
  5
96
330
1F
100
AcDbEntity
  8
외형선
  6
Continuous
 62
     1
370
    15
100
AcDbLine
 10
18.66489777222515
 20
0.8619521493286143
 30
0.0
 11
18.60979129185516
 21
0.8928074617455833
 31
0.0
  0
LINE
  5
97
330
1F
100
AcDbEntity
  8
외형선
  6
Continuous
 62
     1
370
    15
100
AcDbLine
 10
17.94514652935987
 20
4.702810684863398
 30
0.0
 11
15.95183648844732
 21
4.702810684863398
 31
0.0
  0
LINE
  5
98
330
1F
100
AcDbEntity
  8
외형선
  6
Continuous
 62
     1
370
    15
100
AcDbLine
 10
33.22862323153455
 20
-4.822189315136611
 30
0.0
 11
33.46299999999999
 21
-4.822189315136611
 31
0.0
  0
LINE
  5
99
330
1F
100
AcDbEntity
  8
외형선
  6
Continuous
 62
     1
370
    15
100
AcDbLine
 10
24.58997699880111
 20
-4.822189315136611
 30
0.0
 11
26.58354388714085
 21
-4.822189315136611
 31
0.0
  0
LINE
  5
9A
330
1F
100
AcDbEntity
  8
외형선
  6
Continuous
 62
     1
370
    15
100
AcDbLine
 10
26.58354388714086
 20
4.702810684863398
 30
0.0
 11
24.58997699880115
 21
4.702810684863398
 31
0.0
  0
LINE
  5
9B
330
1F
100
AcDbEntity
  8
외형선
  6
Continuous
 62
     1
370
    15
100
AcDbLine
 10
15.95183648844727
 20
-4.822189315136611
 30
0.0
 11
17.9451465293598
 21
-4.822189315136611
 31
0.0
  0
ARC
  5
9C
330
1F
100
AcDbEntity
  8
외형선
  6
Continuous
 62
     1
370
    15
100
AcDbCircle
 10
33.46299999999999
 20
-4.060189315136609
 30
0.0
 40
0.7620000000000058
100
AcDbArc
 50
270.0000000000005
 51
0.0
  0
ARC
  5
9D
330
1F
100
AcDbEntity
  8
외형선
  6
Continuous
 62
     1
370
    15
100
AcDbCircle
 10
33.46299999999999
 20
3.940810684863399
 30
0.0
 40
0.7620000000000058
100
AcDbArc
 50
0.0
 51
90.0
  0
LINE
  5
9E
330
1F
100
AcDbEntity
  8
외형선
  6
Continuous
 62
     1
370
    15
100
AcDbLine
 10
33.46299999999999
 20
4.702810684863398
 30
0.0
 11
33.22862323153453
 21
4.702810684863398
 31
0.0
  0
LINE
  5
9F
330
1F
100
AcDbEntity
  8
외형선
  6
Continuous
370
    15
100
AcDbLine
 10
-37.84750000000003
 20
-4.822189315136606
 30
0.0
 11
11.75013727030821
 21
-4.822189315136606
 31
0.0
  0
LINE
  5
A0
330
1F
100
AcDbEntity
  8
외형선
  6
Continuous
370
    15
100
AcDbLine
 10
11.75013727030821
 20
4.702810684863395
 30
0.0
 11
-37.84750000000003
 21
4.702810684863395
 31
0.0
  0
LINE
  5
A1
330
1F
100
AcDbEntity
  8
외형선
  6
Continuous
370
    15
100
AcDbLine
 10
-37.84750000000003
 20
4.702810684863395
 30
0.0
 11
-38.80000000000003
 21
3.750310684863397
 31
0.0
  0
LINE
  5
A2
330
1F
100
AcDbEntity
  8
외형선
  6
Continuous
370
    15
100
AcDbLine
 10
-38.80000000000003
 20
-3.869689315136609
 30
0.0
 11
-37.84750000000003
 21
-4.822189315136607
 31
0.0
  0
SPLINE
  5
A3
330
1F
100
AcDbEntity
  8
외형선
  6
Continuous
 62
     1
370
    15
100
AcDbSpline
210
0.0
220
0.0
230
1.0
 70
     8
 71
     3
 72
    19
 73
    15
 74
     0
 42
0.000000001
 43
0.00000001
 40
0.0
 40
0.0
 40
0.0
 40
0.0
 40
0.0839401861911319
 40
0.1678099450678898
 40
0.2516527040469404
 40
0.3355121169199236
 40
0.4194316977973456
 40
0.503393776641596
 40
0.587280677438962
 40
0.6711271210205778
 40
0.7589748908324673
 40
0.8468465690305715
 40
0.9347639363083329
 40
1.0
 40
1.0
 40
1.0
 40
1.0
 10
11.99999999999998
 20
0.8733843427327933
 30
0.0
 10
12.50116016544128
 20
0.5868381910400725
 30
0.0
 10
13.5030600140004
 20
0.0139863049901609
 30
0.0
 10
15.00517700252858
 20
-0.8564018358471839
 30
0.0
 10
16.50674557473341
 20
-1.698057904364542
 30
0.0
 10
18.00865700104642
 20
-2.486197187849613
 30
0.0
 10
19.51152356743047
 20
-3.193884007773961
 30
0.0
 10
21.0148300111376
 20
-3.797658572405861
 30
0.0
 10
22.51726501392178
 20
-4.278202358610118
 30
0.0
 10
24.0427431685234
 20
-4.624120384480229
 30
0.0
 10
25.59217547555671
 20
-4.817531333979534
 30
0.0
 10
27.16593966298438
 20
-4.835844791179585
 30
0.0
 10
28.60491866102435
 20
-4.712541069808514
 30
0.0
 10
29.51933309180369
 20
-4.510995476402733
 30
0.0
 10
29.90883006663028
 20
-4.425146657444059
 30
0.0
  0
SPLINE
  5
A4
330
1F
100
AcDbEntity
  8
외형선
  6
Continuous
370
    15
100
AcDbSpline
210
0.0
220
0.0
230
1.0
 70
    24
 71
     3
 72
    22
 73
    18
 74
     0
 42
0.000000001
 43
0.00000001
 40
0.0
 40
0.0
 40
0.0
 40
0.0
 40
0.0433544937722186
 40
0.1142104083711118
 40
0.1871211492934939
 40
0.2579770638923731
 40
0.3308878048147413
 40
0.4017437194136217
 40
0.4746544603359911
 40
0.5455103749349477
 40
0.6184211158572411
 40
0.6892770304560587
 40
0.7621877713783587
 40
0.8330436859773028
 40
0.9059544268997408
 40
0.9768103414984776
 40
1.0
 40
1.0
 40
1.0
 40
1.0
 10
12.00000000000003
 20
3.954565322735329
 30
0.0
 10
12.00000000000001
 20
3.906842139159673
 30
0.0
 10
11.99999999999997
 20
3.78112312341977
 30
0.0
 10
12.00000000000001
 20
3.546363532048646
 30
0.0
 10
11.99999999999999
 20
3.253192806369679
 30
0.0
 10
11.99999999999991
 20
2.938970539430799
 30
0.0
 10
12.00000000000002
 20
2.618979759418856
 30
0.0
 10
11.99999999999997
 20
2.296321131454851
 30
0.0
 10
12.00000000000004
 20
1.985989237370724
 30
0.0
 10
11.99999999999996
 20
1.69116158913379
 30
0.0
 10
12.00000000000002
 20
1.425518933746426
 30
0.0
 10
12.00000000000002
 20
1.19170268832131
 30
0.0
 10
11.99999999999999
 20
1.000895165035843
 30
0.0
 10
12.0
 20
0.8537329486350882
 30
0.0
 10
12.0
 20
0.761984142321117
 30
0.0
 10
12.0
 20
0.7204397278061303
 30
0.0
 10
12.0
 20
0.7282334813531909
 30
0.0
 10
12.0
 20
0.7301552569056529
 30
0.0
  0
SPLINE
  5
A5
330
1F
100
AcDbEntity
  8
외형선
  6
Continuous
 62
     1
370
    15
100
AcDbSpline
210
0.0
220
0.0
230
1.0
 70
     8
 71
     3
 72
    21
 73
    17
 74
     0
 42
0.000000001
 43
0.00000001
 40
0.0
 40
0.0
 40
0.0
 40
0.0
 40
0.0597068359442016
 40
0.1305091499839217
 40
0.2013375662977169
 40
0.2721018484137219
 40
0.3428351634466373
 40
0.4135743227636541
 40
0.4843560887053087
 40
0.5551922397757116
 40
0.6293440517602732
 40
0.7034643892652569
 40
0.7775716799753782
 40
0.8516844211164833
 40
0.9258210808512171
 40
1.0
 40
1.0
 40
1.0
 40
1.0
 10
33.22862323153453
 20
-4.811805651655729
 30
0.0
 10
32.80617503741821
 20
-4.805151350903499
 30
0.0
 10
31.88277399205233
 20
-4.790606163218078
 30
0.0
 10
30.45795607853501
 20
-4.578348818312793
 30
0.0
 10
28.95469308673618
 20
-4.221285794409589
 30
0.0
 10
27.45235125794779
 20
-3.722007475968534
 30
0.0
 10
25.95073467536137
 20
-3.102831170316487
 30
0.0
 10
24.44897644136822
 20
-2.382664018058127
 30
0.0
 10
22.94631951990135
 20
-1.585585792414264
 30
0.0
 10
21.41912458256409
 20
-0.7251046984228593
 30
0.0
 10
19.86864111889292
 20
0.1732350835452545
 30
0.0
 10
18.29510491120886
 20
1.076446653751334
 30
0.0
 10
16.72191231004463
 20
1.939145090362364
 30
0.0
 10
15.14857334687923
 20
2.726516625499561
 30
0.0
 10
13.57464487307306
 20
3.423326524483171
 30
0.0
 10
12.52498131756398
 20
3.777452089766649
 30
0.0
 10
12.00000000000002
 20
3.954565322735323
 30
0.0
  0
LINE
  5
A6
330
1F
100
AcDbEntity
  8
외형선
  6
Continuous
 62
     1
370
    15
100
AcDbLine
 10
34.22499999999999
 20
-4.030995870029409
 30
0.0
 11
34.22499999999999
 21
-2.46312647546873
 31
0.0
  0
SPLINE
  5
A7
330
1F
100
AcDbEntity
  8
외형선
  6
Continuous
 62
     1
370
    15
100
AcDbSpline
210
0.0
220
0.0
230
1.0
 70
     8
 71
     3
 72
    14
 73
    10
 74
     0
 42
0.000000001
 43
0.00000001
 40
0.0
 40
0.0
 40
0.0
 40
0.0
 40
0.25
 40
0.25
 40
0.5
 40
0.5
 40
0.75
 40
0.75
 40
1.0
 40
1.0
 40
1.0
 40
1.0
 10
33.46299999999999
 20
-4.71426073540575
 30
0.0
 10
33.55793564076717
 20
-4.725841393439262
 30
0.0
 10
33.64857799043543
 20
-4.720142938964263
 30
0.0
 10
33.82410746797353
 20
-4.673641779564153
 30
0.0
 10
33.90426482411249
 20
-4.634225502917913
 30
0.0
 10
34.05023592967638
 20
-4.515721573672215
 30
0.0
 10
34.11296252091519
 20
-4.437492733620191
 30
0.0
 10
34.20101363014476
 20
-4.249658867295824
 30
0.0
 10
34.22499999999999
 20
-4.140710268538311
 30
0.0
 10
34.22499999999999
 20
-4.030995870029409
 30
0.0
  0
SPLINE
  5
A8
330
1F
100
AcDbEntity
  8
외형선
  6
Continuous
 62
     1
370
    15
100
AcDbSpline
210
0.0
220
0.0
230
1.0
 70
     8
 71
     3
 72
    50
 73
    46
 74
     0
 42
0.000000001
 43
0.00000001
 40
0.0
 40
0.0
 40
0.0
 40
0.0
 40
0.0312499999999998
 40
0.0312499999999998
 40
0.0624999999999997
 40
0.0624999999999997
 40
0.1249999999999993
 40
0.1249999999999993
 40
0.1562499999999999
 40
0.1562499999999999
 40
0.1875000000000005
 40
0.1875000000000005
 40
0.2500000000000002
 40
0.2500000000000002
 40
0.3124999999999999
 40
0.3124999999999999
 40
0.3749999999999997
 40
0.3749999999999997
 40
0.4062499999999996
 40
0.4062499999999996
 40
0.4374999999999994
 40
0.4374999999999994
 40
0.4687499999999993
 40
0.4687499999999993
 40
0.4999999999999992
 40
0.4999999999999992
 40
0.5624999999999997
 40
0.5624999999999997
 40
0.6250000000000001
 40
0.6250000000000001
 40
0.6875000000000006
 40
0.6875000000000006
 40
0.7187500000000008
 40
0.7187500000000008
 40
0.7500000000000011
 40
0.7500000000000011
 40
0.8125000000000009
 40
0.8125000000000009
 40
0.8437500000000007
 40
0.8437500000000007
 40
0.8750000000000006
 40
0.8750000000000006
 40
0.9375000000000003
 40
0.9375000000000003
 40
1.0
 40
1.0
 40
1.0
 40
1.0
 10
33.46299999999999
 20
-4.714260735405746
 30
0.0
 10
33.23879220291061
 20
-4.6869109033979
 30
0.0
 10
33.01431411454385
 20
-4.654403265242807
 30
0.0
 10
32.56704179112837
 20
-4.5794205554927
 30
0.0
 10
32.3452457137647
 20
-4.537022877698661
 30
0.0
 10
31.67577812055693
 20
-4.394954929359598
 30
0.0
 10
31.22501077159554
 20
-4.280301267086522
 30
0.0
 10
30.55550440252541
 20
-4.081796634555314
 30
0.0
 10
30.33371960967753
 20
-4.011277567919496
 30
0.0
 10
29.88646697466163
 20
-3.861306063927521
 30
0.0
 10
29.66199227620092
 20
-3.781946370212113
 30
0.0
 10
28.98935952438677
 20
-3.531893142611293
 30
0.0
 10
28.54574258231792
 20
-3.34975560292166
 30
0.0
 10
27.64986461804458
 20
-2.956979353343673
 30
0.0
 10
27.20071279515819
 20
-2.746702651839382
 30
0.0
 10
26.31091636133291
 20
-2.305770724257358
 30
0.0
 10
25.86032969717819
 20
-2.073464882531719
 30
0.0
 10
25.18922757591394
 20
-1.714034140031201
 30
0.0
 10
24.96734089602286
 20
-1.592597047737199
 30
0.0
 10
24.52120773363131
 20
-1.346195264745074
 30
0.0
 10
24.29698461695978
 20
-1.221228161307523
 30
0.0
 10
23.84844136111194
 20
-0.9689845178443256
 30
0.0
 10
23.62412367451361
 20
-0.8417093549749157
 30
0.0
 10
23.17761534199473
 20
-0.5861216762685134
 30
0.0
 10
22.95589243460279
 20
-0.4579013477214742
 30
0.0
 10
22.28521892078269
 20
-0.0712949966577693
 30
0.0
 10
21.83454020269968
 20
0.1883126201686661
 30
0.0
 10
20.94381598921931
 20
0.7010393544202408
 30
0.0
 10
20.49567709243682
 20
0.9557081546911934
 30
0.0
 10
19.59943720765619
 20
1.453851494398567
 30
0.0
 10
19.15593893365669
 20
1.696499979779906
 30
0.0
 10
18.48346430262697
 20
2.04858192976847
 30
0.0
 10
18.25894786186969
 20
2.163803630628748
 30
0.0
 10
17.81142421802026
 20
2.388835105836375
 30
0.0
 10
17.58942192571256
 20
2.49848582752846
 30
0.0
 10
16.92050022602273
 20
2.81912722073956
 30
0.0
 10
16.46974798505035
 20
3.021846337416066
 30
0.0
 10
15.79973957960466
 20
3.303336920670513
 30
0.0
 10
15.57805353941959
 20
3.393347019854046
 30
0.0
 10
15.13108166912048
 20
3.56605524962364
 30
0.0
 10
14.90666023151184
 20
3.64862433994742
 30
0.0
 10
14.23392326828734
 20
3.883707921348257
 30
0.0
 10
13.79010590498879
 20
4.023196429413141
 30
0.0
 10
12.89462207337678
 20
4.265865094709363
 30
0.0
 10
12.44443835916331
 20
4.36875300464928
 30
0.0
 10
11.99999999999999
 20
4.451360444824868
 30
0.0
  0
SPLINE
  5
A9
330
1F
100
AcDbEntity
  8
외형선
  6
Continuous
 62
     1
370
    15
100
AcDbSpline
210
0.0
220
0.0
230
1.0
 70
     8
 71
     3
 72
    21
 73
    17
 74
     0
 42
0.000000001
 43
0.00000001
 40
0.0
 40
0.0
 40
0.0
 40
0.0
 40
0.0721033539229078
 40
0.1442616460353248
 40
0.2164465403223038
 40
0.2885660721385592
 40
0.3606540438023291
 40
0.4327479716776307
 40
0.504885322162889
 40
0.5770780993394927
 40
0.6526500376640687
 40
0.7281898987222123
 40
0.8037164631184096
 40
0.8792485823301013
 40
0.9548050782149199
 40
1.0
 40
1.0
 40
1.0
 40
1.0
 10
33.46300000000003
 20
-2.557367718609898
 30
0.0
 10
32.96242983771815
 20
-2.303202730254716
 30
0.0
 10
31.96090811039096
 20
-1.794679095919048
 30
0.0
 10
30.45795727288954
 20
-0.9525990815248168
 30
0.0
 10
28.9546927669968
 20
-0.0872067137869094
 30
0.0
 10
27.45235134347679
 20
0.7811514849967053
 30
0.0
 10
25.95073465270774
 20
1.621063927276089
 30
0.0
 10
24.44897644646735
 20
2.405532252984842
 30
0.0
 10
22.94631952217611
 20
3.108512383596155
 30
0.0
 10
21.41912456809068
 20
3.715787104394285
 30
0.0
 10
19.86864117741582
 20
4.201493227746225
 30
0.0
 10
18.29510469281205
 20
4.539300596369829
 30
0.0
 10
16.72191312501814
 20
4.712090124368061
 30
0.0
 10
15.14857030466423
 20
4.704685460951965
 30
0.0
 10
13.78575808839118
 20
4.571220948689388
 30
0.0
 10
12.94723682800971
 20
4.376309941548237
 30
0.0
 10
12.63339452694733
 20
4.303358518759338
 30
0.0
  0
SPLINE
  5
AA
330
1F
100
AcDbEntity
  8
외형선
  6
Continuous
 62
     1
370
    15
100
AcDbSpline
210
0.0
220
0.0
230
1.0
 70
     8
 71
     3
 72
    14
 73
    10
 74
     0
 42
0.000000001
 43
0.00000001
 40
0.0
 40
0.0
 40
0.0
 40
0.0
 40
0.25
 40
0.25
 40
0.5
 40
0.5
 40
0.75
 40
0.75
 40
1.0
 40
1.0
 40
1.0
 40
1.0
 10
34.22499999999999
 20
-2.463126475468733
 30
0.0
 10
34.22499999999999
 20
-2.50911507308881
 30
0.0
 10
34.20325049052862
 20
-2.553230466088439
 30
0.0
 10
34.12097932178268
 20
-2.62493252900871
 30
0.0
 10
34.06036087036
 20
-2.651820087897537
 30
0.0
 10
33.91473153441405
 20
-2.675862818830758
 30
0.0
 10
33.8287756153507
 20
-2.672985070951796
 30
0.0
 10
33.64999000097276
 20
-2.636480258552409
 30
0.0
 10
33.55581498649744
 20
-2.602907038397105
 30
0.0
 10
33.46299999999999
 20
-2.557367718609885
 30
0.0
  0
LINE
  5
AB
330
1F
100
AcDbEntity
  8
외형선
  6
Continuous
 62
     1
370
    15
100
AcDbLine
 10
34.22499999999999
 20
-1.627558709697228
 30
0.0
 11
34.22499999999999
 21
1.50818007942409
 31
0.0
  0
SPLINE
  5
AC
330
1F
100
AcDbEntity
  8
외형선
  6
Continuous
 62
     1
370
    15
100
AcDbSpline
210
0.0
220
0.0
230
1.0
 70
     8
 71
     3
 72
    14
 73
    10
 74
     0
 42
0.000000001
 43
0.00000001
 40
0.0
 40
0.0
 40
0.0
 40
0.0
 40
0.2500000000000002
 40
0.2500000000000002
 40
0.5000000000000004
 40
0.5000000000000004
 40
0.7500000000000007
 40
0.7500000000000007
 40
1.0
 40
1.0
 40
1.0
 40
1.0
 10
33.46299999999999
 20
-1.513889486672387
 30
0.0
 10
33.55793564076717
 20
-1.565983697892834
 30
0.0
 10
33.64857799043543
 20
-1.6137633988611
 30
0.0
 10
33.82410746797359
 20
-1.696503895258089
 30
0.0
 10
33.90426482411242
 20
-1.729316909167089
 30
0.0
 10
34.0502359296763
 20
-1.767680752231749
 30
0.0
 10
34.11296252091517
 20
-1.771551243846776
 30
0.0
 10
34.20101363014476
 20
-1.733199442955563
 30
0.0
 10
34.22499999999999
 20
-1.690078825939023
 30
0.0
 10
34.22499999999999
 20
-1.627558709697228
 30
0.0
  0
SPLINE
  5
AD
330
1F
100
AcDbEntity
  8
외형선
  6
Continuous
 62
     1
370
    15
100
AcDbSpline
210
0.0
220
0.0
230
1.0
 70
     8
 71
     3
 72
    18
 73
    14
 74
     0
 42
0.000000001
 43
0.00000001
 40
0.0
 40
0.0
 40
0.0
 40
0.0
 40
0.004072665203952
 40
0.1009246043778974
 40
0.1978255906330532
 40
0.2946398135899649
 40
0.3914073447050208
 40
0.4927928231527218
 40
0.5942058943689189
 40
0.6956716955429812
 40
0.7971678061305953
 40
0.8986039603206879
 40
1.0
 40
1.0
 40
1.0
 40
1.0
 10
17.94514652935986
 20
4.699635304602784
 30
0.0
 10
17.96621040478826
 20
4.700687368155728
 30
0.0
 10
18.48819372230058
 20
4.726758526118368
 30
0.0
 10
19.51153613044769
 20
4.631825658555558
 30
0.0
 10
21.01482666062721
 20
4.404781874541714
 30
0.0
 10
22.51726586182341
 20
4.011815645908581
 30
0.0
 10
24.04274311012492
 20
3.480742047398208
 30
0.0
 10
25.59217477698131
 20
2.816095161172072
 30
0.0
 10
27.16594250734802
 20
2.037171234892687
 30
0.0
 10
28.740477710927
 20
1.181745458144528
 30
0.0
 10
30.31529708759155
 20
0.282518577096132
 30
0.0
 10
31.88946432988381
 20
-0.6332190238618554
 30
0.0
 10
32.93855727033347
 20
-1.220371373149783
 30
0.0
 10
33.46299999999999
 20
-1.513889486672394
 30
0.0
  0
SPLINE
  5
AE
330
1F
100
AcDbEntity
  8
외형선
  6
Continuous
 62
     1
370
    15
100
AcDbSpline
210
0.0
220
0.0
230
1.0
 70
     8
 71
     3
 72
    16
 73
    12
 74
     0
 42
0.000000001
 43
0.00000001
 40
0.0
 40
0.0
 40
0.0
 40
0.0
 40
0.1231094591150889
 40
0.2463127198417163
 40
0.3695614011922597
 40
0.4926984824856702
 40
0.6157816778904145
 40
0.7388750429466402
 40
0.8620425478831102
 40
0.9853046885004575
 40
0.9999999999999999
 40
0.9999999999999999
 40
0.9999999999999999
 40
0.9999999999999999
 10
33.46300000000003
 20
2.203202770129987
 30
0.0
 10
32.9624298395082
 20
2.45035516973242
 30
0.0
 10
31.96090811576245
 20
2.944848283414053
 30
0.0
 10
30.45795725138124
 20
3.566884909080213
 30
0.0
 10
28.95469284765323
 20
4.074124206189988
 30
0.0
 10
27.45235104272302
 20
4.443707807315326
 30
0.0
 10
25.95073577468884
 20
4.663518733598746
 30
0.0
 10
24.44897225764842
 20
4.731017985829557
 30
0.0
 10
22.94633517060153
 20
4.625042744096328
 30
0.0
 10
21.88415302831904
 20
4.480266548683038
 30
0.0
 10
21.32312211294906
 20
4.329191917013762
 30
0.0
 10
21.26336075946125
 20
4.313099355589986
 30
0.0
  0
SPLINE
  5
AF
330
1F
100
AcDbEntity
  8
외형선
  6
Continuous
 62
     1
370
    15
100
AcDbSpline
210
0.0
220
0.0
230
1.0
 70
     8
 71
     3
 72
    14
 73
    10
 74
     0
 42
0.000000001
 43
0.00000001
 40
0.0
 40
0.0
 40
0.0
 40
0.0
 40
0.2500000000000006
 40
0.2500000000000006
 40
0.5000000000000003
 40
0.5000000000000003
 40
0.7500000000000002
 40
0.7500000000000002
 40
1.0
 40
1.0
 40
1.0
 40
1.0
 10
34.22499999999999
 20
1.508180079424087
 30
0.0
 10
34.22499999999999
 20
1.569102977938182
 30
0.0
 10
34.20325049052862
 20
1.629915946731661
 30
0.0
 10
34.12097932178271
 20
1.752066676982436
 30
0.0
 10
34.06036087036001
 20
1.813146802751819
 30
0.0
 10
33.91473153441402
 20
1.932519464410807
 30
0.0
 10
33.8287756153507
 20
1.991783423720894
 30
0.0
 10
33.64999000097281
 20
2.103111474710509
 30
0.0
 10
33.55581498649746
 20
2.156141122984478
 30
0.0
 10
33.46299999999999
 20
2.203202770130007
 30
0.0
  0
LINE
  5
B0
330
1F
100
AcDbEntity
  8
외형선
  6
Continuous
370
    15
100
AcDbLine
 10
11.99999999999998
 20
3.954565322735333
 30
0.0
 11
11.99999999999999
 21
4.451360444824865
 31
0.0
  0
SPLINE
  5
B1
330
1F
100
AcDbEntity
  8
외형선
  6
Continuous
 62
     1
370
    15
100
AcDbSpline
210
0.0
220
0.0
230
1.0
 70
     8
 71
     3
 72
    16
 73
    12
 74
     0
 42
0.000000001
 43
0.00000001
 40
0.0
 40
0.0
 40
0.0
 40
0.0
 40
0.0111792221280675
 40
0.1305302048262
 40
0.2499728907825658
 40
0.3750063865065884
 40
0.4999868105105482
 40
0.6249452352359214
 40
0.7499128503832235
 40
0.8749207966471136
 40
0.9999999999999999
 40
0.9999999999999999
 40
0.9999999999999999
 40
0.9999999999999999
 10
24.58997699880111
 20
-4.815496280175092
 30
0.0
 10
24.54306796817328
 20
-4.817685018623594
 30
0.0
 10
23.99535138235846
 20
-4.843241043427561
 30
0.0
 10
22.94631189627594
 20
-4.743472681656526
 30
0.0
 10
21.41912673274283
 20
-4.503501918023034
 30
0.0
 10
19.86864053193106
 20
-4.087104381525263
 30
0.0
 10
18.29510506842139
 20
-3.522939017736834
 30
0.0
 10
16.72191226793432
 20
-2.831894162773569
 30
0.0
 10
15.14857335811283
 20
-2.040423744478856
 30
0.0
 10
13.57464487026241
 20
-1.177382154446837
 30
0.0
 10
12.52498131662694
 20
-0.5737716899400104
 30
0.0
 10
12.00000000000002
 20
-0.2718804646144738
 30
0.0
  0
LINE
  5
B2
330
1F
100
AcDbEntity
  8
외형선
  6
Continuous
370
    15
100
AcDbLine
 10
11.99999999999999
 20
-0.2718804646144539
 30
0.0
 11
11.99999999999998
 21
0.8733843427327832
 31
0.0
  0
SPLINE
  5
B3
330
1F
100
AcDbEntity
  8
외형선
  6
Continuous
 62
     1
370
    15
100
AcDbSpline
210
0.0
220
0.0
230
1.0
 70
     8
 71
     3
 72
    14
 73
    10
 74
     0
 42
0.000000001
 43
0.00000001
 40
0.0
 40
0.0
 40
0.0
 40
0.0
 40
0.1622814376413984
 40
0.3244267182602256
 40
0.4865198000168043
 40
0.6486450787218574
 40
0.8108866801407782
 40
0.9732104428160259
 40
1.0
 40
1.0
 40
1.0
 40
1.0
 10
11.99999999999998
 20
-3.637665417228657
 30
0.0
 10
12.50116013521542
 20
-3.817045552657159
 30
0.0
 10
13.50305992334818
 20
-4.175655320378977
 30
0.0
 10
15.00517736473388
 20
-4.546164970444694
 30
0.0
 10
16.50674421679999
 20
-4.775725992364
 30
0.0
 10
18.00866207338808
 20
-4.850565280054197
 30
0.0
 10
19.51150461765794
 20
-4.7542765194649
 30
0.0
 10
20.59672777566148
 20
-4.608246505392128
 30
0.0
 10
21.18064392546249
 20
-4.454287610957361
 30
0.0
 10
21.2633607594612
 20
-4.432477985863201
 30
0.0
  0
SPLINE
  5
B4
330
1F
100
AcDbEntity
  8
외형선
  6
Continuous
370
    15
100
AcDbSpline
210
0.0
220
0.0
230
1.0
 70
    24
 71
     3
 72
    23
 73
    19
 74
     0
 42
0.000000001
 43
0.00000001
 40
0.0
 40
0.0
 40
0.0
 40
0.0
 40
0.0071044105767964
 40
0.0758524559732881
 40
0.1426629913186817
 40
0.21141103671516
 40
0.2782215720605553
 40
0.3469696174570342
 40
0.4137801528025008
 40
0.4825281981989086
 40
0.5493387335442442
 40
0.6180867789406582
 40
0.6848973142861131
 40
0.7536453596826572
 40
0.8204558950279168
 40
0.8892039404245319
 40
0.944074238552862
 40
1.0
 40
1.0
 40
1.0
 40
1.0
 10
11.99999999999999
 20
-0.2170792284339298
 30
0.0
 10
12.0
 20
-0.216314711199524
 30
0.0
 10
12.00000000000002
 20
-0.2081521044305695
 30
0.0
 10
11.99999999999998
 20
-0.2438672170220478
 30
0.0
 10
11.99999999999996
 20
-0.3279334640646699
 30
0.0
 10
12.00000000000001
 20
-0.4672579657178147
 30
0.0
 10
11.99999999999995
 20
-0.6534928356722519
 30
0.0
 10
12.00000000000004
 20
-0.8798630078184834
 30
0.0
 10
12.00000000000003
 20
-1.143539275006209
 30
0.0
 10
12.00000000000002
 20
-1.432444945693312
 30
0.0
 10
11.99999999999991
 20
-1.743567972183865
 30
0.0
 10
12.00000000000002
 20
-2.062507314059485
 30
0.0
 10
11.99999999999998
 20
-2.385990394693513
 30
0.0
 10
12.00000000000002
 20
-2.698975576738144
 30
0.0
 10
11.99999999999993
 20
-2.998476346258607
 30
0.0
 10
11.99999999999999
 20
-3.253727997153203
 30
0.0
 10
12.0
 20
-3.470107025052573
 30
0.0
 10
12.0
 20
-3.581459033374234
 30
0.0
 10
11.99999999999999
 20
-3.637665417228662
 30
0.0
  0
LINE
  5
B5
330
1F
100
AcDbEntity
  8
외형선
  6
Continuous
 62
     1
370
    15
100
AcDbLine
 10
34.22499999999999
 20
-2.46312647546873
 30
0.0
 11
34.22499999999999
 21
-1.627558709697228
 31
0.0
  0
SPLINE
  5
B6
330
1F
100
AcDbEntity
  8
외형선
  6
Continuous
 62
     1
370
    15
100
AcDbSpline
210
0.0
220
0.0
230
1.0
 70
     8
 71
     3
 72
    14
 73
    10
 74
     0
 42
0.000000001
 43
0.00000001
 40
0.0
 40
0.0
 40
0.0
 40
0.0
 40
0.25
 40
0.25
 40
0.5
 40
0.5
 40
0.75
 40
0.75
 40
1.0
 40
1.0
 40
1.0
 40
1.0
 10
33.46299999999999
 20
3.140681933596714
 30
0.0
 10
33.55793564076717
 20
3.100168380409779
 30
0.0
 10
33.64857799043543
 20
3.04669022496652
 30
0.0
 10
33.82410746797354
 20
2.917448569169421
 30
0.0
 10
33.90426482411246
 20
2.845219278614156
 30
0.0
 10
34.05023592967638
 20
2.688351506303806
 30
0.0
 10
34.1129625209152
 20
2.606252174636756
 30
0.0
 10
34.20101363014476
 20
2.456770109203608
 30
0.0
 10
34.22499999999999
 20
2.390942127462643
 30
0.0
 10
34.22499999999999
 20
2.343747845195538
 30
0.0
  0
LINE
  5
B7
330
1F
100
AcDbEntity
  8
외형선
  6
Continuous
 62
     1
370
    15
100
AcDbLine
 10
34.22499999999999
 20
1.50818007942409
 30
0.0
 11
34.22499999999999
 21
2.343747845195538
 31
0.0
  0
SPLINE
  5
B8
330
1F
100
AcDbEntity
  8
외형선
  6
Continuous
 62
     1
370
    15
100
AcDbSpline
210
0.0
220
0.0
230
1.0
 70
     8
 71
     3
 72
    12
 73
     8
 74
     0
 42
0.000000001
 43
0.00000001
 40
0.0
 40
0.0
 40
0.0
 40
0.0
 40
0.084628145396995
 40
0.3135100766784739
 40
0.5424603785540727
 40
0.7712754335198919
 40
1.0
 40
1.0
 40
1.0
 40
1.0
 10
26.58354388714086
 20
4.682624731399319
 30
0.0
 10
26.7775943385978
 20
4.687911496996224
 30
0.0
 10
27.49646595784887
 20
4.707496639502795
 30
0.0
 10
28.7404827957799
 20
4.562242217976306
 30
0.0
 10
30.31529573233642
 20
4.250571371843538
 30
0.0
 10
31.88946466845788
 20
3.779448059338776
 30
0.0
 10
32.93855738317661
 20
3.35357590032702
 30
0.0
 10
33.46299999999999
 20
3.140681933596703
 30
0.0
  0
LINE
  5
B9
330
1F
100
AcDbEntity
  8
외형선
  6
Continuous
 62
     1
370
    15
100
AcDbLine
 10
34.22499999999999
 20
2.343747845195538
 30
0.0
 11
34.22499999999999
 21
3.911617239756199
 31
0.0
  0
SPLINE
  5
BA
330
1F
100
AcDbEntity
  8
외형선
  6
Continuous
 62
     1
370
    15
100
AcDbSpline
210
0.0
220
0.0
230
1.0
 70
     8
 71
     3
 72
    10
 73
     6
 74
     0
 42
0.000000001
 43
0.00000001
 40
0.0
 40
0.0
 40
0.0
 40
0.0
 40
0.4225764018630265
 40
0.8454747801832406
 40
1.0
 40
1.0
 40
1.0
 40
1.0
 10
33.46300000000003
 20
4.70088117360327
 30
0.0
 10
32.96243084123142
 20
4.692100248785349
 30
0.0
 10
31.96091112169537
 20
4.674531708640872
 30
0.0
 10
30.77610113436187
 20
4.52200112549989
 30
0.0
 10
30.09192381457375
 20
4.351418031968133
 30
0.0
 10
29.90883006663028
 20
4.305768027170847
 30
0.0
  0
SPLINE
  5
BB
330
1F
100
AcDbEntity
  8
외형선
  6
Continuous
 62
     1
370
    15
100
AcDbSpline
210
0.0
220
0.0
230
1.0
 70
     8
 71
     3
 72
    14
 73
    10
 74
     0
 42
0.000000001
 43
0.00000001
 40
0.0
 40
0.0
 40
0.0
 40
0.0
 40
0.25
 40
0.25
 40
0.5
 40
0.5
 40
0.75
 40
0.75
 40
1.0
 40
1.0
 40
1.0
 40
1.0
 10
34.22499999999999
 20
3.911617239756199
 30
0.0
 10
34.22499999999999
 20
4.018528735890373
 30
0.0
 10
34.20325049052862
 20
4.123457097683477
 30
0.0
 10
34.12097932178268
 20
4.317309890854526
 30
0.0
 10
34.06036087036
 20
4.405277575512728
 30
0.0
 10
33.91473153441405
 20
4.548692968104939
 30
0.0
 10
33.82877561535071
 20
4.605079179536073
 30
0.0
 10
33.64999000097278
 20
4.679902418126302
 30
0.0
 10
33.55581498649744
 20
4.699358846244966
 30
0.0
 10
33.46299999999999
 20
4.700881173603276
 30
0.0
  0
SPLINE
  5
BC
330
1F
100
AcDbEntity
  8
외형선
  6
Continuous
 62
     1
370
    15
100
AcDbSpline
210
0.0
220
0.0
230
1.0
 70
     8
 71
     3
 72
    10
 73
     6
 74
     0
 42
0.000000001
 43
0.00000001
 40
0.0
 40
0.0
 40
0.0
 40
0.0
 40
0.2032435832072784
 40
0.6015082820870833
 40
0.9999999999999999
 40
0.9999999999999999
 40
0.9999999999999999
 40
0.9999999999999999
 10
15.95183648844727
 20
-4.800548687888979
 30
0.0
 10
15.68413571109106
 20
-4.804332991836573
 30
0.0
 10
14.89186354111713
 20
-4.815532805038508
 30
0.0
 10
13.57464319048622
 20
-4.655364276222643
 30
0.0
 10
12.52498075659519
 20
-4.409234870202813
 30
0.0
 10
12.00000000000002
 20
-4.286135102486421
 30
0.0
  0
LINE
  5
BD
330
1F
100
AcDbEntity
  8
외형선
  6
Continuous
370
    15
100
AcDbLine
 10
12.0
 20
-4.286135102486407
 30
0.0
 11
11.99999999999998
 21
-3.637665417228662
 31
0.0
  0
LINE
  5
BE
330
1F
100
AcDbEntity
  8
외형선
  6
Continuous
 62
     1
370
    15
100
AcDbLine
 10
11.99999999999998
 20
-4.57073907509807
 30
0.0
 11
12.63339452694727
 21
-4.422737149032554
 31
0.0
  0
LINE
  5
BF
330
1F
100
AcDbEntity
  8
외형선
  6
Continuous
370
    15
100
AcDbLine
 10
11.99999999999998
 20
-4.337287836908108
 30
0.0
 11
11.99999999999999
 21
-4.570739075098068
 31
0.0
  0
LINE
  5
C0
330
1F
100
AcDbEntity
  8
외형선
  6
Continuous
 62
     1
370
    15
100
AcDbLine
 10
34.22499999999999
 20
-4.06018931513661
 30
0.0
 11
34.22499999999999
 21
-4.030995870029409
 31
0.0
  0
LINE
  5
C1
330
1F
100
AcDbEntity
  8
외형선
  6
Continuous
 62
     1
370
    15
100
AcDbLine
 10
34.22499999999999
 20
3.911617239756199
 30
0.0
 11
34.22499999999999
 21
3.9408106848634
 31
0.0
  0
LINE
  5
C2
330
1F
100
AcDbEntity
  8
외형선
  6
Continuous
370
    15
100
AcDbLine
 10
11.75013727030821
 20
4.495638849950375
 30
0.0
 11
11.75013727030821
 21
4.702810684863395
 31
0.0
  0
SPLINE
  5
C3
330
1F
100
AcDbEntity
  8
외형선
  6
Continuous
370
    15
100
AcDbSpline
210
0.0
220
0.0
230
1.0
 70
     8
 71
     3
 72
     8
 73
     4
 74
     0
 42
0.000000001
 43
0.00000001
 40
0.0
 40
0.0
 40
0.0
 40
0.0
 40
1.0
 40
1.0
 40
1.0
 40
1.0
 10
11.99999999999998
 20
4.451360444824863
 30
0.0
 10
11.91690347323476
 20
4.466805536865257
 30
0.0
 10
11.8335969163136
 20
4.48157122681923
 30
0.0
 10
11.75013727030823
 20
4.495644296216391
 30
0.0
  0
SPLINE
  5
C4
330
1F
100
AcDbEntity
  8
외형선
  6
Continuous
370
    15
100
AcDbSpline
210
0.0
220
0.0
230
1.0
 70
     8
 71
     3
 72
     8
 73
     4
 74
     0
 42
0.000000001
 43
0.00000001
 40
0.0
 40
0.0
 40
0.0
 40
0.0
 40
1.0
 40
1.0
 40
1.0
 40
1.0
 10
11.99999999999999
 20
3.954565322735331
 30
0.0
 10
11.91690347323475
 20
3.98048505227883
 30
0.0
 10
11.83359691631358
 20
4.005810440656995
 30
0.0
 10
11.75013727030821
 20
4.03052130662086
 30
0.0
  0
LINE
  5
C5
330
1F
100
AcDbEntity
  8
외형선
  6
Continuous
370
    15
100
AcDbLine
 10
11.75013727030821
 20
1.014731787467226
 30
0.0
 11
11.75013727030821
 21
4.030532700941357
 31
0.0
  0
SPLINE
  5
C6
330
1F
100
AcDbEntity
  8
외형선
  6
Continuous
370
    15
100
AcDbSpline
210
0.0
220
0.0
230
1.0
 70
     8
 71
     3
 72
     8
 73
     4
 74
     0
 42
0.000000001
 43
0.00000001
 40
0.0
 40
0.0
 40
0.0
 40
0.0
 40
1.0
 40
1.0
 40
1.0
 40
1.0
 10
11.99999999999998
 20
0.8733843427327835
 30
0.0
 10
11.91690347323476
 20
0.9206207726545887
 30
0.0
 10
11.8335969163136
 20
0.9677537119401445
 30
0.0
 10
11.75013727030823
 20
1.014749974872822
 30
0.0
  0
SPLINE
  5
C7
330
1F
100
AcDbEntity
  8
외형선
  6
Continuous
370
    15
100
AcDbSpline
210
0.0
220
0.0
230
1.0
 70
     8
 71
     3
 72
     8
 73
     4
 74
     0
 42
0.000000001
 43
0.00000001
 40
0.0
 40
0.0
 40
0.0
 40
0.0
 40
1.0
 40
1.0
 40
1.0
 40
1.0
 10
11.99999999999999
 20
-0.2718804646144495
 30
0.0
 10
11.91690347323475
 20
-0.2237583205168948
 30
0.0
 10
11.83359691631358
 20
-0.1755631380245122
 30
0.0
 10
11.75013727030821
 20
-0.127328070572271
 30
0.0
  0
SPLINE
  5
C8
330
1F
100
AcDbEntity
  8
외형선
  6
Continuous
370
    15
100
AcDbSpline
210
0.0
220
0.0
230
1.0
 70
     8
 71
     3
 72
     8
 73
     4
 74
     0
 42
0.000000001
 43
0.00000001
 40
0.0
 40
0.0
 40
0.0
 40
0.0
 40
1.0
 40
1.0
 40
1.0
 40
1.0
 10
11.99999999999998
 20
-3.637665417228658
 30
0.0
 10
11.91690347323476
 20
-3.605874079347247
 30
0.0
 10
11.8335969163136
 20
-3.573506830015665
 30
0.0
 10
11.75013727030823
 20
-3.540583636480147
 30
0.0
  0
SPLINE
  5
C9
330
1F
100
AcDbEntity
  8
외형선
  6
Continuous
370
    15
100
AcDbSpline
210
0.0
220
0.0
230
1.0
 70
     8
 71
     3
 72
     8
 73
     4
 74
     0
 42
0.000000001
 43
0.00000001
 40
0.0
 40
0.0
 40
0.0
 40
0.0
 40
1.0
 40
1.0
 40
1.0
 40
1.0
 10
11.99999999999999
 20
-4.286135102486405
 30
0.0
 10
11.91690347323475
 20
-4.263932687932349
 30
0.0
 10
11.83359691631358
 20
-4.241062893818129
 30
0.0
 10
11.75013727030821
 20
-4.217538692329755
 30
0.0
  0
LINE
  5
CA
330
1F
100
AcDbEntity
  8
외형선
  6
Continuous
370
    15
100
AcDbLine
 10
11.75013727030821
 20
-4.822189315136606
 30
0.0
 11
11.75013727030821
 21
-4.217527845099162
 31
0.0
  0
SPLINE
  5
CB
330
1F
100
AcDbEntity
  8
외형선
  6
Continuous
370
    15
100
AcDbSpline
210
0.0
220
0.0
230
1.0
 70
     8
 71
     3
 72
     8
 73
     4
 74
     0
 42
0.000000001
 43
0.00000001
 40
0.0
 40
0.0
 40
0.0
 40
0.0
 40
1.0
 40
1.0
 40
1.0
 40
1.0
 10
11.99999999999998
 20
-4.570739075098064
 30
0.0
 10
11.91690347323476
 20
-4.586184167138458
 30
0.0
 10
11.8335969163136
 20
-4.600949857092433
 30
0.0
 10
11.75013727030823
 20
-4.615022926489595
 30
0.0
  0
LINE
  5
CC
330
1F
100
AcDbEntity
  8
외형선
  6
Continuous
370
    15
100
AcDbLine
 10
-37.84750000000003
 20
-0.059689315136606
 30
0.0
 11
-37.84750000000003
 21
4.702810684863395
 31
0.0
  0
LINE
  5
CD
330
1F
100
AcDbEntity
  8
외형선
  6
Continuous
370
    15
100
AcDbLine
 10
-37.84750000000003
 20
-4.822189315136604
 30
0.0
 11
-37.84750000000003
 21
-0.059689315136606
 31
0.0
  0
LINE
  5
CE
330
1F
100
AcDbEntity
  8
외형선
  6
Continuous
370
    15
100
AcDbLine
 10
11.75013727030821
 20
-3.540596377619728
 30
0.0
 11
11.75013727030821
 21
-0.1273058290211819
 31
0.0
  0
LINE
  5
CF
330
1F
100
AcDbEntity
  8
외형선
  6
Continuous
370
    15
100
AcDbLine
 10
-38.80000000000003
 20
-0.059689315136606
 30
0.0
 11
-38.80000000000003
 21
3.750310684863397
 31
0.0
  0
LINE
  5
D0
330
1F
100
AcDbEntity
  8
외형선
  6
Continuous
370
    15
100
AcDbLine
 10
-38.80000000000003
 20
-3.869689315136609
 30
0.0
 11
-38.80000000000003
 21
-0.059689315136606
 31
0.0
  0
SPLINE
  5
D1
330
1F
100
AcDbEntity
  8
외형선
  6
Continuous
370
    15
100
AcDbSpline
210
0.0
220
0.0
230
1.0
 70
    24
 71
     3
 72
    22
 73
    18
 74
     0
 42
0.000000001
 43
0.00000001
 40
0.0
 40
0.0
 40
0.0
 40
0.0
 40
0.1160129422272211
 40
0.1837919616401442
 40
0.2515709810530671
 40
0.3193500004659892
 40
0.3871290198789115
 40
0.4549080392918355
 40
0.5226870587047594
 40
0.590466078117682
 40
0.6582450975306046
 40
0.7260241169435278
 40
0.793803136356451
 40
0.8615821557693374
 40
0.9293611751822237
 40
0.9971401945951833
 40
1.0
 40
1.0
 40
1.0
 40
1.0
 10
11.99999999999998
 20
-3.63766541722866
 30
0.0
 10
11.99999999999996
 20
-3.51470097753971
 30
0.0
 10
11.99999999999994
 20
-3.319896198447482
 30
0.0
 10
12.0
 20
-2.975538124879768
 30
0.0
 10
12.00000000000007
 20
-2.677014895394095
 30
0.0
 10
12.0
 20
-2.361374511064503
 30
0.0
 10
12.0
 20
-2.039270477930771
 30
0.0
 10
12.0
 20
-1.71942262497402
 30
0.0
 10
12.00000000000002
 20
-1.410720461954478
 30
0.0
 10
12.00000000000002
 20
-1.122541153913627
 30
0.0
 10
11.99999999999996
 20
-0.8621144230740082
 30
0.0
 10
12.0
 20
-0.637999156758167
 30
0.0
 10
12.00000000000002
 20
-0.4555173979948067
 30
0.0
 10
12.0
 20
-0.319594397595492
 30
0.0
 10
11.99999999999999
 20
-0.2398789314219821
 30
0.0
 10
12.00000000000003
 20
-0.2070275865121465
 30
0.0
 10
12.0
 20
-0.2155085083840871
 30
0.0
 10
12.0
 20
-0.2158518576154733
 30
0.0
  0
SPLINE
  5
D2
330
1F
100
AcDbEntity
  8
외형선
  6
Continuous
370
    15
100
AcDbSpline
210
0.0
220
0.0
230
1.0
 70
    24
 71
     3
 72
    22
 73
    18
 74
     0
 42
0.000000001
 43
0.00000001
 40
0.0
 40
0.0
 40
0.0
 40
0.0
 40
0.026753855722598
 40
0.0987306904961779
 40
0.1707075252697569
 40
0.2426843600433361
 40
0.3146611948169171
 40
0.386638029590498
 40
0.4586148643640775
 40
0.5305916991376569
 40
0.6025685339112371
 40
0.6745453686848172
 40
0.7465222034583582
 40
0.8184990382318992
 40
0.8904758730055179
 40
0.9624527077791365
 40
1.0
 40
1.0
 40
1.0
 40
1.0
 10
11.99999999999998
 20
0.7305308895392529
 30
0.0
 10
11.99999999999998
 20
0.7287816135565117
 30
0.0
 10
12.00000000000002
 20
0.7223261991506346
 30
0.0
 10
12.00000000000007
 20
0.7666547834451874
 30
0.0
 10
12.00000000000001
 20
0.8635566435469055
 30
0.0
 10
12.0
 20
1.013062145924076
 30
0.0
 10
11.99999999999998
 20
1.208443754609265
 30
0.0
 10
12.00000000000005
 20
1.443574812147934
 30
0.0
 10
11.99999999999999
 20
1.71298396938659
 30
0.0
 10
11.99999999999996
 20
2.007881408103871
 30
0.0
 10
11.99999999999998
 20
2.320768404431226
 30
0.0
 10
12.00000000000002
 20
2.642238188662466
 30
0.0
 10
11.99999999999999
 20
2.963289605268221
 30
0.0
 10
12.00000000000002
 20
3.275186175743209
 30
0.0
 10
12.0
 20
3.567852803046578
 30
0.0
 10
12.0
 20
3.793519386731141
 30
0.0
 10
12.0
 20
3.913450340284038
 30
0.0
 10
12.0
 20
3.954565322735388
 30
0.0
  0
LINE
  5
D3
330
1F
100
AcDbEntity
  8
외형선
  6
Continuous
370
    15
100
AcDbLine
 10
11.99999999999998
 20
-4.570739075098063
 30
0.0
 11
11.99999999999999
 21
-4.33728783690811
 31
0.0
  0
LINE
  5
D4
330
1F
100
AcDbEntity
  8
중심선
 62
     1
100
AcDbLine
 10
-41.80000000000003
 20
-0.0596893151366065
 30
0.0
 11
37.22499999999998
 21
-0.0596893151366007
 31
0.0
  0
LINE
  5
D5
330
1F
100
AcDbEntity
  8
참조1
100
AcDbLine
 10
-2.287500000000027
 20
-0.0596893151366104
 30
0.0
 11
-2.287500000000022
 21
-40.05968931513661
 31
0.0
  0
LINE
  5
D6
330
1F
100
AcDbEntity
  8
참조1
100
AcDbLine
 10
-2.287500000000022
 20
-40.05968931513661
 30
0.0
 11
-25.38385681430869
 21
-40.05968931513659
 31
0.0
  0
INSERT
  5
D8
330
1F
100
AcDbEntity
  8
0
  6
Continuous
 62
     7
100
AcDbBlockReference
 66
     1
  2
블럭10
 10
-16.22777293212523
 20
-52.10686361678054
 30
0.0
  0
ATTRIB
  5
D9
330
D8
100
AcDbEntity
  8
FORMAT
 62
     2
100
AcDbText
 10
-26.36940894426186
 20
-50.03149670394836
 30
0.0
 40
4.233333333333333
  1
EM668901 [ 6 FLUTE ]
 41
0.75
  7
SLDTEXTSTYLE0
 11
-26.36940894426186
 21
-52.14816337061502
 31
0.0
100
AcDbAttribute
  2
AUTOATTR0
 70
     0
 74
     1
  0
SEQEND
  5
DA
330
D8
100
AcDbEntity
  8
0
  6
Continuous
 62
     7
  0
HATCH
  5
DB
330
1F
100
AcDbEntity
  8
중심선
100
AcDbHatch
 10
0.0
 20
0.0
 30
0.0
210
0.0
220
0.0
230
1.0
  2
SOLID
 70
     1
 71
     0
 91
        1
 92
        0
 93
        4
 72
     1
 10
-10.5128636277444
 20
-35.8596893151366
 11
-13.95913887158168
 21
-35.8596893151366
 72
     1
 10
-13.95913887158168
 20
-35.8596893151366
 11
-16.08736873078573
 21
-38.3960148957092
 72
     1
 10
-16.08736873078573
 20
-38.3960148957092
 11
-12.64106040183527
 21
-38.3959754664067
 72
     1
 10
-12.64106040183527
 20
-38.3959754664067
 11
-10.5128636277444
 21
-35.8596893151366
 97
        0
 75
     0
 76
     1
 98
        1
 10
-4.350000000000022
 20
-0.0607642438604996
  0
HATCH
  5
DC
330
1F
100
AcDbEntity
  8
중심선
100
AcDbHatch
 10
0.0
 20
0.0
 30
0.0
210
0.0
220
0.0
230
1.0
  2
SOLID
 70
     1
 71
     0
 91
        1
 92
        0
 93
        4
 72
     1
 10
-5.500099636708418
 20
-35.8596893151366
 11
-8.9463748805457
 21
-35.8596893151366
 72
     1
 10
-8.9463748805457
 20
-35.8596893151366
 11
-13.47751288890312
 21
-41.25968931513662
 72
     1
 10
-13.47751288890312
 20
-41.25968931513662
 11
-10.03123764506583
 21
-41.25968931513662
 72
     1
 10
-10.03123764506583
 20
-41.25968931513662
 11
-5.500099636708417
 21
-35.8596893151366
 97
        0
 75
     0
 76
     1
 98
        1
 10
-4.350000000000022
 20
-0.0607642438604996
  0
HATCH
  5
DD
330
1F
100
AcDbEntity
  8
중심선
100
AcDbHatch
 10
0.0
 20
0.0
 30
0.0
210
0.0
220
0.0
230
1.0
  2
SOLID
 70
     1
 71
     0
 91
        1
 92
        0
 93
        4
 72
     1
 10
-0.4873356456725499
 20
-35.85968931513658
 11
-3.933610889509666
 21
-35.85968931513663
 72
     1
 10
-3.933610889509666
 20
-35.85968931513663
 11
-10.98204779139892
 21
-44.25968931513662
 72
     1
 10
-10.98204779139892
 20
-44.25968931513662
 11
-7.535772547561633
 21
-44.25968931513662
 72
     1
 10
-7.535772547561631
 20
-44.25968931513662
 11
-0.4873356456725499
 21
-35.85968931513658
 97
        0
 75
     0
 76
     1
 98
        1
 10
-4.350000000000022
 20
-0.0607642438604996
  0
HATCH
  5
DE
330
1F
100
AcDbEntity
  8
중심선
100
AcDbHatch
 10
0.0
 20
0.0
 30
0.0
210
0.0
220
0.0
230
1.0
  2
SOLID
 70
     1
 71
     0
 91
        1
 92
        0
 93
        6
 72
     3
 10
4.312554785339649
 20
-40.05968931518787
 11
3.960054785062284
 21
1.540882976769353E-10
 40
0.3939339440162627
 50
17.09539180608436
 51
320.0019657685073
 73
     0
 72
     1
 10
5.995554441040249
 20
-38.64758331977487
 11
8.300856314741278
 21
-36.71325660972695
 72
     3
 10
4.312554785286802
 20
-40.05968931513674
 11
6.60005478528683
 21
-1.278976924368180E-13
 40
0.636358354079598
 50
39.99873849337431
 51
368.4976242363724
 73
     1
 72
     1
 10
10.73788727718741
 20
-39.09968931506663
 11
2.992622092122724
 21
-39.09968931506663
 72
     1
 10
2.992622092122725
 20
-39.09968931506663
 11
2.992597047676791
 21
-41.01968931506651
 72
     1
 10
2.992597047676791
 20
-41.01968931506651
 11
7.433976817148828
 21
-41.01968931506649
 97
        0
 75
     0
 76
     1
 98
        1
 10
-4.350000000000022
 20
-0.0607642438604996
  0
DIMENSION
  5
DF
330
1F
100
AcDbEntity
  8
치수문자_일반주서
100
AcDbDimension
  2
_D
 10
11.99999999999998
 20
14.96336534858171
 30
0.0
 11
23.11249999999998
 21
14.96336534858171
 31
0.0
 70
   160
  1
<>
 71
     2
 42
22.22500000000001
  3
SLDDIMSTYLE0
100
AcDbAlignedDimension
 13
34.22499999999999
 23
4.70281068486343
 33
0.0
 14
11.99999999999998
 24
4.45136044482486
 34
0.0
100
AcDbRotatedDimension
1001
PE_URL
1000

1001
ACAD
1000
DSTYLE
1002
{
1070
   171
1070
     6
1070
   273
1070
     7
1002
}
  0
DIMENSION
  5
F5
330
1F
100
AcDbEntity
  8
치수문자_일반주서
100
AcDbDimension
  2
_D_1
 10
-38.80000000000003
 20
27.4592964499408
 30
0.0
 11
-2.28750000000002
 21
27.4592964499408
 31
0.0
 70
   160
  1
<>
 71
     2
 42
73.025
  3
SLDDIMSTYLE0
100
AcDbAlignedDimension
 13
34.22499999999999
 23
3.911617239756199
 33
0.0
 14
-38.80000000000003
 24
3.750310684863397
 34
0.0
 50
0.0000000000000056
100
AcDbRotatedDimension
1001
PE_URL
1000

1001
ACAD
1000
DSTYLE
1002
{
1070
   171
1070
     6
1070
   273
1070
     7
1002
}
  0
DIMENSION
  5
109
330
1F
100
AcDbEntity
  8
치수문자_일반주서
100
AcDbDimension
  2
_D_2
 10
-51.48250000000001
 20
-4.82218931513666
 30
0.0
 11
-51.48250000000003
 21
-0.0596893151366051
 31
0.0
 70
   160
  1
%%c<>
 71
     2
 42
9.525000000000006
 52
-270.0
  3
SLDDIMSTYLE0
100
AcDbAlignedDimension
 13
-37.84750000000003
 23
4.702810684863397
 33
0.0
 14
-37.84750000000003
 24
-4.822189315136608
 34
0.0
 50
90.0000000000002
100
AcDbRotatedDimension
1001
ACAD
1000
DSTYLE
1002
{
1070
   171
1070
     6
1070
   273
1070
     7
1002
}
1001
ACAD_DSTYLE_DIMFLIPARROW_SYMBOL
1070
   385
1070
     0
1001
ACAD_DSTYLE_DIMFLIPARROW_WHICH_SYMBOL
1070
   386
1070
     3
  0
DIMENSION
  5
11D
330
1F
100
AcDbEntity
  8
치수문자_일반주서
100
AcDbDimension
  2
_D_3
 10
55.37697657067782
 20
-4.822189315136505
 30
0.0
 11
55.37697657067771
 21
24.43181068486358
 31
0.0
 70
   160
  1
%%c<>
 71
     2
 42
9.52500000000002
 52
-270.0
  3
SLDDIMSTYLE0
100
AcDbAlignedDimension
 13
34.22499999999999
 23
4.702810684863436
 33
0.0
 14
34.22499999999999
 24
-4.822189315136584
 34
0.0
 50
90.0000000000002
100
AcDbRotatedDimension
1001
PE_URL
1000

1001
ACAD
1000
DSTYLE
1002
{
1070
   171
1070
     6
1070
   273
1070
     7
1002
}
  0
LINE
  5
130
330
1F
100
AcDbEntity
  8
참조1
100
AcDbLine
 10
72.58848381534557
 20
7.380310684863397
 30
0.0
 11
72.58848381534557
 21
-7.499689315136608
 31
0.0
  0
LINE
  5
131
330
1F
100
AcDbEntity
  8
참조1
100
AcDbLine
 10
85.28848381534557
 20
5.380310684863397
 30
0.0
 11
72.58848381534557
 21
5.380310684863397
 31
0.0
  0
SOLID
  5
132
330
1F
100
AcDbEntity
  8
참조1
100
AcDbTrace
 10
72.58848381534557
 20
5.380310684863397
 30
0.0
 11
78.93848381534556
 21
4.364310684863397
 31
0.0
 12
78.93848381534556
 22
6.396310684863397
 32
0.0
 13
78.93848381534556
 23
6.396310684863397
 33
0.0
  0
LINE
  5
133
330
1F
100
AcDbEntity
  8
참조1
100
AcDbLine
 10
85.28848381534557
 20
-5.499689315136608
 30
0.0
 11
72.58848381534557
 21
-5.499689315136608
 31
0.0
  0
SOLID
  5
134
330
1F
100
AcDbEntity
  8
참조1
100
AcDbTrace
 10
72.58848381534557
 20
-5.499689315136608
 30
0.0
 11
78.93848381534556
 21
-6.515689315136608
 31
0.0
 12
78.93848381534556
 22
-4.483689315136608
 32
0.0
 13
78.93848381534556
 23
-4.483689315136608
 33
0.0
  0
MTEXT
  5
135
330
1F
100
AcDbEntity
  8
참조1
100
AcDbMText
 10
81.98597390781585
 20
10.92852732951333
 30
0.0
 40
3.5
 41
0.0
 71
     1
 72
     1
  1
A
  7
SLDTEXTSTYLE0
 73
     1
 44
1.0
  0
MTEXT
  5
136
330
1F
100
AcDbEntity
  8
참조1
100
AcDbMText
 10
81.98597390781585
 20
0.0485273295133263
 30
0.0
 40
3.5
 41
0.0
 71
     1
 72
     1
  1
A
  7
SLDTEXTSTYLE0
 73
     1
 44
1.0
  0
INSERT
  5
13D
330
1F
100
AcDbEntity
  8
해칭선
100
AcDbBlockReference
  2
SW_DOWELSYMBOL_0
 10
0.0
 20
0.0
 30
0.0
  0
MTEXT
  5
1C2
102
{ACAD_REACTORS
330
1C3
102
}
330
1F
100
AcDbEntity
  8
치수문자_일반주서
100
AcDbMText
 10
44.49077631579959
 20
-18.51231895594225
 30
0.0
 40
3.5
 41
0.0
 71
     7
 72
     1
  1
{R0.76[.030"]}
 73
     1
 44
1.0
1001
PE_URL
1000

1001
ACAD
1000
ACAD_MTEXT_DEFINED_HEIGHT_BEGIN
1070
    46
1040
3.5
1000
ACAD_MTEXT_DEFINED_HEIGHT_END
  0
LEADER
  5
1C3
102
{ACAD_XDICTIONARY
360
1C4
102
}
330
1F
100
AcDbEntity
  8
치수문자_일반주서
100
AcDbLeader
  3
ISO-25
 73
     0
 74
     0
 75
     1
 40
3.5
 41
30.91666666666667
 76
     3
 10
34.00181536726415
 20
-4.599004682400759
 30
0.0
 10
39.66477631579959
 20
-16.76231895594225
 30
0.0
 10
42.96677631579959
 20
-16.76231895594225
 30
0.0
340
1C2
213
0.0
223
1.75
233
0.0
1001
ACAD
1000
DSTYLE
1002
{
1070
    77
1070
     0
1070
   179
1070
     2
1070
   143
1040
0.0393700787401575
1070
    41
1040
3.302
1070
    44
1040
1.0
1070
    42
1040
1.0
1070
   147
1040
1.524
1070
    73
1070
     1
1070
    74
1070
     1
1070
   140
1040
3.5
1070
   284
1070
     0
1070
    78
1070
     0
1002
}
1001
PE_URL
1000

  0
ENDSEC
  0
SECTION
  2
OBJECTS
  0
DICTIONARY
  5
C
330
0
100
AcDbDictionary
281
     1
  3
ACAD_DETAILVIEWSTYLE
350
166
  3
ACAD_GROUP
350
D
  3
ACAD_IMAGE_VARS
350
1EB
  3
ACAD_LAYOUT
350
1A
  3
ACAD_MLINESTYLE
350
17
  3
ACAD_PLOTSETTINGS
350
19
  3
ACAD_PLOTSTYLENAME
350
E
  3
ACAD_SCALELIST
350
47
  3
ACAD_SECTIONVIEWSTYLE
350
167
  3
AcDbVariableDictionary
350
161
  3
APPDATA
350
15F
  3
DWGPROPS
350
1EC
  0
DICTIONARY
  5
1C4
330
1C3
100
AcDbDictionary
280
     1
281
     1
  0
DICTIONARY
  5
166
102
{ACAD_REACTORS
330
C
102
}
330
C
100
AcDbDictionary
281
     1
  0
DICTIONARY
  5
D
102
{ACAD_REACTORS
330
C
102
}
330
C
100
AcDbDictionary
281
     1
  0
RASTERVARIABLES
  5
1EB
102
{ACAD_REACTORS
330
C
102
}
330
C
100
AcDbRasterVariables
 90
        0
 70
     1
 71
     1
 72
     1
  0
DICTIONARY
  5
1A
102
{ACAD_REACTORS
330
C
102
}
330
C
100
AcDbDictionary
281
     1
  3
Layout1
350
1E
  3
Layout2
350
26
  3
Model
350
22
  0
DICTIONARY
  5
17
102
{ACAD_REACTORS
330
C
102
}
330
C
100
AcDbDictionary
281
     1
  3
Standard
350
18
  0
DICTIONARY
  5
19
102
{ACAD_REACTORS
330
C
102
}
330
C
100
AcDbDictionary
281
     1
  0
ACDBDICTIONARYWDFLT
  5
E
102
{ACAD_REACTORS
330
C
102
}
330
C
100
AcDbDictionary
281
     1
  3
Normal
350
F
100
AcDbDictionaryWithDefault
340
F
  0
DICTIONARY
  5
47
102
{ACAD_REACTORS
330
C
102
}
330
C
100
AcDbDictionary
281
     1
  3
A0
350
48
  3
A1
350
49
  3
A2
350
4A
  3
A3
350
4B
  3
A4
350
4C
  3
A5
350
4D
  3
A6
350
4E
  3
A7
350
4F
  3
A8
350
50
  3
A9
350
51
  3
B0
350
52
  3
B1
350
53
  3
B2
350
54
  3
B3
350
55
  3
B4
350
56
  3
B5
350
57
  3
B6
350
58
  3
B7
350
59
  3
B8
350
5A
  3
B9
350
5B
  3
C0
350
5C
  3
C1
350
5D
  3
C2
350
5E
  3
C3
350
5F
  3
C4
350
60
  3
C5
350
61
  3
C6
350
62
  3
C7
350
63
  3
C8
350
64
  3
C9
350
65
  3
D0
350
66
  3
D1
350
67
  3
D2
350
68
  0
DICTIONARY
  5
167
102
{ACAD_REACTORS
330
C
102
}
330
C
100
AcDbDictionary
281
     1
  0
DICTIONARY
  5
161
102
{ACAD_REACTORS
330
C
102
}
330
C
100
AcDbDictionary
281
     1
  0
DICTIONARY
  5
15F
102
{ACAD_REACTORS
330
C
102
}
330
C
100
AcDbDictionary
281
     1
  0
XRECORD
  5
1EC
102
{ACAD_REACTORS
330
C
102
}
330
C
100
AcDbXrecord
280
     1
  1
DWGPROPS COOKIE
  2

  3

  4

  6

  7

  8
12016016
  9

300
=
301
=
302
=
303
=
304
=
305
=
306
=
307
=
308
=
309
=
 40
0.0
 41
2458295.114997454
 42
2458302.364456169
  1

 90
        0
  0
LAYOUT
  5
1E
102
{ACAD_REACTORS
330
1A
102
}
330
1A
100
AcDbPlotSettings
  1

  2
none_device
  4

  6

 40
0.0
 41
0.0
 42
0.0
 43
0.0
 44
0.0
 45
0.0
 46
0.0
 47
0.0
 48
0.0
 49
0.0
140
0.0
141
0.0
142
1.0
143
1.0
 70
   688
 72
     1
 73
     0
 74
     5
  7

 75
    16
147
1.0
148
0.0
149
0.0
100
AcDbLayout
  1
Layout1
 70
     1
 71
     1
 10
0.0
 20
0.0
 11
420.0
 21
297.0
 12
0.0
 22
0.0
 32
0.0
 14
1.000000000000000E+20
 24
1.000000000000000E+20
 34
1.000000000000000E+20
 15
-1.000000000000000E+20
 25
-1.000000000000000E+20
 35
-1.000000000000000E+20
146
0.0
 13
0.0
 23
0.0
 33
0.0
 16
1.0
 26
0.0
 36
0.0
 17
0.0
 27
1.0
 37
0.0
 76
     0
330
1B
  0
LAYOUT
  5
26
102
{ACAD_REACTORS
330
1A
102
}
330
1A
100
AcDbPlotSettings
  1

  2
none_device
  4

  6

 40
0.0
 41
0.0
 42
0.0
 43
0.0
 44
0.0
 45
0.0
 46
0.0
 47
0.0
 48
0.0
 49
0.0
140
0.0
141
0.0
142
1.0
143
1.0
 70
   688
 72
     1
 73
     0
 74
     5
  7

 75
    16
147
1.0
148
0.0
149
0.0
100
AcDbLayout
  1
Layout2
 70
     1
 71
     2
 10
0.0
 20
0.0
 11
0.0
 21
0.0
 12
0.0
 22
0.0
 32
0.0
 14
0.0
 24
0.0
 34
0.0
 15
0.0
 25
0.0
 35
0.0
146
0.0
 13
0.0
 23
0.0
 33
0.0
 16
1.0
 26
0.0
 36
0.0
 17
0.0
 27
1.0
 37
0.0
 76
     0
330
23
  0
LAYOUT
  5
22
102
{ACAD_REACTORS
330
1A
102
}
330
1A
100
AcDbPlotSettings
  1

  2
none_device
  4
ANSI_A_(11.00_x_8.50_Inches)
  6

 40
6.35
 41
19.05
 42
6.35000508
 43
19.05000254
 44
279.4
 45
215.9
 46
103.6271574961274
 47
100.5234407195921
 48
0.0
 49
0.0
140
0.0
141
0.0
142
0.0737985546853514
143
1.0
 70
  1696
 72
     0
 73
     0
 74
     0
  7

 75
     0
147
0.0235690232323232
148
0.0
149
0.0
100
AcDbLayout
  1
Model
 70
     1
 71
     0
 10
0.0
 20
0.0
 11
420.0
 21
297.0
 12
0.0
 22
0.0
 32
0.0
 14
-55.85750000000007
 24
-50.03149670394835
 34
0.0
 15
85.28848381534557
 25
37.55681068486358
 35
0.0
146
0.0
 13
0.0
 23
0.0
 33
0.0
 16
1.0
 26
0.0
 36
0.0
 17
0.0
 27
1.0
 37
0.0
 76
     0
330
1F
331
29
  0
MLINESTYLE
  5
18
102
{ACAD_REACTORS
330
17
102
}
330
17
100
AcDbMlineStyle
  2
Standard
 70
     0
  3

 62
   256
 51
90.0
 52
90.0
 71
     2
 49
0.5
 62
   256
  6
BYLAYER
 49
-0.5
 62
   256
  6
BYLAYER
  0
ACDBPLACEHOLDER
  5
F
102
{ACAD_REACTORS
330
E
102
}
330
E
  0
SCALE
  5
48
102
{ACAD_REACTORS
330
47
102
}
330
47
100
AcDbScale
 70
     0
300
1:1
140
1.0
141
1.0
290
     1
  0
SCALE
  5
49
102
{ACAD_REACTORS
330
47
102
}
330
47
100
AcDbScale
 70
     0
300
1:2
140
1.0
141
2.0
290
     0
  0
SCALE
  5
4A
102
{ACAD_REACTORS
330
47
102
}
330
47
100
AcDbScale
 70
     0
300
1:4
140
1.0
141
4.0
290
     0
  0
SCALE
  5
4B
102
{ACAD_REACTORS
330
47
102
}
330
47
100
AcDbScale
 70
     0
300
1:5
140
1.0
141
5.0
290
     0
  0
SCALE
  5
4C
102
{ACAD_REACTORS
330
47
102
}
330
47
100
AcDbScale
 70
     0
300
1:8
140
1.0
141
8.0
290
     0
  0
SCALE
  5
4D
102
{ACAD_REACTORS
330
47
102
}
330
47
100
AcDbScale
 70
     0
300
1:10
140
1.0
141
10.0
290
     0
  0
SCALE
  5
4E
102
{ACAD_REACTORS
330
47
102
}
330
47
100
AcDbScale
 70
     0
300
1:16
140
1.0
141
16.0
290
     0
  0
SCALE
  5
4F
102
{ACAD_REACTORS
330
47
102
}
330
47
100
AcDbScale
 70
     0
300
1:20
140
1.0
141
20.0
290
     0
  0
SCALE
  5
50
102
{ACAD_REACTORS
330
47
102
}
330
47
100
AcDbScale
 70
     0
300
1:30
140
1.0
141
30.0
290
     0
  0
SCALE
  5
51
102
{ACAD_REACTORS
330
47
102
}
330
47
100
AcDbScale
 70
     0
300
1:40
140
1.0
141
40.0
290
     0
  0
SCALE
  5
52
102
{ACAD_REACTORS
330
47
102
}
330
47
100
AcDbScale
 70
     0
300
1:50
140
1.0
141
50.0
290
     0
  0
SCALE
  5
53
102
{ACAD_REACTORS
330
47
102
}
330
47
100
AcDbScale
 70
     0
300
1:100
140
1.0
141
100.0
290
     0
  0
SCALE
  5
54
102
{ACAD_REACTORS
330
47
102
}
330
47
100
AcDbScale
 70
     0
300
2:1
140
2.0
141
1.0
290
     0
  0
SCALE
  5
55
102
{ACAD_REACTORS
330
47
102
}
330
47
100
AcDbScale
 70
     0
300
4:1
140
4.0
141
1.0
290
     0
  0
SCALE
  5
56
102
{ACAD_REACTORS
330
47
102
}
330
47
100
AcDbScale
 70
     0
300
8:1
140
8.0
141
1.0
290
     0
  0
SCALE
  5
57
102
{ACAD_REACTORS
330
47
102
}
330
47
100
AcDbScale
 70
     0
300
10:1
140
10.0
141
1.0
290
     0
  0
SCALE
  5
58
102
{ACAD_REACTORS
330
47
102
}
330
47
100
AcDbScale
 70
     0
300
100:1
140
100.0
141
1.0
290
     0
  0
SCALE
  5
59
102
{ACAD_REACTORS
330
47
102
}
330
47
100
AcDbScale
 70
     0
300
1/128" = 1'-0"
140
0.0078125
141
12.0
290
     0
  0
SCALE
  5
5A
102
{ACAD_REACTORS
330
47
102
}
330
47
100
AcDbScale
 70
     0
300
1/64" = 1'-0"
140
0.015625
141
12.0
290
     0
  0
SCALE
  5
5B
102
{ACAD_REACTORS
330
47
102
}
330
47
100
AcDbScale
 70
     0
300
1/32" = 1'-0"
140
0.03125
141
12.0
290
     0
  0
SCALE
  5
5C
102
{ACAD_REACTORS
330
47
102
}
330
47
100
AcDbScale
 70
     0
300
1/16" = 1'-0"
140
0.0625
141
12.0
290
     0
  0
SCALE
  5
5D
102
{ACAD_REACTORS
330
47
102
}
330
47
100
AcDbScale
 70
     0
300
3/32" = 1'-0"
140
0.09375
141
12.0
290
     0
  0
SCALE
  5
5E
102
{ACAD_REACTORS
330
47
102
}
330
47
100
AcDbScale
 70
     0
300
1/8" = 1'-0"
140
0.125
141
12.0
290
     0
  0
SCALE
  5
5F
102
{ACAD_REACTORS
330
47
102
}
330
47
100
AcDbScale
 70
     0
300
3/16" = 1'-0"
140
0.1875
141
12.0
290
     0
  0
SCALE
  5
60
102
{ACAD_REACTORS
330
47
102
}
330
47
100
AcDbScale
 70
     0
300
1/4" = 1'-0"
140
0.25
141
12.0
290
     0
  0
SCALE
  5
61
102
{ACAD_REACTORS
330
47
102
}
330
47
100
AcDbScale
 70
     0
300
3/8" = 1'-0"
140
0.375
141
12.0
290
     0
  0
SCALE
  5
62
102
{ACAD_REACTORS
330
47
102
}
330
47
100
AcDbScale
 70
     0
300
1/2" = 1'-0"
140
0.5
141
12.0
290
     0
  0
SCALE
  5
63
102
{ACAD_REACTORS
330
47
102
}
330
47
100
AcDbScale
 70
     0
300
3/4" = 1'-0"
140
0.75
141
12.0
290
     0
  0
SCALE
  5
64
102
{ACAD_REACTORS
330
47
102
}
330
47
100
AcDbScale
 70
     0
300
1" = 1'-0"
140
1.0
141
12.0
290
     0
  0
SCALE
  5
65
102
{ACAD_REACTORS
330
47
102
}
330
47
100
AcDbScale
 70
     0
300
1-1/2" = 1'-0"
140
1.5
141
12.0
290
     0
  0
SCALE
  5
66
102
{ACAD_REACTORS
330
47
102
}
330
47
100
AcDbScale
 70
     0
300
3" = 1'-0"
140
3.0
141
12.0
290
     0
  0
SCALE
  5
67
102
{ACAD_REACTORS
330
47
102
}
330
47
100
AcDbScale
 70
     0
300
6" = 1'-0"
140
6.0
141
12.0
290
     0
  0
SCALE
  5
68
102
{ACAD_REACTORS
330
47
102
}
330
47
100
AcDbScale
 70
     0
300
1'-0" = 1'-0"
140
12.0
141
12.0
290
     0
  0
ENDSEC
  0
EOF
