  0
SECTION
  2
HEADER
  9
$ACADVER
  1
AC1015
  9
$ACADMAINTVER
 70
     6
  9
$DWGCODEPAGE
  3
ANSI_949
  9
$INSBASE
 10
0.0
 20
0.0
 30
0.0
  9
$EXTMIN
 10
-61.89000000000004
 20
-49.97180738881175
 30
0.0
  9
$EXTMAX
 10
78.93848381534559
 20
39.64150000000012
 30
0.0
  9
$LIMMIN
 10
0.0
 20
0.0
  9
$LIMMAX
 10
420.0
 20
297.0
  9
$ORTHOMODE
 70
     1
  9
$REGENMODE
 70
     1
  9
$FILLMODE
 70
     1
  9
$QTEXTMODE
 70
     0
  9
$MIRRTEXT
 70
     1
  9
$LTSCALE
 40
1.0
  9
$ATTMODE
 70
     1
  9
$TEXTSIZE
 40
3.5
  9
$TRACEWID
 40
1.0
  9
$TEXTSTYLE
  7
Standard
  9
$CLAYER
  8
0
  9
$CELTYPE
  6
ByLayer
  9
$CECOLOR
 62
   256
  9
$CELTSCALE
 40
1.0
  9
$DISPSILH
 70
     0
  9
$DIMSCALE
 40
1.0
  9
$DIMASZ
 40
3.302
  9
$DIMEXO
 40
1.0
  9
$DIMDLI
 40
3.75
  9
$DIMRND
 40
0.0
  9
$DIMDLE
 40
0.0
  9
$DIMEXE
 40
1.0
  9
$DIMTP
 40
0.0
  9
$DIMTM
 40
0.0
  9
$DIMTXT
 40
3.5
  9
$DIMCEN
 40
2.5
  9
$DIMTSZ
 40
0.0
  9
$DIMTOL
 70
     0
  9
$DIMLIM
 70
     0
  9
$DIMTIH
 70
     1
  9
$DIMTOH
 70
     1
  9
$DIMSE1
 70
     0
  9
$DIMSE2
 70
     0
  9
$DIMTAD
 70
     1
  9
$DIMZIN
 70
     0
  9
$DIMBLK
  1

  9
$DIMASO
 70
     1
  9
$DIMSHO
 70
     1
  9
$DIMPOST
  1

  9
$DIMAPOST
  1

  9
$DIMALT
 70
     0
  9
$DIMALTD
 70
     3
  9
$DIMALTF
 40
0.0393700787401575
  9
$DIMLFAC
 40
1.0
  9
$DIMTOFL
 70
     1
  9
$DIMTVP
 40
0.0
  9
$DIMTIX
 70
     0
  9
$DIMSOXD
 70
     0
  9
$DIMSAH
 70
     0
  9
$DIMBLK1
  1

  9
$DIMBLK2
  1

  9
$DIMSTYLE
  2
ISO-25
  9
$DIMCLRD
 70
     0
  9
$DIMCLRE
 70
     0
  9
$DIMCLRT
 70
     0
  9
$DIMTFAC
 40
1.0
  9
$DIMGAP
 40
1.524
  9
$DIMJUST
 70
     0
  9
$DIMSD1
 70
     0
  9
$DIMSD2
 70
     0
  9
$DIMTOLJ
 70
     0
  9
$DIMTZIN
 70
     0
  9
$DIMALTZ
 70
     0
  9
$DIMALTTZ
 70
     0
  9
$DIMUPT
 70
     0
  9
$DIMDEC
 70
     2
  9
$DIMTDEC
 70
     2
  9
$DIMALTU
 70
     2
  9
$DIMALTTD
 70
     3
  9
$DIMTXSTY
  7
Standard
  9
$DIMAUNIT
 70
     0
  9
$DIMADEC
 70
     2
  9
$DIMALTRND
 40
0.0
  9
$DIMAZIN
 70
     0
  9
$DIMDSEP
 70
    44
  9
$DIMATFIT
 70
     3
  9
$DIMFRAC
 70
     0
  9
$DIMLDRBLK
  1

  9
$DIMLUNIT
 70
     2
  9
$DIMLWD
 70
    -2
  9
$DIMLWE
 70
    -2
  9
$DIMTMOVE
 70
     0
  9
$LUNITS
 70
     2
  9
$LUPREC
 70
     2
  9
$SKETCHINC
 40
1.0
  9
$FILLETRAD
 40
10.0
  9
$AUNITS
 70
     0
  9
$AUPREC
 70
     2
  9
$MENU
  1
.
  9
$ELEVATION
 40
0.0
  9
$PELEVATION
 40
0.0
  9
$THICKNESS
 40
0.0
  9
$LIMCHECK
 70
     0
  9
$CHAMFERA
 40
0.0
  9
$CHAMFERB
 40
0.0
  9
$CHAMFERC
 40
0.0
  9
$CHAMFERD
 40
0.0
  9
$SKPOLY
 70
     0
  9
$TDCREATE
 40
2458295.490186134
  9
$TDUCREATE
 40
2458295.115186134
  9
$TDUPDATE
 40
2458301.986396215
  9
$TDUUPDATE
 40
2458301.611396215
  9
$TDINDWG
 40
0.0007177894
  9
$TDUSRTIMER
 40
0.0023484491
  9
$USRTIMER
 70
     1
  9
$ANGBASE
 50
0.0
  9
$ANGDIR
 70
     0
  9
$PDMODE
 70
     0
  9
$PDSIZE
 40
-1.0
  9
$PLINEWID
 40
0.0
  9
$SPLFRAME
 70
     0
  9
$SPLINETYPE
 70
     6
  9
$SPLINESEGS
 70
     8
  9
$HANDSEED
  5
19F
  9
$SURFTAB1
 70
     6
  9
$SURFTAB2
 70
     6
  9
$SURFTYPE
 70
     6
  9
$SURFU
 70
     6
  9
$SURFV
 70
     6
  9
$UCSBASE
  2

  9
$UCSNAME
  2

  9
$UCSORG
 10
0.0
 20
0.0
 30
0.0
  9
$UCSXDIR
 10
1.0
 20
0.0
 30
0.0
  9
$UCSYDIR
 10
0.0
 20
1.0
 30
0.0
  9
$UCSORTHOREF
  2

  9
$UCSORTHOVIEW
 70
     0
  9
$UCSORGTOP
 10
0.0
 20
0.0
 30
0.0
  9
$UCSORGBOTTOM
 10
0.0
 20
0.0
 30
0.0
  9
$UCSORGLEFT
 10
0.0
 20
0.0
 30
0.0
  9
$UCSORGRIGHT
 10
0.0
 20
0.0
 30
0.0
  9
$UCSORGFRONT
 10
0.0
 20
0.0
 30
0.0
  9
$UCSORGBACK
 10
0.0
 20
0.0
 30
0.0
  9
$PUCSBASE
  2

  9
$PUCSNAME
  2

  9
$PUCSORG
 10
0.0
 20
0.0
 30
0.0
  9
$PUCSXDIR
 10
1.0
 20
0.0
 30
0.0
  9
$PUCSYDIR
 10
0.0
 20
1.0
 30
0.0
  9
$PUCSORTHOREF
  2

  9
$PUCSORTHOVIEW
 70
     0
  9
$PUCSORGTOP
 10
0.0
 20
0.0
 30
0.0
  9
$PUCSORGBOTTOM
 10
0.0
 20
0.0
 30
0.0
  9
$PUCSORGLEFT
 10
0.0
 20
0.0
 30
0.0
  9
$PUCSORGRIGHT
 10
0.0
 20
0.0
 30
0.0
  9
$PUCSORGFRONT
 10
0.0
 20
0.0
 30
0.0
  9
$PUCSORGBACK
 10
0.0
 20
0.0
 30
0.0
  9
$USERI1
 70
     0
  9
$USERI2
 70
     0
  9
$USERI3
 70
     0
  9
$USERI4
 70
     0
  9
$USERI5
 70
     0
  9
$USERR1
 40
0.0
  9
$USERR2
 40
0.0
  9
$USERR3
 40
0.0
  9
$USERR4
 40
0.0
  9
$USERR5
 40
0.0
  9
$WORLDVIEW
 70
     1
  9
$SHADEDGE
 70
     3
  9
$SHADEDIF
 70
    70
  9
$TILEMODE
 70
     1
  9
$MAXACTVP
 70
    64
  9
$PINSBASE
 10
0.0
 20
0.0
 30
0.0
  9
$PLIMCHECK
 70
     0
  9
$PEXTMIN
 10
1.000000000000000E+20
 20
1.000000000000000E+20
 30
1.000000000000000E+20
  9
$PEXTMAX
 10
-1.000000000000000E+20
 20
-1.000000000000000E+20
 30
-1.000000000000000E+20
  9
$PLIMMIN
 10
0.0
 20
0.0
  9
$PLIMMAX
 10
0.0
 20
0.0
  9
$UNITMODE
 70
     0
  9
$VISRETAIN
 70
     1
  9
$PLINEGEN
 70
     0
  9
$PSLTSCALE
 70
     1
  9
$TREEDEPTH
 70
  3020
  9
$CMLSTYLE
  2
Standard
  9
$CMLJUST
 70
     0
  9
$CMLSCALE
 40
20.0
  9
$PROXYGRAPHICS
 70
     1
  9
$MEASUREMENT
 70
     1
  9
$CELWEIGHT
370
    -1
  9
$ENDCAPS
280
     0
  9
$JOINSTYLE
280
     0
  9
$LWDISPLAY
290
     1
  9
$INSUNITS
 70
     4
  9
$HYPERLINKBASE
  1

  9
$STYLESHEET
  1

  9
$XEDIT
290
     1
  9
$CEPSNTYPE
380
     0
  9
$PSTYLEMODE
290
     1
  9
$FINGERPRINTGUID
  2
{B4B09C0C-5A64-49C4-A4DD-4458FD9C3416}
  9
$VERSIONGUID
  2
{FAEB1C32-E019-11D5-929B-00C0DF256EC4}
  9
$EXTNAMES
290
     1
  9
$PSVPSCALE
 40
0.0
  9
$OLESTARTUP
290
     0
  0
ENDSEC
  0
SECTION
  2
CLASSES
  0
CLASS
  1
ACDBDICTIONARYWDFLT
  2
AcDbDictionaryWithDefault
  3
ObjectDBX Classes
 90
        0
280
     0
281
     0
  0
CLASS
  1
VISUALSTYLE
  2
AcDbVisualStyle
  3
ObjectDBX Classes
 90
     4095
280
     0
281
     0
  0
CLASS
  1
MATERIAL
  2
AcDbMaterial
  3
ObjectDBX Classes
 90
     1153
280
     0
281
     0
  0
CLASS
  1
SCALE
  2
AcDbScale
  3
ObjectDBX Classes
 90
     1153
280
     0
281
     0
  0
CLASS
  1
SUN
  2
AcDbSun
  3
SCENEOE
 90
     1153
280
     0
281
     0
  0
CLASS
  1
ACDBPLACEHOLDER
  2
AcDbPlaceHolder
  3
ObjectDBX Classes
 90
        0
280
     0
281
     0
  0
CLASS
  1
LAYOUT
  2
AcDbLayout
  3
ObjectDBX Classes
 90
        0
280
     0
281
     0
  0
CLASS
  1
TABLESTYLE
  2
AcDbTableStyle
  3
ObjectDBX Classes
 90
     4095
280
     0
281
     0
  0
CLASS
  1
MLEADERSTYLE
  2
AcDbMLeaderStyle
  3
ACDB_MLEADERSTYLE_CLASS
 90
     4095
280
     0
281
     0
  0
CLASS
  1
DICTIONARYVAR
  2
AcDbDictionaryVar
  3
ObjectDBX Classes
 90
        0
280
     0
281
     0
  0
ENDSEC
  0
SECTION
  2
TABLES
  0
TABLE
  2
VPORT
  5
8
330
0
100
AcDbSymbolTable
 70
     1
  0
VPORT
  5
29
330
8
100
AcDbSymbolTableRecord
100
AcDbViewportTableRecord
  2
*Active
 70
     0
 10
0.0
 20
0.0
 11
1.0
 21
1.0
 12
8.524241907672774
 22
-5.165153694405817
 13
0.0
 23
0.0
 14
10.0
 24
10.0
 15
10.0
 25
10.0
 16
0.0
 26
0.0
 36
1.0
 17
0.0
 27
0.0
 37
0.0
 40
91.40557353658808
 41
2.400311526479751
 42
50.0
 43
0.0
 44
0.0
 50
0.0
 51
0.0
 71
    16
 72
  2000
 73
     1
 74
     3
 75
     0
 76
     0
 77
     0
 78
     0
281
     0
 65
     1
110
0.0
120
0.0
130
0.0
111
1.0
121
0.0
131
0.0
112
0.0
122
1.0
132
0.0
 79
     0
146
0.0
  0
ENDTAB
  0
TABLE
  2
LTYPE
  5
5
330
0
100
AcDbSymbolTable
 70
     6
  0
LTYPE
  5
14
330
5
100
AcDbSymbolTableRecord
100
AcDbLinetypeTableRecord
  2
ByBlock
 70
     0
  3

 72
    65
 73
     0
 40
0.0
  0
LTYPE
  5
15
330
5
100
AcDbSymbolTableRecord
100
AcDbLinetypeTableRecord
  2
ByLayer
 70
     0
  3

 72
    65
 73
     0
 40
0.0
  0
LTYPE
  5
16
330
5
100
AcDbSymbolTableRecord
100
AcDbLinetypeTableRecord
  2
Continuous
 70
     0
  3
Solid line
 72
    65
 73
     0
 40
0.0
  0
LTYPE
  5
6A
330
5
100
AcDbSymbolTableRecord
100
AcDbLinetypeTableRecord
  2
HIDDEN
 70
     0
  3
Hidden __ __ __ __ __ __ __ __ __ __ __ __ __ __
 72
    65
 73
     2
 40
1.905
 49
1.27
 74
     0
 49
-0.635
 74
     0
  0
LTYPE
  5
6B
330
5
100
AcDbSymbolTableRecord
100
AcDbLinetypeTableRecord
  2
PHANTOM
 70
     0
  3
Phantom ______  __  __  ______  __  __  ______
 72
    65
 73
     6
 40
12.7
 49
6.35
 74
     0
 49
-1.27
 74
     0
 49
1.27
 74
     0
 49
-1.27
 74
     0
 49
1.27
 74
     0
 49
-1.27
 74
     0
  0
LTYPE
  5
6C
330
5
100
AcDbSymbolTableRecord
100
AcDbLinetypeTableRecord
  2
CENTER
 70
     0
  3
Center ____ _ ____ _ ____ _ ____ _ ____ _ ____
 72
    65
 73
     4
 40
10.16
 49
6.35
 74
     0
 49
-1.27
 74
     0
 49
1.27
 74
     0
 49
-1.27
 74
     0
  0
LTYPE
  5
6D
330
5
100
AcDbSymbolTableRecord
100
AcDbLinetypeTableRecord
  2
CENTERX2
 70
     0
  3
Center (2x) ________  __  ________  __  _____
 72
    65
 73
     4
 40
20.32
 49
12.7
 74
     0
 49
-2.54
 74
     0
 49
2.54
 74
     0
 49
-2.54
 74
     0
  0
LTYPE
  5
6E
330
5
100
AcDbSymbolTableRecord
100
AcDbLinetypeTableRecord
  2
DOT2
 70
     0
  3
Dot (.5x) ........................................
 72
    65
 73
     2
 40
0.635
 49
0.0
 74
     0
 49
-0.635
 74
     0
  0
ENDTAB
  0
TABLE
  2
LAYER
  5
2
330
0
100
AcDbSymbolTable
 70
    18
  0
LAYER
  5
10
330
2
100
AcDbSymbolTableRecord
100
AcDbLayerTableRecord
  2
0
 70
     0
 62
     7
  6
Continuous
370
    -3
390
F
  0
LAYER
  5
6F
330
2
100
AcDbSymbolTableRecord
100
AcDbLayerTableRecord
  2
FORMAT
 70
     0
 62
     2
  6
Continuous
370
    -3
390
F
  0
LAYER
  5
70
330
2
100
AcDbSymbolTableRecord
100
AcDbLayerTableRecord
  2
외형선
 70
     0
 62
     4
  6
Continuous
370
    30
390
F
  0
LAYER
  5
71
330
2
100
AcDbSymbolTableRecord
100
AcDbLayerTableRecord
  2
숨은선
 70
     0
 62
     2
  6
HIDDEN
370
    15
390
F
  0
LAYER
  5
72
330
2
100
AcDbSymbolTableRecord
100
AcDbLayerTableRecord
  2
중심선
 70
     0
 62
     1
  6
CENTERX2
370
    -3
390
F
  0
LAYER
  5
73
330
2
100
AcDbSymbolTableRecord
100
AcDbLayerTableRecord
  2
파단선
 70
     0
 62
     4
  6
Continuous
370
    -3
390
F
  0
LAYER
  5
74
330
2
100
AcDbSymbolTableRecord
100
AcDbLayerTableRecord
  2
해칭선
 70
     0
 62
   100
  6
Continuous
370
    -3
390
F
  0
LAYER
  5
75
330
2
100
AcDbSymbolTableRecord
100
AcDbLayerTableRecord
  2
가는실선
 70
     0
 62
     4
  6
Continuous
370
    -3
390
F
  0
LAYER
  5
76
330
2
100
AcDbSymbolTableRecord
100
AcDbLayerTableRecord
  2
치수_보조선
 70
     0
 62
     4
  6
Continuous
370
    -3
390
F
  0
LAYER
  5
77
330
2
100
AcDbSymbolTableRecord
100
AcDbLayerTableRecord
  2
치수문자_일반주서
 70
     0
 62
     7
  6
Continuous
370
    15
390
F
  0
LAYER
  5
78
330
2
100
AcDbSymbolTableRecord
100
AcDbLayerTableRecord
  2
개별주서
 70
     0
 62
   100
  6
Continuous
370
    30
390
F
  0
LAYER
  5
79
330
2
100
AcDbSymbolTableRecord
100
AcDbLayerTableRecord
  2
중간선
 70
     0
 62
     2
  6
Continuous
370
    15
390
F
  0
LAYER
  5
7A
330
2
100
AcDbSymbolTableRecord
100
AcDbLayerTableRecord
  2
윤곽선
 70
     0
 62
     3
  6
Continuous
370
    40
390
F
  0
LAYER
  5
7B
330
2
100
AcDbSymbolTableRecord
100
AcDbLayerTableRecord
  2
중심마크
 70
     0
 62
   100
  6
Continuous
370
    30
390
F
  0
LAYER
  5
7C
330
2
100
AcDbSymbolTableRecord
100
AcDbLayerTableRecord
  2
가상선
 70
     0
 62
     4
  6
PHANTOM
370
    -3
390
F
  0
LAYER
  5
7D
330
2
100
AcDbSymbolTableRecord
100
AcDbLayerTableRecord
  2
특수지정선
 70
     0
 62
     5
  6
CENTERX2
370
    60
390
F
  0
LAYER
  5
7E
330
2
100
AcDbSymbolTableRecord
100
AcDbLayerTableRecord
  2
참조1
 70
     0
 62
    -4
  6
Continuous
370
    -3
390
F
  0
LAYER
  5
161
330
2
100
AcDbSymbolTableRecord
100
AcDbLayerTableRecord
  2
Defpoints
 70
     0
 62
     7
  6
Continuous
290
     0
370
    -3
390
F
  0
ENDTAB
  0
TABLE
  2
STYLE
  5
3
330
0
100
AcDbSymbolTable
 70
     2
  0
STYLE
  5
11
330
3
100
AcDbSymbolTableRecord
100
AcDbTextStyleTableRecord
  2
Standard
 70
     0
 40
0.0
 41
1.0
 50
0.0
 71
     0
 42
3.5
  3
txt
  4

  0
STYLE
  5
94
330
3
100
AcDbSymbolTableRecord
100
AcDbTextStyleTableRecord
  2
SLDTEXTSTYLE0
 70
     0
 40
0.0
 41
0.75
 50
0.0
 71
     0
 42
3.5
  3
TXT
  4

  0
ENDTAB
  0
TABLE
  2
VIEW
  5
6
330
0
100
AcDbSymbolTable
 70
     0
  0
ENDTAB
  0
TABLE
  2
UCS
  5
7
330
0
100
AcDbSymbolTable
 70
     0
  0
ENDTAB
  0
TABLE
  2
APPID
  5
9
330
0
100
AcDbSymbolTable
 70
     4
  0
APPID
  5
12
330
9
100
AcDbSymbolTableRecord
100
AcDbRegAppTableRecord
  2
ACAD
 70
     0
  0
APPID
  5
167
330
9
100
AcDbSymbolTableRecord
100
AcDbRegAppTableRecord
  2
PE_URL
 70
     0
  0
APPID
  5
19D
330
9
100
AcDbSymbolTableRecord
100
AcDbRegAppTableRecord
  2
ACAD_DSTYLE_DIMFLIPARROW_SYMBOL
 70
     0
  0
APPID
  5
19E
330
9
100
AcDbSymbolTableRecord
100
AcDbRegAppTableRecord
  2
ACAD_DSTYLE_DIMFLIPARROW_WHICH_SYMBOL
 70
     0
  0
ENDTAB
  0
TABLE
  2
DIMSTYLE
  5
A
330
0
100
AcDbSymbolTable
 70
     4
100
AcDbDimStyleTable
  0
DIMSTYLE
105
27
102
{ACAD_REACTORS
330
187
330
18D
102
}
330
A
100
AcDbSymbolTableRecord
100
AcDbDimStyleTableRecord
  2
ISO-25
 70
     0
 41
2.5
 42
0.625
 43
3.75
 44
1.25
 73
     0
 74
     0
 77
     1
 78
     8
140
2.5
141
2.5
143
0.03937007874016
147
0.625
171
     3
172
     1
178
     0
271
     2
272
     2
274
     3
278
    44
283
     0
284
     8
340
11
  0
DIMSTYLE
105
E0
102
{ACAD_REACTORS
330
DF
330
109
330
F5
330
11D
102
}
330
A
100
AcDbSymbolTableRecord
100
AcDbDimStyleTableRecord
  2
SLDDIMSTYLE0
 70
     0
 41
3.302
 44
0.0
 45
0.000000001
 73
     0
 74
     0
 77
     1
 78
     4
 79
     1
140
3.5
143
0.0393700787401575
147
0.875
148
0.000000001
170
     1
172
     1
173
     1
178
     0
271
     2
272
     2
276
     2
284
    12
289
     0
340
94
  0
DIMSTYLE
105
F6
330
A
100
AcDbSymbolTableRecord
100
AcDbDimStyleTableRecord
  2
SLDDIMSTYLE1
 70
     0
 41
3.302
 44
0.0
 45
0.000000001
 73
     0
 74
     0
 77
     1
 78
    12
 79
     3
140
3.5
143
0.0393700787401575
147
0.875
148
0.000000001
170
     1
173
     1
178
     0
271
     2
272
     2
276
     2
284
    12
340
94
  0
DIMSTYLE
105
11E
330
A
100
AcDbSymbolTableRecord
100
AcDbDimStyleTableRecord
  2
SLDDIMSTYLE2
 70
     0
 41
3.302
 44
0.0
 45
0.000000001
 73
     0
 74
     0
 77
     1
 78
     4
 79
     1
140
3.5
143
0.0393700787401575
147
0.875
148
0.000000001
170
     1
173
     1
178
     0
271
     2
272
     2
276
     2
284
    12
340
94
  0
ENDTAB
  0
TABLE
  2
BLOCK_RECORD
  5
1
330
0
100
AcDbSymbolTable
 70
     8
  0
BLOCK_RECORD
  5
1F
330
1
100
AcDbSymbolTableRecord
100
AcDbBlockTableRecord
  2
*Model_Space
340
22
  0
BLOCK_RECORD
  5
1B
330
1
100
AcDbSymbolTableRecord
100
AcDbBlockTableRecord
  2
*Paper_Space
340
1E
  0
BLOCK_RECORD
  5
23
330
1
100
AcDbSymbolTableRecord
100
AcDbBlockTableRecord
  2
*Paper_Space0
340
26
  0
BLOCK_RECORD
  5
7F
330
1
100
AcDbSymbolTableRecord
100
AcDbBlockTableRecord
  2
블럭10
340
0
102
{BLKREFS
331
D8
102
}
  0
BLOCK_RECORD
  5
E1
330
1
100
AcDbSymbolTableRecord
100
AcDbBlockTableRecord
  2
_D
340
0
  0
BLOCK_RECORD
  5
F7
330
1
100
AcDbSymbolTableRecord
100
AcDbBlockTableRecord
  2
_D_1
340
0
  0
BLOCK_RECORD
  5
10A
330
1
100
AcDbSymbolTableRecord
100
AcDbBlockTableRecord
  2
_D_2
340
0
  0
BLOCK_RECORD
  5
11F
330
1
100
AcDbSymbolTableRecord
100
AcDbBlockTableRecord
  2
_D_3
340
0
  0
BLOCK_RECORD
  5
138
330
1
100
AcDbSymbolTableRecord
100
AcDbBlockTableRecord
  2
SW_DOWELSYMBOL_0
340
0
102
{BLKREFS
331
13E
102
}
  0
ENDTAB
  0
ENDSEC
  0
SECTION
  2
BLOCKS
  0
BLOCK
  5
20
330
1F
100
AcDbEntity
  8
0
100
AcDbBlockBegin
  2
*Model_Space
 70
     0
 10
0.0
 20
0.0
 30
0.0
  3
*Model_Space
  1

  0
ENDBLK
  5
21
330
1F
100
AcDbEntity
  8
0
100
AcDbBlockEnd
  0
BLOCK
  5
1C
330
1B
100
AcDbEntity
 67
     1
  8
0
100
AcDbBlockBegin
  2
*Paper_Space
 70
     0
 10
0.0
 20
0.0
 30
0.0
  3
*Paper_Space
  1

  0
ENDBLK
  5
1D
330
1B
100
AcDbEntity
 67
     1
  8
0
100
AcDbBlockEnd
  0
BLOCK
  5
24
330
23
100
AcDbEntity
  8
0
100
AcDbBlockBegin
  2
*Paper_Space0
 70
     0
 10
0.0
 20
0.0
 30
0.0
  3
*Paper_Space0
  1

  0
ENDBLK
  5
25
330
23
100
AcDbEntity
  8
0
100
AcDbBlockEnd
  0
BLOCK
  5
80
330
7F
100
AcDbEntity
  8
0
100
AcDbBlockBegin
  2
블럭10
 70
     2
 10
0.0
 20
0.0
 30
0.0
  3
블럭10
  1

  0
ELLIPSE
  5
82
330
7F
100
AcDbEntity
  8
중심선
100
AcDbEllipse
 10
20.54032771741204
 20
12.0471743016438
 30
0.0
 11
6.600054785286829
 21
-1.261213355974178E-13
 31
0.0
210
0.0
220
0.0
230
1.0
 40
0.636358354079598
 41
0.9219305317359503
 42
6.513795318482858
  0
ELLIPSE
  5
83
330
7F
100
AcDbEntity
  8
중심선
100
AcDbEllipse
 10
20.54032771746488
 20
12.04717430159265
 30
0.0
 11
3.960054785062283
 21
1.540847449632565E-10
 31
0.0
210
0.0
220
0.0
230
1.0
 40
0.3939339440162632
 41
1.131841032648279
 42
5.62031148352944
  0
LINE
  5
84
330
7F
100
AcDbEntity
  8
중심선
100
AcDbLine
 10
2.268634060543552
 20
16.24717430164393
 30
0.0
 11
5.714909304380834
 21
16.24717430164393
 31
0.0
  0
LINE
  5
85
330
7F
100
AcDbEntity
  8
중심선
100
AcDbLine
 10
5.245725140726316
 20
7.84717430164391
 30
0.0
 11
8.692000384563599
 21
7.84717430164391
 31
0.0
  0
LINE
  5
86
330
7F
100
AcDbEntity
  8
중심선
100
AcDbLine
 10
15.74043728645272
 20
16.24717430164393
 30
0.0
 11
8.692000384563599
 21
7.84717430164391
 31
0.0
  0
LINE
  5
87
330
7F
100
AcDbEntity
  8
중심선
100
AcDbLine
 10
0.1404042013395286
 20
13.71084872107135
 30
0.0
 11
3.58671253028996
 21
13.71088815037384
 31
0.0
  0
LINE
  5
88
330
7F
100
AcDbEntity
  8
중심선
100
AcDbLine
 10
2.750260043222114
 20
10.84717430164391
 30
0.0
 11
6.196535287059397
 21
10.84717430164391
 31
0.0
  0
LINE
  5
89
330
7F
100
AcDbEntity
  8
중심선
100
AcDbLine
 10
12.29416204261559
 20
16.24717430164393
 30
0.0
 11
5.245725140726316
 21
7.84717430164391
 31
0.0
  0
LINE
  5
8A
330
7F
100
AcDbEntity
  8
중심선
100
AcDbLine
 10
10.72767329541681
 20
16.24717430164393
 30
0.0
 11
6.196535287059397
 21
10.84717430164391
 31
0.0
  0
LINE
  5
8B
330
7F
100
AcDbEntity
  8
중심선
100
AcDbLine
 10
7.28139805157953
 20
16.24717430164393
 30
0.0
 11
2.750260043222114
 21
10.84717430164391
 31
0.0
  0
LINE
  5
8C
330
7F
100
AcDbEntity
  8
중심선
100
AcDbLine
 10
5.714909304380834
 20
16.24717430164393
 30
0.0
 11
3.58671253028996
 21
13.71088815037384
 31
0.0
  0
LINE
  5
8D
330
7F
100
AcDbEntity
  8
중심선
100
AcDbLine
 10
2.268634060543552
 20
16.24717430164393
 30
0.0
 11
0.1404042013395286
 21
13.71084872107135
 31
0.0
  0
LINE
  5
8E
330
7F
100
AcDbEntity
  8
중심선
100
AcDbLine
 10
7.28139805157953
 20
16.24717430164393
 30
0.0
 11
10.72767329541681
 21
16.24717430164393
 31
0.0
  0
LINE
  5
8F
330
7F
100
AcDbEntity
  8
중심선
100
AcDbLine
 10
12.29416204261559
 20
16.24717430164393
 30
0.0
 11
15.74043728645272
 21
16.24717430164393
 31
0.0
  0
LINE
  5
90
330
7F
100
AcDbEntity
  8
중심선
100
AcDbLine
 10
19.22036997980202
 20
11.08717430171403
 30
0.0
 11
23.66174974927406
 21
11.08717430171406
 31
0.0
  0
LINE
  5
91
330
7F
100
AcDbEntity
  8
중심선
100
AcDbLine
 10
19.22039502424796
 20
13.00717430171391
 30
0.0
 11
19.22036997980202
 21
11.08717430171403
 31
0.0
  0
LINE
  5
92
330
7F
100
AcDbEntity
  8
중심선
100
AcDbLine
 10
19.22039502424796
 20
13.00717430171391
 30
0.0
 11
26.96566020931264
 21
13.00717430171391
 31
0.0
  0
LINE
  5
93
330
7F
100
AcDbEntity
  8
중심선
100
AcDbLine
 10
22.22332737316547
 20
13.45928029700563
 30
0.0
 11
24.52862924686651
 21
15.39360700705356
 31
0.0
  0
ATTDEF
  5
95
330
7F
100
AcDbEntity
  8
FORMAT
 62
     2
100
AcDbText
 10
3.448148490846466
 20
2.075366912832191
 30
0.0
 40
4.233333333333333
  1
EM668902
 41
0.75
  7
SLDTEXTSTYLE0
 11
3.448148490846466
 21
-0.0412997538344756
 31
0.0
100
AcDbAttributeDefinition
  3

  2
AUTOATTR0
 70
     0
 74
     1
  0
ENDBLK
  5
81
330
7F
100
AcDbEntity
  8
0
100
AcDbBlockEnd
  0
BLOCK
  5
E2
330
E1
100
AcDbEntity
  8
0
100
AcDbBlockBegin
  2
_D
 70
     0
 10
0.0
 20
0.0
 30
0.0
  3
_D
  1

  0
LINE
  5
E4
330
E1
100
AcDbEntity
  8
치수문자_일반주서
 62
     0
370
    -2
100
AcDbLine
 10
37.40000000000003
 20
5.650499999999999
 30
0.0
 11
37.40000000000003
 21
16.60348928601491
 31
0.0
  0
LINE
  5
E5
330
E1
100
AcDbEntity
  8
치수문자_일반주서
 62
     0
370
    -2
100
AcDbLine
 10
12.0
 20
6.384381731638875
 30
0.0
 11
12.0
 21
16.60348928601491
 31
0.0
  0
LINE
  5
E6
330
E1
100
AcDbEntity
  8
치수문자_일반주서
 62
     0
370
    -2
100
AcDbLine
 10
34.09800000000003
 20
16.60348928601491
 30
0.0
 11
15.302
 21
16.60348928601491
 31
0.0
  0
SOLID
  5
E7
330
E1
100
AcDbEntity
  8
치수문자_일반주서
 62
     0
100
AcDbTrace
 10
34.09800000000003
 20
16.05315595268157
 30
0.0
 11
34.09800000000003
 21
17.15382261934824
 31
0.0
 12
37.40000000000003
 22
16.60348928601491
 32
0.0
 13
37.40000000000003
 23
16.60348928601491
 33
0.0
  0
SOLID
  5
E8
330
E1
100
AcDbEntity
  8
치수문자_일반주서
 62
     0
100
AcDbTrace
 10
15.302
 20
17.15382261934824
 30
0.0
 11
15.302
 21
16.05315595268157
 31
0.0
 12
12.0
 22
16.60348928601491
 32
0.0
 13
12.0
 23
16.60348928601491
 33
0.0
  0
MTEXT
  5
E9
330
E1
100
AcDbEntity
  8
치수문자_일반주서
 62
     0
100
AcDbMText
 10
24.7
 20
20.97848928601491
 30
0.0
 40
3.5
 41
0.0
 71
     2
 72
     1
  1
\A1;25.40 [1]
  7
SLDTEXTSTYLE0
 73
     1
 44
1.0
  0
POINT
  5
EA
330
E1
100
AcDbEntity
  8
Defpoints
 62
     0
100
AcDbPoint
 10
37.40000000000003
 20
5.587999999999999
 30
0.0
  0
POINT
  5
EB
330
E1
100
AcDbEntity
  8
Defpoints
 62
     0
100
AcDbPoint
 10
12.0
 20
6.321881731638875
 30
0.0
  0
POINT
  5
EC
330
E1
100
AcDbEntity
  8
Defpoints
 62
     0
100
AcDbPoint
 10
12.0
 20
16.60348928601491
 30
0.0
  0
ENDBLK
  5
E3
330
E1
100
AcDbEntity
  8
0
100
AcDbBlockEnd
  0
BLOCK
  5
F8
330
F7
100
AcDbEntity
  8
0
100
AcDbBlockBegin
  2
_D_1
 70
     0
 10
0.0
 20
0.0
 30
0.0
  3
_D_1
  1

  0
LINE
  5
FA
330
F7
100
AcDbEntity
  8
치수문자_일반주서
 62
     0
370
    -2
100
AcDbLine
 10
37.40000000000003
 20
5.650499999999999
 30
0.0
 11
37.40000000000002
 21
29.09942038737399
 31
0.0
  0
LINE
  5
FB
330
F7
100
AcDbEntity
  8
치수문자_일반주서
 62
     0
370
    -2
100
AcDbLine
 10
-45.14999999999999
 20
5.1425
 30
0.0
 11
-45.15
 21
29.09942038737399
 31
0.0
  0
LINE
  5
FC
330
F7
100
AcDbEntity
  8
치수문자_일반주서
 62
     0
370
    -2
100
AcDbLine
 10
34.09800000000002
 20
29.09942038737399
 30
0.0
 11
-41.848
 21
29.09942038737399
 31
0.0
  0
SOLID
  5
FD
330
F7
100
AcDbEntity
  8
치수문자_일반주서
 62
     0
100
AcDbTrace
 10
34.09800000000002
 20
28.54908705404066
 30
0.0
 11
34.09800000000002
 21
29.64975372070733
 31
0.0
 12
37.40000000000002
 22
29.09942038737399
 32
0.0
 13
37.40000000000002
 23
29.09942038737399
 33
0.0
  0
SOLID
  5
FE
330
F7
100
AcDbEntity
  8
치수문자_일반주서
 62
     0
100
AcDbTrace
 10
-41.848
 20
29.64975372070733
 30
0.0
 11
-41.848
 21
28.54908705404066
 31
0.0
 12
-45.15
 22
29.09942038737399
 32
0.0
 13
-45.15
 23
29.09942038737399
 33
0.0
  0
MTEXT
  5
FF
330
F7
100
AcDbEntity
  8
치수문자_일반주서
 62
     0
100
AcDbMText
 10
-3.874999999999991
 20
33.474420387374
 30
0.0
 40
3.5
 41
0.0
 71
     2
 72
     1
  1
\A1;82.55 [3 1/4]
  7
SLDTEXTSTYLE0
 73
     1
 44
1.0
  0
POINT
  5
100
330
F7
100
AcDbEntity
  8
Defpoints
 62
     0
100
AcDbPoint
 10
37.40000000000003
 20
5.587999999999999
 30
0.0
  0
POINT
  5
101
330
F7
100
AcDbEntity
  8
Defpoints
 62
     0
100
AcDbPoint
 10
-45.14999999999999
 20
5.08
 30
0.0
  0
POINT
  5
102
330
F7
100
AcDbEntity
  8
Defpoints
 62
     0
100
AcDbPoint
 10
-45.14999999999999
 20
29.09942038737399
 30
0.0
  0
ENDBLK
  5
F9
330
F7
100
AcDbEntity
  8
0
100
AcDbBlockEnd
  0
BLOCK
  5
10B
330
10A
100
AcDbEntity
  8
0
100
AcDbBlockBegin
  2
_D_2
 70
     0
 10
0.0
 20
0.0
 30
0.0
  3
_D_2
  1

  0
LINE
  5
10D
330
10A
100
AcDbEntity
  8
치수문자_일반주서
 62
     0
370
    -2
100
AcDbLine
 10
-43.9425
 20
6.349999999999991
 30
0.0
 11
-57.51500000000003
 21
6.349999999999938
 31
0.0
  0
LINE
  5
10E
330
10A
100
AcDbEntity
  8
치수문자_일반주서
 62
     0
370
    -2
100
AcDbLine
 10
-43.9425
 20
-6.349999999999998
 30
0.0
 11
-57.51499999999999
 21
-6.35000000000005
 31
0.0
  0
LINE
  5
10F
330
10A
100
AcDbEntity
  8
치수문자_일반주서
 62
     0
370
    -2
100
AcDbLine
 10
-57.51500000000003
 20
6.349999999999938
 30
0.0
 11
-57.51499999999999
 21
-6.35000000000005
 31
0.0
  0
LINE
  5
110
330
10A
100
AcDbEntity
  8
치수문자_일반주서
 62
     0
370
    -2
100
AcDbLine
 10
-57.51500000000004
 20
9.651999999999937
 30
0.0
 11
-57.51500000000006
 21
12.95399999999994
 31
0.0
  0
LINE
  5
111
330
10A
100
AcDbEntity
  8
치수문자_일반주서
 62
     0
370
    -2
100
AcDbLine
 10
-57.51499999999997
 20
-9.65200000000005
 30
0.0
 11
-57.51499999999996
 21
-12.95400000000005
 31
0.0
  0
SOLID
  5
112
330
10A
100
AcDbEntity
  8
치수문자_일반주서
 62
     0
100
AcDbTrace
 10
-58.06533333333338
 20
9.651999999999935
 30
0.0
 11
-56.96466666666671
 21
9.651999999999939
 31
0.0
 12
-57.51500000000003
 22
6.349999999999938
 32
0.0
 13
-57.51500000000003
 23
6.349999999999938
 33
0.0
  0
SOLID
  5
113
330
10A
100
AcDbEntity
  8
치수문자_일반주서
 62
     0
100
AcDbTrace
 10
-56.96466666666664
 20
-9.652000000000049
 30
0.0
 11
-58.06533333333331
 21
-9.652000000000053
 31
0.0
 12
-57.51499999999999
 22
-6.35000000000005
 32
0.0
 13
-57.51499999999999
 23
-6.35000000000005
 33
0.0
  0
MTEXT
  5
114
330
10A
100
AcDbEntity
  8
치수문자_일반주서
 62
     0
100
AcDbMText
 10
-61.89000000000001
 20
-0.0000000000000226
 30
0.0
 40
3.5
 41
0.0
 71
     2
 72
     1
  1
\A1;%%c12.70 [1/2]
  7
SLDTEXTSTYLE0
 11
-3.356894814614650E-15
 21
1.0
 31
0.0
 73
     1
 44
1.0
  0
POINT
  5
115
330
10A
100
AcDbEntity
  8
Defpoints
 62
     0
100
AcDbPoint
 10
-43.88
 20
6.349999999999991
 30
0.0
  0
POINT
  5
18F
330
10A
100
AcDbEntity
  8
Defpoints
 62
     0
100
AcDbPoint
 10
-43.88
 20
-6.349999999999998
 30
0.0
  0
POINT
  5
190
330
10A
100
AcDbEntity
  8
Defpoints
 62
     0
100
AcDbPoint
 10
-57.51499999999999
 20
-6.350000000000048
 30
0.0
  0
ENDBLK
  5
10C
330
10A
100
AcDbEntity
  8
0
100
AcDbBlockEnd
  0
BLOCK
  5
120
330
11F
100
AcDbEntity
  8
0
100
AcDbBlockBegin
  2
_D_3
 70
     0
 10
0.0
 20
0.0
 30
0.0
  3
_D_3
  1

  0
LINE
  5
122
330
11F
100
AcDbEntity
  8
치수문자_일반주서
 62
     0
370
    -2
100
AcDbLine
 10
37.46250000000003
 20
6.350000000000041
 30
0.0
 11
59.02089909195961
 21
6.350000000000122
 31
0.0
  0
LINE
  5
123
330
11F
100
AcDbEntity
  8
치수문자_일반주서
 62
     0
370
    -2
100
AcDbLine
 10
37.46250000000003
 20
-6.349999999999964
 30
0.0
 11
59.02089909195965
 21
-6.349999999999884
 31
0.0
  0
LINE
  5
124
330
11F
100
AcDbEntity
  8
치수문자_일반주서
 62
     0
370
    -2
100
AcDbLine
 10
59.02089909195961
 20
6.350000000000122
 30
0.0
 11
59.0208990919595
 21
39.64150000000011
 31
0.0
  0
LINE
  5
125
330
11F
100
AcDbEntity
  8
치수문자_일반주서
 62
     0
370
    -2
100
AcDbLine
 10
59.02089909195961
 20
6.350000000000122
 30
0.0
 11
59.02089909195965
 21
-6.349999999999884
 31
0.0
  0
LINE
  5
126
330
11F
100
AcDbEntity
  8
치수문자_일반주서
 62
     0
370
    -2
100
AcDbLine
 10
59.02089909195959
 20
9.652000000000122
 30
0.0
 11
59.02089909195958
 21
12.95400000000012
 31
0.0
  0
LINE
  5
127
330
11F
100
AcDbEntity
  8
치수문자_일반주서
 62
     0
370
    -2
100
AcDbLine
 10
59.02089909195966
 20
-9.651999999999884
 30
0.0
 11
59.02089909195968
 21
-12.95399999999988
 31
0.0
  0
SOLID
  5
128
330
11F
100
AcDbEntity
  8
치수문자_일반주서
 62
     0
100
AcDbTrace
 10
58.47056575862626
 20
9.65200000000012
 30
0.0
 11
59.57123242529293
 21
9.652000000000124
 31
0.0
 12
59.02089909195961
 22
6.350000000000122
 32
0.0
 13
59.02089909195961
 23
6.350000000000122
 33
0.0
  0
SOLID
  5
129
330
11F
100
AcDbEntity
  8
치수문자_일반주서
 62
     0
100
AcDbTrace
 10
59.571232425293
 20
-9.651999999999882
 30
0.0
 11
58.47056575862633
 21
-9.651999999999886
 31
0.0
 12
59.02089909195965
 22
-6.349999999999884
 32
0.0
 13
59.02089909195965
 23
-6.349999999999884
 33
0.0
  0
MTEXT
  5
12A
330
11F
100
AcDbEntity
  8
치수문자_일반주서
 62
     0
100
AcDbMText
 10
54.64589909195954
 20
26.2977500000001
 30
0.0
 40
3.5
 41
0.0
 71
     2
 72
     1
  1
\A1;%%c12.70 [1/2]
  7
SLDTEXTSTYLE0
 11
-3.356894814614645E-15
 21
1.0
 31
0.0
 73
     1
 44
1.0
  0
POINT
  5
12B
330
11F
100
AcDbEntity
  8
Defpoints
 62
     0
100
AcDbPoint
 10
37.40000000000003
 20
6.350000000000041
 30
0.0
  0
POINT
  5
191
330
11F
100
AcDbEntity
  8
Defpoints
 62
     0
100
AcDbPoint
 10
37.40000000000003
 20
-6.349999999999964
 30
0.0
  0
POINT
  5
192
330
11F
100
AcDbEntity
  8
Defpoints
 62
     0
100
AcDbPoint
 10
59.02089909195966
 20
-6.349999999999883
 30
0.0
  0
ENDBLK
  5
121
330
11F
100
AcDbEntity
  8
0
100
AcDbBlockEnd
  0
BLOCK
  5
139
330
138
100
AcDbEntity
  8
0
100
AcDbBlockBegin
  2
SW_DOWELSYMBOL_0
 70
     0
 10
0.0
 20
0.0
 30
0.0
  3
SW_DOWELSYMBOL_0
  1

  0
CIRCLE
  5
13B
330
138
100
AcDbEntity
  8
해칭선
 62
     0
100
AcDbCircle
 10
0.0
 20
0.0
 30
0.0
 40
3.000000000000001
  0
HATCH
  5
13C
330
138
100
AcDbEntity
  8
0
  6
Continuous
 62
     0
370
     0
100
AcDbHatch
 10
0.0
 20
0.0
 30
0.0
210
0.0
220
0.0
230
1.0
  2
SOLID
 70
     1
 71
     0
 91
        1
 92
        0
 93
        3
 72
     2
 10
0.0
 20
0.0
 40
3.000000000000001
 50
0.0
 51
90.0
 73
     1
 72
     1
 10
0.0
 20
3.000000000000001
 11
0.0
 21
0.0
 72
     1
 10
0.0
 20
0.0
 11
3.000000000000003
 21
0.0
 97
        0
 75
     0
 76
     1
 98
        1
 10
0.0
 20
0.0
  0
HATCH
  5
13D
330
138
100
AcDbEntity
  8
0
  6
Continuous
 62
     0
370
     0
100
AcDbHatch
 10
0.0
 20
0.0
 30
0.0
210
0.0
220
0.0
230
1.0
  2
SOLID
 70
     1
 71
     0
 91
        1
 92
        0
 93
        3
 72
     2
 10
0.0
 20
0.0
 40
3.000000000000001
 50
180.0
 51
270.0000000000008
 73
     1
 72
     1
 10
0.0
 20
-3.000000000000001
 11
0.0
 21
0.0
 72
     1
 10
0.0
 20
0.0
 11
-3.000000000000001
 21
0.0
 97
        0
 75
     0
 76
     1
 98
        1
 10
0.0
 20
0.0
  0
ENDBLK
  5
13A
330
138
100
AcDbEntity
  8
0
100
AcDbBlockEnd
  0
ENDSEC
  0
SECTION
  2
ENTITIES
  0
SPLINE
  5
96
330
1F
100
AcDbEntity
  8
외형선
  6
Continuous
370
    15
100
AcDbSpline
210
0.0
220
0.0
230
1.0
 70
     8
 71
     3
 72
     9
 73
     5
 74
     0
 42
0.000000001
 43
0.00000001
 40
0.0
 40
0.0
 40
0.0
 40
0.0
 40
0.5913934049719447
 40
0.9999999999999999
 40
0.9999999999999999
 40
0.9999999999999999
 40
0.9999999999999999
 10
12.00000000000001
 20
-1.144779447396643
 30
0.0
 10
12.04294848806386
 20
-1.180720972055564
 30
0.0
 10
12.1155710227468
 20
-1.241495279575321
 30
0.0
 10
12.19362953472845
 20
-1.290043675495938
 30
0.0
 10
12.22552475752223
 20
-1.309880870247135
 30
0.0
  0
LINE
  5
97
330
1F
100
AcDbEntity
  8
외형선
  6
Continuous
 62
     1
370
    15
100
AcDbLine
 10
16.64734355717932
 20
1.232141701766542
 30
0.0
 11
16.5797778702326
 21
1.269942336900176
 31
0.0
  0
LINE
  5
98
330
1F
100
AcDbEntity
  8
외형선
  6
Continuous
 62
     1
370
    15
100
AcDbLine
 10
15.69540259230732
 20
6.349999999999996
 30
0.0
 11
13.035905267026
 21
6.349999999999996
 31
0.0
  0
LINE
  5
99
330
1F
100
AcDbEntity
  8
외형선
  6
Continuous
 62
     1
370
    15
100
AcDbLine
 10
36.07160570093009
 20
-6.350000000000003
 30
0.0
 11
36.63800000000003
 21
-6.350000000000003
 31
0.0
  0
LINE
  5
9A
330
1F
100
AcDbEntity
  8
외형선
  6
Continuous
 62
     1
370
    15
100
AcDbLine
 10
24.55349758760947
 20
-6.350000000000003
 30
0.0
 11
27.21297615528982
 21
-6.350000000000003
 31
0.0
  0
LINE
  5
9B
330
1F
100
AcDbEntity
  8
외형선
  6
Continuous
 62
     1
370
    15
100
AcDbLine
 10
27.21297615528982
 20
6.349999999999996
 30
0.0
 11
24.55349758760956
 21
6.349999999999996
 31
0.0
  0
LINE
  5
9C
330
1F
100
AcDbEntity
  8
외형선
  6
Continuous
 62
     1
370
    15
100
AcDbLine
 10
13.03590526702592
 20
-6.350000000000003
 30
0.0
 11
15.69540259230727
 21
-6.350000000000003
 31
0.0
  0
ARC
  5
9D
330
1F
100
AcDbEntity
  8
외형선
  6
Continuous
 62
     1
370
    15
100
AcDbCircle
 10
36.63800000000003
 20
-5.588000000000005
 30
0.0
 40
0.7620000000000005
100
AcDbArc
 50
270.0000000000011
 51
0.0000000000006678
  0
ARC
  5
9E
330
1F
100
AcDbEntity
  8
외형선
  6
Continuous
 62
     1
370
    15
100
AcDbCircle
 10
36.63800000000003
 20
5.587999999999999
 30
0.0
 40
0.7619999999999987
100
AcDbArc
 50
0.0
 51
90.0
  0
LINE
  5
9F
330
1F
100
AcDbEntity
  8
외형선
  6
Continuous
 62
     1
370
    15
100
AcDbLine
 10
36.63800000000003
 20
6.349999999999996
 30
0.0
 11
36.07160570093012
 21
6.349999999999996
 31
0.0
  0
LINE
  5
A0
330
1F
100
AcDbEntity
  8
외형선
  6
Continuous
370
    15
100
AcDbLine
 10
-43.87999999999999
 20
-6.350000000000001
 30
0.0
 11
11.75014553794756
 21
-6.350000000000001
 31
0.0
  0
LINE
  5
A1
330
1F
100
AcDbEntity
  8
외형선
  6
Continuous
370
    15
100
AcDbLine
 10
11.75014553794756
 20
6.349999999999994
 30
0.0
 11
-43.87999999999999
 21
6.349999999999994
 31
0.0
  0
LINE
  5
A2
330
1F
100
AcDbEntity
  8
외형선
  6
Continuous
370
    15
100
AcDbLine
 10
-43.87999999999999
 20
6.349999999999996
 30
0.0
 11
-45.14999999999999
 21
5.08
 31
0.0
  0
LINE
  5
A3
330
1F
100
AcDbEntity
  8
외형선
  6
Continuous
370
    15
100
AcDbLine
 10
-45.14999999999999
 20
-5.080000000000005
 30
0.0
 11
-43.87999999999999
 21
-6.350000000000001
 31
0.0
  0
LINE
  5
A4
330
1F
100
AcDbEntity
  8
외형선
  6
Continuous
 62
     1
370
    15
100
AcDbLine
 10
37.40000000000002
 20
-2.225474889006517
 30
0.0
 11
37.40000000000002
 21
2.225474889006888
 31
0.0
  0
SPLINE
  5
A5
330
1F
100
AcDbEntity
  8
외형선
  6
Continuous
 62
     1
370
    15
100
AcDbSpline
210
0.0
220
0.0
230
1.0
 70
     8
 71
     3
 72
    14
 73
    10
 74
     0
 42
0.000000001
 43
0.00000001
 40
0.0
 40
0.0
 40
0.0
 40
0.0
 40
0.25
 40
0.25
 40
0.5
 40
0.5
 40
0.75
 40
0.75
 40
1.0
 40
1.0
 40
1.0
 40
1.0
 10
36.63800000000003
 20
-2.077945079187757
 30
0.0
 10
36.73347055627364
 20
-2.129967694961605
 30
0.0
 10
36.82417587910611
 20
-2.17700573541189
 30
0.0
 10
36.99856342926715
 20
-2.258473971062727
 30
0.0
 10
37.08044280066209
 20
-2.291892981707235
 30
0.0
 10
37.22433060606652
 20
-2.332631377042624
 30
0.0
 10
37.28697579072769
 20
-2.339829354904967
 30
0.0
 10
37.3755448819234
 20
-2.313057383303887
 30
0.0
 10
37.40000000000011
 20
-2.27888098557435
 30
0.0
 10
37.40000000000002
 20
-2.225474889006508
 30
0.0
  0
SPLINE
  5
A6
330
1F
100
AcDbEntity
  8
외형선
  6
Continuous
 62
     1
370
    15
100
AcDbSpline
210
0.0
220
0.0
230
1.0
 70
     8
 71
     3
 72
    19
 73
    15
 74
     0
 42
0.000000001
 43
0.00000001
 40
0.0
 40
0.0
 40
0.0
 40
0.0
 40
0.011807032234399
 40
0.1058881898286074
 40
0.199964273448029
 40
0.2940534959192212
 40
0.3881740133047183
 40
0.4823396846729139
 40
0.5686432281762193
 40
0.6548773487434276
 40
0.7411026171803381
 40
0.8273796886904151
 40
0.9137286411060237
 40
1.0
 40
1.0
 40
1.0
 40
1.0
 10
15.69540259230732
 20
6.338832746183707
 30
0.0
 10
15.77782727962119
 20
6.342443914839645
 30
0.0
 10
16.51703089688813
 20
6.374829708708232
 30
0.0
 10
17.91287043584155
 20
6.242053681454905
 30
0.0
 10
19.88309891632722
 20
5.929917634379693
 30
0.0
 10
21.85365371246615
 20
5.407712542604484
 30
0.0
 10
23.82493547141081
 20
4.717599387175657
 30
0.0
 10
25.74218449523008
 20
3.898461740273191
 30
0.0
 10
27.60411219313096
 20
2.990885799956635
 30
0.0
 10
29.4102316519652
 20
2.029154489443091
 30
0.0
 10
31.2161572020798
 20
1.012618816038914
 30
0.0
 10
33.02307217405643
 20
-0.0302549786815155
 30
0.0
 10
34.83086946939996
 20
-1.075561005866388
 30
0.0
 10
36.03580369738789
 20
-1.74391719767609
 30
0.0
 10
36.63800000000003
 20
-2.077945079187763
 30
0.0
  0
SPLINE
  5
A7
330
1F
100
AcDbEntity
  8
외형선
  6
Continuous
 62
     1
370
    15
100
AcDbSpline
210
0.0
220
0.0
230
1.0
 70
     8
 71
     3
 72
    16
 73
    12
 74
     0
 42
0.000000001
 43
0.00000001
 40
0.0
 40
0.0
 40
0.0
 40
0.0
 40
0.1194816186284879
 40
0.2390132458841669
 40
0.3585780940419197
 40
0.4780863786754301
 40
0.5975540905010001
 40
0.7170042780705301
 40
0.8364600656430344
 40
0.9460051635069706
 40
1.0
 40
1.0
 40
1.0
 40
1.0
 10
36.63799999999997
 20
2.887457413911397
 30
0.0
 10
35.98110033993646
 20
3.216342285384776
 30
0.0
 10
34.66702607667941
 20
3.874249681981651
 30
0.0
 10
32.69539454954916
 20
4.712080616545945
 30
0.0
 10
30.72342725074361
 20
5.405441493951384
 30
0.0
 10
28.75211182792352
 20
5.924239093668414
 30
0.0
 10
26.78153175147956
 20
6.252990347248915
 30
0.0
 10
24.81132311003324
 20
6.383894711169424
 30
0.0
 10
22.89557879365409
 20
6.303211183441542
 30
0.0
 10
21.33982359020741
 20
6.111778949874106
 30
0.0
 10
20.44052331953509
 20
5.897545792043232
 30
0.0
 10
20.14360763796767
 20
5.826813928453175
 30
0.0
  0
SPLINE
  5
A8
330
1F
100
AcDbEntity
  8
외형선
  6
Continuous
 62
     1
370
    15
100
AcDbSpline
210
0.0
220
0.0
230
1.0
 70
     8
 71
     3
 72
    14
 73
    10
 74
     0
 42
0.000000001
 43
0.00000001
 40
0.0
 40
0.0
 40
0.0
 40
0.0
 40
0.25
 40
0.25
 40
0.5
 40
0.5
 40
0.75
 40
0.75
 40
1.0
 40
1.0
 40
1.0
 40
1.0
 10
37.40000000000002
 20
2.225474889006889
 30
0.0
 10
37.40000000000003
 20
2.276906923562234
 30
0.0
 10
37.3777131276202
 20
2.331359781805989
 30
0.0
 10
37.29456501643518
 20
2.444240356349523
 30
0.0
 10
37.23339688805121
 20
2.502771007327553
 30
0.0
 10
37.08753729384738
 20
2.618636350195629
 30
0.0
 10
37.00189930335714
 20
2.676941389179625
 30
0.0
 10
36.82357683370118
 20
2.787401930421116
 30
0.0
 10
36.7302649561421
 20
2.840070978975629
 30
0.0
 10
36.63800000000005
 20
2.887457413911362
 30
0.0
  0
LINE
  5
A9
330
1F
100
AcDbEntity
  8
외형선
  6
Continuous
 62
     1
370
    15
100
AcDbLine
 10
37.40000000000002
 20
-5.551741177188829
 30
0.0
 11
37.40000000000002
 21
-3.326266288182524
 31
0.0
  0
SPLINE
  5
AA
330
1F
100
AcDbEntity
  8
외형선
  6
Continuous
 62
     1
370
    15
100
AcDbSpline
210
0.0
220
0.0
230
1.0
 70
     8
 71
     3
 72
    14
 73
    10
 74
     0
 42
0.000000001
 43
0.00000001
 40
0.0
 40
0.0
 40
0.0
 40
0.0
 40
0.25
 40
0.25
 40
0.5
 40
0.5
 40
0.75
 40
0.75
 40
1.0
 40
1.0
 40
1.0
 40
1.0
 10
36.63800000000003
 20
-6.235460121211831
 30
0.0
 10
36.73347055627364
 20
-6.245869524433939
 30
0.0
 10
36.82417587910613
 20
-6.238842148727414
 30
0.0
 10
36.99856342926716
 20
-6.191023364374701
 30
0.0
 10
37.08044280066215
 20
-6.150073820222302
 30
0.0
 10
37.22433060606655
 20
-6.033085133704402
 30
0.0
 10
37.28697579072771
 20
-5.95599794814863
 30
0.0
 10
37.3755448819234
 20
-5.769626794882397
 30
0.0
 10
37.40000000000011
 20
-5.66251855485454
 30
0.0
 10
37.40000000000002
 20
-5.551741177188809
 30
0.0
  0
SPLINE
  5
AB
330
1F
100
AcDbEntity
  8
외형선
  6
Continuous
 62
     1
370
    15
100
AcDbSpline
210
0.0
220
0.0
230
1.0
 70
     8
 71
     3
 72
    38
 73
    34
 74
     0
 42
0.000000001
 43
0.00000001
 40
0.0
 40
0.0
 40
0.0
 40
0.0
 40
0.0625
 40
0.0625
 40
0.125
 40
0.125
 40
0.1875
 40
0.1875
 40
0.25
 40
0.25
 40
0.3125
 40
0.3125
 40
0.375
 40
0.375
 40
0.4375
 40
0.4375
 40
0.5
 40
0.5
 40
0.5625
 40
0.5625
 40
0.625
 40
0.625
 40
0.6875
 40
0.6875
 40
0.75
 40
0.75
 40
0.8125
 40
0.8125
 40
0.875
 40
0.875
 40
0.9375
 40
0.9375
 40
1.0
 40
1.0
 40
1.0
 40
1.0
 10
36.63800000000001
 20
-6.235460121211828
 30
0.0
 10
36.12379486274412
 20
-6.179394996826927
 30
0.0
 10
35.60768678342149
 20
-6.102767774493698
 30
0.0
 10
34.5867426512512
 20
-5.910920497648583
 30
0.0
 10
34.07064909529583
 20
-5.794998423739555
 30
0.0
 10
33.0422314443755
 20
-5.526266495028494
 30
0.0
 10
32.53270682955859
 20
-5.373838566661433
 30
0.0
 10
31.50423567908334
 20
-5.033984866102186
 30
0.0
 10
30.98832776061266
 20
-4.846777042561229
 30
0.0
 10
29.96722441496878
 20
-4.4433826162948
 30
0.0
 10
29.45108970060935
 20
-4.225757855188499
 30
0.0
 10
28.42273466708389
 20
-3.764820164281975
 30
0.0
 10
27.91320680620705
 20
-3.522010114373378
 30
0.0
 10
26.88467675782608
 20
-3.013502929849237
 30
0.0
 10
26.36897645450448
 20
-2.748282425419804
 30
0.0
 10
25.34769411062106
 20
-2.203440995724204
 30
0.0
 10
24.83153008901696
 20
-1.921942052258913
 30
0.0
 10
23.80323965019903
 20
-1.348930883793311
 30
0.0
 10
23.29370509101498
 20
-1.057945394602108
 30
0.0
 10
22.26511812316405
 20
-0.4691752103009452
 30
0.0
 10
21.74962202221985
 20
-0.1720590820744042
 30
0.0
 10
20.7281626122192
 20
0.4195302267062874
 30
0.0
 10
20.21197028471463
 20
0.7159701594071897
 30
0.0
 10
19.18374641750242
 20
1.301444135798414
 30
0.0
 10
18.67420170780686
 20
1.590023956785161
 30
0.0
 10
17.64555979928705
 20
2.156710694277685
 30
0.0
 10
17.13026448664517
 20
2.434074102202379
 30
0.0
 10
16.10862994377639
 20
2.969574460670309
 30
0.0
 10
15.59241031189965
 20
3.229423040490515
 30
0.0
 10
14.56425499276428
 20
3.725587059730281
 30
0.0
 10
14.05469668041787
 20
3.961597604598136
 30
0.0
 10
13.02600181038289
 20
4.407689711350695
 30
0.0
 10
12.51090387068657
 20
4.617098474491288
 30
0.0
 10
12.0
 20
4.810255174432161
 30
0.0
  0
SPLINE
  5
AC
330
1F
100
AcDbEntity
  8
외형선
  6
Continuous
370
    15
100
AcDbSpline
210
0.0
220
0.0
230
1.0
 70
    24
 71
     3
 72
    11
 73
     7
 74
     0
 42
0.000000001
 43
0.00000001
 40
0.0
 40
0.0
 40
0.0
 40
0.0
 40
0.3535134941502195
 40
0.6340927929723074
 40
0.9228089104680346
 40
1.0
 40
1.0
 40
1.0
 40
1.0
 10
12.0
 20
6.321881731638792
 30
0.0
 10
12.00000000000001
 20
6.144058345205346
 30
0.0
 10
12.00000000000002
 20
5.825098730861843
 30
0.0
 10
12.00000000000002
 20
5.370206919741346
 30
0.0
 10
12.00000000000002
 20
5.058940581008097
 30
0.0
 10
12.00000000000002
 20
4.901381381821166
 30
0.0
 10
12.00000000000004
 20
4.868142992367682
 30
0.0
  0
SPLINE
  5
AD
330
1F
100
AcDbEntity
  8
외형선
  6
Continuous
 62
     1
370
    15
100
AcDbSpline
210
0.0
220
0.0
230
1.0
 70
     8
 71
     3
 72
    38
 73
    34
 74
     0
 42
0.000000001
 43
0.00000001
 40
0.0
 40
0.0
 40
0.0
 40
0.0
 40
0.0625
 40
0.0625
 40
0.125
 40
0.125
 40
0.1875
 40
0.1875
 40
0.25
 40
0.25
 40
0.3125
 40
0.3125
 40
0.375
 40
0.375
 40
0.4375
 40
0.4375
 40
0.5
 40
0.5
 40
0.5625
 40
0.5625
 40
0.625
 40
0.625
 40
0.6875
 40
0.6875
 40
0.75
 40
0.75
 40
0.8125
 40
0.8125
 40
0.875
 40
0.875
 40
0.9375
 40
0.9375
 40
1.0
 40
1.0
 40
1.0
 40
1.0
 10
36.638
 20
-3.454109312225449
 30
0.0
 10
36.12379486274412
 20
-3.205295184492353
 30
0.0
 10
35.60768678342147
 20
-2.94482739860893
 30
0.0
 10
34.58674265125121
 20
-2.408348335762694
 30
0.0
 10
34.07064909529584
 20
-2.130373288609082
 30
0.0
 10
33.04223144437552
 20
-1.562963846991717
 30
0.0
 10
32.53270682955859
 20
-1.274094846427009
 30
0.0
 10
31.50423567908333
 20
-0.6881653685682575
 30
0.0
 10
30.98832776061266
 20
-0.3916658393424461
 30
0.0
 10
29.96722441496876
 20
0.1998997249451269
 30
0.0
 10
29.45108970060935
 20
0.4970699218666778
 30
0.0
 10
28.42273466708389
 20
1.085476597107074
 30
0.0
 10
27.91320680620705
 20
1.376211855991314
 30
0.0
 10
26.88467675782609
 20
1.948590334382092
 30
0.0
 10
26.3689764545045
 20
2.229577377667811
 30
0.0
 10
25.34769411062103
 20
2.773401569573624
 30
0.0
 10
24.83153008901696
 20
3.038105874979113
 30
0.0
 10
23.80323965019903
 20
3.545226756529116
 30
0.0
 10
23.29370509101498
 20
3.787290262329454
 30
0.0
 10
22.26511812316405
 20
4.246617284423365
 30
0.0
 10
21.74962202221985
 20
4.46325939058538
 30
0.0
 10
20.7281626122192
 20
4.864797946041461
 30
0.0
 10
20.21197028471466
 20
5.051019137939097
 30
0.0
 10
19.18374641750244
 20
5.388705421894244
 30
0.0
 10
18.67420170780685
 20
5.540019055400105
 30
0.0
 10
17.64555979928709
 20
5.806443019854576
 30
0.0
 10
17.13026448664521
 20
5.921103746791415
 30
0.0
 10
16.10862994377639
 20
6.110536642829965
 30
0.0
 10
15.59241031189964
 20
6.185899350112367
 30
0.0
 10
14.56425499276427
 20
6.295458875818177
 30
0.0
 10
14.05469668041786
 20
6.329718527565156
 30
0.0
 10
13.02600181038288
 20
6.356918673535279
 30
0.0
 10
12.51090387068663
 20
6.349695714273841
 30
0.0
 10
12.00000000000001
 20
6.321881731638795
 30
0.0
  0
SPLINE
  5
AE
330
1F
100
AcDbEntity
  8
외형선
  6
Continuous
 62
     1
370
    15
100
AcDbSpline
210
0.0
220
0.0
230
1.0
 70
     8
 71
     3
 72
    14
 73
    10
 74
     0
 42
0.000000001
 43
0.00000001
 40
0.0
 40
0.0
 40
0.0
 40
0.0
 40
0.25
 40
0.25
 40
0.5
 40
0.5
 40
0.75
 40
0.75
 40
1.0
 40
1.0
 40
1.0
 40
1.0
 10
37.40000000000002
 20
-3.326266288182523
 30
0.0
 10
37.40000000000003
 20
-3.381516941226764
 30
0.0
 10
37.3777131276202
 20
-3.432056432252438
 30
0.0
 10
37.29456501643518
 20
-3.512365786251398
 30
0.0
 10
37.23339688805127
 20
-3.541617557457383
 30
0.0
 10
37.08753729384745
 20
-3.56856378314916
 30
0.0
 10
37.0018993033571
 20
-3.566416644354991
 30
0.0
 10
36.82357683370117
 20
-3.531386286685441
 30
0.0
 10
36.73026495614209
 20
-3.49875457715869
 30
0.0
 10
36.63800000000005
 20
-3.45410931222547
 30
0.0
  0
SPLINE
  5
AF
330
1F
100
AcDbEntity
  8
외형선
  6
Continuous
 62
     1
370
    15
100
AcDbSpline
210
0.0
220
0.0
230
1.0
 70
     8
 71
     3
 72
    18
 73
    14
 74
     0
 42
0.000000001
 43
0.00000001
 40
0.0
 40
0.0
 40
0.0
 40
0.0
 40
0.1002844441556929
 40
0.2005248364364044
 40
0.3007404468856368
 40
0.4009506525174376
 40
0.5011748537046116
 40
0.601432390354712
 40
0.7017380252006263
 40
0.7936688912452428
 40
0.8855258077116664
 40
0.9773732948548934
 40
1.0
 40
1.0
 40
1.0
 40
1.0
 10
12.0
 20
-1.184852756412115
 30
0.0
 10
12.65729918190027
 20
-1.553867381336178
 30
0.0
 10
13.97160881436638
 20
-2.291734534397906
 30
0.0
 10
15.94252673695469
 20
-3.315188781355604
 30
0.0
 10
17.91287895755982
 20
-4.235054258028553
 30
0.0
 10
19.8830966079267
 20
-5.018575880052566
 30
0.0
 10
21.8536544236067
 20
-5.641533630437623
 30
0.0
 10
23.8249349358783
 20
-6.084078488964147
 30
0.0
 10
25.7421858717378
 20
-6.323797802845361
 30
0.0
 10
27.60410765780161
 20
-6.376678576787034
 30
0.0
 10
29.41024857554689
 20
-6.24383349253049
 30
0.0
 10
30.76218084769484
 20
-6.053469441849858
 30
0.0
 10
31.51239067943111
 20
-5.861038357975797
 30
0.0
 10
31.66067542658968
 20
-5.823002873221252
 30
0.0
  0
SPLINE
  5
B0
330
1F
100
AcDbEntity
  8
외형선
  6
Continuous
370
    15
100
AcDbSpline
210
0.0
220
0.0
230
1.0
 70
    24
 71
     3
 72
    22
 73
    18
 74
     0
 42
0.000000001
 43
0.00000001
 40
0.0
 40
0.0
 40
0.0
 40
0.0
 40
0.0851018234746541
 40
0.1526460908198007
 40
0.2221491464937325
 40
0.2896934138388469
 40
0.3591964695127435
 40
0.4267407368578572
 40
0.4962437925317525
 40
0.5637880598768727
 40
0.6332911155507618
 40
0.7008353828958768
 40
0.7703384385697741
 40
0.8378827059148861
 40
0.9073857615887838
 40
0.9749300289338988
 40
1.0
 40
1.0
 40
1.0
 40
1.0
 10
12.0
 20
3.677887215432847
 30
0.0
 10
12.00000000000001
 20
3.596376387386399
 30
0.0
 10
12.00000000000002
 20
3.450171420762141
 30
0.0
 10
12.00000000000003
 20
3.143261513921135
 30
0.0
 10
12.00000000000003
 20
2.815066426709457
 30
0.0
 10
12.00000000000003
 20
2.440842964410332
 30
0.0
 10
11.99999999999998
 20
2.039677202716094
 30
0.0
 10
12.00000000000006
 20
1.615231245337662
 30
0.0
 10
11.9999999999999
 20
1.187286676856218
 30
0.0
 10
12.00000000000005
 20
0.7602120795105379
 30
0.0
 10
12.00000000000002
 20
0.353822068789244
 30
0.0
 10
11.99999999999999
 20
-0.0278119427524311
 30
0.0
 10
12.0
 20
-0.3665912151719725
 30
0.0
 10
11.99999999999996
 20
-0.6606220264066169
 30
0.0
 10
12.00000000000003
 20
-0.8903379881678114
 30
0.0
 10
11.99999999999998
 20
-1.035769958798405
 30
0.0
 10
12.0
 20
-1.077811323988392
 30
0.0
 10
12.0
 20
-1.089191602301675
 30
0.0
  0
SPLINE
  5
B1
330
1F
100
AcDbEntity
  8
외형선
  6
Continuous
 62
     1
370
    15
100
AcDbSpline
210
0.0
220
0.0
230
1.0
 70
     8
 71
     3
 72
    20
 73
    16
 74
     0
 42
0.000000001
 43
0.00000001
 40
0.0
 40
0.0
 40
0.0
 40
0.0
 40
0.0583401715228331
 40
0.1402442301693542
 40
0.2221710520524697
 40
0.3040591161414079
 40
0.3859193794071057
 40
0.4677676349077671
 40
0.5496197275767378
 40
0.6246809337685949
 40
0.6998063948274786
 40
0.7748657944143357
 40
0.8498826918875771
 40
0.9249098666194815
 40
1.0
 40
1.0
 40
1.0
 40
1.0
 10
36.07160570093009
 20
-6.329141001840611
 30
0.0
 10
35.60349970088914
 20
-6.327455726260544
 30
0.0
 10
34.4782173456992
 20
-6.323404483863067
 30
0.0
 10
32.69539292129559
 20
-6.081229890077584
 30
0.0
 10
30.72342769197001
 20
-5.645818782060049
 30
0.0
 10
28.75211169070597
 20
-5.022173285950288
 30
0.0
 10
26.78153185933481
 20
-4.239697395118668
 30
0.0
 10
24.81132281582259
 20
-3.320967603157859
 30
0.0
 10
22.89557982501159
 20
-2.32444335292634
 30
0.0
 10
21.03391972342814
 20
-1.289463969707539
 30
0.0
 10
19.22611212109031
 20
-0.2512085047125704
 30
0.0
 10
17.41925828471766
 20
0.7951122101694382
 30
0.0
 10
15.61335070448067
 20
1.817948244588602
 30
0.0
 10
13.80719637083423
 20
2.799056323724304
 30
0.0
 10
12.60256719596446
 20
3.384861689989085
 30
0.0
 10
12.00000000000001
 20
3.677887215432849
 30
0.0
  0
LINE
  5
B2
330
1F
100
AcDbEntity
  8
외형선
  6
Continuous
370
    15
100
AcDbLine
 10
12.00000000000002
 20
3.677887215432844
 30
0.0
 11
12.00000000000001
 21
4.810255174432164
 31
0.0
  0
SPLINE
  5
B3
330
1F
100
AcDbEntity
  8
외형선
  6
Continuous
 62
     1
370
    15
100
AcDbSpline
210
0.0
220
0.0
230
1.0
 70
     8
 71
     3
 72
    14
 73
    10
 74
     0
 42
0.000000001
 43
0.00000001
 40
0.0
 40
0.0
 40
0.0
 40
0.0
 40
0.1364091616506109
 40
0.2803368022507808
 40
0.4243876496561366
 40
0.5683118261447062
 40
0.7121545060887416
 40
0.8560168923719933
 40
1.0
 40
1.0
 40
1.0
 40
1.0
 10
24.55349758760947
 20
-6.338425851243114
 30
0.0
 10
23.98269843936402
 20
-6.328399049061581
 30
0.0
 10
22.80963934267037
 20
-6.30779279632636
 30
0.0
 10
21.03391919862958
 20
-6.051844600793366
 30
0.0
 10
19.22611226162194
 20
-5.646041816052977
 30
0.0
 10
17.41925824711323
 20
-5.083628457714552
 30
0.0
 10
15.61335071450737
 20
-4.384269137045834
 30
0.0
 10
13.80719636832496
 20
-3.571519268493152
 30
0.0
 10
12.60256719512781
 20
-2.953255866103032
 30
0.0
 10
12.00000000000001
 20
-2.643994516205928
 30
0.0
  0
LINE
  5
B4
330
1F
100
AcDbEntity
  8
외형선
  6
Continuous
370
    15
100
AcDbLine
 10
12.0
 20
-2.643994516205921
 30
0.0
 11
12.0
 21
-1.184852756412115
 31
0.0
  0
LINE
  5
B5
330
1F
100
AcDbEntity
  8
외형선
  6
Continuous
 62
     1
370
    15
100
AcDbLine
 10
37.40000000000002
 20
-3.326266288182524
 30
0.0
 11
37.40000000000002
 21
-2.225474889006517
 31
0.0
  0
SPLINE
  5
B6
330
1F
100
AcDbEntity
  8
외형선
  6
Continuous
 62
     1
370
    15
100
AcDbSpline
210
0.0
220
0.0
230
1.0
 70
     8
 71
     3
 72
    12
 73
     8
 74
     0
 42
0.000000001
 43
0.00000001
 40
0.0
 40
0.0
 40
0.0
 40
0.0
 40
0.2421128442014401
 40
0.4841193356695742
 40
0.7260659973230789
 40
0.9679996103354733
 40
1.0
 40
1.0
 40
1.0
 40
1.0
 10
12.00000000000002
 20
-5.995107930844238
 30
0.0
 10
12.65729928672966
 20
-6.10132682669863
 30
0.0
 10
13.97160912880842
 20
-6.313717959710146
 30
0.0
 10
15.94252547996076
 20
-6.383140922800441
 30
0.0
 10
17.91288366994764
 20
-6.244067235690016
 30
0.0
 10
19.31315774418845
 20
-6.047993371298938
 30
0.0
 10
20.05674352310162
 20
-5.849949046746612
 30
0.0
 10
20.14360763796761
 20
-5.826813928453186
 30
0.0
  0
SPLINE
  5
B7
330
1F
100
AcDbEntity
  8
외형선
  6
Continuous
370
    15
100
AcDbSpline
210
0.0
220
0.0
230
1.0
 70
    24
 71
     3
 72
    16
 73
    12
 74
     0
 42
0.000000001
 43
0.00000001
 40
0.0
 40
0.0
 40
0.0
 40
0.0
 40
0.0644163709384093
 40
0.1829135720977403
 40
0.2980711944087352
 40
0.4165683955680807
 40
0.5317260178790704
 40
0.6502232190384164
 40
0.7653808413494115
 40
0.8838780425087558
 40
1.0
 40
1.0
 40
1.0
 40
1.0
 10
11.99999999999998
 20
-2.701892334141437
 30
0.0
 10
12.0
 20
-2.749473945408674
 30
0.0
 10
12.00000000000004
 20
-2.884584358433616
 30
0.0
 10
12.00000000000002
 20
-3.164334588952396
 30
0.0
 10
11.99999999999999
 20
-3.528363507392885
 30
0.0
 10
12.00000000000001
 20
-3.92470929814317
 30
0.0
 10
11.99999999999997
 20
-4.345867157545625
 30
0.0
 10
12.00000000000001
 20
-4.773472977080219
 30
0.0
 10
12.0
 20
-5.201982710739054
 30
0.0
 10
12.00000000000002
 20
-5.616098630192564
 30
0.0
 10
12.00000000000001
 20
-5.869627056565264
 30
0.0
 10
12.00000000000001
 20
-5.995107930844235
 30
0.0
  0
SPLINE
  5
B8
330
1F
100
AcDbEntity
  8
외형선
  6
Continuous
 62
     1
370
    15
100
AcDbSpline
210
0.0
220
0.0
230
1.0
 70
     8
 71
     3
 72
    14
 73
    10
 74
     0
 42
0.000000001
 43
0.00000001
 40
0.0
 40
0.0
 40
0.0
 40
0.0
 40
0.25
 40
0.25
 40
0.5
 40
0.5
 40
0.75
 40
0.75
 40
1.0
 40
1.0
 40
1.0
 40
1.0
 10
36.63800000000003
 20
4.157515042024013
 30
0.0
 10
36.73347055627364
 20
4.115901829472271
 30
0.0
 10
36.82417587910611
 20
4.061836413315444
 30
0.0
 10
36.99856342926715
 20
3.932549393311899
 30
0.0
 10
37.08044280066212
 20
3.858180838515002
 30
0.0
 10
37.22433060606657
 20
3.700453756661718
 30
0.0
 10
37.28697579072771
 20
3.616168593243606
 30
0.0
 10
37.3755448819234
 20
3.456569411578452
 30
0.0
 10
37.40000000000011
 20
3.383637569280131
 30
0.0
 10
37.40000000000002
 20
3.326266288182243
 30
0.0
  0
LINE
  5
B9
330
1F
100
AcDbEntity
  8
외형선
  6
Continuous
 62
     1
370
    15
100
AcDbLine
 10
37.40000000000002
 20
2.225474889006888
 30
0.0
 11
37.40000000000002
 21
3.326266288182254
 31
0.0
  0
SPLINE
  5
BA
330
1F
100
AcDbEntity
  8
외형선
  6
Continuous
 62
     1
370
    15
100
AcDbSpline
210
0.0
220
0.0
230
1.0
 70
     8
 71
     3
 72
    13
 73
     9
 74
     0
 42
0.000000001
 43
0.00000001
 40
0.0
 40
0.0
 40
0.0
 40
0.0
 40
0.041541569964423
 40
0.2331505238818336
 40
0.4247398087005704
 40
0.6164441979883243
 40
0.8083083039291282
 40
1.0
 40
1.0
 40
1.0
 40
1.0
 10
27.21297615528983
 20
6.335472387780792
 30
0.0
 10
27.34349755205651
 20
6.3399497592843
 30
0.0
 10
28.07604406052993
 20
6.365078841130515
 30
0.0
 10
29.41021465409442
 20
6.242494833136645
 30
0.0
 10
31.21616175781254
 20
5.963164225195753
 30
0.0
 10
33.0230709577193
 20
5.50652084945772
 30
0.0
 10
34.83086977327086
 20
4.91399159748916
 30
0.0
 10
36.03580379864787
 20
4.409598318245674
 30
0.0
 10
36.63800000000003
 20
4.157515042024004
 30
0.0
  0
SPLINE
  5
BB
330
1F
100
AcDbEntity
  8
외형선
  6
Continuous
 62
     1
370
    15
100
AcDbSpline
210
0.0
220
0.0
230
1.0
 70
     8
 71
     3
 72
    10
 73
     6
 74
     0
 42
0.000000001
 43
0.00000001
 40
0.0
 40
0.0
 40
0.0
 40
0.0
 40
0.3959666559129534
 40
0.7920990423299268
 40
1.0
 40
1.0
 40
1.0
 40
1.0
 10
36.63799999999998
 20
6.341566726136815
 30
0.0
 10
35.981100938301
 20
6.339690750560512
 30
0.0
 10
34.66702787202347
 20
6.335938014224681
 30
0.0
 10
33.00787478494831
 20
6.141212353289957
 30
0.0
 10
32.00563441670643
 20
5.904482440598573
 30
0.0
 10
31.6606754265897
 20
5.823002873221247
 30
0.0
  0
SPLINE
  5
BC
330
1F
100
AcDbEntity
  8
외형선
  6
Continuous
 62
     1
370
    15
100
AcDbSpline
210
0.0
220
0.0
230
1.0
 70
     8
 71
     3
 72
    14
 73
    10
 74
     0
 42
0.000000001
 43
0.00000001
 40
0.0
 40
0.0
 40
0.0
 40
0.0
 40
0.25
 40
0.25
 40
0.5
 40
0.5
 40
0.75
 40
0.75
 40
1.0
 40
1.0
 40
1.0
 40
1.0
 10
37.40000000000002
 20
5.55174117718939
 30
0.0
 10
37.40000000000003
 20
5.658423864788977
 30
0.0
 10
37.37771312762019
 20
5.76341621405841
 30
0.0
 10
37.29456501643515
 20
5.956606142600899
 30
0.0
 10
37.23339688805125
 20
6.044388564784899
 30
0.0
 10
37.08753729384744
 20
6.187200133344751
 30
0.0
 10
37.00189930335713
 20
6.243358033534594
 30
0.0
 10
36.82357683370118
 20
6.318788217106542
 30
0.0
 10
36.7302649561421
 20
6.338825556134299
 30
0.0
 10
36.63800000000005
 20
6.341566726136813
 30
0.0
  0
LINE
  5
BD
330
1F
100
AcDbEntity
  8
외형선
  6
Continuous
 62
     1
370
    15
100
AcDbLine
 10
37.40000000000002
 20
3.326266288182255
 30
0.0
 11
37.40000000000002
 21
5.55174117718939
 31
0.0
  0
LINE
  5
BE
330
1F
100
AcDbEntity
  8
외형선
  6
Continuous
 62
     1
370
    15
100
AcDbLine
 10
13.03590526702592
 20
-6.329043854660132
 30
0.0
 11
12.00000000000001
 21
-6.321881731638804
 31
0.0
  0
LINE
  5
BF
330
1F
100
AcDbEntity
  8
외형선
  6
Continuous
370
    15
100
AcDbLine
 10
12.00000000000002
 20
-6.321881731638804
 30
0.0
 11
12.00000000000001
 21
-5.995107930844235
 31
0.0
  0
LINE
  5
C0
330
1F
100
AcDbEntity
  8
외형선
  6
Continuous
 62
     1
370
    15
100
AcDbLine
 10
37.40000000000002
 20
-5.588000000000008
 30
0.0
 11
37.40000000000002
 21
-5.551741177188829
 31
0.0
  0
LINE
  5
C1
330
1F
100
AcDbEntity
  8
외형선
  6
Continuous
 62
     1
370
    15
100
AcDbLine
 10
37.40000000000002
 20
5.55174117718939
 30
0.0
 11
37.40000000000002
 21
5.588000000000001
 31
0.0
  0
SPLINE
  5
C2
330
1F
100
AcDbEntity
  8
외형선
  6
Continuous
370
    15
100
AcDbSpline
210
0.0
220
0.0
230
1.0
 70
     8
 71
     3
 72
     8
 73
     4
 74
     0
 42
0.000000001
 43
0.00000001
 40
0.0
 40
0.0
 40
0.0
 40
0.0
 40
1.0
 40
1.0
 40
1.0
 40
1.0
 10
12.00000000000002
 20
6.321881731638795
 30
0.0
 10
11.91684553424442
 20
6.317354741339338
 30
0.0
 10
11.83355002858822
 20
6.312279710117878
 30
0.0
 10
11.75014553794756
 20
6.306656971365594
 30
0.0
  0
LINE
  5
C3
330
1F
100
AcDbEntity
  8
외형선
  6
Continuous
370
    15
100
AcDbLine
 10
11.75014553794756
 20
4.903350559927745
 30
0.0
 11
11.75014553794756
 21
6.349999999999994
 31
0.0
  0
SPLINE
  5
C4
330
1F
100
AcDbEntity
  8
외형선
  6
Continuous
370
    15
100
AcDbSpline
210
0.0
220
0.0
230
1.0
 70
     8
 71
     3
 72
     8
 73
     4
 74
     0
 42
0.000000001
 43
0.00000001
 40
0.0
 40
0.0
 40
0.0
 40
0.0
 40
1.0
 40
1.0
 40
1.0
 40
1.0
 10
12.00000000000001
 20
4.810255174432164
 30
0.0
 10
11.91684553424441
 20
4.841693265063792
 30
0.0
 10
11.83355002858821
 20
4.872734048910507
 30
0.0
 10
11.75014553794756
 20
4.903364229742129
 30
0.0
  0
SPLINE
  5
C5
330
1F
100
AcDbEntity
  8
외형선
  6
Continuous
370
    15
100
AcDbSpline
210
0.0
220
0.0
230
1.0
 70
     8
 71
     3
 72
     8
 73
     4
 74
     0
 42
0.000000001
 43
0.00000001
 40
0.0
 40
0.0
 40
0.0
 40
0.0
 40
1.0
 40
1.0
 40
1.0
 40
1.0
 10
12.00000000000002
 20
3.677887215432836
 30
0.0
 10
11.91684553424442
 20
3.717145094737393
 30
0.0
 10
11.83355002858822
 20
3.756107788373643
 30
0.0
 10
11.75014553794756
 20
3.794759217831016
 30
0.0
  0
LINE
  5
C6
330
1F
100
AcDbEntity
  8
외형선
  6
Continuous
370
    15
100
AcDbLine
 10
11.75014553794756
 20
-1.042568553091084
 30
0.0
 11
11.75014553794756
 21
3.794780267839948
 31
0.0
  0
SPLINE
  5
C7
330
1F
100
AcDbEntity
  8
외형선
  6
Continuous
370
    15
100
AcDbSpline
210
0.0
220
0.0
230
1.0
 70
     8
 71
     3
 72
     8
 73
     4
 74
     0
 42
0.000000001
 43
0.00000001
 40
0.0
 40
0.0
 40
0.0
 40
0.0
 40
1.0
 40
1.0
 40
1.0
 40
1.0
 10
12.00000000000001
 20
-1.184852756412113
 30
0.0
 10
11.91684553424441
 20
-1.13754052179023
 30
0.0
 10
11.83355002858821
 20
-1.090099343103342
 30
0.0
 10
11.75014553794756
 20
-1.042547331353724
 30
0.0
  0
SPLINE
  5
C8
330
1F
100
AcDbEntity
  8
외형선
  6
Continuous
370
    15
100
AcDbSpline
210
0.0
220
0.0
230
1.0
 70
     8
 71
     3
 72
     8
 73
     4
 74
     0
 42
0.000000001
 43
0.00000001
 40
0.0
 40
0.0
 40
0.0
 40
0.0
 40
1.0
 40
1.0
 40
1.0
 40
1.0
 10
12.00000000000002
 20
-2.643994516205938
 30
0.0
 10
11.91684553424442
 20
-2.600209646601927
 30
0.0
 10
11.83355002858822
 20
-2.556171921744219
 30
0.0
 10
11.75014553794756
 20
-2.511897753534561
 30
0.0
  0
SPLINE
  5
C9
330
1F
100
AcDbEntity
  8
외형선
  6
Continuous
370
    15
100
AcDbSpline
210
0.0
220
0.0
230
1.0
 70
     8
 71
     3
 72
     8
 73
     4
 74
     0
 42
0.000000001
 43
0.00000001
 40
0.0
 40
0.0
 40
0.0
 40
0.0
 40
1.0
 40
1.0
 40
1.0
 40
1.0
 10
12.00000000000001
 20
-5.995107930844233
 30
0.0
 10
11.91684553424441
 20
-5.97923378685398
 30
0.0
 10
11.83355002858821
 20
-5.962833392013806
 30
0.0
 10
11.75014553794756
 20
-5.945911561095809
 30
0.0
  0
SPLINE
  5
CA
330
1F
100
AcDbEntity
  8
외형선
  6
Continuous
370
    15
100
AcDbSpline
210
0.0
220
0.0
230
1.0
 70
     8
 71
     3
 72
     8
 73
     4
 74
     0
 42
0.000000001
 43
0.00000001
 40
0.0
 40
0.0
 40
0.0
 40
0.0
 40
1.0
 40
1.0
 40
1.0
 40
1.0
 10
12.00000000000002
 20
-6.321881731638801
 30
0.0
 10
11.91684553424442
 20
-6.317354741339347
 30
0.0
 10
11.83355002858822
 20
-6.312279710117888
 30
0.0
 10
11.75014553794756
 20
-6.306656971365605
 30
0.0
  0
LINE
  5
CB
330
1F
100
AcDbEntity
  8
외형선
  6
Continuous
370
    15
100
AcDbLine
 10
11.75014553794756
 20
-6.350000000000001
 30
0.0
 11
11.75014553794756
 21
-6.306653909099388
 31
0.0
  0
LINE
  5
CC
330
1F
100
AcDbEntity
  8
외형선
  6
Continuous
370
    15
100
AcDbLine
 10
-43.87999999999999
 20
-0.0000000000000029
 30
0.0
 11
-43.87999999999999
 21
6.349999999999994
 31
0.0
  0
LINE
  5
CD
330
1F
100
AcDbEntity
  8
외형선
  6
Continuous
370
    15
100
AcDbLine
 10
-43.87999999999999
 20
-6.350000000000001
 30
0.0
 11
-43.87999999999999
 21
-0.0000000000000029
 31
0.0
  0
LINE
  5
CE
330
1F
100
AcDbEntity
  8
외형선
  6
Continuous
370
    15
100
AcDbLine
 10
11.75014553794756
 20
-5.945919113018784
 30
0.0
 11
11.75014553794756
 21
-2.511873641259412
 31
0.0
  0
LINE
  5
CF
330
1F
100
AcDbEntity
  8
외형선
  6
Continuous
370
    15
100
AcDbLine
 10
-45.14999999999999
 20
-0.0000000000000029
 30
0.0
 11
-45.14999999999999
 21
5.08
 31
0.0
  0
LINE
  5
D0
330
1F
100
AcDbEntity
  8
외형선
  6
Continuous
370
    15
100
AcDbLine
 10
-45.14999999999999
 20
-5.080000000000005
 30
0.0
 11
-45.14999999999999
 21
-0.0000000000000029
 31
0.0
  0
SPLINE
  5
D1
330
1F
100
AcDbEntity
  8
외형선
  6
Continuous
370
    15
100
AcDbSpline
210
0.0
220
0.0
230
1.0
 70
    24
 71
     3
 72
    24
 73
    20
 74
     0
 42
0.000000001
 43
0.00000001
 40
0.0
 40
0.0
 40
0.0
 40
0.0
 40
0.0498080209819928
 40
0.1059207914186704
 40
0.1669318027104983
 40
0.2297121374629686
 40
0.290723148754797
 40
0.3535034835072673
 40
0.4145144947990708
 40
0.4772948295515663
 40
0.5383058408433933
 40
0.6010861755958631
 40
0.6620971868876898
 40
0.7248775216401592
 40
0.7858885329319512
 40
0.8486688676843824
 40
0.9096798789762477
 40
0.9724602137287589
 40
1.0
 40
1.0
 40
1.0
 40
1.0
 10
12.00000000000002
 20
-1.182730096882045
 30
0.0
 10
12.00000000000003
 20
-1.179161563578333
 30
0.0
 10
12.00000000000006
 20
-1.171572788431661
 30
0.0
 10
12.00000000000001
 20
-1.086181421928967
 30
0.0
 10
12.00000000000001
 20
-0.9361013303766965
 30
0.0
 10
12.00000000000003
 20
-0.7155247737915718
 30
0.0
 10
11.99999999999997
 20
-0.4343375059086061
 30
0.0
 10
12.00000000000001
 20
-0.10501117985115
 30
0.0
 10
11.99999999999995
 20
0.2689127431534298
 30
0.0
 10
12.00000000000005
 20
0.6701598734864945
 30
0.0
 10
11.99999999999995
 20
1.094583724911383
 30
0.0
 10
12.00000000000006
 20
1.522536414998783
 30
0.0
 10
12.00000000000003
 20
1.949601014086836
 30
0.0
 10
11.99999999999997
 20
2.35602337856627
 30
0.0
 10
12.00000000000003
 20
2.737539495939805
 30
0.0
 10
12.00000000000002
 20
3.076763678696889
 30
0.0
 10
12.0
 20
3.369153680771738
 30
0.0
 10
12.00000000000004
 20
3.562338708626402
 30
0.0
 10
12.0
 20
3.650887523557623
 30
0.0
 10
12.00000000000001
 20
3.677887215432882
 30
0.0
  0
SPLINE
  5
D2
330
1F
100
AcDbEntity
  8
외형선
  6
Continuous
370
    15
100
AcDbSpline
210
0.0
220
0.0
230
1.0
 70
    24
 71
     3
 72
    16
 73
    12
 74
     0
 42
0.000000001
 43
0.00000001
 40
0.0
 40
0.0
 40
0.0
 40
0.0
 40
0.1047805069646402
 40
0.2095610139292811
 40
0.3264632994722004
 40
0.4433655850151196
 40
0.5602678705580395
 40
0.6771701561009592
 40
0.7940724416438795
 40
0.9109747271867995
 40
1.0
 40
1.0
 40
1.0
 40
1.0
 10
12.00000000000001
 20
-5.995107930844233
 30
0.0
 10
12.00000000000002
 20
-5.882260034093285
 30
0.0
 10
12.00000000000002
 20
-5.656564240591393
 30
0.0
 10
12.00000000000002
 20
-5.274253039945618
 30
0.0
 10
12.00000000000001
 20
-4.864249860017786
 30
0.0
 10
12.00000000000002
 20
-4.434176008237458
 30
0.0
 10
12.00000000000001
 20
-4.011968895285584
 30
0.0
 10
11.99999999999999
 20
-3.608225128024186
 30
0.0
 10
12.00000000000002
 20
-3.237790086673654
 30
0.0
 10
12.00000000000002
 20
-2.927890349139029
 30
0.0
 10
12.00000000000002
 20
-2.77009807261516
 30
0.0
 10
12.00000000000003
 20
-2.701882334141438
 30
0.0
  0
SPLINE
  5
D3
330
1F
100
AcDbEntity
  8
외형선
  6
Continuous
370
    15
100
AcDbSpline
210
0.0
220
0.0
230
1.0
 70
    24
 71
     3
 72
    12
 73
     8
 74
     0
 42
0.000000001
 43
0.00000001
 40
0.0
 40
0.0
 40
0.0
 40
0.0
 40
0.013753860683211
 40
0.3029343684928305
 40
0.5839649698257875
 40
0.8731454776357738
 40
1.0
 40
1.0
 40
1.0
 40
1.0
 10
12.0
 20
4.86814299236768
 30
0.0
 10
12.0
 20
4.873964123204983
 30
0.0
 10
12.00000000000004
 20
5.002176894493626
 30
0.0
 10
12.0
 20
5.282053048903009
 30
0.0
 10
11.99999999999998
 20
5.700036328204956
 30
0.0
 10
12.00000000000004
 20
6.051196672643426
 30
0.0
 10
12.0
 20
6.258631990122492
 30
0.0
 10
12.0
 20
6.321881731638875
 30
0.0
  0
LINE
  5
D4
330
1F
100
AcDbEntity
  8
중심선
 62
     1
100
AcDbLine
 10
-48.15000000000001
 20
-0.0000000000000033
 30
0.0
 11
40.40000000000001
 21
0.0000000000000032
 31
0.0
  0
LINE
  5
D5
330
1F
100
AcDbEntity
  8
참조1
100
AcDbLine
 10
-3.874999999999998
 20
-0.0000000000000073
 30
0.0
 11
-3.874999999999993
 21
-40.00000000000001
 31
0.0
  0
LINE
  5
D6
330
1F
100
AcDbEntity
  8
참조1
100
AcDbLine
 10
-3.874999999999993
 20
-40.00000000000001
 30
0.0
 11
-31.73385681430866
 21
-40.0
 31
0.0
  0
INSERT
  5
D8
330
1F
100
AcDbEntity
  8
0
  6
Continuous
 62
     7
100
AcDbBlockReference
 66
     1
  2
블럭10
 10
-17.8152729321252
 20
-52.04717430164393
 30
0.0
  0
ATTRIB
  5
D9
330
D8
100
AcDbEntity
  8
FORMAT
 62
     2
100
AcDbText
 10
-27.95690894426183
 20
-49.97180738881175
 30
0.0
 40
4.233333333333333
  1
EM668902 [ 6 FLUTE ]
 41
0.75
  7
SLDTEXTSTYLE0
 11
-27.95690894426183
 21
-52.08847405547841
 31
0.0
100
AcDbAttribute
  2
AUTOATTR0
 70
     0
 74
     1
  0
SEQEND
  5
DA
330
D8
100
AcDbEntity
  8
0
  6
Continuous
 62
     7
  0
HATCH
  5
DB
330
1F
100
AcDbEntity
  8
중심선
100
AcDbHatch
 10
0.0
 20
0.0
 30
0.0
210
0.0
220
0.0
230
1.0
  2
SOLID
 70
     1
 71
     0
 91
        1
 92
        0
 93
        4
 72
     1
 10
-12.10036362774437
 20
-35.8
 11
-15.54663887158165
 21
-35.8
 72
     1
 10
-15.54663887158165
 20
-35.8
 11
-17.67486873078567
 21
-38.3363255805726
 72
     1
 10
-17.67486873078567
 20
-38.3363255805726
 11
-14.22856040183524
 21
-38.33628615127011
 72
     1
 10
-14.22856040183524
 20
-38.33628615127011
 11
-12.10036362774437
 21
-35.8
 97
        0
 75
     0
 76
     1
 98
        1
 10
-10.7
 20
-0.0010749287238965
  0
HATCH
  5
DC
330
1F
100
AcDbEntity
  8
중심선
100
AcDbHatch
 10
0.0
 20
0.0
 30
0.0
210
0.0
220
0.0
230
1.0
  2
SOLID
 70
     1
 71
     0
 91
        1
 92
        0
 93
        4
 72
     1
 10
-7.087599636708389
 20
-35.8
 11
-10.53387488054567
 21
-35.8
 72
     1
 10
-10.53387488054567
 20
-35.8
 11
-15.06501288890309
 21
-41.20000000000002
 72
     1
 10
-15.06501288890309
 20
-41.20000000000002
 11
-11.6187376450658
 21
-41.20000000000002
 72
     1
 10
-11.6187376450658
 20
-41.20000000000002
 11
-7.087599636708389
 21
-35.8
 97
        0
 75
     0
 76
     1
 98
        1
 10
-10.7
 20
-0.0010749287238965
  0
HATCH
  5
DD
330
1F
100
AcDbEntity
  8
중심선
100
AcDbHatch
 10
0.0
 20
0.0
 30
0.0
210
0.0
220
0.0
230
1.0
  2
SOLID
 70
     1
 71
     0
 91
        1
 92
        0
 93
        4
 72
     1
 10
-2.074835645672465
 20
-35.79999999999998
 11
-5.521110889509609
 21
-35.8
 72
     1
 10
-5.521110889509609
 20
-35.8
 11
-12.56954779139889
 21
-44.20000000000002
 72
     1
 10
-12.56954779139889
 20
-44.20000000000002
 11
-9.123272547561603
 21
-44.20000000000002
 72
     1
 10
-9.123272547561603
 20
-44.20000000000002
 11
-2.074835645672465
 21
-35.79999999999998
 97
        0
 75
     0
 76
     1
 98
        1
 10
-10.7
 20
-0.0010749287238965
  0
HATCH
  5
DE
330
1F
100
AcDbEntity
  8
중심선
100
AcDbHatch
 10
0.0
 20
0.0
 30
0.0
210
0.0
220
0.0
230
1.0
  2
SOLID
 70
     1
 71
     0
 91
        1
 92
        0
 93
        6
 72
     3
 10
2.725054785339678
 20
-40.00000000005127
 11
3.960054785062285
 21
1.540882976769353E-10
 40
0.3939339440162626
 50
17.09539180608436
 51
320.0019657685082
 73
     0
 72
     1
 10
4.408054441040246
 20
-38.58789400463833
 11
6.713356314741311
 21
-36.65356729459038
 72
     3
 10
2.725054785286831
 20
-40.00000000000015
 11
6.600054785286828
 21
-1.278976924368180E-13
 40
0.6363583540795982
 50
39.9987384933741
 51
368.4976242363725
 73
     1
 72
     1
 10
9.150387277187441
 20
-39.03999999993002
 11
1.405122092122754
 21
-39.03999999993002
 72
     1
 10
1.405122092122754
 20
-39.03999999993002
 11
1.40509704767682
 21
-40.95999999992991
 72
     1
 10
1.40509704767682
 20
-40.95999999992991
 11
5.846476817148858
 21
-40.95999999992988
 97
        0
 75
     0
 76
     1
 98
        1
 10
-10.7
 20
-0.0010749287238965
  0
DIMENSION
  5
DF
330
1F
100
AcDbEntity
  8
치수문자_일반주서
100
AcDbDimension
  2
_D
 10
12.0
 20
16.60348928601491
 30
0.0
 11
24.7
 21
16.60348928601491
 31
0.0
 70
   160
  1
<>
 71
     2
 42
25.40000000000002
  3
SLDDIMSTYLE0
100
AcDbAlignedDimension
 13
37.40000000000003
 23
5.587999999999999
 33
0.0
 14
12.0
 24
6.321881731638875
 34
0.0
100
AcDbRotatedDimension
1001
PE_URL
1000

1001
ACAD
1000
DSTYLE
1002
{
1070
   171
1070
     6
1070
   273
1070
     7
1002
}
  0
DIMENSION
  5
F5
330
1F
100
AcDbEntity
  8
치수문자_일반주서
100
AcDbDimension
  2
_D_1
 10
-45.15
 20
29.09942038737399
 30
0.0
 11
-3.874999999999991
 21
29.09942038737399
 31
0.0
 70
   160
  1
<>
 71
     2
 42
82.55000000000001
  3
SLDDIMSTYLE0
100
AcDbAlignedDimension
 13
37.40000000000003
 23
5.587999999999999
 33
0.0
 14
-45.14999999999999
 24
5.08
 34
0.0
 50
0.0000000000000049
100
AcDbRotatedDimension
1001
PE_URL
1000

1001
ACAD
1000
DSTYLE
1002
{
1070
   171
1070
     6
1070
   273
1070
     7
1002
}
  0
DIMENSION
  5
109
330
1F
100
AcDbEntity
  8
치수문자_일반주서
100
AcDbDimension
  2
_D_2
 10
-57.51499999999999
 20
-6.35000000000005
 30
0.0
 11
-57.51500000000001
 21
-0.0000000000000081
 31
0.0
 70
   160
  1
%%c<>
 71
     2
 42
12.69999999999999
 52
-270.0
  3
SLDDIMSTYLE0
100
AcDbAlignedDimension
 13
-43.88
 23
6.349999999999991
 33
0.0
 14
-43.88
 24
-6.349999999999998
 34
0.0
 50
90.0000000000002
100
AcDbRotatedDimension
1001
ACAD
1000
DSTYLE
1002
{
1070
   171
1070
     6
1070
   273
1070
     7
1002
}
1001
ACAD_DSTYLE_DIMFLIPARROW_SYMBOL
1070
   385
1070
     0
1001
ACAD_DSTYLE_DIMFLIPARROW_WHICH_SYMBOL
1070
   386
1070
     3
  0
DIMENSION
  5
11D
330
1F
100
AcDbEntity
  8
치수문자_일반주서
100
AcDbDimension
  2
_D_3
 10
59.02089909195965
 20
-6.349999999999884
 30
0.0
 11
59.02089909195954
 21
26.29775000000012
 31
0.0
 70
   160
  1
%%c<>
 71
     2
 42
12.7
 52
-270.0
  3
SLDDIMSTYLE0
100
AcDbAlignedDimension
 13
37.40000000000003
 23
6.350000000000041
 33
0.0
 14
37.40000000000003
 24
-6.349999999999964
 34
0.0
 50
90.0000000000002
100
AcDbRotatedDimension
1001
PE_URL
1000

1001
ACAD
1000
DSTYLE
1002
{
1070
   171
1070
     6
1070
   273
1070
     7
1002
}
  0
LINE
  5
131
330
1F
100
AcDbEntity
  8
참조1
100
AcDbLine
 10
66.2384838153456
 20
7.44
 30
0.0
 11
66.2384838153456
 21
-7.440000000000005
 31
0.0
  0
LINE
  5
132
330
1F
100
AcDbEntity
  8
참조1
100
AcDbLine
 10
78.93848381534559
 20
5.44
 30
0.0
 11
66.2384838153456
 21
5.44
 31
0.0
  0
SOLID
  5
133
330
1F
100
AcDbEntity
  8
참조1
100
AcDbTrace
 10
66.2384838153456
 20
5.44
 30
0.0
 11
72.5884838153456
 21
4.423999999999999
 31
0.0
 12
72.5884838153456
 22
6.456
 32
0.0
 13
72.5884838153456
 23
6.456
 33
0.0
  0
LINE
  5
134
330
1F
100
AcDbEntity
  8
참조1
100
AcDbLine
 10
78.93848381534559
 20
-5.440000000000005
 30
0.0
 11
66.2384838153456
 21
-5.440000000000005
 31
0.0
  0
SOLID
  5
135
330
1F
100
AcDbEntity
  8
참조1
100
AcDbTrace
 10
66.2384838153456
 20
-5.440000000000005
 30
0.0
 11
72.5884838153456
 21
-6.456000000000005
 31
0.0
 12
72.5884838153456
 22
-4.424000000000005
 32
0.0
 13
72.5884838153456
 23
-4.424000000000005
 33
0.0
  0
MTEXT
  5
136
330
1F
100
AcDbEntity
  8
참조1
100
AcDbMText
 10
75.63597390781587
 20
10.98821664464993
 30
0.0
 40
3.5
 41
0.0
 71
     1
 72
     1
  1
A
  7
SLDTEXTSTYLE0
 73
     1
 44
1.0
  0
MTEXT
  5
137
330
1F
100
AcDbEntity
  8
참조1
100
AcDbMText
 10
75.63597390781587
 20
0.1082166446499294
 30
0.0
 40
3.5
 41
0.0
 71
     1
 72
     1
  1
A
  7
SLDTEXTSTYLE0
 73
     1
 44
1.0
  0
INSERT
  5
13E
330
1F
100
AcDbEntity
  8
해칭선
100
AcDbBlockReference
  2
SW_DOWELSYMBOL_0
 10
0.0
 20
0.0
 30
0.0
  0
MTEXT
  5
18C
102
{ACAD_REACTORS
330
18D
102
}
330
1F
100
AcDbEntity
  8
치수문자_일반주서
100
AcDbMText
 10
47.66577631579962
 20
-20.04012964080563
 30
0.0
 40
3.5
 41
0.0
 71
     7
 72
     1
  1
{R0.76[.030"]}
 73
     1
 44
1.0
1001
PE_URL
1000

1001
ACAD
1000
ACAD_MTEXT_DEFINED_HEIGHT_BEGIN
1070
    46
1040
3.5
1000
ACAD_MTEXT_DEFINED_HEIGHT_END
  0
LEADER
  5
18D
102
{ACAD_XDICTIONARY
360
18E
102
}
330
1F
100
AcDbEntity
  8
치수문자_일반주서
100
AcDbLeader
  3
ISO-25
 73
     0
 74
     0
 75
     1
 40
3.5
 41
30.91666666666667
 76
     3
 10
37.17681536726418
 20
-6.126815367264147
 30
0.0
 10
42.83977631579962
 20
-18.29012964080563
 30
0.0
 10
46.14177631579962
 20
-18.29012964080563
 30
0.0
340
18C
213
0.0
223
1.75
233
0.0
1001
ACAD
1000
DSTYLE
1002
{
1070
    77
1070
     0
1070
   179
1070
     2
1070
   143
1040
0.0393700787401575
1070
    41
1040
3.302
1070
    44
1040
1.0
1070
    42
1040
1.0
1070
   147
1040
1.524
1070
    73
1070
     1
1070
    74
1070
     1
1070
   140
1040
3.5
1070
   284
1070
     0
1070
    78
1070
     0
1002
}
1001
PE_URL
1000

  0
ENDSEC
  0
SECTION
  2
OBJECTS
  0
DICTIONARY
  5
C
330
0
100
AcDbDictionary
281
     1
  3
ACAD_DETAILVIEWSTYLE
350
19A
  3
ACAD_GROUP
350
D
  3
ACAD_LAYOUT
350
1A
  3
ACAD_MLINESTYLE
350
17
  3
ACAD_PLOTSETTINGS
350
19
  3
ACAD_PLOTSTYLENAME
350
E
  3
ACAD_SCALELIST
350
47
  3
ACAD_SECTIONVIEWSTYLE
350
19B
  3
AcDbVariableDictionary
350
195
  3
APPDATA
350
160
  3
DWGPROPS
350
19C
  0
DICTIONARY
  5
18E
330
18D
100
AcDbDictionary
280
     1
281
     1
  0
DICTIONARY
  5
19A
102
{ACAD_REACTORS
330
C
102
}
330
C
100
AcDbDictionary
281
     1
  0
DICTIONARY
  5
D
102
{ACAD_REACTORS
330
C
102
}
330
C
100
AcDbDictionary
281
     1
  0
DICTIONARY
  5
1A
102
{ACAD_REACTORS
330
C
102
}
330
C
100
AcDbDictionary
281
     1
  3
Layout1
350
1E
  3
Layout2
350
26
  3
Model
350
22
  0
DICTIONARY
  5
17
102
{ACAD_REACTORS
330
C
102
}
330
C
100
AcDbDictionary
281
     1
  3
Standard
350
18
  0
DICTIONARY
  5
19
102
{ACAD_REACTORS
330
C
102
}
330
C
100
AcDbDictionary
281
     1
  0
ACDBDICTIONARYWDFLT
  5
E
102
{ACAD_REACTORS
330
C
102
}
330
C
100
AcDbDictionary
281
     1
  3
Normal
350
F
100
AcDbDictionaryWithDefault
340
F
  0
DICTIONARY
  5
47
102
{ACAD_REACTORS
330
C
102
}
330
C
100
AcDbDictionary
281
     1
  3
A0
350
48
  3
A1
350
49
  3
A2
350
4A
  3
A3
350
4B
  3
A4
350
4C
  3
A5
350
4D
  3
A6
350
4E
  3
A7
350
4F
  3
A8
350
50
  3
A9
350
51
  3
B0
350
52
  3
B1
350
53
  3
B2
350
54
  3
B3
350
55
  3
B4
350
56
  3
B5
350
57
  3
B6
350
58
  3
B7
350
59
  3
B8
350
5A
  3
B9
350
5B
  3
C0
350
5C
  3
C1
350
5D
  3
C2
350
5E
  3
C3
350
5F
  3
C4
350
60
  3
C5
350
61
  3
C6
350
62
  3
C7
350
63
  3
C8
350
64
  3
C9
350
65
  3
D0
350
66
  3
D1
350
67
  3
D2
350
68
  0
DICTIONARY
  5
19B
102
{ACAD_REACTORS
330
C
102
}
330
C
100
AcDbDictionary
281
     1
  0
DICTIONARY
  5
195
102
{ACAD_REACTORS
330
C
102
}
330
C
100
AcDbDictionary
281
     1
  0
DICTIONARY
  5
160
102
{ACAD_REACTORS
330
C
102
}
330
C
100
AcDbDictionary
281
     1
  0
XRECORD
  5
19C
102
{ACAD_REACTORS
330
C
102
}
330
C
100
AcDbXrecord
280
     1
  1
DWGPROPS COOKIE
  2

  3

  4

  6

  7

  8
H
  9

300
=
301
=
302
=
303
=
304
=
305
=
306
=
307
=
308
=
309
=
 40
0.0
 41
2458295.115186134
 42
2458301.611396215
  1

 90
        0
  0
LAYOUT
  5
1E
102
{ACAD_REACTORS
330
1A
102
}
330
1A
100
AcDbPlotSettings
  1

  2
none_device
  4

  6

 40
0.0
 41
0.0
 42
0.0
 43
0.0
 44
0.0
 45
0.0
 46
0.0
 47
0.0
 48
0.0
 49
0.0
140
0.0
141
0.0
142
1.0
143
1.0
 70
   688
 72
     1
 73
     0
 74
     5
  7

 75
    16
147
1.0
148
0.0
149
0.0
100
AcDbLayout
  1
Layout1
 70
     1
 71
     1
 10
0.0
 20
0.0
 11
420.0
 21
297.0
 12
0.0
 22
0.0
 32
0.0
 14
1.000000000000000E+20
 24
1.000000000000000E+20
 34
1.000000000000000E+20
 15
-1.000000000000000E+20
 25
-1.000000000000000E+20
 35
-1.000000000000000E+20
146
0.0
 13
0.0
 23
0.0
 33
0.0
 16
1.0
 26
0.0
 36
0.0
 17
0.0
 27
1.0
 37
0.0
 76
     0
330
1B
  0
LAYOUT
  5
26
102
{ACAD_REACTORS
330
1A
102
}
330
1A
100
AcDbPlotSettings
  1

  2
none_device
  4

  6

 40
0.0
 41
0.0
 42
0.0
 43
0.0
 44
0.0
 45
0.0
 46
0.0
 47
0.0
 48
0.0
 49
0.0
140
0.0
141
0.0
142
1.0
143
1.0
 70
   688
 72
     1
 73
     0
 74
     5
  7

 75
    16
147
1.0
148
0.0
149
0.0
100
AcDbLayout
  1
Layout2
 70
     1
 71
     2
 10
0.0
 20
0.0
 11
0.0
 21
0.0
 12
0.0
 22
0.0
 32
0.0
 14
0.0
 24
0.0
 34
0.0
 15
0.0
 25
0.0
 35
0.0
146
0.0
 13
0.0
 23
0.0
 33
0.0
 16
1.0
 26
0.0
 36
0.0
 17
0.0
 27
1.0
 37
0.0
 76
     0
330
23
  0
LAYOUT
  5
22
102
{ACAD_REACTORS
330
1A
102
}
330
1A
100
AcDbPlotSettings
  1

  2
none_device
  4
ANSI_A_(11.00_x_8.50_Inches)
  6

 40
6.35
 41
19.05
 42
6.35000508
 43
19.05000254
 44
279.4
 45
215.9
 46
103.2648517509499
 47
99.06406068015761
 48
0.0
 49
0.0
140
0.0
141
0.0
142
0.0739576828310821
143
1.0
 70
  1696
 72
     0
 73
     0
 74
     0
  7

 75
     0
147
0.0235690232323232
148
0.0
149
0.0
100
AcDbLayout
  1
Model
 70
     1
 71
     0
 10
0.0
 20
0.0
 11
420.0
 21
297.0
 12
0.0
 22
0.0
 32
0.0
 14
-61.89000000000004
 24
-49.97180738881175
 34
0.0
 15
78.93848381534559
 25
39.64150000000012
 35
0.0
146
0.0
 13
0.0
 23
0.0
 33
0.0
 16
1.0
 26
0.0
 36
0.0
 17
0.0
 27
1.0
 37
0.0
 76
     0
330
1F
331
29
  0
MLINESTYLE
  5
18
102
{ACAD_REACTORS
330
17
102
}
330
17
100
AcDbMlineStyle
  2
Standard
 70
     0
  3

 62
   256
 51
90.0
 52
90.0
 71
     2
 49
0.5
 62
   256
  6
BYLAYER
 49
-0.5
 62
   256
  6
BYLAYER
  0
ACDBPLACEHOLDER
  5
F
102
{ACAD_REACTORS
330
E
102
}
330
E
  0
SCALE
  5
48
102
{ACAD_REACTORS
330
47
102
}
330
47
100
AcDbScale
 70
     0
300
1:1
140
1.0
141
1.0
290
     1
  0
SCALE
  5
49
102
{ACAD_REACTORS
330
47
102
}
330
47
100
AcDbScale
 70
     0
300
1:2
140
1.0
141
2.0
290
     0
  0
SCALE
  5
4A
102
{ACAD_REACTORS
330
47
102
}
330
47
100
AcDbScale
 70
     0
300
1:4
140
1.0
141
4.0
290
     0
  0
SCALE
  5
4B
102
{ACAD_REACTORS
330
47
102
}
330
47
100
AcDbScale
 70
     0
300
1:5
140
1.0
141
5.0
290
     0
  0
SCALE
  5
4C
102
{ACAD_REACTORS
330
47
102
}
330
47
100
AcDbScale
 70
     0
300
1:8
140
1.0
141
8.0
290
     0
  0
SCALE
  5
4D
102
{ACAD_REACTORS
330
47
102
}
330
47
100
AcDbScale
 70
     0
300
1:10
140
1.0
141
10.0
290
     0
  0
SCALE
  5
4E
102
{ACAD_REACTORS
330
47
102
}
330
47
100
AcDbScale
 70
     0
300
1:16
140
1.0
141
16.0
290
     0
  0
SCALE
  5
4F
102
{ACAD_REACTORS
330
47
102
}
330
47
100
AcDbScale
 70
     0
300
1:20
140
1.0
141
20.0
290
     0
  0
SCALE
  5
50
102
{ACAD_REACTORS
330
47
102
}
330
47
100
AcDbScale
 70
     0
300
1:30
140
1.0
141
30.0
290
     0
  0
SCALE
  5
51
102
{ACAD_REACTORS
330
47
102
}
330
47
100
AcDbScale
 70
     0
300
1:40
140
1.0
141
40.0
290
     0
  0
SCALE
  5
52
102
{ACAD_REACTORS
330
47
102
}
330
47
100
AcDbScale
 70
     0
300
1:50
140
1.0
141
50.0
290
     0
  0
SCALE
  5
53
102
{ACAD_REACTORS
330
47
102
}
330
47
100
AcDbScale
 70
     0
300
1:100
140
1.0
141
100.0
290
     0
  0
SCALE
  5
54
102
{ACAD_REACTORS
330
47
102
}
330
47
100
AcDbScale
 70
     0
300
2:1
140
2.0
141
1.0
290
     0
  0
SCALE
  5
55
102
{ACAD_REACTORS
330
47
102
}
330
47
100
AcDbScale
 70
     0
300
4:1
140
4.0
141
1.0
290
     0
  0
SCALE
  5
56
102
{ACAD_REACTORS
330
47
102
}
330
47
100
AcDbScale
 70
     0
300
8:1
140
8.0
141
1.0
290
     0
  0
SCALE
  5
57
102
{ACAD_REACTORS
330
47
102
}
330
47
100
AcDbScale
 70
     0
300
10:1
140
10.0
141
1.0
290
     0
  0
SCALE
  5
58
102
{ACAD_REACTORS
330
47
102
}
330
47
100
AcDbScale
 70
     0
300
100:1
140
100.0
141
1.0
290
     0
  0
SCALE
  5
59
102
{ACAD_REACTORS
330
47
102
}
330
47
100
AcDbScale
 70
     0
300
1/128" = 1'-0"
140
0.0078125
141
12.0
290
     0
  0
SCALE
  5
5A
102
{ACAD_REACTORS
330
47
102
}
330
47
100
AcDbScale
 70
     0
300
1/64" = 1'-0"
140
0.015625
141
12.0
290
     0
  0
SCALE
  5
5B
102
{ACAD_REACTORS
330
47
102
}
330
47
100
AcDbScale
 70
     0
300
1/32" = 1'-0"
140
0.03125
141
12.0
290
     0
  0
SCALE
  5
5C
102
{ACAD_REACTORS
330
47
102
}
330
47
100
AcDbScale
 70
     0
300
1/16" = 1'-0"
140
0.0625
141
12.0
290
     0
  0
SCALE
  5
5D
102
{ACAD_REACTORS
330
47
102
}
330
47
100
AcDbScale
 70
     0
300
3/32" = 1'-0"
140
0.09375
141
12.0
290
     0
  0
SCALE
  5
5E
102
{ACAD_REACTORS
330
47
102
}
330
47
100
AcDbScale
 70
     0
300
1/8" = 1'-0"
140
0.125
141
12.0
290
     0
  0
SCALE
  5
5F
102
{ACAD_REACTORS
330
47
102
}
330
47
100
AcDbScale
 70
     0
300
3/16" = 1'-0"
140
0.1875
141
12.0
290
     0
  0
SCALE
  5
60
102
{ACAD_REACTORS
330
47
102
}
330
47
100
AcDbScale
 70
     0
300
1/4" = 1'-0"
140
0.25
141
12.0
290
     0
  0
SCALE
  5
61
102
{ACAD_REACTORS
330
47
102
}
330
47
100
AcDbScale
 70
     0
300
3/8" = 1'-0"
140
0.375
141
12.0
290
     0
  0
SCALE
  5
62
102
{ACAD_REACTORS
330
47
102
}
330
47
100
AcDbScale
 70
     0
300
1/2" = 1'-0"
140
0.5
141
12.0
290
     0
  0
SCALE
  5
63
102
{ACAD_REACTORS
330
47
102
}
330
47
100
AcDbScale
 70
     0
300
3/4" = 1'-0"
140
0.75
141
12.0
290
     0
  0
SCALE
  5
64
102
{ACAD_REACTORS
330
47
102
}
330
47
100
AcDbScale
 70
     0
300
1" = 1'-0"
140
1.0
141
12.0
290
     0
  0
SCALE
  5
65
102
{ACAD_REACTORS
330
47
102
}
330
47
100
AcDbScale
 70
     0
300
1-1/2" = 1'-0"
140
1.5
141
12.0
290
     0
  0
SCALE
  5
66
102
{ACAD_REACTORS
330
47
102
}
330
47
100
AcDbScale
 70
     0
300
3" = 1'-0"
140
3.0
141
12.0
290
     0
  0
SCALE
  5
67
102
{ACAD_REACTORS
330
47
102
}
330
47
100
AcDbScale
 70
     0
300
6" = 1'-0"
140
6.0
141
12.0
290
     0
  0
SCALE
  5
68
102
{ACAD_REACTORS
330
47
102
}
330
47
100
AcDbScale
 70
     0
300
1'-0" = 1'-0"
140
12.0
141
12.0
290
     0
  0
ENDSEC
  0
EOF
