  0
SECTION
  2
HEADER
  9
$ACADVER
  1
AC1015
  9
$ACADMAINTVER
 70
     6
  9
$DWGCODEPAGE
  3
ANSI_949
  9
$INSBASE
 10
0.0
 20
0.0
 30
0.0
  9
$EXTMIN
 10
-69.35789955631041
 20
-49.97180738881174
 30
0.0
  9
$EXTMAX
 10
93.22598381534561
 20
57.7096871005775
 30
0.0
  9
$LIMMIN
 10
0.0
 20
0.0
  9
$LIMMAX
 10
420.0
 20
297.0
  9
$ORTHOMODE
 70
     1
  9
$REGENMODE
 70
     1
  9
$FILLMODE
 70
     1
  9
$QTEXTMODE
 70
     0
  9
$MIRRTEXT
 70
     1
  9
$LTSCALE
 40
1.0
  9
$ATTMODE
 70
     1
  9
$TEXTSIZE
 40
3.5
  9
$TRACEWID
 40
1.0
  9
$TEXTSTYLE
  7
Standard
  9
$CLAYER
  8
0
  9
$CELTYPE
  6
ByLayer
  9
$CECOLOR
 62
   256
  9
$CELTSCALE
 40
1.0
  9
$DISPSILH
 70
     0
  9
$DIMSCALE
 40
1.0
  9
$DIMASZ
 40
3.302
  9
$DIMEXO
 40
1.0
  9
$DIMDLI
 40
3.75
  9
$DIMRND
 40
0.0
  9
$DIMDLE
 40
0.0
  9
$DIMEXE
 40
1.0
  9
$DIMTP
 40
0.0
  9
$DIMTM
 40
0.0
  9
$DIMTXT
 40
3.5
  9
$DIMCEN
 40
2.5
  9
$DIMTSZ
 40
0.0
  9
$DIMTOL
 70
     0
  9
$DIMLIM
 70
     0
  9
$DIMTIH
 70
     1
  9
$DIMTOH
 70
     1
  9
$DIMSE1
 70
     0
  9
$DIMSE2
 70
     0
  9
$DIMTAD
 70
     1
  9
$DIMZIN
 70
     0
  9
$DIMBLK
  1

  9
$DIMASO
 70
     1
  9
$DIMSHO
 70
     1
  9
$DIMPOST
  1

  9
$DIMAPOST
  1

  9
$DIMALT
 70
     0
  9
$DIMALTD
 70
     3
  9
$DIMALTF
 40
0.0393700787401575
  9
$DIMLFAC
 40
1.0
  9
$DIMTOFL
 70
     1
  9
$DIMTVP
 40
0.0
  9
$DIMTIX
 70
     0
  9
$DIMSOXD
 70
     0
  9
$DIMSAH
 70
     0
  9
$DIMBLK1
  1

  9
$DIMBLK2
  1

  9
$DIMSTYLE
  2
ISO-25
  9
$DIMCLRD
 70
     0
  9
$DIMCLRE
 70
     0
  9
$DIMCLRT
 70
     0
  9
$DIMTFAC
 40
1.0
  9
$DIMGAP
 40
1.524
  9
$DIMJUST
 70
     0
  9
$DIMSD1
 70
     0
  9
$DIMSD2
 70
     0
  9
$DIMTOLJ
 70
     0
  9
$DIMTZIN
 70
     0
  9
$DIMALTZ
 70
     0
  9
$DIMALTTZ
 70
     0
  9
$DIMUPT
 70
     0
  9
$DIMDEC
 70
     2
  9
$DIMTDEC
 70
     2
  9
$DIMALTU
 70
     2
  9
$DIMALTTD
 70
     3
  9
$DIMTXSTY
  7
Standard
  9
$DIMAUNIT
 70
     0
  9
$DIMADEC
 70
     2
  9
$DIMALTRND
 40
0.0
  9
$DIMAZIN
 70
     0
  9
$DIMDSEP
 70
    44
  9
$DIMATFIT
 70
     3
  9
$DIMFRAC
 70
     0
  9
$DIMLDRBLK
  1

  9
$DIMLUNIT
 70
     2
  9
$DIMLWD
 70
    -2
  9
$DIMLWE
 70
    -2
  9
$DIMTMOVE
 70
     0
  9
$LUNITS
 70
     2
  9
$LUPREC
 70
     2
  9
$SKETCHINC
 40
1.0
  9
$FILLETRAD
 40
10.0
  9
$AUNITS
 70
     0
  9
$AUPREC
 70
     2
  9
$MENU
  1
.
  9
$ELEVATION
 40
0.0
  9
$PELEVATION
 40
0.0
  9
$THICKNESS
 40
0.0
  9
$LIMCHECK
 70
     0
  9
$CHAMFERA
 40
0.0
  9
$CHAMFERB
 40
0.0
  9
$CHAMFERC
 40
0.0
  9
$CHAMFERD
 40
0.0
  9
$SKPOLY
 70
     0
  9
$TDCREATE
 40
2458295.510657083
  9
$TDUCREATE
 40
2458295.135657083
  9
$TDUPDATE
 40
2458302.052161736
  9
$TDUUPDATE
 40
2458301.677161736
  9
$TDINDWG
 40
0.0010480671
  9
$TDUSRTIMER
 40
0.0010480671
  9
$USRTIMER
 70
     1
  9
$ANGBASE
 50
0.0
  9
$ANGDIR
 70
     0
  9
$PDMODE
 70
     0
  9
$PDSIZE
 40
-1.0
  9
$PLINEWID
 40
0.0
  9
$SPLFRAME
 70
     0
  9
$SPLINETYPE
 70
     6
  9
$SPLINESEGS
 70
     8
  9
$HANDSEED
  5
1B1
  9
$SURFTAB1
 70
     6
  9
$SURFTAB2
 70
     6
  9
$SURFTYPE
 70
     6
  9
$SURFU
 70
     6
  9
$SURFV
 70
     6
  9
$UCSBASE
  2

  9
$UCSNAME
  2

  9
$UCSORG
 10
0.0
 20
0.0
 30
0.0
  9
$UCSXDIR
 10
1.0
 20
0.0
 30
0.0
  9
$UCSYDIR
 10
0.0
 20
1.0
 30
0.0
  9
$UCSORTHOREF
  2

  9
$UCSORTHOVIEW
 70
     0
  9
$UCSORGTOP
 10
0.0
 20
0.0
 30
0.0
  9
$UCSORGBOTTOM
 10
0.0
 20
0.0
 30
0.0
  9
$UCSORGLEFT
 10
0.0
 20
0.0
 30
0.0
  9
$UCSORGRIGHT
 10
0.0
 20
0.0
 30
0.0
  9
$UCSORGFRONT
 10
0.0
 20
0.0
 30
0.0
  9
$UCSORGBACK
 10
0.0
 20
0.0
 30
0.0
  9
$PUCSBASE
  2

  9
$PUCSNAME
  2

  9
$PUCSORG
 10
0.0
 20
0.0
 30
0.0
  9
$PUCSXDIR
 10
1.0
 20
0.0
 30
0.0
  9
$PUCSYDIR
 10
0.0
 20
1.0
 30
0.0
  9
$PUCSORTHOREF
  2

  9
$PUCSORTHOVIEW
 70
     0
  9
$PUCSORGTOP
 10
0.0
 20
0.0
 30
0.0
  9
$PUCSORGBOTTOM
 10
0.0
 20
0.0
 30
0.0
  9
$PUCSORGLEFT
 10
0.0
 20
0.0
 30
0.0
  9
$PUCSORGRIGHT
 10
0.0
 20
0.0
 30
0.0
  9
$PUCSORGFRONT
 10
0.0
 20
0.0
 30
0.0
  9
$PUCSORGBACK
 10
0.0
 20
0.0
 30
0.0
  9
$USERI1
 70
     0
  9
$USERI2
 70
     0
  9
$USERI3
 70
     0
  9
$USERI4
 70
     0
  9
$USERI5
 70
     0
  9
$USERR1
 40
0.0
  9
$USERR2
 40
0.0
  9
$USERR3
 40
0.0
  9
$USERR4
 40
0.0
  9
$USERR5
 40
0.0
  9
$WORLDVIEW
 70
     1
  9
$SHADEDGE
 70
     3
  9
$SHADEDIF
 70
    70
  9
$TILEMODE
 70
     1
  9
$MAXACTVP
 70
    64
  9
$PINSBASE
 10
0.0
 20
0.0
 30
0.0
  9
$PLIMCHECK
 70
     0
  9
$PEXTMIN
 10
1.000000000000000E+20
 20
1.000000000000000E+20
 30
1.000000000000000E+20
  9
$PEXTMAX
 10
-1.000000000000000E+20
 20
-1.000000000000000E+20
 30
-1.000000000000000E+20
  9
$PLIMMIN
 10
0.0
 20
0.0
  9
$PLIMMAX
 10
0.0
 20
0.0
  9
$UNITMODE
 70
     0
  9
$VISRETAIN
 70
     1
  9
$PLINEGEN
 70
     0
  9
$PSLTSCALE
 70
     1
  9
$TREEDEPTH
 70
  3020
  9
$CMLSTYLE
  2
Standard
  9
$CMLJUST
 70
     0
  9
$CMLSCALE
 40
20.0
  9
$PROXYGRAPHICS
 70
     1
  9
$MEASUREMENT
 70
     1
  9
$CELWEIGHT
370
    -1
  9
$ENDCAPS
280
     0
  9
$JOINSTYLE
280
     0
  9
$LWDISPLAY
290
     1
  9
$INSUNITS
 70
     4
  9
$HYPERLINKBASE
  1

  9
$STYLESHEET
  1

  9
$XEDIT
290
     1
  9
$CEPSNTYPE
380
     0
  9
$PSTYLEMODE
290
     1
  9
$FINGERPRINTGUID
  2
{600CA16B-126B-40C0-AE48-95370FB9C6A3}
  9
$VERSIONGUID
  2
{FAEB1C32-E019-11D5-929B-00C0DF256EC4}
  9
$EXTNAMES
290
     1
  9
$PSVPSCALE
 40
0.0
  9
$OLESTARTUP
290
     0
  0
ENDSEC
  0
SECTION
  2
CLASSES
  0
CLASS
  1
ACDBDICTIONARYWDFLT
  2
AcDbDictionaryWithDefault
  3
ObjectDBX Classes
 90
        0
280
     0
281
     0
  0
CLASS
  1
VISUALSTYLE
  2
AcDbVisualStyle
  3
ObjectDBX Classes
 90
     4095
280
     0
281
     0
  0
CLASS
  1
MATERIAL
  2
AcDbMaterial
  3
ObjectDBX Classes
 90
     1153
280
     0
281
     0
  0
CLASS
  1
SCALE
  2
AcDbScale
  3
ObjectDBX Classes
 90
     1153
280
     0
281
     0
  0
CLASS
  1
SUN
  2
AcDbSun
  3
SCENEOE
 90
     1153
280
     0
281
     0
  0
CLASS
  1
ACDBPLACEHOLDER
  2
AcDbPlaceHolder
  3
ObjectDBX Classes
 90
        0
280
     0
281
     0
  0
CLASS
  1
LAYOUT
  2
AcDbLayout
  3
ObjectDBX Classes
 90
        0
280
     0
281
     0
  0
CLASS
  1
TABLESTYLE
  2
AcDbTableStyle
  3
ObjectDBX Classes
 90
     4095
280
     0
281
     0
  0
CLASS
  1
MLEADERSTYLE
  2
AcDbMLeaderStyle
  3
ACDB_MLEADERSTYLE_CLASS
 90
     4095
280
     0
281
     0
  0
CLASS
  1
DICTIONARYVAR
  2
AcDbDictionaryVar
  3
ObjectDBX Classes
 90
        0
280
     0
281
     0
  0
ENDSEC
  0
SECTION
  2
TABLES
  0
TABLE
  2
VPORT
  5
8
330
0
100
AcDbSymbolTable
 70
     1
  0
VPORT
  5
29
330
8
100
AcDbSymbolTableRecord
100
AcDbViewportTableRecord
  2
*Active
 70
     0
 10
0.0
 20
0.0
 11
1.0
 21
1.0
 12
11.93404212951759
 22
3.868939855882886
 13
0.0
 23
0.0
 14
10.0
 24
10.0
 15
10.0
 25
10.0
 16
0.0
 26
0.0
 36
1.0
 17
0.0
 27
0.0
 37
0.0
 40
109.835124379177
 41
2.40031152647975
 42
50.0
 43
0.0
 44
0.0
 50
0.0
 51
0.0
 71
    16
 72
  2000
 73
     1
 74
     3
 75
     0
 76
     0
 77
     0
 78
     0
281
     0
 65
     1
110
0.0
120
0.0
130
0.0
111
1.0
121
0.0
131
0.0
112
0.0
122
1.0
132
0.0
 79
     0
146
0.0
  0
ENDTAB
  0
TABLE
  2
LTYPE
  5
5
330
0
100
AcDbSymbolTable
 70
     6
  0
LTYPE
  5
14
330
5
100
AcDbSymbolTableRecord
100
AcDbLinetypeTableRecord
  2
ByBlock
 70
     0
  3

 72
    65
 73
     0
 40
0.0
  0
LTYPE
  5
15
330
5
100
AcDbSymbolTableRecord
100
AcDbLinetypeTableRecord
  2
ByLayer
 70
     0
  3

 72
    65
 73
     0
 40
0.0
  0
LTYPE
  5
16
330
5
100
AcDbSymbolTableRecord
100
AcDbLinetypeTableRecord
  2
Continuous
 70
     0
  3
Solid line
 72
    65
 73
     0
 40
0.0
  0
LTYPE
  5
6A
330
5
100
AcDbSymbolTableRecord
100
AcDbLinetypeTableRecord
  2
HIDDEN
 70
     0
  3
Hidden __ __ __ __ __ __ __ __ __ __ __ __ __ __
 72
    65
 73
     2
 40
1.905
 49
1.27
 74
     0
 49
-0.635
 74
     0
  0
LTYPE
  5
6B
330
5
100
AcDbSymbolTableRecord
100
AcDbLinetypeTableRecord
  2
PHANTOM
 70
     0
  3
Phantom ______  __  __  ______  __  __  ______
 72
    65
 73
     6
 40
12.7
 49
6.35
 74
     0
 49
-1.27
 74
     0
 49
1.27
 74
     0
 49
-1.27
 74
     0
 49
1.27
 74
     0
 49
-1.27
 74
     0
  0
LTYPE
  5
6C
330
5
100
AcDbSymbolTableRecord
100
AcDbLinetypeTableRecord
  2
CENTER
 70
     0
  3
Center ____ _ ____ _ ____ _ ____ _ ____ _ ____
 72
    65
 73
     4
 40
10.16
 49
6.35
 74
     0
 49
-1.27
 74
     0
 49
1.27
 74
     0
 49
-1.27
 74
     0
  0
LTYPE
  5
6D
330
5
100
AcDbSymbolTableRecord
100
AcDbLinetypeTableRecord
  2
CENTERX2
 70
     0
  3
Center (2x) ________  __  ________  __  _____
 72
    65
 73
     4
 40
20.32
 49
12.7
 74
     0
 49
-2.54
 74
     0
 49
2.54
 74
     0
 49
-2.54
 74
     0
  0
LTYPE
  5
6E
330
5
100
AcDbSymbolTableRecord
100
AcDbLinetypeTableRecord
  2
DOT2
 70
     0
  3
Dot (.5x) ........................................
 72
    65
 73
     2
 40
0.635
 49
0.0
 74
     0
 49
-0.635
 74
     0
  0
ENDTAB
  0
TABLE
  2
LAYER
  5
2
330
0
100
AcDbSymbolTable
 70
    18
  0
LAYER
  5
10
330
2
100
AcDbSymbolTableRecord
100
AcDbLayerTableRecord
  2
0
 70
     0
 62
     7
  6
Continuous
370
    -3
390
F
  0
LAYER
  5
6F
330
2
100
AcDbSymbolTableRecord
100
AcDbLayerTableRecord
  2
FORMAT
 70
     0
 62
     2
  6
Continuous
370
    -3
390
F
  0
LAYER
  5
70
330
2
100
AcDbSymbolTableRecord
100
AcDbLayerTableRecord
  2
외형선
 70
     0
 62
     4
  6
Continuous
370
    30
390
F
  0
LAYER
  5
71
330
2
100
AcDbSymbolTableRecord
100
AcDbLayerTableRecord
  2
숨은선
 70
     0
 62
     2
  6
HIDDEN
370
    15
390
F
  0
LAYER
  5
72
330
2
100
AcDbSymbolTableRecord
100
AcDbLayerTableRecord
  2
중심선
 70
     0
 62
     1
  6
CENTERX2
370
    -3
390
F
  0
LAYER
  5
73
330
2
100
AcDbSymbolTableRecord
100
AcDbLayerTableRecord
  2
파단선
 70
     0
 62
     4
  6
Continuous
370
    -3
390
F
  0
LAYER
  5
74
330
2
100
AcDbSymbolTableRecord
100
AcDbLayerTableRecord
  2
해칭선
 70
     0
 62
   100
  6
Continuous
370
    -3
390
F
  0
LAYER
  5
75
330
2
100
AcDbSymbolTableRecord
100
AcDbLayerTableRecord
  2
가는실선
 70
     0
 62
     4
  6
Continuous
370
    -3
390
F
  0
LAYER
  5
76
330
2
100
AcDbSymbolTableRecord
100
AcDbLayerTableRecord
  2
치수_보조선
 70
     0
 62
     4
  6
Continuous
370
    -3
390
F
  0
LAYER
  5
77
330
2
100
AcDbSymbolTableRecord
100
AcDbLayerTableRecord
  2
치수문자_일반주서
 70
     0
 62
     7
  6
Continuous
370
    15
390
F
  0
LAYER
  5
78
330
2
100
AcDbSymbolTableRecord
100
AcDbLayerTableRecord
  2
개별주서
 70
     0
 62
   100
  6
Continuous
370
    30
390
F
  0
LAYER
  5
79
330
2
100
AcDbSymbolTableRecord
100
AcDbLayerTableRecord
  2
중간선
 70
     0
 62
     2
  6
Continuous
370
    15
390
F
  0
LAYER
  5
7A
330
2
100
AcDbSymbolTableRecord
100
AcDbLayerTableRecord
  2
윤곽선
 70
     0
 62
     3
  6
Continuous
370
    40
390
F
  0
LAYER
  5
7B
330
2
100
AcDbSymbolTableRecord
100
AcDbLayerTableRecord
  2
중심마크
 70
     0
 62
   100
  6
Continuous
370
    30
390
F
  0
LAYER
  5
7C
330
2
100
AcDbSymbolTableRecord
100
AcDbLayerTableRecord
  2
가상선
 70
     0
 62
     4
  6
PHANTOM
370
    -3
390
F
  0
LAYER
  5
7D
330
2
100
AcDbSymbolTableRecord
100
AcDbLayerTableRecord
  2
특수지정선
 70
     0
 62
     5
  6
CENTERX2
370
    60
390
F
  0
LAYER
  5
7E
330
2
100
AcDbSymbolTableRecord
100
AcDbLayerTableRecord
  2
참조1
 70
     0
 62
    -4
  6
Continuous
370
    -3
390
F
  0
LAYER
  5
170
330
2
100
AcDbSymbolTableRecord
100
AcDbLayerTableRecord
  2
Defpoints
 70
     0
 62
     7
  6
Continuous
290
     0
370
    -3
390
F
  0
ENDTAB
  0
TABLE
  2
STYLE
  5
3
330
0
100
AcDbSymbolTable
 70
     2
  0
STYLE
  5
11
330
3
100
AcDbSymbolTableRecord
100
AcDbTextStyleTableRecord
  2
Standard
 70
     0
 40
0.0
 41
1.0
 50
0.0
 71
     0
 42
3.5
  3
txt
  4

  0
STYLE
  5
94
330
3
100
AcDbSymbolTableRecord
100
AcDbTextStyleTableRecord
  2
SLDTEXTSTYLE0
 70
     0
 40
0.0
 41
0.75
 50
0.0
 71
     0
 42
3.5
  3
TXT
  4

  0
ENDTAB
  0
TABLE
  2
VIEW
  5
6
330
0
100
AcDbSymbolTable
 70
     0
  0
ENDTAB
  0
TABLE
  2
UCS
  5
7
330
0
100
AcDbSymbolTable
 70
     0
  0
ENDTAB
  0
TABLE
  2
APPID
  5
9
330
0
100
AcDbSymbolTable
 70
     5
  0
APPID
  5
12
330
9
100
AcDbSymbolTableRecord
100
AcDbRegAppTableRecord
  2
ACAD
 70
     0
  0
APPID
  5
172
330
9
100
AcDbSymbolTableRecord
100
AcDbRegAppTableRecord
  2
ACAD_DSTYLE_DIMRADIAL_EXTENSION
 70
     0
  0
APPID
  5
180
330
9
100
AcDbSymbolTableRecord
100
AcDbRegAppTableRecord
  2
PE_URL
 70
     0
  0
APPID
  5
1AF
330
9
100
AcDbSymbolTableRecord
100
AcDbRegAppTableRecord
  2
ACAD_DSTYLE_DIMFLIPARROW_SYMBOL
 70
     0
  0
APPID
  5
1B0
330
9
100
AcDbSymbolTableRecord
100
AcDbRegAppTableRecord
  2
ACAD_DSTYLE_DIMFLIPARROW_WHICH_SYMBOL
 70
     0
  0
ENDTAB
  0
TABLE
  2
DIMSTYLE
  5
A
330
0
100
AcDbSymbolTable
 70
     4
100
AcDbDimStyleTable
  0
DIMSTYLE
105
27
102
{ACAD_REACTORS
330
1A0
330
1A6
102
}
330
A
100
AcDbSymbolTableRecord
100
AcDbDimStyleTableRecord
  2
ISO-25
 70
     0
 41
2.5
 42
0.625
 43
3.75
 44
1.25
 73
     0
 74
     0
 77
     1
 78
     8
140
2.5
141
2.5
143
0.03937007874016
147
0.625
171
     3
172
     1
178
     0
271
     2
272
     2
274
     3
278
    44
283
     0
284
     8
340
11
  0
DIMSTYLE
105
F0
102
{ACAD_REACTORS
330
EF
330
104
330
118
330
12C
102
}
330
A
100
AcDbSymbolTableRecord
100
AcDbDimStyleTableRecord
  2
SLDDIMSTYLE0
 70
     0
 41
3.302
 44
0.0
 45
0.000000001
 73
     0
 74
     0
 77
     1
 78
    12
 79
     3
140
3.5
143
0.0393700787401575
147
0.875
148
0.000000001
170
     1
172
     1
173
     1
178
     0
271
     2
272
     2
276
     2
284
    12
289
     0
340
94
  0
DIMSTYLE
105
119
330
A
100
AcDbSymbolTableRecord
100
AcDbDimStyleTableRecord
  2
SLDDIMSTYLE1
 70
     0
 41
3.302
 44
0.0
 45
0.000000001
 73
     0
 74
     0
 77
     1
 78
     4
 79
     1
140
3.5
143
0.0393700787401575
147
0.875
148
0.000000001
170
     1
173
     1
178
     0
271
     2
272
     2
276
     2
284
    12
340
94
  0
DIMSTYLE
105
12D
330
A
100
AcDbSymbolTableRecord
100
AcDbDimStyleTableRecord
  2
SLDDIMSTYLE2
 70
     0
 41
3.302
 44
0.0
 45
0.000000001
 73
     0
 74
     0
 77
     1
 78
    12
 79
     3
140
3.5
143
0.0393700787401575
147
0.875
148
0.000000001
170
     1
173
     1
178
     0
271
     2
272
     2
276
     2
284
    12
340
94
  0
ENDTAB
  0
TABLE
  2
BLOCK_RECORD
  5
1
330
0
100
AcDbSymbolTable
 70
     8
  0
BLOCK_RECORD
  5
1F
330
1
100
AcDbSymbolTableRecord
100
AcDbBlockTableRecord
  2
*Model_Space
340
22
  0
BLOCK_RECORD
  5
1B
330
1
100
AcDbSymbolTableRecord
100
AcDbBlockTableRecord
  2
*Paper_Space
340
1E
  0
BLOCK_RECORD
  5
23
330
1
100
AcDbSymbolTableRecord
100
AcDbBlockTableRecord
  2
*Paper_Space0
340
26
  0
BLOCK_RECORD
  5
7F
330
1
100
AcDbSymbolTableRecord
100
AcDbBlockTableRecord
  2
블럭10
340
0
102
{BLKREFS
331
E8
102
}
  0
BLOCK_RECORD
  5
F1
330
1
100
AcDbSymbolTableRecord
100
AcDbBlockTableRecord
  2
_D
340
0
  0
BLOCK_RECORD
  5
105
330
1
100
AcDbSymbolTableRecord
100
AcDbBlockTableRecord
  2
_D_1
340
0
  0
BLOCK_RECORD
  5
11A
330
1
100
AcDbSymbolTableRecord
100
AcDbBlockTableRecord
  2
_D_2
340
0
  0
BLOCK_RECORD
  5
12E
330
1
100
AcDbSymbolTableRecord
100
AcDbBlockTableRecord
  2
_D_3
340
0
  0
BLOCK_RECORD
  5
147
330
1
100
AcDbSymbolTableRecord
100
AcDbBlockTableRecord
  2
SW_DOWELSYMBOL_0
340
0
102
{BLKREFS
331
14D
102
}
  0
ENDTAB
  0
ENDSEC
  0
SECTION
  2
BLOCKS
  0
BLOCK
  5
20
330
1F
100
AcDbEntity
  8
0
100
AcDbBlockBegin
  2
*Model_Space
 70
     0
 10
0.0
 20
0.0
 30
0.0
  3
*Model_Space
  1

  0
ENDBLK
  5
21
330
1F
100
AcDbEntity
  8
0
100
AcDbBlockEnd
  0
BLOCK
  5
1C
330
1B
100
AcDbEntity
 67
     1
  8
0
100
AcDbBlockBegin
  2
*Paper_Space
 70
     0
 10
0.0
 20
0.0
 30
0.0
  3
*Paper_Space
  1

  0
ENDBLK
  5
1D
330
1B
100
AcDbEntity
 67
     1
  8
0
100
AcDbBlockEnd
  0
BLOCK
  5
24
330
23
100
AcDbEntity
  8
0
100
AcDbBlockBegin
  2
*Paper_Space0
 70
     0
 10
0.0
 20
0.0
 30
0.0
  3
*Paper_Space0
  1

  0
ENDBLK
  5
25
330
23
100
AcDbEntity
  8
0
100
AcDbBlockEnd
  0
BLOCK
  5
80
330
7F
100
AcDbEntity
  8
0
100
AcDbBlockBegin
  2
블럭10
 70
     2
 10
0.0
 20
0.0
 30
0.0
  3
블럭10
  1

  0
ELLIPSE
  5
82
330
7F
100
AcDbEntity
  8
중심선
100
AcDbEllipse
 10
20.54032771741204
 20
12.0471743016438
 30
0.0
 11
6.600054785286829
 21
-1.261213355974178E-13
 31
0.0
210
0.0
220
0.0
230
1.0
 40
0.636358354079598
 41
0.9219305317359503
 42
6.513795318482858
  0
ELLIPSE
  5
83
330
7F
100
AcDbEntity
  8
중심선
100
AcDbEllipse
 10
20.54032771746488
 20
12.04717430159265
 30
0.0
 11
3.960054785062283
 21
1.540847449632565E-10
 31
0.0
210
0.0
220
0.0
230
1.0
 40
0.3939339440162632
 41
1.131841032648279
 42
5.62031148352944
  0
LINE
  5
84
330
7F
100
AcDbEntity
  8
중심선
100
AcDbLine
 10
2.268634060543552
 20
16.24717430164393
 30
0.0
 11
5.714909304380834
 21
16.24717430164393
 31
0.0
  0
LINE
  5
85
330
7F
100
AcDbEntity
  8
중심선
100
AcDbLine
 10
5.245725140726316
 20
7.84717430164391
 30
0.0
 11
8.692000384563599
 21
7.84717430164391
 31
0.0
  0
LINE
  5
86
330
7F
100
AcDbEntity
  8
중심선
100
AcDbLine
 10
15.74043728645272
 20
16.24717430164393
 30
0.0
 11
8.692000384563599
 21
7.84717430164391
 31
0.0
  0
LINE
  5
87
330
7F
100
AcDbEntity
  8
중심선
100
AcDbLine
 10
0.1404042013395286
 20
13.71084872107135
 30
0.0
 11
3.58671253028996
 21
13.71088815037384
 31
0.0
  0
LINE
  5
88
330
7F
100
AcDbEntity
  8
중심선
100
AcDbLine
 10
2.750260043222114
 20
10.84717430164391
 30
0.0
 11
6.196535287059397
 21
10.84717430164391
 31
0.0
  0
LINE
  5
89
330
7F
100
AcDbEntity
  8
중심선
100
AcDbLine
 10
12.29416204261559
 20
16.24717430164393
 30
0.0
 11
5.245725140726316
 21
7.84717430164391
 31
0.0
  0
LINE
  5
8A
330
7F
100
AcDbEntity
  8
중심선
100
AcDbLine
 10
10.72767329541681
 20
16.24717430164393
 30
0.0
 11
6.196535287059397
 21
10.84717430164391
 31
0.0
  0
LINE
  5
8B
330
7F
100
AcDbEntity
  8
중심선
100
AcDbLine
 10
7.28139805157953
 20
16.24717430164393
 30
0.0
 11
2.750260043222114
 21
10.84717430164391
 31
0.0
  0
LINE
  5
8C
330
7F
100
AcDbEntity
  8
중심선
100
AcDbLine
 10
5.714909304380834
 20
16.24717430164393
 30
0.0
 11
3.58671253028996
 21
13.71088815037384
 31
0.0
  0
LINE
  5
8D
330
7F
100
AcDbEntity
  8
중심선
100
AcDbLine
 10
2.268634060543552
 20
16.24717430164393
 30
0.0
 11
0.1404042013395286
 21
13.71084872107135
 31
0.0
  0
LINE
  5
8E
330
7F
100
AcDbEntity
  8
중심선
100
AcDbLine
 10
7.28139805157953
 20
16.24717430164393
 30
0.0
 11
10.72767329541681
 21
16.24717430164393
 31
0.0
  0
LINE
  5
8F
330
7F
100
AcDbEntity
  8
중심선
100
AcDbLine
 10
12.29416204261559
 20
16.24717430164393
 30
0.0
 11
15.74043728645272
 21
16.24717430164393
 31
0.0
  0
LINE
  5
90
330
7F
100
AcDbEntity
  8
중심선
100
AcDbLine
 10
19.22036997980202
 20
11.08717430171403
 30
0.0
 11
23.66174974927406
 21
11.08717430171406
 31
0.0
  0
LINE
  5
91
330
7F
100
AcDbEntity
  8
중심선
100
AcDbLine
 10
19.22039502424796
 20
13.00717430171391
 30
0.0
 11
19.22036997980202
 21
11.08717430171403
 31
0.0
  0
LINE
  5
92
330
7F
100
AcDbEntity
  8
중심선
100
AcDbLine
 10
19.22039502424796
 20
13.00717430171391
 30
0.0
 11
26.96566020931264
 21
13.00717430171391
 31
0.0
  0
LINE
  5
93
330
7F
100
AcDbEntity
  8
중심선
100
AcDbLine
 10
22.22332737316547
 20
13.45928029700563
 30
0.0
 11
24.52862924686651
 21
15.39360700705356
 31
0.0
  0
ATTDEF
  5
95
330
7F
100
AcDbEntity
  8
FORMAT
 62
     2
100
AcDbText
 10
3.448148490846466
 20
2.075366912832191
 30
0.0
 40
4.233333333333333
  1
EM668904
 41
0.75
  7
SLDTEXTSTYLE0
 11
3.448148490846466
 21
-0.0412997538344756
 31
0.0
100
AcDbAttributeDefinition
  3

  2
AUTOATTR0
 70
     0
 74
     1
  0
ENDBLK
  5
81
330
7F
100
AcDbEntity
  8
0
100
AcDbBlockEnd
  0
BLOCK
  5
F2
330
F1
100
AcDbEntity
  8
0
100
AcDbBlockBegin
  2
_D
 70
     0
 10
0.0
 20
0.0
 30
0.0
  3
_D
  1

  0
LINE
  5
F4
330
F1
100
AcDbEntity
  8
치수문자_일반주서
 62
     0
370
    -2
100
AcDbLine
 10
50.16250000000002
 20
9.524999999999995
 30
0.0
 11
69.10000000000007
 21
9.525000000000066
 31
0.0
  0
LINE
  5
F5
330
F1
100
AcDbEntity
  8
치수문자_일반주서
 62
     0
370
    -2
100
AcDbLine
 10
50.16250000000003
 20
-9.52499999999996
 30
0.0
 11
69.10000000000014
 21
-9.524999999999888
 31
0.0
  0
LINE
  5
F6
330
F1
100
AcDbEntity
  8
치수문자_일반주서
 62
     0
370
    -2
100
AcDbLine
 10
69.10000000000007
 20
9.525000000000066
 30
0.0
 11
69.09999999999994
 21
43.69150000000006
 31
0.0
  0
LINE
  5
F7
330
F1
100
AcDbEntity
  8
치수문자_일반주서
 62
     0
370
    -2
100
AcDbLine
 10
69.10000000000007
 20
9.525000000000066
 30
0.0
 11
69.10000000000014
 21
-9.524999999999888
 31
0.0
  0
LINE
  5
F8
330
F1
100
AcDbEntity
  8
치수문자_일반주서
 62
     0
370
    -2
100
AcDbLine
 10
69.10000000000005
 20
12.82700000000007
 30
0.0
 11
69.10000000000004
 21
16.12900000000007
 31
0.0
  0
LINE
  5
F9
330
F1
100
AcDbEntity
  8
치수문자_일반주서
 62
     0
370
    -2
100
AcDbLine
 10
69.10000000000015
 20
-12.82699999999989
 30
0.0
 11
69.10000000000016
 21
-16.12899999999989
 31
0.0
  0
SOLID
  5
FA
330
F1
100
AcDbEntity
  8
치수문자_일반주서
 62
     0
100
AcDbTrace
 10
68.54966666666672
 20
12.82700000000006
 30
0.0
 11
69.65033333333338
 21
12.82700000000007
 31
0.0
 12
69.10000000000007
 22
9.525000000000066
 32
0.0
 13
69.10000000000007
 23
9.525000000000066
 33
0.0
  0
SOLID
  5
FB
330
F1
100
AcDbEntity
  8
치수문자_일반주서
 62
     0
100
AcDbTrace
 10
69.65033333333348
 20
-12.82699999999989
 30
0.0
 11
68.54966666666682
 21
-12.82699999999989
 31
0.0
 12
69.10000000000014
 22
-9.524999999999888
 32
0.0
 13
69.10000000000014
 23
-9.524999999999888
 33
0.0
  0
MTEXT
  5
FC
330
F1
100
AcDbEntity
  8
치수문자_일반주서
 62
     0
100
AcDbMText
 10
64.725
 20
29.91025000000005
 30
0.0
 40
3.5
 41
0.0
 71
     2
 72
     1
  1
\A1;%%c19.05 [3/4]
  7
SLDTEXTSTYLE0
 11
-3.729883127349616E-15
 21
1.0
 31
0.0
 73
     1
 44
1.0
  0
POINT
  5
1AA
330
F1
100
AcDbEntity
  8
Defpoints
 62
     0
100
AcDbPoint
 10
50.10000000000002
 20
9.524999999999995
 30
0.0
  0
POINT
  5
1AB
330
F1
100
AcDbEntity
  8
Defpoints
 62
     0
100
AcDbPoint
 10
50.10000000000003
 20
-9.52499999999996
 30
0.0
  0
POINT
  5
1AC
330
F1
100
AcDbEntity
  8
Defpoints
 62
     0
100
AcDbPoint
 10
69.10000000000014
 20
-9.524999999999888
 30
0.0
  0
ENDBLK
  5
F3
330
F1
100
AcDbEntity
  8
0
100
AcDbBlockEnd
  0
BLOCK
  5
106
330
105
100
AcDbEntity
  8
0
100
AcDbBlockBegin
  2
_D_1
 70
     0
 10
0.0
 20
0.0
 30
0.0
  3
_D_1
  1

  0
LINE
  5
108
330
105
100
AcDbEntity
  8
치수문자_일반주서
 62
     0
370
    -2
100
AcDbLine
 10
-52.8325
 20
9.524999999999999
 30
0.0
 11
-64.9828995563104
 21
9.524999999999952
 31
0.0
  0
LINE
  5
109
330
105
100
AcDbEntity
  8
치수문자_일반주서
 62
     0
370
    -2
100
AcDbLine
 10
-52.8325
 20
-9.525000000000013
 30
0.0
 11
-64.98289955631033
 21
-9.525000000000059
 31
0.0
  0
LINE
  5
10A
330
105
100
AcDbEntity
  8
치수문자_일반주서
 62
     0
370
    -2
100
AcDbLine
 10
-64.9828995563104
 20
9.524999999999952
 30
0.0
 11
-64.98289955631033
 21
-9.525000000000059
 31
0.0
  0
LINE
  5
10B
330
105
100
AcDbEntity
  8
치수문자_일반주서
 62
     0
370
    -2
100
AcDbLine
 10
-64.98289955631041
 20
12.82699999999995
 30
0.0
 11
-64.98289955631043
 21
16.12899999999995
 31
0.0
  0
LINE
  5
10C
330
105
100
AcDbEntity
  8
치수문자_일반주서
 62
     0
370
    -2
100
AcDbLine
 10
-64.98289955631031
 20
-12.82700000000006
 30
0.0
 11
-64.9828995563103
 21
-16.12900000000006
 31
0.0
  0
SOLID
  5
10D
330
105
100
AcDbEntity
  8
치수문자_일반주서
 62
     0
100
AcDbTrace
 10
-65.53323288964374
 20
12.82699999999995
 30
0.0
 11
-64.43256622297709
 21
12.82699999999995
 31
0.0
 12
-64.9828995563104
 22
9.524999999999952
 32
0.0
 13
-64.9828995563104
 23
9.524999999999952
 33
0.0
  0
SOLID
  5
10E
330
105
100
AcDbEntity
  8
치수문자_일반주서
 62
     0
100
AcDbTrace
 10
-64.43256622297699
 20
-12.82700000000006
 30
0.0
 11
-65.53323288964364
 21
-12.82700000000006
 31
0.0
 12
-64.98289955631033
 22
-9.525000000000059
 32
0.0
 13
-64.98289955631033
 23
-9.525000000000059
 33
0.0
  0
MTEXT
  5
10F
330
105
100
AcDbEntity
  8
치수문자_일반주서
 62
     0
100
AcDbMText
 10
-69.35789955631037
 20
-0.0000000000000172
 30
0.0
 40
3.5
 41
0.0
 71
     2
 72
     1
  1
\A1;%%c19.05 [3/4]
  7
SLDTEXTSTYLE0
 11
-3.729883127349605E-15
 21
1.0
 31
0.0
 73
     1
 44
1.0
  0
POINT
  5
110
330
105
100
AcDbEntity
  8
Defpoints
 62
     0
100
AcDbPoint
 10
-52.77
 20
9.524999999999999
 30
0.0
  0
POINT
  5
1A8
330
105
100
AcDbEntity
  8
Defpoints
 62
     0
100
AcDbPoint
 10
-52.77
 20
-9.525000000000013
 30
0.0
  0
POINT
  5
1A9
330
105
100
AcDbEntity
  8
Defpoints
 62
     0
100
AcDbPoint
 10
-64.98289955631034
 20
-9.525000000000059
 30
0.0
  0
ENDBLK
  5
107
330
105
100
AcDbEntity
  8
0
100
AcDbBlockEnd
  0
BLOCK
  5
11B
330
11A
100
AcDbEntity
  8
0
100
AcDbBlockBegin
  2
_D_2
 70
     0
 10
0.0
 20
0.0
 30
0.0
  3
_D_2
  1

  0
LINE
  5
11D
330
11A
100
AcDbEntity
  8
치수문자_일반주서
 62
     0
370
    -2
100
AcDbLine
 10
50.10000000000002
 20
8.062478415007504
 30
0.0
 11
50.10000000000002
 21
31.1985827577925
 31
0.0
  0
LINE
  5
11E
330
11A
100
AcDbEntity
  8
치수문자_일반주서
 62
     0
370
    -2
100
AcDbLine
 10
12.00000000000004
 20
9.552192039228355
 30
0.0
 11
12.00000000000004
 21
31.1985827577925
 31
0.0
  0
LINE
  5
11F
330
11A
100
AcDbEntity
  8
치수문자_일반주서
 62
     0
370
    -2
100
AcDbLine
 10
46.79800000000002
 20
31.1985827577925
 30
0.0
 11
15.30200000000004
 21
31.1985827577925
 31
0.0
  0
SOLID
  5
120
330
11A
100
AcDbEntity
  8
치수문자_일반주서
 62
     0
100
AcDbTrace
 10
46.79800000000002
 20
30.64824942445917
 30
0.0
 11
46.79800000000002
 21
31.74891609112584
 31
0.0
 12
50.10000000000002
 22
31.1985827577925
 32
0.0
 13
50.10000000000002
 23
31.1985827577925
 33
0.0
  0
SOLID
  5
121
330
11A
100
AcDbEntity
  8
치수문자_일반주서
 62
     0
100
AcDbTrace
 10
15.30200000000004
 20
31.74891609112584
 30
0.0
 11
15.30200000000004
 21
30.64824942445917
 31
0.0
 12
12.00000000000004
 22
31.1985827577925
 32
0.0
 13
12.00000000000004
 23
31.1985827577925
 33
0.0
  0
MTEXT
  5
122
330
11A
100
AcDbEntity
  8
치수문자_일반주서
 62
     0
100
AcDbMText
 10
33.41743761909093
 20
35.57358275779251
 30
0.0
 40
3.5
 41
0.0
 71
     2
 72
     1
  1
\A1;38.1 [1 1/2]
  7
SLDTEXTSTYLE0
 73
     1
 44
1.0
  0
POINT
  5
123
330
11A
100
AcDbEntity
  8
Defpoints
 62
     0
100
AcDbPoint
 10
50.10000000000002
 20
7.999978415007505
 30
0.0
  0
POINT
  5
124
330
11A
100
AcDbEntity
  8
Defpoints
 62
     0
100
AcDbPoint
 10
12.00000000000004
 20
9.489692039228355
 30
0.0
  0
POINT
  5
125
330
11A
100
AcDbEntity
  8
Defpoints
 62
     0
100
AcDbPoint
 10
12.00000000000004
 20
31.1985827577925
 30
0.0
  0
ENDBLK
  5
11C
330
11A
100
AcDbEntity
  8
0
100
AcDbBlockEnd
  0
BLOCK
  5
12F
330
12E
100
AcDbEntity
  8
0
100
AcDbBlockBegin
  2
_D_3
 70
     0
 10
0.0
 20
0.0
 30
0.0
  3
_D_3
  1

  0
LINE
  5
131
330
12E
100
AcDbEntity
  8
치수문자_일반주서
 62
     0
370
    -2
100
AcDbLine
 10
-54.67499999999999
 20
7.682499999999997
 30
0.0
 11
-54.67499999999998
 21
53.3346871005775
 31
0.0
  0
LINE
  5
132
330
12E
100
AcDbEntity
  8
치수문자_일반주서
 62
     0
370
    -2
100
AcDbLine
 10
50.10000000000002
 20
9.062478415007508
 30
0.0
 11
50.10000000000003
 21
53.3346871005775
 31
0.0
  0
LINE
  5
133
330
12E
100
AcDbEntity
  8
치수문자_일반주서
 62
     0
370
    -2
100
AcDbLine
 10
-51.37299999999998
 20
53.3346871005775
 30
0.0
 11
46.79800000000003
 21
53.3346871005775
 31
0.0
  0
SOLID
  5
134
330
12E
100
AcDbEntity
  8
치수문자_일반주서
 62
     0
100
AcDbTrace
 10
-51.37299999999998
 20
53.88502043391084
 30
0.0
 11
-51.37299999999998
 21
52.78435376724417
 31
0.0
 12
-54.67499999999998
 22
53.3346871005775
 32
0.0
 13
-54.67499999999998
 23
53.3346871005775
 33
0.0
  0
SOLID
  5
135
330
12E
100
AcDbEntity
  8
치수문자_일반주서
 62
     0
100
AcDbTrace
 10
46.79800000000003
 20
52.78435376724417
 30
0.0
 11
46.79800000000003
 21
53.88502043391084
 31
0.0
 12
50.10000000000003
 22
53.3346871005775
 32
0.0
 13
50.10000000000003
 23
53.3346871005775
 33
0.0
  0
MTEXT
  5
136
330
12E
100
AcDbEntity
  8
치수문자_일반주서
 62
     0
100
AcDbMText
 10
-1.158940071133069
 20
57.7096871005775
 30
0.0
 40
3.5
 41
0.0
 71
     2
 72
     1
  1
\A1;104.78 [4 1/8]
  7
SLDTEXTSTYLE0
 73
     1
 44
1.0
  0
POINT
  5
137
330
12E
100
AcDbEntity
  8
Defpoints
 62
     0
100
AcDbPoint
 10
-54.67499999999999
 20
7.619999999999997
 30
0.0
  0
POINT
  5
138
330
12E
100
AcDbEntity
  8
Defpoints
 62
     0
100
AcDbPoint
 10
50.10000000000002
 20
8.999978415007508
 30
0.0
  0
POINT
  5
139
330
12E
100
AcDbEntity
  8
Defpoints
 62
     0
100
AcDbPoint
 10
50.10000000000002
 20
53.3346871005775
 30
0.0
  0
ENDBLK
  5
130
330
12E
100
AcDbEntity
  8
0
100
AcDbBlockEnd
  0
BLOCK
  5
148
330
147
100
AcDbEntity
  8
0
100
AcDbBlockBegin
  2
SW_DOWELSYMBOL_0
 70
     0
 10
0.0
 20
0.0
 30
0.0
  3
SW_DOWELSYMBOL_0
  1

  0
CIRCLE
  5
14A
330
147
100
AcDbEntity
  8
해칭선
 62
     0
100
AcDbCircle
 10
0.0
 20
0.0
 30
0.0
 40
3.000000000000001
  0
HATCH
  5
14B
330
147
100
AcDbEntity
  8
0
  6
Continuous
 62
     0
370
     0
100
AcDbHatch
 10
0.0
 20
0.0
 30
0.0
210
0.0
220
0.0
230
1.0
  2
SOLID
 70
     1
 71
     0
 91
        1
 92
        0
 93
        3
 72
     2
 10
-0.0000000000000069
 20
0.0
 40
3.000000000000001
 50
0.0
 51
90.0
 73
     1
 72
     1
 10
-0.0000000000000069
 20
3.000000000000001
 11
-0.0000000000000069
 21
0.0
 72
     1
 10
-0.0000000000000069
 20
0.0
 11
2.999999999999994
 21
0.0
 97
        0
 75
     0
 76
     1
 98
        1
 10
0.0
 20
0.0
  0
HATCH
  5
14C
330
147
100
AcDbEntity
  8
0
  6
Continuous
 62
     0
370
     0
100
AcDbHatch
 10
0.0
 20
0.0
 30
0.0
210
0.0
220
0.0
230
1.0
  2
SOLID
 70
     1
 71
     0
 91
        1
 92
        0
 93
        3
 72
     2
 10
-0.0000000000000069
 20
0.0
 40
3.000000000000001
 50
180.0
 51
270.0000000000008
 73
     1
 72
     1
 10
-0.0000000000000069
 20
-3.000000000000001
 11
-0.0000000000000069
 21
0.0
 72
     1
 10
-0.0000000000000069
 20
0.0
 11
-3.000000000000008
 21
0.0
 97
        0
 75
     0
 76
     1
 98
        1
 10
0.0
 20
0.0
  0
ENDBLK
  5
149
330
147
100
AcDbEntity
  8
0
100
AcDbBlockEnd
  0
ENDSEC
  0
SECTION
  2
ENTITIES
  0
LINE
  5
96
330
1F
100
AcDbEntity
  8
외형선
  6
Continuous
 62
     1
370
    15
100
AcDbLine
 10
38.8850299820272
 20
-1.376137099896499
 30
0.0
 11
38.97716258086042
 21
-1.428756599301643
 31
0.0
  0
LINE
  5
97
330
1F
100
AcDbEntity
  8
외형선
  6
Continuous
 62
     1
370
    15
100
AcDbLine
 10
44.01926301960567
 20
1.387675002103514
 30
0.0
 11
43.94610556183117
 21
1.4286756813945
 31
0.0
  0
LINE
  5
98
330
1F
100
AcDbEntity
  8
외형선
  6
Continuous
 62
     1
370
    15
100
AcDbLine
 10
50.10000000000004
 20
-1.909401760802534
 30
0.0
 11
50.00954329069689
 21
-1.863005644841865
 31
0.0
  0
LINE
  5
99
330
1F
100
AcDbEntity
  8
외형선
  6
Continuous
 62
     1
370
    15
100
AcDbLine
 10
25.93930780821729
 20
-1.382690981828827
 30
0.0
 11
26.01956668330224
 21
-1.428630477403627
 31
0.0
  0
LINE
  5
9A
330
1F
100
AcDbEntity
  8
외형선
  6
Continuous
 62
     1
370
    15
100
AcDbLine
 10
31.05489856933157
 20
1.391540812863217
 30
0.0
 11
30.98927238600908
 21
1.428756500083731
 31
0.0
  0
LINE
  5
9B
330
1F
100
AcDbEntity
  8
외형선
  6
Continuous
 62
     1
370
    15
100
AcDbLine
 10
46.429918978401
 20
-9.52500000000001
 30
0.0
 11
48.57600000000002
 21
-9.52500000000001
 31
0.0
  0
LINE
  5
9C
330
1F
100
AcDbEntity
  8
외형선
  6
Continuous
 62
     1
370
    15
100
AcDbLine
 10
23.53712081746663
 20
9.524999999999995
 30
0.0
 11
20.51399540578336
 21
9.524999999999995
 31
0.0
  0
LINE
  5
9D
330
1F
100
AcDbEntity
  8
외형선
  6
Continuous
 62
     1
370
    15
100
AcDbLine
 10
33.471941425607
 20
-9.52500000000001
 30
0.0
 11
36.4934407267659
 21
-9.52500000000001
 31
0.0
  0
LINE
  5
9E
330
1F
100
AcDbEntity
  8
외형선
  6
Continuous
 62
     1
370
    15
100
AcDbLine
 10
36.4934407267659
 20
9.524999999999995
 30
0.0
 11
33.47194142560718
 21
9.524999999999995
 31
0.0
  0
LINE
  5
9F
330
1F
100
AcDbEntity
  8
외형선
  6
Continuous
 62
     1
370
    15
100
AcDbLine
 10
20.51399540578328
 20
-9.52500000000001
 30
0.0
 11
23.53712081746653
 21
-9.52500000000001
 31
0.0
  0
ARC
  5
A0
330
1F
100
AcDbEntity
  8
외형선
  6
Continuous
 62
     1
370
    15
100
AcDbCircle
 10
48.57630015272374
 20
8.001299609485855
 30
0.0
 40
1.523700420077589
100
AcDbArc
 50
359.9503190548393
 51
90.01128665724771
  0
LINE
  5
A1
330
1F
100
AcDbEntity
  8
외형선
  6
Continuous
 62
     1
370
    15
100
AcDbLine
 10
48.57600000000002
 20
9.524999999999995
 30
0.0
 11
46.42991897840098
 21
9.524999999999995
 31
0.0
  0
ARC
  5
A2
330
1F
100
AcDbEntity
  8
외형선
  6
Continuous
 62
     1
370
    15
100
AcDbCircle
 10
48.57600000000002
 20
-8.001000000000008
 30
0.0
 40
1.524000000000004
100
AcDbArc
 50
270.0000000000008
 51
282.9398467417944
  0
LINE
  5
A3
330
1F
100
AcDbEntity
  8
외형선
  6
Continuous
370
    15
100
AcDbLine
 10
-52.76999999999999
 20
-9.525000000000002
 30
0.0
 11
11.49986971623983
 21
-9.525000000000002
 31
0.0
  0
LINE
  5
A4
330
1F
100
AcDbEntity
  8
외형선
  6
Continuous
370
    15
100
AcDbLine
 10
11.49986971623983
 20
9.524999999999991
 30
0.0
 11
-52.76999999999999
 21
9.524999999999991
 31
0.0
  0
LINE
  5
A5
330
1F
100
AcDbEntity
  8
외형선
  6
Continuous
370
    15
100
AcDbLine
 10
-52.76999999999999
 20
9.524999999999991
 30
0.0
 11
-54.67499999999999
 21
7.619999999999997
 31
0.0
  0
LINE
  5
A6
330
1F
100
AcDbEntity
  8
외형선
  6
Continuous
370
    15
100
AcDbLine
 10
-54.67499999999999
 20
-7.62000000000001
 30
0.0
 11
-52.76999999999999
 21
-9.525000000000006
 31
0.0
  0
LINE
  5
A7
330
1F
100
AcDbEntity
  8
외형선
  6
Continuous
 62
     1
370
    15
100
AcDbLine
 10
50.10000000000002
 20
-5.747244626394094
 30
0.0
 11
50.10000000000002
 21
-1.947050373605802
 31
0.0
  0
SPLINE
  5
A8
330
1F
100
AcDbEntity
  8
외형선
  6
Continuous
 62
     1
370
    15
100
AcDbSpline
210
0.0
220
0.0
230
1.0
 70
     8
 71
     3
 72
    18
 73
    14
 74
     0
 42
0.000000001
 43
0.00000001
 40
0.0
 40
0.0
 40
0.0
 40
0.0
 40
0.25
 40
0.25
 40
0.5
 40
0.5
 40
0.625
 40
0.625
 40
0.75
 40
0.75
 40
0.875
 40
0.875
 40
1.0
 40
1.0
 40
1.0
 40
1.0
 10
48.57600000000005
 20
-6.368660992036643
 30
0.0
 10
48.76454624137946
 20
-6.449491983334774
 30
0.0
 10
48.94541669748044
 20
-6.507600373792859
 30
0.0
 10
49.29772842719832
 20
-6.570043802595203
 30
0.0
 10
49.45916978344268
 20
-6.573113211413895
 30
0.0
 10
49.6815307207689
 20
-6.514392882227328
 30
0.0
 10
49.74965823945843
 20
-6.484435035024665
 30
0.0
 10
49.87240553439774
 20
-6.399168295026743
 30
0.0
 10
49.9267060636167
 20
-6.343321993449933
 30
0.0
 10
50.01334412516553
 20
-6.208553909598186
 30
0.0
 10
50.04702530012765
 20
-6.127019101583465
 30
0.0
 10
50.08998620514353
 20
-5.948328693057859
 30
0.0
 10
50.10000000000004
 20
-5.85000057748019
 30
0.0
 10
50.10000000000002
 20
-5.747244626394093
 30
0.0
  0
SPLINE
  5
A9
330
1F
100
AcDbEntity
  8
외형선
  6
Continuous
 62
     1
370
    15
100
AcDbSpline
210
0.0
220
0.0
230
1.0
 70
     8
 71
     3
 72
    54
 73
    50
 74
     0
 42
0.000000001
 43
0.00000001
 40
0.0
 40
0.0
 40
0.0
 40
0.0
 40
0.0312500000000008
 40
0.0312500000000008
 40
0.0625000000000016
 40
0.0625000000000016
 40
0.1250000000000022
 40
0.1250000000000022
 40
0.1875000000000029
 40
0.1875000000000029
 40
0.2187500000000029
 40
0.2187500000000029
 40
0.2500000000000028
 40
0.2500000000000028
 40
0.2812500000000027
 40
0.2812500000000027
 40
0.3125000000000027
 40
0.3125000000000027
 40
0.3750000000000034
 40
0.3750000000000034
 40
0.4375000000000041
 40
0.4375000000000041
 40
0.4687500000000044
 40
0.4687500000000044
 40
0.5000000000000048
 40
0.5000000000000048
 40
0.5312500000000051
 40
0.5312500000000051
 40
0.5625000000000054
 40
0.5625000000000054
 40
0.6250000000000053
 40
0.6250000000000053
 40
0.6875000000000052
 40
0.6875000000000052
 40
0.7187500000000048
 40
0.7187500000000048
 40
0.7500000000000042
 40
0.7500000000000042
 40
0.7812500000000037
 40
0.7812500000000037
 40
0.8125000000000031
 40
0.8125000000000031
 40
0.8750000000000021
 40
0.8750000000000021
 40
0.9375000000000011
 40
0.9375000000000011
 40
0.9687500000000006
 40
0.9687500000000006
 40
1.0
 40
1.0
 40
1.0
 40
1.0
 10
48.57600000000002
 20
-6.368660992036623
 30
0.0
 10
48.19418541446441
 20
-6.204974613484937
 30
0.0
 10
47.81237145743307
 20
-6.036180336728274
 30
0.0
 10
47.05148789118217
 20
-5.689625340451191
 30
0.0
 10
46.6724211304112
 20
-5.511878150796353
 30
0.0
 10
45.52881670625028
 20
-4.964840679076111
 30
0.0
 10
44.76274982539727
 20
-4.582430292693905
 30
0.0
 10
43.24523017415691
 20
-3.793276183570764
 30
0.0
 10
42.47918830112846
 20
-3.384015457658339
 30
0.0
 10
41.33556884980334
 20
-2.756797098596018
 30
0.0
 10
40.95649330393437
 20
-2.545744387399324
 30
0.0
 10
40.19562475440112
 20
-2.119410116389654
 30
0.0
 10
39.81381457800655
 20
-1.904119744535814
 30
0.0
 10
39.05018542238577
 20
-1.470829455332948
 30
0.0
 10
38.6683686433957
 20
-1.252830786343967
 30
0.0
 10
37.90747384132123
 20
-0.815702277312405
 30
0.0
 10
37.52841357515617
 20
-0.5965778812586213
 30
0.0
 10
36.38482046170943
 20
0.0629314884319891
 30
0.0
 10
35.61874979560277
 20
0.5045134444077237
 30
0.0
 10
34.1012002800227
 20
1.378849321633767
 30
0.0
 10
33.33519205675188
 20
1.81438085094852
 30
0.0
 10
32.19156137539551
 20
2.455868505806701
 30
0.0
 10
31.81247914648624
 20
2.667508282729326
 30
0.0
 10
31.05162188620474
 20
3.08669004628304
 30
0.0
 10
30.66981455880639
 20
3.294231770134949
 30
0.0
 10
29.90618544181178
 20
3.703705548602867
 30
0.0
 10
29.5243658524509
 20
3.905636423119903
 30
0.0
 10
28.76345983745247
 20
4.302455347395597
 30
0.0
 10
28.38440598513479
 20
4.497347425443561
 30
0.0
 10
27.24082421697878
 20
5.071860896918294
 30
0.0
 10
26.47474978903983
 20
5.44039792745196
 30
0.0
 10
24.95717045449314
 20
6.138124552408691
 30
0.0
 10
24.19119581232618
 20
6.469522745166661
 30
0.0
 10
23.0475539355189
 20
6.933207448239968
 30
0.0
 10
22.66846494281281
 20
7.082065514342482
 30
0.0
 10
21.90761899467902
 20
7.368585662344077
 30
0.0
 10
21.52581452786383
 20
7.506237638960914
 30
0.0
 10
20.76218547267106
 20
7.769291912751455
 30
0.0
 10
20.38036308452763
 20
7.894693451074864
 30
0.0
 10
19.61944587950611
 20
8.132387810220255
 30
0.0
 10
19.2403983602764
 20
8.244694291605445
 30
0.0
 10
18.09682797198646
 20
8.562194429318641
 30
0.0
 10
17.33074980563722
 20
8.74734042420403
 30
0.0
 10
15.81314069749976
 20
9.0595433928214
 30
0.0
 10
15.04719956777965
 20
9.187586688402323
 30
0.0
 10
13.90354653010291
 20
9.334632177649802
 30
0.0
 10
13.52445069284423
 20
9.376136979380941
 30
0.0
 10
12.7636160797529
 20
9.444208485496286
 30
0.0
 10
12.38181448510765
 20
9.470755976919857
 30
0.0
 10
12.00000000000002
 20
9.489692039228366
 30
0.0
  0
SPLINE
  5
AA
330
1F
100
AcDbEntity
  8
외형선
  6
Continuous
 62
     1
370
    15
100
AcDbSpline
210
0.0
220
0.0
230
1.0
 70
     8
 71
     3
 72
    20
 73
    16
 74
     0
 42
0.000000001
 43
0.00000001
 40
0.0
 40
0.0
 40
0.0
 40
0.0
 40
0.0774975396929596
 40
0.1550113379990633
 40
0.2325575733561198
 40
0.310113261512945
 40
0.3876333731326601
 40
0.4651333346941501
 40
0.5426293817911965
 40
0.6201377662005705
 40
0.7013567019903995
 40
0.7825975378020914
 40
0.8638300719651527
 40
0.9450422485665386
 40
1.0
 40
1.0
 40
1.0
 40
1.0
 10
48.57600000000006
 20
-1.235578888776095
 30
0.0
 10
47.72287688703551
 20
-0.744191433382845
 30
0.0
 10
46.01645167995792
 20
0.2386865681414087
 30
0.0
 10
43.45627332694828
 20
1.715319438983979
 30
0.0
 10
40.89518589465781
 20
3.148490628038343
 30
0.0
 10
38.33391391811425
 20
4.506418908081839
 30
0.0
 10
35.77350643931351
 20
5.756151244886882
 30
0.0
 10
33.21385877028324
 20
6.867403807057922
 30
0.0
 10
30.65437112916473
 20
7.813544684988267
 30
0.0
 10
28.05387092625669
 20
8.584104060512
 30
0.0
 10
25.41189899266447
 20
9.148451408691113
 30
0.0
 10
22.72875072992051
 20
9.482594823596376
 30
0.0
 10
20.04576497492609
 20
9.557455596097462
 30
0.0
 10
17.65229131321158
 20
9.429921696069716
 30
0.0
 10
16.15319413882478
 20
9.173652327009151
 30
0.0
 10
15.54816326986913
 20
9.070222821771871
 30
0.0
  0
SPLINE
  5
AB
330
1F
100
AcDbEntity
  8
외형선
  6
Continuous
 62
     1
370
    15
100
AcDbSpline
210
0.0
220
0.0
230
1.0
 70
     8
 71
     3
 72
    18
 73
    14
 74
     0
 42
0.000000001
 43
0.00000001
 40
0.0
 40
0.0
 40
0.0
 40
0.0
 40
0.249999999999998
 40
0.249999999999998
 40
0.3749999999999961
 40
0.3749999999999961
 40
0.4999999999999942
 40
0.4999999999999942
 40
0.6249999999999923
 40
0.6249999999999923
 40
0.7499999999999905
 40
0.7499999999999905
 40
1.0
 40
1.0
 40
1.0
 40
1.0
 10
50.10000000000002
 20
-1.947050373605806
 30
0.0
 10
50.09999999999999
 20
-1.909499625628021
 30
0.0
 10
50.06022014086031
 20
-1.880394652765222
 30
0.0
 10
49.94095734192094
 20
-1.830484416036369
 30
0.0
 10
49.89216733024629
 20
-1.813108178235087
 30
0.0
 10
49.77752187782723
 20
-1.773491755801616
 30
0.0
 10
49.7107913246132
 20
-1.750951396241965
 30
0.0
 10
49.56556771231174
 20
-1.699449267255148
 30
0.0
 10
49.48706813446999
 20
-1.670494961273977
 30
0.0
 10
49.31948505556277
 20
-1.604025561567076
 30
0.0
 10
49.23005427786935
 20
-1.5662970651879
 30
0.0
 10
48.95809193361557
 20
-1.442984839473685
 30
0.0
 10
48.7662711467807
 20
-1.344348878291925
 30
0.0
 10
48.57600000000004
 20
-1.235578888776091
 30
0.0
  0
LINE
  5
AC
330
1F
100
AcDbEntity
  8
외형선
  6
Continuous
 62
     1
370
    15
100
AcDbLine
 10
50.10000000000002
 20
-7.999978415007519
 30
0.0
 11
50.10000000000002
 21
-6.864258096166163
 31
0.0
  0
SPLINE
  5
AE
330
1F
100
AcDbEntity
  8
외형선
  6
Continuous
 62
     1
370
    15
100
AcDbSpline
210
0.0
220
0.0
230
1.0
 70
     8
 71
     3
 72
    54
 73
    50
 74
     0
 42
0.000000001
 43
0.00000001
 40
0.0
 40
0.0
 40
0.0
 40
0.0
 40
0.0312500000000006
 40
0.0312500000000006
 40
0.0625000000000012
 40
0.0625000000000012
 40
0.1250000000000015
 40
0.1250000000000015
 40
0.1875000000000018
 40
0.1875000000000018
 40
0.218750000000002
 40
0.218750000000002
 40
0.2500000000000022
 40
0.2500000000000022
 40
0.2812500000000024
 40
0.2812500000000024
 40
0.3125000000000026
 40
0.3125000000000026
 40
0.3750000000000028
 40
0.3750000000000028
 40
0.4375000000000032
 40
0.4375000000000032
 40
0.4687500000000033
 40
0.4687500000000033
 40
0.5000000000000034
 40
0.5000000000000034
 40
0.5312500000000036
 40
0.5312500000000036
 40
0.5625000000000038
 40
0.5625000000000038
 40
0.6250000000000032
 40
0.6250000000000032
 40
0.6875000000000028
 40
0.6875000000000028
 40
0.7187500000000024
 40
0.7187500000000024
 40
0.7500000000000021
 40
0.7500000000000021
 40
0.7812500000000019
 40
0.7812500000000019
 40
0.8125000000000016
 40
0.8125000000000016
 40
0.8750000000000011
 40
0.8750000000000011
 40
0.9375000000000006
 40
0.9375000000000006
 40
0.9687500000000003
 40
0.9687500000000003
 40
1.0
 40
1.0
 40
1.0
 40
1.0
 10
48.57600000000005
 20
-9.511605623408283
 30
0.0
 10
48.19418541446444
 20
-9.499935787339364
 30
0.0
 10
47.81237145743307
 20
-9.48063672218328
 30
0.0
 10
47.05148789118218
 20
-9.426973559223672
 30
0.0
 10
46.67242113041126
 20
-9.392631018052153
 30
0.0
 10
45.52881670625031
 20
-9.266955968740678
 30
0.0
 10
44.7627498253973
 20
-9.152963929287104
 30
0.0
 10
43.24523017415691
 20
-8.86810939756402
 30
0.0
 10
42.47918830112845
 20
-8.696338782606478
 30
0.0
 10
41.33556884980333
 20
-8.39815210969784
 30
0.0
 10
40.95649330393439
 20
-8.292152463810133
 30
0.0
 10
40.19562475440107
 20
-8.066832611695364
 30
0.0
 10
39.81381457800652
 20
-7.947491993822966
 30
0.0
 10
39.05018542238575
 20
-7.696261456506139
 30
0.0
 10
38.6683686433957
 20
-7.564372260584173
 30
0.0
 10
37.90747384132119
 20
-7.289038424111324
 30
0.0
 10
37.52841357515617
 20
-7.145612688768538
 30
0.0
 10
36.3848204617095
 20
-6.697728828579867
 30
0.0
 10
35.61874979560282
 20
-6.376162867781436
 30
0.0
 10
34.10120028002275
 20
-5.696490454025136
 30
0.0
 10
33.33519205675186
 20
-5.336225749361177
 30
0.0
 10
32.19156137539552
 20
-4.772768174178198
 30
0.0
 10
31.81247914648622
 20
-4.581335152354703
 30
0.0
 10
31.05162188620476
 20
-4.191010125343808
 30
0.0
 10
30.66981455880639
 20
-3.992102392123809
 30
0.0
 10
29.9061854418118
 20
-3.588203434728386
 30
0.0
 10
29.52436585245088
 20
-3.38321337399164
 30
0.0
 10
28.76345983745253
 20
-2.968646494079362
 30
0.0
 10
28.38440598513481
 20
-2.759082565995027
 30
0.0
 10
27.24082421697878
 20
-2.123095205645803
 30
0.0
 10
26.47474978903985
 20
-1.690236624541692
 30
0.0
 10
24.95717045449314
 20
-0.8192474987454527
 30
0.0
 10
24.19119581232615
 20
-0.3783618007778048
 30
0.0
 10
23.04755393551888
 20
0.2816596051865593
 30
0.0
 10
22.66846494281283
 20
0.5012084945803343
 30
0.0
 10
21.90761899467902
 20
0.9396680162149885
 30
0.0
 10
21.52581452786385
 20
1.158586477850415
 30
0.0
 10
20.76218547267109
 20
1.594220044192495
 30
0.0
 10
20.38036308452763
 20
1.810933893548555
 30
0.0
 10
19.61944587950612
 20
2.240606546030949
 30
0.0
 10
19.24039836027638
 20
2.453561411612375
 30
0.0
 10
18.09682797198647
 20
3.087226818951425
 30
0.0
 10
17.33074980563722
 20
3.501773613753862
 30
0.0
 10
15.81314069749977
 20
4.303291898626265
 30
0.0
 10
15.04719956777967
 20
4.692789758056921
 30
0.0
 10
13.90354653010288
 20
5.251753964175848
 30
0.0
 10
13.52445069284422
 20
5.433682136664177
 30
0.0
 10
12.76361607975289
 20
5.788994453917375
 30
0.0
 10
12.38181448510764
 20
5.962376038770268
 30
0.0
 10
12.00000000000002
 20
6.130842299228106
 30
0.0
  0
SPLINE
  5
AF
330
1F
100
AcDbEntity
  8
외형선
  6
Continuous
370
    15
100
AcDbSpline
210
0.0
220
0.0
230
1.0
 70
    24
 71
     3
 72
    14
 73
    10
 74
     0
 42
0.000000001
 43
0.00000001
 40
0.0
 40
0.0
 40
0.0
 40
0.0
 40
0.2109289387380632
 40
0.3609340460685092
 40
0.5152893116736081
 40
0.6652944190040011
 40
0.8196496846090433
 40
0.9696547919394383
 40
1.0
 40
1.0
 40
1.0
 40
1.0
 10
12.00000000000007
 20
9.1818085082649
 30
0.0
 10
12.00000000000007
 20
8.972134825069986
 30
0.0
 10
12.00000000000002
 20
8.613348727333026
 30
0.0
 10
12.00000000000002
 20
8.067991558044024
 30
0.0
 10
12.00000000000002
 20
7.588338281625538
 30
0.0
 10
12.00000000000002
 20
7.114572063983277
 30
0.0
 10
12.00000000000004
 20
6.675544147118455
 30
0.0
 10
12.0
 20
6.367195331986656
 30
0.0
 10
12.00000000000001
 20
6.228382396024441
 30
0.0
 10
12.0
 20
6.205026143976087
 30
0.0
  0
SPLINE
  5
B0
330
1F
100
AcDbEntity
  8
외형선
  6
Continuous
 62
     1
370
    15
100
AcDbSpline
210
0.0
220
0.0
230
1.0
 70
     8
 71
     3
 72
    54
 73
    50
 74
     0
 42
0.000000001
 43
0.00000001
 40
0.0
 40
0.0
 40
0.0
 40
0.0
 40
0.0312500000000003
 40
0.0312500000000003
 40
0.0625000000000006
 40
0.0625000000000006
 40
0.1250000000000012
 40
0.1250000000000012
 40
0.1875000000000018
 40
0.1875000000000018
 40
0.2187500000000017
 40
0.2187500000000017
 40
0.2500000000000016
 40
0.2500000000000016
 40
0.2812500000000016
 40
0.2812500000000016
 40
0.3125000000000014
 40
0.3125000000000014
 40
0.3750000000000012
 40
0.3750000000000012
 40
0.437500000000001
 40
0.437500000000001
 40
0.4687500000000013
 40
0.4687500000000013
 40
0.5000000000000016
 40
0.5000000000000016
 40
0.531250000000002
 40
0.531250000000002
 40
0.5625000000000023
 40
0.5625000000000023
 40
0.6250000000000029
 40
0.6250000000000029
 40
0.6875000000000036
 40
0.6875000000000036
 40
0.7187500000000034
 40
0.7187500000000034
 40
0.7500000000000032
 40
0.7500000000000032
 40
0.7812500000000031
 40
0.7812500000000031
 40
0.812500000000003
 40
0.812500000000003
 40
0.875000000000002
 40
0.875000000000002
 40
0.9375000000000009
 40
0.9375000000000009
 40
0.9687500000000004
 40
0.9687500000000004
 40
1.0
 40
1.0
 40
1.0
 40
1.0
 10
48.57600000000005
 20
-7.551970788948478
 30
0.0
 10
48.19418541446441
 20
-7.417823802262498
 30
0.0
 10
47.81237145743311
 20
-7.277619711774364
 30
0.0
 10
47.0514878911822
 20
-6.986148088957436
 30
0.0
 10
46.67242113041129
 20
-6.834896947976492
 30
0.0
 10
45.5288167062504
 20
-6.364258119237409
 30
0.0
 10
44.76274982539736
 20
-6.028523341693441
 30
0.0
 10
43.24523017415697
 20
-5.322912484297309
 30
0.0
 10
42.47918830112852
 20
-4.950785970088045
 30
0.0
 10
41.33556884980339
 20
-4.371480705308537
 30
0.0
 10
40.9564933039345
 20
-4.175091911697189
 30
0.0
 10
40.19562475440121
 20
-3.775495789043599
 30
0.0
 10
39.81381457800659
 20
-3.572276143333834
 30
0.0
 10
39.05018542238582
 20
-3.160434170407233
 30
0.0
 10
38.66836864339579
 20
-2.951813029677529
 30
0.0
 10
37.90747384132133
 20
-2.530688573526019
 30
0.0
 10
37.52841357515638
 20
-2.318194488411621
 30
0.0
 10
36.3848204617096
 20
-1.67446648228668
 30
0.0
 10
35.61874979560289
 20
-1.237867736580743
 30
0.0
 10
34.10120028002281
 20
-0.362332676099189
 30
0.0
 10
33.33519205675204
 20
0.0793848128350022
 30
0.0
 10
32.19156137539562
 20
0.7384382879224963
 30
0.0
 10
31.81247914648637
 20
0.9572993316859276
 30
0.0
 10
31.05162188620492
 20
1.393659301231072
 30
0.0
 10
30.66981455880652
 20
1.6111620669666
 30
0.0
 10
29.90618544181191
 20
2.043239964548976
 30
0.0
 10
29.52436585245104
 20
2.257813851304933
 30
0.0
 10
28.76345983745265
 20
2.68250032302833
 30
0.0
 10
28.38440598513493
 20
2.892612815484612
 30
0.0
 10
27.24082421697893
 20
3.516686981008162
 30
0.0
 10
26.47474978904
 20
3.923425389779871
 30
0.0
 10
24.95717045449332
 20
4.70673568484105
 30
0.0
 10
24.19119581232636
 20
5.085786590081195
 30
0.0
 10
23.04755393551908
 20
5.627256949627744
 30
0.0
 10
22.66846494281305
 20
5.803059546719536
 30
0.0
 10
21.90761899467925
 20
6.145530413350699
 30
0.0
 10
21.52581452786406
 20
6.312192603106001
 30
0.0
 10
20.76218547267131
 20
6.635135394865903
 30
0.0
 10
20.3803630845279
 20
6.791415065603648
 30
0.0
 10
19.61944587950638
 20
7.092504967456698
 30
0.0
 10
19.24039836027665
 20
7.237325129041745
 30
0.0
 10
18.09682797198671
 20
7.654888366519547
 30
0.0
 10
17.33074980563742
 20
7.909982366780016
 30
0.0
 10
15.81314069750005
 20
8.36652928114749
 30
0.0
 10
15.0471995677799
 20
8.569423036066983
 30
0.0
 10
13.90354653010316
 20
8.831184058781073
 30
0.0
 10
13.52445069284446
 20
8.91128920950753
 30
0.0
 10
12.7636160797532
 20
9.0573310954622
 30
0.0
 10
12.38181448510795
 20
9.12325177846331
 30
0.0
 10
12.00000000000032
 20
9.181808508261145
 30
0.0
  0
SPLINE
  5
B1
330
1F
100
AcDbEntity
  8
외형선
  6
Continuous
 62
     1
370
    15
100
AcDbSpline
210
0.0
220
0.0
230
1.0
 70
     8
 71
     3
 72
    18
 73
    14
 74
     0
 42
0.000000001
 43
0.00000001
 40
0.0
 40
0.0
 40
0.0
 40
0.0
 40
0.2499999999999972
 40
0.2499999999999972
 40
0.3749999999999954
 40
0.3749999999999954
 40
0.4999999999999937
 40
0.4999999999999937
 40
0.624999999999992
 40
0.624999999999992
 40
0.7499999999999902
 40
0.7499999999999902
 40
1.0
 40
1.0
 40
1.0
 40
1.0
 10
50.10000000000002
 20
-6.864258096166164
 30
0.0
 10
50.10000000000004
 20
-6.990765797081129
 30
0.0
 10
50.06022014086034
 20
-7.121103810058729
 30
0.0
 10
49.94095734192094
 20
-7.29879833302939
 30
0.0
 10
49.89216733024633
 20
-7.353806994304607
 30
0.0
 10
49.77752187782729
 20
-7.452895403318622
 30
0.0
 10
49.71079132461324
 20
-7.497323940210825
 30
0.0
 10
49.5655677123118
 20
-7.569594421999234
 30
0.0
 10
49.48706813446994
 20
-7.597775700215211
 30
0.0
 10
49.31948505556279
 20
-7.637010804474276
 30
0.0
 10
49.23005427786934
 20
-7.647857051060758
 30
0.0
 10
48.95809193361556
 20
-7.652510223824256
 30
0.0
 10
48.76627114678074
 20
-7.618820778343496
 30
0.0
 10
48.57600000000004
 20
-7.551970788948483
 30
0.0
  0
SPLINE
  5
B2
330
1F
100
AcDbEntity
  8
외형선
  6
Continuous
 62
     1
370
    15
100
AcDbSpline
210
0.0
220
0.0
230
1.0
 70
     8
 71
     3
 72
    19
 73
    15
 74
     0
 42
0.000000001
 43
0.00000001
 40
0.0
 40
0.0
 40
0.0
 40
0.0
 40
0.0869478067223115
 40
0.1739134760453089
 40
0.2609151616210499
 40
0.3479291256184899
 40
0.4349031060737219
 40
0.521854101053536
 40
0.6088003248265719
 40
0.6957600113862017
 40
0.7868826036486514
 40
0.8780298586912496
 40
0.9691690523608192
 40
1.0
 40
1.0
 40
1.0
 40
1.0
 10
12.00000000000004
 20
-0.8193717108894244
 30
0.0
 10
12.85312100512201
 20
-1.308323928090514
 30
0.0
 10
14.5595382809699
 20
-2.286328813079541
 30
0.0
 10
17.1196976845582
 20
-3.69319497979446
 30
0.0
 10
19.68076780309233
 20
-5.012623900489446
 30
0.0
 10
22.24205226119766
 20
-6.211046537763431
 30
0.0
 10
24.80247963813492
 20
-7.260552331855779
 30
0.0
 10
27.36213742650829
 20
-8.13528265834044
 30
0.0
 10
29.92162198361759
 20
-8.814787199180191
 30
0.0
 10
32.52210679012813
 20
-9.288740067803737
 30
0.0
 10
35.16406215057194
 20
-9.538807766515923
 30
0.0
 10
37.84719362061753
 20
-9.524578976323927
 30
0.0
 10
39.93861530801892
 20
-9.365666502711505
 30
0.0
 10
41.13547958074257
 20
-9.132693192022376
 30
0.0
 10
41.43801640924504
 20
-9.073803468143144
 30
0.0
  0
SPLINE
  5
B3
330
1F
100
AcDbEntity
  8
외형선
  6
Continuous
370
    15
100
AcDbSpline
210
0.0
220
0.0
230
1.0
 70
    24
 71
     3
 72
    23
 73
    19
 74
     0
 42
0.000000001
 43
0.00000001
 40
0.0
 40
0.0
 40
0.0
 40
0.0
 40
0.0890367618029246
 40
0.1523565181649894
 40
0.2175125517511401
 40
0.2808323081131824
 40
0.3459883416993093
 40
0.409308098061352
 40
0.4744641316474794
 40
0.5377838880095337
 40
0.6029399215956484
 40
0.6662596779576905
 40
0.7314157115438178
 40
0.7947354679058598
 40
0.8598915014919877
 40
0.9232112578540309
 40
0.988367291440158
 40
1.0
 40
1.0
 40
1.0
 40
1.0
 10
12.00000000000005
 20
4.700869328688129
 30
0.0
 10
12.00000000000004
 20
4.607317933472389
 30
0.0
 10
12.00000000000004
 20
4.447236136291858
 30
0.0
 10
11.99999999999997
 20
4.097321719486325
 30
0.0
 10
12.00000000000002
 20
3.736426229565201
 30
0.0
 10
12.00000000000002
 20
3.321964878956187
 30
0.0
 10
12.00000000000004
 20
2.875237451793689
 30
0.0
 10
12.00000000000002
 20
2.40028242117681
 30
0.0
 10
12.00000000000002
 20
1.919241705901843
 30
0.0
 10
11.99999999999996
 20
1.437037751415583
 30
0.0
 10
12.0
 20
0.9759898104148508
 30
0.0
 10
12.00000000000012
 20
0.5409185133769933
 30
0.0
 10
11.99999999999998
 20
0.151702852742286
 30
0.0
 10
12.00000000000008
 20
-0.186647530073278
 30
0.0
 10
12.0
 20
-0.4621846375406469
 30
0.0
 10
12.00000000000002
 20
-0.6581613358091648
 30
0.0
 10
12.00000000000005
 20
-0.7744193462605296
 30
0.0
 10
12.00000000000001
 20
-0.7827357936283306
 30
0.0
 10
12.00000000000002
 20
-0.7839956502919415
 30
0.0
  0
SPLINE
  5
B4
330
1F
100
AcDbEntity
  8
외형선
  6
Continuous
 62
     1
370
    15
100
AcDbSpline
210
0.0
220
0.0
230
1.0
 70
     8
 71
     3
 72
    21
 73
    17
 74
     0
 42
0.000000001
 43
0.00000001
 40
0.0
 40
0.0
 40
0.0
 40
0.0
 40
0.0120051232718255
 40
0.0863624497456677
 40
0.16075089238773
 40
0.2351484028981456
 40
0.3095117855985116
 40
0.3838558387796098
 40
0.4581961368988108
 40
0.5325482699374786
 40
0.6104598554404004
 40
0.6883924491652279
 40
0.7663170792963339
 40
0.8442221808545565
 40
0.9221142966888497
 40
1.0
 40
1.0
 40
1.0
 40
1.0
 10
46.429918978401
 20
-9.509490620077262
 30
0.0
 10
46.29215123442786
 20
-9.51442637419283
 30
0.0
 10
45.30107770722984
 20
-9.54993319966318
 30
0.0
 10
43.45626990123223
 20
-9.394956218078356
 30
0.0
 10
40.89518681284412
 20
-9.03370807610159
 30
0.0
 10
38.33391367232106
 20
-8.43405359624101
 30
0.0
 10
35.77350650468185
 20
-7.637242911981724
 30
0.0
 10
33.21385875448709
 20
-6.65543269305012
 30
0.0
 10
30.65437112699264
 20
-5.51407759299272
 30
0.0
 10
28.05387095117412
 20
-4.219887102199621
 30
0.0
 10
25.41189888981532
 20
-2.797636421872482
 30
0.0
 10
22.72875111452011
 20
-1.280031084081759
 30
0.0
 10
20.04576353973164
 20
0.2720928727238552
 30
0.0
 10
17.3633998716493
 20
1.814657114725637
 30
0.0
 10
14.6815658561972
 20
3.31814928890639
 30
0.0
 10
12.8938307549649
 20
4.239975297609421
 30
0.0
 10
12.00000000000032
 20
4.700869328686541
 30
0.0
  0
LINE
  5
B5
330
1F
100
AcDbEntity
  8
외형선
  6
Continuous
 62
     1
370
    15
100
AcDbLine
 10
50.10000000000002
 20
-0.1278528819148905
 30
0.0
 11
50.10000000000002
 21
4.110713051189236
 31
0.0
  0
SPLINE
  5
B6
330
1F
100
AcDbEntity
  8
외형선
  6
Continuous
 62
     1
370
    15
100
AcDbSpline
210
0.0
220
0.0
230
1.0
 70
     8
 71
     3
 72
    18
 73
    14
 74
     0
 42
0.000000001
 43
0.00000001
 40
0.0
 40
0.0
 40
0.0
 40
0.0
 40
0.25
 40
0.25
 40
0.5
 40
0.5
 40
0.625
 40
0.625
 40
0.75
 40
0.75
 40
0.875
 40
0.875
 40
1.0
 40
1.0
 40
1.0
 40
1.0
 10
48.57600000000005
 20
0.5049588743135917
 30
0.0
 10
48.76454624137946
 20
0.3964093446789557
 30
0.0
 10
48.9454166974805
 20
0.2847473511672241
 30
0.0
 10
49.29772842719834
 20
0.0654161892475927
 30
0.0
 10
49.45916978344268
 20
-0.0362513630103017
 30
0.0
 10
49.68153072076892
 20
-0.1592366043214254
 30
0.0
 10
49.74965823945836
 20
-0.1936313715709714
 30
0.0
 10
49.87240553439769
 20
-0.2441204200239696
 30
0.0
 10
49.92670606361667
 20
-0.2597774036210266
 30
0.0
 10
50.01334412516553
 20
-0.265566692434377
 30
0.0
 10
50.04702530012765
 20
-0.2555322590099501
 30
0.0
 10
50.08998620514353
 20
-0.2096505600524853
 30
0.0
 10
50.10000000000004
 20
-0.1738386540594395
 30
0.0
 10
50.10000000000002
 20
-0.1278528819148904
 30
0.0
  0
SPLINE
  5
B7
330
1F
100
AcDbEntity
  8
외형선
  6
Continuous
 62
     1
370
    15
100
AcDbSpline
210
0.0
220
0.0
230
1.0
 70
     8
 71
     3
 72
    17
 73
    13
 74
     0
 42
0.000000001
 43
0.00000001
 40
0.0
 40
0.0
 40
0.0
 40
0.0
 40
0.0505445507825184
 40
0.1527715987269258
 40
0.2549930372313917
 40
0.3572303037425524
 40
0.4643618392723604
 40
0.571522370481967
 40
0.6786734240499748
 40
0.7857973762515165
 40
0.8929032223683557
 40
1.0
 40
1.0
 40
1.0
 40
1.0
 10
23.53712081746663
 20
9.49634263538302
 30
0.0
 10
23.95898018931171
 20
9.50196974367206
 30
0.0
 10
25.2340559329268
 20
9.518977755737009
 30
0.0
 10
27.36212981478516
 20
9.299783942760865
 30
0.0
 10
29.92162392756316
 20
8.857823604536847
 30
0.0
 10
32.52210659361906
 20
8.18030619113545
 30
0.0
 10
35.16406081243353
 20
7.287474655621949
 30
0.0
 10
37.84719915362865
 20
6.187833312888606
 30
0.0
 10
40.53020161132799
 20
4.925228005281094
 30
0.0
 10
43.2125831664463
 20
3.532367734197381
 30
0.0
 10
45.89442867990088
 20
2.047422921487632
 30
0.0
 10
47.68216812188744
 20
1.019099044993738
 30
0.0
 10
48.57600000000004
 20
0.5049588743136078
 30
0.0
  0
SPLINE
  5
B8
330
1F
100
AcDbEntity
  8
외형선
  6
Continuous
 62
     1
370
    15
100
AcDbSpline
210
0.0
220
0.0
230
1.0
 70
     8
 71
     3
 72
    15
 73
    11
 74
     0
 42
0.000000001
 43
0.00000001
 40
0.0
 40
0.0
 40
0.0
 40
0.0
 40
0.127279594782663
 40
0.2545858922155135
 40
0.3819454632712096
 40
0.5093205593168476
 40
0.6366372255433561
 40
0.7639207979290035
 40
0.8911979413176785
 40
0.9999999999999999
 40
0.9999999999999999
 40
0.9999999999999999
 40
0.9999999999999999
 10
48.57600000000005
 20
5.804598367059453
 30
0.0
 10
47.72287688844521
 20
6.181749201918064
 30
0.0
 10
46.01645168418736
 20
6.93612999607647
 30
0.0
 10
43.45627331002341
 20
7.863630910411579
 30
0.0
 10
40.89518595815849
 20
8.612176331756956
 30
0.0
 10
38.33391368106218
 20
9.150569457193452
 30
0.0
 10
35.77350732347212
 20
9.471402973989733
 30
0.0
 10
33.21385547152855
 20
9.558444399345944
 30
0.0
 10
30.77835179687868
 20
9.443633399170494
 30
0.0
 10
29.19590547392204
 20
9.191982337300303
 30
0.0
 10
28.46660184962323
 20
9.076003659971352
 30
0.0
  0
SPLINE
  5
B9
330
1F
100
AcDbEntity
  8
외형선
  6
Continuous
 62
     1
370
    15
100
AcDbSpline
210
0.0
220
0.0
230
1.0
 70
     8
 71
     3
 72
    18
 73
    14
 74
     0
 42
0.000000001
 43
0.00000001
 40
0.0
 40
0.0
 40
0.0
 40
0.0
 40
0.2499999999999977
 40
0.2499999999999977
 40
0.3749999999999958
 40
0.3749999999999958
 40
0.499999999999994
 40
0.499999999999994
 40
0.6249999999999922
 40
0.6249999999999922
 40
0.7499999999999903
 40
0.7499999999999903
 40
1.0
 40
1.0
 40
1.0
 40
1.0
 10
50.10000000000002
 20
4.110713051189234
 30
0.0
 10
50.10000000000002
 20
4.290325529171631
 30
0.0
 10
50.06022014086032
 20
4.461824189504297
 30
0.0
 10
49.94095734192097
 20
4.710102446158155
 30
0.0
 10
49.89216733024634
 20
4.789684818594951
 30
0.0
 10
49.7775218778273
 20
4.94479930950708
 30
0.0
 10
49.71079132461328
 20
5.021104728589324
 30
0.0
 10
49.5655677123119
 20
5.166210219681976
 30
0.0
 10
49.48706813446996
 20
5.235339070105635
 30
0.0
 10
49.31948505556274
 20
5.368576100912996
 30
0.0
 10
49.23005427786938
 20
5.432778498766853
 30
0.0
 10
48.95809193361561
 20
5.611821493541812
 30
0.0
 10
48.76627114678075
 20
5.717624362102
 30
0.0
 10
48.57600000000004
 20
5.804598367059457
 30
0.0
  0
LINE
  5
BA
330
1F
100
AcDbEntity
  8
외형선
  6
Continuous
370
    15
100
AcDbLine
 10
12.00000000000001
 20
9.181808508261188
 30
0.0
 11
12.00000000000002
 21
9.48969203922837
 31
0.0
  0
LINE
  5
BB
330
1F
100
AcDbEntity
  8
외형선
  6
Continuous
 62
     1
370
    15
100
AcDbLine
 10
50.10000000000002
 20
-1.947050373605802
 30
0.0
 11
50.10000000000002
 21
-0.1278528819148905
 31
0.0
  0
LINE
  5
BC
330
1F
100
AcDbEntity
  8
외형선
  6
Continuous
370
    15
100
AcDbLine
 10
12.00000000000004
 20
4.700869328686675
 30
0.0
 11
12.00000000000002
 21
6.130842299228104
 31
0.0
  0
SPLINE
  5
BD
330
1F
100
AcDbEntity
  8
외형선
  6
Continuous
 62
     1
370
    15
100
AcDbSpline
210
0.0
220
0.0
230
1.0
 70
     8
 71
     3
 72
    16
 73
    12
 74
     0
 42
0.000000001
 43
0.00000001
 40
0.0
 40
0.0
 40
0.0
 40
0.0
 40
0.0120221420482771
 40
0.1312256874487976
 40
0.2504482099639604
 40
0.3753782607532697
 40
0.500341997909153
 40
0.6252929655627641
 40
0.7502126194446633
 40
0.8751114509143428
 40
1.0
 40
1.0
 40
1.0
 40
1.0
 10
33.47194142560701
 20
-9.514616416223614
 30
0.0
 10
33.3859011641751
 20
-9.518004783199192
 30
0.0
 10
32.44674303334144
 20
-9.554989938083718
 30
0.0
 10
30.6543747837264
 20
-9.409286588260358
 30
0.0
 10
28.05386991894275
 20
-9.057879778792444
 30
0.0
 10
25.4118991719318
 20
-8.44634687920724
 30
0.0
 10
22.72875103892838
 20
-7.609408880101753
 30
0.0
 10
20.04576355997302
 20
-6.570222221109759
 30
0.0
 10
17.36339986625317
 20
-5.356925818956823
 30
0.0
 10
14.68156585754601
 20
-4.007101707118798
 30
0.0
 10
12.89383075541449
 20
-3.024870657133888
 30
0.0
 10
12.00000000000032
 20
-2.533775348688865
 30
0.0
  0
LINE
  5
BE
330
1F
100
AcDbEntity
  8
외형선
  6
Continuous
370
    15
100
AcDbLine
 10
12.00000000000004
 20
-2.533775348688714
 30
0.0
 11
12.00000000000002
 21
-0.8193717108894211
 31
0.0
  0
SPLINE
  5
BF
330
1F
100
AcDbEntity
  8
외형선
  6
Continuous
 62
     1
370
    15
100
AcDbSpline
210
0.0
220
0.0
230
1.0
 70
     8
 71
     3
 72
    14
 73
    10
 74
     0
 42
0.000000001
 43
0.00000001
 40
0.0
 40
0.0
 40
0.0
 40
0.0
 40
0.155437708913369
 40
0.3109073510270121
 40
0.4664413798574862
 40
0.6219973589798624
 40
0.7774818590111691
 40
0.9329252676133545
 40
1.0
 40
1.0
 40
1.0
 40
1.0
 10
12.00000000000005
 20
-7.289608885392684
 30
0.0
 10
12.85312100596299
 20
-7.589789087892328
 30
0.0
 10
14.55953828349285
 20
-8.1902111620618
 30
0.0
 10
17.11969767446235
 20
-8.847309086292572
 30
0.0
 10
19.6807678409712
 20
-9.303358900262353
 30
0.0
 10
22.24205211979047
 20
-9.535857530654951
 30
0.0
 10
24.80248016555478
 20
-9.527201405953033
 30
0.0
 10
26.87716641083299
 20
-9.373301529991469
 30
0.0
 10
28.09846103365602
 20
-9.144863003222063
 30
0.0
 10
28.4666018496231
 20
-9.076003659971363
 30
0.0
  0
SPLINE
  5
C0
330
1F
100
AcDbEntity
  8
외형선
  6
Continuous
370
    15
100
AcDbSpline
210
0.0
220
0.0
230
1.0
 70
    24
 71
     3
 72
    21
 73
    17
 74
     0
 42
0.000000001
 43
0.00000001
 40
0.0
 40
0.0
 40
0.0
 40
0.0
 40
0.0491504366043749
 40
0.1188382752486514
 40
0.1905470659346012
 40
0.2602349045788778
 40
0.3319436952648285
 40
0.4016315339091182
 40
0.4733403245950544
 40
0.5430281632393306
 40
0.6147369539252812
 40
0.6844247925695568
 40
0.7561335832555078
 40
0.8258214218997851
 40
0.8975302125857356
 40
1.0
 40
1.0
 40
1.0
 40
1.0
 10
12.00000000000002
 20
-2.29631621149691
 30
0.0
 10
12.00000000000002
 20
-2.300357023419312
 30
0.0
 10
12.00000000000002
 20
-2.310127091655486
 30
0.0
 10
12.00000000000002
 20
-2.419257327279227
 30
0.0
 10
12.00000000000004
 20
-2.605843748332237
 30
0.0
 10
12.00000000000002
 20
-2.869583802292875
 30
0.0
 10
12.0
 20
-3.194377685699999
 30
0.0
 10
12.0
 20
-3.577920971864695
 30
0.0
 10
12.00000000000001
 20
-4.002177655535932
 30
0.0
 10
12.00000000000012
 20
-4.46284121987419
 30
0.0
 10
11.99999999999998
 20
-4.938594078627054
 30
0.0
 10
12.00000000000008
 20
-5.424416217684565
 30
0.0
 10
12.00000000000002
 20
-5.898265376709368
 30
0.0
 10
12.00000000000005
 20
-6.353559290572453
 30
0.0
 10
12.00000000000001
 20
-6.841079808607898
 30
0.0
 10
12.00000000000002
 20
-7.123474959165504
 30
0.0
 10
12.00000000000004
 20
-7.289608885392689
 30
0.0
  0
SPLINE
  5
C1
330
1F
100
AcDbEntity
  8
외형선
  6
Continuous
 62
     1
370
    15
100
AcDbSpline
210
0.0
220
0.0
230
1.0
 70
     8
 71
     3
 72
    18
 73
    14
 74
     0
 42
0.000000001
 43
0.00000001
 40
0.0
 40
0.0
 40
0.0
 40
0.0
 40
0.2499999999999946
 40
0.2499999999999946
 40
0.4999999999999891
 40
0.4999999999999891
 40
0.6249999999999918
 40
0.6249999999999918
 40
0.7499999999999946
 40
0.7499999999999946
 40
0.8749999999999972
 40
0.8749999999999972
 40
1.0
 40
1.0
 40
1.0
 40
1.0
 10
48.57600000000005
 20
7.082780680531483
 30
0.0
 10
48.76454624137949
 20
7.010099454831091
 30
0.0
 10
48.94541669748045
 20
6.910293939663276
 30
0.0
 10
49.29772842719834
 20
6.662556264627828
 30
0.0
 10
49.4591697834427
 20
6.521846042190127
 30
0.0
 10
49.68153072076888
 20
6.289198316769638
 30
0.0
 10
49.74965823945838
 20
6.210598923247983
 30
0.0
 10
49.87240553439767
 20
6.053929886176524
 30
0.0
 10
49.9267060636166
 20
5.975941266050915
 30
0.0
 10
50.01334412516543
 20
5.832985891442835
 30
0.0
 10
50.04702530012763
 20
5.765641915267666
 30
0.0
 10
50.08998620514349
 20
5.651838027672427
 30
0.0
 10
50.10000000000004
 20
5.604155595244565
 30
0.0
 10
50.10000000000002
 20
5.566433346801487
 30
0.0
  0
LINE
  5
C2
330
1F
100
AcDbEntity
  8
외형선
  6
Continuous
 62
     1
370
    15
100
AcDbLine
 10
50.10000000000002
 20
4.110713051189236
 30
0.0
 11
50.10000000000002
 21
5.566433346801487
 31
0.0
  0
SPLINE
  5
C3
330
1F
100
AcDbEntity
  8
외형선
  6
Continuous
 62
     1
370
    15
100
AcDbSpline
210
0.0
220
0.0
230
1.0
 70
     8
 71
     3
 72
    12
 73
     8
 74
     0
 42
0.000000001
 43
0.00000001
 40
0.0
 40
0.0
 40
0.0
 40
0.0
 40
0.1120402737217943
 40
0.3340957875736909
 40
0.556095137648786
 40
0.7780569654055413
 40
1.0
 40
1.0
 40
1.0
 40
1.0
 10
36.4934407267659
 20
9.493539045293108
 30
0.0
 10
36.94471639066111
 20
9.499472042093117
 30
0.0
 10
38.29038695476817
 20
9.517163798572518
 30
0.0
 10
40.53020321725931
 20
9.27470800694526
 30
0.0
 10
43.21258273832326
 20
8.784683382955013
 30
0.0
 10
45.89442878691355
 20
8.063448067394027
 30
0.0
 10
47.68216815755731
 20
7.409660583233728
 30
0.0
 10
48.57600000000004
 20
7.082780680531495
 30
0.0
  0
LINE
  5
C4
330
1F
100
AcDbEntity
  8
외형선
  6
Continuous
 62
     1
370
    15
100
AcDbLine
 10
50.10000000000002
 20
-6.864258096166163
 30
0.0
 11
50.10000000000002
 21
-5.747244626394094
 31
0.0
  0
SPLINE
  5
C5
330
1F
100
AcDbEntity
  8
외형선
  6
Continuous
 62
     1
370
    15
100
AcDbSpline
210
0.0
220
0.0
230
1.0
 70
     8
 71
     3
 72
    10
 73
     6
 74
     0
 42
0.000000001
 43
0.00000001
 40
0.0
 40
0.0
 40
0.0
 40
0.0
 40
0.3585766738381731
 40
0.7172285753473859
 40
1.0
 40
1.0
 40
1.0
 40
1.0
 10
48.57600000000006
 20
9.444520623600255
 30
0.0
 10
47.72287593151032
 20
9.485208427455586
 30
0.0
 10
46.01644881318186
 20
9.566592571272878
 30
0.0
 10
43.63718180482523
 20
9.431380687410858
 30
0.0
 10
42.11088447239617
 20
9.183209650797327
 30
0.0
 10
41.43801640924505
 20
9.07380346814313
 30
0.0
  0
SPLINE
  5
C6
330
1F
100
AcDbEntity
  8
외형선
  6
Continuous
 62
     1
370
    15
100
AcDbSpline
210
0.0
220
0.0
230
1.0
 70
     8
 71
     3
 72
    18
 73
    14
 74
     0
 42
0.000000001
 43
0.00000001
 40
0.0
 40
0.0
 40
0.0
 40
0.0
 40
0.2499999999999982
 40
0.2499999999999982
 40
0.3749999999999964
 40
0.3749999999999964
 40
0.4999999999999947
 40
0.4999999999999947
 40
0.6249999999999929
 40
0.6249999999999929
 40
0.7499999999999911
 40
0.7499999999999911
 40
1.0
 40
1.0
 40
1.0
 40
1.0
 10
50.10000000000002
 20
7.760476521621666
 30
0.0
 10
50.10000000000002
 20
7.976936175978033
 30
0.0
 10
50.06022014086031
 20
8.190366934486491
 30
0.0
 10
49.94095734192094
 20
8.491575175559873
 30
0.0
 10
49.89216733024629
 20
8.586745408184555
 30
0.0
 10
49.77752187782723
 20
8.766494002519618
 30
0.0
 10
49.71079132461324
 20
8.851865801508637
 30
0.0
 10
49.5655677123118
 20
9.005573825999857
 30
0.0
 10
49.48706813446994
 20
9.074382477839066
 30
0.0
 10
49.31948505556276
 20
9.196338694110263
 30
0.0
 10
49.23005427786935
 20
9.249406099512886
 30
0.0
 10
48.95809193361554
 20
9.379298905257311
 30
0.0
 10
48.76627114678072
 20
9.430290795731352
 30
0.0
 10
48.57600000000004
 20
9.444520623600262
 30
0.0
  0
LINE
  5
C7
330
1F
100
AcDbEntity
  8
외형선
  6
Continuous
 62
     1
370
    15
100
AcDbLine
 10
50.10000000000002
 20
5.566433346801487
 30
0.0
 11
50.10000000000002
 21
7.760476521621666
 31
0.0
  0
SPLINE
  5
C8
330
1F
100
AcDbEntity
  8
외형선
  6
Continuous
 62
     1
370
    15
100
AcDbSpline
210
0.0
220
0.0
230
1.0
 70
     8
 71
     3
 72
    11
 73
     7
 74
     0
 42
0.000000001
 43
0.00000001
 40
0.0
 40
0.0
 40
0.0
 40
0.0
 40
0.0550147122162238
 40
0.3700534604231495
 40
0.6850396959431084
 40
1.0
 40
1.0
 40
1.0
 40
1.0
 10
20.51399540578329
 20
-9.50687787861488
 30
0.0
 10
20.35785170541929
 20
-9.512617687603328
 30
0.0
 10
19.30755962325999
 20
-9.551226199631788
 30
0.0
 10
17.36340731412406
 20
-9.376119101385022
 30
0.0
 10
14.68156399588644
 20
-8.988640063936092
 30
0.0
 10
12.89383013487834
 20
-8.518986104154084
 30
0.0
 10
12.00000000000032
 20
-8.284168790809005
 30
0.0
  0
LINE
  5
C9
330
1F
100
AcDbEntity
  8
외형선
  6
Continuous
370
    15
100
AcDbLine
 10
12.00000000000004
 20
-8.284168790808927
 30
0.0
 11
12.00000000000004
 21
-7.289608885392689
 31
0.0
  0
SPLINE
  5
CA
330
1F
100
AcDbEntity
  8
외형선
  6
Continuous
 62
     1
370
    15
100
AcDbSpline
210
0.0
220
0.0
230
1.0
 70
     8
 71
     3
 72
     9
 73
     5
 74
     0
 42
0.000000001
 43
0.00000001
 40
0.0
 40
0.0
 40
0.0
 40
0.0
 40
0.7213331349268955
 40
1.0
 40
1.0
 40
1.0
 40
1.0
 10
12.00000000000002
 20
-9.489692039228373
 30
0.0
 10
12.85311349401942
 20
-9.436188256090077
 30
0.0
 10
14.03580350604262
 20
-9.362014784017816
 30
0.0
 10
15.21856643291329
 20
-9.13381464040242
 30
0.0
 10
15.54816326986902
 20
-9.070222821771885
 30
0.0
  0
SPLINE
  5
CB
330
1F
100
AcDbEntity
  8
외형선
  6
Continuous
370
    15
100
AcDbSpline
210
0.0
220
0.0
230
1.0
 70
    24
 71
     3
 72
     9
 73
     5
 74
     0
 42
0.000000001
 43
0.00000001
 40
0.0
 40
0.0
 40
0.0
 40
0.0
 40
0.392336290346457
 40
1.0
 40
1.0
 40
1.0
 40
1.0
 10
12.0
 20
-8.358362635556912
 30
0.0
 10
12.00000000000001
 20
-8.502276045006983
 30
0.0
 10
12.00000000000002
 20
-8.869087408092945
 30
0.0
 10
12.00000000000004
 20
-9.255116294239272
 30
0.0
 10
12.00000000000002
 20
-9.489692039228373
 30
0.0
  0
LINE
  5
CD
330
1F
100
AcDbEntity
  8
외형선
  6
Continuous
 62
     1
370
    15
100
AcDbLine
 10
50.10000000000002
 20
7.760476521621666
 30
0.0
 11
50.10000000000002
 21
7.999978415007505
 31
0.0
  0
LINE
  5
CE
330
1F
100
AcDbEntity
  8
외형선
  6
Continuous
370
    15
100
AcDbLine
 10
11.49986971623983
 20
9.510144783458738
 30
0.0
 11
11.49986971623983
 21
9.524999999999991
 31
0.0
  0
SPLINE
  5
CF
330
1F
100
AcDbEntity
  8
외형선
  6
Continuous
370
    15
100
AcDbSpline
210
0.0
220
0.0
230
1.0
 70
     8
 71
     3
 72
     8
 73
     4
 74
     0
 42
0.000000001
 43
0.00000001
 40
0.0
 40
0.0
 40
0.0
 40
0.0
 40
1.0
 40
1.0
 40
1.0
 40
1.0
 10
12.00000000000001
 20
9.489692039228355
 30
0.0
 10
11.83325394010038
 20
9.497961798242525
 30
0.0
 10
11.66650565261981
 20
9.504781264227628
 30
0.0
 10
11.49986971623983
 20
9.51014670886839
 30
0.0
  0
SPLINE
  5
D0
330
1F
100
AcDbEntity
  8
외형선
  6
Continuous
370
    15
100
AcDbSpline
210
0.0
220
0.0
230
1.0
 70
     8
 71
     3
 72
     8
 73
     4
 74
     0
 42
0.000000001
 43
0.00000001
 40
0.0
 40
0.0
 40
0.0
 40
0.0
 40
1.0
 40
1.0
 40
1.0
 40
1.0
 10
12.00000000000002
 20
9.181808508261184
 30
0.0
 10
11.83325394010039
 20
9.207381409120732
 30
0.0
 10
11.66650565261983
 20
9.23155114729278
 30
0.0
 10
11.49986971623984
 20
9.254302041508975
 30
0.0
  0
LINE
  5
D1
330
1F
100
AcDbEntity
  8
외형선
  6
Continuous
370
    15
100
AcDbLine
 10
11.49986971623983
 20
6.348675102269686
 30
0.0
 11
11.49986971623981
 21
9.254302468639484
 31
0.0
  0
SPLINE
  5
D2
330
1F
100
AcDbEntity
  8
외형선
  6
Continuous
370
    15
100
AcDbSpline
210
0.0
220
0.0
230
1.0
 70
     8
 71
     3
 72
     8
 73
     4
 74
     0
 42
0.000000001
 43
0.00000001
 40
0.0
 40
0.0
 40
0.0
 40
0.0
 40
1.0
 40
1.0
 40
1.0
 40
1.0
 10
12.00000000000001
 20
6.130842299228087
 30
0.0
 10
11.83325394010038
 20
6.204414901245673
 30
0.0
 10
11.66650565261981
 20
6.277050836509793
 30
0.0
 10
11.49986971623983
 20
6.34870081333793
 30
0.0
  0
SPLINE
  5
D3
330
1F
100
AcDbEntity
  8
외형선
  6
Continuous
370
    15
100
AcDbSpline
210
0.0
220
0.0
230
1.0
 70
     8
 71
     3
 72
     8
 73
     4
 74
     0
 42
0.000000001
 43
0.00000001
 40
0.0
 40
0.0
 40
0.0
 40
0.0
 40
1.0
 40
1.0
 40
1.0
 40
1.0
 10
12.00000000000002
 20
4.700869328686676
 30
0.0
 10
11.83325394010039
 20
4.784479830028389
 30
0.0
 10
11.66650565261983
 20
4.867372254357295
 30
0.0
 10
11.49986971623984
 20
4.949490118163957
 30
0.0
  0
SPLINE
  5
D4
330
1F
100
AcDbEntity
  8
외형선
  6
Continuous
370
    15
100
AcDbSpline
210
0.0
220
0.0
230
1.0
 70
     8
 71
     3
 72
     8
 73
     4
 74
     0
 42
0.000000001
 43
0.00000001
 40
0.0
 40
0.0
 40
0.0
 40
0.0
 40
1.0
 40
1.0
 40
1.0
 40
1.0
 10
12.00000000000001
 20
-0.8193717108894316
 30
0.0
 10
11.83325394010038
 20
-0.7235940983112507
 30
0.0
 10
11.66650565261981
 20
-0.6276908395301838
 30
0.0
 10
11.49986971623983
 20
-0.531727915196874
 30
0.0
  0
SPLINE
  5
D5
330
1F
100
AcDbEntity
  8
외형선
  6
Continuous
370
    15
100
AcDbSpline
210
0.0
220
0.0
230
1.0
 70
     8
 71
     3
 72
     8
 73
     4
 74
     0
 42
0.000000001
 43
0.00000001
 40
0.0
 40
0.0
 40
0.0
 40
0.0
 40
1.0
 40
1.0
 40
1.0
 40
1.0
 10
12.00000000000002
 20
-2.533775348688712
 30
0.0
 10
11.83325394010039
 20
-2.441105144593998
 30
0.0
 10
11.66650565261983
 20
-2.34804729206212
 30
0.0
 10
11.49986971623984
 20
-2.254665989569829
 30
0.0
  0
SPLINE
  5
D6
330
1F
100
AcDbEntity
  8
외형선
  6
Continuous
370
    15
100
AcDbSpline
210
0.0
220
0.0
230
1.0
 70
     8
 71
     3
 72
     8
 73
     4
 74
     0
 42
0.000000001
 43
0.00000001
 40
0.0
 40
0.0
 40
0.0
 40
0.0
 40
1.0
 40
1.0
 40
1.0
 40
1.0
 10
12.00000000000001
 20
-7.289608885392676
 30
0.0
 10
11.83325394010038
 20
-7.227731488730483
 30
0.0
 10
11.66650565261981
 20
-7.164739734750643
 30
0.0
 10
11.49986971623983
 20
-7.100677642501631
 30
0.0
  0
SPLINE
  5
D7
330
1F
100
AcDbEntity
  8
외형선
  6
Continuous
370
    15
100
AcDbSpline
210
0.0
220
0.0
230
1.0
 70
     8
 71
     3
 72
     8
 73
     4
 74
     0
 42
0.000000001
 43
0.00000001
 40
0.0
 40
0.0
 40
0.0
 40
0.0
 40
1.0
 40
1.0
 40
1.0
 40
1.0
 10
12.00000000000002
 20
-8.284168790808927
 30
0.0
 10
11.83325394010039
 20
-8.236723832692011
 30
0.0
 10
11.66650565261983
 20
-8.188012579885019
 30
0.0
 10
11.49986971623984
 20
-8.138069339235017
 30
0.0
  0
LINE
  5
D8
330
1F
100
AcDbEntity
  8
외형선
  6
Continuous
370
    15
100
AcDbLine
 10
11.49986971623983
 20
-9.525000000000002
 30
0.0
 11
11.49986971623981
 21
-8.138068401588637
 31
0.0
  0
SPLINE
  5
D9
330
1F
100
AcDbEntity
  8
외형선
  6
Continuous
370
    15
100
AcDbSpline
210
0.0
220
0.0
230
1.0
 70
     8
 71
     3
 72
     8
 73
     4
 74
     0
 42
0.000000001
 43
0.00000001
 40
0.0
 40
0.0
 40
0.0
 40
0.0
 40
1.0
 40
1.0
 40
1.0
 40
1.0
 10
12.00000000000001
 20
-9.489692039228363
 30
0.0
 10
11.83325394010038
 20
-9.497961798242528
 30
0.0
 10
11.66650565261981
 20
-9.504781264227638
 30
0.0
 10
11.49986971623983
 20
-9.510146708868398
 30
0.0
  0
LINE
  5
DA
330
1F
100
AcDbEntity
  8
외형선
  6
Continuous
370
    15
100
AcDbLine
 10
-52.76999999999999
 20
-0.0000000000000062
 30
0.0
 11
-52.76999999999999
 21
9.524999999999991
 31
0.0
  0
LINE
  5
DB
330
1F
100
AcDbEntity
  8
외형선
  6
Continuous
370
    15
100
AcDbLine
 10
-52.76999999999999
 20
-9.525000000000002
 30
0.0
 11
-52.76999999999999
 21
-0.0000000000000062
 31
0.0
  0
LINE
  5
DC
330
1F
100
AcDbEntity
  8
외형선
  6
Continuous
370
    15
100
AcDbLine
 10
11.49986971623983
 20
-0.5317623507286395
 30
0.0
 11
11.49986971623981
 21
4.949491659864099
 31
0.0
  0
LINE
  5
DD
330
1F
100
AcDbEntity
  8
외형선
  6
Continuous
370
    15
100
AcDbLine
 10
11.49986971623983
 20
-7.100700630629434
 30
0.0
 11
11.49986971623981
 21
-2.254664236407089
 31
0.0
  0
LINE
  5
DE
330
1F
100
AcDbEntity
  8
외형선
  6
Continuous
370
    15
100
AcDbLine
 10
-54.67499999999999
 20
-0.0000000000000062
 30
0.0
 11
-54.67499999999999
 21
7.619999999999997
 31
0.0
  0
LINE
  5
DF
330
1F
100
AcDbEntity
  8
외형선
  6
Continuous
370
    15
100
AcDbLine
 10
-54.67499999999999
 20
-7.62000000000001
 30
0.0
 11
-54.67499999999999
 21
-0.0000000000000062
 31
0.0
  0
SPLINE
  5
E0
330
1F
100
AcDbEntity
  8
외형선
  6
Continuous
370
    15
100
AcDbSpline
210
0.0
220
0.0
230
1.0
 70
    24
 71
     3
 72
    23
 73
    19
 74
     0
 42
0.000000001
 43
0.00000001
 40
0.0
 40
0.0
 40
0.0
 40
0.0
 40
0.0416254994432518
 40
0.105016919379218
 40
0.1702466947877676
 40
0.2336381147237342
 40
0.2988678901322837
 40
0.3622593100682354
 40
0.4274890854768015
 40
0.4908805054127687
 40
0.5561102808213187
 40
0.6195017007572846
 40
0.6847314761658339
 40
0.7481228961017703
 40
0.8133526715102879
 40
0.8767440914462842
 40
0.941973866854866
 40
1.0
 40
1.0
 40
1.0
 40
1.0
 10
12.00000000000005
 20
-0.7832226645937707
 30
0.0
 10
12.00000000000005
 20
-0.7675334620542933
 30
0.0
 10
12.00000000000001
 20
-0.7279511930064769
 30
0.0
 10
12.00000000000008
 20
-0.5753924297707376
 30
0.0
 10
12.00000000000005
 20
-0.3410974235205343
 30
0.0
 10
12.00000000000005
 20
-0.0338360477212945
 30
0.0
 10
12.00000000000001
 20
0.3282079495261787
 30
0.0
 10
12.00000000000004
 20
0.7423652176929433
 30
0.0
 10
12.00000000000001
 20
1.18917513677412
 30
0.0
 10
12.00000000000002
 20
1.664108164328692
 30
0.0
 10
12.00000000000002
 20
2.145155461401089
 30
0.0
 10
12.0
 20
2.627355401507251
 30
0.0
 10
12.00000000000014
 20
3.088413011891647
 30
0.0
 10
12.00000000000004
 20
3.523450100827516
 30
0.0
 10
12.00000000000004
 20
3.912794574745484
 30
0.0
 10
12.00000000000014
 20
4.25066997463983
 30
0.0
 10
12.00000000000005
 20
4.520251826287786
 30
0.0
 10
12.00000000000002
 20
4.643055906329328
 30
0.0
 10
12.00000000000002
 20
4.700869328686688
 30
0.0
  0
SPLINE
  5
E1
330
1F
100
AcDbEntity
  8
외형선
  6
Continuous
370
    15
100
AcDbSpline
210
0.0
220
0.0
230
1.0
 70
    24
 71
     3
 72
    22
 73
    18
 74
     0
 42
0.000000001
 43
0.00000001
 40
0.0
 40
0.0
 40
0.0
 40
0.0
 40
0.068416551637847
 40
0.1368331032756938
 40
0.2074770020626402
 40
0.2781209008495867
 40
0.3487647996365335
 40
0.4194086984234802
 40
0.4900525972104279
 40
0.5606964959973754
 40
0.6313403947843228
 40
0.7019842935712702
 40
0.7726281923582163
 40
0.8432720911451624
 40
0.9139159899320748
 40
0.9845598887189873
 40
0.9999999999999999
 40
0.9999999999999999
 40
0.9999999999999999
 40
0.9999999999999999
 10
12.00000000000004
 20
-7.289608885392679
 30
0.0
 10
12.00000000000004
 20
-7.18128590698574
 30
0.0
 10
12.00000000000004
 20
-6.964639950171859
 30
0.0
 10
12.00000000000002
 20
-6.572322157917933
 30
0.0
 10
12.00000000000004
 20
-6.139601651064974
 30
0.0
 10
12.00000000000005
 20
-5.673407642861966
 30
0.0
 10
12.00000000000002
 20
-5.19216519365911
 30
0.0
 10
12.00000000000004
 20
-4.709474620180468
 30
0.0
 10
12.00000000000002
 20
-4.239372976088665
 30
0.0
 10
12.00000000000002
 20
-3.794382351836685
 30
0.0
 10
12.00000000000004
 20
-3.388504423497478
 30
0.0
 10
12.0
 20
-3.031276186454838
 30
0.0
 10
12.00000000000007
 20
-2.735726632287553
 30
0.0
 10
12.00000000000008
 20
-2.505262432077613
 30
0.0
 10
12.00000000000009
 20
-2.358109718478425
 30
0.0
 10
12.00000000000001
 20
-2.2875343347112
 30
0.0
 10
12.00000000000005
 20
-2.293165732538716
 30
0.0
 10
12.00000000000005
 20
-2.294175785498098
 30
0.0
  0
SPLINE
  5
E2
330
1F
100
AcDbEntity
  8
외형선
  6
Continuous
370
    15
100
AcDbSpline
210
0.0
220
0.0
230
1.0
 70
    24
 71
     3
 72
    14
 73
    10
 74
     0
 42
0.000000001
 43
0.00000001
 40
0.0
 40
0.0
 40
0.0
 40
0.0
 40
0.1024703742713031
 40
0.2545341390528945
 40
0.4065979038344139
 40
0.5586616686159328
 40
0.7107254333975989
 40
0.8627891981792649
 40
1.0
 40
1.0
 40
1.0
 40
1.0
 10
12.00000000000005
 20
6.205026143976088
 30
0.0
 10
12.00000000000007
 20
6.288695739026914
 30
0.0
 10
12.00000000000005
 20
6.49652915910187
 30
0.0
 10
12.00000000000009
 20
6.881466864617184
 30
0.0
 10
12.00000000000005
 20
7.33887988387935
 30
0.0
 10
12.00000000000007
 20
7.817273149164386
 30
0.0
 10
12.00000000000004
 20
8.300337089623152
 30
0.0
 10
12.00000000000005
 20
8.762328708106104
 30
0.0
 10
12.00000000000004
 20
9.046851569551457
 30
0.0
 10
12.00000000000004
 20
9.181808508261195
 30
0.0
  0
SPLINE
  5
E3
330
1F
100
AcDbEntity
  8
외형선
  6
Continuous
370
    15
100
AcDbSpline
210
0.0
220
0.0
230
1.0
 70
    24
 71
     3
 72
    10
 73
     6
 74
     0
 42
0.000000001
 43
0.00000001
 40
0.0
 40
0.0
 40
0.0
 40
0.0
 40
0.3993352471159255
 40
0.8095179186119107
 40
1.0
 40
1.0
 40
1.0
 40
1.0
 10
12.00000000000005
 20
-9.489692039228366
 30
0.0
 10
12.00000000000004
 20
-9.336321957154567
 30
0.0
 10
12.00000000000001
 20
-9.025415693521708
 30
0.0
 10
12.00000000000002
 20
-8.642143846479197
 30
0.0
 10
12.00000000000002
 20
-8.426680205351023
 30
0.0
 10
12.00000000000004
 20
-8.358352635556912
 30
0.0
  0
LINE
  5
E4
330
1F
100
AcDbEntity
  8
중심선
 62
     1
100
AcDbLine
 10
-57.67499999999998
 20
-0.0000000000000001
 30
0.0
 11
53.10000000000003
 21
0.0000000000000003
 31
0.0
  0
LINE
  5
E5
330
1F
100
AcDbEntity
  8
참조1
100
AcDbLine
 10
-2.287499999999977
 20
0.0000000000000003
 30
0.0
 11
-2.287499999999972
 21
-40.0
 31
0.0
  0
LINE
  5
E6
330
1F
100
AcDbEntity
  8
참조1
100
AcDbLine
 10
-2.287499999999972
 20
-40.0
 30
0.0
 11
-17.44635681430865
 21
-39.99999999999999
 31
0.0
  0
INSERT
  5
E8
330
1F
100
AcDbEntity
  8
0
  6
Continuous
 62
     7
100
AcDbBlockReference
 66
     1
  2
블럭10
 10
-16.22777293212518
 20
-52.04717430164393
 30
0.0
  0
ATTRIB
  5
E9
330
E8
100
AcDbEntity
  8
FORMAT
 62
     2
100
AcDbText
 10
-26.36940894426181
 20
-49.97180738881174
 30
0.0
 40
4.233333333333333
  1
EM668904 [ 8 FLUTE ]
 41
0.75
  7
SLDTEXTSTYLE0
 11
-26.36940894426181
 21
-52.08847405547841
 31
0.0
100
AcDbAttribute
  2
AUTOATTR0
 70
     0
 74
     1
  0
SEQEND
  5
EA
330
E8
100
AcDbEntity
  8
0
  6
Continuous
 62
     7
  0
HATCH
  5
EB
330
1F
100
AcDbEntity
  8
중심선
100
AcDbHatch
 10
0.0
 20
0.0
 30
0.0
210
0.0
220
0.0
230
1.0
  2
SOLID
 70
     1
 71
     0
 91
        1
 92
        0
 93
        4
 72
     1
 10
-10.51286362774435
 20
-35.79999999999999
 11
-13.95913887158163
 21
-35.79999999999999
 72
     1
 10
-13.95913887158163
 20
-35.79999999999999
 11
-16.08736873078565
 21
-38.33632558057259
 72
     1
 10
-16.08736873078565
 20
-38.33632558057259
 11
-12.64106040183522
 21
-38.3362861512701
 72
     1
 10
-12.64106040183522
 20
-38.3362861512701
 11
-10.51286362774435
 21
-35.79999999999999
 97
        0
 75
     0
 76
     1
 98
        1
 10
2.000000000000078
 20
-0.0010749287238889
  0
HATCH
  5
EC
330
1F
100
AcDbEntity
  8
중심선
100
AcDbHatch
 10
0.0
 20
0.0
 30
0.0
210
0.0
220
0.0
230
1.0
  2
SOLID
 70
     1
 71
     0
 91
        1
 92
        0
 93
        4
 72
     1
 10
-5.500099636708368
 20
-35.79999999999999
 11
-8.946374880545651
 21
-35.79999999999999
 72
     1
 10
-8.946374880545651
 20
-35.79999999999999
 11
-13.47751288890307
 21
-41.20000000000001
 72
     1
 10
-13.47751288890307
 20
-41.20000000000001
 11
-10.03123764506578
 21
-41.20000000000001
 72
     1
 10
-10.03123764506578
 20
-41.20000000000001
 11
-5.500099636708368
 21
-35.79999999999999
 97
        0
 75
     0
 76
     1
 98
        1
 10
2.000000000000078
 20
-0.0010749287238889
  0
HATCH
  5
ED
330
1F
100
AcDbEntity
  8
중심선
100
AcDbHatch
 10
0.0
 20
0.0
 30
0.0
210
0.0
220
0.0
230
1.0
  2
SOLID
 70
     1
 71
     0
 91
        1
 92
        0
 93
        4
 72
     1
 10
-0.4873356456725002
 20
-35.79999999999999
 11
-3.933610889509616
 21
-35.79999999999999
 72
     1
 10
-3.933610889509616
 20
-35.79999999999999
 11
-10.98204779139886
 21
-44.20000000000001
 72
     1
 10
-10.98204779139886
 20
-44.20000000000001
 11
-7.535772547561582
 21
-44.20000000000001
 72
     1
 10
-7.535772547561582
 20
-44.20000000000001
 11
-0.4873356456725002
 21
-35.79999999999999
 97
        0
 75
     0
 76
     1
 98
        1
 10
2.000000000000078
 20
-0.0010749287238889
  0
HATCH
  5
EE
330
1F
100
AcDbEntity
  8
중심선
100
AcDbHatch
 10
0.0
 20
0.0
 30
0.0
210
0.0
220
0.0
230
1.0
  2
SOLID
 70
     1
 71
     0
 91
        1
 92
        0
 93
        6
 72
     3
 10
4.312554785339699
 20
-40.00000000005127
 11
3.960054785062283
 21
1.540882976769353E-10
 40
0.3939339440162628
 50
17.09539180608437
 51
320.0019657685075
 73
     0
 72
     1
 10
5.995554441040294
 20
-38.58789400463827
 11
8.300856314741333
 21
-36.65356729459037
 72
     3
 10
4.312554785286853
 20
-40.00000000000014
 11
6.600054785286829
 21
-1.278976924368180E-13
 40
0.636358354079598
 50
39.99873849337411
 51
368.4976242363725
 73
     1
 72
     1
 10
10.73788727718746
 20
-39.03999999993002
 11
2.992622092122775
 21
-39.03999999992999
 72
     1
 10
2.992622092122775
 20
-39.03999999992999
 11
2.992597047676841
 21
-40.95999999992991
 72
     1
 10
2.992597047676841
 20
-40.95999999992991
 11
7.433976817148878
 21
-40.95999999992988
 97
        0
 75
     0
 76
     1
 98
        1
 10
2.000000000000078
 20
-0.0010749287238889
  0
DIMENSION
  5
EF
330
1F
100
AcDbEntity
  8
치수문자_일반주서
100
AcDbDimension
  2
_D
 10
69.10000000000014
 20
-9.524999999999888
 30
0.0
 11
69.1
 21
29.91025000000007
 31
0.0
 70
   160
  1
%%c<>
 71
     2
 42
19.04999999999995
 52
-270.0
  3
SLDDIMSTYLE0
100
AcDbAlignedDimension
 13
50.10000000000002
 23
9.524999999999995
 33
0.0
 14
50.10000000000003
 24
-9.52499999999996
 34
0.0
 50
90.0000000000002
100
AcDbRotatedDimension
1001
PE_URL
1000

1001
ACAD
1000
DSTYLE
1002
{
1070
   171
1070
     6
1070
   273
1070
     7
1002
}
  0
DIMENSION
  5
104
330
1F
100
AcDbEntity
  8
치수문자_일반주서
100
AcDbDimension
  2
_D_1
 10
-64.98289955631033
 20
-9.525000000000059
 30
0.0
 11
-64.98289955631037
 21
-0.0000000000000009
 31
0.0
 70
   160
  1
%%c<>
 71
     2
 42
19.05000000000001
 52
-270.0
  3
SLDDIMSTYLE0
100
AcDbAlignedDimension
 13
-52.77
 23
9.524999999999999
 33
0.0
 14
-52.77
 24
-9.525000000000013
 34
0.0
 50
90.0000000000002
100
AcDbRotatedDimension
1001
ACAD
1000
DSTYLE
1002
{
1070
   171
1070
     6
1070
   273
1070
     7
1002
}
1001
ACAD_DSTYLE_DIMFLIPARROW_SYMBOL
1070
   385
1070
     0
1001
ACAD_DSTYLE_DIMFLIPARROW_WHICH_SYMBOL
1070
   386
1070
     3
  0
DIMENSION
  5
118
330
1F
100
AcDbEntity
  8
치수문자_일반주서
100
AcDbDimension
  2
_D_2
 10
12.00000000000004
 20
31.1985827577925
 30
0.0
 11
33.41743761909093
 21
31.1985827577925
 31
0.0
 70
   160
  1
<>
 71
     2
 42
38.09999999999998
  3
SLDDIMSTYLE0
100
AcDbAlignedDimension
 13
50.10000000000002
 23
7.999978415007505
 33
0.0
 14
12.00000000000004
 24
9.489692039228355
 34
0.0
100
AcDbRotatedDimension
1001
PE_URL
1000

1001
ACAD
1000
DSTYLE
1002
{
1070
   171
1070
     6
1070
   273
1070
     7
1002
}
  0
DIMENSION
  5
12C
330
1F
100
AcDbEntity
  8
치수문자_일반주서
100
AcDbDimension
  2
_D_3
 10
50.10000000000003
 20
53.3346871005775
 30
0.0
 11
-1.158940071133069
 21
53.3346871005775
 31
0.0
 70
   160
  1
<>
 71
     2
 42
104.775
  3
SLDDIMSTYLE0
100
AcDbAlignedDimension
 13
-54.67499999999999
 23
7.619999999999997
 33
0.0
 14
50.10000000000002
 24
8.999978415007508
 34
0.0
100
AcDbRotatedDimension
1001
PE_URL
1000

1001
ACAD
1000
DSTYLE
1002
{
1070
   171
1070
     6
1070
   273
1070
     7
1002
}
  0
LINE
  5
140
330
1F
100
AcDbEntity
  8
참조1
100
AcDbLine
 10
80.52598381534563
 20
7.440000000000007
 30
0.0
 11
80.52598381534563
 21
-7.439999999999998
 31
0.0
  0
LINE
  5
141
330
1F
100
AcDbEntity
  8
참조1
100
AcDbLine
 10
93.22598381534561
 20
5.440000000000007
 30
0.0
 11
80.52598381534563
 21
5.440000000000007
 31
0.0
  0
SOLID
  5
142
330
1F
100
AcDbEntity
  8
참조1
100
AcDbTrace
 10
80.52598381534563
 20
5.440000000000007
 30
0.0
 11
86.87598381534562
 21
4.424000000000007
 31
0.0
 12
86.87598381534562
 22
6.456000000000007
 32
0.0
 13
86.87598381534562
 23
6.456000000000007
 33
0.0
  0
LINE
  5
143
330
1F
100
AcDbEntity
  8
참조1
100
AcDbLine
 10
93.22598381534561
 20
-5.439999999999998
 30
0.0
 11
80.52598381534563
 21
-5.439999999999998
 31
0.0
  0
SOLID
  5
144
330
1F
100
AcDbEntity
  8
참조1
100
AcDbTrace
 10
80.52598381534563
 20
-5.439999999999998
 30
0.0
 11
86.87598381534562
 21
-6.455999999999998
 31
0.0
 12
86.87598381534562
 22
-4.423999999999998
 32
0.0
 13
86.87598381534562
 23
-4.423999999999998
 33
0.0
  0
MTEXT
  5
145
330
1F
100
AcDbEntity
  8
참조1
100
AcDbMText
 10
89.92347390781589
 20
10.98821664464994
 30
0.0
 40
3.5
 41
0.0
 71
     1
 72
     1
  1
A
  7
SLDTEXTSTYLE0
 73
     1
 44
1.0
  0
MTEXT
  5
146
330
1F
100
AcDbEntity
  8
참조1
100
AcDbMText
 10
89.92347390781589
 20
0.108216644649937
 30
0.0
 40
3.5
 41
0.0
 71
     1
 72
     1
  1
A
  7
SLDTEXTSTYLE0
 73
     1
 44
1.0
  0
INSERT
  5
14D
330
1F
100
AcDbEntity
  8
해칭선
100
AcDbBlockReference
  2
SW_DOWELSYMBOL_0
 10
0.0
 20
0.0
 30
0.0
  0
ARC
  5
17A
330
1F
100
AcDbEntity
  8
외형선
  6
Continuous
 62
     1
370
    15
100
AcDbCircle
 10
48.57630015272374
 20
-8.001299609485855
 30
0.0
 40
1.523700420077589
100
AcDbArc
 50
269.9887133427522
 51
0.0496809451606938
  0
MTEXT
  5
1A5
102
{ACAD_REACTORS
330
1A6
102
}
330
1F
100
AcDbEntity
  8
치수문자_일반주서
100
AcDbMText
 10
60.14304093314228
 20
-22.99167172925969
 30
0.0
 40
3.5
 41
0.0
 71
     7
 72
     1
  1
{R1.52[.060"]}
 73
     1
 44
1.0
1001
PE_URL
1000

1001
ACAD
1000
ACAD_MTEXT_DEFINED_HEIGHT_BEGIN
1070
    46
1040
3.5
1000
ACAD_MTEXT_DEFINED_HEIGHT_END
  0
LEADER
  5
1A6
102
{ACAD_XDICTIONARY
360
1A7
102
}
330
1F
100
AcDbEntity
  8
치수문자_일반주서
100
AcDbLeader
  3
ISO-25
 73
     0
 74
     0
 75
     1
 40
3.5
 41
30.33333333333334
 76
     3
 10
49.65407998460685
 20
-9.078357455718198
 30
0.0
 10
55.31704093314228
 20
-21.24167172925969
 30
0.0
 10
58.61904093314228
 20
-21.24167172925969
 30
0.0
340
1A5
213
0.0
223
1.75
233
0.0
1001
ACAD
1000
DSTYLE
1002
{
1070
    77
1070
     0
1070
   179
1070
     2
1070
   143
1040
0.0393700787401575
1070
    41
1040
3.302
1070
    44
1040
1.0
1070
    42
1040
1.0
1070
   147
1040
1.524
1070
    73
1070
     1
1070
    74
1070
     1
1070
   140
1040
3.5
1070
   284
1070
     0
1070
    78
1070
     0
1002
}
1001
PE_URL
1000

  0
ENDSEC
  0
SECTION
  2
OBJECTS
  0
DICTIONARY
  5
C
330
0
100
AcDbDictionary
281
     1
  3
ACAD_DETAILVIEWSTYLE
350
178
  3
ACAD_GROUP
350
D
  3
ACAD_LAYOUT
350
1A
  3
ACAD_MLINESTYLE
350
17
  3
ACAD_PLOTSETTINGS
350
19
  3
ACAD_PLOTSTYLENAME
350
E
  3
ACAD_SCALELIST
350
47
  3
ACAD_SECTIONVIEWSTYLE
350
179
  3
AcDbVariableDictionary
350
173
  3
APPDATA
350
16F
  3
DWGPROPS
350
1AE
  0
DICTIONARY
  5
1A7
330
1A6
100
AcDbDictionary
280
     1
281
     1
  0
DICTIONARY
  5
178
102
{ACAD_REACTORS
330
C
102
}
330
C
100
AcDbDictionary
281
     1
  0
DICTIONARY
  5
D
102
{ACAD_REACTORS
330
C
102
}
330
C
100
AcDbDictionary
281
     1
  0
DICTIONARY
  5
1A
102
{ACAD_REACTORS
330
C
102
}
330
C
100
AcDbDictionary
281
     1
  3
Layout1
350
1E
  3
Layout2
350
26
  3
Model
350
22
  0
DICTIONARY
  5
17
102
{ACAD_REACTORS
330
C
102
}
330
C
100
AcDbDictionary
281
     1
  3
Standard
350
18
  0
DICTIONARY
  5
19
102
{ACAD_REACTORS
330
C
102
}
330
C
100
AcDbDictionary
281
     1
  0
ACDBDICTIONARYWDFLT
  5
E
102
{ACAD_REACTORS
330
C
102
}
330
C
100
AcDbDictionary
281
     1
  3
Normal
350
F
100
AcDbDictionaryWithDefault
340
F
  0
DICTIONARY
  5
47
102
{ACAD_REACTORS
330
C
102
}
330
C
100
AcDbDictionary
281
     1
  3
A0
350
48
  3
A1
350
49
  3
A2
350
4A
  3
A3
350
4B
  3
A4
350
4C
  3
A5
350
4D
  3
A6
350
4E
  3
A7
350
4F
  3
A8
350
50
  3
A9
350
51
  3
B0
350
52
  3
B1
350
53
  3
B2
350
54
  3
B3
350
55
  3
B4
350
56
  3
B5
350
57
  3
B6
350
58
  3
B7
350
59
  3
B8
350
5A
  3
B9
350
5B
  3
C0
350
5C
  3
C1
350
5D
  3
C2
350
5E
  3
C3
350
5F
  3
C4
350
60
  3
C5
350
61
  3
C6
350
62
  3
C7
350
63
  3
C8
350
64
  3
C9
350
65
  3
D0
350
66
  3
D1
350
67
  3
D2
350
68
  0
DICTIONARY
  5
179
102
{ACAD_REACTORS
330
C
102
}
330
C
100
AcDbDictionary
281
     1
  0
DICTIONARY
  5
173
102
{ACAD_REACTORS
330
C
102
}
330
C
100
AcDbDictionary
281
     1
  0
DICTIONARY
  5
16F
102
{ACAD_REACTORS
330
C
102
}
330
C
100
AcDbDictionary
281
     1
  0
XRECORD
  5
1AE
102
{ACAD_REACTORS
330
C
102
}
330
C
100
AcDbXrecord
280
     1
  1
DWGPROPS COOKIE
  2

  3

  4

  6

  7

  8
H
  9

300
=
301
=
302
=
303
=
304
=
305
=
306
=
307
=
308
=
309
=
 40
0.0
 41
2458295.135657083
 42
2458301.677161736
  1

 90
        0
  0
LAYOUT
  5
1E
102
{ACAD_REACTORS
330
1A
102
}
330
1A
100
AcDbPlotSettings
  1

  2
none_device
  4

  6

 40
0.0
 41
0.0
 42
0.0
 43
0.0
 44
0.0
 45
0.0
 46
0.0
 47
0.0
 48
0.0
 49
0.0
140
0.0
141
0.0
142
1.0
143
1.0
 70
   688
 72
     1
 73
     0
 74
     5
  7

 75
    16
147
1.0
148
0.0
149
0.0
100
AcDbLayout
  1
Layout1
 70
     1
 71
     1
 10
0.0
 20
0.0
 11
420.0
 21
297.0
 12
0.0
 22
0.0
 32
0.0
 14
1.000000000000000E+20
 24
1.000000000000000E+20
 34
1.000000000000000E+20
 15
-1.000000000000000E+20
 25
-1.000000000000000E+20
 35
-1.000000000000000E+20
146
0.0
 13
0.0
 23
0.0
 33
0.0
 16
1.0
 26
0.0
 36
0.0
 17
0.0
 27
1.0
 37
0.0
 76
     0
330
1B
  0
LAYOUT
  5
26
102
{ACAD_REACTORS
330
1A
102
}
330
1A
100
AcDbPlotSettings
  1

  2
none_device
  4

  6

 40
0.0
 41
0.0
 42
0.0
 43
0.0
 44
0.0
 45
0.0
 46
0.0
 47
0.0
 48
0.0
 49
0.0
140
0.0
141
0.0
142
1.0
143
1.0
 70
   688
 72
     1
 73
     0
 74
     5
  7

 75
    16
147
1.0
148
0.0
149
0.0
100
AcDbLayout
  1
Layout2
 70
     1
 71
     2
 10
0.0
 20
0.0
 11
0.0
 21
0.0
 12
0.0
 22
0.0
 32
0.0
 14
0.0
 24
0.0
 34
0.0
 15
0.0
 25
0.0
 35
0.0
146
0.0
 13
0.0
 23
0.0
 33
0.0
 16
1.0
 26
0.0
 36
0.0
 17
0.0
 27
1.0
 37
0.0
 76
     0
330
23
  0
LAYOUT
  5
22
102
{ACAD_REACTORS
330
1A
102
}
330
1A
100
AcDbPlotSettings
  1

  2
none_device
  4
ANSI_A_(11.00_x_8.50_Inches)
  6

 40
6.35
 41
19.05
 42
6.35000508
 43
19.05000254
 44
279.4
 45
215.9
 46
119.3621784951464
 47
77.70351354275472
 48
0.0
 49
0.0
140
0.0
141
0.0
142
0.0657236160498473
143
1.0
 70
  1696
 72
     0
 73
     0
 74
     0
  7

 75
     0
147
0.0235690232323232
148
0.0
149
0.0
100
AcDbLayout
  1
Model
 70
     1
 71
     0
 10
0.0
 20
0.0
 11
420.0
 21
297.0
 12
0.0
 22
0.0
 32
0.0
 14
-69.35789955631041
 24
-49.97180738881174
 34
0.0
 15
93.22598381534561
 25
57.7096871005775
 35
0.0
146
0.0
 13
0.0
 23
0.0
 33
0.0
 16
1.0
 26
0.0
 36
0.0
 17
0.0
 27
1.0
 37
0.0
 76
     0
330
1F
331
29
  0
MLINESTYLE
  5
18
102
{ACAD_REACTORS
330
17
102
}
330
17
100
AcDbMlineStyle
  2
Standard
 70
     0
  3

 62
   256
 51
90.0
 52
90.0
 71
     2
 49
0.5
 62
   256
  6
BYLAYER
 49
-0.5
 62
   256
  6
BYLAYER
  0
ACDBPLACEHOLDER
  5
F
102
{ACAD_REACTORS
330
E
102
}
330
E
  0
SCALE
  5
48
102
{ACAD_REACTORS
330
47
102
}
330
47
100
AcDbScale
 70
     0
300
1:1
140
1.0
141
1.0
290
     1
  0
SCALE
  5
49
102
{ACAD_REACTORS
330
47
102
}
330
47
100
AcDbScale
 70
     0
300
1:2
140
1.0
141
2.0
290
     0
  0
SCALE
  5
4A
102
{ACAD_REACTORS
330
47
102
}
330
47
100
AcDbScale
 70
     0
300
1:4
140
1.0
141
4.0
290
     0
  0
SCALE
  5
4B
102
{ACAD_REACTORS
330
47
102
}
330
47
100
AcDbScale
 70
     0
300
1:5
140
1.0
141
5.0
290
     0
  0
SCALE
  5
4C
102
{ACAD_REACTORS
330
47
102
}
330
47
100
AcDbScale
 70
     0
300
1:8
140
1.0
141
8.0
290
     0
  0
SCALE
  5
4D
102
{ACAD_REACTORS
330
47
102
}
330
47
100
AcDbScale
 70
     0
300
1:10
140
1.0
141
10.0
290
     0
  0
SCALE
  5
4E
102
{ACAD_REACTORS
330
47
102
}
330
47
100
AcDbScale
 70
     0
300
1:16
140
1.0
141
16.0
290
     0
  0
SCALE
  5
4F
102
{ACAD_REACTORS
330
47
102
}
330
47
100
AcDbScale
 70
     0
300
1:20
140
1.0
141
20.0
290
     0
  0
SCALE
  5
50
102
{ACAD_REACTORS
330
47
102
}
330
47
100
AcDbScale
 70
     0
300
1:30
140
1.0
141
30.0
290
     0
  0
SCALE
  5
51
102
{ACAD_REACTORS
330
47
102
}
330
47
100
AcDbScale
 70
     0
300
1:40
140
1.0
141
40.0
290
     0
  0
SCALE
  5
52
102
{ACAD_REACTORS
330
47
102
}
330
47
100
AcDbScale
 70
     0
300
1:50
140
1.0
141
50.0
290
     0
  0
SCALE
  5
53
102
{ACAD_REACTORS
330
47
102
}
330
47
100
AcDbScale
 70
     0
300
1:100
140
1.0
141
100.0
290
     0
  0
SCALE
  5
54
102
{ACAD_REACTORS
330
47
102
}
330
47
100
AcDbScale
 70
     0
300
2:1
140
2.0
141
1.0
290
     0
  0
SCALE
  5
55
102
{ACAD_REACTORS
330
47
102
}
330
47
100
AcDbScale
 70
     0
300
4:1
140
4.0
141
1.0
290
     0
  0
SCALE
  5
56
102
{ACAD_REACTORS
330
47
102
}
330
47
100
AcDbScale
 70
     0
300
8:1
140
8.0
141
1.0
290
     0
  0
SCALE
  5
57
102
{ACAD_REACTORS
330
47
102
}
330
47
100
AcDbScale
 70
     0
300
10:1
140
10.0
141
1.0
290
     0
  0
SCALE
  5
58
102
{ACAD_REACTORS
330
47
102
}
330
47
100
AcDbScale
 70
     0
300
100:1
140
100.0
141
1.0
290
     0
  0
SCALE
  5
59
102
{ACAD_REACTORS
330
47
102
}
330
47
100
AcDbScale
 70
     0
300
1/128" = 1'-0"
140
0.0078125
141
12.0
290
     0
  0
SCALE
  5
5A
102
{ACAD_REACTORS
330
47
102
}
330
47
100
AcDbScale
 70
     0
300
1/64" = 1'-0"
140
0.015625
141
12.0
290
     0
  0
SCALE
  5
5B
102
{ACAD_REACTORS
330
47
102
}
330
47
100
AcDbScale
 70
     0
300
1/32" = 1'-0"
140
0.03125
141
12.0
290
     0
  0
SCALE
  5
5C
102
{ACAD_REACTORS
330
47
102
}
330
47
100
AcDbScale
 70
     0
300
1/16" = 1'-0"
140
0.0625
141
12.0
290
     0
  0
SCALE
  5
5D
102
{ACAD_REACTORS
330
47
102
}
330
47
100
AcDbScale
 70
     0
300
3/32" = 1'-0"
140
0.09375
141
12.0
290
     0
  0
SCALE
  5
5E
102
{ACAD_REACTORS
330
47
102
}
330
47
100
AcDbScale
 70
     0
300
1/8" = 1'-0"
140
0.125
141
12.0
290
     0
  0
SCALE
  5
5F
102
{ACAD_REACTORS
330
47
102
}
330
47
100
AcDbScale
 70
     0
300
3/16" = 1'-0"
140
0.1875
141
12.0
290
     0
  0
SCALE
  5
60
102
{ACAD_REACTORS
330
47
102
}
330
47
100
AcDbScale
 70
     0
300
1/4" = 1'-0"
140
0.25
141
12.0
290
     0
  0
SCALE
  5
61
102
{ACAD_REACTORS
330
47
102
}
330
47
100
AcDbScale
 70
     0
300
3/8" = 1'-0"
140
0.375
141
12.0
290
     0
  0
SCALE
  5
62
102
{ACAD_REACTORS
330
47
102
}
330
47
100
AcDbScale
 70
     0
300
1/2" = 1'-0"
140
0.5
141
12.0
290
     0
  0
SCALE
  5
63
102
{ACAD_REACTORS
330
47
102
}
330
47
100
AcDbScale
 70
     0
300
3/4" = 1'-0"
140
0.75
141
12.0
290
     0
  0
SCALE
  5
64
102
{ACAD_REACTORS
330
47
102
}
330
47
100
AcDbScale
 70
     0
300
1" = 1'-0"
140
1.0
141
12.0
290
     0
  0
SCALE
  5
65
102
{ACAD_REACTORS
330
47
102
}
330
47
100
AcDbScale
 70
     0
300
1-1/2" = 1'-0"
140
1.5
141
12.0
290
     0
  0
SCALE
  5
66
102
{ACAD_REACTORS
330
47
102
}
330
47
100
AcDbScale
 70
     0
300
3" = 1'-0"
140
3.0
141
12.0
290
     0
  0
SCALE
  5
67
102
{ACAD_REACTORS
330
47
102
}
330
47
100
AcDbScale
 70
     0
300
6" = 1'-0"
140
6.0
141
12.0
290
     0
  0
SCALE
  5
68
102
{ACAD_REACTORS
330
47
102
}
330
47
100
AcDbScale
 70
     0
300
1'-0" = 1'-0"
140
12.0
141
12.0
290
     0
  0
ENDSEC
  0
EOF
