  0
SECTION
  2
HEADER
  9
$ACADVER
  1
AC1015
  9
$ACADMAINTVER
 70
     6
  9
$DWGCODEPAGE
  3
ANSI_949
  9
$INSBASE
 10
0.0
 20
0.0
 30
0.0
  9
$EXTMIN
 10
-114.9672521638913
 20
-49.97180738881174
 30
0.0
  9
$EXTMAX
 10
102.5
 20
28.375
 30
0.0
  9
$LIMMIN
 10
0.0
 20
0.0
  9
$LIMMAX
 10
420.0
 20
297.0
  9
$ORTHOMODE
 70
     0
  9
$REGENMODE
 70
     1
  9
$FILLMODE
 70
     1
  9
$QTEXTMODE
 70
     0
  9
$MIRRTEXT
 70
     1
  9
$LTSCALE
 40
1.0
  9
$ATTMODE
 70
     1
  9
$TEXTSIZE
 40
3.5
  9
$TRACEWID
 40
1.0
  9
$TEXTSTYLE
  7
Standard
  9
$CLAYER
  8
0
  9
$CELTYPE
  6
ByLayer
  9
$CECOLOR
 62
   256
  9
$CELTSCALE
 40
1.0
  9
$DISPSILH
 70
     0
  9
$DIMSCALE
 40
1.0
  9
$DIMASZ
 40
3.302
  9
$DIMEXO
 40
1.0
  9
$DIMDLI
 40
3.75
  9
$DIMRND
 40
0.0
  9
$DIMDLE
 40
0.0
  9
$DIMEXE
 40
1.0
  9
$DIMTP
 40
0.0
  9
$DIMTM
 40
0.0
  9
$DIMTXT
 40
3.5
  9
$DIMCEN
 40
2.5
  9
$DIMTSZ
 40
0.0
  9
$DIMTOL
 70
     0
  9
$DIMLIM
 70
     0
  9
$DIMTIH
 70
     1
  9
$DIMTOH
 70
     1
  9
$DIMSE1
 70
     0
  9
$DIMSE2
 70
     0
  9
$DIMTAD
 70
     1
  9
$DIMZIN
 70
     0
  9
$DIMBLK
  1

  9
$DIMASO
 70
     1
  9
$DIMSHO
 70
     1
  9
$DIMPOST
  1

  9
$DIMAPOST
  1

  9
$DIMALT
 70
     0
  9
$DIMALTD
 70
     3
  9
$DIMALTF
 40
0.0393700787401575
  9
$DIMLFAC
 40
1.0
  9
$DIMTOFL
 70
     1
  9
$DIMTVP
 40
0.0
  9
$DIMTIX
 70
     0
  9
$DIMSOXD
 70
     0
  9
$DIMSAH
 70
     0
  9
$DIMBLK1
  1

  9
$DIMBLK2
  1

  9
$DIMSTYLE
  2
ISO-25
  9
$DIMCLRD
 70
     0
  9
$DIMCLRE
 70
     0
  9
$DIMCLRT
 70
     0
  9
$DIMTFAC
 40
1.0
  9
$DIMGAP
 40
1.524
  9
$DIMJUST
 70
     0
  9
$DIMSD1
 70
     0
  9
$DIMSD2
 70
     0
  9
$DIMTOLJ
 70
     0
  9
$DIMTZIN
 70
     0
  9
$DIMALTZ
 70
     0
  9
$DIMALTTZ
 70
     0
  9
$DIMUPT
 70
     0
  9
$DIMDEC
 70
     2
  9
$DIMTDEC
 70
     2
  9
$DIMALTU
 70
     2
  9
$DIMALTTD
 70
     3
  9
$DIMTXSTY
  7
Standard
  9
$DIMAUNIT
 70
     0
  9
$DIMADEC
 70
     2
  9
$DIMALTRND
 40
0.0
  9
$DIMAZIN
 70
     0
  9
$DIMDSEP
 70
    44
  9
$DIMATFIT
 70
     3
  9
$DIMFRAC
 70
     0
  9
$DIMLDRBLK
  1

  9
$DIMLUNIT
 70
     2
  9
$DIMLWD
 70
    -2
  9
$DIMLWE
 70
    -2
  9
$DIMTMOVE
 70
     0
  9
$LUNITS
 70
     2
  9
$LUPREC
 70
     2
  9
$SKETCHINC
 40
1.0
  9
$FILLETRAD
 40
10.0
  9
$AUNITS
 70
     0
  9
$AUPREC
 70
     2
  9
$MENU
  1
.
  9
$ELEVATION
 40
0.0
  9
$PELEVATION
 40
0.0
  9
$THICKNESS
 40
0.0
  9
$LIMCHECK
 70
     0
  9
$CHAMFERA
 40
0.0
  9
$CHAMFERB
 40
0.0
  9
$CHAMFERC
 40
0.0
  9
$CHAMFERD
 40
0.0
  9
$SKPOLY
 70
     0
  9
$TDCREATE
 40
2458292.506528345
  9
$TDUCREATE
 40
2458292.131528345
  9
$TDUPDATE
 40
2458295.830508553
  9
$TDUUPDATE
 40
2458295.455508553
  9
$TDINDWG
 40
0.002321088
  9
$TDUSRTIMER
 40
2458295.455407651
  9
$USRTIMER
 70
     1
  9
$ANGBASE
 50
0.0
  9
$ANGDIR
 70
     0
  9
$PDMODE
 70
     0
  9
$PDSIZE
 40
-1.0
  9
$PLINEWID
 40
0.0
  9
$SPLFRAME
 70
     0
  9
$SPLINETYPE
 70
     6
  9
$SPLINESEGS
 70
     8
  9
$HANDSEED
  5
1DB
  9
$SURFTAB1
 70
     6
  9
$SURFTAB2
 70
     6
  9
$SURFTYPE
 70
     6
  9
$SURFU
 70
     6
  9
$SURFV
 70
     6
  9
$UCSBASE
  2

  9
$UCSNAME
  2

  9
$UCSORG
 10
0.0
 20
0.0
 30
0.0
  9
$UCSXDIR
 10
1.0
 20
0.0
 30
0.0
  9
$UCSYDIR
 10
0.0
 20
1.0
 30
0.0
  9
$UCSORTHOREF
  2

  9
$UCSORTHOVIEW
 70
     0
  9
$UCSORGTOP
 10
0.0
 20
0.0
 30
0.0
  9
$UCSORGBOTTOM
 10
0.0
 20
0.0
 30
0.0
  9
$UCSORGLEFT
 10
0.0
 20
0.0
 30
0.0
  9
$UCSORGRIGHT
 10
0.0
 20
0.0
 30
0.0
  9
$UCSORGFRONT
 10
0.0
 20
0.0
 30
0.0
  9
$UCSORGBACK
 10
0.0
 20
0.0
 30
0.0
  9
$PUCSBASE
  2

  9
$PUCSNAME
  2

  9
$PUCSORG
 10
0.0
 20
0.0
 30
0.0
  9
$PUCSXDIR
 10
1.0
 20
0.0
 30
0.0
  9
$PUCSYDIR
 10
0.0
 20
1.0
 30
0.0
  9
$PUCSORTHOREF
  2

  9
$PUCSORTHOVIEW
 70
     0
  9
$PUCSORGTOP
 10
0.0
 20
0.0
 30
0.0
  9
$PUCSORGBOTTOM
 10
0.0
 20
0.0
 30
0.0
  9
$PUCSORGLEFT
 10
0.0
 20
0.0
 30
0.0
  9
$PUCSORGRIGHT
 10
0.0
 20
0.0
 30
0.0
  9
$PUCSORGFRONT
 10
0.0
 20
0.0
 30
0.0
  9
$PUCSORGBACK
 10
0.0
 20
0.0
 30
0.0
  9
$USERI1
 70
     0
  9
$USERI2
 70
     0
  9
$USERI3
 70
     0
  9
$USERI4
 70
     0
  9
$USERI5
 70
     0
  9
$USERR1
 40
0.0
  9
$USERR2
 40
0.0
  9
$USERR3
 40
0.0
  9
$USERR4
 40
0.0
  9
$USERR5
 40
0.0
  9
$WORLDVIEW
 70
     1
  9
$SHADEDGE
 70
     3
  9
$SHADEDIF
 70
    70
  9
$TILEMODE
 70
     1
  9
$MAXACTVP
 70
    64
  9
$PINSBASE
 10
0.0
 20
0.0
 30
0.0
  9
$PLIMCHECK
 70
     0
  9
$PEXTMIN
 10
1.000000000000000E+20
 20
1.000000000000000E+20
 30
1.000000000000000E+20
  9
$PEXTMAX
 10
-1.000000000000000E+20
 20
-1.000000000000000E+20
 30
-1.000000000000000E+20
  9
$PLIMMIN
 10
0.0
 20
0.0
  9
$PLIMMAX
 10
0.0
 20
0.0
  9
$UNITMODE
 70
     0
  9
$VISRETAIN
 70
     1
  9
$PLINEGEN
 70
     0
  9
$PSLTSCALE
 70
     1
  9
$TREEDEPTH
 70
  3020
  9
$CMLSTYLE
  2
Standard
  9
$CMLJUST
 70
     0
  9
$CMLSCALE
 40
20.0
  9
$PROXYGRAPHICS
 70
     1
  9
$MEASUREMENT
 70
     1
  9
$CELWEIGHT
370
    -1
  9
$ENDCAPS
280
     0
  9
$JOINSTYLE
280
     0
  9
$LWDISPLAY
290
     1
  9
$INSUNITS
 70
     4
  9
$HYPERLINKBASE
  1

  9
$STYLESHEET
  1

  9
$XEDIT
290
     1
  9
$CEPSNTYPE
380
     0
  9
$PSTYLEMODE
290
     1
  9
$FINGERPRINTGUID
  2
{798817D8-BDD2-4E45-99ED-6E8921885B82}
  9
$VERSIONGUID
  2
{FAEB1C32-E019-11D5-929B-00C0DF256EC4}
  9
$EXTNAMES
290
     1
  9
$PSVPSCALE
 40
0.0
  9
$OLESTARTUP
290
     0
  0
ENDSEC
  0
SECTION
  2
CLASSES
  0
CLASS
  1
ACDBDICTIONARYWDFLT
  2
AcDbDictionaryWithDefault
  3
ObjectDBX Classes
 90
        0
280
     0
281
     0
  0
CLASS
  1
VISUALSTYLE
  2
AcDbVisualStyle
  3
ObjectDBX Classes
 90
     4095
280
     0
281
     0
  0
CLASS
  1
MATERIAL
  2
AcDbMaterial
  3
ObjectDBX Classes
 90
     1153
280
     0
281
     0
  0
CLASS
  1
SCALE
  2
AcDbScale
  3
ObjectDBX Classes
 90
     1153
280
     0
281
     0
  0
CLASS
  1
SUN
  2
AcDbSun
  3
SCENEOE
 90
     1153
280
     0
281
     0
  0
CLASS
  1
ACDBPLACEHOLDER
  2
AcDbPlaceHolder
  3
ObjectDBX Classes
 90
        0
280
     0
281
     0
  0
CLASS
  1
LAYOUT
  2
AcDbLayout
  3
ObjectDBX Classes
 90
        0
280
     0
281
     0
  0
CLASS
  1
TABLESTYLE
  2
AcDbTableStyle
  3
ObjectDBX Classes
 90
     4095
280
     0
281
     0
  0
CLASS
  1
MLEADERSTYLE
  2
AcDbMLeaderStyle
  3
ACDB_MLEADERSTYLE_CLASS
 90
     4095
280
     0
281
     0
  0
CLASS
  1
RASTERVARIABLES
  2
AcDbRasterVariables
  3
ISM
 90
        0
280
     0
281
     0
  0
ENDSEC
  0
SECTION
  2
TABLES
  0
TABLE
  2
VPORT
  5
8
330
0
100
AcDbSymbolTable
 70
     1
  0
VPORT
  5
29
330
8
100
AcDbSymbolTableRecord
100
AcDbViewportTableRecord
  2
*Active
 70
     0
 10
0.0
 20
0.0
 11
1.0
 21
1.0
 12
-60.17205632861474
 22
-18.86239239272465
 13
0.0
 23
0.0
 14
10.0
 24
10.0
 15
10.0
 25
10.0
 16
0.0
 26
0.0
 36
1.0
 17
0.0
 27
0.0
 37
0.0
 40
91.80604033223557
 41
1.546332046332046
 42
50.0
 43
0.0
 44
0.0
 50
0.0
 51
0.0
 71
    16
 72
  2000
 73
     1
 74
     3
 75
     0
 76
     0
 77
     0
 78
     0
281
     0
 65
     1
110
0.0
120
0.0
130
0.0
111
1.0
121
0.0
131
0.0
112
0.0
122
1.0
132
0.0
 79
     0
146
0.0
  0
ENDTAB
  0
TABLE
  2
LTYPE
  5
5
330
0
100
AcDbSymbolTable
 70
     6
  0
LTYPE
  5
14
330
5
100
AcDbSymbolTableRecord
100
AcDbLinetypeTableRecord
  2
ByBlock
 70
     0
  3

 72
    65
 73
     0
 40
0.0
  0
LTYPE
  5
15
330
5
100
AcDbSymbolTableRecord
100
AcDbLinetypeTableRecord
  2
ByLayer
 70
     0
  3

 72
    65
 73
     0
 40
0.0
  0
LTYPE
  5
16
330
5
100
AcDbSymbolTableRecord
100
AcDbLinetypeTableRecord
  2
Continuous
 70
     0
  3
Solid line
 72
    65
 73
     0
 40
0.0
  0
LTYPE
  5
6A
330
5
100
AcDbSymbolTableRecord
100
AcDbLinetypeTableRecord
  2
HIDDEN
 70
     0
  3
Hidden __ __ __ __ __ __ __ __ __ __ __ __ __ __
 72
    65
 73
     2
 40
1.905
 49
1.27
 74
     0
 49
-0.635
 74
     0
  0
LTYPE
  5
6B
330
5
100
AcDbSymbolTableRecord
100
AcDbLinetypeTableRecord
  2
PHANTOM
 70
     0
  3
Phantom ______  __  __  ______  __  __  ______
 72
    65
 73
     6
 40
12.7
 49
6.35
 74
     0
 49
-1.27
 74
     0
 49
1.27
 74
     0
 49
-1.27
 74
     0
 49
1.27
 74
     0
 49
-1.27
 74
     0
  0
LTYPE
  5
6C
330
5
100
AcDbSymbolTableRecord
100
AcDbLinetypeTableRecord
  2
CENTER
 70
     0
  3
Center ____ _ ____ _ ____ _ ____ _ ____ _ ____
 72
    65
 73
     4
 40
10.16
 49
6.35
 74
     0
 49
-1.27
 74
     0
 49
1.27
 74
     0
 49
-1.27
 74
     0
  0
LTYPE
  5
6D
330
5
100
AcDbSymbolTableRecord
100
AcDbLinetypeTableRecord
  2
CENTERX2
 70
     0
  3
Center (2x) ________  __  ________  __  _____
 72
    65
 73
     4
 40
20.32
 49
12.7
 74
     0
 49
-2.54
 74
     0
 49
2.54
 74
     0
 49
-2.54
 74
     0
  0
LTYPE
  5
6E
330
5
100
AcDbSymbolTableRecord
100
AcDbLinetypeTableRecord
  2
DOT2
 70
     0
  3
Dot (.5x) ........................................
 72
    65
 73
     2
 40
0.635
 49
0.0
 74
     0
 49
-0.635
 74
     0
  0
ENDTAB
  0
TABLE
  2
LAYER
  5
2
102
{ACAD_XDICTIONARY
360
195
102
}
330
0
100
AcDbSymbolTable
 70
    20
  0
LAYER
  5
10
330
2
100
AcDbSymbolTableRecord
100
AcDbLayerTableRecord
  2
0
 70
     0
 62
     7
  6
Continuous
370
    -3
390
F
  0
LAYER
  5
6F
330
2
100
AcDbSymbolTableRecord
100
AcDbLayerTableRecord
  2
FORMAT
 70
     0
 62
     2
  6
Continuous
370
    -3
390
F
  0
LAYER
  5
70
330
2
100
AcDbSymbolTableRecord
100
AcDbLayerTableRecord
  2
외형선
 70
     0
 62
     4
  6
Continuous
370
    30
390
F
  0
LAYER
  5
71
330
2
100
AcDbSymbolTableRecord
100
AcDbLayerTableRecord
  2
숨은선
 70
     0
 62
     2
  6
HIDDEN
370
    15
390
F
  0
LAYER
  5
72
330
2
100
AcDbSymbolTableRecord
100
AcDbLayerTableRecord
  2
중심선
 70
     0
 62
     1
  6
CENTERX2
370
    -3
390
F
  0
LAYER
  5
73
330
2
100
AcDbSymbolTableRecord
100
AcDbLayerTableRecord
  2
파단선
 70
     0
 62
     4
  6
Continuous
370
    -3
390
F
  0
LAYER
  5
74
330
2
100
AcDbSymbolTableRecord
100
AcDbLayerTableRecord
  2
해칭선
 70
     0
 62
   100
  6
Continuous
370
    -3
390
F
  0
LAYER
  5
75
330
2
100
AcDbSymbolTableRecord
100
AcDbLayerTableRecord
  2
가는실선
 70
     0
 62
     4
  6
Continuous
370
    -3
390
F
  0
LAYER
  5
76
330
2
100
AcDbSymbolTableRecord
100
AcDbLayerTableRecord
  2
치수_보조선
 70
     0
 62
     4
  6
Continuous
370
    -3
390
F
  0
LAYER
  5
77
330
2
100
AcDbSymbolTableRecord
100
AcDbLayerTableRecord
  2
치수문자_일반주서
 70
     0
 62
     7
  6
Continuous
370
    15
390
F
  0
LAYER
  5
78
330
2
100
AcDbSymbolTableRecord
100
AcDbLayerTableRecord
  2
개별주서
 70
     0
 62
   100
  6
Continuous
370
    30
390
F
  0
LAYER
  5
79
330
2
100
AcDbSymbolTableRecord
100
AcDbLayerTableRecord
  2
중간선
 70
     0
 62
     2
  6
Continuous
370
    15
390
F
  0
LAYER
  5
7A
330
2
100
AcDbSymbolTableRecord
100
AcDbLayerTableRecord
  2
윤곽선
 70
     0
 62
     3
  6
Continuous
370
    40
390
F
  0
LAYER
  5
7B
330
2
100
AcDbSymbolTableRecord
100
AcDbLayerTableRecord
  2
중심마크
 70
     0
 62
   100
  6
Continuous
370
    30
390
F
  0
LAYER
  5
7C
330
2
100
AcDbSymbolTableRecord
100
AcDbLayerTableRecord
  2
가상선
 70
     0
 62
     4
  6
PHANTOM
370
    -3
390
F
  0
LAYER
  5
7D
330
2
100
AcDbSymbolTableRecord
100
AcDbLayerTableRecord
  2
특수지정선
 70
     0
 62
     5
  6
CENTERX2
370
    60
390
F
  0
LAYER
  5
7E
330
2
100
AcDbSymbolTableRecord
100
AcDbLayerTableRecord
  2
참조1
 70
     0
 62
    -4
  6
Continuous
370
    -3
390
F
  0
LAYER
  5
121
330
2
100
AcDbSymbolTableRecord
100
AcDbLayerTableRecord
  2
Defpoints
 70
     0
 62
     7
  6
Continuous
290
     0
370
    -3
390
F
  0
LAYER
  5
159
330
2
100
AcDbSymbolTableRecord
100
AcDbLayerTableRecord
  2
CENTER
 70
     0
 62
     2
  6
CENTER
370
    -3
390
F
1001
AcAecLayerStandard
1000

1000

  0
LAYER
  5
15D
330
2
100
AcDbSymbolTableRecord
100
AcDbLayerTableRecord
  2
CUT
 70
     0
 62
     1
  6
Continuous
370
    -3
390
F
1001
AcAecLayerStandard
1000

1000

  0
ENDTAB
  0
TABLE
  2
STYLE
  5
3
330
0
100
AcDbSymbolTable
 70
     2
  0
STYLE
  5
11
330
3
100
AcDbSymbolTableRecord
100
AcDbTextStyleTableRecord
  2
Standard
 70
     0
 40
0.0
 41
1.0
 50
0.0
 71
     0
 42
3.5
  3
txt
  4

  0
STYLE
  5
94
330
3
100
AcDbSymbolTableRecord
100
AcDbTextStyleTableRecord
  2
SLDTEXTSTYLE0
 70
     0
 40
0.0
 41
0.75
 50
0.0
 71
     0
 42
3.5
  3
TXT
  4

  0
ENDTAB
  0
TABLE
  2
VIEW
  5
6
330
0
100
AcDbSymbolTable
 70
     0
  0
ENDTAB
  0
TABLE
  2
UCS
  5
7
330
0
100
AcDbSymbolTable
 70
     0
  0
ENDTAB
  0
TABLE
  2
APPID
  5
9
330
0
100
AcDbSymbolTable
 70
     4
  0
APPID
  5
12
330
9
100
AcDbSymbolTableRecord
100
AcDbRegAppTableRecord
  2
ACAD
 70
     0
  0
APPID
  5
134
330
9
100
AcDbSymbolTableRecord
100
AcDbRegAppTableRecord
  2
ACAD_DSTYLE_DIMFLIPARROW_SYMBOL
 70
     0
  0
APPID
  5
135
330
9
100
AcDbSymbolTableRecord
100
AcDbRegAppTableRecord
  2
ACAD_DSTYLE_DIMFLIPARROW_WHICH_SYMBOL
 70
     0
  0
APPID
  5
15C
330
9
100
AcDbSymbolTableRecord
100
AcDbRegAppTableRecord
  2
AcAecLayerStandard
 70
     0
  0
ENDTAB
  0
TABLE
  2
DIMSTYLE
  5
A
330
0
100
AcDbSymbolTable
 70
     3
100
AcDbDimStyleTable
  0
DIMSTYLE
105
27
330
A
100
AcDbSymbolTableRecord
100
AcDbDimStyleTableRecord
  2
ISO-25
 70
     0
 41
2.5
 42
0.625
 43
3.75
 44
1.25
 73
     0
 74
     0
 77
     1
 78
     8
140
2.5
141
2.5
143
0.03937007874016
147
0.625
171
     3
172
     1
178
     0
271
     2
272
     2
274
     3
278
    44
283
     0
284
     8
340
11
  0
DIMSTYLE
105
C0
102
{ACAD_REACTORS
330
BF
330
CB
330
D5
102
}
330
A
100
AcDbSymbolTableRecord
100
AcDbDimStyleTableRecord
  2
SLDDIMSTYLE0
 70
     0
 41
3.302
 44
0.0
 45
0.000000001
 73
     0
 74
     0
 77
     1
 78
    12
 79
     3
140
3.5
147
0.875
173
     1
178
     0
271
     2
272
     2
276
     2
284
    12
340
94
  0
DIMSTYLE
105
E2
102
{ACAD_REACTORS
330
E1
102
}
330
A
100
AcDbSymbolTableRecord
100
AcDbDimStyleTableRecord
  2
SLDDIMSTYLE1
 70
     0
 41
3.302
 44
0.0
 45
0.000000001
 73
     0
 74
     0
 77
     1
 78
    12
 79
     3
140
3.5
147
0.875
172
     1
173
     1
178
     0
271
     2
272
     2
276
     2
284
    12
289
     0
340
94
  0
ENDTAB
  0
TABLE
  2
BLOCK_RECORD
  5
1
330
0
100
AcDbSymbolTable
 70
     7
  0
BLOCK_RECORD
  5
1F
330
1
100
AcDbSymbolTableRecord
100
AcDbBlockTableRecord
  2
*Model_Space
340
22
  0
BLOCK_RECORD
  5
1B
330
1
100
AcDbSymbolTableRecord
100
AcDbBlockTableRecord
  2
*Paper_Space
340
1E
  0
BLOCK_RECORD
  5
23
330
1
100
AcDbSymbolTableRecord
100
AcDbBlockTableRecord
  2
*Paper_Space0
340
26
  0
BLOCK_RECORD
  5
7F
330
1
100
AcDbSymbolTableRecord
100
AcDbBlockTableRecord
  2
블럭10
340
0
102
{BLKREFS
331
B8
102
}
  0
BLOCK_RECORD
  5
C1
330
1
100
AcDbSymbolTableRecord
100
AcDbBlockTableRecord
  2
_D
340
0
  0
BLOCK_RECORD
  5
CC
330
1
100
AcDbSymbolTableRecord
100
AcDbBlockTableRecord
  2
_D_1
340
0
  0
BLOCK_RECORD
  5
D6
330
1
100
AcDbSymbolTableRecord
100
AcDbBlockTableRecord
  2
_D_2
340
0
  0
BLOCK_RECORD
  5
E3
330
1
100
AcDbSymbolTableRecord
100
AcDbBlockTableRecord
  2
_D_3
340
0
  0
BLOCK_RECORD
  5
F6
330
1
100
AcDbSymbolTableRecord
100
AcDbBlockTableRecord
  2
SW_DOWELSYMBOL_0
340
0
102
{BLKREFS
331
FC
102
}
  0
ENDTAB
  0
ENDSEC
  0
SECTION
  2
BLOCKS
  0
BLOCK
  5
20
330
1F
100
AcDbEntity
  8
0
100
AcDbBlockBegin
  2
*Model_Space
 70
     0
 10
0.0
 20
0.0
 30
0.0
  3
*Model_Space
  1
*Model_Space
  0
ENDBLK
  5
21
330
1F
100
AcDbEntity
  8
0
100
AcDbBlockEnd
  0
BLOCK
  5
1C
330
1B
100
AcDbEntity
 67
     1
  8
0
100
AcDbBlockBegin
  2
*Paper_Space
 70
     0
 10
0.0
 20
0.0
 30
0.0
  3
*Paper_Space
  1
*Paper_Space
  0
ENDBLK
  5
1D
330
1B
100
AcDbEntity
 67
     1
  8
0
100
AcDbBlockEnd
  0
BLOCK
  5
24
330
23
100
AcDbEntity
  8
0
100
AcDbBlockBegin
  2
*Paper_Space0
 70
     0
 10
0.0
 20
0.0
 30
0.0
  3
*Paper_Space0
  1
*Paper_Space0
  0
ENDBLK
  5
25
330
23
100
AcDbEntity
  8
0
100
AcDbBlockEnd
  0
BLOCK
  5
80
330
7F
100
AcDbEntity
  8
0
100
AcDbBlockBegin
  2
블럭10
 70
     2
 10
0.0
 20
0.0
 30
0.0
  3
블럭10
  1
블럭10
  0
ELLIPSE
  5
82
330
7F
100
AcDbEntity
  8
중심선
100
AcDbEllipse
 10
20.54032771741204
 20
12.0471743016438
 30
0.0
 11
6.600054785286829
 21
-1.261213355974178E-13
 31
0.0
210
0.0
220
0.0
230
1.0
 40
0.636358354079598
 41
0.9219305317359503
 42
6.513795318482858
  0
ELLIPSE
  5
83
330
7F
100
AcDbEntity
  8
중심선
100
AcDbEllipse
 10
20.54032771746488
 20
12.04717430159265
 30
0.0
 11
3.960054785062283
 21
1.540847449632565E-10
 31
0.0
210
0.0
220
0.0
230
1.0
 40
0.3939339440162632
 41
1.131841032648279
 42
5.62031148352944
  0
LINE
  5
84
330
7F
100
AcDbEntity
  8
중심선
100
AcDbLine
 10
2.268634060543552
 20
16.24717430164393
 30
0.0
 11
5.714909304380834
 21
16.24717430164393
 31
0.0
  0
LINE
  5
85
330
7F
100
AcDbEntity
  8
중심선
100
AcDbLine
 10
5.245725140726316
 20
7.84717430164391
 30
0.0
 11
8.692000384563599
 21
7.84717430164391
 31
0.0
  0
LINE
  5
86
330
7F
100
AcDbEntity
  8
중심선
100
AcDbLine
 10
15.74043728645272
 20
16.24717430164393
 30
0.0
 11
8.692000384563599
 21
7.84717430164391
 31
0.0
  0
LINE
  5
87
330
7F
100
AcDbEntity
  8
중심선
100
AcDbLine
 10
0.1404042013395286
 20
13.71084872107135
 30
0.0
 11
3.58671253028996
 21
13.71088815037384
 31
0.0
  0
LINE
  5
88
330
7F
100
AcDbEntity
  8
중심선
100
AcDbLine
 10
2.750260043222114
 20
10.84717430164391
 30
0.0
 11
6.196535287059397
 21
10.84717430164391
 31
0.0
  0
LINE
  5
89
330
7F
100
AcDbEntity
  8
중심선
100
AcDbLine
 10
12.29416204261559
 20
16.24717430164393
 30
0.0
 11
5.245725140726316
 21
7.84717430164391
 31
0.0
  0
LINE
  5
8A
330
7F
100
AcDbEntity
  8
중심선
100
AcDbLine
 10
10.72767329541681
 20
16.24717430164393
 30
0.0
 11
6.196535287059397
 21
10.84717430164391
 31
0.0
  0
LINE
  5
8B
330
7F
100
AcDbEntity
  8
중심선
100
AcDbLine
 10
7.28139805157953
 20
16.24717430164393
 30
0.0
 11
2.750260043222114
 21
10.84717430164391
 31
0.0
  0
LINE
  5
8C
330
7F
100
AcDbEntity
  8
중심선
100
AcDbLine
 10
5.714909304380834
 20
16.24717430164393
 30
0.0
 11
3.58671253028996
 21
13.71088815037384
 31
0.0
  0
LINE
  5
8D
330
7F
100
AcDbEntity
  8
중심선
100
AcDbLine
 10
2.268634060543552
 20
16.24717430164393
 30
0.0
 11
0.1404042013395286
 21
13.71084872107135
 31
0.0
  0
LINE
  5
8E
330
7F
100
AcDbEntity
  8
중심선
100
AcDbLine
 10
7.28139805157953
 20
16.24717430164393
 30
0.0
 11
10.72767329541681
 21
16.24717430164393
 31
0.0
  0
LINE
  5
8F
330
7F
100
AcDbEntity
  8
중심선
100
AcDbLine
 10
12.29416204261559
 20
16.24717430164393
 30
0.0
 11
15.74043728645272
 21
16.24717430164393
 31
0.0
  0
LINE
  5
90
330
7F
100
AcDbEntity
  8
중심선
100
AcDbLine
 10
19.22036997980202
 20
11.08717430171403
 30
0.0
 11
23.66174974927406
 21
11.08717430171406
 31
0.0
  0
LINE
  5
91
330
7F
100
AcDbEntity
  8
중심선
100
AcDbLine
 10
19.22039502424796
 20
13.00717430171391
 30
0.0
 11
19.22036997980202
 21
11.08717430171403
 31
0.0
  0
LINE
  5
92
330
7F
100
AcDbEntity
  8
중심선
100
AcDbLine
 10
19.22039502424796
 20
13.00717430171391
 30
0.0
 11
26.96566020931264
 21
13.00717430171391
 31
0.0
  0
LINE
  5
93
330
7F
100
AcDbEntity
  8
중심선
100
AcDbLine
 10
22.22332737316547
 20
13.45928029700563
 30
0.0
 11
24.52862924686651
 21
15.39360700705356
 31
0.0
  0
ATTDEF
  5
95
330
7F
100
AcDbEntity
  8
FORMAT
 62
     2
100
AcDbText
 10
3.448148490846466
 20
2.075366912832191
 30
0.0
 40
4.233333333333333
  1
EM825180
 41
0.75
  7
SLDTEXTSTYLE0
 11
3.448148490846466
 21
-0.0412997538344756
 31
0.0
100
AcDbAttributeDefinition
  3

  2
AUTOATTR0
 70
     0
 74
     1
  0
ENDBLK
  5
81
330
7F
100
AcDbEntity
  8
0
100
AcDbBlockEnd
  0
BLOCK
  5
C2
330
C1
100
AcDbEntity
  8
0
100
AcDbBlockBegin
  2
_D
 70
     0
 10
0.0
 20
0.0
 30
0.0
  3
_D
  1
_D
  0
LINE
  5
C4
330
C1
100
AcDbEntity
  8
치수문자_일반주서
 62
     0
370
    -2
100
AcDbLine
 10
46.0
 20
9.062500000000105
 30
0.0
 11
46.0
 21
16.39618069276
 31
0.0
  0
LINE
  5
C5
330
C1
100
AcDbEntity
  8
치수문자_일반주서
 62
     0
370
    -2
100
AcDbLine
 10
12.00000000000001
 20
9.062500000000007
 30
0.0
 11
12.00000000000001
 21
16.39618069276
 31
0.0
  0
LINE
  5
C6
330
C1
100
AcDbEntity
  8
치수문자_일반주서
 62
     0
370
    -2
100
AcDbLine
 10
42.698
 20
16.39618069276
 30
0.0
 11
15.30200000000001
 21
16.39618069276
 31
0.0
  0
SOLID
  5
C7
330
C1
100
AcDbEntity
  8
치수문자_일반주서
 62
     0
100
AcDbTrace
 10
42.698
 20
15.84584735942667
 30
0.0
 11
42.698
 21
16.94651402609334
 31
0.0
 12
46.0
 22
16.39618069276
 32
0.0
 13
46.0
 23
16.39618069276
 33
0.0
  0
SOLID
  5
C8
330
C1
100
AcDbEntity
  8
치수문자_일반주서
 62
     0
100
AcDbTrace
 10
15.30200000000001
 20
16.94651402609334
 30
0.0
 11
15.30200000000001
 21
15.84584735942667
 31
0.0
 12
12.00000000000001
 22
16.39618069276
 32
0.0
 13
12.00000000000001
 23
16.39618069276
 33
0.0
  0
MTEXT
  5
C9
330
C1
100
AcDbEntity
  8
치수문자_일반주서
 62
     0
100
AcDbMText
 10
29.00000000000001
 20
20.77118069276
 30
0.0
 40
3.5
 41
0.0
 71
     2
 72
     1
  1
\A1;34
  7
SLDTEXTSTYLE0
 73
     1
 44
1.0
  0
POINT
  5
CA
330
C1
100
AcDbEntity
  8
Defpoints
 62
     0
100
AcDbPoint
 10
46.0
 20
9.000000000000105
 30
0.0
  0
POINT
  5
129
330
C1
100
AcDbEntity
  8
Defpoints
 62
     0
100
AcDbPoint
 10
12.00000000000001
 20
9.000000000000007
 30
0.0
  0
POINT
  5
12A
330
C1
100
AcDbEntity
  8
Defpoints
 62
     0
100
AcDbPoint
 10
12.00000000000001
 20
16.39618069276
 30
0.0
  0
ENDBLK
  5
C3
330
C1
100
AcDbEntity
  8
0
100
AcDbBlockEnd
  0
BLOCK
  5
CD
330
CC
100
AcDbEntity
  8
0
100
AcDbBlockBegin
  2
_D_1
 70
     0
 10
0.0
 20
0.0
 30
0.0
  3
_D_1
  1
_D_1
  0
LINE
  5
CF
330
CC
100
AcDbEntity
  8
치수문자_일반주서
 62
     0
370
    -2
100
AcDbLine
 10
46.0
 20
9.062500000000105
 30
0.0
 11
46.0
 21
24.0
 31
0.0
  0
LINE
  5
D0
330
CC
100
AcDbEntity
  8
치수문자_일반주서
 62
     0
370
    -2
100
AcDbLine
 10
-94.0
 20
7.262500000000012
 30
0.0
 11
-94.0
 21
24.0
 31
0.0
  0
LINE
  5
D1
330
CC
100
AcDbEntity
  8
치수문자_일반주서
 62
     0
370
    -2
100
AcDbLine
 10
42.698
 20
24.0
 30
0.0
 11
-90.69800000000001
 21
24.0
 31
0.0
  0
SOLID
  5
D2
330
CC
100
AcDbEntity
  8
치수문자_일반주서
 62
     0
100
AcDbTrace
 10
42.698
 20
23.44966666666666
 30
0.0
 11
42.698
 21
24.55033333333333
 31
0.0
 12
46.0
 22
24.0
 32
0.0
 13
46.0
 23
24.0
 33
0.0
  0
SOLID
  5
D3
330
CC
100
AcDbEntity
  8
치수문자_일반주서
 62
     0
100
AcDbTrace
 10
-90.69800000000001
 20
24.55033333333333
 30
0.0
 11
-90.69800000000001
 21
23.44966666666666
 31
0.0
 12
-94.0
 22
24.0
 32
0.0
 13
-94.0
 23
24.0
 33
0.0
  0
MTEXT
  5
D4
330
CC
100
AcDbEntity
  8
치수문자_일반주서
 62
     0
100
AcDbMText
 10
-24.00000000000001
 20
28.375
 30
0.0
 40
3.5
 41
0.0
 71
     2
 72
     1
  1
\A1;140
  7
SLDTEXTSTYLE0
 73
     1
 44
1.0
  0
POINT
  5
12B
330
CC
100
AcDbEntity
  8
Defpoints
 62
     0
100
AcDbPoint
 10
46.0
 20
9.000000000000105
 30
0.0
  0
POINT
  5
12C
330
CC
100
AcDbEntity
  8
Defpoints
 62
     0
100
AcDbPoint
 10
-94.0
 20
7.200000000000012
 30
0.0
  0
POINT
  5
12D
330
CC
100
AcDbEntity
  8
Defpoints
 62
     0
100
AcDbPoint
 10
-94.0
 20
24.0
 30
0.0
  0
ENDBLK
  5
CE
330
CC
100
AcDbEntity
  8
0
100
AcDbBlockEnd
  0
BLOCK
  5
D7
330
D6
100
AcDbEntity
  8
0
100
AcDbBlockBegin
  2
_D_2
 70
     0
 10
0.0
 20
0.0
 30
0.0
  3
_D_2
  1
_D_2
  0
LINE
  5
D9
330
D6
100
AcDbEntity
  8
치수문자_일반주서
 62
     0
370
    -2
100
AcDbLine
 10
46.0625
 20
9.000000000000105
 30
0.0
 11
59.64893769785479
 21
9.000000000000156
 31
0.0
  0
LINE
  5
DA
330
D6
100
AcDbEntity
  8
치수문자_일반주서
 62
     0
370
    -2
100
AcDbLine
 10
46.0625
 20
-8.99999999999993
 30
0.0
 11
59.64893769785485
 21
-8.999999999999883
 31
0.0
  0
LINE
  5
DB
330
D6
100
AcDbEntity
  8
치수문자_일반주서
 62
     0
370
    -2
100
AcDbLine
 10
59.64893769785479
 20
9.000000000000156
 30
0.0
 11
59.64893769785473
 21
24.57208405216977
 31
0.0
  0
LINE
  5
DC
330
D6
100
AcDbEntity
  8
치수문자_일반주서
 62
     0
370
    -2
100
AcDbLine
 10
59.64893769785479
 20
9.000000000000156
 30
0.0
 11
59.64893769785485
 21
-8.999999999999883
 31
0.0
  0
LINE
  5
DD
330
D6
100
AcDbEntity
  8
치수문자_일반주서
 62
     0
370
    -2
100
AcDbLine
 10
59.64893769785478
 20
12.30200000000016
 30
0.0
 11
59.64893769785476
 21
15.60400000000016
 31
0.0
  0
LINE
  5
DE
330
D6
100
AcDbEntity
  8
치수문자_일반주서
 62
     0
370
    -2
100
AcDbLine
 10
59.64893769785487
 20
-12.30199999999988
 30
0.0
 11
59.64893769785488
 21
-15.60399999999988
 31
0.0
  0
SOLID
  5
DF
330
D6
100
AcDbEntity
  8
치수문자_일반주서
 62
     0
100
AcDbTrace
 10
59.09860436452144
 20
12.30200000000015
 30
0.0
 11
60.19927103118811
 21
12.30200000000016
 31
0.0
 12
59.64893769785479
 22
9.000000000000156
 32
0.0
 13
59.64893769785479
 23
9.000000000000156
 33
0.0
  0
SOLID
  5
E0
330
D6
100
AcDbEntity
  8
치수문자_일반주서
 62
     0
100
AcDbTrace
 10
60.1992710311882
 20
-12.30199999999988
 30
0.0
 11
59.09860436452153
 21
-12.30199999999988
 31
0.0
 12
59.64893769785485
 22
-8.999999999999883
 32
0.0
 13
59.64893769785485
 23
-8.999999999999883
 33
0.0
  0
MTEXT
  5
125
330
D6
100
AcDbEntity
  8
치수문자_일반주서
 62
     0
100
AcDbMText
 10
55.27393769785475
 20
20.63458405216976
 30
0.0
 40
3.5
 41
0.0
 71
     2
 72
     1
  1
\A1;%%c18
  7
SLDTEXTSTYLE0
 11
-3.552713678800494E-15
 21
1.0
 31
0.0
 73
     1
 44
1.0
  0
POINT
  5
126
330
D6
100
AcDbEntity
  8
Defpoints
 62
     0
100
AcDbPoint
 10
46.0
 20
9.000000000000105
 30
0.0
  0
POINT
  5
127
330
D6
100
AcDbEntity
  8
Defpoints
 62
     0
100
AcDbPoint
 10
46.0
 20
-8.99999999999993
 30
0.0
  0
POINT
  5
128
330
D6
100
AcDbEntity
  8
Defpoints
 62
     0
100
AcDbPoint
 10
59.64893769785485
 20
-8.99999999999988
 30
0.0
  0
ENDBLK
  5
D8
330
D6
100
AcDbEntity
  8
0
100
AcDbBlockEnd
  0
BLOCK
  5
E4
330
E3
100
AcDbEntity
  8
0
100
AcDbBlockBegin
  2
_D_3
 70
     0
 10
0.0
 20
0.0
 30
0.0
  3
_D_3
  1
_D_3
  0
LINE
  5
E6
330
E3
100
AcDbEntity
  8
치수문자_일반주서
 62
     0
370
    -2
100
AcDbLine
 10
-92.26249999999999
 20
9.000000000000007
 30
0.0
 11
-110.5922521638913
 21
8.99999999999994
 31
0.0
  0
LINE
  5
E7
330
E3
100
AcDbEntity
  8
치수문자_일반주서
 62
     0
370
    -2
100
AcDbLine
 10
-92.26249999999999
 20
-9.000000000000009
 30
0.0
 11
-110.5922521638913
 21
-9.000000000000078
 31
0.0
  0
LINE
  5
E8
330
E3
100
AcDbEntity
  8
치수문자_일반주서
 62
     0
370
    -2
100
AcDbLine
 10
-110.5922521638913
 20
8.99999999999994
 30
0.0
 11
-110.5922521638914
 21
23.47899999999995
 31
0.0
  0
LINE
  5
E9
330
E3
100
AcDbEntity
  8
치수문자_일반주서
 62
     0
370
    -2
100
AcDbLine
 10
-110.5922521638913
 20
8.99999999999994
 30
0.0
 11
-110.5922521638913
 21
-9.000000000000078
 31
0.0
  0
LINE
  5
EA
330
E3
100
AcDbEntity
  8
치수문자_일반주서
 62
     0
370
    -2
100
AcDbLine
 10
-110.5922521638913
 20
12.30199999999994
 30
0.0
 11
-110.5922521638913
 21
15.60399999999994
 31
0.0
  0
LINE
  5
EB
330
E3
100
AcDbEntity
  8
치수문자_일반주서
 62
     0
370
    -2
100
AcDbLine
 10
-110.5922521638912
 20
-12.30200000000008
 30
0.0
 11
-110.5922521638912
 21
-15.60400000000008
 31
0.0
  0
SOLID
  5
EC
330
E3
100
AcDbEntity
  8
치수문자_일반주서
 62
     0
100
AcDbTrace
 10
-111.1425854972247
 20
12.30199999999994
 30
0.0
 11
-110.041918830558
 21
12.30199999999994
 31
0.0
 12
-110.5922521638913
 22
8.99999999999994
 32
0.0
 13
-110.5922521638913
 23
8.99999999999994
 33
0.0
  0
SOLID
  5
ED
330
E3
100
AcDbEntity
  8
치수문자_일반주서
 62
     0
100
AcDbTrace
 10
-110.0419188305579
 20
-12.30200000000008
 30
0.0
 11
-111.1425854972246
 21
-12.30200000000008
 31
0.0
 12
-110.5922521638913
 22
-9.000000000000078
 32
0.0
 13
-110.5922521638913
 23
-9.000000000000078
 33
0.0
  0
MTEXT
  5
EE
330
E3
100
AcDbEntity
  8
치수문자_일반주서
 62
     0
100
AcDbMText
 10
-114.9672521638913
 20
19.54149999999993
 30
0.0
 40
3.5
 41
0.0
 71
     2
 72
     1
  1
\A1;%%c18
  7
SLDTEXTSTYLE0
 11
-3.157967714489331E-15
 21
1.0
 31
0.0
 73
     1
 44
1.0
  0
POINT
  5
122
330
E3
100
AcDbEntity
  8
Defpoints
 62
     0
100
AcDbPoint
 10
-92.19999999999999
 20
9.000000000000007
 30
0.0
  0
POINT
  5
123
330
E3
100
AcDbEntity
  8
Defpoints
 62
     0
100
AcDbPoint
 10
-92.19999999999999
 20
-9.000000000000009
 30
0.0
  0
POINT
  5
124
330
E3
100
AcDbEntity
  8
Defpoints
 62
     0
100
AcDbPoint
 10
-110.5922521638913
 20
-9.000000000000078
 30
0.0
  0
ENDBLK
  5
E5
330
E3
100
AcDbEntity
  8
0
100
AcDbBlockEnd
  0
BLOCK
  5
F7
330
F6
100
AcDbEntity
  8
0
100
AcDbBlockBegin
  2
SW_DOWELSYMBOL_0
 70
     0
 10
0.0
 20
0.0
 30
0.0
  3
SW_DOWELSYMBOL_0
  1
SW_DOWELSYMBOL_0
  0
CIRCLE
  5
F9
330
F6
100
AcDbEntity
  8
해칭선
 62
     0
100
AcDbCircle
 10
0.0
 20
0.0
 30
0.0
 40
3.000000000000008
  0
HATCH
  5
FA
330
F6
100
AcDbEntity
  8
0
  6
Continuous
 62
     0
370
     0
100
AcDbHatch
 10
0.0
 20
0.0
 30
0.0
210
0.0
220
0.0
230
1.0
  2
SOLID
 70
     1
 71
     0
 91
        1
 92
        0
 93
        3
 72
     2
 10
0.0
 20
0.0
 40
3.000000000000008
 50
0.0
 51
90.0
 73
     1
 72
     1
 10
0.0
 20
3.000000000000008
 11
0.0
 21
0.0
 72
     1
 10
0.0
 20
0.0
 11
3.00000000000001
 21
0.0
 97
        0
 75
     0
 76
     1
 98
        1
 10
0.0
 20
0.0
  0
HATCH
  5
FB
330
F6
100
AcDbEntity
  8
0
  6
Continuous
 62
     0
370
     0
100
AcDbHatch
 10
0.0
 20
0.0
 30
0.0
210
0.0
220
0.0
230
1.0
  2
SOLID
 70
     1
 71
     0
 91
        1
 92
        0
 93
        3
 72
     2
 10
0.0
 20
0.0
 40
3.000000000000008
 50
180.0
 51
270.0000000000007
 73
     1
 72
     1
 10
0.0
 20
-3.000000000000008
 11
0.0
 21
0.0
 72
     1
 10
0.0
 20
0.0
 11
-3.00000000000001
 21
0.0
 97
        0
 75
     0
 76
     1
 98
        1
 10
0.0
 20
0.0
  0
ENDBLK
  5
F8
330
F6
100
AcDbEntity
  8
0
100
AcDbBlockEnd
  0
ENDSEC
  0
SECTION
  2
ENTITIES
  0
ARC
  5
96
330
1F
100
AcDbEntity
  8
외형선
  6
Continuous
 62
     1
370
    15
100
AcDbCircle
 10
36.99999999999996
 20
0.0000000000000091
 30
0.0
 40
9.000000000000043
100
AcDbArc
 50
326.8980879808554
 51
0.0
  0
ARC
  5
97
330
1F
100
AcDbEntity
  8
외형선
  6
Continuous
 62
     1
370
    15
100
AcDbCircle
 10
36.99999999999996
 20
0.0000000000000091
 30
0.0
 40
9.000000000000032
100
AcDbArc
 50
275.495407104993
 51
310.2679739291757
  0
ARC
  5
98
330
1F
100
AcDbEntity
  8
외형선
  6
Continuous
 62
     1
370
    15
100
AcDbCircle
 10
36.99999999999996
 20
0.0000000000000091
 30
0.0
 40
9.000000000000028
100
AcDbArc
 50
49.50830631982956
 51
84.53476887267466
  0
ARC
  5
99
330
1F
100
AcDbEntity
  8
외형선
  6
Continuous
 62
     1
370
    15
100
AcDbCircle
 10
36.99999999999996
 20
0.0000000000000091
 30
0.0
 40
9.000000000000043
100
AcDbArc
 50
0.0
 51
33.14433876283884
  0
LINE
  5
9A
330
1F
100
AcDbEntity
  8
외형선
  6
Continuous
 62
     1
370
    15
100
AcDbLine
 10
18.82537775569394
 20
9.000000000000018
 30
0.0
 11
13.33729621593088
 21
9.000000000000018
 31
0.0
  0
LINE
  5
9B
330
1F
100
AcDbEntity
  8
외형선
  6
Continuous
 62
     1
370
    15
100
AcDbLine
 10
13.33729621593088
 20
-9.000000000000018
 30
0.0
 11
18.82537775569406
 21
-9.000000000000018
 31
0.0
  0
LINE
  5
9C
330
1F
100
AcDbEntity
  8
외형선
  6
Continuous
370
    15
100
AcDbLine
 10
-92.19999999999999
 20
-9.0
 30
0.0
 11
12.0
 21
-9.0
 31
0.0
  0
LINE
  5
9D
330
1F
100
AcDbEntity
  8
외형선
  6
Continuous
370
    15
100
AcDbLine
 10
12.0
 20
8.999999999999998
 30
0.0
 11
-76.79998799999986
 21
8.999999999999998
 31
0.0
  0
LINE
  5
9E
330
1F
100
AcDbEntity
  8
외형선
  6
Continuous
370
    15
100
AcDbLine
 10
-92.19999999999999
 20
9.0
 30
0.0
 11
-94.0
 21
7.200000000000006
 31
0.0
  0
LINE
  5
9F
330
1F
100
AcDbEntity
  8
외형선
  6
Continuous
370
    15
100
AcDbLine
 10
-94.0
 20
-7.200000000000006
 30
0.0
 11
-92.19999999999999
 21
-9.000000000000002
 31
0.0
  0
SPLINE
  5
A0
330
1F
100
AcDbEntity
  8
외형선
  6
Continuous
 62
     1
370
    15
100
AcDbSpline
210
0.0
220
0.0
230
1.0
 70
     8
 71
     3
 72
    38
 73
    34
 74
     0
 42
0.000000001
 43
0.00000001
 40
0.0
 40
0.0
 40
0.0
 40
0.0
 40
0.0625
 40
0.0625
 40
0.125
 40
0.125
 40
0.1875
 40
0.1875
 40
0.25
 40
0.25
 40
0.3125
 40
0.3125
 40
0.375
 40
0.375
 40
0.4375
 40
0.4375
 40
0.5
 40
0.5
 40
0.5625
 40
0.5625
 40
0.625
 40
0.625
 40
0.6875
 40
0.6875
 40
0.75
 40
0.75
 40
0.8125
 40
0.8125
 40
0.875
 40
0.875
 40
0.9375
 40
0.9375
 40
0.9553868823573906
 40
0.9553868823573906
 40
0.9553868823573906
 40
0.9553868823573906
 10
11.99999999999999
 20
0.7711321433018195
 30
0.0
 10
12.5185917009823
 20
0.4719722684734038
 30
0.0
 10
13.04079665562232
 20
0.170828066409
 30
0.0
 10
14.08460182572071
 20
-0.4309116186546932
 30
0.0
 10
14.60446436124214
 20
-0.7311697075021552
 30
0.0
 10
15.64371211726949
 20
-1.328149843743696
 30
0.0
 10
16.16634232683698
 20
-1.625488671500566
 30
0.0
 10
17.2097629845828
 20
-2.213373473523402
 30
0.0
 10
17.72814937700049
 20
-2.503478025579798
 30
0.0
 10
18.7690825556011
 20
-3.075123825805015
 30
0.0
 10
19.29194487463504
 20
-3.356704092626592
 30
0.0
 10
20.33459697969028
 20
-3.907126096168854
 30
0.0
 10
20.85237531072663
 20
-4.175640592890826
 30
0.0
 10
21.89461291997543
 20
-4.698952986916653
 30
0.0
 10
22.41751391617062
 20
-4.953454936371772
 30
0.0
 10
23.4590143710103
 20
-5.444333219692327
 30
0.0
 10
23.9770534666048
 20
-5.680658985527272
 30
0.0
 10
25.0202129171023
 20
-6.134572112209473
 30
0.0
 10
25.54295911034073
 20
-6.35177047319281
 30
0.0
 10
26.58292622862403
 20
-6.763448251063958
 30
0.0
 10
27.10209459553329
 20
-6.958219322388964
 30
0.0
 10
28.14579216746974
 20
-7.324459827822918
 30
0.0
 10
28.66819026897569
 20
-7.4956400140928
 30
0.0
 10
29.70624424028942
 20
-7.811681611905086
 30
0.0
 10
30.22740900350603
 20
-7.957115313757427
 30
0.0
 10
31.27126031663414
 20
-8.220947803654123
 30
0.0
 10
31.79195547426224
 20
-8.339183661455763
 30
0.0
 10
32.83042330495307
 20
-8.547216742260824
 30
0.0
 10
33.35290666113923
 20
-8.637305958702697
 30
0.0
 10
34.39652714644845
 20
-8.788133728849362
 30
0.0
 10
34.91539957781015
 20
-8.848813007645454
 30
0.0
 10
35.58441458940811
 20
-8.907785751513785
 30
0.0
 10
35.73349334279418
 20
-8.919692279540028
 30
0.0
 10
35.88269621626826
 20
-8.930376938005395
 30
0.0
  0
SPLINE
  5
A2
330
1F
100
AcDbEntity
  8
외형선
  6
Continuous
 62
     1
370
    15
100
AcDbSpline
210
0.0
220
0.0
230
1.0
 70
     8
 71
     3
 72
    13
 73
     9
 74
     0
 42
0.000000001
 43
0.00000001
 40
0.0
 40
0.0
 40
0.0
 40
0.0
 40
0.1549209478194981
 40
0.3263733722479227
 40
0.4947708546477205
 40
0.6631739874235899
 40
0.8315834700821706
 40
0.9999999999999999
 40
0.9999999999999999
 40
0.9999999999999999
 40
0.9999999999999999
 10
28.33059506513182
 20
-7.367445567240786
 30
0.0
 10
27.48728290033188
 20
-7.631884878761094
 30
0.0
 10
25.71066947937524
 20
-8.188981585633549
 30
0.0
 10
23.01736660000631
 20
-8.71876323607004
 30
0.0
 10
20.2507123040989
 20
-9.01077441973354
 30
0.0
 10
17.50058853768473
 20
-9.010858455070986
 30
0.0
 10
14.75034609476994
 20
-8.750897922670596
 30
0.0
 10
12.91679481911301
 20
-8.351056858322965
 30
0.0
 10
12.0
 20
-8.151132143301725
 30
0.0
  0
SPLINE
  5
A3
330
1F
100
AcDbEntity
  8
외형선
  6
Continuous
 62
     1
370
    15
100
AcDbSpline
210
0.0
220
0.0
230
1.0
 70
     8
 71
     3
 72
    38
 73
    34
 74
     0
 42
0.000000001
 43
0.00000001
 40
0.0
 40
0.0
 40
0.0
 40
0.0
 40
0.0625
 40
0.0625
 40
0.125
 40
0.125
 40
0.1875000000000001
 40
0.1875000000000001
 40
0.2500000000000001
 40
0.2500000000000001
 40
0.3125
 40
0.3125
 40
0.375
 40
0.375
 40
0.4375000000000001
 40
0.4375000000000001
 40
0.5
 40
0.5
 40
0.5625
 40
0.5625
 40
0.625
 40
0.625
 40
0.6875
 40
0.6875
 40
0.75
 40
0.75
 40
0.8125000000000001
 40
0.8125000000000001
 40
0.8750000000000001
 40
0.8750000000000001
 40
0.9375000000000001
 40
0.9375000000000001
 40
1.0
 40
1.0
 40
1.0
 40
1.0
 10
11.99999999999999
 20
8.966903323754929
 30
0.0
 10
12.5185917009823
 20
8.992630354273386
 30
0.0
 10
13.04079665562232
 20
9.003408206717422
 30
0.0
 10
14.08460182572071
 20
8.994712710363126
 30
0.0
 10
14.60446436124214
 20
8.975280988187995
 30
0.0
 10
15.64371211726954
 20
8.90653108402262
 30
0.0
 10
16.16634232683698
 20
8.857104826528799
 30
0.0
 10
17.20976298458281
 20
8.72877409468244
 30
0.0
 10
17.72814937700049
 20
8.650027354615208
 30
0.0
 10
18.76908255560113
 20
8.463686484985047
 30
0.0
 10
19.29194487463504
 20
8.35601654599132
 30
0.0
 10
20.33459697969025
 20
8.113250923703337
 30
0.0
 10
20.8523753107266
 20
7.978375558263434
 30
0.0
 10
21.89461291997543
 20
7.681815653635543
 30
0.0
 10
22.41751391617061
 20
7.520218910815553
 30
0.0
 10
23.45901437101031
 20
7.172840724999285
 30
0.0
 10
23.9770534666048
 20
6.987175231358379
 30
0.0
 10
25.0202129171023
 20
6.592232491626909
 30
0.0
 10
25.54295911034073
 20
6.38320698641223
 30
0.0
 10
26.58292622862399
 20
5.945257549567199
 30
0.0
 10
27.10209459553329
 20
5.716093001731679
 30
0.0
 10
28.14579216746971
 20
5.238589845895677
 30
0.0
 10
28.66819026897571
 20
4.990550036407726
 30
0.0
 10
29.70624424028942
 20
4.479714196350278
 30
0.0
 10
30.22740900350604
 20
4.216024207348186
 30
0.0
 10
31.27126031663414
 20
3.675127404998819
 30
0.0
 10
31.79195547426227
 20
3.398271427330246
 30
0.0
 10
32.83042330495307
 20
2.834663788549943
 30
0.0
 10
33.35290666113923
 20
2.547052543802743
 30
0.0
 10
34.39652714644843
 20
1.964493942213473
 30
0.0
 10
34.91539957781015
 20
1.66998427484804
 30
0.0
 10
35.95570458774873
 20
1.075890565319226
 30
0.0
 10
36.4784973140614
 20
0.7760396940003501
 30
0.0
 10
36.99999999999996
 20
0.4756356933018426
 30
0.0
  0
SPLINE
  5
A4
330
1F
100
AcDbEntity
  8
외형선
  6
Continuous
 62
     1
370
    15
100
AcDbSpline
210
0.0
220
0.0
230
1.0
 70
     8
 71
     3
 72
    54
 73
    50
 74
     0
 42
0.000000001
 43
0.00000001
 40
0.0
 40
0.0
 40
0.0
 40
0.0
 40
0.0625000000000011
 40
0.0625000000000011
 40
0.0937500000000002
 40
0.0937500000000002
 40
0.1249999999999993
 40
0.1249999999999993
 40
0.1874999999999945
 40
0.1874999999999945
 40
0.2187499999999921
 40
0.2187499999999921
 40
0.2499999999999897
 40
0.2499999999999897
 40
0.3124999999999875
 40
0.3124999999999875
 40
0.3749999999999852
 40
0.3749999999999852
 40
0.4062499999999848
 40
0.4062499999999848
 40
0.4374999999999845
 40
0.4374999999999845
 40
0.4687499999999842
 40
0.4687499999999842
 40
0.4999999999999838
 40
0.4999999999999838
 40
0.5312499999999835
 40
0.5312499999999835
 40
0.5624999999999831
 40
0.5624999999999831
 40
0.5937499999999828
 40
0.5937499999999828
 40
0.6249999999999825
 40
0.6249999999999825
 40
0.6562499999999821
 40
0.6562499999999821
 40
0.6874999999999818
 40
0.6874999999999818
 40
0.7499999999999835
 40
0.7499999999999835
 40
0.7812499999999856
 40
0.7812499999999856
 40
0.8124999999999877
 40
0.8124999999999877
 40
0.8749999999999918
 40
0.8749999999999918
 40
0.9374999999999959
 40
0.9374999999999959
 40
1.0
 40
1.0
 40
1.0
 40
1.0
 10
36.99999999999996
 20
0.475635693301853
 30
0.0
 10
37.45718790015299
 20
0.21227928502232
 30
0.0
 10
37.91189716538454
 20
-0.0419789455987066
 30
0.0
 10
38.5965853558363
 20
-0.3982452235016846
 30
0.0
 10
38.82522906720365
 20
-0.5128383625034384
 30
0.0
 10
39.28380182296999
 20
-0.7326972077200342
 30
0.0
 10
39.51500965416101
 20
-0.8385007083431221
 30
0.0
 10
40.19997434945384
 20
-1.136106762981242
 30
0.0
 10
40.64433557484901
 20
-1.308358929075936
 30
0.0
 10
41.29252698203499
 20
-1.529798579157607
 30
0.0
 10
41.50552181830994
 20
-1.597383560577274
 30
0.0
 10
41.92458709265621
 20
-1.721489534252084
 30
0.0
 10
42.1306778245513
 20
-1.777964136169682
 30
0.0
 10
42.72505817378126
 20
-1.930952661726731
 30
0.0
 10
43.09406342689427
 20
-2.012121416568829
 30
0.0
 10
43.7702058512419
 20
-2.160186863544162
 30
0.0
 10
44.07848172954382
 20
-2.22702633943649
 30
0.0
 10
44.46916459365828
 20
-2.341941767525789
 30
0.0
 10
44.58808882995523
 20
-2.382958905570206
 30
0.0
 10
44.80111234895594
 20
-2.477098389622173
 30
0.0
 10
44.89559449320564
 20
-2.530454269351543
 30
0.0
 10
45.05433988368318
 20
-2.65685140254114
 30
0.0
 10
45.11786593337028
 20
-2.729146349943117
 30
0.0
 10
45.21002308946215
 20
-2.900731554538007
 30
0.0
 10
45.23872405353214
 20
-3.001278144260043
 30
0.0
 10
45.25421166811711
 20
-3.234437775237827
 30
0.0
 10
45.24152968960632
 20
-3.366391595196853
 30
0.0
 10
45.17035996548566
 20
-3.670159048674217
 30
0.0
 10
45.11214767858367
 20
-3.839056297421137
 30
0.0
 10
44.95373712260925
 20
-4.202397640099514
 30
0.0
 10
44.85094820584402
 20
-4.40195128516277
 30
0.0
 10
44.59694625176887
 20
-4.800855385825066
 30
0.0
 10
44.46795566256894
 20
-5.022338453308858
 30
0.0
 10
44.17206294054833
 20
-5.439911204021644
 30
0.0
 10
44.01027181631838
 20
-5.645869412129022
 30
0.0
 10
43.66605184971995
 20
-6.048328810430729
 30
0.0
 10
43.48610193851187
 20
-6.241628232695854
 30
0.0
 10
42.93463796657136
 20
-6.785964620392623
 30
0.0
 10
42.54142447878549
 20
-7.110336015592278
 30
0.0
 10
41.94548649356793
 20
-7.512914480779285
 30
0.0
 10
41.74466103437861
 20
-7.634344521077348
 30
0.0
 10
41.33683118466072
 20
-7.852899232442329
 30
0.0
 10
41.1286387460724
 20
-7.950424835344116
 30
0.0
 10
40.50386121974141
 20
-8.202360672020998
 30
0.0
 10
40.08525647264494
 20
-8.318296702132747
 30
0.0
 10
39.22946049503312
 20
-8.458395650471052
 30
0.0
 10
38.78907944238826
 20
-8.48173630596776
 30
0.0
 10
37.90390411578562
 20
-8.44011798279258
 30
0.0
 10
37.4571670592033
 20
-8.376163873336534
 30
0.0
 10
36.99999999999993
 20
-8.272280572453152
 30
0.0
  0
SPLINE
  5
A5
330
1F
100
AcDbEntity
  8
외형선
  6
Continuous
 62
     1
370
    15
100
AcDbSpline
210
0.0
220
0.0
230
1.0
 70
     8
 71
     3
 72
    38
 73
    34
 74
     0
 42
0.000000001
 43
0.00000001
 40
0.0
 40
0.0
 40
0.0
 40
0.0
 40
0.0625000000000003
 40
0.0625000000000003
 40
0.1250000000000006
 40
0.1250000000000006
 40
0.1875000000000009
 40
0.1875000000000009
 40
0.2500000000000012
 40
0.2500000000000012
 40
0.3125000000000016
 40
0.3125000000000016
 40
0.3750000000000018
 40
0.3750000000000018
 40
0.4375000000000021
 40
0.4375000000000021
 40
0.5000000000000024
 40
0.5000000000000024
 40
0.5625000000000028
 40
0.5625000000000028
 40
0.6250000000000031
 40
0.6250000000000031
 40
0.6875000000000033
 40
0.6875000000000033
 40
0.7500000000000037
 40
0.7500000000000037
 40
0.8125000000000028
 40
0.8125000000000028
 40
0.8750000000000018
 40
0.8750000000000018
 40
0.9375000000000009
 40
0.9375000000000009
 40
1.0
 40
1.0
 40
1.0
 40
1.0
 10
12.0
 20
3.81563163610341
 30
0.0
 10
12.51859170098231
 20
3.543688069449799
 30
0.0
 10
13.04079665562232
 20
3.264727385497901
 30
0.0
 10
14.08460182572071
 20
2.696890472918484
 30
0.0
 10
14.60446436124209
 20
2.408345301002279
 30
0.0
 10
15.64371211726947
 20
1.824269303688873
 30
0.0
 10
16.16634232683695
 20
1.528122256826776
 30
0.0
 10
17.20976298458274
 20
0.9320403636563996
 30
0.0
 10
17.72814937700055
 20
0.6325742566405783
 30
0.0
 10
18.76908255560114
 20
0.0317336320424698
 30
0.0
 10
19.29194487463504
 20
-0.2697036505112462
 30
0.0
 10
20.33459697969026
 20
-0.870077257553538
 30
0.0
 10
20.85237531072664
 20
-1.168630444055897
 30
0.0
 10
21.89461291997537
 20
-1.7621051751042
 30
0.0
 10
22.41751391617062
 20
-2.056718648268046
 30
0.0
 10
23.45901437101033
 20
-2.637270395719884
 30
0.0
 10
23.97705346660477
 20
-2.923121223664745
 30
0.0
 10
25.02021291710231
 20
-3.485374917494763
 30
0.0
 10
25.54295911034073
 20
-3.761325838221888
 30
0.0
 10
26.58292622862402
 20
-4.298762925578938
 30
0.0
 10
27.10209459553327
 20
-4.560605825747698
 30
0.0
 10
28.14579216746969
 20
-5.06903015035567
 30
0.0
 10
28.66819026897564
 20
-5.315237039012789
 30
0.0
 10
29.70624424028946
 20
-5.788033954585281
 30
0.0
 10
30.22740900350604
 20
-6.015469413646863
 30
0.0
 10
31.27126031663411
 20
-6.449623903341304
 30
0.0
 10
31.79195547426224
 20
-6.656069027095247
 30
0.0
 10
32.83042330495304
 20
-7.04567663734263
 30
0.0
 10
33.35290666113923
 20
-7.22940959555728
 30
0.0
 10
34.39652714644845
 20
-7.571854235628783
 30
0.0
 10
34.91539957781011
 20
-7.730359362209565
 30
0.0
 10
35.95570458774876
 20
-8.02128083145659
 30
0.0
 10
36.4784973140614
 20
-8.153778114009967
 30
0.0
 10
36.99999999999996
 20
-8.272280572453155
 30
0.0
  0
SPLINE
  5
A6
330
1F
100
AcDbEntity
  8
외형선
  6
Continuous
 62
     1
370
    15
100
AcDbSpline
210
0.0
220
0.0
230
1.0
 70
     8
 71
     3
 72
    11
 73
     7
 74
     0
 42
0.000000001
 43
0.00000001
 40
0.0
 40
0.0
 40
0.0
 40
0.0
 40
0.0484380781904904
 40
0.3656328223501287
 40
0.6828196872015176
 40
0.8483871794380319
 40
0.8483871794380319
 40
0.8483871794380319
 40
0.8483871794380319
 10
28.3305950651317
 20
7.367445567240781
 30
0.0
 10
28.47057294981637
 20
7.41828117371474
 30
0.0
 10
29.52719020128072
 20
7.802011638781038
 30
0.0
 10
31.50040814951412
 20
8.295872168420084
 30
0.0
 10
33.81210171146834
 20
8.741444289779478
 30
0.0
 10
35.2071597475136
 20
8.868073812101068
 30
0.0
 10
35.68561446698965
 20
8.903504403919435
 30
0.0
  0
SPLINE
  5
A7
330
1F
100
AcDbEntity
  8
외형선
  6
Continuous
 62
     1
370
    15
100
AcDbSpline
210
0.0
220
0.0
230
1.0
 70
     8
 71
     3
 72
    54
 73
    50
 74
     0
 42
0.000000001
 43
0.00000001
 40
0.0564383143650182
 40
0.0564383143650182
 40
0.0564383143650182
 40
0.0564383143650182
 40
0.0624999999999975
 40
0.0624999999999975
 40
0.0937499999999948
 40
0.0937499999999948
 40
0.124999999999992
 40
0.124999999999992
 40
0.1874999999999895
 40
0.1874999999999895
 40
0.2187499999999882
 40
0.2187499999999882
 40
0.2499999999999869
 40
0.2499999999999869
 40
0.3124999999999867
 40
0.3124999999999867
 40
0.3749999999999866
 40
0.3749999999999866
 40
0.4062499999999874
 40
0.4062499999999874
 40
0.4374999999999881
 40
0.4374999999999881
 40
0.4687499999999888
 40
0.4687499999999888
 40
0.4999999999999896
 40
0.4999999999999896
 40
0.5312499999999903
 40
0.5312499999999903
 40
0.562499999999991
 40
0.562499999999991
 40
0.5937499999999918
 40
0.5937499999999918
 40
0.6249999999999925
 40
0.6249999999999925
 40
0.6562499999999932
 40
0.6562499999999932
 40
0.6874999999999939
 40
0.6874999999999939
 40
0.7499999999999931
 40
0.7499999999999931
 40
0.781249999999994
 40
0.781249999999994
 40
0.8124999999999949
 40
0.8124999999999949
 40
0.8749999999999966
 40
0.8749999999999966
 40
0.9374999999999982
 40
0.9374999999999982
 40
1.0
 40
1.0
 40
1.0
 40
1.0
 10
38.19035256442295
 20
8.920933850913382
 30
0.0
 10
38.27983130511495
 20
8.90562916039003
 30
0.0
 10
38.32408540362169
 20
8.8985154011458
 30
0.0
 10
38.5965853558363
 20
8.852119375301813
 30
0.0
 10
38.82522906720371
 20
8.801931775678826
 30
0.0
 10
39.28380182297005
 20
8.678471717573505
 30
0.0
 10
39.51500965416101
 20
8.604693112576305
 30
0.0
 10
40.1999743494539
 20
8.351396758990488
 30
0.0
 10
40.64433557484901
 20
8.141147695390389
 30
0.0
 10
41.29252698203501
 20
7.765419890939567
 30
0.0
 10
41.50552181831003
 20
7.630048506532566
 30
0.0
 10
41.92458709265627
 20
7.338522811657232
 30
0.0
 10
42.13067782455127
 20
7.182175649249778
 30
0.0
 10
42.72505817378126
 20
6.691021191648598
 30
0.0
 10
43.09406342689429
 20
6.331452753565267
 30
0.0
 10
43.77020585124195
 20
5.547201191865682
 30
0.0
 10
44.07848172954382
 20
5.11945598430094
 30
0.0
 10
44.46916459365831
 20
4.449183509607727
 30
0.0
 10
44.58808882995523
 20
4.220293244837817
 30
0.0
 10
44.80111234895594
 20
3.751678290638675
 30
0.0
 10
44.89559449320561
 20
3.510866797300648
 30
0.0
 10
45.05433988368316
 20
3.023002901376744
 30
0.0
 10
45.11786593337025
 20
2.77864511824047
 30
0.0
 10
45.21002308946218
 20
2.291316897268689
 30
0.0
 10
45.23872405353211
 20
2.04576932724391
 30
0.0
 10
45.25421166811714
 20
1.573473446165131
 30
0.0
 10
45.24152968960632
 20
1.347097041110745
 30
0.0
 10
45.17035996548572
 20
0.919361205874778
 30
0.0
 10
45.1121476785837
 20
0.7232012945281528
 30
0.0
 10
44.95373712260917
 20
0.3824044785826379
 30
0.0
 10
44.85094820584402
 20
0.2338945816372936
 30
0.0
 10
44.61181801067572
 20
0.0016207960729974
 30
0.0
 10
44.47449912452701
 20
-0.0845456156074157
 30
0.0
 10
44.17206294054827
 20
-0.1978666992422297
 30
0.0
 10
44.01027181631835
 20
-0.2244208472612471
 30
0.0
 10
43.66605184971998
 20
-0.2271308255735589
 30
0.0
 10
43.48610193851181
 20
-0.2029064433081209
 30
0.0
 10
42.93463796657124
 20
-0.0721518071060226
 30
0.0
 10
42.54142447878549
 20
0.0953800491660481
 30
0.0
 10
41.94548649356803
 20
0.4081905952575038
 30
0.0
 10
41.74466103437864
 20
0.5231687537132944
 30
0.0
 10
41.33683118466071
 20
0.7698045618063484
 30
0.0
 10
41.12863874607243
 20
0.9022915787599572
 30
0.0
 10
40.50386121974141
 20
1.311643306467035
 30
0.0
 10
40.08525647264491
 20
1.599878957730305
 30
0.0
 10
39.22946049503309
 20
2.181176088095003
 30
0.0
 10
38.78907944238826
 20
2.47670835739993
 30
0.0
 10
37.90390411578558
 20
3.036792072034205
 30
0.0
 10
37.45716705920333
 20
3.302941609585964
 30
0.0
 10
36.99999999999993
 20
3.545331314646721
 30
0.0
  0
SPLINE
  5
A8
330
1F
100
AcDbEntity
  8
외형선
  6
Continuous
 62
     1
370
    15
100
AcDbSpline
210
0.0
220
0.0
230
1.0
 70
     8
 71
     3
 72
    14
 73
    10
 74
     0
 42
0.000000001
 43
0.00000001
 40
0.0
 40
0.0
 40
0.0
 40
0.0
 40
0.1540502774490198
 40
0.3081016556612383
 40
0.4621542841375681
 40
0.616208312217937
 40
0.7702638890621586
 40
0.9215745011850323
 40
1.0
 40
1.0
 40
1.0
 40
1.0
 10
36.99999999999999
 20
3.545331314646726
 30
0.0
 10
36.06673467711425
 20
4.029543763588963
 30
0.0
 10
34.20019736271399
 20
4.997972121403877
 30
0.0
 10
31.40037579794118
 20
6.259505102334229
 30
0.0
 10
28.60052624680587
 20
7.326800501252989
 30
0.0
 10
25.80064974164941
 20
8.160068792256519
 30
0.0
 10
23.01736588824215
 20
8.7135258084788
 30
0.0
 10
20.6922953861106
 20
8.989608528712225
 30
0.0
 10
19.30049841244715
 20
8.971306595515252
 30
0.0
 10
18.82537775569394
 20
8.965058826131541
 30
0.0
  0
SPLINE
  5
A9
330
1F
100
AcDbEntity
  8
외형선
  6
Continuous
 62
     1
370
    15
100
AcDbSpline
210
0.0
220
0.0
230
1.0
 70
     8
 71
     3
 72
    11
 73
     7
 74
     0
 42
0.000000001
 43
0.00000001
 40
0.0
 40
0.0
 40
0.0
 40
0.0
 40
0.1147488060102136
 40
0.5000073576253298
 40
0.7793267445329662
 40
1.0
 40
1.0
 40
1.0
 40
1.0
 10
44.52592366156497
 20
4.914433008452944
 30
0.0
 10
44.47872169004737
 20
4.992824118595555
 30
0.0
 10
44.27304344489744
 20
5.334406163817309
 30
0.0
 10
43.82319347916334
 20
5.878018496076967
 30
0.0
 10
43.30002480697108
 20
6.442366562212905
 30
0.0
 10
42.98102644140367
 20
6.718499158632512
 30
0.0
 10
42.84023555399364
 20
6.840371109993783
 30
0.0
  0
LINE
  5
AA
330
1F
100
AcDbEntity
  8
외형선
  6
Continuous
370
    15
100
AcDbLine
 10
12.0
 20
0.7711321433018185
 30
0.0
 11
12.0
 21
3.81563163610341
 31
0.0
  0
LINE
  5
AB
330
1F
100
AcDbEntity
  8
외형선
  6
Continuous
 62
     1
370
    15
100
AcDbLine
 10
11.99999999999999
 20
-8.966903323754929
 30
0.0
 11
13.33729621593088
 21
-8.963801276593106
 31
0.0
  0
LINE
  5
AC
330
1F
100
AcDbEntity
  8
외형선
  6
Continuous
370
    15
100
AcDbLine
 10
12.0
 20
-8.966903323754929
 30
0.0
 11
12.0
 21
-8.151132143301725
 31
0.0
  0
LINE
  5
AD
330
1F
100
AcDbEntity
  8
외형선
  6
Continuous
370
    15
100
AcDbLine
 10
12.0
 20
0.0
 30
0.0
 11
12.0
 21
8.999999999999998
 31
0.0
  0
LINE
  5
AE
330
1F
100
AcDbEntity
  8
외형선
  6
Continuous
370
    15
100
AcDbLine
 10
12.0
 20
-8.999999999999993
 30
0.0
 11
12.0
 21
0.0
 31
0.0
  0
LINE
  5
AF
330
1F
100
AcDbEntity
  8
외형선
  6
Continuous
370
    15
100
AcDbLine
 10
-92.19999999999999
 20
0.0
 30
0.0
 11
-92.19999999999999
 21
8.999999999999998
 31
0.0
  0
LINE
  5
B0
330
1F
100
AcDbEntity
  8
외형선
  6
Continuous
370
    15
100
AcDbLine
 10
-92.19999999999999
 20
-8.999999999999995
 30
0.0
 11
-92.19999999999999
 21
0.0
 31
0.0
  0
LINE
  5
B1
330
1F
100
AcDbEntity
  8
외형선
  6
Continuous
370
    15
100
AcDbLine
 10
-94.0
 20
0.0
 30
0.0
 11
-94.0
 21
7.200000000000006
 31
0.0
  0
LINE
  5
B2
330
1F
100
AcDbEntity
  8
외형선
  6
Continuous
370
    15
100
AcDbLine
 10
-94.0
 20
-7.200000000000006
 30
0.0
 11
-94.0
 21
0.0
 31
0.0
  0
LINE
  5
B3
330
1F
100
AcDbEntity
  8
중심선
 62
     1
100
AcDbLine
 10
-97.0
 20
0.0
 30
0.0
 11
53.00000000000001
 21
0.0000000000000139
 31
0.0
  0
LINE
  5
B4
330
1F
100
AcDbEntity
  8
참조1
100
AcDbLine
 10
32.49999999999997
 20
0.0010749287238892
 30
0.0
 11
32.49999999999997
 21
-39.99892507127611
 31
0.0
  0
LINE
  5
B5
330
1F
100
AcDbEntity
  8
참조1
100
AcDbLine
 10
102.5
 20
0.0010749287239041
 30
0.0
 11
102.5
 21
0.9423174252685359
 31
0.0
  0
LINE
  5
B6
330
1F
100
AcDbEntity
  8
참조1
100
AcDbLine
 10
32.49999999999997
 20
-39.99892507127611
 30
0.0
 11
-27.65885681430863
 21
-39.9989250712761
 31
0.0
  0
CIRCLE
  5
B7
330
1F
100
AcDbEntity
  8
해칭선
100
AcDbCircle
 10
0.0
 20
0.0
 30
0.0
 40
3.000000000000004
  0
INSERT
  5
B8
330
1F
100
AcDbEntity
  8
0
  6
Continuous
 62
     7
100
AcDbBlockReference
 66
     1
  2
블럭10
 10
-37.94027293212523
 20
-52.04717430164393
 30
0.0
  0
ATTRIB
  5
B9
330
B8
100
AcDbEntity
  8
FORMAT
 62
     2
100
AcDbText
 10
-48.08190894426185
 20
-49.97180738881174
 30
0.0
 40
4.233333333333333
  1
EM815180 [ 4 FLUTE ]
 41
0.75
  7
SLDTEXTSTYLE0
 11
-48.08190894426185
 21
-52.08847405547841
 31
0.0
100
AcDbAttribute
  2
AUTOATTR0
 70
     0
 74
     1
  0
SEQEND
  5
BA
330
B8
100
AcDbEntity
  8
0
  6
Continuous
 62
     7
  0
HATCH
  5
BB
330
1F
100
AcDbEntity
  8
중심선
100
AcDbHatch
 10
0.0
 20
0.0
 30
0.0
210
0.0
220
0.0
230
1.0
  2
SOLID
 70
     1
 71
     0
 91
        1
 92
        0
 93
        4
 72
     1
 10
-32.22536362774439
 20
-35.8
 11
-35.67163887158166
 21
-35.8
 72
     1
 10
-35.67163887158166
 20
-35.8
 11
-37.79986873078569
 21
-38.3363255805726
 72
     1
 10
-37.79986873078569
 20
-38.3363255805726
 11
-34.35356040183526
 21
-38.33628615127011
 72
     1
 10
-34.35356040183525
 20
-38.33628615127011
 11
-32.22536362774438
 21
-35.8
 97
        0
 75
     0
 76
     1
 98
        1
 10
-56.49999999999999
 20
-0.0010749287238931
  0
HATCH
  5
BC
330
1F
100
AcDbEntity
  8
중심선
100
AcDbHatch
 10
0.0
 20
0.0
 30
0.0
210
0.0
220
0.0
230
1.0
  2
SOLID
 70
     1
 71
     0
 91
        1
 92
        0
 93
        4
 72
     1
 10
-27.2125996367084
 20
-35.79999999999998
 11
-30.65887488054569
 21
-35.8
 72
     1
 10
-30.65887488054569
 20
-35.8
 11
-35.1900128889031
 21
-41.20000000000002
 72
     1
 10
-35.1900128889031
 20
-41.20000000000002
 11
-31.74373764506582
 21
-41.20000000000002
 72
     1
 10
-31.74373764506582
 20
-41.20000000000002
 11
-27.2125996367084
 21
-35.79999999999998
 97
        0
 75
     0
 76
     1
 98
        1
 10
-56.49999999999999
 20
-0.0010749287238931
  0
HATCH
  5
BD
330
1F
100
AcDbEntity
  8
중심선
100
AcDbHatch
 10
0.0
 20
0.0
 30
0.0
210
0.0
220
0.0
230
1.0
  2
SOLID
 70
     1
 71
     0
 91
        1
 92
        0
 93
        4
 72
     1
 10
-22.19983564567251
 20
-35.79999999999998
 11
-25.64611088950962
 21
-35.79999999999998
 72
     1
 10
-25.64611088950962
 20
-35.79999999999998
 11
-32.6945477913989
 21
-44.20000000000002
 72
     1
 10
-32.6945477913989
 20
-44.20000000000002
 11
-29.24827254756162
 21
-44.20000000000002
 72
     1
 10
-29.24827254756162
 20
-44.20000000000002
 11
-22.19983564567251
 21
-35.79999999999998
 97
        0
 75
     0
 76
     1
 98
        1
 10
-56.49999999999999
 20
-0.0010749287238931
  0
HATCH
  5
BE
330
1F
100
AcDbEntity
  8
중심선
100
AcDbHatch
 10
0.0
 20
0.0
 30
0.0
210
0.0
220
0.0
230
1.0
  2
SOLID
 70
     1
 71
     0
 91
        1
 92
        0
 93
        6
 72
     3
 10
-17.39994521466036
 20
-40.00000000005127
 11
3.960054785062283
 21
1.540882976769353E-10
 40
0.3939339440162628
 50
17.09539180608432
 51
320.0019657685087
 73
     0
 72
     1
 10
-15.71694555895969
 20
-38.58789400463827
 11
-13.41164368525876
 21
-36.65356729459044
 72
     3
 10
-17.39994521471321
 20
-40.00000000000015
 11
6.600054785286829
 21
-1.278976924368180E-13
 40
0.636358354079598
 50
39.99873849337381
 51
368.4976242363724
 73
     1
 72
     1
 10
-10.97461272281257
 20
-39.03999999993002
 11
-18.71987790787732
 21
-39.03999999993002
 72
     1
 10
-18.71987790787732
 20
-39.03999999993002
 11
-18.71990295232322
 21
-40.95999999992991
 72
     1
 10
-18.71990295232322
 20
-40.95999999992991
 11
-14.27852318285116
 21
-40.95999999992988
 97
        0
 75
     0
 76
     1
 98
        1
 10
-56.49999999999999
 20
-0.0010749287238931
  0
DIMENSION
  5
BF
330
1F
100
AcDbEntity
  8
치수문자_일반주서
100
AcDbDimension
  2
_D
 10
12.00000000000001
 20
16.39618069276
 30
0.0
 11
29.00000000000001
 21
16.39618069276
 31
0.0
 70
   160
  1
<>
 71
     2
 42
33.99999999999999
  3
SLDDIMSTYLE0
100
AcDbAlignedDimension
 13
46.0
 23
9.000000000000105
 33
0.0
 14
12.00000000000001
 24
9.000000000000007
 34
0.0
 50
0.000000000000006
100
AcDbRotatedDimension
  0
DIMENSION
  5
CB
330
1F
100
AcDbEntity
  8
치수문자_일반주서
100
AcDbDimension
  2
_D_1
 10
-94.0
 20
24.0
 30
0.0
 11
-24.00000000000001
 21
24.0
 31
0.0
 70
   160
  1
<>
 71
     2
 42
140.0
  3
SLDDIMSTYLE0
100
AcDbAlignedDimension
 13
46.0
 23
9.000000000000105
 33
0.0
 14
-94.0
 24
7.200000000000012
 34
0.0
 50
0.0000000000000029
100
AcDbRotatedDimension
  0
DIMENSION
  5
D5
330
1F
100
AcDbEntity
  8
치수문자_일반주서
100
AcDbDimension
  2
_D_2
 10
59.64893769785485
 20
-8.999999999999883
 30
0.0
 11
59.64893769785475
 21
20.63458405216977
 31
0.0
 70
   160
  1
%%c<>
 71
     2
 42
18.00000000000004
 52
-270.0
  3
SLDDIMSTYLE0
100
AcDbAlignedDimension
 13
46.0
 23
9.000000000000105
 33
0.0
 14
46.0
 24
-8.99999999999993
 34
0.0
 50
90.0000000000002
100
AcDbRotatedDimension
1001
ACAD_DSTYLE_DIMFLIPARROW_SYMBOL
1070
   385
1070
     0
1001
ACAD_DSTYLE_DIMFLIPARROW_WHICH_SYMBOL
1070
   386
1070
     3
  0
DIMENSION
  5
E1
330
1F
100
AcDbEntity
  8
치수문자_일반주서
100
AcDbDimension
  2
_D_3
 10
-110.5922521638913
 20
-9.000000000000078
 30
0.0
 11
-110.5922521638913
 21
19.54149999999995
 31
0.0
 70
   160
  1
%%c<>
 71
     2
 42
18.00000000000001
 52
-270.0
  3
SLDDIMSTYLE1
100
AcDbAlignedDimension
 13
-92.19999999999999
 23
9.000000000000007
 33
0.0
 14
-92.19999999999999
 24
-9.000000000000009
 34
0.0
 50
90.0000000000002
100
AcDbRotatedDimension
  0
LINE
  5
EF
330
1F
100
AcDbEntity
  8
참조1
100
AcDbLine
 10
70.31348381534563
 20
7.441074928723896
 30
0.0
 11
70.31348381534563
 21
-7.438925071276109
 31
0.0
  0
LINE
  5
F0
330
1F
100
AcDbEntity
  8
참조1
100
AcDbLine
 10
83.01348381534564
 20
5.441074928723896
 30
0.0
 11
70.31348381534563
 21
5.441074928723896
 31
0.0
  0
SOLID
  5
F1
330
1F
100
AcDbEntity
  8
참조1
100
AcDbTrace
 10
70.31348381534563
 20
5.441074928723896
 30
0.0
 11
76.66348381534563
 21
4.425074928723896
 31
0.0
 12
76.66348381534563
 22
6.457074928723896
 32
0.0
 13
76.66348381534563
 23
6.457074928723896
 33
0.0
  0
LINE
  5
F2
330
1F
100
AcDbEntity
  8
참조1
100
AcDbLine
 10
83.01348381534564
 20
-5.438925071276109
 30
0.0
 11
70.31348381534563
 21
-5.438925071276109
 31
0.0
  0
SOLID
  5
F3
330
1F
100
AcDbEntity
  8
참조1
100
AcDbTrace
 10
70.31348381534563
 20
-5.438925071276109
 30
0.0
 11
76.66348381534563
 21
-6.454925071276109
 31
0.0
 12
76.66348381534563
 22
-4.422925071276109
 32
0.0
 13
76.66348381534563
 23
-4.422925071276109
 33
0.0
  0
MTEXT
  5
F4
330
1F
100
AcDbEntity
  8
참조1
100
AcDbMText
 10
79.71097390781591
 20
10.98929157337383
 30
0.0
 40
3.5
 41
0.0
 71
     1
 72
     1
  1
A
  7
SLDTEXTSTYLE0
 73
     1
 44
1.0
  0
MTEXT
  5
F5
330
1F
100
AcDbEntity
  8
참조1
100
AcDbMText
 10
79.71097390781591
 20
0.1092915733738259
 30
0.0
 40
3.5
 41
0.0
 71
     1
 72
     1
  1
A
  7
SLDTEXTSTYLE0
 73
     1
 44
1.0
  0
INSERT
  5
FC
330
1F
100
AcDbEntity
  8
해칭선
100
AcDbBlockReference
  2
SW_DOWELSYMBOL_0
 10
0.0
 20
0.0
 30
0.0
  0
ARC
  5
12E
330
1F
100
AcDbEntity
  8
0
 62
     1
100
AcDbCircle
 10
36.99999999999996
 20
0.0000000000000091
 30
0.0
 40
9.0
100
AcDbArc
 50
262.8686245015168
 51
98.39767222851991
  0
LINE
  5
1B4
330
1F
100
AcDbEntity
  8
외형선
  6
Continuous
370
    15
100
AcDbLine
 10
-76.79998799999986
 20
8.999999999999998
 30
0.0
 11
-92.19999999999999
 21
8.999999999999998
 31
0.0
  0
ENDSEC
  0
SECTION
  2
OBJECTS
  0
DICTIONARY
  5
C
330
0
100
AcDbDictionary
281
     1
  3
ACAD_GROUP
350
D
  3
ACAD_IMAGE_VARS
350
120
  3
ACAD_LAYOUT
350
1A
  3
ACAD_MLINESTYLE
350
17
  3
ACAD_PLOTSETTINGS
350
19
  3
ACAD_PLOTSTYLENAME
350
E
  3
ACAD_SCALELIST
350
47
  3
APPDATA
350
11E
  3
DWGPROPS
350
1DA
  0
DICTIONARY
  5
195
330
2
100
AcDbDictionary
280
     1
281
     1
  3
ACAD_LAYERSTATES
360
196
  0
DICTIONARY
  5
D
102
{ACAD_REACTORS
330
C
102
}
330
C
100
AcDbDictionary
281
     1
  0
RASTERVARIABLES
  5
120
102
{ACAD_REACTORS
330
C
102
}
330
C
100
AcDbRasterVariables
 90
        0
 70
     1
 71
     1
 72
     1
  0
DICTIONARY
  5
1A
102
{ACAD_REACTORS
330
C
102
}
330
C
100
AcDbDictionary
281
     1
  3
Layout1
350
1E
  3
Layout2
350
26
  3
Model
350
22
  0
DICTIONARY
  5
17
102
{ACAD_REACTORS
330
C
102
}
330
C
100
AcDbDictionary
281
     1
  3
Standard
350
18
  0
DICTIONARY
  5
19
102
{ACAD_REACTORS
330
C
102
}
330
C
100
AcDbDictionary
281
     1
  0
ACDBDICTIONARYWDFLT
  5
E
102
{ACAD_REACTORS
330
C
102
}
330
C
100
AcDbDictionary
281
     1
  3
Normal
350
F
100
AcDbDictionaryWithDefault
340
F
  0
DICTIONARY
  5
47
102
{ACAD_REACTORS
330
C
102
}
330
C
100
AcDbDictionary
281
     1
  3
A0
350
48
  3
A1
350
49
  3
A2
350
4A
  3
A3
350
4B
  3
A4
350
4C
  3
A5
350
4D
  3
A6
350
4E
  3
A7
350
4F
  3
A8
350
50
  3
A9
350
51
  3
B0
350
52
  3
B1
350
53
  3
B2
350
54
  3
B3
350
55
  3
B4
350
56
  3
B5
350
57
  3
B6
350
58
  3
B7
350
59
  3
B8
350
5A
  3
B9
350
5B
  3
C0
350
5C
  3
C1
350
5D
  3
C2
350
5E
  3
C3
350
5F
  3
C4
350
60
  3
C5
350
61
  3
C6
350
62
  3
C7
350
63
  3
C8
350
64
  3
C9
350
65
  3
D0
350
66
  3
D1
350
67
  3
D2
350
68
  0
DICTIONARY
  5
11E
102
{ACAD_REACTORS
330
C
102
}
330
C
100
AcDbDictionary
281
     1
  0
XRECORD
  5
1DA
102
{ACAD_REACTORS
330
C
102
}
330
C
100
AcDbXrecord
280
     1
  1
DWGPROPS COOKIE
  2

  3

  4

  6

  7

  8
12016016
  9

300
=
301
=
302
=
303
=
304
=
305
=
306
=
307
=
308
=
309
=
 40
0.0
 41
2458292.131528345
 42
2458295.455508553
  1

 90
        0
  0
DICTIONARY
  5
196
102
{ACAD_REACTORS
330
195
102
}
330
195
100
AcDbDictionary
281
     1
  0
LAYOUT
  5
1E
102
{ACAD_REACTORS
330
1A
102
}
330
1A
100
AcDbPlotSettings
  1

  2
none_device
  4

  6

 40
0.0
 41
0.0
 42
0.0
 43
0.0
 44
0.0
 45
0.0
 46
0.0
 47
0.0
 48
0.0
 49
0.0
140
0.0
141
0.0
142
1.0
143
1.0
 70
   688
 72
     1
 73
     0
 74
     5
  7

 75
    16
147
1.0
148
0.0
149
0.0
100
AcDbLayout
  1
Layout1
 70
     1
 71
     1
 10
0.0
 20
0.0
 11
420.0
 21
297.0
 12
0.0
 22
0.0
 32
0.0
 14
1.000000000000000E+20
 24
1.000000000000000E+20
 34
1.000000000000000E+20
 15
-1.000000000000000E+20
 25
-1.000000000000000E+20
 35
-1.000000000000000E+20
146
0.0
 13
0.0
 23
0.0
 33
0.0
 16
1.0
 26
0.0
 36
0.0
 17
0.0
 27
1.0
 37
0.0
 76
     0
330
1B
  0
LAYOUT
  5
26
102
{ACAD_REACTORS
330
1A
102
}
330
1A
100
AcDbPlotSettings
  1

  2
none_device
  4

  6

 40
0.0
 41
0.0
 42
0.0
 43
0.0
 44
0.0
 45
0.0
 46
0.0
 47
0.0
 48
0.0
 49
0.0
140
0.0
141
0.0
142
1.0
143
1.0
 70
   688
 72
     1
 73
     0
 74
     5
  7

 75
    16
147
1.0
148
0.0
149
0.0
100
AcDbLayout
  1
Layout2
 70
     1
 71
     2
 10
0.0
 20
0.0
 11
0.0
 21
0.0
 12
0.0
 22
0.0
 32
0.0
 14
0.0
 24
0.0
 34
0.0
 15
0.0
 25
0.0
 35
0.0
146
0.0
 13
0.0
 23
0.0
 33
0.0
 16
1.0
 26
0.0
 36
0.0
 17
0.0
 27
1.0
 37
0.0
 76
     0
330
23
  0
LAYOUT
  5
22
102
{ACAD_REACTORS
330
1A
102
}
330
1A
100
AcDbPlotSettings
  1

  2
none_device
  4
ANSI_A_(11.00_x_8.50_Inches)
  6

 40
6.35
 41
19.05
 42
6.35000508
 43
19.05000254
 44
279.4
 45
215.9
 46
95.49086105644837
 47
43.67779482658018
 48
0.0
 49
0.0
140
0.0
141
0.0
142
0.0478578865252212
143
1.0
 70
  1696
 72
     0
 73
     0
 74
     0
  7

 75
     0
147
0.0235690232323232
148
0.0
149
0.0
100
AcDbLayout
  1
Model
 70
     1
 71
     0
 10
0.0
 20
0.0
 11
420.0
 21
297.0
 12
0.0
 22
0.0
 32
0.0
 14
-114.9672521638913
 24
-49.97180738881174
 34
0.0
 15
102.5
 25
28.375
 35
0.0
146
0.0
 13
0.0
 23
0.0
 33
0.0
 16
1.0
 26
0.0
 36
0.0
 17
0.0
 27
1.0
 37
0.0
 76
     0
330
1F
331
29
  0
MLINESTYLE
  5
18
102
{ACAD_REACTORS
330
17
102
}
330
17
100
AcDbMlineStyle
  2
Standard
 70
     0
  3

 62
   256
 51
90.0
 52
90.0
 71
     2
 49
0.5
 62
   256
  6
BYLAYER
 49
-0.5
 62
   256
  6
BYLAYER
  0
ACDBPLACEHOLDER
  5
F
102
{ACAD_REACTORS
330
E
102
}
330
E
  0
SCALE
  5
48
102
{ACAD_REACTORS
330
47
102
}
330
47
100
AcDbScale
 70
     0
300
1:1
140
1.0
141
1.0
290
     1
  0
SCALE
  5
49
102
{ACAD_REACTORS
330
47
102
}
330
47
100
AcDbScale
 70
     0
300
1:2
140
1.0
141
2.0
290
     0
  0
SCALE
  5
4A
102
{ACAD_REACTORS
330
47
102
}
330
47
100
AcDbScale
 70
     0
300
1:4
140
1.0
141
4.0
290
     0
  0
SCALE
  5
4B
102
{ACAD_REACTORS
330
47
102
}
330
47
100
AcDbScale
 70
     0
300
1:5
140
1.0
141
5.0
290
     0
  0
SCALE
  5
4C
102
{ACAD_REACTORS
330
47
102
}
330
47
100
AcDbScale
 70
     0
300
1:8
140
1.0
141
8.0
290
     0
  0
SCALE
  5
4D
102
{ACAD_REACTORS
330
47
102
}
330
47
100
AcDbScale
 70
     0
300
1:10
140
1.0
141
10.0
290
     0
  0
SCALE
  5
4E
102
{ACAD_REACTORS
330
47
102
}
330
47
100
AcDbScale
 70
     0
300
1:16
140
1.0
141
16.0
290
     0
  0
SCALE
  5
4F
102
{ACAD_REACTORS
330
47
102
}
330
47
100
AcDbScale
 70
     0
300
1:20
140
1.0
141
20.0
290
     0
  0
SCALE
  5
50
102
{ACAD_REACTORS
330
47
102
}
330
47
100
AcDbScale
 70
     0
300
1:30
140
1.0
141
30.0
290
     0
  0
SCALE
  5
51
102
{ACAD_REACTORS
330
47
102
}
330
47
100
AcDbScale
 70
     0
300
1:40
140
1.0
141
40.0
290
     0
  0
SCALE
  5
52
102
{ACAD_REACTORS
330
47
102
}
330
47
100
AcDbScale
 70
     0
300
1:50
140
1.0
141
50.0
290
     0
  0
SCALE
  5
53
102
{ACAD_REACTORS
330
47
102
}
330
47
100
AcDbScale
 70
     0
300
1:100
140
1.0
141
100.0
290
     0
  0
SCALE
  5
54
102
{ACAD_REACTORS
330
47
102
}
330
47
100
AcDbScale
 70
     0
300
2:1
140
2.0
141
1.0
290
     0
  0
SCALE
  5
55
102
{ACAD_REACTORS
330
47
102
}
330
47
100
AcDbScale
 70
     0
300
4:1
140
4.0
141
1.0
290
     0
  0
SCALE
  5
56
102
{ACAD_REACTORS
330
47
102
}
330
47
100
AcDbScale
 70
     0
300
8:1
140
8.0
141
1.0
290
     0
  0
SCALE
  5
57
102
{ACAD_REACTORS
330
47
102
}
330
47
100
AcDbScale
 70
     0
300
10:1
140
10.0
141
1.0
290
     0
  0
SCALE
  5
58
102
{ACAD_REACTORS
330
47
102
}
330
47
100
AcDbScale
 70
     0
300
100:1
140
100.0
141
1.0
290
     0
  0
SCALE
  5
59
102
{ACAD_REACTORS
330
47
102
}
330
47
100
AcDbScale
 70
     0
300
1/128" = 1'-0"
140
0.0078125
141
12.0
290
     0
  0
SCALE
  5
5A
102
{ACAD_REACTORS
330
47
102
}
330
47
100
AcDbScale
 70
     0
300
1/64" = 1'-0"
140
0.015625
141
12.0
290
     0
  0
SCALE
  5
5B
102
{ACAD_REACTORS
330
47
102
}
330
47
100
AcDbScale
 70
     0
300
1/32" = 1'-0"
140
0.03125
141
12.0
290
     0
  0
SCALE
  5
5C
102
{ACAD_REACTORS
330
47
102
}
330
47
100
AcDbScale
 70
     0
300
1/16" = 1'-0"
140
0.0625
141
12.0
290
     0
  0
SCALE
  5
5D
102
{ACAD_REACTORS
330
47
102
}
330
47
100
AcDbScale
 70
     0
300
3/32" = 1'-0"
140
0.09375
141
12.0
290
     0
  0
SCALE
  5
5E
102
{ACAD_REACTORS
330
47
102
}
330
47
100
AcDbScale
 70
     0
300
1/8" = 1'-0"
140
0.125
141
12.0
290
     0
  0
SCALE
  5
5F
102
{ACAD_REACTORS
330
47
102
}
330
47
100
AcDbScale
 70
     0
300
3/16" = 1'-0"
140
0.1875
141
12.0
290
     0
  0
SCALE
  5
60
102
{ACAD_REACTORS
330
47
102
}
330
47
100
AcDbScale
 70
     0
300
1/4" = 1'-0"
140
0.25
141
12.0
290
     0
  0
SCALE
  5
61
102
{ACAD_REACTORS
330
47
102
}
330
47
100
AcDbScale
 70
     0
300
3/8" = 1'-0"
140
0.375
141
12.0
290
     0
  0
SCALE
  5
62
102
{ACAD_REACTORS
330
47
102
}
330
47
100
AcDbScale
 70
     0
300
1/2" = 1'-0"
140
0.5
141
12.0
290
     0
  0
SCALE
  5
63
102
{ACAD_REACTORS
330
47
102
}
330
47
100
AcDbScale
 70
     0
300
3/4" = 1'-0"
140
0.75
141
12.0
290
     0
  0
SCALE
  5
64
102
{ACAD_REACTORS
330
47
102
}
330
47
100
AcDbScale
 70
     0
300
1" = 1'-0"
140
1.0
141
12.0
290
     0
  0
SCALE
  5
65
102
{ACAD_REACTORS
330
47
102
}
330
47
100
AcDbScale
 70
     0
300
1-1/2" = 1'-0"
140
1.5
141
12.0
290
     0
  0
SCALE
  5
66
102
{ACAD_REACTORS
330
47
102
}
330
47
100
AcDbScale
 70
     0
300
3" = 1'-0"
140
3.0
141
12.0
290
     0
  0
SCALE
  5
67
102
{ACAD_REACTORS
330
47
102
}
330
47
100
AcDbScale
 70
     0
300
6" = 1'-0"
140
6.0
141
12.0
290
     0
  0
SCALE
  5
68
102
{ACAD_REACTORS
330
47
102
}
330
47
100
AcDbScale
 70
     0
300
1'-0" = 1'-0"
140
12.0
141
12.0
290
     0
  0
ENDSEC
  0
EOF
