  0
SECTION
  2
HEADER
  9
$ACADVER
  1
AC1015
  9
$ACADMAINTVER
 70
     6
  9
$DWGCODEPAGE
  3
ANSI_949
  9
$INSBASE
 10
0.0
 20
0.0
 30
0.0
  9
$EXTMIN
 10
1.000000000000000E+20
 20
1.000000000000000E+20
 30
1.000000000000000E+20
  9
$EXTMAX
 10
-1.000000000000000E+20
 20
-1.000000000000000E+20
 30
-1.000000000000000E+20
  9
$LIMMIN
 10
0.0
 20
0.0
  9
$LIMMAX
 10
420.0
 20
297.0
  9
$ORTHOMODE
 70
     0
  9
$REGENMODE
 70
     1
  9
$FILLMODE
 70
     1
  9
$QTEXTMODE
 70
     0
  9
$MIRRTEXT
 70
     1
  9
$LTSCALE
 40
1.0
  9
$ATTMODE
 70
     1
  9
$TEXTSIZE
 40
3.5
  9
$TRACEWID
 40
1.0
  9
$TEXTSTYLE
  7
Standard
  9
$CLAYER
  8
0
  9
$CELTYPE
  6
ByLayer
  9
$CECOLOR
 62
   256
  9
$CELTSCALE
 40
1.0
  9
$DISPSILH
 70
     0
  9
$DIMSCALE
 40
1.0
  9
$DIMASZ
 40
3.302
  9
$DIMEXO
 40
1.0
  9
$DIMDLI
 40
3.75
  9
$DIMRND
 40
0.0
  9
$DIMDLE
 40
0.0
  9
$DIMEXE
 40
1.0
  9
$DIMTP
 40
0.0
  9
$DIMTM
 40
0.0
  9
$DIMTXT
 40
3.5
  9
$DIMCEN
 40
2.5
  9
$DIMTSZ
 40
0.0
  9
$DIMTOL
 70
     0
  9
$DIMLIM
 70
     0
  9
$DIMTIH
 70
     1
  9
$DIMTOH
 70
     1
  9
$DIMSE1
 70
     0
  9
$DIMSE2
 70
     0
  9
$DIMTAD
 70
     1
  9
$DIMZIN
 70
     0
  9
$DIMBLK
  1

  9
$DIMASO
 70
     1
  9
$DIMSHO
 70
     1
  9
$DIMPOST
  1

  9
$DIMAPOST
  1

  9
$DIMALT
 70
     0
  9
$DIMALTD
 70
     3
  9
$DIMALTF
 40
0.0393700787401575
  9
$DIMLFAC
 40
1.0
  9
$DIMTOFL
 70
     1
  9
$DIMTVP
 40
0.0
  9
$DIMTIX
 70
     0
  9
$DIMSOXD
 70
     0
  9
$DIMSAH
 70
     0
  9
$DIMBLK1
  1

  9
$DIMBLK2
  1

  9
$DIMSTYLE
  2
ISO-25
  9
$DIMCLRD
 70
     0
  9
$DIMCLRE
 70
     0
  9
$DIMCLRT
 70
     0
  9
$DIMTFAC
 40
1.0
  9
$DIMGAP
 40
1.524
  9
$DIMJUST
 70
     0
  9
$DIMSD1
 70
     0
  9
$DIMSD2
 70
     0
  9
$DIMTOLJ
 70
     0
  9
$DIMTZIN
 70
     0
  9
$DIMALTZ
 70
     0
  9
$DIMALTTZ
 70
     0
  9
$DIMUPT
 70
     0
  9
$DIMDEC
 70
     2
  9
$DIMTDEC
 70
     2
  9
$DIMALTU
 70
     2
  9
$DIMALTTD
 70
     3
  9
$DIMTXSTY
  7
Standard
  9
$DIMAUNIT
 70
     0
  9
$DIMADEC
 70
     2
  9
$DIMALTRND
 40
0.0
  9
$DIMAZIN
 70
     0
  9
$DIMDSEP
 70
    44
  9
$DIMATFIT
 70
     3
  9
$DIMFRAC
 70
     0
  9
$DIMLDRBLK
  1

  9
$DIMLUNIT
 70
     2
  9
$DIMLWD
 70
    -2
  9
$DIMLWE
 70
    -2
  9
$DIMTMOVE
 70
     0
  9
$LUNITS
 70
     2
  9
$LUPREC
 70
     2
  9
$SKETCHINC
 40
1.0
  9
$FILLETRAD
 40
10.0
  9
$AUNITS
 70
     0
  9
$AUPREC
 70
     2
  9
$MENU
  1
.
  9
$ELEVATION
 40
0.0
  9
$PELEVATION
 40
0.0
  9
$THICKNESS
 40
0.0
  9
$LIMCHECK
 70
     0
  9
$CHAMFERA
 40
0.0
  9
$CHAMFERB
 40
0.0
  9
$CHAMFERC
 40
0.0
  9
$CHAMFERD
 40
0.0
  9
$SKPOLY
 70
     0
  9
$TDCREATE
 40
2458292.50690588
  9
$TDUCREATE
 40
2458292.13190588
  9
$TDUPDATE
 40
2458295.824958171
  9
$TDUUPDATE
 40
2458295.449958171
  9
$TDINDWG
 40
0.0044445833
  9
$TDUSRTIMER
 40
2458295.449670035
  9
$USRTIMER
 70
     1
  9
$ANGBASE
 50
0.0
  9
$ANGDIR
 70
     0
  9
$PDMODE
 70
     0
  9
$PDSIZE
 40
-1.0
  9
$PLINEWID
 40
0.0
  9
$SPLFRAME
 70
     0
  9
$SPLINETYPE
 70
     6
  9
$SPLINESEGS
 70
     8
  9
$HANDSEED
  5
1AD
  9
$SURFTAB1
 70
     6
  9
$SURFTAB2
 70
     6
  9
$SURFTYPE
 70
     6
  9
$SURFU
 70
     6
  9
$SURFV
 70
     6
  9
$UCSBASE
  2

  9
$UCSNAME
  2

  9
$UCSORG
 10
0.0
 20
0.0
 30
0.0
  9
$UCSXDIR
 10
1.0
 20
0.0
 30
0.0
  9
$UCSYDIR
 10
0.0
 20
1.0
 30
0.0
  9
$UCSORTHOREF
  2

  9
$UCSORTHOVIEW
 70
     0
  9
$UCSORGTOP
 10
0.0
 20
0.0
 30
0.0
  9
$UCSORGBOTTOM
 10
0.0
 20
0.0
 30
0.0
  9
$UCSORGLEFT
 10
0.0
 20
0.0
 30
0.0
  9
$UCSORGRIGHT
 10
0.0
 20
0.0
 30
0.0
  9
$UCSORGFRONT
 10
0.0
 20
0.0
 30
0.0
  9
$UCSORGBACK
 10
0.0
 20
0.0
 30
0.0
  9
$PUCSBASE
  2

  9
$PUCSNAME
  2

  9
$PUCSORG
 10
0.0
 20
0.0
 30
0.0
  9
$PUCSXDIR
 10
1.0
 20
0.0
 30
0.0
  9
$PUCSYDIR
 10
0.0
 20
1.0
 30
0.0
  9
$PUCSORTHOREF
  2

  9
$PUCSORTHOVIEW
 70
     0
  9
$PUCSORGTOP
 10
0.0
 20
0.0
 30
0.0
  9
$PUCSORGBOTTOM
 10
0.0
 20
0.0
 30
0.0
  9
$PUCSORGLEFT
 10
0.0
 20
0.0
 30
0.0
  9
$PUCSORGRIGHT
 10
0.0
 20
0.0
 30
0.0
  9
$PUCSORGFRONT
 10
0.0
 20
0.0
 30
0.0
  9
$PUCSORGBACK
 10
0.0
 20
0.0
 30
0.0
  9
$USERI1
 70
     0
  9
$USERI2
 70
     0
  9
$USERI3
 70
     0
  9
$USERI4
 70
     0
  9
$USERI5
 70
     0
  9
$USERR1
 40
0.0
  9
$USERR2
 40
0.0
  9
$USERR3
 40
0.0
  9
$USERR4
 40
0.0
  9
$USERR5
 40
0.0
  9
$WORLDVIEW
 70
     1
  9
$SHADEDGE
 70
     3
  9
$SHADEDIF
 70
    70
  9
$TILEMODE
 70
     1
  9
$MAXACTVP
 70
    64
  9
$PINSBASE
 10
0.0
 20
0.0
 30
0.0
  9
$PLIMCHECK
 70
     0
  9
$PEXTMIN
 10
1.000000000000000E+20
 20
1.000000000000000E+20
 30
1.000000000000000E+20
  9
$PEXTMAX
 10
-1.000000000000000E+20
 20
-1.000000000000000E+20
 30
-1.000000000000000E+20
  9
$PLIMMIN
 10
0.0
 20
0.0
  9
$PLIMMAX
 10
0.0
 20
0.0
  9
$UNITMODE
 70
     0
  9
$VISRETAIN
 70
     1
  9
$PLINEGEN
 70
     0
  9
$PSLTSCALE
 70
     1
  9
$TREEDEPTH
 70
  3020
  9
$CMLSTYLE
  2
Standard
  9
$CMLJUST
 70
     0
  9
$CMLSCALE
 40
20.0
  9
$PROXYGRAPHICS
 70
     1
  9
$MEASUREMENT
 70
     1
  9
$CELWEIGHT
370
    -1
  9
$ENDCAPS
280
     0
  9
$JOINSTYLE
280
     0
  9
$LWDISPLAY
290
     1
  9
$INSUNITS
 70
     4
  9
$HYPERLINKBASE
  1

  9
$STYLESHEET
  1

  9
$XEDIT
290
     1
  9
$CEPSNTYPE
380
     0
  9
$PSTYLEMODE
290
     1
  9
$FINGERPRINTGUID
  2
{6F1AA2DE-7906-44C3-B1B7-F245D2E18AA6}
  9
$VERSIONGUID
  2
{FAEB1C32-E019-11D5-929B-00C0DF256EC4}
  9
$EXTNAMES
290
     1
  9
$PSVPSCALE
 40
0.0
  9
$OLESTARTUP
290
     0
  0
ENDSEC
  0
SECTION
  2
CLASSES
  0
CLASS
  1
ACDBDICTIONARYWDFLT
  2
AcDbDictionaryWithDefault
  3
ObjectDBX Classes
 90
        0
280
     0
281
     0
  0
CLASS
  1
VISUALSTYLE
  2
AcDbVisualStyle
  3
ObjectDBX Classes
 90
     4095
280
     0
281
     0
  0
CLASS
  1
MATERIAL
  2
AcDbMaterial
  3
ObjectDBX Classes
 90
     1153
280
     0
281
     0
  0
CLASS
  1
SCALE
  2
AcDbScale
  3
ObjectDBX Classes
 90
     1153
280
     0
281
     0
  0
CLASS
  1
SUN
  2
AcDbSun
  3
SCENEOE
 90
     1153
280
     0
281
     0
  0
CLASS
  1
ACDBPLACEHOLDER
  2
AcDbPlaceHolder
  3
ObjectDBX Classes
 90
        0
280
     0
281
     0
  0
CLASS
  1
LAYOUT
  2
AcDbLayout
  3
ObjectDBX Classes
 90
        0
280
     0
281
     0
  0
CLASS
  1
TABLESTYLE
  2
AcDbTableStyle
  3
ObjectDBX Classes
 90
     4095
280
     0
281
     0
  0
CLASS
  1
MLEADERSTYLE
  2
AcDbMLeaderStyle
  3
ACDB_MLEADERSTYLE_CLASS
 90
     4095
280
     0
281
     0
  0
CLASS
  1
RASTERVARIABLES
  2
AcDbRasterVariables
  3
ISM
 90
        0
280
     0
281
     0
  0
ENDSEC
  0
SECTION
  2
TABLES
  0
TABLE
  2
VPORT
  5
8
330
0
100
AcDbSymbolTable
 70
     1
  0
VPORT
  5
29
330
8
100
AcDbSymbolTableRecord
100
AcDbViewportTableRecord
  2
*Active
 70
     0
 10
0.0
 20
0.0
 11
1.0
 21
1.0
 12
-86.64676050534578
 22
-45.86528679101144
 13
0.0
 23
0.0
 14
10.0
 24
10.0
 15
10.0
 25
10.0
 16
0.0
 26
0.0
 36
1.0
 17
0.0
 27
0.0
 37
0.0
 40
229.6623423417473
 41
1.546332046332046
 42
50.0
 43
0.0
 44
0.0
 50
0.0
 51
0.0
 71
    16
 72
  2000
 73
     1
 74
     3
 75
     0
 76
     0
 77
     0
 78
     0
281
     0
 65
     1
110
0.0
120
0.0
130
0.0
111
1.0
121
0.0
131
0.0
112
0.0
122
1.0
132
0.0
 79
     0
146
0.0
  0
ENDTAB
  0
TABLE
  2
LTYPE
  5
5
330
0
100
AcDbSymbolTable
 70
     6
  0
LTYPE
  5
14
330
5
100
AcDbSymbolTableRecord
100
AcDbLinetypeTableRecord
  2
ByBlock
 70
     0
  3

 72
    65
 73
     0
 40
0.0
  0
LTYPE
  5
15
330
5
100
AcDbSymbolTableRecord
100
AcDbLinetypeTableRecord
  2
ByLayer
 70
     0
  3

 72
    65
 73
     0
 40
0.0
  0
LTYPE
  5
16
330
5
100
AcDbSymbolTableRecord
100
AcDbLinetypeTableRecord
  2
Continuous
 70
     0
  3
Solid line
 72
    65
 73
     0
 40
0.0
  0
LTYPE
  5
6A
330
5
100
AcDbSymbolTableRecord
100
AcDbLinetypeTableRecord
  2
HIDDEN
 70
     0
  3
Hidden __ __ __ __ __ __ __ __ __ __ __ __ __ __
 72
    65
 73
     2
 40
1.905
 49
1.27
 74
     0
 49
-0.635
 74
     0
  0
LTYPE
  5
6B
330
5
100
AcDbSymbolTableRecord
100
AcDbLinetypeTableRecord
  2
PHANTOM
 70
     0
  3
Phantom ______  __  __  ______  __  __  ______
 72
    65
 73
     6
 40
12.7
 49
6.35
 74
     0
 49
-1.27
 74
     0
 49
1.27
 74
     0
 49
-1.27
 74
     0
 49
1.27
 74
     0
 49
-1.27
 74
     0
  0
LTYPE
  5
6C
330
5
100
AcDbSymbolTableRecord
100
AcDbLinetypeTableRecord
  2
CENTER
 70
     0
  3
Center ____ _ ____ _ ____ _ ____ _ ____ _ ____
 72
    65
 73
     4
 40
10.16
 49
6.35
 74
     0
 49
-1.27
 74
     0
 49
1.27
 74
     0
 49
-1.27
 74
     0
  0
LTYPE
  5
6D
330
5
100
AcDbSymbolTableRecord
100
AcDbLinetypeTableRecord
  2
CENTERX2
 70
     0
  3
Center (2x) ________  __  ________  __  _____
 72
    65
 73
     4
 40
20.32
 49
12.7
 74
     0
 49
-2.54
 74
     0
 49
2.54
 74
     0
 49
-2.54
 74
     0
  0
LTYPE
  5
6E
330
5
100
AcDbSymbolTableRecord
100
AcDbLinetypeTableRecord
  2
DOT2
 70
     0
  3
Dot (.5x) ........................................
 72
    65
 73
     2
 40
0.635
 49
0.0
 74
     0
 49
-0.635
 74
     0
  0
ENDTAB
  0
TABLE
  2
LAYER
  5
2
102
{ACAD_XDICTIONARY
360
18C
102
}
330
0
100
AcDbSymbolTable
 70
    20
  0
LAYER
  5
10
330
2
100
AcDbSymbolTableRecord
100
AcDbLayerTableRecord
  2
0
 70
     0
 62
     7
  6
Continuous
370
    -3
390
F
  0
LAYER
  5
6F
330
2
100
AcDbSymbolTableRecord
100
AcDbLayerTableRecord
  2
FORMAT
 70
     0
 62
     2
  6
Continuous
370
    -3
390
F
  0
LAYER
  5
70
330
2
100
AcDbSymbolTableRecord
100
AcDbLayerTableRecord
  2
외형선
 70
     0
 62
     4
  6
Continuous
370
    30
390
F
  0
LAYER
  5
71
330
2
100
AcDbSymbolTableRecord
100
AcDbLayerTableRecord
  2
숨은선
 70
     0
 62
     2
  6
HIDDEN
370
    15
390
F
  0
LAYER
  5
72
330
2
100
AcDbSymbolTableRecord
100
AcDbLayerTableRecord
  2
중심선
 70
     0
 62
     1
  6
CENTERX2
370
    -3
390
F
  0
LAYER
  5
73
330
2
100
AcDbSymbolTableRecord
100
AcDbLayerTableRecord
  2
파단선
 70
     0
 62
     4
  6
Continuous
370
    -3
390
F
  0
LAYER
  5
74
330
2
100
AcDbSymbolTableRecord
100
AcDbLayerTableRecord
  2
해칭선
 70
     0
 62
   100
  6
Continuous
370
    -3
390
F
  0
LAYER
  5
75
330
2
100
AcDbSymbolTableRecord
100
AcDbLayerTableRecord
  2
가는실선
 70
     0
 62
     4
  6
Continuous
370
    -3
390
F
  0
LAYER
  5
76
330
2
100
AcDbSymbolTableRecord
100
AcDbLayerTableRecord
  2
치수_보조선
 70
     0
 62
     4
  6
Continuous
370
    -3
390
F
  0
LAYER
  5
77
330
2
100
AcDbSymbolTableRecord
100
AcDbLayerTableRecord
  2
치수문자_일반주서
 70
     0
 62
     7
  6
Continuous
370
    15
390
F
  0
LAYER
  5
78
330
2
100
AcDbSymbolTableRecord
100
AcDbLayerTableRecord
  2
개별주서
 70
     0
 62
   100
  6
Continuous
370
    30
390
F
  0
LAYER
  5
79
330
2
100
AcDbSymbolTableRecord
100
AcDbLayerTableRecord
  2
중간선
 70
     0
 62
     2
  6
Continuous
370
    15
390
F
  0
LAYER
  5
7A
330
2
100
AcDbSymbolTableRecord
100
AcDbLayerTableRecord
  2
윤곽선
 70
     0
 62
     3
  6
Continuous
370
    40
390
F
  0
LAYER
  5
7B
330
2
100
AcDbSymbolTableRecord
100
AcDbLayerTableRecord
  2
중심마크
 70
     0
 62
   100
  6
Continuous
370
    30
390
F
  0
LAYER
  5
7C
330
2
100
AcDbSymbolTableRecord
100
AcDbLayerTableRecord
  2
가상선
 70
     0
 62
     4
  6
PHANTOM
370
    -3
390
F
  0
LAYER
  5
7D
330
2
100
AcDbSymbolTableRecord
100
AcDbLayerTableRecord
  2
특수지정선
 70
     0
 62
     5
  6
CENTERX2
370
    60
390
F
  0
LAYER
  5
7E
330
2
100
AcDbSymbolTableRecord
100
AcDbLayerTableRecord
  2
참조1
 70
     0
 62
    -4
  6
Continuous
370
    -3
390
F
  0
LAYER
  5
11E
330
2
100
AcDbSymbolTableRecord
100
AcDbLayerTableRecord
  2
Defpoints
 70
     0
 62
     7
  6
Continuous
290
     0
370
    -3
390
F
  0
LAYER
  5
154
330
2
100
AcDbSymbolTableRecord
100
AcDbLayerTableRecord
  2
CENTER
 70
     0
 62
     2
  6
CENTER
370
    -3
390
F
1001
AcAecLayerStandard
1000

1000

  0
LAYER
  5
158
330
2
100
AcDbSymbolTableRecord
100
AcDbLayerTableRecord
  2
CUT
 70
     0
 62
     1
  6
Continuous
370
    -3
390
F
1001
AcAecLayerStandard
1000

1000

  0
ENDTAB
  0
TABLE
  2
STYLE
  5
3
330
0
100
AcDbSymbolTable
 70
     2
  0
STYLE
  5
11
330
3
100
AcDbSymbolTableRecord
100
AcDbTextStyleTableRecord
  2
Standard
 70
     0
 40
0.0
 41
1.0
 50
0.0
 71
     0
 42
3.5
  3
txt
  4

  0
STYLE
  5
94
330
3
100
AcDbSymbolTableRecord
100
AcDbTextStyleTableRecord
  2
SLDTEXTSTYLE0
 70
     0
 40
0.0
 41
0.75
 50
0.0
 71
     0
 42
3.5
  3
TXT
  4

  0
ENDTAB
  0
TABLE
  2
VIEW
  5
6
330
0
100
AcDbSymbolTable
 70
     0
  0
ENDTAB
  0
TABLE
  2
UCS
  5
7
330
0
100
AcDbSymbolTable
 70
     0
  0
ENDTAB
  0
TABLE
  2
APPID
  5
9
330
0
100
AcDbSymbolTable
 70
     2
  0
APPID
  5
12
330
9
100
AcDbSymbolTableRecord
100
AcDbRegAppTableRecord
  2
ACAD
 70
     0
  0
APPID
  5
157
330
9
100
AcDbSymbolTableRecord
100
AcDbRegAppTableRecord
  2
AcAecLayerStandard
 70
     0
  0
ENDTAB
  0
TABLE
  2
DIMSTYLE
  5
A
330
0
100
AcDbSymbolTable
 70
     3
100
AcDbDimStyleTable
  0
DIMSTYLE
105
27
330
A
100
AcDbSymbolTableRecord
100
AcDbDimStyleTableRecord
  2
ISO-25
 70
     0
 41
2.5
 42
0.625
 43
3.75
 44
1.25
 73
     0
 74
     0
 77
     1
 78
     8
140
2.5
141
2.5
143
0.03937007874016
147
0.625
171
     3
172
     1
178
     0
271
     2
272
     2
274
     3
278
    44
283
     0
284
     8
340
11
  0
DIMSTYLE
105
C1
102
{ACAD_REACTORS
330
C0
330
CC
330
D6
102
}
330
A
100
AcDbSymbolTableRecord
100
AcDbDimStyleTableRecord
  2
SLDDIMSTYLE0
 70
     0
 41
3.302
 44
0.0
 45
0.000000001
 73
     0
 74
     0
 77
     1
 78
    12
 79
     3
140
3.5
147
0.875
173
     1
178
     0
271
     2
272
     2
276
     2
284
    12
340
94
  0
DIMSTYLE
105
E1
102
{ACAD_REACTORS
330
E0
102
}
330
A
100
AcDbSymbolTableRecord
100
AcDbDimStyleTableRecord
  2
SLDDIMSTYLE1
 70
     0
 41
3.302
 44
0.0
 45
0.000000001
 73
     0
 74
     0
 77
     1
 78
    12
 79
     3
140
3.5
147
0.875
172
     1
173
     1
178
     0
271
     2
272
     2
276
     2
284
    12
289
     0
340
94
  0
ENDTAB
  0
TABLE
  2
BLOCK_RECORD
  5
1
330
0
100
AcDbSymbolTable
 70
     8
  0
BLOCK_RECORD
  5
1F
330
1
100
AcDbSymbolTableRecord
100
AcDbBlockTableRecord
  2
*Model_Space
340
22
  0
BLOCK_RECORD
  5
1B
330
1
100
AcDbSymbolTableRecord
100
AcDbBlockTableRecord
  2
*Paper_Space
340
1E
  0
BLOCK_RECORD
  5
23
330
1
100
AcDbSymbolTableRecord
100
AcDbBlockTableRecord
  2
*Paper_Space0
340
26
  0
BLOCK_RECORD
  5
7F
330
1
100
AcDbSymbolTableRecord
100
AcDbBlockTableRecord
  2
블럭10
340
0
102
{BLKREFS
331
B9
102
}
  0
BLOCK_RECORD
  5
C2
330
1
100
AcDbSymbolTableRecord
100
AcDbBlockTableRecord
  2
_D
340
0
  0
BLOCK_RECORD
  5
CD
330
1
100
AcDbSymbolTableRecord
100
AcDbBlockTableRecord
  2
_D_1
340
0
  0
BLOCK_RECORD
  5
D7
330
1
100
AcDbSymbolTableRecord
100
AcDbBlockTableRecord
  2
_D_2
340
0
  0
BLOCK_RECORD
  5
E2
330
1
100
AcDbSymbolTableRecord
100
AcDbBlockTableRecord
  2
_D_3
340
0
  0
BLOCK_RECORD
  5
F3
330
1
100
AcDbSymbolTableRecord
100
AcDbBlockTableRecord
  2
SW_DOWELSYMBOL_0
340
0
102
{BLKREFS
331
F9
102
}
  0
ENDTAB
  0
ENDSEC
  0
SECTION
  2
BLOCKS
  0
BLOCK
  5
20
330
1F
100
AcDbEntity
  8
0
100
AcDbBlockBegin
  2
*Model_Space
 70
     0
 10
0.0
 20
0.0
 30
0.0
  3
*Model_Space
  1
*Model_Space
  0
ENDBLK
  5
21
330
1F
100
AcDbEntity
  8
0
100
AcDbBlockEnd
  0
BLOCK
  5
1C
330
1B
100
AcDbEntity
 67
     1
  8
0
100
AcDbBlockBegin
  2
*Paper_Space
 70
     0
 10
0.0
 20
0.0
 30
0.0
  3
*Paper_Space
  1
*Paper_Space
  0
ENDBLK
  5
1D
330
1B
100
AcDbEntity
 67
     1
  8
0
100
AcDbBlockEnd
  0
BLOCK
  5
24
330
23
100
AcDbEntity
  8
0
100
AcDbBlockBegin
  2
*Paper_Space0
 70
     0
 10
0.0
 20
0.0
 30
0.0
  3
*Paper_Space0
  1
*Paper_Space0
  0
ENDBLK
  5
25
330
23
100
AcDbEntity
  8
0
100
AcDbBlockEnd
  0
BLOCK
  5
80
330
7F
100
AcDbEntity
  8
0
100
AcDbBlockBegin
  2
블럭10
 70
     2
 10
0.0
 20
0.0
 30
0.0
  3
블럭10
  1
블럭10
  0
ELLIPSE
  5
82
330
7F
100
AcDbEntity
  8
중심선
100
AcDbEllipse
 10
20.54032771741204
 20
12.0471743016438
 30
0.0
 11
6.600054785286829
 21
-1.261213355974178E-13
 31
0.0
210
0.0
220
0.0
230
1.0
 40
0.636358354079598
 41
0.9219305317359503
 42
6.513795318482858
  0
ELLIPSE
  5
83
330
7F
100
AcDbEntity
  8
중심선
100
AcDbEllipse
 10
20.54032771746488
 20
12.04717430159265
 30
0.0
 11
3.960054785062283
 21
1.540847449632565E-10
 31
0.0
210
0.0
220
0.0
230
1.0
 40
0.3939339440162632
 41
1.131841032648279
 42
5.62031148352944
  0
LINE
  5
84
330
7F
100
AcDbEntity
  8
중심선
100
AcDbLine
 10
2.268634060543552
 20
16.24717430164393
 30
0.0
 11
5.714909304380834
 21
16.24717430164393
 31
0.0
  0
LINE
  5
85
330
7F
100
AcDbEntity
  8
중심선
100
AcDbLine
 10
5.245725140726316
 20
7.84717430164391
 30
0.0
 11
8.692000384563599
 21
7.84717430164391
 31
0.0
  0
LINE
  5
86
330
7F
100
AcDbEntity
  8
중심선
100
AcDbLine
 10
15.74043728645272
 20
16.24717430164393
 30
0.0
 11
8.692000384563599
 21
7.84717430164391
 31
0.0
  0
LINE
  5
87
330
7F
100
AcDbEntity
  8
중심선
100
AcDbLine
 10
0.1404042013395286
 20
13.71084872107135
 30
0.0
 11
3.58671253028996
 21
13.71088815037384
 31
0.0
  0
LINE
  5
88
330
7F
100
AcDbEntity
  8
중심선
100
AcDbLine
 10
2.750260043222114
 20
10.84717430164391
 30
0.0
 11
6.196535287059397
 21
10.84717430164391
 31
0.0
  0
LINE
  5
89
330
7F
100
AcDbEntity
  8
중심선
100
AcDbLine
 10
12.29416204261559
 20
16.24717430164393
 30
0.0
 11
5.245725140726316
 21
7.84717430164391
 31
0.0
  0
LINE
  5
8A
330
7F
100
AcDbEntity
  8
중심선
100
AcDbLine
 10
10.72767329541681
 20
16.24717430164393
 30
0.0
 11
6.196535287059397
 21
10.84717430164391
 31
0.0
  0
LINE
  5
8B
330
7F
100
AcDbEntity
  8
중심선
100
AcDbLine
 10
7.28139805157953
 20
16.24717430164393
 30
0.0
 11
2.750260043222114
 21
10.84717430164391
 31
0.0
  0
LINE
  5
8C
330
7F
100
AcDbEntity
  8
중심선
100
AcDbLine
 10
5.714909304380834
 20
16.24717430164393
 30
0.0
 11
3.58671253028996
 21
13.71088815037384
 31
0.0
  0
LINE
  5
8D
330
7F
100
AcDbEntity
  8
중심선
100
AcDbLine
 10
2.268634060543552
 20
16.24717430164393
 30
0.0
 11
0.1404042013395286
 21
13.71084872107135
 31
0.0
  0
LINE
  5
8E
330
7F
100
AcDbEntity
  8
중심선
100
AcDbLine
 10
7.28139805157953
 20
16.24717430164393
 30
0.0
 11
10.72767329541681
 21
16.24717430164393
 31
0.0
  0
LINE
  5
8F
330
7F
100
AcDbEntity
  8
중심선
100
AcDbLine
 10
12.29416204261559
 20
16.24717430164393
 30
0.0
 11
15.74043728645272
 21
16.24717430164393
 31
0.0
  0
LINE
  5
90
330
7F
100
AcDbEntity
  8
중심선
100
AcDbLine
 10
19.22036997980202
 20
11.08717430171403
 30
0.0
 11
23.66174974927406
 21
11.08717430171406
 31
0.0
  0
LINE
  5
91
330
7F
100
AcDbEntity
  8
중심선
100
AcDbLine
 10
19.22039502424796
 20
13.00717430171391
 30
0.0
 11
19.22036997980202
 21
11.08717430171403
 31
0.0
  0
LINE
  5
92
330
7F
100
AcDbEntity
  8
중심선
100
AcDbLine
 10
19.22039502424796
 20
13.00717430171391
 30
0.0
 11
26.96566020931264
 21
13.00717430171391
 31
0.0
  0
LINE
  5
93
330
7F
100
AcDbEntity
  8
중심선
100
AcDbLine
 10
22.22332737316547
 20
13.45928029700563
 30
0.0
 11
24.52862924686651
 21
15.39360700705356
 31
0.0
  0
ATTDEF
  5
95
330
7F
100
AcDbEntity
  8
FORMAT
 62
     2
100
AcDbText
 10
3.448148490846466
 20
2.075366912832191
 30
0.0
 40
4.233333333333333
  1
EM825250
 41
0.75
  7
SLDTEXTSTYLE0
 11
3.448148490846466
 21
-0.0412997538344756
 31
0.0
100
AcDbAttributeDefinition
  3

  2
AUTOATTR0
 70
     0
 74
     1
  0
ENDBLK
  5
81
330
7F
100
AcDbEntity
  8
0
100
AcDbBlockEnd
  0
BLOCK
  5
C3
330
C2
100
AcDbEntity
  8
0
100
AcDbBlockBegin
  2
_D
 70
     0
 10
0.0
 20
0.0
 30
0.0
  3
_D
  1
_D
  0
LINE
  5
C5
330
C2
100
AcDbEntity
  8
치수문자_일반주서
 62
     0
370
    -2
100
AcDbLine
 10
62.00000000000003
 20
12.56250000000014
 30
0.0
 11
62.00000000000003
 21
24.59279116606513
 31
0.0
  0
LINE
  5
C6
330
C2
100
AcDbEntity
  8
치수문자_일반주서
 62
     0
370
    -2
100
AcDbLine
 10
11.99999999999997
 20
12.56250000000001
 30
0.0
 11
11.99999999999997
 21
24.59279116606513
 31
0.0
  0
LINE
  5
C7
330
C2
100
AcDbEntity
  8
치수문자_일반주서
 62
     0
370
    -2
100
AcDbLine
 10
58.69800000000003
 20
24.59279116606513
 30
0.0
 11
15.30199999999997
 21
24.59279116606513
 31
0.0
  0
SOLID
  5
C8
330
C2
100
AcDbEntity
  8
치수문자_일반주서
 62
     0
100
AcDbTrace
 10
58.69800000000003
 20
24.04245783273179
 30
0.0
 11
58.69800000000003
 21
25.14312449939846
 31
0.0
 12
62.00000000000003
 22
24.59279116606513
 32
0.0
 13
62.00000000000003
 23
24.59279116606513
 33
0.0
  0
SOLID
  5
C9
330
C2
100
AcDbEntity
  8
치수문자_일반주서
 62
     0
100
AcDbTrace
 10
15.30199999999997
 20
25.14312449939846
 30
0.0
 11
15.30199999999997
 21
24.04245783273179
 31
0.0
 12
11.99999999999997
 22
24.59279116606513
 32
0.0
 13
11.99999999999997
 23
24.59279116606513
 33
0.0
  0
MTEXT
  5
CA
330
C2
100
AcDbEntity
  8
치수문자_일반주서
 62
     0
100
AcDbMText
 10
37.0
 20
28.96779116606513
 30
0.0
 40
3.5
 41
0.0
 71
     2
 72
     1
  1
\A1;50
  7
SLDTEXTSTYLE0
 73
     1
 44
1.0
  0
POINT
  5
CB
330
C2
100
AcDbEntity
  8
Defpoints
 62
     0
100
AcDbPoint
 10
62.00000000000003
 20
12.50000000000014
 30
0.0
  0
POINT
  5
128
330
C2
100
AcDbEntity
  8
Defpoints
 62
     0
100
AcDbPoint
 10
11.99999999999997
 20
12.50000000000001
 30
0.0
  0
POINT
  5
129
330
C2
100
AcDbEntity
  8
Defpoints
 62
     0
100
AcDbPoint
 10
11.99999999999997
 20
24.59279116606513
 30
0.0
  0
ENDBLK
  5
C4
330
C2
100
AcDbEntity
  8
0
100
AcDbBlockEnd
  0
BLOCK
  5
CE
330
CD
100
AcDbEntity
  8
0
100
AcDbBlockBegin
  2
_D_1
 70
     0
 10
0.0
 20
0.0
 30
0.0
  3
_D_1
  1
_D_1
  0
LINE
  5
D0
330
CD
100
AcDbEntity
  8
치수문자_일반주서
 62
     0
370
    -2
100
AcDbLine
 10
62.00000000000003
 20
12.56250000000014
 30
0.0
 11
62.00000000000003
 21
36.62308233213011
 31
0.0
  0
LINE
  5
D1
330
CD
100
AcDbEntity
  8
치수문자_일반주서
 62
     0
370
    -2
100
AcDbLine
 10
-118.0
 20
10.06250000000001
 30
0.0
 11
-118.0
 21
36.62308233213011
 31
0.0
  0
LINE
  5
D2
330
CD
100
AcDbEntity
  8
치수문자_일반주서
 62
     0
370
    -2
100
AcDbLine
 10
58.69800000000003
 20
36.62308233213011
 30
0.0
 11
-114.698
 21
36.62308233213011
 31
0.0
  0
SOLID
  5
D3
330
CD
100
AcDbEntity
  8
치수문자_일반주서
 62
     0
100
AcDbTrace
 10
58.69800000000003
 20
36.07274899879678
 30
0.0
 11
58.69800000000003
 21
37.17341566546344
 31
0.0
 12
62.00000000000003
 22
36.62308233213011
 32
0.0
 13
62.00000000000003
 23
36.62308233213011
 33
0.0
  0
SOLID
  5
D4
330
CD
100
AcDbEntity
  8
치수문자_일반주서
 62
     0
100
AcDbTrace
 10
-114.698
 20
37.17341566546344
 30
0.0
 11
-114.698
 21
36.07274899879678
 31
0.0
 12
-118.0
 22
36.62308233213011
 32
0.0
 13
-118.0
 23
36.62308233213011
 33
0.0
  0
MTEXT
  5
D5
330
CD
100
AcDbEntity
  8
치수문자_일반주서
 62
     0
100
AcDbMText
 10
-27.75492449981078
 20
40.99808233213011
 30
0.0
 40
3.5
 41
0.0
 71
     2
 72
     1
  1
\A1;180
  7
SLDTEXTSTYLE0
 73
     1
 44
1.0
  0
POINT
  5
12A
330
CD
100
AcDbEntity
  8
Defpoints
 62
     0
100
AcDbPoint
 10
62.00000000000003
 20
12.50000000000014
 30
0.0
  0
POINT
  5
12B
330
CD
100
AcDbEntity
  8
Defpoints
 62
     0
100
AcDbPoint
 10
-118.0
 20
10.00000000000001
 30
0.0
  0
POINT
  5
12C
330
CD
100
AcDbEntity
  8
Defpoints
 62
     0
100
AcDbPoint
 10
-118.0
 20
36.62308233213011
 30
0.0
  0
ENDBLK
  5
CF
330
CD
100
AcDbEntity
  8
0
100
AcDbBlockEnd
  0
BLOCK
  5
D8
330
D7
100
AcDbEntity
  8
0
100
AcDbBlockBegin
  2
_D_2
 70
     0
 10
0.0
 20
0.0
 30
0.0
  3
_D_2
  1
_D_2
  0
LINE
  5
DA
330
D7
100
AcDbEntity
  8
치수문자_일반주서
 62
     0
370
    -2
100
AcDbLine
 10
62.06250000000003
 20
12.50000000000014
 30
0.0
 11
76.55341122947941
 21
12.50000000000019
 31
0.0
  0
LINE
  5
DB
330
D7
100
AcDbEntity
  8
치수문자_일반주서
 62
     0
370
    -2
100
AcDbLine
 10
62.06250000000003
 20
-12.4999999999998
 30
0.0
 11
76.5534112294795
 21
-12.49999999999975
 31
0.0
  0
LINE
  5
DC
330
D7
100
AcDbEntity
  8
치수문자_일반주서
 62
     0
370
    -2
100
AcDbLine
 10
76.55341122947941
 20
12.50000000000019
 30
0.0
 11
76.55341122947935
 21
27.77312681536241
 31
0.0
  0
LINE
  5
DD
330
D7
100
AcDbEntity
  8
치수문자_일반주서
 62
     0
370
    -2
100
AcDbLine
 10
76.55341122947942
 20
9.198000000000189
 30
0.0
 11
76.55341122947948
 21
-9.197999999999748
 31
0.0
  0
SOLID
  5
DE
330
D7
100
AcDbEntity
  8
치수문자_일반주서
 62
     0
100
AcDbTrace
 10
77.10374456281275
 20
9.19800000000019
 30
0.0
 11
76.0030778961461
 21
9.198000000000187
 31
0.0
 12
76.55341122947941
 22
12.50000000000019
 32
0.0
 13
76.55341122947941
 23
12.50000000000019
 33
0.0
  0
SOLID
  5
DF
330
D7
100
AcDbEntity
  8
치수문자_일반주서
 62
     0
100
AcDbTrace
 10
76.00307789614615
 20
-9.19799999999975
 30
0.0
 11
77.1037445628128
 21
-9.197999999999746
 31
0.0
 12
76.5534112294795
 22
-12.49999999999975
 32
0.0
 13
76.5534112294795
 23
-12.49999999999975
 33
0.0
  0
MTEXT
  5
124
330
D7
100
AcDbEntity
  8
치수문자_일반주서
 62
     0
100
AcDbMText
 10
72.17841122947937
 20
23.39812681536239
 30
0.0
 40
3.5
 41
0.0
 71
     2
 72
     1
  1
\A1;%%c25
  7
SLDTEXTSTYLE0
 11
-3.410605131648490E-15
 21
1.0
 31
0.0
 73
     1
 44
1.0
  0
POINT
  5
125
330
D7
100
AcDbEntity
  8
Defpoints
 62
     0
100
AcDbPoint
 10
62.00000000000003
 20
12.50000000000014
 30
0.0
  0
POINT
  5
126
330
D7
100
AcDbEntity
  8
Defpoints
 62
     0
100
AcDbPoint
 10
62.00000000000003
 20
-12.4999999999998
 30
0.0
  0
POINT
  5
127
330
D7
100
AcDbEntity
  8
Defpoints
 62
     0
100
AcDbPoint
 10
76.55341122947948
 20
-12.49999999999974
 30
0.0
  0
ENDBLK
  5
D9
330
D7
100
AcDbEntity
  8
0
100
AcDbBlockEnd
  0
BLOCK
  5
E3
330
E2
100
AcDbEntity
  8
0
100
AcDbBlockBegin
  2
_D_3
 70
     0
 10
0.0
 20
0.0
 30
0.0
  3
_D_3
  1
_D_3
  0
LINE
  5
E5
330
E2
100
AcDbEntity
  8
치수문자_일반주서
 62
     0
370
    -2
100
AcDbLine
 10
-115.5625
 20
12.50000000000001
 30
0.0
 11
-131.6616586656666
 21
12.49999999999995
 31
0.0
  0
LINE
  5
E6
330
E2
100
AcDbEntity
  8
치수문자_일반주서
 62
     0
370
    -2
100
AcDbLine
 10
-115.5625
 20
-12.50000000000001
 30
0.0
 11
-131.6616586656665
 21
-12.50000000000008
 31
0.0
  0
LINE
  5
E7
330
E2
100
AcDbEntity
  8
치수문자_일반주서
 62
     0
370
    -2
100
AcDbLine
 10
-131.6616586656666
 20
12.49999999999995
 30
0.0
 11
-131.6616586656666
 21
27.85399999999996
 31
0.0
  0
LINE
  5
E8
330
E2
100
AcDbEntity
  8
치수문자_일반주서
 62
     0
370
    -2
100
AcDbLine
 10
-131.6616586656666
 20
12.49999999999995
 30
0.0
 11
-131.6616586656665
 21
-12.50000000000008
 31
0.0
  0
LINE
  5
E9
330
E2
100
AcDbEntity
  8
치수문자_일반주서
 62
     0
370
    -2
100
AcDbLine
 10
-131.6616586656666
 20
15.80199999999995
 30
0.0
 11
-131.6616586656666
 21
19.10399999999995
 31
0.0
  0
LINE
  5
EA
330
E2
100
AcDbEntity
  8
치수문자_일반주서
 62
     0
370
    -2
100
AcDbLine
 10
-131.6616586656665
 20
-15.80200000000008
 30
0.0
 11
-131.6616586656665
 21
-19.10400000000008
 31
0.0
  0
SOLID
  5
EB
330
E2
100
AcDbEntity
  8
치수문자_일반주서
 62
     0
100
AcDbTrace
 10
-132.2119919989999
 20
15.80199999999995
 30
0.0
 11
-131.1113253323333
 21
15.80199999999995
 31
0.0
 12
-131.6616586656666
 22
12.49999999999995
 32
0.0
 13
-131.6616586656666
 23
12.49999999999995
 33
0.0
  0
SOLID
  5
11F
330
E2
100
AcDbEntity
  8
치수문자_일반주서
 62
     0
100
AcDbTrace
 10
-131.1113253323332
 20
-15.80200000000008
 30
0.0
 11
-132.2119919989998
 21
-15.80200000000008
 31
0.0
 12
-131.6616586656665
 22
-12.50000000000008
 32
0.0
 13
-131.6616586656665
 23
-12.50000000000008
 33
0.0
  0
MTEXT
  5
120
330
E2
100
AcDbEntity
  8
치수문자_일반주서
 62
     0
100
AcDbMText
 10
-136.0366586656666
 20
23.47899999999994
 30
0.0
 40
3.5
 41
0.0
 71
     2
 72
     1
  1
\A1;%%c25
  7
SLDTEXTSTYLE0
 11
-3.410605131648478E-15
 21
1.0
 31
0.0
 73
     1
 44
1.0
  0
POINT
  5
121
330
E2
100
AcDbEntity
  8
Defpoints
 62
     0
100
AcDbPoint
 10
-115.5
 20
12.50000000000001
 30
0.0
  0
POINT
  5
122
330
E2
100
AcDbEntity
  8
Defpoints
 62
     0
100
AcDbPoint
 10
-115.5
 20
-12.50000000000001
 30
0.0
  0
POINT
  5
123
330
E2
100
AcDbEntity
  8
Defpoints
 62
     0
100
AcDbPoint
 10
-131.6616586656665
 20
-12.50000000000007
 30
0.0
  0
ENDBLK
  5
E4
330
E2
100
AcDbEntity
  8
0
100
AcDbBlockEnd
  0
BLOCK
  5
F4
330
F3
100
AcDbEntity
  8
0
100
AcDbBlockBegin
  2
SW_DOWELSYMBOL_0
 70
     0
 10
0.0
 20
0.0
 30
0.0
  3
SW_DOWELSYMBOL_0
  1
SW_DOWELSYMBOL_0
  0
CIRCLE
  5
F6
330
F3
100
AcDbEntity
  8
해칭선
 62
     0
100
AcDbCircle
 10
0.0
 20
0.0
 30
0.0
 40
3.000000000000008
  0
HATCH
  5
F7
330
F3
100
AcDbEntity
  8
0
  6
Continuous
 62
     0
370
     0
100
AcDbHatch
 10
0.0
 20
0.0
 30
0.0
210
0.0
220
0.0
230
1.0
  2
SOLID
 70
     1
 71
     0
 91
        1
 92
        0
 93
        3
 72
     2
 10
0.0
 20
0.0
 40
3.000000000000008
 50
0.0
 51
90.0
 73
     1
 72
     1
 10
0.0
 20
3.000000000000008
 11
0.0
 21
0.0
 72
     1
 10
0.0
 20
0.0
 11
3.000000000000003
 21
0.0
 97
        0
 75
     0
 76
     1
 98
        1
 10
0.0
 20
0.0
  0
HATCH
  5
F8
330
F3
100
AcDbEntity
  8
0
  6
Continuous
 62
     0
370
     0
100
AcDbHatch
 10
0.0
 20
0.0
 30
0.0
210
0.0
220
0.0
230
1.0
  2
SOLID
 70
     1
 71
     0
 91
        1
 92
        0
 93
        3
 72
     2
 10
0.0
 20
0.0
 40
3.000000000000008
 50
180.0
 51
270.0000000000007
 73
     1
 72
     1
 10
0.0
 20
-3.000000000000008
 11
0.0
 21
0.0
 72
     1
 10
0.0
 20
0.0
 11
-3.000000000000003
 21
0.0
 97
        0
 75
     0
 76
     1
 98
        1
 10
0.0
 20
0.0
  0
ENDBLK
  5
F5
330
F3
100
AcDbEntity
  8
0
100
AcDbBlockEnd
  0
ENDSEC
  0
SECTION
  2
ENTITIES
  0
LINE
  5
96
330
1F
100
AcDbEntity
  8
0
 62
     1
100
AcDbLine
 10
21.47733042280568
 20
12.49999999999997
 30
0.0
 11
13.85661969437726
 21
12.49999999999997
 31
0.0
  0
LINE
  5
97
330
1F
100
AcDbEntity
  8
외형선
  6
Continuous
 62
     1
370
    15
100
AcDbLine
 10
47.86638094849562
 20
-12.49999999999997
 30
0.0
 11
49.50000000000014
 21
-12.49999999999997
 31
0.0
  0
ARC
  5
98
330
1F
100
AcDbEntity
  8
외형선
  6
Continuous
 62
     1
370
    15
100
AcDbCircle
 10
49.50000000000011
 20
0.0000000000000153
 30
0.0
 40
12.49999999999995
100
AcDbArc
 50
332.8970273733487
 51
0.0
  0
ARC
  5
99
330
1F
100
AcDbEntity
  8
외형선
  6
Continuous
 62
     1
370
    15
100
AcDbCircle
 10
49.50000000000011
 20
0.0000000000000153
 30
0.0
 40
12.49999999999994
100
AcDbArc
 50
270.0000000000009
 51
295.9798313394883
  0
ARC
  5
9A
330
1F
100
AcDbEntity
  8
외형선
  6
Continuous
 62
     1
370
    15
100
AcDbCircle
 10
49.50000000000011
 20
0.0000000000000153
 30
0.0
 40
12.49999999999994
100
AcDbArc
 50
64.05531995042283
 51
89.99999999999987
  0
ARC
  5
9B
330
1F
100
AcDbEntity
  8
외형선
  6
Continuous
 62
     1
370
    15
100
AcDbCircle
 10
49.50000000000011
 20
0.0000000000000153
 30
0.0
 40
12.49999999999994
100
AcDbArc
 50
0.0
 51
27.10230627965136
  0
LINE
  5
9C
330
1F
100
AcDbEntity
  8
0
 62
     1
100
AcDbLine
 10
13.85661969437726
 20
-12.49999999999997
 30
0.0
 11
21.47733042280582
 21
-12.49999999999997
 31
0.0
  0
LINE
  5
9F
330
1F
100
AcDbEntity
  8
외형선
  6
Continuous
370
    15
100
AcDbLine
 10
-118.0
 20
-10.00000000000001
 30
0.0
 11
-115.5
 21
-12.5
 31
0.0
  0
LINE
  5
A0
330
1F
100
AcDbEntity
  8
외형선
  6
Continuous
370
    15
100
AcDbLine
 10
-115.5
 20
-12.5
 30
0.0
 11
12.0
 21
-12.5
 31
0.0
  0
LINE
  5
A1
330
1F
100
AcDbEntity
  8
외형선
  6
Continuous
370
    15
100
AcDbLine
 10
12.0
 20
12.5
 30
0.0
 11
-78.0
 21
12.5
 31
0.0
  0
SPLINE
  5
A2
330
1F
100
AcDbEntity
  8
0
 62
     1
100
AcDbSpline
210
0.0
220
0.0
230
1.0
 70
     8
 71
     3
 72
    16
 73
    12
 74
     0
 42
0.000000001
 43
0.00000001
 40
0.0
 40
0.0
 40
0.0
 40
0.0
 40
0.1170742295177143
 40
0.234181914779945
 40
0.3513053485901071
 40
0.468426760890871
 40
0.585528389698658
 40
0.7005106509835201
 40
0.8155004457878523
 40
0.930516292936688
 40
1.0
 40
1.0
 40
1.0
 40
1.0
 10
12.0
 20
1.071016865696984
 30
0.0
 10
13.39960503920308
 20
0.2618545850151603
 30
0.0
 10
16.1992150760699
 20
-1.356701206796437
 30
0.0
 10
20.39935570517547
 20
-3.744078165140668
 30
0.0
 10
24.60015011368442
 20
-5.988180974912117
 30
0.0
 10
28.8008533729968
 20
-8.008769328468297
 30
0.0
 10
32.97585570540359
 20
-9.716951811547732
 30
0.0
 10
37.1249564458782
 20
-11.0630739996422
 30
0.0
 10
41.24925178975768
 20
-11.98093191058938
 30
0.0
 10
44.82980559212773
 20
-12.4650993310599
 30
0.0
 10
47.03564701950376
 20
-12.4510626645524
 30
0.0
 10
47.86638094849562
 20
-12.49999999999997
 30
0.0
  0
SPLINE
  5
A3
330
1F
100
AcDbEntity
  8
0
 62
     1
100
AcDbSpline
210
0.0
220
0.0
230
1.0
 70
     8
 71
     3
 72
    13
 73
     9
 74
     0
 42
0.000000001
 43
0.00000001
 40
0.0
 40
0.0
 40
0.0
 40
0.0
 40
0.0867988775588268
 40
0.2720951138361521
 40
0.4540985276609727
 40
0.6360965265107476
 40
0.8180700216986946
 40
0.9999999999999999
 40
0.9999999999999999
 40
0.9999999999999999
 40
0.9999999999999999
 10
34.66884317935269
 20
-10.20353971135067
 30
0.0
 10
34.01298789433802
 20
-10.43042056602133
 30
0.0
 10
31.95702791587911
 20
-11.14164142180969
 30
0.0
 10
28.52556641087122
 20
-11.90366489927404
 30
0.0
 10
24.37483120369856
 20
-12.46830381607941
 30
0.0
 10
20.24918744086681
 20
-12.54974080536618
 30
0.0
 10
16.12420177496884
 20
-12.21195373312727
 30
0.0
 10
13.37462432353486
 20
-11.61797214468849
 30
0.0
 10
12.00000000000003
 20
-11.3210168656968
 30
0.0
  0
SPLINE
  5
A4
330
1F
100
AcDbEntity
  8
0
 62
     1
100
AcDbSpline
210
0.0
220
0.0
230
1.0
 70
     8
 71
     3
 72
    40
 73
    36
 74
     0
 42
0.000000001
 43
0.00000001
 40
0.0
 40
0.0
 40
0.0
 40
0.0
 40
0.0625000000000003
 40
0.0625000000000003
 40
0.1250000000000006
 40
0.1250000000000006
 40
0.1875000000000009
 40
0.1875000000000009
 40
0.2500000000000012
 40
0.2500000000000012
 40
0.3125000000000016
 40
0.3125000000000016
 40
0.3750000000000018
 40
0.3750000000000018
 40
0.4375000000000021
 40
0.4375000000000021
 40
0.5000000000000024
 40
0.5000000000000024
 40
0.5625000000000028
 40
0.5625000000000028
 40
0.6250000000000031
 40
0.6250000000000031
 40
0.6875000000000033
 40
0.6875000000000033
 40
0.7500000000000037
 40
0.7500000000000037
 40
0.812500000000004
 40
0.812500000000004
 40
0.8437500000000033
 40
0.8437500000000033
 40
0.8750000000000027
 40
0.8750000000000027
 40
0.9375000000000013
 40
0.9375000000000013
 40
1.0
 40
1.0
 40
1.0
 40
1.0
 10
12.0
 20
12.45403239410402
 30
0.0
 10
12.77858476913714
 20
12.49263553200481
 30
0.0
 10
13.56241078799285
 20
12.50698475608803
 30
0.0
 10
15.12682122919175
 20
12.48669848299566
 30
0.0
 10
15.9045152293927
 20
12.4521843257183
 30
0.0
 10
17.46852784622614
 20
12.3345709455058
 30
0.0
 10
18.25253343190801
 20
12.25142224062058
 30
0.0
 10
19.81080864309449
 20
12.03807385153549
 30
0.0
 10
20.59336141344045
 20
11.90751895765765
 30
0.0
 10
22.15808707517624
 20
11.60038228791552
 30
0.0
 10
22.93592905376153
 20
11.42416373672978
 30
0.0
 10
24.49946131244684
 20
11.02725559859392
 30
0.0
 10
25.28360484680665
 20
10.80660271912201
 30
0.0
 10
26.84290420489906
 20
10.32488256683959
 30
0.0
 10
27.6243308512439
 20
10.06320698294389
 30
0.0
 10
29.18928907417086
 20
9.501303045377696
 30
0.0
 10
29.96742698349237
 20
9.20176816699387
 30
0.0
 10
31.53039643479559
 20
8.567123650794986
 30
0.0
 10
32.31463627519386
 20
8.23202395765216
 30
0.0
 10
33.87487807462618
 20
7.532201905959144
 30
0.0
 10
34.65532591922172
 20
7.166854324988668
 30
0.0
 10
36.22043400302667
 20
6.408917932247315
 30
0.0
 10
36.99901574338131
 20
6.017331354512799
 30
0.0
 10
38.56134003708885
 20
5.211362494931675
 30
0.0
 10
39.34563452378511
 20
4.796845276084492
 30
0.0
 10
40.90673689362957
 20
3.95202851944211
 30
0.0
 10
41.68635343067999
 20
3.521250272165521
 30
0.0
 10
42.8602348441547
 20
2.865205904832465
 30
0.0
 10
43.25149881081485
 20
2.645021535689236
 30
0.0
 10
44.03224976365205
 20
2.202620512585314
 30
0.0
 10
44.42110126711134
 20
1.980526465632939
 30
0.0
 10
45.59229894162647
 20
1.310790389728611
 30
0.0
 10
46.37660640517515
 20
0.860192711108869
 30
0.0
 10
47.93848732340061
 20
-0.0413165531450342
 30
0.0
 10
48.71742019320919
 20
-0.4924849331274791
 30
0.0
 10
49.50000000000009
 20
-0.9425120958823962
 30
0.0
  0
SPLINE
  5
A5
330
1F
100
AcDbEntity
  8
외형선
  6
Continuous
 62
     1
370
    15
100
AcDbSpline
210
0.0
220
0.0
230
1.0
 70
     8
 71
     3
 72
    66
 73
    62
 74
     0
 42
0.000000001
 43
0.00000001
 40
0.0
 40
0.0
 40
0.0
 40
0.0
 40
0.0624999999999995
 40
0.0624999999999995
 40
0.0937500000000003
 40
0.0937500000000003
 40
0.1250000000000011
 40
0.1250000000000011
 40
0.1875000000000026
 40
0.1875000000000026
 40
0.2187500000000024
 40
0.2187500000000024
 40
0.2500000000000022
 40
0.2500000000000022
 40
0.3125000000000036
 40
0.3125000000000036
 40
0.3750000000000049
 40
0.3750000000000049
 40
0.4062500000000057
 40
0.4062500000000057
 40
0.4375000000000063
 40
0.4375000000000063
 40
0.4687500000000071
 40
0.4687500000000071
 40
0.4843750000000074
 40
0.4843750000000074
 40
0.5000000000000079
 40
0.5000000000000079
 40
0.5312500000000088
 40
0.5312500000000088
 40
0.546875000000009
 40
0.546875000000009
 40
0.5625000000000091
 40
0.5625000000000091
 40
0.5781250000000093
 40
0.5781250000000093
 40
0.5937500000000095
 40
0.5937500000000095
 40
0.6093750000000098
 40
0.6093750000000098
 40
0.62500000000001
 40
0.62500000000001
 40
0.6562500000000091
 40
0.6562500000000091
 40
0.6718750000000088
 40
0.6718750000000088
 40
0.6875000000000084
 40
0.6875000000000084
 40
0.7187500000000077
 40
0.7187500000000077
 40
0.7500000000000068
 40
0.7500000000000068
 40
0.781250000000006
 40
0.781250000000006
 40
0.8125000000000052
 40
0.8125000000000052
 40
0.8750000000000034
 40
0.8750000000000034
 40
0.9375000000000018
 40
0.9375000000000018
 40
1.0
 40
1.0
 40
1.0
 40
1.0
 10
49.50000000000014
 20
-0.9425120958823839
 30
0.0
 10
50.13504232734087
 20
-1.307696955397635
 30
0.0
 10
50.76724357040533
 20
-1.650870263715095
 30
0.0
 10
51.71785850335493
 20
-2.12156047030306
 30
0.0
 10
52.03533096066937
 20
-2.270653775711718
 30
0.0
 10
52.67211229187686
 20
-2.551775928021623
 30
0.0
 10
52.99319788940767
 20
-2.684456162844925
 30
0.0
 10
53.94459166920632
 20
-3.049397876683001
 30
0.0
 10
54.56194271495542
 20
-3.248826352263586
 30
0.0
 10
55.4621648978098
 20
-3.487127512016263
 30
0.0
 10
55.75796899386049
 20
-3.556185543470641
 30
0.0
 10
56.33994723335047
 20
-3.675374631879749
 30
0.0
 10
56.62618340599124
 20
-3.725413812926739
 30
0.0
 10
57.4516966985708
 20
-3.848961382483766
 30
0.0
 10
57.96417129331024
 20
-3.89693341504816
 30
0.0
 10
58.90317068392238
 20
-3.961630082373458
 30
0.0
 10
59.3314175910281
 20
-3.977351763172303
 30
0.0
 10
59.87403283466222
 20
-4.016476191138713
 30
0.0
 10
60.03919575008985
 20
-4.032303645496301
 30
0.0
 10
60.33503286325995
 20
-4.078726910160536
 30
0.0
 10
60.46623658811012
 20
-4.109450336357649
 30
0.0
 10
60.68668288381107
 20
-4.196910383532184
 30
0.0
 10
60.77489443351834
 20
-4.253095658665893
 30
0.0
 10
60.87086340444966
 20
-4.365442060051135
 30
0.0
 10
60.89677068477229
 20
-4.407592129474509
 30
0.0
 10
60.93540896095212
 20
-4.503334457532883
 30
0.0
 10
60.94806753538271
 20
-4.557093565519043
 30
0.0
 10
60.96417573510223
 20
-4.735057759868268
 30
0.0
 10
60.94654376030414
 20
-4.876612492067115
 30
0.0
 10
60.87238297965246
 20
-5.133454324874111
 30
0.0
 10
60.8395425912413
 20
-5.226487634699031
 30
0.0
 10
60.75931688848206
 20
-5.422894293726952
 30
0.0
 10
60.71177423090901
 20
-5.526892426814152
 30
0.0
 10
60.59985852359941
 20
-5.747726092302692
 30
0.0
 10
60.53926514151891
 20
-5.862871961328186
 30
0.0
 10
60.39867824916516
 20
-6.107469639216263
 30
0.0
 10
60.32091481534059
 20
-6.235354979465739
 30
0.0
 10
60.1548369912218
 20
-6.495295814695514
 30
0.0
 10
60.06600114791905
 20
-6.628271607218659
 30
0.0
 10
59.87693809824145
 20
-6.899782479571752
 30
0.0
 10
59.77605655276764
 20
-7.039174916228686
 30
0.0
 10
59.46101238840819
 20
-7.458425892924162
 30
0.0
 10
59.23629860444294
 20
-7.737392282652174
 30
0.0
 10
58.87773383447362
 20
-8.152772900392954
 30
0.0
 10
58.75469403078642
 20
-8.290538217446787
 30
0.0
 10
58.50646661831038
 20
-8.559083590036087
 30
0.0
 10
58.38063188775527
 20
-8.690622386625883
 30
0.0
 10
57.9976900932719
 20
-9.077123133882976
 30
0.0
 10
57.73518524073606
 20
-9.324016090444362
 30
0.0
 10
57.19369169546994
 20
-9.7953270287818
 30
0.0
 10
56.9204448955177
 20
-10.01468744234449
 30
0.0
 10
56.3687047909134
 20
-10.4214009626395
 30
0.0
 10
56.08980426692682
 20
-10.60908459324151
 30
0.0
 10
55.48122548673376
 20
-10.91310720403622
 30
0.0
 10
55.20170361882299
 20
-11.10969470263455
 30
0.0
 10
54.35734689342786
 20
-11.50900760355309
 30
0.0
 10
53.7850264277335
 20
-11.74257555350123
 30
0.0
 10
52.59649358969369
 20
-12.03884968550538
 30
0.0
 10
51.98499292227373
 20
-12.12346735867795
 30
0.0
 10
50.75611914101268
 20
-12.16547233021494
 30
0.0
 10
50.13497423374804
 20
-12.12501318013311
 30
0.0
 10
49.50000000000014
 20
-12.02502867313754
 30
0.0
  0
SPLINE
  5
A6
330
1F
100
AcDbEntity
  8
0
 62
     1
100
AcDbSpline
210
0.0
220
0.0
230
1.0
 70
     8
 71
     3
 72
    40
 73
    36
 74
     0
 42
0.000000001
 43
0.00000001
 40
0.0
 40
0.0
 40
0.0
 40
0.0
 40
0.0624999999999997
 40
0.0624999999999997
 40
0.1249999999999994
 40
0.1249999999999994
 40
0.1874999999999991
 40
0.1874999999999991
 40
0.2499999999999987
 40
0.2499999999999987
 40
0.3124999999999984
 40
0.3124999999999984
 40
0.3749999999999981
 40
0.3749999999999981
 40
0.4374999999999978
 40
0.4374999999999978
 40
0.4999999999999974
 40
0.4999999999999974
 40
0.5624999999999971
 40
0.5624999999999971
 40
0.6249999999999968
 40
0.6249999999999968
 40
0.6874999999999964
 40
0.6874999999999964
 40
0.7499999999999962
 40
0.7499999999999962
 40
0.8124999999999959
 40
0.8124999999999959
 40
0.8437499999999966
 40
0.8437499999999966
 40
0.8749999999999973
 40
0.8749999999999973
 40
0.9374999999999987
 40
0.9374999999999987
 40
1.0
 40
1.0
 40
1.0
 40
1.0
 10
12.0
 20
5.29948838347692
 30
0.0
 10
12.77858476913711
 20
4.891439930421619
 30
0.0
 10
13.5624107879929
 20
4.472120606466877
 30
0.0
 10
15.12682122919178
 20
3.618203660890344
 30
0.0
 10
15.90451522939279
 20
3.184170875833043
 30
0.0
 10
17.46852784622625
 20
2.303778583040168
 30
0.0
 10
18.25253343190809
 20
1.857832440181407
 30
0.0
 10
19.81080864309452
 20
0.9622861445238708
 30
0.0
 10
20.59336141344052
 20
0.5111052180276172
 30
0.0
 10
22.1580870751763
 20
-0.3914248445083638
 30
0.0
 10
22.93592905376153
 20
-0.8419371224434581
 30
0.0
 10
24.49946131244684
 20
-1.739425170848989
 30
0.0
 10
25.28360484680657
 20
-2.186091252177317
 30
0.0
 10
26.84290420489897
 20
-3.067457994649589
 30
0.0
 10
27.6243308512439
 20
-3.503346547474278
 30
0.0
 10
29.18928907417092
 20
-4.360120642397119
 30
0.0
 10
29.96742698349237
 20
-4.780036743113565
 30
0.0
 10
31.53039643479556
 20
-5.600784206331078
 30
0.0
 10
32.31463627519395
 20
-6.001467930817435
 30
0.0
 10
33.87487807462615
 20
-6.776469784345164
 30
0.0
 10
34.6553259192217
 20
-7.15155290292969
 30
0.0
 10
36.22043400302672
 20
-7.872978909433589
 30
0.0
 10
36.99901574338142
 20
-8.218404837312812
 30
0.0
 10
38.56134003708887
 20
-8.876623100082764
 30
0.0
 10
39.34563452378511
 20
-9.189427779860196
 30
0.0
 10
40.90673689362954
 20
-9.776971097378464
 30
0.0
 10
41.68635343067999
 20
-10.0521176023701
 30
0.0
 10
42.8602348441547
 20
-10.43509561020769
 30
0.0
 10
43.25149881081488
 20
-10.55770922234066
 30
0.0
 10
44.03224976365193
 20
-10.79233044930933
 30
0.0
 10
44.42110126711131
 20
-10.90428610002077
 30
0.0
 10
45.59229894162644
 20
-11.2244769327172
 30
0.0
 10
46.37660640517518
 20
-11.41669515718286
 30
0.0
 10
47.93848732340055
 20
-11.75526858059951
 30
0.0
 10
48.71742019320925
 20
-11.90180185225569
 30
0.0
 10
49.50000000000014
 20
-12.0250286731376
 30
0.0
  0
SPLINE
  5
A7
330
1F
100
AcDbEntity
  8
외형선
  6
Continuous
 62
     1
370
    15
100
AcDbSpline
210
0.0
220
0.0
230
1.0
 70
     8
 71
     3
 72
    11
 73
     7
 74
     0
 42
0.000000001
 43
0.00000001
 40
0.0
 40
0.0
 40
0.0
 40
0.0
 40
0.1656074507586948
 40
0.4436849917004581
 40
0.7218255345104105
 40
0.9453747941394781
 40
0.9453747941394781
 40
0.9453747941394781
 40
0.9453747941394781
 10
34.66884317935255
 20
10.20353971135068
 30
0.0
 10
35.48752431337236
 20
10.47934486672808
 30
0.0
 10
37.68088294843859
 20
11.21826456819047
 30
0.0
 10
41.24924598750736
 20
11.97749223408624
 30
0.0
 10
45.10428192393417
 20
12.48033475593828
 30
0.0
 10
47.58459774957834
 20
12.48437314909996
 30
0.0
 10
48.68980996150674
 20
12.4737160502203
 30
0.0
  0
SPLINE
  5
A8
330
1F
100
AcDbEntity
  8
외형선
  6
Continuous
 62
     1
370
    15
100
AcDbSpline
210
0.0
220
0.0
230
1.0
 70
     8
 71
     3
 72
    66
 73
    62
 74
     0
 42
0.000000001
 43
0.00000001
 40
0.0
 40
0.0
 40
0.0
 40
0.0
 40
0.0624999999999986
 40
0.0624999999999986
 40
0.0937499999999989
 40
0.0937499999999989
 40
0.1249999999999993
 40
0.1249999999999993
 40
0.1875
 40
0.1875
 40
0.2187499999999993
 40
0.2187499999999993
 40
0.2499999999999987
 40
0.2499999999999987
 40
0.3124999999999992
 40
0.3124999999999992
 40
0.3749999999999998
 40
0.3749999999999998
 40
0.4062500000000001
 40
0.4062500000000001
 40
0.4375000000000003
 40
0.4375000000000003
 40
0.4687500000000006
 40
0.4687500000000006
 40
0.4843750000000007
 40
0.4843750000000007
 40
0.5000000000000008
 40
0.5000000000000008
 40
0.5312500000000011
 40
0.5312500000000011
 40
0.546875000000001
 40
0.546875000000001
 40
0.562500000000001
 40
0.562500000000001
 40
0.578125000000001
 40
0.578125000000001
 40
0.593750000000001
 40
0.593750000000001
 40
0.609375000000001
 40
0.609375000000001
 40
0.6250000000000009
 40
0.6250000000000009
 40
0.6562500000000009
 40
0.6562500000000009
 40
0.6718750000000008
 40
0.6718750000000008
 40
0.6875000000000007
 40
0.6875000000000007
 40
0.7187500000000006
 40
0.7187500000000006
 40
0.7500000000000006
 40
0.7500000000000006
 40
0.7812500000000006
 40
0.7812500000000006
 40
0.8125000000000004
 40
0.8125000000000004
 40
0.8750000000000002
 40
0.8750000000000002
 40
0.9375000000000001
 40
0.9375000000000001
 40
1.0
 40
1.0
 40
1.0
 40
1.0
 10
48.68980996150674
 20
12.4737160502203
 30
0.0
 10
50.13504232734084
 20
12.43680228925253
 30
0.0
 10
50.76724357040533
 20
12.34670452203127
 30
0.0
 10
51.71785850335493
 20
12.12273412610034
 30
0.0
 10
52.03533096066937
 20
12.03321635276513
 30
0.0
 10
52.67211229187683
 20
11.82405220990801
 30
0.0
 10
52.99319788940764
 20
11.7036137951395
 30
0.0
 10
53.94459166920637
 20
11.3017709446801
 30
0.0
 10
54.56194271495542
 20
10.981581578948
 30
0.0
 10
55.4621648978098
 20
10.42465103105129
 30
0.0
 10
55.75796899386046
 20
10.22616539982766
 30
0.0
 10
56.33994723335047
 20
9.802542195403051
 30
0.0
 10
56.62618340599121
 20
9.577121401797731
 30
0.0
 10
57.45169669857086
 20
8.873320986116488
 30
0.0
 10
57.96417129331024
 20
8.363572044267592
 30
0.0
 10
58.9031706839223
 20
7.256961570997028
 30
0.0
 10
59.33141759102813
 20
6.655919690832499
 30
0.0
 10
59.87403283466222
 20
5.712197756412823
 30
0.0
 10
60.03919575008985
 20
5.389613888425225
 30
0.0
 10
60.33503286325995
 20
4.727378476376671
 30
0.0
 10
60.46623658811015
 20
4.386195700947528
 30
0.0
 10
60.68668288381107
 20
3.691708139879642
 30
0.0
 10
60.77489443351837
 20
3.342267255480578
 30
0.0
 10
60.87086340444958
 20
2.815951961883775
 30
0.0
 10
60.89677068477229
 20
2.640153961701371
 30
0.0
 10
60.93540896095212
 20
2.288026228423196
 30
0.0
 10
60.94806753538276
 20
2.111427303896228
 30
0.0
 10
60.9641757351022
 20
1.592423311266619
 30
0.0
 10
60.94654376030411
 20
1.257160106896529
 30
0.0
 10
60.87238297965246
 20
0.7748182404420617
 30
0.0
 10
60.8395425912413
 20
0.6179393035684838
 30
0.0
 10
60.759316888482
 20
0.3213235766925322
 30
0.0
 10
60.71177423090896
 20
0.1803400147692442
 30
0.0
 10
60.60174667928669
 20
-0.0866310654424131
 30
0.0
 10
60.5392651415188
 20
-0.2126219309779326
 30
0.0
 10
60.39867824916507
 20
-0.4488625763433482
 30
0.0
 10
60.32091481534047
 20
-0.558172281670732
 30
0.0
 10
60.15483699122177
 20
-0.7543118896854615
 30
0.0
 10
60.06600114791902
 20
-0.8420594088903222
 30
0.0
 10
59.87693809824145
 20
-0.9977906818806769
 30
0.0
 10
59.77605655276756
 20
-1.06609878406117
 30
0.0
 10
59.46101238840808
 20
-1.239221116270872
 30
0.0
 10
59.23629860444296
 20
-1.312440271905685
 30
0.0
 10
58.87773383447367
 20
-1.369019537423769
 30
0.0
 10
58.75469403078645
 20
-1.378785677618753
 30
0.0
 10
58.50646661831041
 20
-1.381695565333266
 30
0.0
 10
58.38063188775521
 20
-1.374971099911302
 30
0.0
 10
57.99769009327184
 20
-1.33320724733921
 30
0.0
 10
57.73518524073606
 20
-1.27663144620609
 30
0.0
 10
57.19369169546994
 20
-1.115354808040207
 30
0.0
 10
56.92044489551779
 20
-1.012346516858831
 30
0.0
 10
56.36870479091334
 20
-0.7727282553680273
 30
0.0
 10
56.08980426692679
 20
-0.635905161544439
 30
0.0
 10
55.52341420896113
 20
-0.3349702437024952
 30
0.0
 10
55.2342842202433
 20
-0.1697774411159326
 30
0.0
 10
54.36661471379043
 20
0.349292456680901
 30
0.0
 10
53.78502642773353
 20
0.7252917925430794
 30
0.0
 10
52.59649358969364
 20
1.501134903725284
 30
0.0
 10
51.98499292227382
 20
1.904279274314397
 30
0.0
 10
50.75611914101279
 20
2.683910926543444
 30
0.0
 10
50.13497423374801
 20
3.060743231501618
 30
0.0
 10
49.50000000000014
 20
3.413017053900829
 30
0.0
  0
SPLINE
  5
A9
330
1F
100
AcDbEntity
  8
외형선
  6
Continuous
 62
     1
370
    15
100
AcDbSpline
210
0.0
220
0.0
230
1.0
 70
     8
 71
     3
 72
    14
 73
    10
 74
     0
 42
0.000000001
 43
0.00000001
 40
0.0
 40
0.0
 40
0.0
 40
0.0
 40
0.1499052110728201
 40
0.2997844443879216
 40
0.4496193645880249
 40
0.5994777280491902
 40
0.7493731150995724
 40
0.8966047734853965
 40
0.9999999999999999
 40
0.9999999999999999
 40
0.9999999999999999
 40
0.9999999999999999
 10
49.50000000000014
 20
3.413017053900883
 30
0.0
 10
48.09969747021287
 20
4.178217679243345
 30
0.0
 10
45.29933507545033
 20
5.708486324821958
 30
0.0
 10
41.0994448669346
 20
7.755668518871973
 30
0.0
 10
36.90039254711915
 20
9.520218369146518
 30
0.0
 10
32.70095904944353
 20
10.92943992462541
 30
0.0
 10
28.52557629756404
 20
11.90659258874337
 30
0.0
 10
24.78426278284341
 20
12.44318072614253
 30
0.0
 10
22.44314868502639
 20
12.44985742859294
 30
0.0
 10
21.47733042280568
 20
12.45261187835002
 30
0.0
  0
LINE
  5
AA
330
1F
100
AcDbEntity
  8
외형선
  6
Continuous
370
    15
100
AcDbLine
 10
12.0
 20
1.071016865696983
 30
0.0
 11
12.0
 21
5.29948838347692
 31
0.0
  0
LINE
  5
AC
330
1F
100
AcDbEntity
  8
0
 62
     1
100
AcDbLine
 10
12.0
 20
-12.45403239410402
 30
0.0
 11
13.85661969437726
 21
-12.44204389629433
 31
0.0
  0
LINE
  5
AD
330
1F
100
AcDbEntity
  8
외형선
  6
Continuous
370
    15
100
AcDbLine
 10
12.0
 20
-12.45403239410402
 30
0.0
 11
12.0
 21
-11.3210168656968
 31
0.0
  0
LINE
  5
AE
330
1F
100
AcDbEntity
  8
외형선
  6
Continuous
370
    15
100
AcDbLine
 10
-115.5
 20
0.0
 30
0.0
 11
-115.5
 21
10.5
 31
0.0
  0
LINE
  5
AF
330
1F
100
AcDbEntity
  8
외형선
  6
Continuous
370
    15
100
AcDbLine
 10
-115.5
 20
-12.5
 30
0.0
 11
-115.5
 21
0.0
 31
0.0
  0
LINE
  5
B0
330
1F
100
AcDbEntity
  8
외형선
  6
Continuous
370
    15
100
AcDbLine
 10
-118.0
 20
0.0
 30
0.0
 11
-118.0
 21
10.25
 31
0.0
  0
LINE
  5
B1
330
1F
100
AcDbEntity
  8
외형선
  6
Continuous
370
    15
100
AcDbLine
 10
-118.0
 20
-10.00000000000003
 30
0.0
 11
-118.0
 21
0.0
 31
0.0
  0
LINE
  5
B2
330
1F
100
AcDbEntity
  8
외형선
  6
Continuous
370
    15
100
AcDbLine
 10
12.0
 20
0.0
 30
0.0
 11
12.0
 21
12.5
 31
0.0
  0
LINE
  5
B3
330
1F
100
AcDbEntity
  8
외형선
  6
Continuous
370
    15
100
AcDbLine
 10
12.0
 20
-12.5
 30
0.0
 11
12.0
 21
0.0
 31
0.0
  0
LINE
  5
B4
330
1F
100
AcDbEntity
  8
중심선
 62
     1
100
AcDbLine
 10
-121.0
 20
0.0
 30
0.0
 11
69.00000000000011
 21
0.0000000000000197
 31
0.0
  0
LINE
  5
B5
330
1F
100
AcDbEntity
  8
참조1
100
AcDbLine
 10
52.50000000000002
 20
0.0010749287238892
 30
0.0
 11
52.50000000000002
 21
-39.99892507127611
 31
0.0
  0
LINE
  5
B6
330
1F
100
AcDbEntity
  8
참조1
100
AcDbLine
 10
142.5000000000001
 20
0.0010749287239085
 30
0.0
 11
142.5000000000001
 21
0.9423174252685359
 31
0.0
  0
LINE
  5
B7
330
1F
100
AcDbEntity
  8
참조1
100
AcDbLine
 10
52.50000000000002
 20
-39.99892507127611
 30
0.0
 11
-27.65885681430863
 21
-39.9989250712761
 31
0.0
  0
CIRCLE
  5
B8
330
1F
100
AcDbEntity
  8
해칭선
100
AcDbCircle
 10
0.0
 20
0.0
 30
0.0
 40
3.000000000000018
  0
INSERT
  5
B9
330
1F
100
AcDbEntity
  8
0
  6
Continuous
 62
     7
100
AcDbBlockReference
 66
     1
  2
블럭10
 10
-41.9402729321252
 20
-52.04717430164393
 30
0.0
  0
ATTRIB
  5
BA
330
B9
100
AcDbEntity
  8
FORMAT
 62
     2
100
AcDbText
 10
-52.08190894426183
 20
-49.97180738881174
 30
0.0
 40
4.233333333333333
  1
EM825250 [ 4 FLUTE ]
 41
0.75
  7
SLDTEXTSTYLE0
 11
-52.08190894426183
 21
-52.08847405547841
 31
0.0
100
AcDbAttribute
  2
AUTOATTR0
 70
     0
 74
     1
  0
SEQEND
  5
BB
330
B9
100
AcDbEntity
  8
0
  6
Continuous
 62
     7
  0
HATCH
  5
BC
330
1F
100
AcDbEntity
  8
중심선
100
AcDbHatch
 10
0.0
 20
0.0
 30
0.0
210
0.0
220
0.0
230
1.0
  2
SOLID
 70
     1
 71
     0
 91
        1
 92
        0
 93
        4
 72
     1
 10
-36.22536362774435
 20
-35.8
 11
-39.67163887158164
 21
-35.8
 72
     1
 10
-39.67163887158164
 20
-35.8
 11
-41.7998687307856
 21
-38.3363255805726
 72
     1
 10
-41.7998687307856
 20
-38.3363255805726
 11
-38.35356040183528
 21
-38.33628615127011
 72
     1
 10
-38.35356040183528
 20
-38.33628615127011
 11
-36.22536362774435
 21
-35.8
 97
        0
 75
     0
 76
     1
 98
        1
 10
-80.5
 20
-0.0010749287238931
  0
HATCH
  5
BD
330
1F
100
AcDbEntity
  8
중심선
100
AcDbHatch
 10
0.0
 20
0.0
 30
0.0
210
0.0
220
0.0
230
1.0
  2
SOLID
 70
     1
 71
     0
 91
        1
 92
        0
 93
        4
 72
     1
 10
-31.21259963670835
 20
-35.79999999999998
 11
-34.65887488054568
 21
-35.79999999999998
 72
     1
 10
-34.65887488054568
 20
-35.79999999999998
 11
-39.1900128889031
 21
-41.20000000000002
 72
     1
 10
-39.1900128889031
 20
-41.20000000000002
 11
-35.74373764506581
 21
-41.20000000000002
 72
     1
 10
-35.74373764506581
 20
-41.20000000000002
 11
-31.21259963670835
 21
-35.79999999999998
 97
        0
 75
     0
 76
     1
 98
        1
 10
-80.5
 20
-0.0010749287238931
  0
HATCH
  5
BE
330
1F
100
AcDbEntity
  8
중심선
100
AcDbHatch
 10
0.0
 20
0.0
 30
0.0
210
0.0
220
0.0
230
1.0
  2
SOLID
 70
     1
 71
     0
 91
        1
 92
        0
 93
        4
 72
     1
 10
-26.19983564567245
 20
-35.80000000000003
 11
-29.64611088950962
 21
-35.79999999999998
 72
     1
 10
-29.64611088950962
 20
-35.79999999999998
 11
-36.6945477913989
 21
-44.20000000000002
 72
     1
 10
-36.6945477913989
 20
-44.20000000000002
 11
-33.24827254756161
 21
-44.20000000000002
 72
     1
 10
-33.24827254756161
 20
-44.20000000000002
 11
-26.19983564567245
 21
-35.80000000000003
 97
        0
 75
     0
 76
     1
 98
        1
 10
-80.5
 20
-0.0010749287238931
  0
HATCH
  5
BF
330
1F
100
AcDbEntity
  8
중심선
100
AcDbHatch
 10
0.0
 20
0.0
 30
0.0
210
0.0
220
0.0
230
1.0
  2
SOLID
 70
     1
 71
     0
 91
        1
 92
        0
 93
        6
 72
     3
 10
-21.39994521466031
 20
-40.00000000005127
 11
3.960054785062283
 21
1.540882976769353E-10
 40
0.3939339440162628
 50
17.09539180608455
 51
320.0019657685075
 73
     0
 72
     1
 10
-19.71694555895968
 20
-38.58789400463825
 11
-17.41164368525875
 21
-36.65356729459038
 72
     3
 10
-21.39994521471315
 20
-40.00000000000015
 11
6.600054785286837
 21
-1.278976924368180E-13
 40
0.6363583540795974
 50
39.99873849337467
 51
368.4976242363725
 73
     1
 72
     1
 10
-14.97461272281257
 20
-39.03999999993002
 11
-22.71987790787725
 21
-39.03999999993002
 72
     1
 10
-22.71987790787725
 20
-39.03999999993002
 11
-22.71990295232316
 21
-40.95999999992991
 72
     1
 10
-22.71990295232316
 20
-40.95999999992991
 11
-18.27852318285115
 21
-40.95999999992988
 97
        0
 75
     0
 76
     1
 98
        1
 10
-80.5
 20
-0.0010749287238931
  0
DIMENSION
  5
C0
330
1F
100
AcDbEntity
  8
치수문자_일반주서
100
AcDbDimension
  2
_D
 10
11.99999999999997
 20
24.59279116606513
 30
0.0
 11
37.0
 21
24.59279116606513
 31
0.0
 70
   160
  1
<>
 71
     2
 42
50.00000000000006
  3
SLDDIMSTYLE0
100
AcDbAlignedDimension
 13
62.00000000000003
 23
12.50000000000014
 33
0.0
 14
11.99999999999997
 24
12.50000000000001
 34
0.0
 50
0.0000000000000041
100
AcDbRotatedDimension
  0
DIMENSION
  5
CC
330
1F
100
AcDbEntity
  8
치수문자_일반주서
100
AcDbDimension
  2
_D_1
 10
-118.0
 20
36.62308233213011
 30
0.0
 11
-27.75492449981078
 21
36.62308233213011
 31
0.0
 70
   160
  1
<>
 71
     2
 42
180.0
  3
SLDDIMSTYLE0
100
AcDbAlignedDimension
 13
62.00000000000003
 23
12.50000000000014
 33
0.0
 14
-118.0
 24
10.00000000000001
 34
0.0
 50
0.0000000000000045
100
AcDbRotatedDimension
  0
DIMENSION
  5
D6
330
1F
100
AcDbEntity
  8
치수문자_일반주서
100
AcDbDimension
  2
_D_2
 10
76.5534112294795
 20
-12.49999999999975
 30
0.0
 11
76.55341122947937
 21
23.39812681536241
 31
0.0
 70
   160
  1
%%c<>
 71
     2
 42
24.99999999999994
 52
-270.0
  3
SLDDIMSTYLE0
100
AcDbAlignedDimension
 13
62.00000000000003
 23
12.50000000000014
 33
0.0
 14
62.00000000000003
 24
-12.4999999999998
 34
0.0
 50
90.0000000000002
100
AcDbRotatedDimension
  0
DIMENSION
  5
E0
330
1F
100
AcDbEntity
  8
치수문자_일반주서
100
AcDbDimension
  2
_D_3
 10
-131.6616586656665
 20
-12.50000000000008
 30
0.0
 11
-131.6616586656666
 21
23.47899999999996
 31
0.0
 70
   160
  1
%%c<>
 71
     2
 42
25.00000000000002
 52
-270.0
  3
SLDDIMSTYLE1
100
AcDbAlignedDimension
 13
-115.5
 23
12.50000000000001
 33
0.0
 14
-115.5
 24
-12.50000000000001
 34
0.0
 50
90.0000000000002
100
AcDbRotatedDimension
  0
LINE
  5
EC
330
1F
100
AcDbEntity
  8
참조1
100
AcDbLine
 10
70.31348381534563
 20
7.441074928723896
 30
0.0
 11
70.31348381534563
 21
-7.438925071276109
 31
0.0
  0
LINE
  5
ED
330
1F
100
AcDbEntity
  8
참조1
100
AcDbLine
 10
83.01348381534564
 20
5.441074928723896
 30
0.0
 11
70.31348381534563
 21
5.441074928723896
 31
0.0
  0
SOLID
  5
EE
330
1F
100
AcDbEntity
  8
참조1
100
AcDbTrace
 10
70.31348381534563
 20
5.441074928723896
 30
0.0
 11
76.66348381534563
 21
4.425074928723896
 31
0.0
 12
76.66348381534563
 22
6.457074928723896
 32
0.0
 13
76.66348381534563
 23
6.457074928723896
 33
0.0
  0
LINE
  5
EF
330
1F
100
AcDbEntity
  8
참조1
100
AcDbLine
 10
83.01348381534564
 20
-5.438925071276109
 30
0.0
 11
70.31348381534563
 21
-5.438925071276109
 31
0.0
  0
SOLID
  5
F0
330
1F
100
AcDbEntity
  8
참조1
100
AcDbTrace
 10
70.31348381534563
 20
-5.438925071276109
 30
0.0
 11
76.66348381534563
 21
-6.454925071276109
 31
0.0
 12
76.66348381534563
 22
-4.422925071276109
 32
0.0
 13
76.66348381534563
 23
-4.422925071276109
 33
0.0
  0
MTEXT
  5
F1
330
1F
100
AcDbEntity
  8
참조1
100
AcDbMText
 10
79.71097390781591
 20
10.98929157337383
 30
0.0
 40
3.5
 41
0.0
 71
     1
 72
     1
  1
A
  7
SLDTEXTSTYLE0
 73
     1
 44
1.0
  0
MTEXT
  5
F2
330
1F
100
AcDbEntity
  8
참조1
100
AcDbMText
 10
79.71097390781591
 20
0.1092915733738259
 30
0.0
 40
3.5
 41
0.0
 71
     1
 72
     1
  1
A
  7
SLDTEXTSTYLE0
 73
     1
 44
1.0
  0
INSERT
  5
F9
330
1F
100
AcDbEntity
  8
해칭선
100
AcDbBlockReference
  2
SW_DOWELSYMBOL_0
 10
0.0
 20
0.0
 30
0.0
  0
ARC
  5
12D
330
1F
100
AcDbEntity
  8
0
 62
     1
100
AcDbCircle
 10
49.50000000000011
 20
0.0000000000000153
 30
0.0
 40
12.5
100
AcDbArc
 50
270.0
 51
93.71624268435696
  0
LINE
  5
1A4
330
1F
100
AcDbEntity
  8
외형선
  6
Continuous
370
    15
100
AcDbLine
 10
-78.0
 20
12.5
 30
0.0
 11
-80.0
 21
10.5
 31
0.0
  0
LINE
  5
1A5
330
1F
100
AcDbEntity
  8
외형선
  6
Continuous
370
    15
100
AcDbLine
 10
-80.0
 20
10.5
 30
0.0
 11
-92.0
 21
10.5
 31
0.0
  0
LINE
  5
1A6
330
1F
100
AcDbEntity
  8
외형선
  6
Continuous
370
    15
100
AcDbLine
 10
-92.0
 20
10.5
 30
0.0
 11
-94.0
 21
12.5
 31
0.0
  0
LINE
  5
1A7
330
1F
100
AcDbEntity
  8
외형선
  6
Continuous
370
    15
100
AcDbLine
 10
-118.0
 20
10.25
 30
0.0
 11
-117.75
 21
10.5
 31
0.0
  0
LINE
  5
1A8
330
1F
100
AcDbEntity
  8
외형선
  6
Continuous
370
    15
100
AcDbLine
 10
-99.0
 20
12.5
 30
0.0
 11
-101.0
 21
10.5
 31
0.0
  0
LINE
  5
1A9
330
1F
100
AcDbEntity
  8
외형선
  6
Continuous
370
    15
100
AcDbLine
 10
-99.0
 20
12.5
 30
0.0
 11
-94.0
 21
12.5
 31
0.0
  0
LINE
  5
1AA
330
1F
100
AcDbEntity
  8
외형선
  6
Continuous
370
    15
100
AcDbLine
 10
-101.0
 20
10.5
 30
0.0
 11
-117.75
 21
10.5
 31
0.0
  0
LINE
  5
1AB
330
1F
100
AcDbEntity
  8
외형선
  6
Continuous
370
    15
100
AcDbLine
 10
-94.0
 20
12.5
 30
0.0
 11
-99.0
 21
12.5
 31
0.0
  0
ENDSEC
  0
SECTION
  2
OBJECTS
  0
DICTIONARY
  5
C
330
0
100
AcDbDictionary
281
     1
  3
ACAD_GROUP
350
D
  3
ACAD_IMAGE_VARS
350
11D
  3
ACAD_LAYOUT
350
1A
  3
ACAD_MLINESTYLE
350
17
  3
ACAD_PLOTSETTINGS
350
19
  3
ACAD_PLOTSTYLENAME
350
E
  3
ACAD_SCALELIST
350
47
  3
APPDATA
350
11B
  3
DWGPROPS
350
1AC
  0
DICTIONARY
  5
18C
330
2
100
AcDbDictionary
280
     1
281
     1
  3
ACAD_LAYERSTATES
360
18D
  0
DICTIONARY
  5
D
102
{ACAD_REACTORS
330
C
102
}
330
C
100
AcDbDictionary
281
     1
  0
RASTERVARIABLES
  5
11D
102
{ACAD_REACTORS
330
C
102
}
330
C
100
AcDbRasterVariables
 90
        0
 70
     1
 71
     1
 72
     1
  0
DICTIONARY
  5
1A
102
{ACAD_REACTORS
330
C
102
}
330
C
100
AcDbDictionary
281
     1
  3
Layout1
350
1E
  3
Layout2
350
26
  3
Model
350
22
  0
DICTIONARY
  5
17
102
{ACAD_REACTORS
330
C
102
}
330
C
100
AcDbDictionary
281
     1
  3
Standard
350
18
  0
DICTIONARY
  5
19
102
{ACAD_REACTORS
330
C
102
}
330
C
100
AcDbDictionary
281
     1
  0
ACDBDICTIONARYWDFLT
  5
E
102
{ACAD_REACTORS
330
C
102
}
330
C
100
AcDbDictionary
281
     1
  3
Normal
350
F
100
AcDbDictionaryWithDefault
340
F
  0
DICTIONARY
  5
47
102
{ACAD_REACTORS
330
C
102
}
330
C
100
AcDbDictionary
281
     1
  3
A0
350
48
  3
A1
350
49
  3
A2
350
4A
  3
A3
350
4B
  3
A4
350
4C
  3
A5
350
4D
  3
A6
350
4E
  3
A7
350
4F
  3
A8
350
50
  3
A9
350
51
  3
B0
350
52
  3
B1
350
53
  3
B2
350
54
  3
B3
350
55
  3
B4
350
56
  3
B5
350
57
  3
B6
350
58
  3
B7
350
59
  3
B8
350
5A
  3
B9
350
5B
  3
C0
350
5C
  3
C1
350
5D
  3
C2
350
5E
  3
C3
350
5F
  3
C4
350
60
  3
C5
350
61
  3
C6
350
62
  3
C7
350
63
  3
C8
350
64
  3
C9
350
65
  3
D0
350
66
  3
D1
350
67
  3
D2
350
68
  0
DICTIONARY
  5
11B
102
{ACAD_REACTORS
330
C
102
}
330
C
100
AcDbDictionary
281
     1
  0
XRECORD
  5
1AC
102
{ACAD_REACTORS
330
C
102
}
330
C
100
AcDbXrecord
280
     1
  1
DWGPROPS COOKIE
  2

  3

  4

  6

  7

  8
12016016
  9

300
=
301
=
302
=
303
=
304
=
305
=
306
=
307
=
308
=
309
=
 40
0.0
 41
2458292.13190588
 42
2458295.449958171
  1

 90
        0
  0
DICTIONARY
  5
18D
102
{ACAD_REACTORS
330
18C
102
}
330
18C
100
AcDbDictionary
281
     1
  0
LAYOUT
  5
1E
102
{ACAD_REACTORS
330
1A
102
}
330
1A
100
AcDbPlotSettings
  1

  2
none_device
  4

  6

 40
0.0
 41
0.0
 42
0.0
 43
0.0
 44
0.0
 45
0.0
 46
0.0
 47
0.0
 48
0.0
 49
0.0
140
0.0
141
0.0
142
1.0
143
1.0
 70
   688
 72
     1
 73
     0
 74
     5
  7

 75
    16
147
1.0
148
0.0
149
0.0
100
AcDbLayout
  1
Layout1
 70
     1
 71
     1
 10
0.0
 20
0.0
 11
420.0
 21
297.0
 12
0.0
 22
0.0
 32
0.0
 14
1.000000000000000E+20
 24
1.000000000000000E+20
 34
1.000000000000000E+20
 15
-1.000000000000000E+20
 25
-1.000000000000000E+20
 35
-1.000000000000000E+20
146
0.0
 13
0.0
 23
0.0
 33
0.0
 16
1.0
 26
0.0
 36
0.0
 17
0.0
 27
1.0
 37
0.0
 76
     0
330
1B
  0
LAYOUT
  5
26
102
{ACAD_REACTORS
330
1A
102
}
330
1A
100
AcDbPlotSettings
  1

  2
none_device
  4

  6

 40
0.0
 41
0.0
 42
0.0
 43
0.0
 44
0.0
 45
0.0
 46
0.0
 47
0.0
 48
0.0
 49
0.0
140
0.0
141
0.0
142
1.0
143
1.0
 70
   688
 72
     1
 73
     0
 74
     5
  7

 75
    16
147
1.0
148
0.0
149
0.0
100
AcDbLayout
  1
Layout2
 70
     1
 71
     2
 10
0.0
 20
0.0
 11
0.0
 21
0.0
 12
0.0
 22
0.0
 32
0.0
 14
0.0
 24
0.0
 34
0.0
 15
0.0
 25
0.0
 35
0.0
146
0.0
 13
0.0
 23
0.0
 33
0.0
 16
1.0
 26
0.0
 36
0.0
 17
0.0
 27
1.0
 37
0.0
 76
     0
330
23
  0
LAYOUT
  5
22
102
{ACAD_REACTORS
330
1A
102
}
330
1A
100
AcDbPlotSettings
  1

  2
none_device
  4
ANSI_A_(11.00_x_8.50_Inches)
  6

 40
6.35
 41
19.05
 42
6.35000508
 43
19.05000254
 44
279.4
 45
215.9
 46
83.87310462106328
 47
30.75700015807987
 48
0.0
 49
0.0
140
0.0
141
0.0
142
0.0378274077575352
143
1.0
 70
  1696
 72
     0
 73
     0
 74
     0
  7

 75
     0
147
0.0235690232323232
148
0.0
149
0.0
100
AcDbLayout
  1
Model
 70
     1
 71
     0
 10
0.0
 20
0.0
 11
420.0
 21
297.0
 12
0.0
 22
0.0
 32
0.0
 14
1.000000000000000E+20
 24
1.000000000000000E+20
 34
1.000000000000000E+20
 15
-1.000000000000000E+20
 25
-1.000000000000000E+20
 35
-1.000000000000000E+20
146
0.0
 13
0.0
 23
0.0
 33
0.0
 16
1.0
 26
0.0
 36
0.0
 17
0.0
 27
1.0
 37
0.0
 76
     0
330
1F
331
29
  0
MLINESTYLE
  5
18
102
{ACAD_REACTORS
330
17
102
}
330
17
100
AcDbMlineStyle
  2
Standard
 70
     0
  3

 62
   256
 51
90.0
 52
90.0
 71
     2
 49
0.5
 62
   256
  6
BYLAYER
 49
-0.5
 62
   256
  6
BYLAYER
  0
ACDBPLACEHOLDER
  5
F
102
{ACAD_REACTORS
330
E
102
}
330
E
  0
SCALE
  5
48
102
{ACAD_REACTORS
330
47
102
}
330
47
100
AcDbScale
 70
     0
300
1:1
140
1.0
141
1.0
290
     1
  0
SCALE
  5
49
102
{ACAD_REACTORS
330
47
102
}
330
47
100
AcDbScale
 70
     0
300
1:2
140
1.0
141
2.0
290
     0
  0
SCALE
  5
4A
102
{ACAD_REACTORS
330
47
102
}
330
47
100
AcDbScale
 70
     0
300
1:4
140
1.0
141
4.0
290
     0
  0
SCALE
  5
4B
102
{ACAD_REACTORS
330
47
102
}
330
47
100
AcDbScale
 70
     0
300
1:5
140
1.0
141
5.0
290
     0
  0
SCALE
  5
4C
102
{ACAD_REACTORS
330
47
102
}
330
47
100
AcDbScale
 70
     0
300
1:8
140
1.0
141
8.0
290
     0
  0
SCALE
  5
4D
102
{ACAD_REACTORS
330
47
102
}
330
47
100
AcDbScale
 70
     0
300
1:10
140
1.0
141
10.0
290
     0
  0
SCALE
  5
4E
102
{ACAD_REACTORS
330
47
102
}
330
47
100
AcDbScale
 70
     0
300
1:16
140
1.0
141
16.0
290
     0
  0
SCALE
  5
4F
102
{ACAD_REACTORS
330
47
102
}
330
47
100
AcDbScale
 70
     0
300
1:20
140
1.0
141
20.0
290
     0
  0
SCALE
  5
50
102
{ACAD_REACTORS
330
47
102
}
330
47
100
AcDbScale
 70
     0
300
1:30
140
1.0
141
30.0
290
     0
  0
SCALE
  5
51
102
{ACAD_REACTORS
330
47
102
}
330
47
100
AcDbScale
 70
     0
300
1:40
140
1.0
141
40.0
290
     0
  0
SCALE
  5
52
102
{ACAD_REACTORS
330
47
102
}
330
47
100
AcDbScale
 70
     0
300
1:50
140
1.0
141
50.0
290
     0
  0
SCALE
  5
53
102
{ACAD_REACTORS
330
47
102
}
330
47
100
AcDbScale
 70
     0
300
1:100
140
1.0
141
100.0
290
     0
  0
SCALE
  5
54
102
{ACAD_REACTORS
330
47
102
}
330
47
100
AcDbScale
 70
     0
300
2:1
140
2.0
141
1.0
290
     0
  0
SCALE
  5
55
102
{ACAD_REACTORS
330
47
102
}
330
47
100
AcDbScale
 70
     0
300
4:1
140
4.0
141
1.0
290
     0
  0
SCALE
  5
56
102
{ACAD_REACTORS
330
47
102
}
330
47
100
AcDbScale
 70
     0
300
8:1
140
8.0
141
1.0
290
     0
  0
SCALE
  5
57
102
{ACAD_REACTORS
330
47
102
}
330
47
100
AcDbScale
 70
     0
300
10:1
140
10.0
141
1.0
290
     0
  0
SCALE
  5
58
102
{ACAD_REACTORS
330
47
102
}
330
47
100
AcDbScale
 70
     0
300
100:1
140
100.0
141
1.0
290
     0
  0
SCALE
  5
59
102
{ACAD_REACTORS
330
47
102
}
330
47
100
AcDbScale
 70
     0
300
1/128" = 1'-0"
140
0.0078125
141
12.0
290
     0
  0
SCALE
  5
5A
102
{ACAD_REACTORS
330
47
102
}
330
47
100
AcDbScale
 70
     0
300
1/64" = 1'-0"
140
0.015625
141
12.0
290
     0
  0
SCALE
  5
5B
102
{ACAD_REACTORS
330
47
102
}
330
47
100
AcDbScale
 70
     0
300
1/32" = 1'-0"
140
0.03125
141
12.0
290
     0
  0
SCALE
  5
5C
102
{ACAD_REACTORS
330
47
102
}
330
47
100
AcDbScale
 70
     0
300
1/16" = 1'-0"
140
0.0625
141
12.0
290
     0
  0
SCALE
  5
5D
102
{ACAD_REACTORS
330
47
102
}
330
47
100
AcDbScale
 70
     0
300
3/32" = 1'-0"
140
0.09375
141
12.0
290
     0
  0
SCALE
  5
5E
102
{ACAD_REACTORS
330
47
102
}
330
47
100
AcDbScale
 70
     0
300
1/8" = 1'-0"
140
0.125
141
12.0
290
     0
  0
SCALE
  5
5F
102
{ACAD_REACTORS
330
47
102
}
330
47
100
AcDbScale
 70
     0
300
3/16" = 1'-0"
140
0.1875
141
12.0
290
     0
  0
SCALE
  5
60
102
{ACAD_REACTORS
330
47
102
}
330
47
100
AcDbScale
 70
     0
300
1/4" = 1'-0"
140
0.25
141
12.0
290
     0
  0
SCALE
  5
61
102
{ACAD_REACTORS
330
47
102
}
330
47
100
AcDbScale
 70
     0
300
3/8" = 1'-0"
140
0.375
141
12.0
290
     0
  0
SCALE
  5
62
102
{ACAD_REACTORS
330
47
102
}
330
47
100
AcDbScale
 70
     0
300
1/2" = 1'-0"
140
0.5
141
12.0
290
     0
  0
SCALE
  5
63
102
{ACAD_REACTORS
330
47
102
}
330
47
100
AcDbScale
 70
     0
300
3/4" = 1'-0"
140
0.75
141
12.0
290
     0
  0
SCALE
  5
64
102
{ACAD_REACTORS
330
47
102
}
330
47
100
AcDbScale
 70
     0
300
1" = 1'-0"
140
1.0
141
12.0
290
     0
  0
SCALE
  5
65
102
{ACAD_REACTORS
330
47
102
}
330
47
100
AcDbScale
 70
     0
300
1-1/2" = 1'-0"
140
1.5
141
12.0
290
     0
  0
SCALE
  5
66
102
{ACAD_REACTORS
330
47
102
}
330
47
100
AcDbScale
 70
     0
300
3" = 1'-0"
140
3.0
141
12.0
290
     0
  0
SCALE
  5
67
102
{ACAD_REACTORS
330
47
102
}
330
47
100
AcDbScale
 70
     0
300
6" = 1'-0"
140
6.0
141
12.0
290
     0
  0
SCALE
  5
68
102
{ACAD_REACTORS
330
47
102
}
330
47
100
AcDbScale
 70
     0
300
1'-0" = 1'-0"
140
12.0
141
12.0
290
     0
  0
ENDSEC
  0
EOF
