  0
SECTION
  2
HEADER
  9
$ACADVER
  1
AC1015
  9
$ACADMAINTVER
 70
     6
  9
$DWGCODEPAGE
  3
ANSI_949
  9
$INSBASE
 10
0.0
 20
0.0
 30
0.0
  9
$EXTMIN
 10
-118.4999999999993
 20
-49.97073246008785
 30
0.0
  9
$EXTMAX
 10
83.28848381534635
 20
45.97784544168752
 30
0.0
  9
$LIMMIN
 10
0.0
 20
0.0
  9
$LIMMAX
 10
420.0
 20
297.0
  9
$ORTHOMODE
 70
     0
  9
$REGENMODE
 70
     1
  9
$FILLMODE
 70
     1
  9
$QTEXTMODE
 70
     0
  9
$MIRRTEXT
 70
     1
  9
$LTSCALE
 40
1.0
  9
$ATTMODE
 70
     1
  9
$TEXTSIZE
 40
3.5
  9
$TRACEWID
 40
1.0
  9
$TEXTSTYLE
  7
Standard
  9
$CLAYER
  8
0
  9
$CELTYPE
  6
ByLayer
  9
$CECOLOR
 62
   256
  9
$CELTSCALE
 40
1.0
  9
$DISPSILH
 70
     0
  9
$DIMSCALE
 40
1.0
  9
$DIMASZ
 40
3.302
  9
$DIMEXO
 40
1.0
  9
$DIMDLI
 40
3.75
  9
$DIMRND
 40
0.0
  9
$DIMDLE
 40
0.0
  9
$DIMEXE
 40
1.0
  9
$DIMTP
 40
0.0
  9
$DIMTM
 40
0.0
  9
$DIMTXT
 40
3.5
  9
$DIMCEN
 40
2.5
  9
$DIMTSZ
 40
0.0
  9
$DIMTOL
 70
     0
  9
$DIMLIM
 70
     0
  9
$DIMTIH
 70
     1
  9
$DIMTOH
 70
     1
  9
$DIMSE1
 70
     0
  9
$DIMSE2
 70
     0
  9
$DIMTAD
 70
     1
  9
$DIMZIN
 70
     0
  9
$DIMBLK
  1

  9
$DIMASO
 70
     1
  9
$DIMSHO
 70
     1
  9
$DIMPOST
  1

  9
$DIMAPOST
  1

  9
$DIMALT
 70
     0
  9
$DIMALTD
 70
     3
  9
$DIMALTF
 40
0.0393700787401575
  9
$DIMLFAC
 40
1.0
  9
$DIMTOFL
 70
     1
  9
$DIMTVP
 40
0.0
  9
$DIMTIX
 70
     0
  9
$DIMSOXD
 70
     0
  9
$DIMSAH
 70
     0
  9
$DIMBLK1
  1

  9
$DIMBLK2
  1

  9
$DIMSTYLE
  2
ISO-25
  9
$DIMCLRD
 70
     0
  9
$DIMCLRE
 70
     0
  9
$DIMCLRT
 70
     0
  9
$DIMTFAC
 40
1.0
  9
$DIMGAP
 40
1.524
  9
$DIMJUST
 70
     0
  9
$DIMSD1
 70
     0
  9
$DIMSD2
 70
     0
  9
$DIMTOLJ
 70
     0
  9
$DIMTZIN
 70
     0
  9
$DIMALTZ
 70
     0
  9
$DIMALTTZ
 70
     0
  9
$DIMUPT
 70
     0
  9
$DIMDEC
 70
     2
  9
$DIMTDEC
 70
     2
  9
$DIMALTU
 70
     2
  9
$DIMALTTD
 70
     3
  9
$DIMTXSTY
  7
Standard
  9
$DIMAUNIT
 70
     0
  9
$DIMADEC
 70
     2
  9
$DIMALTRND
 40
0.0
  9
$DIMAZIN
 70
     0
  9
$DIMDSEP
 70
    44
  9
$DIMATFIT
 70
     3
  9
$DIMFRAC
 70
     0
  9
$DIMLDRBLK
  1

  9
$DIMLUNIT
 70
     2
  9
$DIMLWD
 70
    -2
  9
$DIMLWE
 70
    -2
  9
$DIMTMOVE
 70
     0
  9
$LUNITS
 70
     2
  9
$LUPREC
 70
     2
  9
$SKETCHINC
 40
1.0
  9
$FILLETRAD
 40
10.0
  9
$AUNITS
 70
     0
  9
$AUPREC
 70
     2
  9
$MENU
  1
.
  9
$ELEVATION
 40
0.0
  9
$PELEVATION
 40
0.0
  9
$THICKNESS
 40
0.0
  9
$LIMCHECK
 70
     0
  9
$CHAMFERA
 40
0.0
  9
$CHAMFERB
 40
0.0
  9
$CHAMFERC
 40
0.0
  9
$CHAMFERD
 40
0.0
  9
$SKPOLY
 70
     0
  9
$TDCREATE
 40
2458288.468053287
  9
$TDUCREATE
 40
2458288.093053287
  9
$TDUPDATE
 40
2458303.3429136
  9
$TDUUPDATE
 40
2458302.9679136
  9
$TDINDWG
 40
0.0004379398
  9
$TDUSRTIMER
 40
2458302.967475833
  9
$USRTIMER
 70
     1
  9
$ANGBASE
 50
0.0
  9
$ANGDIR
 70
     0
  9
$PDMODE
 70
     0
  9
$PDSIZE
 40
-1.0
  9
$PLINEWID
 40
0.0
  9
$SPLFRAME
 70
     0
  9
$SPLINETYPE
 70
     6
  9
$SPLINESEGS
 70
     8
  9
$HANDSEED
  5
149
  9
$SURFTAB1
 70
     6
  9
$SURFTAB2
 70
     6
  9
$SURFTYPE
 70
     6
  9
$SURFU
 70
     6
  9
$SURFV
 70
     6
  9
$UCSBASE
  2

  9
$UCSNAME
  2

  9
$UCSORG
 10
0.0
 20
0.0
 30
0.0
  9
$UCSXDIR
 10
1.0
 20
0.0
 30
0.0
  9
$UCSYDIR
 10
0.0
 20
1.0
 30
0.0
  9
$UCSORTHOREF
  2

  9
$UCSORTHOVIEW
 70
     0
  9
$UCSORGTOP
 10
0.0
 20
0.0
 30
0.0
  9
$UCSORGBOTTOM
 10
0.0
 20
0.0
 30
0.0
  9
$UCSORGLEFT
 10
0.0
 20
0.0
 30
0.0
  9
$UCSORGRIGHT
 10
0.0
 20
0.0
 30
0.0
  9
$UCSORGFRONT
 10
0.0
 20
0.0
 30
0.0
  9
$UCSORGBACK
 10
0.0
 20
0.0
 30
0.0
  9
$PUCSBASE
  2

  9
$PUCSNAME
  2

  9
$PUCSORG
 10
0.0
 20
0.0
 30
0.0
  9
$PUCSXDIR
 10
1.0
 20
0.0
 30
0.0
  9
$PUCSYDIR
 10
0.0
 20
1.0
 30
0.0
  9
$PUCSORTHOREF
  2

  9
$PUCSORTHOVIEW
 70
     0
  9
$PUCSORGTOP
 10
0.0
 20
0.0
 30
0.0
  9
$PUCSORGBOTTOM
 10
0.0
 20
0.0
 30
0.0
  9
$PUCSORGLEFT
 10
0.0
 20
0.0
 30
0.0
  9
$PUCSORGRIGHT
 10
0.0
 20
0.0
 30
0.0
  9
$PUCSORGFRONT
 10
0.0
 20
0.0
 30
0.0
  9
$PUCSORGBACK
 10
0.0
 20
0.0
 30
0.0
  9
$USERI1
 70
     0
  9
$USERI2
 70
     0
  9
$USERI3
 70
     0
  9
$USERI4
 70
     0
  9
$USERI5
 70
     0
  9
$USERR1
 40
0.0
  9
$USERR2
 40
0.0
  9
$USERR3
 40
0.0
  9
$USERR4
 40
0.0
  9
$USERR5
 40
0.0
  9
$WORLDVIEW
 70
     1
  9
$SHADEDGE
 70
     3
  9
$SHADEDIF
 70
    70
  9
$TILEMODE
 70
     1
  9
$MAXACTVP
 70
    64
  9
$PINSBASE
 10
0.0
 20
0.0
 30
0.0
  9
$PLIMCHECK
 70
     0
  9
$PEXTMIN
 10
1.000000000000000E+20
 20
1.000000000000000E+20
 30
1.000000000000000E+20
  9
$PEXTMAX
 10
-1.000000000000000E+20
 20
-1.000000000000000E+20
 30
-1.000000000000000E+20
  9
$PLIMMIN
 10
0.0
 20
0.0
  9
$PLIMMAX
 10
0.0
 20
0.0
  9
$UNITMODE
 70
     0
  9
$VISRETAIN
 70
     1
  9
$PLINEGEN
 70
     0
  9
$PSLTSCALE
 70
     1
  9
$TREEDEPTH
 70
  3020
  9
$CMLSTYLE
  2
Standard
  9
$CMLJUST
 70
     0
  9
$CMLSCALE
 40
20.0
  9
$PROXYGRAPHICS
 70
     1
  9
$MEASUREMENT
 70
     1
  9
$CELWEIGHT
370
    -1
  9
$ENDCAPS
280
     0
  9
$JOINSTYLE
280
     0
  9
$LWDISPLAY
290
     1
  9
$INSUNITS
 70
     4
  9
$HYPERLINKBASE
  1

  9
$STYLESHEET
  1

  9
$XEDIT
290
     1
  9
$CEPSNTYPE
380
     0
  9
$PSTYLEMODE
290
     1
  9
$FINGERPRINTGUID
  2
{3959A952-EE6E-4D2A-8201-DBB9BFA62949}
  9
$VERSIONGUID
  2
{FAEB1C32-E019-11D5-929B-00C0DF256EC4}
  9
$EXTNAMES
290
     1
  9
$PSVPSCALE
 40
0.0
  9
$OLESTARTUP
290
     0
  0
ENDSEC
  0
SECTION
  2
CLASSES
  0
CLASS
  1
ACDBDICTIONARYWDFLT
  2
AcDbDictionaryWithDefault
  3
ObjectDBX Classes
 90
        0
280
     0
281
     0
  0
CLASS
  1
VISUALSTYLE
  2
AcDbVisualStyle
  3
ObjectDBX Classes
 90
     4095
280
     0
281
     0
  0
CLASS
  1
MATERIAL
  2
AcDbMaterial
  3
ObjectDBX Classes
 90
     1153
280
     0
281
     0
  0
CLASS
  1
SCALE
  2
AcDbScale
  3
ObjectDBX Classes
 90
     1153
280
     0
281
     0
  0
CLASS
  1
SUN
  2
AcDbSun
  3
SCENEOE
 90
     1153
280
     0
281
     0
  0
CLASS
  1
ACDBPLACEHOLDER
  2
AcDbPlaceHolder
  3
ObjectDBX Classes
 90
        0
280
     0
281
     0
  0
CLASS
  1
LAYOUT
  2
AcDbLayout
  3
ObjectDBX Classes
 90
        0
280
     0
281
     0
  0
CLASS
  1
TABLESTYLE
  2
AcDbTableStyle
  3
ObjectDBX Classes
 90
     4095
280
     0
281
     0
  0
CLASS
  1
MLEADERSTYLE
  2
AcDbMLeaderStyle
  3
ACDB_MLEADERSTYLE_CLASS
 90
     4095
280
     0
281
     0
  0
CLASS
  1
RASTERVARIABLES
  2
AcDbRasterVariables
  3
ISM
 90
        0
280
     0
281
     0
  0
ENDSEC
  0
SECTION
  2
TABLES
  0
TABLE
  2
VPORT
  5
8
330
0
100
AcDbSymbolTable
 70
     1
  0
VPORT
  5
29
330
8
100
AcDbSymbolTableRecord
100
AcDbViewportTableRecord
  2
*Active
 70
     0
 10
0.0
 20
0.0
 11
1.0
 21
1.0
 12
-44.83621148619707
 22
8.185326315830151
 13
0.0
 23
0.0
 14
10.0
 24
10.0
 15
10.0
 25
10.0
 16
0.0
 26
0.0
 36
1.0
 17
0.0
 27
0.0
 37
0.0
 40
121.4888462509792
 41
1.398452611218569
 42
50.0
 43
0.0
 44
0.0
 50
0.0
 51
0.0
 71
    16
 72
  2000
 73
     1
 74
     3
 75
     0
 76
     0
 77
     0
 78
     0
281
     0
 65
     1
110
0.0
120
0.0
130
0.0
111
1.0
121
0.0
131
0.0
112
0.0
122
1.0
132
0.0
 79
     0
146
0.0
  0
ENDTAB
  0
TABLE
  2
LTYPE
  5
5
330
0
100
AcDbSymbolTable
 70
     6
  0
LTYPE
  5
14
330
5
100
AcDbSymbolTableRecord
100
AcDbLinetypeTableRecord
  2
ByBlock
 70
     0
  3

 72
    65
 73
     0
 40
0.0
  0
LTYPE
  5
15
330
5
100
AcDbSymbolTableRecord
100
AcDbLinetypeTableRecord
  2
ByLayer
 70
     0
  3

 72
    65
 73
     0
 40
0.0
  0
LTYPE
  5
16
330
5
100
AcDbSymbolTableRecord
100
AcDbLinetypeTableRecord
  2
Continuous
 70
     0
  3
Solid line
 72
    65
 73
     0
 40
0.0
  0
LTYPE
  5
6A
330
5
100
AcDbSymbolTableRecord
100
AcDbLinetypeTableRecord
  2
HIDDEN
 70
     0
  3
Hidden __ __ __ __ __ __ __ __ __ __ __ __ __ __
 72
    65
 73
     2
 40
1.905
 49
1.27
 74
     0
 49
-0.635
 74
     0
  0
LTYPE
  5
6B
330
5
100
AcDbSymbolTableRecord
100
AcDbLinetypeTableRecord
  2
PHANTOM
 70
     0
  3
Phantom ______  __  __  ______  __  __  ______
 72
    65
 73
     6
 40
12.7
 49
6.35
 74
     0
 49
-1.27
 74
     0
 49
1.27
 74
     0
 49
-1.27
 74
     0
 49
1.27
 74
     0
 49
-1.27
 74
     0
  0
LTYPE
  5
6C
330
5
100
AcDbSymbolTableRecord
100
AcDbLinetypeTableRecord
  2
CENTER
 70
     0
  3
Center ____ _ ____ _ ____ _ ____ _ ____ _ ____
 72
    65
 73
     4
 40
10.16
 49
6.35
 74
     0
 49
-1.27
 74
     0
 49
1.27
 74
     0
 49
-1.27
 74
     0
  0
LTYPE
  5
6D
330
5
100
AcDbSymbolTableRecord
100
AcDbLinetypeTableRecord
  2
CENTERX2
 70
     0
  3
Center (2x) ________  __  ________  __  _____
 72
    65
 73
     4
 40
20.32
 49
12.7
 74
     0
 49
-2.54
 74
     0
 49
2.54
 74
     0
 49
-2.54
 74
     0
  0
LTYPE
  5
6E
330
5
100
AcDbSymbolTableRecord
100
AcDbLinetypeTableRecord
  2
DOT2
 70
     0
  3
Dot (.5x) ........................................
 72
    65
 73
     2
 40
0.635
 49
0.0
 74
     0
 49
-0.635
 74
     0
  0
ENDTAB
  0
TABLE
  2
LAYER
  5
2
330
0
100
AcDbSymbolTable
 70
    18
  0
LAYER
  5
10
330
2
100
AcDbSymbolTableRecord
100
AcDbLayerTableRecord
  2
0
 70
     0
 62
     7
  6
Continuous
370
    -3
390
F
  0
LAYER
  5
6F
330
2
100
AcDbSymbolTableRecord
100
AcDbLayerTableRecord
  2
FORMAT
 70
     0
 62
     2
  6
Continuous
370
    -3
390
F
  0
LAYER
  5
70
330
2
100
AcDbSymbolTableRecord
100
AcDbLayerTableRecord
  2
외형선
 70
     0
 62
     4
  6
Continuous
370
    30
390
F
  0
LAYER
  5
71
330
2
100
AcDbSymbolTableRecord
100
AcDbLayerTableRecord
  2
숨은선
 70
     0
 62
     2
  6
HIDDEN
370
    15
390
F
  0
LAYER
  5
72
330
2
100
AcDbSymbolTableRecord
100
AcDbLayerTableRecord
  2
중심선
 70
     0
 62
     1
  6
CENTERX2
370
    -3
390
F
  0
LAYER
  5
73
330
2
100
AcDbSymbolTableRecord
100
AcDbLayerTableRecord
  2
파단선
 70
     0
 62
     4
  6
Continuous
370
    -3
390
F
  0
LAYER
  5
74
330
2
100
AcDbSymbolTableRecord
100
AcDbLayerTableRecord
  2
해칭선
 70
     0
 62
   100
  6
Continuous
370
    -3
390
F
  0
LAYER
  5
75
330
2
100
AcDbSymbolTableRecord
100
AcDbLayerTableRecord
  2
가는실선
 70
     0
 62
     4
  6
Continuous
370
    -3
390
F
  0
LAYER
  5
76
330
2
100
AcDbSymbolTableRecord
100
AcDbLayerTableRecord
  2
치수_보조선
 70
     0
 62
     4
  6
Continuous
370
    -3
390
F
  0
LAYER
  5
77
330
2
100
AcDbSymbolTableRecord
100
AcDbLayerTableRecord
  2
치수문자_일반주서
 70
     0
 62
     7
  6
Continuous
370
    15
390
F
  0
LAYER
  5
78
330
2
100
AcDbSymbolTableRecord
100
AcDbLayerTableRecord
  2
개별주서
 70
     0
 62
   100
  6
Continuous
370
    30
390
F
  0
LAYER
  5
79
330
2
100
AcDbSymbolTableRecord
100
AcDbLayerTableRecord
  2
중간선
 70
     0
 62
     2
  6
Continuous
370
    15
390
F
  0
LAYER
  5
7A
330
2
100
AcDbSymbolTableRecord
100
AcDbLayerTableRecord
  2
윤곽선
 70
     0
 62
     3
  6
Continuous
370
    40
390
F
  0
LAYER
  5
7B
330
2
100
AcDbSymbolTableRecord
100
AcDbLayerTableRecord
  2
중심마크
 70
     0
 62
   100
  6
Continuous
370
    30
390
F
  0
LAYER
  5
7C
330
2
100
AcDbSymbolTableRecord
100
AcDbLayerTableRecord
  2
가상선
 70
     0
 62
     4
  6
PHANTOM
370
    -3
390
F
  0
LAYER
  5
7D
330
2
100
AcDbSymbolTableRecord
100
AcDbLayerTableRecord
  2
특수지정선
 70
     0
 62
     5
  6
CENTERX2
370
    60
390
F
  0
LAYER
  5
7E
330
2
100
AcDbSymbolTableRecord
100
AcDbLayerTableRecord
  2
참조1
 70
     0
 62
    -4
  6
Continuous
370
    -3
390
F
  0
LAYER
  5
147
330
2
100
AcDbSymbolTableRecord
100
AcDbLayerTableRecord
  2
Defpoints
 70
     0
 62
     7
  6
Continuous
290
     0
370
    -3
390
F
  0
ENDTAB
  0
TABLE
  2
STYLE
  5
3
330
0
100
AcDbSymbolTable
 70
     2
  0
STYLE
  5
11
330
3
100
AcDbSymbolTableRecord
100
AcDbTextStyleTableRecord
  2
Standard
 70
     0
 40
0.0
 41
1.0
 50
0.0
 71
     0
 42
3.5
  3
txt
  4

  0
STYLE
  5
94
330
3
100
AcDbSymbolTableRecord
100
AcDbTextStyleTableRecord
  2
SLDTEXTSTYLE0
 70
     0
 40
0.0
 41
0.75
 50
0.0
 71
     0
 42
3.5
  3
TXT
  4

  0
ENDTAB
  0
TABLE
  2
VIEW
  5
6
330
0
100
AcDbSymbolTable
 70
     0
  0
ENDTAB
  0
TABLE
  2
UCS
  5
7
330
0
100
AcDbSymbolTable
 70
     0
  0
ENDTAB
  0
TABLE
  2
APPID
  5
9
330
0
100
AcDbSymbolTable
 70
     1
  0
APPID
  5
12
330
9
100
AcDbSymbolTableRecord
100
AcDbRegAppTableRecord
  2
ACAD
 70
     0
  0
ENDTAB
  0
TABLE
  2
DIMSTYLE
  5
A
330
0
100
AcDbSymbolTable
 70
     3
100
AcDbDimStyleTable
  0
DIMSTYLE
105
27
330
A
100
AcDbSymbolTableRecord
100
AcDbDimStyleTableRecord
  2
ISO-25
 70
     0
 41
2.5
 42
0.625
 43
3.75
 44
1.25
 73
     0
 74
     0
 77
     1
 78
     8
140
2.5
141
2.5
143
0.03937007874016
147
0.625
171
     3
172
     1
178
     0
271
     2
272
     2
274
     3
278
    44
283
     0
284
     8
340
11
  0
DIMSTYLE
105
C5
102
{ACAD_REACTORS
330
C4
330
D9
102
}
330
A
100
AcDbSymbolTableRecord
100
AcDbDimStyleTableRecord
  2
SLDDIMSTYLE0
 70
     0
 41
3.302
 44
0.0
 45
0.000000001
 73
     0
 74
     0
 77
     1
 78
    12
 79
     3
140
3.5
143
0.0393700787401575
147
0.875
148
0.000000001
170
     1
173
     1
178
     0
271
     2
272
     2
276
     2
284
    12
340
94
  0
DIMSTYLE
105
ED
102
{ACAD_REACTORS
330
EC
330
101
102
}
330
A
100
AcDbSymbolTableRecord
100
AcDbDimStyleTableRecord
  2
SLDDIMSTYLE1
 70
     0
 41
3.302
 44
0.0
 45
0.000000001
 73
     0
 74
     0
 77
     1
 78
    12
 79
     3
140
3.5
143
0.0393700787401575
147
0.875
148
0.000000001
170
     1
172
     1
173
     1
178
     0
271
     2
272
     2
276
     2
284
    12
289
     0
340
94
  0
ENDTAB
  0
TABLE
  2
BLOCK_RECORD
  5
1
330
0
100
AcDbSymbolTable
 70
     7
  0
BLOCK_RECORD
  5
1F
330
1
100
AcDbSymbolTableRecord
100
AcDbBlockTableRecord
  2
*Model_Space
340
22
  0
BLOCK_RECORD
  5
1B
330
1
100
AcDbSymbolTableRecord
100
AcDbBlockTableRecord
  2
*Paper_Space
340
1E
  0
BLOCK_RECORD
  5
23
330
1
100
AcDbSymbolTableRecord
100
AcDbBlockTableRecord
  2
*Paper_Space0
340
26
  0
BLOCK_RECORD
  5
7F
330
1
100
AcDbSymbolTableRecord
100
AcDbBlockTableRecord
  2
블럭10
340
0
102
{BLKREFS
331
BD
102
}
  0
BLOCK_RECORD
  5
C6
330
1
100
AcDbSymbolTableRecord
100
AcDbBlockTableRecord
  2
_D
340
0
  0
BLOCK_RECORD
  5
DA
330
1
100
AcDbSymbolTableRecord
100
AcDbBlockTableRecord
  2
_D_1
340
0
  0
BLOCK_RECORD
  5
EE
330
1
100
AcDbSymbolTableRecord
100
AcDbBlockTableRecord
  2
_D_2
340
0
  0
BLOCK_RECORD
  5
102
330
1
100
AcDbSymbolTableRecord
100
AcDbBlockTableRecord
  2
_D_3
340
0
  0
BLOCK_RECORD
  5
11C
330
1
100
AcDbSymbolTableRecord
100
AcDbBlockTableRecord
  2
SW_DOWELSYMBOL_0
340
0
102
{BLKREFS
331
122
102
}
  0
ENDTAB
  0
ENDSEC
  0
SECTION
  2
BLOCKS
  0
BLOCK
  5
20
330
1F
100
AcDbEntity
  8
0
100
AcDbBlockBegin
  2
*Model_Space
 70
     0
 10
0.0
 20
0.0
 30
0.0
  3
*Model_Space
  1
*Model_Space
  0
ENDBLK
  5
21
330
1F
100
AcDbEntity
  8
0
100
AcDbBlockEnd
  0
BLOCK
  5
1C
330
1B
100
AcDbEntity
 67
     1
  8
0
100
AcDbBlockBegin
  2
*Paper_Space
 70
     0
 10
0.0
 20
0.0
 30
0.0
  3
*Paper_Space
  1
*Paper_Space
  0
ENDBLK
  5
1D
330
1B
100
AcDbEntity
 67
     1
  8
0
100
AcDbBlockEnd
  0
BLOCK
  5
24
330
23
100
AcDbEntity
  8
0
100
AcDbBlockBegin
  2
*Paper_Space0
 70
     0
 10
0.0
 20
0.0
 30
0.0
  3
*Paper_Space0
  1
*Paper_Space0
  0
ENDBLK
  5
25
330
23
100
AcDbEntity
  8
0
100
AcDbBlockEnd
  0
BLOCK
  5
80
330
7F
100
AcDbEntity
  8
0
100
AcDbBlockBegin
  2
블럭10
 70
     2
 10
0.0
 20
0.0
 30
0.0
  3
블럭10
  1
블럭10
  0
ELLIPSE
  5
82
330
7F
100
AcDbEntity
  8
중심선
100
AcDbEllipse
 10
20.54032771741204
 20
12.0471743016438
 30
0.0
 11
6.600054785286829
 21
-1.261213355974178E-13
 31
0.0
210
0.0
220
0.0
230
1.0
 40
0.636358354079598
 41
0.9219305317359503
 42
6.513795318482858
  0
ELLIPSE
  5
83
330
7F
100
AcDbEntity
  8
중심선
100
AcDbEllipse
 10
20.54032771746488
 20
12.04717430159265
 30
0.0
 11
3.960054785062283
 21
1.540847449632565E-10
 31
0.0
210
0.0
220
0.0
230
1.0
 40
0.3939339440162632
 41
1.131841032648279
 42
5.62031148352944
  0
LINE
  5
84
330
7F
100
AcDbEntity
  8
중심선
100
AcDbLine
 10
2.268634060543552
 20
16.24717430164393
 30
0.0
 11
5.714909304380834
 21
16.24717430164393
 31
0.0
  0
LINE
  5
85
330
7F
100
AcDbEntity
  8
중심선
100
AcDbLine
 10
5.245725140726316
 20
7.84717430164391
 30
0.0
 11
8.692000384563599
 21
7.84717430164391
 31
0.0
  0
LINE
  5
86
330
7F
100
AcDbEntity
  8
중심선
100
AcDbLine
 10
15.74043728645272
 20
16.24717430164393
 30
0.0
 11
8.692000384563599
 21
7.84717430164391
 31
0.0
  0
LINE
  5
87
330
7F
100
AcDbEntity
  8
중심선
100
AcDbLine
 10
0.1404042013395286
 20
13.71084872107135
 30
0.0
 11
3.58671253028996
 21
13.71088815037384
 31
0.0
  0
LINE
  5
88
330
7F
100
AcDbEntity
  8
중심선
100
AcDbLine
 10
2.750260043222114
 20
10.84717430164391
 30
0.0
 11
6.196535287059397
 21
10.84717430164391
 31
0.0
  0
LINE
  5
89
330
7F
100
AcDbEntity
  8
중심선
100
AcDbLine
 10
12.29416204261559
 20
16.24717430164393
 30
0.0
 11
5.245725140726316
 21
7.84717430164391
 31
0.0
  0
LINE
  5
8A
330
7F
100
AcDbEntity
  8
중심선
100
AcDbLine
 10
10.72767329541681
 20
16.24717430164393
 30
0.0
 11
6.196535287059397
 21
10.84717430164391
 31
0.0
  0
LINE
  5
8B
330
7F
100
AcDbEntity
  8
중심선
100
AcDbLine
 10
7.28139805157953
 20
16.24717430164393
 30
0.0
 11
2.750260043222114
 21
10.84717430164391
 31
0.0
  0
LINE
  5
8C
330
7F
100
AcDbEntity
  8
중심선
100
AcDbLine
 10
5.714909304380834
 20
16.24717430164393
 30
0.0
 11
3.58671253028996
 21
13.71088815037384
 31
0.0
  0
LINE
  5
8D
330
7F
100
AcDbEntity
  8
중심선
100
AcDbLine
 10
2.268634060543552
 20
16.24717430164393
 30
0.0
 11
0.1404042013395286
 21
13.71084872107135
 31
0.0
  0
LINE
  5
8E
330
7F
100
AcDbEntity
  8
중심선
100
AcDbLine
 10
7.28139805157953
 20
16.24717430164393
 30
0.0
 11
10.72767329541681
 21
16.24717430164393
 31
0.0
  0
LINE
  5
8F
330
7F
100
AcDbEntity
  8
중심선
100
AcDbLine
 10
12.29416204261559
 20
16.24717430164393
 30
0.0
 11
15.74043728645272
 21
16.24717430164393
 31
0.0
  0
LINE
  5
90
330
7F
100
AcDbEntity
  8
중심선
100
AcDbLine
 10
19.22036997980202
 20
11.08717430171403
 30
0.0
 11
23.66174974927406
 21
11.08717430171406
 31
0.0
  0
LINE
  5
91
330
7F
100
AcDbEntity
  8
중심선
100
AcDbLine
 10
19.22039502424796
 20
13.00717430171391
 30
0.0
 11
19.22036997980202
 21
11.08717430171403
 31
0.0
  0
LINE
  5
92
330
7F
100
AcDbEntity
  8
중심선
100
AcDbLine
 10
19.22039502424796
 20
13.00717430171391
 30
0.0
 11
26.96566020931264
 21
13.00717430171391
 31
0.0
  0
LINE
  5
93
330
7F
100
AcDbEntity
  8
중심선
100
AcDbLine
 10
22.22332737316547
 20
13.45928029700563
 30
0.0
 11
24.52862924686651
 21
15.39360700705356
 31
0.0
  0
ATTDEF
  5
95
330
7F
100
AcDbEntity
  8
FORMAT
 62
     2
100
AcDbText
 10
3.448148490846466
 20
2.075366912832191
 30
0.0
 40
4.233333333333333
  1
EM962012
 41
0.75
  7
SLDTEXTSTYLE0
 11
3.448148490846466
 21
-0.0412997538344756
 31
0.0
100
AcDbAttributeDefinition
  3

  2
AUTOATTR0
 70
     0
 74
     1
  0
ENDBLK
  5
81
330
7F
100
AcDbEntity
  8
0
100
AcDbBlockEnd
  0
BLOCK
  5
C7
330
C6
100
AcDbEntity
  8
0
100
AcDbBlockBegin
  2
_D
 70
     0
 10
0.0
 20
0.0
 30
0.0
  3
_D
  1
_D
  0
LINE
  5
C9
330
C6
100
AcDbEntity
  8
치수문자_일반주서
 62
     0
370
    -2
100
AcDbLine
 10
19.52500000000076
 20
2.655842057052167
 30
0.0
 11
19.52500000000077
 21
16.16272813705066
 31
0.0
  0
LINE
  5
CA
330
C6
100
AcDbEntity
  8
치수문자_일반주서
 62
     0
370
    -2
100
AcDbLine
 10
10.00000000000076
 20
2.358579417575203
 30
0.0
 11
10.00000000000076
 21
16.16272813705066
 31
0.0
  0
LINE
  5
CB
330
C6
100
AcDbEntity
  8
치수문자_일반주서
 62
     0
370
    -2
100
AcDbLine
 10
10.00000000000076
 20
16.16272813705066
 30
0.0
 11
-16.92699999999924
 21
16.16272813705066
 31
0.0
  0
LINE
  5
CC
330
C6
100
AcDbEntity
  8
치수문자_일반주서
 62
     0
370
    -2
100
AcDbLine
 10
16.22300000000077
 20
16.16272813705066
 30
0.0
 11
13.30200000000076
 21
16.16272813705066
 31
0.0
  0
SOLID
  5
CD
330
C6
100
AcDbEntity
  8
치수문자_일반주서
 62
     0
100
AcDbTrace
 10
16.22300000000077
 20
15.61239480371733
 30
0.0
 11
16.22300000000077
 21
16.713061470384
 31
0.0
 12
19.52500000000077
 22
16.16272813705066
 32
0.0
 13
19.52500000000077
 23
16.16272813705066
 33
0.0
  0
SOLID
  5
CE
330
C6
100
AcDbEntity
  8
치수문자_일반주서
 62
     0
100
AcDbTrace
 10
13.30200000000076
 20
16.713061470384
 30
0.0
 11
13.30200000000076
 21
15.61239480371733
 31
0.0
 12
10.00000000000076
 22
16.16272813705066
 32
0.0
 13
10.00000000000076
 23
16.16272813705066
 33
0.0
  0
MTEXT
  5
CF
330
C6
100
AcDbEntity
  8
치수문자_일반주서
 62
     0
100
AcDbMText
 10
-5.114499999999241
 20
20.53772813705066
 30
0.0
 40
3.5
 41
0.0
 71
     2
 72
     1
  1
\A1;9.53 [3/8]
  7
SLDTEXTSTYLE0
 73
     1
 44
1.0
  0
POINT
  5
D0
330
C6
100
AcDbEntity
  8
Defpoints
 62
     0
100
AcDbPoint
 10
19.52500000000076
 20
2.593342057052167
 30
0.0
  0
POINT
  5
D1
330
C6
100
AcDbEntity
  8
Defpoints
 62
     0
100
AcDbPoint
 10
10.00000000000076
 20
2.296079417575203
 30
0.0
  0
POINT
  5
D2
330
C6
100
AcDbEntity
  8
Defpoints
 62
     0
100
AcDbPoint
 10
10.00000000000076
 20
16.16272813705066
 30
0.0
  0
ENDBLK
  5
C8
330
C6
100
AcDbEntity
  8
0
100
AcDbBlockEnd
  0
BLOCK
  5
DB
330
DA
100
AcDbEntity
  8
0
100
AcDbBlockBegin
  2
_D_1
 70
     0
 10
0.0
 20
0.0
 30
0.0
  3
_D_1
  1
_D_1
  0
LINE
  5
DD
330
DA
100
AcDbEntity
  8
치수문자_일반주서
 62
     0
370
    -2
100
AcDbLine
 10
19.52500000000076
 20
2.655842057052167
 30
0.0
 11
19.52500000000077
 21
41.60284544168752
 31
0.0
  0
LINE
  5
DE
330
DA
100
AcDbEntity
  8
치수문자_일반주서
 62
     0
370
    -2
100
AcDbLine
 10
-101.1249999999992
 20
2.014824928723881
 30
0.0
 11
-101.1249999999993
 21
41.60284544168752
 31
0.0
  0
LINE
  5
DF
330
DA
100
AcDbEntity
  8
치수문자_일반주서
 62
     0
370
    -2
100
AcDbLine
 10
16.22300000000077
 20
41.60284544168752
 30
0.0
 11
-97.82299999999927
 21
41.60284544168752
 31
0.0
  0
SOLID
  5
E0
330
DA
100
AcDbEntity
  8
치수문자_일반주서
 62
     0
100
AcDbTrace
 10
16.22300000000077
 20
41.05251210835419
 30
0.0
 11
16.22300000000077
 21
42.15317877502086
 31
0.0
 12
19.52500000000077
 22
41.60284544168752
 32
0.0
 13
19.52500000000077
 23
41.60284544168752
 33
0.0
  0
SOLID
  5
E1
330
DA
100
AcDbEntity
  8
치수문자_일반주서
 62
     0
100
AcDbTrace
 10
-97.82299999999927
 20
42.15317877502086
 30
0.0
 11
-97.82299999999927
 21
41.05251210835419
 31
0.0
 12
-101.1249999999993
 22
41.60284544168752
 32
0.0
 13
-101.1249999999993
 23
41.60284544168752
 33
0.0
  0
MTEXT
  5
E2
330
DA
100
AcDbEntity
  8
치수문자_일반주서
 62
     0
100
AcDbMText
 10
-40.79999999999924
 20
45.97784544168752
 30
0.0
 40
3.5
 41
0.0
 71
     2
 72
     1
  1
\A1;120.65 [4 3/4]
  7
SLDTEXTSTYLE0
 73
     1
 44
1.0
  0
POINT
  5
E3
330
DA
100
AcDbEntity
  8
Defpoints
 62
     0
100
AcDbPoint
 10
19.52500000000076
 20
2.593342057052167
 30
0.0
  0
POINT
  5
E4
330
DA
100
AcDbEntity
  8
Defpoints
 62
     0
100
AcDbPoint
 10
-101.1249999999992
 20
1.952324928723881
 30
0.0
  0
POINT
  5
E5
330
DA
100
AcDbEntity
  8
Defpoints
 62
     0
100
AcDbPoint
 10
-101.1249999999992
 20
41.60284544168752
 30
0.0
  0
ENDBLK
  5
DC
330
DA
100
AcDbEntity
  8
0
100
AcDbBlockEnd
  0
BLOCK
  5
EF
330
EE
100
AcDbEntity
  8
0
100
AcDbBlockBegin
  2
_D_2
 70
     0
 10
0.0
 20
0.0
 30
0.0
  3
_D_2
  1
_D_2
  0
LINE
  5
F1
330
EE
100
AcDbEntity
  8
치수문자_일반주서
 62
     0
370
    -2
100
AcDbLine
 10
-100.7574999999993
 20
2.382324928723867
 30
0.0
 11
-114.1249999999993
 21
2.38232492872382
 31
0.0
  0
LINE
  5
F2
330
EE
100
AcDbEntity
  8
치수문자_일반주서
 62
     0
370
    -2
100
AcDbLine
 10
-100.7574999999993
 20
-2.380175071276108
 30
0.0
 11
-114.1249999999992
 21
-2.380175071276155
 31
0.0
  0
LINE
  5
F3
330
EE
100
AcDbEntity
  8
치수문자_일반주서
 62
     0
370
    -2
100
AcDbLine
 10
-114.1249999999992
 20
-0.9196750712761794
 30
0.0
 11
-114.1249999999993
 21
0.9218249287238449
 31
0.0
  0
SOLID
  5
F4
330
EE
100
AcDbEntity
  8
치수문자_일반주서
 62
     0
100
AcDbTrace
 10
-113.5746666666659
 20
-0.9196750712761778
 30
0.0
 11
-114.6753333333326
 21
-0.9196750712761811
 31
0.0
 12
-114.1249999999993
 22
2.38232492872382
 32
0.0
 13
-114.1249999999993
 23
2.38232492872382
 33
0.0
  0
SOLID
  5
F5
330
EE
100
AcDbEntity
  8
치수문자_일반주서
 62
     0
100
AcDbTrace
 10
-114.6753333333326
 20
0.9218249287238433
 30
0.0
 11
-113.5746666666659
 21
0.9218249287238466
 31
0.0
 12
-114.1249999999992
 22
-2.380175071276155
 32
0.0
 13
-114.1249999999992
 23
-2.380175071276155
 33
0.0
  0
MTEXT
  5
F6
330
EE
100
AcDbEntity
  8
치수문자_일반주서
 62
     0
100
AcDbMText
 10
-118.4999999999993
 20
0.0010749287238523
 30
0.0
 40
3.5
 41
0.0
 71
     2
 72
     1
  1
\A1;%%c4.76 [3/16]
  7
SLDTEXTSTYLE0
 11
-2.983906501879701E-15
 21
1.0
 31
0.0
 73
     1
 44
1.0
  0
POINT
  5
F7
330
EE
100
AcDbEntity
  8
Defpoints
 62
     0
100
AcDbPoint
 10
-100.6949999999993
 20
2.382324928723867
 30
0.0
  0
POINT
  5
F8
330
EE
100
AcDbEntity
  8
Defpoints
 62
     0
100
AcDbPoint
 10
-100.6949999999993
 20
-2.380175071276108
 30
0.0
  0
POINT
  5
F9
330
EE
100
AcDbEntity
  8
Defpoints
 62
     0
100
AcDbPoint
 10
-114.1249999999992
 20
-2.380175071276155
 30
0.0
  0
ENDBLK
  5
F0
330
EE
100
AcDbEntity
  8
0
100
AcDbBlockEnd
  0
BLOCK
  5
103
330
102
100
AcDbEntity
  8
0
100
AcDbBlockBegin
  2
_D_3
 70
     0
 10
0.0
 20
0.0
 30
0.0
  3
_D_3
  1
_D_3
  0
LINE
  5
105
330
102
100
AcDbEntity
  8
치수문자_일반주서
 62
     0
370
    -2
100
AcDbLine
 10
17.20625000000075
 20
2.382324928723893
 30
0.0
 11
37.7312500000008
 21
2.382324928723964
 31
0.0
  0
LINE
  5
106
330
102
100
AcDbEntity
  8
치수문자_일반주서
 62
     0
370
    -2
100
AcDbLine
 10
17.20625000000075
 20
-2.380175071276107
 30
0.0
 11
37.73125000000081
 21
-2.380175071276035
 31
0.0
  0
LINE
  5
107
330
102
100
AcDbEntity
  8
치수문자_일반주서
 62
     0
370
    -2
100
AcDbLine
 10
37.7312500000008
 20
2.382324928723964
 30
0.0
 11
37.73125000000069
 21
36.98632492872396
 31
0.0
  0
LINE
  5
108
330
102
100
AcDbEntity
  8
치수문자_일반주서
 62
     0
370
    -2
100
AcDbLine
 10
37.7312500000008
 20
2.382324928723964
 30
0.0
 11
37.73125000000081
 21
-2.380175071276035
 31
0.0
  0
LINE
  5
109
330
102
100
AcDbEntity
  8
치수문자_일반주서
 62
     0
370
    -2
100
AcDbLine
 10
37.73125000000079
 20
5.684324928723964
 30
0.0
 11
37.73125000000078
 21
8.986324928723963
 31
0.0
  0
LINE
  5
10A
330
102
100
AcDbEntity
  8
치수문자_일반주서
 62
     0
370
    -2
100
AcDbLine
 10
37.73125000000082
 20
-5.682175071276035
 30
0.0
 11
37.73125000000083
 21
-8.984175071276034
 31
0.0
  0
SOLID
  5
10B
330
102
100
AcDbEntity
  8
치수문자_일반주서
 62
     0
100
AcDbTrace
 10
37.18091666666746
 20
5.684324928723962
 30
0.0
 11
38.28158333333413
 21
5.684324928723965
 31
0.0
 12
37.7312500000008
 22
2.382324928723964
 32
0.0
 13
37.7312500000008
 23
2.382324928723964
 33
0.0
  0
SOLID
  5
10C
330
102
100
AcDbEntity
  8
치수문자_일반주서
 62
     0
100
AcDbTrace
 10
38.28158333333415
 20
-5.682175071276033
 30
0.0
 11
37.18091666666749
 21
-5.682175071276037
 31
0.0
 12
37.73125000000081
 22
-2.380175071276035
 32
0.0
 13
37.73125000000081
 23
-2.380175071276035
 33
0.0
  0
MTEXT
  5
10D
330
102
100
AcDbEntity
  8
치수문자_일반주서
 62
     0
100
AcDbMText
 10
33.35625000000073
 20
22.98632492872395
 30
0.0
 40
3.5
 41
0.0
 71
     2
 72
     1
  1
\A1;%%c4.76 [3/16]
  7
SLDTEXTSTYLE0
 11
-2.983906501879686E-15
 21
1.0
 31
0.0
 73
     1
 44
1.0
  0
POINT
  5
10E
330
102
100
AcDbEntity
  8
Defpoints
 62
     0
100
AcDbPoint
 10
17.14375000000075
 20
2.382324928723893
 30
0.0
  0
POINT
  5
10F
330
102
100
AcDbEntity
  8
Defpoints
 62
     0
100
AcDbPoint
 10
17.14375000000075
 20
-2.380175071276107
 30
0.0
  0
POINT
  5
110
330
102
100
AcDbEntity
  8
Defpoints
 62
     0
100
AcDbPoint
 10
37.73125000000081
 20
-2.380175071276035
 30
0.0
  0
ENDBLK
  5
104
330
102
100
AcDbEntity
  8
0
100
AcDbBlockEnd
  0
BLOCK
  5
11D
330
11C
100
AcDbEntity
  8
0
100
AcDbBlockBegin
  2
SW_DOWELSYMBOL_0
 70
     0
 10
0.0
 20
0.0
 30
0.0
  3
SW_DOWELSYMBOL_0
  1
SW_DOWELSYMBOL_0
  0
CIRCLE
  5
11F
330
11C
100
AcDbEntity
  8
해칭선
 62
     0
100
AcDbCircle
 10
0.0
 20
0.0
 30
0.0
 40
3.00000000000172
  0
HATCH
  5
120
330
11C
100
AcDbEntity
  8
0
  6
Continuous
 62
     0
370
     0
100
AcDbHatch
 10
0.0
 20
0.0
 30
0.0
210
0.0
220
0.0
230
1.0
  2
SOLID
 70
     1
 71
     0
 91
        1
 92
        0
 93
        3
 72
     2
 10
0.0000000000007581
 20
0.0
 40
3.00000000000172
 50
0.0
 51
90.0
 73
     1
 72
     1
 10
0.0000000000007581
 20
3.00000000000172
 11
0.0000000000007581
 21
0.0
 72
     1
 10
0.0000000000007581
 20
0.0
 11
3.000000000002478
 21
0.0
 97
        0
 75
     0
 76
     1
 98
        1
 10
0.0
 20
0.0
  0
HATCH
  5
121
330
11C
100
AcDbEntity
  8
0
  6
Continuous
 62
     0
370
     0
100
AcDbHatch
 10
0.0
 20
0.0
 30
0.0
210
0.0
220
0.0
230
1.0
  2
SOLID
 70
     1
 71
     0
 91
        1
 92
        0
 93
        3
 72
     2
 10
0.0000000000007581
 20
0.0
 40
3.00000000000172
 50
180.0
 51
270.0000000000008
 73
     1
 72
     1
 10
0.0000000000007581
 20
-3.00000000000172
 11
0.0000000000007581
 21
0.0
 72
     1
 10
0.0000000000007581
 20
0.0
 11
-3.000000000000961
 21
0.0
 97
        0
 75
     0
 76
     1
 98
        1
 10
0.0
 20
0.0
  0
ENDBLK
  5
11E
330
11C
100
AcDbEntity
  8
0
100
AcDbBlockEnd
  0
ENDSEC
  0
SECTION
  2
ENTITIES
  0
LINE
  5
96
330
1F
100
AcDbEntity
  8
외형선
  6
Continuous
370
    15
100
AcDbLine
 10
9.109677658512402
 20
2.382324928723894
 30
0.0
 11
-100.6949999999993
 21
2.38232492872388
 31
0.0
  0
LINE
  5
97
330
1F
100
AcDbEntity
  8
외형선
  6
Continuous
370
    15
100
AcDbLine
 10
-100.6949999999993
 20
-2.380175071276121
 30
0.0
 11
9.109677658512402
 21
-2.380175071276108
 31
0.0
  0
LINE
  5
98
330
1F
100
AcDbEntity
  8
외형선
  6
Continuous
370
    15
100
AcDbLine
 10
-100.6949999999993
 20
2.38232492872388
 30
0.0
 11
-101.1249999999992
 21
1.95232492872388
 31
0.0
  0
LINE
  5
99
330
1F
100
AcDbEntity
  8
외형선
  6
Continuous
370
    15
100
AcDbLine
 10
-101.1249999999992
 20
-1.950175071276121
 30
0.0
 11
-100.6949999999993
 21
-2.380175071276121
 31
0.0
  0
LINE
  5
9A
330
1F
100
AcDbEntity
  8
외형선
  6
Continuous
 62
     1
370
    15
100
AcDbLine
 10
16.66872684923483
 20
-2.380175071276107
 30
0.0
 11
17.14375000000075
 21
-2.380175071276107
 31
0.0
  0
ARC
  5
9B
330
1F
100
AcDbEntity
  8
외형선
  6
Continuous
 62
     1
370
    15
100
AcDbCircle
 10
17.14375000000075
 20
0.0010749287238931
 30
0.0
 40
2.381250000000001
100
AcDbArc
 50
270.0000000000008
 51
0.0
  0
ARC
  5
9C
330
1F
100
AcDbEntity
  8
외형선
  6
Continuous
 62
     1
370
    15
100
AcDbCircle
 10
17.14375000000075
 20
0.0010749287238931
 30
0.0
 40
2.381250000000001
100
AcDbArc
 50
0.0
 51
90.0
  0
LINE
  5
9D
330
1F
100
AcDbEntity
  8
외형선
  6
Continuous
 62
     1
370
    15
100
AcDbLine
 10
17.14375000000075
 20
2.382324928723893
 30
0.0
 11
16.66712261162143
 21
2.382324928723893
 31
0.0
  0
LINE
  5
9E
330
1F
100
AcDbEntity
  8
외형선
  6
Continuous
370
    15
100
AcDbLine
 10
9.109677658512402
 20
2.378794541125036
 30
0.0
 11
9.109677658512402
 21
2.382324928723894
 31
0.0
  0
SPLINE
  5
9F
330
1F
100
AcDbEntity
  8
외형선
  6
Continuous
370
    15
100
AcDbSpline
210
0.0
220
0.0
230
1.0
 70
     8
 71
     3
 72
     8
 73
     4
 74
     0
 42
0.000000001
 43
0.00000001
 40
0.0
 40
0.0
 40
0.0
 40
0.0
 40
1.0
 40
1.0
 40
1.0
 40
1.0
 10
10.00000000000076
 20
2.296079417575185
 30
0.0
 10
9.705439831848125
 20
2.341597369554739
 30
0.0
 10
9.405222014808354
 20
2.369511772853703
 30
0.0
 10
9.109677658512402
 20
2.378802274441019
 30
0.0
  0
SPLINE
  5
A0
330
1F
100
AcDbEntity
  8
외형선
  6
Continuous
370
    15
100
AcDbSpline
210
0.0
220
0.0
230
1.0
 70
     8
 71
     3
 72
     8
 73
     4
 74
     0
 42
0.000000001
 43
0.00000001
 40
0.0
 40
0.0
 40
0.0
 40
0.0
 40
1.0
 40
1.0
 40
1.0
 40
1.0
 10
9.10990197454303
 20
0.6164991296191861
 30
0.0
 10
9.405373917329124
 20
0.4514807609337344
 30
0.0
 10
9.705514354563686
 20
0.2808053361058478
 30
0.0
 10
10.00000000000076
 20
0.1103530990317817
 30
0.0
  0
LINE
  5
A1
330
1F
100
AcDbEntity
  8
외형선
  6
Continuous
370
    15
100
AcDbLine
 10
9.109677658512402
 20
-2.380175071276108
 30
0.0
 11
9.109677658512402
 21
0.6166141279136083
 31
0.0
  0
SPLINE
  5
A2
330
1F
100
AcDbEntity
  8
외형선
  6
Continuous
370
    15
100
AcDbSpline
210
0.0
220
0.0
230
1.0
 70
     8
 71
     3
 72
     8
 73
     4
 74
     0
 42
0.000000001
 43
0.00000001
 40
0.0
 40
0.0
 40
0.0
 40
0.0
 40
1.0
 40
1.0
 40
1.0
 40
1.0
 10
10.00000000000076
 20
-2.293929560127399
 30
0.0
 10
9.705439831848125
 20
-2.339447512106952
 30
0.0
 10
9.405222014808354
 20
-2.367361915405917
 30
0.0
 10
9.109677658512402
 20
-2.376652416993232
 30
0.0
  0
LINE
  5
A3
330
1F
100
AcDbEntity
  8
외형선
  6
Continuous
370
    15
100
AcDbLine
 10
-100.6949999999993
 20
2.38232492872388
 30
0.0
 11
-100.6949999999993
 21
-2.380175071276121
 31
0.0
  0
LINE
  5
A4
330
1F
100
AcDbEntity
  8
외형선
  6
Continuous
370
    15
100
AcDbLine
 10
10.00000000000076
 20
2.296079417575184
 30
0.0
 11
10.00000000000076
 21
0.1103530990317817
 31
0.0
  0
LINE
  5
A5
330
1F
100
AcDbEntity
  8
외형선
  6
Continuous
370
    15
100
AcDbLine
 10
-101.1249999999992
 20
1.95232492872388
 30
0.0
 11
-101.1249999999992
 21
-1.950175071276122
 31
0.0
  0
SPLINE
  5
A6
330
1F
100
AcDbEntity
  8
외형선
  6
Continuous
370
    15
100
AcDbSpline
210
0.0
220
0.0
230
1.0
 70
     8
 71
     3
 72
     8
 73
     4
 74
     0
 42
0.000000001
 43
0.00000001
 40
0.0
 40
0.0
 40
0.0
 40
0.0
 40
1.0
 40
1.0
 40
1.0
 40
1.0
 10
10.00000000000076
 20
-1.197816081091648
 30
0.0
 10
9.705439831848125
 20
-1.119553828578058
 30
0.0
 10
9.405222014808354
 20
-1.031452158376424
 30
0.0
 10
9.109677658512402
 20
-0.9365158681368833
 30
0.0
  0
SPLINE
  5
A7
330
1F
100
AcDbEntity
  8
외형선
  6
Continuous
370
    15
100
AcDbSpline
210
0.0
220
0.0
230
1.0
 70
    24
 71
     3
 72
    14
 73
    10
 74
     0
 42
0.000000001
 43
0.00000001
 40
0.0
 40
0.0
 40
0.0
 40
0.0
 40
0.25
 40
0.25
 40
0.5
 40
0.5
 40
0.75
 40
0.75
 40
1.0
 40
1.0
 40
1.0
 40
1.0
 10
10.00000000000076
 20
0.1103530990323022
 30
0.0
 10
10.00000000000076
 20
0.091104907732335
 30
0.0
 10
10.00000000000076
 20
0.0356330542459739
 30
0.0
 10
10.00000000000076
 20
-0.136268564484261
 30
0.0
 10
10.00000000000076
 20
-0.252016053967557
 30
0.0
 10
10.00000000000076
 20
-0.5107200195655135
 30
0.0
 10
10.00000000000076
 20
-0.6529746120945407
 30
0.0
 10
10.00000000000076
 20
-0.932960688184891
 30
0.0
 10
10.00000000000076
 20
-1.070580476391854
 30
0.0
 10
10.00000000000076
 20
-1.197816081091648
 30
0.0
  0
SPLINE
  5
A8
330
1F
100
AcDbEntity
  8
외형선
  6
Continuous
370
    15
100
AcDbSpline
210
0.0
220
0.0
230
1.0
 70
    24
 71
     3
 72
    16
 73
    12
 74
     0
 42
0.000000001
 43
0.00000001
 40
0.0
 40
0.0
 40
0.0
 40
0.0
 40
0.038710114196905
 40
0.1832470530761808
 40
0.3319755729745835
 40
0.4765125118538594
 40
0.6252410317522624
 40
0.7697779706315376
 40
0.9185064905299402
 40
0.9592085620213886
 40
1.0
 40
1.0
 40
1.0
 40
1.0
 10
10.00000000000075
 20
-1.197816081091648
 30
0.0
 10
10.00000000000075
 20
-1.199655572326614
 30
0.0
 10
10.00000000000075
 20
-1.20836340889492
 30
0.0
 10
10.00000000000076
 20
-1.267809495642022
 30
0.0
 10
10.00000000000076
 20
-1.374571514340115
 30
0.0
 10
10.00000000000075
 20
-1.524389456634514
 30
0.0
 10
10.00000000000076
 20
-1.70592775044683
 30
0.0
 10
10.00000000000076
 20
-1.918404620901085
 30
0.0
 10
10.00000000000075
 20
-2.096621461430139
 30
0.0
 10
10.00000000000076
 20
-2.224595731886963
 30
0.0
 10
10.00000000000076
 20
-2.270801394204317
 30
0.0
 10
10.00000000000075
 20
-2.293929560127415
 30
0.0
  0
SPLINE
  5
A9
330
1F
100
AcDbEntity
  8
외형선
  6
Continuous
 62
     1
370
    15
100
AcDbSpline
210
0.0
220
0.0
230
1.0
 70
     8
 71
     3
 72
    28
 73
    24
 74
     0
 42
0.000000001
 43
0.00000001
 40
0.0
 40
0.0
 40
0.0
 40
0.0
 40
0.1250000000000002
 40
0.1250000000000002
 40
0.1875000000000001
 40
0.1875000000000001
 40
0.2500000000000001
 40
0.2500000000000001
 40
0.375
 40
0.375
 40
0.4999999999999999
 40
0.4999999999999999
 40
0.6249999999999999
 40
0.6249999999999999
 40
0.6874999999999999
 40
0.6874999999999999
 40
0.7499999999999998
 40
0.7499999999999998
 40
0.8749999999999999
 40
0.8749999999999999
 40
0.9375
 40
0.9375
 40
1.0
 40
1.0
 40
1.0
 40
1.0
 10
17.14375000000075
 20
-0.9944176753662044
 30
0.0
 10
16.84871667793734
 20
-0.8387544328786332
 30
0.0
 10
16.54707990497028
 20
-0.6741206127623743
 30
0.0
 10
16.10042980069192
 20
-0.4222151301825348
 30
0.0
 10
15.95358419425209
 20
-0.3376431288968606
 30
0.0
 10
15.6565104365142
 20
-0.166868950247461
 30
0.0
 10
15.5067925234134
 20
-0.0807603639921475
 30
0.0
 10
15.05802995943212
 20
0.1774680224251643
 30
0.0
 10
14.76385887997098
 20
0.3486241453207142
 30
0.0
 10
14.16697993720749
 20
0.6844894445534516
 30
0.0
 10
13.86748636540119
 20
0.8485386279250948
 30
0.0
 10
13.27633130604429
 20
1.159557830068632
 30
0.0
 10
12.97459260692076
 20
1.308241423799951
 30
0.0
 10
12.52847028669674
 20
1.513187288036688
 30
0.0
 10
12.38168321958111
 20
1.578403758628655
 30
0.0
 10
12.08422405659887
 20
1.703006479079081
 30
0.0
 10
11.93442482838048
 20
1.762246123587255
 30
0.0
 10
11.48575956999703
 20
1.929163441531649
 30
0.0
 10
11.19182342105479
 20
2.025606659804174
 30
0.0
 10
10.7438287219961
 20
2.146267203331956
 30
0.0
 10
10.59390168375295
 20
2.18240750511987
 30
0.0
 10
10.29549167503171
 20
2.245900307948308
 30
0.0
 10
10.14804220245669
 20
2.273202672546835
 30
0.0
 10
10.00000000000076
 20
2.296079417575187
 30
0.0
  0
SPLINE
  5
AA
330
1F
100
AcDbEntity
  8
외형선
  6
Continuous
 62
     1
370
    15
100
AcDbSpline
210
0.0
220
0.0
230
1.0
 70
     8
 71
     3
 72
    13
 73
     9
 74
     0
 42
0.000000001
 43
0.00000001
 40
0.0
 40
0.0
 40
0.0
 40
0.0
 40
0.1503805475005135
 40
0.3008298794821221
 40
0.5000998599594676
 40
0.6994110776147148
 40
0.8987400809268739
 40
1.0
 40
1.0
 40
1.0
 40
1.0
 10
18.8875228862916
 20
0.2506512415177243
 30
0.0
 10
18.56011621547218
 20
0.3765765760627641
 30
0.0
 10
17.90515311711057
 20
0.6284848437514482
 30
0.0
 10
16.8163803301652
 20
1.003277323680856
 30
0.0
 10
15.62050995675597
 20
1.340611558920159
 30
0.0
 10
14.31832530483905
 20
1.566946263729554
 30
0.0
 10
13.22954405464153
 20
1.652176443188598
 30
0.0
 10
12.57487272971695
 20
1.598228862678541
 30
0.0
 10
12.3543324488067
 20
1.580055446328761
 30
0.0
  0
SPLINE
  5
AB
330
1F
100
AcDbEntity
  8
외형선
  6
Continuous
 62
     1
370
    15
100
AcDbSpline
210
0.0
220
0.0
230
1.0
 70
     8
 71
     3
 72
    22
 73
    18
 74
     0
 42
0.000000001
 43
0.00000001
 40
0.0
 40
0.0
 40
0.0
 40
0.0
 40
0.1250000000000001
 40
0.1250000000000001
 40
0.2500000000000001
 40
0.2500000000000001
 40
0.3750000000000002
 40
0.3750000000000002
 40
0.5000000000000002
 40
0.5000000000000002
 40
0.6250000000000002
 40
0.6250000000000002
 40
0.7500000000000002
 40
0.7500000000000002
 40
0.8750000000000001
 40
0.8750000000000001
 40
1.0
 40
1.0
 40
1.0
 40
1.0
 10
17.14375000000076
 20
-0.9944176753662174
 30
0.0
 10
17.27581214279498
 20
-1.064095300976203
 30
0.0
 10
17.40589993608228
 20
-1.126337278868444
 30
0.0
 10
17.66567373941611
 20
-1.230924398438742
 30
0.0
 10
17.79670149514387
 20
-1.273745569773308
 30
0.0
 10
18.05533022876017
 20
-1.328811688544653
 30
0.0
 10
18.1820497620675
 20
-1.341440307841006
 30
0.0
 10
18.43589102795124
 20
-1.323114325829863
 30
0.0
 10
18.55969286892075
 20
-1.291648161581069
 30
0.0
 10
18.79317549020341
 20
-1.165383544634399
 30
0.0
 10
18.90174657799924
 20
-1.069651875057112
 30
0.0
 10
19.06683457542648
 20
-0.8154419701704283
 30
0.0
 10
19.1165296699135
 20
-0.6648075519086057
 30
0.0
 10
19.14160626109751
 20
-0.3702915757258184
 30
0.0
 10
19.11898543543325
 20
-0.2315040009134909
 30
0.0
 10
19.03150946787233
 20
0.0226959123909611
 30
0.0
 10
18.96672115695786
 20
0.1394150013040636
 30
0.0
 10
18.88752288629118
 20
0.2506512415178886
 30
0.0
  0
SPLINE
  5
AC
330
1F
100
AcDbEntity
  8
외형선
  6
Continuous
 62
     1
370
    15
100
AcDbSpline
210
0.0
220
0.0
230
1.0
 70
     8
 71
     3
 72
    10
 73
     6
 74
     0
 42
0.000000001
 43
0.00000001
 40
0.0
 40
0.0
 40
0.0
 40
0.0
 40
0.0784292167422939
 40
0.4764494907560071
 40
1.0
 40
1.0
 40
1.0
 40
1.0
 10
13.27258263385478
 20
-1.605427823881987
 30
0.0
 10
13.18703941832257
 20
-1.611177055328713
 30
0.0
 10
12.66737311065216
 20
-1.646103049859956
 30
0.0
 10
11.57678381878244
 20
-1.549960387653727
 30
0.0
 10
10.57125029959446
 20
-1.32539383666453
 30
0.0
 10
10.00000000000076
 20
-1.197816081091648
 30
0.0
  0
SPLINE
  5
AD
330
1F
100
AcDbEntity
  8
외형선
  6
Continuous
 62
     1
370
    15
100
AcDbSpline
210
0.0
220
0.0
230
1.0
 70
     8
 71
     3
 72
    13
 73
     9
 74
     0
 42
0.000000001
 43
0.00000001
 40
0.0
 40
0.0
 40
0.0
 40
0.0
 40
0.1257187331473072
 40
0.2527529437193205
 40
0.4593991936038538
 40
0.6658532679426148
 40
0.8658631899830876
 40
1.0
 40
1.0
 40
1.0
 40
1.0
 10
10.00000000000076
 20
0.1103530990317815
 30
0.0
 10
10.27934788172187
 20
-0.0511588091886015
 30
0.0
 10
10.84096664496569
 20
-0.375872630481995
 30
0.0
 10
11.86092614083731
 20
-0.9491354897763986
 30
0.0
 10
13.06261978896658
 20
-1.55737485030421
 30
0.0
 10
14.42578957335877
 20
-2.067428400216261
 30
0.0
 10
15.62770125312988
 20
-2.353814764309905
 30
0.0
 10
16.37053176001831
 20
-2.351444695808883
 30
0.0
 10
16.66872684923483
 20
-2.350493277172252
 30
0.0
  0
SPLINE
  5
AE
330
1F
100
AcDbEntity
  8
외형선
  6
Continuous
370
    15
100
AcDbSpline
210
0.0
220
0.0
230
1.0
 70
    24
 71
     3
 72
    14
 73
    10
 74
     0
 42
0.000000001
 43
0.00000001
 40
0.0
 40
0.0
 40
0.0
 40
0.0
 40
0.25
 40
0.25
 40
0.5
 40
0.5
 40
0.75
 40
0.75
 40
1.0
 40
1.0
 40
1.0
 40
1.0
 10
10.00000000000076
 20
0.1103530990323028
 30
0.0
 10
10.00000000000076
 20
0.0911049077323362
 30
0.0
 10
10.00000000000076
 20
0.0356330542459755
 30
0.0
 10
10.00000000000076
 20
-0.136268564484259
 30
0.0
 10
10.00000000000076
 20
-0.2520160539675549
 30
0.0
 10
10.00000000000076
 20
-0.5107200195655115
 30
0.0
 10
10.00000000000076
 20
-0.6529746120945394
 30
0.0
 10
10.00000000000076
 20
-0.9329606881848906
 30
0.0
 10
10.00000000000076
 20
-1.070580476391853
 30
0.0
 10
10.00000000000076
 20
-1.197816081091648
 30
0.0
  0
SPLINE
  5
AF
330
1F
100
AcDbEntity
  8
외형선
  6
Continuous
 62
     1
370
    15
100
AcDbSpline
210
0.0
220
0.0
230
1.0
 70
     8
 71
     3
 72
    10
 73
     6
 74
     0
 42
0.000000001
 43
0.00000001
 40
0.0
 40
0.0
 40
0.0
 40
0.0
 40
0.5
 40
0.5
 40
1.0
 40
1.0
 40
1.0
 40
1.0
 10
18.88752288629117
 20
0.2506512415178907
 30
0.0
 10
18.94227568137414
 20
0.2836995449198231
 30
0.0
 10
18.9859885268886
 20
0.3339407948784559
 30
0.0
 10
19.04445868334626
 20
0.4612949254338903
 30
0.0
 10
19.05894266252947
 20
0.5380109955537037
 30
0.0
 10
19.06028924506875
 20
0.6177974049443699
 30
0.0
  0
ARC
  5
B0
330
1F
100
AcDbEntity
  8
외형선
  6
Continuous
 62
     1
370
    15
100
AcDbCircle
 10
18.3857251835076
 20
-0.4128671051441649
 30
0.0
 40
1.231789757022665
100
AcDbArc
 50
23.84128576077542
 51
56.79548103001493
  0
ARC
  5
B1
330
1F
100
AcDbEntity
  8
외형선
  6
Continuous
 62
     1
370
    15
100
AcDbCircle
 10
17.38336360640797
 20
0.0452474035278233
 30
0.0
 40
2.129412657004794
100
AcDbArc
 50
1.070428387799446
 51
71.14416676675745
  0
SPLINE
  5
B2
330
1F
100
AcDbEntity
  8
외형선
  6
Continuous
 62
     1
370
    15
100
AcDbSpline
210
0.0
220
0.0
230
1.0
 70
     8
 71
     3
 72
    10
 73
     6
 74
     0
 42
0.000000001
 43
0.00000001
 40
0.0
 40
0.0
 40
0.0
 40
0.0
 40
0.5
 40
0.5
 40
1.0
 40
1.0
 40
1.0
 40
1.0
 10
18.07156428154375
 20
2.060384643160613
 30
0.0
 10
17.92414610379864
 20
2.150276875329498
 30
0.0
 10
17.77227285421115
 20
2.220870080739545
 30
0.0
 10
17.4625631567424
 20
2.323585909680018
 30
0.0
 10
17.30321939350288
 20
2.355809315818597
 30
0.0
 10
17.14374999999984
 20
2.366477176004345
 30
0.0
  0
SPLINE
  5
B3
330
1F
100
AcDbEntity
  8
외형선
  6
Continuous
 62
     1
370
    15
100
AcDbSpline
210
0.0
220
0.0
230
1.0
 70
     8
 71
     3
 72
     8
 73
     4
 74
     0
 42
0.000000001
 43
0.00000001
 40
0.0
 40
0.0
 40
0.0
 40
0.0
 40
1.0
 40
1.0
 40
1.0
 40
1.0
 10
17.58788212320045
 20
1.067049043239835
 30
0.0
 10
18.07197695665489
 20
0.9324914738922871
 30
0.0
 10
18.56552449600319
 20
0.7809160419044019
 30
0.0
 10
19.06028924506876
 20
0.6177974049443881
 30
0.0
  0
SPLINE
  5
B4
330
1F
100
AcDbEntity
  8
외형선
  6
Continuous
 62
     1
370
    15
100
AcDbSpline
210
0.0
220
0.0
230
1.0
 70
     8
 71
     3
 72
    13
 73
     9
 74
     0
 42
0.000000001
 43
0.00000001
 40
0.0
 40
0.0
 40
0.0
 40
0.0
 40
0.1268189214182179
 40
0.3045344665354852
 40
0.4755442716066793
 40
0.6476680769490827
 40
0.8232287600244764
 40
1.0
 40
1.0
 40
1.0
 40
1.0
 10
13.25597082580277
 20
1.608552535095652
 30
0.0
 10
13.42024131127664
 20
1.678088487430228
 30
0.0
 10
13.81470945610762
 20
1.845067467478587
 30
0.0
 10
14.43172342714548
 20
2.048621168212295
 30
0.0
 10
15.10570795438469
 20
2.224193574594438
 30
0.0
 10
15.77887764297224
 20
2.336604540552404
 30
0.0
 10
16.45775464142208
 20
2.393210483990999
 30
0.0
 10
16.91456170813698
 20
2.375408666745053
 30
0.0
 10
17.14374999999977
 20
2.366477176004349
 30
0.0
  0
SPLINE
  5
B5
330
1F
100
AcDbEntity
  8
외형선
  6
Continuous
 62
     1
370
    15
100
AcDbSpline
210
0.0
220
0.0
230
1.0
 70
     8
 71
     3
 72
    14
 73
    10
 74
     0
 42
0.000000001
 43
0.00000001
 40
0.0
 40
0.0
 40
0.0
 40
0.0
 40
0.25
 40
0.25
 40
0.5
 40
0.5
 40
0.75
 40
0.75
 40
1.0
 40
1.0
 40
1.0
 40
1.0
 10
18.07156428154376
 20
2.060384643160612
 30
0.0
 10
18.08845426833189
 20
1.960399727108221
 30
0.0
 10
18.09602605428554
 20
1.858582756658049
 30
0.0
 10
18.08118102799479
 20
1.652519988020145
 30
0.0
 10
18.05818117473697
 20
1.550987277142673
 30
0.0
 10
17.97408731311955
 20
1.366313245488112
 30
0.0
 10
17.91269119256463
 20
1.284091095185147
 30
0.0
 10
17.76453406877866
 20
1.152778845605467
 30
0.0
 10
17.67777705170777
 20
1.10280750132537
 30
0.0
 10
17.5878821232016
 20
1.067049043239606
 30
0.0
  0
SPLINE
  5
B6
330
1F
100
AcDbEntity
  8
외형선
  6
Continuous
 62
     1
370
    15
100
AcDbSpline
210
0.0
220
0.0
230
1.0
 70
     8
 71
     3
 72
    10
 73
     6
 74
     0
 42
0.000000001
 43
0.00000001
 40
0.0
 40
0.0
 40
0.0
 40
0.0
 40
0.109795797525107
 40
0.5548035022467341
 40
1.0
 40
1.0
 40
1.0
 40
1.0
 10
12.3543324488067
 20
-1.577905588880974
 30
0.0
 10
12.26817489046891
 20
-1.617621205172027
 30
0.0
 10
11.83281655992891
 20
-1.818306144931449
 30
0.0
 10
11.04806623868092
 20
-2.085314546639524
 30
0.0
 10
10.34940480321385
 20
-2.224381391276145
 30
0.0
 10
10.00000000000076
 20
-2.2939295601274
 30
0.0
  0
SPLINE
  5
B7
330
1F
100
AcDbEntity
  8
외형선
  6
Continuous
370
    15
100
AcDbSpline
210
0.0
220
0.0
230
1.0
 70
    24
 71
     3
 72
    15
 73
    11
 74
     0
 42
0.000000001
 43
0.00000001
 40
0.0
 40
0.0
 40
0.0
 40
0.0
 40
0.1008982565714217
 40
0.2360878957935266
 40
0.3751980437114692
 40
0.5103876829335738
 40
0.6494978308515167
 40
0.7846874700736214
 40
0.9237976179915643
 40
1.0
 40
1.0
 40
1.0
 40
1.0
 10
10.00000000000076
 20
-1.186034061197097
 30
0.0
 10
10.00000000000076
 20
-1.190200392002035
 30
0.0
 10
10.00000000000076
 20
-1.199949026976926
 30
0.0
 10
10.00000000000076
 20
-1.266579228467174
 30
0.0
 10
10.00000000000076
 20
-1.374891919895838
 30
0.0
 10
10.00000000000076
 20
-1.52431084515534
 30
0.0
 10
10.00000000000076
 20
-1.705913783666171
 30
0.0
 10
10.00000000000076
 20
-1.918534134619511
 30
0.0
 10
10.00000000000076
 20
-2.117954300893301
 30
0.0
 10
10.00000000000076
 20
-2.2479293955417
 30
0.0
 10
10.00000000000076
 20
-2.293929560127414
 30
0.0
  0
LINE
  5
B8
330
1F
100
AcDbEntity
  8
중심선
 62
     1
100
AcDbLine
 10
-104.1249999999992
 20
0.0010749287238892
 30
0.0
 11
22.52500000000077
 21
0.0010749287239047
 31
0.0
  0
LINE
  5
B9
330
1F
100
AcDbEntity
  8
참조1
100
AcDbLine
 10
-40.79999999999924
 20
0.0010749287238892
 30
0.0
 11
-40.79999999999923
 21
-39.99892507127611
 31
0.0
  0
LINE
  5
BA
330
1F
100
AcDbEntity
  8
참조1
100
AcDbLine
 10
19.52500000000075
 20
0.0010749287238931
 30
0.0
 11
19.52500000000076
 21
2.59334205705217
 31
0.0
  0
LINE
  5
BB
330
1F
100
AcDbEntity
  8
참조1
100
AcDbLine
 10
-40.79999999999923
 20
-39.99892507127611
 30
0.0
 11
-27.38385681430791
 21
-39.9989250712761
 31
0.0
  0
CIRCLE
  5
BC
330
1F
100
AcDbEntity
  8
해칭선
100
AcDbCircle
 10
0.0000000000007581
 20
0.0
 30
0.0
 40
3.00000000000172
  0
INSERT
  5
BD
330
1F
100
AcDbEntity
  8
0
  6
Continuous
 62
     7
100
AcDbBlockReference
 66
     1
  2
블럭10
 10
-54.74027293212444
 20
-52.04609937292004
 30
0.0
  0
ATTRIB
  5
BE
330
BD
100
AcDbEntity
  8
FORMAT
 62
     2
100
AcDbText
 10
-64.88190894426107
 20
-49.97073246008785
 30
0.0
 40
4.233333333333333
  1
EM962012 [ 2 FLUTE ]
 41
0.75
  7
SLDTEXTSTYLE0
 11
-64.88190894426107
 21
-52.08739912675452
 31
0.0
100
AcDbAttribute
  2
AUTOATTR0
 70
     0
 74
     1
  0
SEQEND
  5
BF
330
BD
100
AcDbEntity
  8
0
  6
Continuous
 62
     7
  0
HATCH
  5
C0
330
1F
100
AcDbEntity
  8
중심선
100
AcDbHatch
 10
0.0
 20
0.0
 30
0.0
210
0.0
220
0.0
230
1.0
  2
SOLID
 70
     1
 71
     0
 91
        1
 92
        0
 93
        4
 72
     1
 10
-49.02536362774359
 20
-35.7989250712761
 11
-52.47163887158088
 21
-35.7989250712761
 72
     1
 10
-52.47163887158088
 20
-35.7989250712761
 11
-54.5998687307849
 21
-38.33525065184873
 72
     1
 10
-54.5998687307849
 20
-38.33525065184873
 11
-51.15356040183444
 21
-38.33521122254624
 72
     1
 10
-51.15356040183444
 20
-38.33521122254624
 11
-49.02536362774359
 21
-35.7989250712761
 97
        0
 75
     0
 76
     1
 98
        1
 10
0.0
 20
0.0
  0
HATCH
  5
C1
330
1F
100
AcDbEntity
  8
중심선
100
AcDbHatch
 10
0.0
 20
0.0
 30
0.0
210
0.0
220
0.0
230
1.0
  2
SOLID
 70
     1
 71
     0
 91
        1
 92
        0
 93
        4
 72
     1
 10
-44.01259963670764
 20
-35.79892507127613
 11
-47.4588748805449
 21
-35.79892507127608
 72
     1
 10
-47.4588748805449
 20
-35.79892507127608
 11
-51.99001288890231
 21
-41.19892507127612
 72
     1
 10
-51.99001288890231
 20
-41.19892507127612
 11
-48.54373764506504
 21
-41.19892507127612
 72
     1
 10
-48.54373764506504
 20
-41.19892507127612
 11
-44.01259963670764
 21
-35.79892507127613
 97
        0
 75
     0
 76
     1
 98
        1
 10
0.0
 20
0.0
  0
HATCH
  5
C2
330
1F
100
AcDbEntity
  8
중심선
100
AcDbHatch
 10
0.0
 20
0.0
 30
0.0
210
0.0
220
0.0
230
1.0
  2
SOLID
 70
     1
 71
     0
 91
        1
 92
        0
 93
        4
 72
     1
 10
-38.99983564567175
 20
-35.7989250712761
 11
-42.44611088950887
 21
-35.7989250712761
 72
     1
 10
-42.44611088950887
 20
-35.7989250712761
 11
-49.49454779139811
 21
-44.19892507127612
 72
     1
 10
-49.49454779139811
 20
-44.19892507127612
 11
-46.04827254756083
 21
-44.19892507127612
 72
     1
 10
-46.04827254756083
 20
-44.19892507127612
 11
-38.99983564567175
 21
-35.7989250712761
 97
        0
 75
     0
 76
     1
 98
        1
 10
0.0
 20
0.0
  0
HATCH
  5
C3
330
1F
100
AcDbEntity
  8
중심선
100
AcDbHatch
 10
0.0
 20
0.0
 30
0.0
210
0.0
220
0.0
230
1.0
  2
SOLID
 70
     1
 71
     0
 91
        1
 92
        0
 93
        6
 72
     3
 10
-34.19994521465955
 20
-39.99892507132738
 11
3.960054785062284
 21
1.540850780301639E-10
 40
0.3939339440162633
 50
17.09539180608434
 51
320.0019657685081
 73
     0
 72
     1
 10
-32.51694555895895
 20
-38.58681907591441
 11
-30.21164368525791
 21
-36.65249236586649
 72
     3
 10
-34.19994521471239
 20
-39.99892507127625
 11
6.600054785286829
 21
-1.249000902703301E-13
 40
0.6363583540795982
 50
39.9987384933741
 51
368.4976242363725
 73
     1
 72
     1
 10
-27.77461272281179
 20
-39.03892507120613
 11
-35.51987790787648
 21
-39.03892507120613
 72
     1
 10
-35.51987790787648
 20
-39.03892507120613
 11
-35.5199029523224
 21
-40.95892507120602
 72
     1
 10
-35.5199029523224
 20
-40.95892507120602
 11
-31.07852318285037
 21
-40.95892507120599
 97
        0
 75
     0
 76
     1
 98
        1
 10
0.0
 20
0.0
  0
DIMENSION
  5
C4
330
1F
100
AcDbEntity
  8
치수문자_일반주서
100
AcDbDimension
  2
_D
 10
10.00000000000076
 20
16.16272813705066
 30
0.0
 11
-5.114499999999241
 21
16.16272813705066
 31
0.0
 70
   160
  1
<>
 71
     2
 42
9.525000000000004
  3
SLDDIMSTYLE0
100
AcDbAlignedDimension
 13
19.52500000000076
 23
2.593342057052167
 33
0.0
 14
10.00000000000076
 24
2.296079417575203
 34
0.0
 50
0.0000000000000214
100
AcDbRotatedDimension
1001
ACAD
1000
DSTYLE
1002
{
1070
   171
1070
     6
1070
   273
1070
     7
1002
}
  0
DIMENSION
  5
D9
330
1F
100
AcDbEntity
  8
치수문자_일반주서
100
AcDbDimension
  2
_D_1
 10
-101.1249999999993
 20
41.60284544168752
 30
0.0
 11
-40.79999999999924
 21
41.60284544168752
 31
0.0
 70
   160
  1
<>
 71
     2
 42
120.65
  3
SLDDIMSTYLE0
100
AcDbAlignedDimension
 13
19.52500000000076
 23
2.593342057052167
 33
0.0
 14
-101.1249999999992
 24
1.952324928723881
 34
0.0
 50
0.0000000000000067
100
AcDbRotatedDimension
1001
ACAD
1000
DSTYLE
1002
{
1070
   171
1070
     6
1070
   273
1070
     7
1002
}
  0
DIMENSION
  5
EC
330
1F
100
AcDbEntity
  8
치수문자_일반주서
100
AcDbDimension
  2
_D_2
 10
-114.1249999999992
 20
-2.380175071276155
 30
0.0
 11
-114.1249999999993
 21
0.0010749287238654
 31
0.0
 70
   160
  1
%%c<>
 71
     2
 42
4.762499999999974
  3
SLDDIMSTYLE1
100
AcDbAlignedDimension
 13
-100.6949999999993
 23
2.382324928723867
 33
0.0
 14
-100.6949999999993
 24
-2.380175071276108
 34
0.0
 50
90.0000000000002
100
AcDbRotatedDimension
1001
ACAD
1000
DSTYLE
1002
{
1070
   171
1070
     6
1070
   273
1070
     7
1002
}
  0
DIMENSION
  5
101
330
1F
100
AcDbEntity
  8
치수문자_일반주서
100
AcDbDimension
  2
_D_3
 10
37.73125000000081
 20
-2.380175071276035
 30
0.0
 11
37.73125000000073
 21
22.98632492872396
 31
0.0
 70
   160
  1
%%c<>
 71
     2
 42
4.762499999999999
  3
SLDDIMSTYLE1
100
AcDbAlignedDimension
 13
17.14375000000075
 23
2.382324928723893
 33
0.0
 14
17.14375000000075
 24
-2.380175071276107
 34
0.0
 50
90.0000000000002
100
AcDbRotatedDimension
1001
ACAD
1000
DSTYLE
1002
{
1070
   171
1070
     6
1070
   273
1070
     7
1002
}
  0
LINE
  5
115
330
1F
100
AcDbEntity
  8
참조1
100
AcDbLine
 10
70.58848381534635
 20
7.441074928723896
 30
0.0
 11
70.58848381534635
 21
-7.438925071276109
 31
0.0
  0
LINE
  5
116
330
1F
100
AcDbEntity
  8
참조1
100
AcDbLine
 10
83.28848381534635
 20
5.441074928723896
 30
0.0
 11
70.58848381534635
 21
5.441074928723896
 31
0.0
  0
SOLID
  5
117
330
1F
100
AcDbEntity
  8
참조1
100
AcDbTrace
 10
70.58848381534635
 20
5.441074928723896
 30
0.0
 11
76.93848381534634
 21
4.425074928723896
 31
0.0
 12
76.93848381534634
 22
6.457074928723896
 32
0.0
 13
76.93848381534634
 23
6.457074928723896
 33
0.0
  0
LINE
  5
118
330
1F
100
AcDbEntity
  8
참조1
100
AcDbLine
 10
83.28848381534635
 20
-5.438925071276109
 30
0.0
 11
70.58848381534635
 21
-5.438925071276109
 31
0.0
  0
SOLID
  5
119
330
1F
100
AcDbEntity
  8
참조1
100
AcDbTrace
 10
70.58848381534635
 20
-5.438925071276109
 30
0.0
 11
76.93848381534634
 21
-6.454925071276109
 31
0.0
 12
76.93848381534634
 22
-4.422925071276109
 32
0.0
 13
76.93848381534634
 23
-4.422925071276109
 33
0.0
  0
MTEXT
  5
11A
330
1F
100
AcDbEntity
  8
참조1
100
AcDbMText
 10
79.98597390781663
 20
10.98929157337383
 30
0.0
 40
3.5
 41
0.0
 71
     1
 72
     1
  1
A
  7
SLDTEXTSTYLE0
 73
     1
 44
1.0
  0
MTEXT
  5
11B
330
1F
100
AcDbEntity
  8
참조1
100
AcDbMText
 10
79.98597390781663
 20
0.1092915733738251
 30
0.0
 40
3.5
 41
0.0
 71
     1
 72
     1
  1
A
  7
SLDTEXTSTYLE0
 73
     1
 44
1.0
  0
INSERT
  5
122
330
1F
100
AcDbEntity
  8
해칭선
100
AcDbBlockReference
  2
SW_DOWELSYMBOL_0
 10
0.0000000000007581
 20
0.0
 30
0.0
  0
ENDSEC
  0
SECTION
  2
OBJECTS
  0
DICTIONARY
  5
C
330
0
100
AcDbDictionary
281
     1
  3
ACAD_GROUP
350
D
  3
ACAD_IMAGE_VARS
350
146
  3
ACAD_LAYOUT
350
1A
  3
ACAD_MLINESTYLE
350
17
  3
ACAD_PLOTSETTINGS
350
19
  3
ACAD_PLOTSTYLENAME
350
E
  3
ACAD_SCALELIST
350
47
  3
APPDATA
350
144
  3
DWGPROPS
350
148
  0
DICTIONARY
  5
D
102
{ACAD_REACTORS
330
C
102
}
330
C
100
AcDbDictionary
281
     1
  0
RASTERVARIABLES
  5
146
102
{ACAD_REACTORS
330
C
102
}
330
C
100
AcDbRasterVariables
 90
        0
 70
     1
 71
     1
 72
     1
  0
DICTIONARY
  5
1A
102
{ACAD_REACTORS
330
C
102
}
330
C
100
AcDbDictionary
281
     1
  3
Layout1
350
1E
  3
Layout2
350
26
  3
Model
350
22
  0
DICTIONARY
  5
17
102
{ACAD_REACTORS
330
C
102
}
330
C
100
AcDbDictionary
281
     1
  3
Standard
350
18
  0
DICTIONARY
  5
19
102
{ACAD_REACTORS
330
C
102
}
330
C
100
AcDbDictionary
281
     1
  0
ACDBDICTIONARYWDFLT
  5
E
102
{ACAD_REACTORS
330
C
102
}
330
C
100
AcDbDictionary
281
     1
  3
Normal
350
F
100
AcDbDictionaryWithDefault
340
F
  0
DICTIONARY
  5
47
102
{ACAD_REACTORS
330
C
102
}
330
C
100
AcDbDictionary
281
     1
  3
A0
350
48
  3
A1
350
49
  3
A2
350
4A
  3
A3
350
4B
  3
A4
350
4C
  3
A5
350
4D
  3
A6
350
4E
  3
A7
350
4F
  3
A8
350
50
  3
A9
350
51
  3
B0
350
52
  3
B1
350
53
  3
B2
350
54
  3
B3
350
55
  3
B4
350
56
  3
B5
350
57
  3
B6
350
58
  3
B7
350
59
  3
B8
350
5A
  3
B9
350
5B
  3
C0
350
5C
  3
C1
350
5D
  3
C2
350
5E
  3
C3
350
5F
  3
C4
350
60
  3
C5
350
61
  3
C6
350
62
  3
C7
350
63
  3
C8
350
64
  3
C9
350
65
  3
D0
350
66
  3
D1
350
67
  3
D2
350
68
  0
DICTIONARY
  5
144
102
{ACAD_REACTORS
330
C
102
}
330
C
100
AcDbDictionary
281
     1
  0
XRECORD
  5
148
102
{ACAD_REACTORS
330
C
102
}
330
C
100
AcDbXrecord
280
     1
  1
DWGPROPS COOKIE
  2

  3

  4

  6

  7

  8
12016016
  9

300
=
301
=
302
=
303
=
304
=
305
=
306
=
307
=
308
=
309
=
 40
0.0
 41
2458288.093053287
 42
2458302.9679136
  1

 90
        0
  0
LAYOUT
  5
1E
102
{ACAD_REACTORS
330
1A
102
}
330
1A
100
AcDbPlotSettings
  1

  2
none_device
  4

  6

 40
0.0
 41
0.0
 42
0.0
 43
0.0
 44
0.0
 45
0.0
 46
0.0
 47
0.0
 48
0.0
 49
0.0
140
0.0
141
0.0
142
1.0
143
1.0
 70
   688
 72
     1
 73
     0
 74
     5
  7

 75
    16
147
1.0
148
0.0
149
0.0
100
AcDbLayout
  1
Layout1
 70
     1
 71
     1
 10
0.0
 20
0.0
 11
420.0
 21
297.0
 12
0.0
 22
0.0
 32
0.0
 14
1.000000000000000E+20
 24
1.000000000000000E+20
 34
1.000000000000000E+20
 15
-1.000000000000000E+20
 25
-1.000000000000000E+20
 35
-1.000000000000000E+20
146
0.0
 13
0.0
 23
0.0
 33
0.0
 16
1.0
 26
0.0
 36
0.0
 17
0.0
 27
1.0
 37
0.0
 76
     0
330
1B
  0
LAYOUT
  5
26
102
{ACAD_REACTORS
330
1A
102
}
330
1A
100
AcDbPlotSettings
  1

  2
none_device
  4

  6

 40
0.0
 41
0.0
 42
0.0
 43
0.0
 44
0.0
 45
0.0
 46
0.0
 47
0.0
 48
0.0
 49
0.0
140
0.0
141
0.0
142
1.0
143
1.0
 70
   688
 72
     1
 73
     0
 74
     5
  7

 75
    16
147
1.0
148
0.0
149
0.0
100
AcDbLayout
  1
Layout2
 70
     1
 71
     2
 10
0.0
 20
0.0
 11
0.0
 21
0.0
 12
0.0
 22
0.0
 32
0.0
 14
0.0
 24
0.0
 34
0.0
 15
0.0
 25
0.0
 35
0.0
146
0.0
 13
0.0
 23
0.0
 33
0.0
 16
1.0
 26
0.0
 36
0.0
 17
0.0
 27
1.0
 37
0.0
 76
     0
330
23
  0
LAYOUT
  5
22
102
{ACAD_REACTORS
330
1A
102
}
330
1A
100
AcDbPlotSettings
  1

  2
none_device
  4
ANSI_A_(11.00_x_8.50_Inches)
  6

 40
6.35
 41
19.05
 42
6.35000508
 43
19.05000254
 44
279.4
 45
215.9
 46
161.0027092450868
 47
87.78335972797203
 48
0.0
 49
0.0
140
0.0
141
0.0
142
0.0523038763594299
143
1.0
 70
  1696
 72
     0
 73
     0
 74
     0
  7

 75
     0
147
0.0235690232323232
148
0.0
149
0.0
100
AcDbLayout
  1
Model
 70
     1
 71
     0
 10
0.0
 20
0.0
 11
420.0
 21
297.0
 12
0.0
 22
0.0
 32
0.0
 14
-118.4999999999993
 24
-49.97073246008785
 34
0.0
 15
83.28848381534635
 25
45.97784544168752
 35
0.0
146
0.0
 13
0.0
 23
0.0
 33
0.0
 16
1.0
 26
0.0
 36
0.0
 17
0.0
 27
1.0
 37
0.0
 76
     0
330
1F
331
29
  0
MLINESTYLE
  5
18
102
{ACAD_REACTORS
330
17
102
}
330
17
100
AcDbMlineStyle
  2
Standard
 70
     0
  3

 62
   256
 51
90.0
 52
90.0
 71
     2
 49
0.5
 62
   256
  6
BYLAYER
 49
-0.5
 62
   256
  6
BYLAYER
  0
ACDBPLACEHOLDER
  5
F
102
{ACAD_REACTORS
330
E
102
}
330
E
  0
SCALE
  5
48
102
{ACAD_REACTORS
330
47
102
}
330
47
100
AcDbScale
 70
     0
300
1:1
140
1.0
141
1.0
290
     1
  0
SCALE
  5
49
102
{ACAD_REACTORS
330
47
102
}
330
47
100
AcDbScale
 70
     0
300
1:2
140
1.0
141
2.0
290
     0
  0
SCALE
  5
4A
102
{ACAD_REACTORS
330
47
102
}
330
47
100
AcDbScale
 70
     0
300
1:4
140
1.0
141
4.0
290
     0
  0
SCALE
  5
4B
102
{ACAD_REACTORS
330
47
102
}
330
47
100
AcDbScale
 70
     0
300
1:5
140
1.0
141
5.0
290
     0
  0
SCALE
  5
4C
102
{ACAD_REACTORS
330
47
102
}
330
47
100
AcDbScale
 70
     0
300
1:8
140
1.0
141
8.0
290
     0
  0
SCALE
  5
4D
102
{ACAD_REACTORS
330
47
102
}
330
47
100
AcDbScale
 70
     0
300
1:10
140
1.0
141
10.0
290
     0
  0
SCALE
  5
4E
102
{ACAD_REACTORS
330
47
102
}
330
47
100
AcDbScale
 70
     0
300
1:16
140
1.0
141
16.0
290
     0
  0
SCALE
  5
4F
102
{ACAD_REACTORS
330
47
102
}
330
47
100
AcDbScale
 70
     0
300
1:20
140
1.0
141
20.0
290
     0
  0
SCALE
  5
50
102
{ACAD_REACTORS
330
47
102
}
330
47
100
AcDbScale
 70
     0
300
1:30
140
1.0
141
30.0
290
     0
  0
SCALE
  5
51
102
{ACAD_REACTORS
330
47
102
}
330
47
100
AcDbScale
 70
     0
300
1:40
140
1.0
141
40.0
290
     0
  0
SCALE
  5
52
102
{ACAD_REACTORS
330
47
102
}
330
47
100
AcDbScale
 70
     0
300
1:50
140
1.0
141
50.0
290
     0
  0
SCALE
  5
53
102
{ACAD_REACTORS
330
47
102
}
330
47
100
AcDbScale
 70
     0
300
1:100
140
1.0
141
100.0
290
     0
  0
SCALE
  5
54
102
{ACAD_REACTORS
330
47
102
}
330
47
100
AcDbScale
 70
     0
300
2:1
140
2.0
141
1.0
290
     0
  0
SCALE
  5
55
102
{ACAD_REACTORS
330
47
102
}
330
47
100
AcDbScale
 70
     0
300
4:1
140
4.0
141
1.0
290
     0
  0
SCALE
  5
56
102
{ACAD_REACTORS
330
47
102
}
330
47
100
AcDbScale
 70
     0
300
8:1
140
8.0
141
1.0
290
     0
  0
SCALE
  5
57
102
{ACAD_REACTORS
330
47
102
}
330
47
100
AcDbScale
 70
     0
300
10:1
140
10.0
141
1.0
290
     0
  0
SCALE
  5
58
102
{ACAD_REACTORS
330
47
102
}
330
47
100
AcDbScale
 70
     0
300
100:1
140
100.0
141
1.0
290
     0
  0
SCALE
  5
59
102
{ACAD_REACTORS
330
47
102
}
330
47
100
AcDbScale
 70
     0
300
1/128" = 1'-0"
140
0.0078125
141
12.0
290
     0
  0
SCALE
  5
5A
102
{ACAD_REACTORS
330
47
102
}
330
47
100
AcDbScale
 70
     0
300
1/64" = 1'-0"
140
0.015625
141
12.0
290
     0
  0
SCALE
  5
5B
102
{ACAD_REACTORS
330
47
102
}
330
47
100
AcDbScale
 70
     0
300
1/32" = 1'-0"
140
0.03125
141
12.0
290
     0
  0
SCALE
  5
5C
102
{ACAD_REACTORS
330
47
102
}
330
47
100
AcDbScale
 70
     0
300
1/16" = 1'-0"
140
0.0625
141
12.0
290
     0
  0
SCALE
  5
5D
102
{ACAD_REACTORS
330
47
102
}
330
47
100
AcDbScale
 70
     0
300
3/32" = 1'-0"
140
0.09375
141
12.0
290
     0
  0
SCALE
  5
5E
102
{ACAD_REACTORS
330
47
102
}
330
47
100
AcDbScale
 70
     0
300
1/8" = 1'-0"
140
0.125
141
12.0
290
     0
  0
SCALE
  5
5F
102
{ACAD_REACTORS
330
47
102
}
330
47
100
AcDbScale
 70
     0
300
3/16" = 1'-0"
140
0.1875
141
12.0
290
     0
  0
SCALE
  5
60
102
{ACAD_REACTORS
330
47
102
}
330
47
100
AcDbScale
 70
     0
300
1/4" = 1'-0"
140
0.25
141
12.0
290
     0
  0
SCALE
  5
61
102
{ACAD_REACTORS
330
47
102
}
330
47
100
AcDbScale
 70
     0
300
3/8" = 1'-0"
140
0.375
141
12.0
290
     0
  0
SCALE
  5
62
102
{ACAD_REACTORS
330
47
102
}
330
47
100
AcDbScale
 70
     0
300
1/2" = 1'-0"
140
0.5
141
12.0
290
     0
  0
SCALE
  5
63
102
{ACAD_REACTORS
330
47
102
}
330
47
100
AcDbScale
 70
     0
300
3/4" = 1'-0"
140
0.75
141
12.0
290
     0
  0
SCALE
  5
64
102
{ACAD_REACTORS
330
47
102
}
330
47
100
AcDbScale
 70
     0
300
1" = 1'-0"
140
1.0
141
12.0
290
     0
  0
SCALE
  5
65
102
{ACAD_REACTORS
330
47
102
}
330
47
100
AcDbScale
 70
     0
300
1-1/2" = 1'-0"
140
1.5
141
12.0
290
     0
  0
SCALE
  5
66
102
{ACAD_REACTORS
330
47
102
}
330
47
100
AcDbScale
 70
     0
300
3" = 1'-0"
140
3.0
141
12.0
290
     0
  0
SCALE
  5
67
102
{ACAD_REACTORS
330
47
102
}
330
47
100
AcDbScale
 70
     0
300
6" = 1'-0"
140
6.0
141
12.0
290
     0
  0
SCALE
  5
68
102
{ACAD_REACTORS
330
47
102
}
330
47
100
AcDbScale
 70
     0
300
1'-0" = 1'-0"
140
12.0
141
12.0
290
     0
  0
ENDSEC
  0
EOF
