  0
SECTION
  2
HEADER
  9
$ACADVER
  1
AC1015
  9
$ACADMAINTVER
 70
     6
  9
$DWGCODEPAGE
  3
ANSI_949
  9
$INSBASE
 10
0.0
 20
0.0
 30
0.0
  9
$EXTMIN
 10
-52.04600000000012
 20
-49.97180738881174
 30
0.0
  9
$EXTMAX
 10
105.2924838153456
 20
55.89806206757275
 30
0.0
  9
$LIMMIN
 10
0.0
 20
0.0
  9
$LIMMAX
 10
420.0
 20
297.0
  9
$ORTHOMODE
 70
     1
  9
$REGENMODE
 70
     1
  9
$FILLMODE
 70
     1
  9
$QTEXTMODE
 70
     0
  9
$MIRRTEXT
 70
     1
  9
$LTSCALE
 40
1.0
  9
$ATTMODE
 70
     1
  9
$TEXTSIZE
 40
3.5
  9
$TRACEWID
 40
1.0
  9
$TEXTSTYLE
  7
Standard
  9
$CLAYER
  8
0
  9
$CELTYPE
  6
ByLayer
  9
$CECOLOR
 62
   256
  9
$CELTSCALE
 40
1.0
  9
$DISPSILH
 70
     0
  9
$DIMSCALE
 40
1.0
  9
$DIMASZ
 40
3.302
  9
$DIMEXO
 40
1.0
  9
$DIMDLI
 40
3.75
  9
$DIMRND
 40
0.0
  9
$DIMDLE
 40
0.0
  9
$DIMEXE
 40
1.0
  9
$DIMTP
 40
0.0
  9
$DIMTM
 40
0.0
  9
$DIMTXT
 40
3.5
  9
$DIMCEN
 40
2.5
  9
$DIMTSZ
 40
0.0
  9
$DIMTOL
 70
     0
  9
$DIMLIM
 70
     0
  9
$DIMTIH
 70
     1
  9
$DIMTOH
 70
     1
  9
$DIMSE1
 70
     0
  9
$DIMSE2
 70
     0
  9
$DIMTAD
 70
     1
  9
$DIMZIN
 70
     0
  9
$DIMBLK
  1

  9
$DIMASO
 70
     1
  9
$DIMSHO
 70
     1
  9
$DIMPOST
  1

  9
$DIMAPOST
  1

  9
$DIMALT
 70
     0
  9
$DIMALTD
 70
     3
  9
$DIMALTF
 40
0.0393700787401575
  9
$DIMLFAC
 40
1.0
  9
$DIMTOFL
 70
     1
  9
$DIMTVP
 40
0.0
  9
$DIMTIX
 70
     0
  9
$DIMSOXD
 70
     0
  9
$DIMSAH
 70
     0
  9
$DIMBLK1
  1

  9
$DIMBLK2
  1

  9
$DIMSTYLE
  2
ISO-25
  9
$DIMCLRD
 70
     0
  9
$DIMCLRE
 70
     0
  9
$DIMCLRT
 70
     0
  9
$DIMTFAC
 40
1.0
  9
$DIMGAP
 40
1.524
  9
$DIMJUST
 70
     0
  9
$DIMSD1
 70
     0
  9
$DIMSD2
 70
     0
  9
$DIMTOLJ
 70
     0
  9
$DIMTZIN
 70
     0
  9
$DIMALTZ
 70
     0
  9
$DIMALTTZ
 70
     0
  9
$DIMUPT
 70
     0
  9
$DIMDEC
 70
     2
  9
$DIMTDEC
 70
     2
  9
$DIMALTU
 70
     2
  9
$DIMALTTD
 70
     3
  9
$DIMTXSTY
  7
Standard
  9
$DIMAUNIT
 70
     0
  9
$DIMADEC
 70
     2
  9
$DIMALTRND
 40
0.0
  9
$DIMAZIN
 70
     0
  9
$DIMDSEP
 70
    44
  9
$DIMATFIT
 70
     3
  9
$DIMFRAC
 70
     0
  9
$DIMLDRBLK
  1

  9
$DIMLUNIT
 70
     2
  9
$DIMLWD
 70
    -2
  9
$DIMLWE
 70
    -2
  9
$DIMTMOVE
 70
     0
  9
$LUNITS
 70
     2
  9
$LUPREC
 70
     2
  9
$SKETCHINC
 40
1.0
  9
$FILLETRAD
 40
10.0
  9
$AUNITS
 70
     0
  9
$AUPREC
 70
     2
  9
$MENU
  1
.
  9
$ELEVATION
 40
0.0
  9
$PELEVATION
 40
0.0
  9
$THICKNESS
 40
0.0
  9
$LIMCHECK
 70
     0
  9
$CHAMFERA
 40
0.0
  9
$CHAMFERB
 40
0.0
  9
$CHAMFERC
 40
0.0
  9
$CHAMFERD
 40
0.0
  9
$SKPOLY
 70
     0
  9
$TDCREATE
 40
2458290.448320197
  9
$TDUCREATE
 40
2458290.073320197
  9
$TDUPDATE
 40
2458302.586529039
  9
$TDUUPDATE
 40
2458302.211529039
  9
$TDINDWG
 40
0.004495706
  9
$TDUSRTIMER
 40
0.0145450347
  9
$USRTIMER
 70
     1
  9
$ANGBASE
 50
0.0
  9
$ANGDIR
 70
     0
  9
$PDMODE
 70
     0
  9
$PDSIZE
 40
-1.0
  9
$PLINEWID
 40
0.0
  9
$SPLFRAME
 70
     0
  9
$SPLINETYPE
 70
     6
  9
$SPLINESEGS
 70
     8
  9
$HANDSEED
  5
1AF
  9
$SURFTAB1
 70
     6
  9
$SURFTAB2
 70
     6
  9
$SURFTYPE
 70
     6
  9
$SURFU
 70
     6
  9
$SURFV
 70
     6
  9
$UCSBASE
  2

  9
$UCSNAME
  2

  9
$UCSORG
 10
0.0
 20
0.0
 30
0.0
  9
$UCSXDIR
 10
1.0
 20
0.0
 30
0.0
  9
$UCSYDIR
 10
0.0
 20
1.0
 30
0.0
  9
$UCSORTHOREF
  2

  9
$UCSORTHOVIEW
 70
     0
  9
$UCSORGTOP
 10
0.0
 20
0.0
 30
0.0
  9
$UCSORGBOTTOM
 10
0.0
 20
0.0
 30
0.0
  9
$UCSORGLEFT
 10
0.0
 20
0.0
 30
0.0
  9
$UCSORGRIGHT
 10
0.0
 20
0.0
 30
0.0
  9
$UCSORGFRONT
 10
0.0
 20
0.0
 30
0.0
  9
$UCSORGBACK
 10
0.0
 20
0.0
 30
0.0
  9
$PUCSBASE
  2

  9
$PUCSNAME
  2

  9
$PUCSORG
 10
0.0
 20
0.0
 30
0.0
  9
$PUCSXDIR
 10
1.0
 20
0.0
 30
0.0
  9
$PUCSYDIR
 10
0.0
 20
1.0
 30
0.0
  9
$PUCSORTHOREF
  2

  9
$PUCSORTHOVIEW
 70
     0
  9
$PUCSORGTOP
 10
0.0
 20
0.0
 30
0.0
  9
$PUCSORGBOTTOM
 10
0.0
 20
0.0
 30
0.0
  9
$PUCSORGLEFT
 10
0.0
 20
0.0
 30
0.0
  9
$PUCSORGRIGHT
 10
0.0
 20
0.0
 30
0.0
  9
$PUCSORGFRONT
 10
0.0
 20
0.0
 30
0.0
  9
$PUCSORGBACK
 10
0.0
 20
0.0
 30
0.0
  9
$USERI1
 70
     0
  9
$USERI2
 70
     0
  9
$USERI3
 70
     0
  9
$USERI4
 70
     0
  9
$USERI5
 70
     0
  9
$USERR1
 40
0.0
  9
$USERR2
 40
0.0
  9
$USERR3
 40
0.0
  9
$USERR4
 40
0.0
  9
$USERR5
 40
0.0
  9
$WORLDVIEW
 70
     1
  9
$SHADEDGE
 70
     3
  9
$SHADEDIF
 70
    70
  9
$TILEMODE
 70
     1
  9
$MAXACTVP
 70
    64
  9
$PINSBASE
 10
0.0
 20
0.0
 30
0.0
  9
$PLIMCHECK
 70
     0
  9
$PEXTMIN
 10
1.000000000000000E+20
 20
1.000000000000000E+20
 30
1.000000000000000E+20
  9
$PEXTMAX
 10
-1.000000000000000E+20
 20
-1.000000000000000E+20
 30
-1.000000000000000E+20
  9
$PLIMMIN
 10
0.0
 20
0.0
  9
$PLIMMAX
 10
0.0
 20
0.0
  9
$UNITMODE
 70
     0
  9
$VISRETAIN
 70
     1
  9
$PLINEGEN
 70
     0
  9
$PSLTSCALE
 70
     1
  9
$TREEDEPTH
 70
  3020
  9
$CMLSTYLE
  2
Standard
  9
$CMLJUST
 70
     0
  9
$CMLSCALE
 40
20.0
  9
$PROXYGRAPHICS
 70
     1
  9
$MEASUREMENT
 70
     1
  9
$CELWEIGHT
370
    -1
  9
$ENDCAPS
280
     0
  9
$JOINSTYLE
280
     0
  9
$LWDISPLAY
290
     1
  9
$INSUNITS
 70
     4
  9
$HYPERLINKBASE
  1

  9
$STYLESHEET
  1

  9
$XEDIT
290
     1
  9
$CEPSNTYPE
380
     0
  9
$PSTYLEMODE
290
     1
  9
$FINGERPRINTGUID
  2
{2CD479FA-59B2-450A-A7F6-33420566AC96}
  9
$VERSIONGUID
  2
{FAEB1C32-E019-11D5-929B-00C0DF256EC4}
  9
$EXTNAMES
290
     1
  9
$PSVPSCALE
 40
0.0
  9
$OLESTARTUP
290
     0
  0
ENDSEC
  0
SECTION
  2
CLASSES
  0
CLASS
  1
ACDBDICTIONARYWDFLT
  2
AcDbDictionaryWithDefault
  3
ObjectDBX Classes
 90
        0
280
     0
281
     0
  0
CLASS
  1
VISUALSTYLE
  2
AcDbVisualStyle
  3
ObjectDBX Classes
 90
     4095
280
     0
281
     0
  0
CLASS
  1
MATERIAL
  2
AcDbMaterial
  3
ObjectDBX Classes
 90
     1153
280
     0
281
     0
  0
CLASS
  1
SCALE
  2
AcDbScale
  3
ObjectDBX Classes
 90
     1153
280
     0
281
     0
  0
CLASS
  1
SUN
  2
AcDbSun
  3
SCENEOE
 90
     1153
280
     0
281
     0
  0
CLASS
  1
ACDBPLACEHOLDER
  2
AcDbPlaceHolder
  3
ObjectDBX Classes
 90
        0
280
     0
281
     0
  0
CLASS
  1
LAYOUT
  2
AcDbLayout
  3
ObjectDBX Classes
 90
        0
280
     0
281
     0
  0
CLASS
  1
TABLESTYLE
  2
AcDbTableStyle
  3
ObjectDBX Classes
 90
     4095
280
     0
281
     0
  0
CLASS
  1
MLEADERSTYLE
  2
AcDbMLeaderStyle
  3
ACDB_MLEADERSTYLE_CLASS
 90
     4095
280
     0
281
     0
  0
CLASS
  1
DICTIONARYVAR
  2
AcDbDictionaryVar
  3
ObjectDBX Classes
 90
        0
280
     0
281
     0
  0
ENDSEC
  0
SECTION
  2
TABLES
  0
TABLE
  2
VPORT
  5
8
330
0
100
AcDbSymbolTable
 70
     1
  0
VPORT
  5
29
330
8
100
AcDbSymbolTableRecord
100
AcDbViewportTableRecord
  2
*Active
 70
     0
 10
0.0
 20
0.0
 11
1.0
 21
1.0
 12
26.62324190767272
 22
2.963127339380506
 13
0.0
 23
0.0
 14
10.0
 24
10.0
 15
10.0
 25
10.0
 16
0.0
 26
0.0
 36
1.0
 17
0.0
 27
0.0
 37
0.0
 40
107.9872668455122
 41
2.148876404494382
 42
50.0
 43
0.0
 44
0.0
 50
0.0
 51
0.0
 71
    16
 72
  2000
 73
     1
 74
     3
 75
     0
 76
     0
 77
     0
 78
     0
281
     0
 65
     1
110
0.0
120
0.0
130
0.0
111
1.0
121
0.0
131
0.0
112
0.0
122
1.0
132
0.0
 79
     0
146
0.0
  0
ENDTAB
  0
TABLE
  2
LTYPE
  5
5
330
0
100
AcDbSymbolTable
 70
     6
  0
LTYPE
  5
14
330
5
100
AcDbSymbolTableRecord
100
AcDbLinetypeTableRecord
  2
ByBlock
 70
     0
  3

 72
    65
 73
     0
 40
0.0
  0
LTYPE
  5
15
330
5
100
AcDbSymbolTableRecord
100
AcDbLinetypeTableRecord
  2
ByLayer
 70
     0
  3

 72
    65
 73
     0
 40
0.0
  0
LTYPE
  5
16
330
5
100
AcDbSymbolTableRecord
100
AcDbLinetypeTableRecord
  2
Continuous
 70
     0
  3
Solid line
 72
    65
 73
     0
 40
0.0
  0
LTYPE
  5
6A
330
5
100
AcDbSymbolTableRecord
100
AcDbLinetypeTableRecord
  2
HIDDEN
 70
     0
  3
Hidden __ __ __ __ __ __ __ __ __ __ __ __ __ __
 72
    65
 73
     2
 40
1.905
 49
1.27
 74
     0
 49
-0.635
 74
     0
  0
LTYPE
  5
6B
330
5
100
AcDbSymbolTableRecord
100
AcDbLinetypeTableRecord
  2
PHANTOM
 70
     0
  3
Phantom ______  __  __  ______  __  __  ______
 72
    65
 73
     6
 40
12.7
 49
6.35
 74
     0
 49
-1.27
 74
     0
 49
1.27
 74
     0
 49
-1.27
 74
     0
 49
1.27
 74
     0
 49
-1.27
 74
     0
  0
LTYPE
  5
6C
330
5
100
AcDbSymbolTableRecord
100
AcDbLinetypeTableRecord
  2
CENTER
 70
     0
  3
Center ____ _ ____ _ ____ _ ____ _ ____ _ ____
 72
    65
 73
     4
 40
10.16
 49
6.35
 74
     0
 49
-1.27
 74
     0
 49
1.27
 74
     0
 49
-1.27
 74
     0
  0
LTYPE
  5
6D
330
5
100
AcDbSymbolTableRecord
100
AcDbLinetypeTableRecord
  2
CENTERX2
 70
     0
  3
Center (2x) ________  __  ________  __  _____
 72
    65
 73
     4
 40
20.32
 49
12.7
 74
     0
 49
-2.54
 74
     0
 49
2.54
 74
     0
 49
-2.54
 74
     0
  0
LTYPE
  5
6E
330
5
100
AcDbSymbolTableRecord
100
AcDbLinetypeTableRecord
  2
DOT2
 70
     0
  3
Dot (.5x) ........................................
 72
    65
 73
     2
 40
0.635
 49
0.0
 74
     0
 49
-0.635
 74
     0
  0
ENDTAB
  0
TABLE
  2
LAYER
  5
2
330
0
100
AcDbSymbolTable
 70
    18
  0
LAYER
  5
10
330
2
100
AcDbSymbolTableRecord
100
AcDbLayerTableRecord
  2
0
 70
     0
 62
     7
  6
Continuous
370
    -3
390
F
  0
LAYER
  5
6F
330
2
100
AcDbSymbolTableRecord
100
AcDbLayerTableRecord
  2
FORMAT
 70
     0
 62
     2
  6
Continuous
370
    -3
390
F
  0
LAYER
  5
70
330
2
100
AcDbSymbolTableRecord
100
AcDbLayerTableRecord
  2
외형선
 70
     0
 62
     4
  6
Continuous
370
    30
390
F
  0
LAYER
  5
71
330
2
100
AcDbSymbolTableRecord
100
AcDbLayerTableRecord
  2
숨은선
 70
     0
 62
     2
  6
HIDDEN
370
    15
390
F
  0
LAYER
  5
72
330
2
100
AcDbSymbolTableRecord
100
AcDbLayerTableRecord
  2
중심선
 70
     0
 62
     1
  6
CENTERX2
370
    -3
390
F
  0
LAYER
  5
73
330
2
100
AcDbSymbolTableRecord
100
AcDbLayerTableRecord
  2
파단선
 70
     0
 62
     4
  6
Continuous
370
    -3
390
F
  0
LAYER
  5
74
330
2
100
AcDbSymbolTableRecord
100
AcDbLayerTableRecord
  2
해칭선
 70
     0
 62
   100
  6
Continuous
370
    -3
390
F
  0
LAYER
  5
75
330
2
100
AcDbSymbolTableRecord
100
AcDbLayerTableRecord
  2
가는실선
 70
     0
 62
     4
  6
Continuous
370
    -3
390
F
  0
LAYER
  5
76
330
2
100
AcDbSymbolTableRecord
100
AcDbLayerTableRecord
  2
치수_보조선
 70
     0
 62
     4
  6
Continuous
370
    -3
390
F
  0
LAYER
  5
77
330
2
100
AcDbSymbolTableRecord
100
AcDbLayerTableRecord
  2
치수문자_일반주서
 70
     0
 62
     7
  6
Continuous
370
    15
390
F
  0
LAYER
  5
78
330
2
100
AcDbSymbolTableRecord
100
AcDbLayerTableRecord
  2
개별주서
 70
     0
 62
   100
  6
Continuous
370
    30
390
F
  0
LAYER
  5
79
330
2
100
AcDbSymbolTableRecord
100
AcDbLayerTableRecord
  2
중간선
 70
     0
 62
     2
  6
Continuous
370
    15
390
F
  0
LAYER
  5
7A
330
2
100
AcDbSymbolTableRecord
100
AcDbLayerTableRecord
  2
윤곽선
 70
     0
 62
     3
  6
Continuous
370
    40
390
F
  0
LAYER
  5
7B
330
2
100
AcDbSymbolTableRecord
100
AcDbLayerTableRecord
  2
중심마크
 70
     0
 62
   100
  6
Continuous
370
    30
390
F
  0
LAYER
  5
7C
330
2
100
AcDbSymbolTableRecord
100
AcDbLayerTableRecord
  2
가상선
 70
     0
 62
     4
  6
PHANTOM
370
    -3
390
F
  0
LAYER
  5
7D
330
2
100
AcDbSymbolTableRecord
100
AcDbLayerTableRecord
  2
특수지정선
 70
     0
 62
     5
  6
CENTERX2
370
    60
390
F
  0
LAYER
  5
7E
330
2
100
AcDbSymbolTableRecord
100
AcDbLayerTableRecord
  2
참조1
 70
     0
 62
    -4
  6
Continuous
370
    -3
390
F
  0
LAYER
  5
170
330
2
100
AcDbSymbolTableRecord
100
AcDbLayerTableRecord
  2
Defpoints
 70
     0
 62
     7
  6
Continuous
290
     0
370
    -3
390
F
  0
ENDTAB
  0
TABLE
  2
STYLE
  5
3
330
0
100
AcDbSymbolTable
 70
     2
  0
STYLE
  5
11
330
3
100
AcDbSymbolTableRecord
100
AcDbTextStyleTableRecord
  2
Standard
 70
     0
 40
0.0
 41
1.0
 50
0.0
 71
     0
 42
3.5
  3
txt
  4

  0
STYLE
  5
94
330
3
100
AcDbSymbolTableRecord
100
AcDbTextStyleTableRecord
  2
SLDTEXTSTYLE0
 70
     0
 40
0.0
 41
0.75
 50
0.0
 71
     0
 42
3.5
  3
TXT
  4

  0
ENDTAB
  0
TABLE
  2
VIEW
  5
6
330
0
100
AcDbSymbolTable
 70
     0
  0
ENDTAB
  0
TABLE
  2
UCS
  5
7
330
0
100
AcDbSymbolTable
 70
     0
  0
ENDTAB
  0
TABLE
  2
APPID
  5
9
330
0
100
AcDbSymbolTable
 70
     2
  0
APPID
  5
12
330
9
100
AcDbSymbolTableRecord
100
AcDbRegAppTableRecord
  2
ACAD
 70
     0
  0
APPID
  5
171
330
9
100
AcDbSymbolTableRecord
100
AcDbRegAppTableRecord
  2
PE_URL
 70
     0
  0
ENDTAB
  0
TABLE
  2
DIMSTYLE
  5
A
330
0
100
AcDbSymbolTable
 70
     3
100
AcDbDimStyleTable
  0
DIMSTYLE
105
27
102
{ACAD_REACTORS
330
19C
330
1A2
102
}
330
A
100
AcDbSymbolTableRecord
100
AcDbDimStyleTableRecord
  2
ISO-25
 70
     0
 41
2.5
 42
0.625
 43
3.75
 44
1.25
 73
     0
 74
     0
 77
     1
 78
     8
140
2.5
141
2.5
143
0.03937007874016
147
0.625
171
     3
172
     1
178
     0
271
     2
272
     2
274
     3
278
    44
283
     0
284
     8
340
11
  0
DIMSTYLE
105
DA
102
{ACAD_REACTORS
330
D9
330
EE
330
103
330
12C
330
118
102
}
330
A
100
AcDbSymbolTableRecord
100
AcDbDimStyleTableRecord
  2
SLDDIMSTYLE0
 70
     0
 41
3.302
 44
0.0
 45
0.000000001
 73
     0
 74
     0
 77
     1
 78
    12
 79
     3
140
3.5
143
0.0393700787401575
147
0.875
148
0.000000001
170
     1
172
     1
173
     1
178
     0
271
     2
272
     2
276
     2
284
    12
289
     0
340
94
  0
DIMSTYLE
105
119
330
A
100
AcDbSymbolTableRecord
100
AcDbDimStyleTableRecord
  2
SLDDIMSTYLE1
 70
     0
 41
3.302
 44
0.0
 45
0.000000001
 73
     0
 74
     0
 77
     1
 78
    12
 79
     3
140
3.5
143
0.0393700787401575
147
0.875
148
0.000000001
170
     1
173
     1
178
     0
271
     2
272
     2
276
     2
284
    12
340
94
  0
ENDTAB
  0
TABLE
  2
BLOCK_RECORD
  5
1
330
0
100
AcDbSymbolTable
 70
     9
  0
BLOCK_RECORD
  5
1F
330
1
100
AcDbSymbolTableRecord
100
AcDbBlockTableRecord
  2
*Model_Space
340
22
  0
BLOCK_RECORD
  5
1B
330
1
100
AcDbSymbolTableRecord
100
AcDbBlockTableRecord
  2
*Paper_Space
340
1E
  0
BLOCK_RECORD
  5
23
330
1
100
AcDbSymbolTableRecord
100
AcDbBlockTableRecord
  2
*Paper_Space0
340
26
  0
BLOCK_RECORD
  5
7F
330
1
100
AcDbSymbolTableRecord
100
AcDbBlockTableRecord
  2
블럭10
340
0
102
{BLKREFS
331
D2
102
}
  0
BLOCK_RECORD
  5
DB
330
1
100
AcDbSymbolTableRecord
100
AcDbBlockTableRecord
  2
_D
340
0
  0
BLOCK_RECORD
  5
EF
330
1
100
AcDbSymbolTableRecord
100
AcDbBlockTableRecord
  2
_D_1
340
0
  0
BLOCK_RECORD
  5
104
330
1
100
AcDbSymbolTableRecord
100
AcDbBlockTableRecord
  2
_D_2
340
0
  0
BLOCK_RECORD
  5
11A
330
1
100
AcDbSymbolTableRecord
100
AcDbBlockTableRecord
  2
_D_3
340
0
  0
BLOCK_RECORD
  5
12D
330
1
100
AcDbSymbolTableRecord
100
AcDbBlockTableRecord
  2
_D_4
340
0
  0
BLOCK_RECORD
  5
147
330
1
100
AcDbSymbolTableRecord
100
AcDbBlockTableRecord
  2
SW_DOWELSYMBOL_0
340
0
102
{BLKREFS
331
14D
102
}
  0
ENDTAB
  0
ENDSEC
  0
SECTION
  2
BLOCKS
  0
BLOCK
  5
20
330
1F
100
AcDbEntity
  8
0
100
AcDbBlockBegin
  2
*Model_Space
 70
     0
 10
0.0
 20
0.0
 30
0.0
  3
*Model_Space
  1

  0
ENDBLK
  5
21
330
1F
100
AcDbEntity
  8
0
100
AcDbBlockEnd
  0
BLOCK
  5
1C
330
1B
100
AcDbEntity
 67
     1
  8
0
100
AcDbBlockBegin
  2
*Paper_Space
 70
     0
 10
0.0
 20
0.0
 30
0.0
  3
*Paper_Space
  1

  0
ENDBLK
  5
1D
330
1B
100
AcDbEntity
 67
     1
  8
0
100
AcDbBlockEnd
  0
BLOCK
  5
24
330
23
100
AcDbEntity
  8
0
100
AcDbBlockBegin
  2
*Paper_Space0
 70
     0
 10
0.0
 20
0.0
 30
0.0
  3
*Paper_Space0
  1

  0
ENDBLK
  5
25
330
23
100
AcDbEntity
  8
0
100
AcDbBlockEnd
  0
BLOCK
  5
80
330
7F
100
AcDbEntity
  8
0
100
AcDbBlockBegin
  2
블럭10
 70
     2
 10
0.0
 20
0.0
 30
0.0
  3
블럭10
  1

  0
ELLIPSE
  5
82
330
7F
100
AcDbEntity
  8
중심선
100
AcDbEllipse
 10
20.54032771741204
 20
12.0471743016438
 30
0.0
 11
6.600054785286829
 21
-1.261213355974178E-13
 31
0.0
210
0.0
220
0.0
230
1.0
 40
0.636358354079598
 41
0.9219305317359503
 42
6.513795318482858
  0
ELLIPSE
  5
83
330
7F
100
AcDbEntity
  8
중심선
100
AcDbEllipse
 10
20.54032771746488
 20
12.04717430159265
 30
0.0
 11
3.960054785062283
 21
1.540847449632565E-10
 31
0.0
210
0.0
220
0.0
230
1.0
 40
0.3939339440162632
 41
1.131841032648279
 42
5.62031148352944
  0
LINE
  5
84
330
7F
100
AcDbEntity
  8
중심선
100
AcDbLine
 10
2.268634060543552
 20
16.24717430164393
 30
0.0
 11
5.714909304380834
 21
16.24717430164393
 31
0.0
  0
LINE
  5
85
330
7F
100
AcDbEntity
  8
중심선
100
AcDbLine
 10
5.245725140726316
 20
7.84717430164391
 30
0.0
 11
8.692000384563599
 21
7.84717430164391
 31
0.0
  0
LINE
  5
86
330
7F
100
AcDbEntity
  8
중심선
100
AcDbLine
 10
15.74043728645272
 20
16.24717430164393
 30
0.0
 11
8.692000384563599
 21
7.84717430164391
 31
0.0
  0
LINE
  5
87
330
7F
100
AcDbEntity
  8
중심선
100
AcDbLine
 10
0.1404042013395286
 20
13.71084872107135
 30
0.0
 11
3.58671253028996
 21
13.71088815037384
 31
0.0
  0
LINE
  5
88
330
7F
100
AcDbEntity
  8
중심선
100
AcDbLine
 10
2.750260043222114
 20
10.84717430164391
 30
0.0
 11
6.196535287059397
 21
10.84717430164391
 31
0.0
  0
LINE
  5
89
330
7F
100
AcDbEntity
  8
중심선
100
AcDbLine
 10
12.29416204261559
 20
16.24717430164393
 30
0.0
 11
5.245725140726316
 21
7.84717430164391
 31
0.0
  0
LINE
  5
8A
330
7F
100
AcDbEntity
  8
중심선
100
AcDbLine
 10
10.72767329541681
 20
16.24717430164393
 30
0.0
 11
6.196535287059397
 21
10.84717430164391
 31
0.0
  0
LINE
  5
8B
330
7F
100
AcDbEntity
  8
중심선
100
AcDbLine
 10
7.28139805157953
 20
16.24717430164393
 30
0.0
 11
2.750260043222114
 21
10.84717430164391
 31
0.0
  0
LINE
  5
8C
330
7F
100
AcDbEntity
  8
중심선
100
AcDbLine
 10
5.714909304380834
 20
16.24717430164393
 30
0.0
 11
3.58671253028996
 21
13.71088815037384
 31
0.0
  0
LINE
  5
8D
330
7F
100
AcDbEntity
  8
중심선
100
AcDbLine
 10
2.268634060543552
 20
16.24717430164393
 30
0.0
 11
0.1404042013395286
 21
13.71084872107135
 31
0.0
  0
LINE
  5
8E
330
7F
100
AcDbEntity
  8
중심선
100
AcDbLine
 10
7.28139805157953
 20
16.24717430164393
 30
0.0
 11
10.72767329541681
 21
16.24717430164393
 31
0.0
  0
LINE
  5
8F
330
7F
100
AcDbEntity
  8
중심선
100
AcDbLine
 10
12.29416204261559
 20
16.24717430164393
 30
0.0
 11
15.74043728645272
 21
16.24717430164393
 31
0.0
  0
LINE
  5
90
330
7F
100
AcDbEntity
  8
중심선
100
AcDbLine
 10
19.22036997980202
 20
11.08717430171403
 30
0.0
 11
23.66174974927406
 21
11.08717430171406
 31
0.0
  0
LINE
  5
91
330
7F
100
AcDbEntity
  8
중심선
100
AcDbLine
 10
19.22039502424796
 20
13.00717430171391
 30
0.0
 11
19.22036997980202
 21
11.08717430171403
 31
0.0
  0
LINE
  5
92
330
7F
100
AcDbEntity
  8
중심선
100
AcDbLine
 10
19.22039502424796
 20
13.00717430171391
 30
0.0
 11
26.96566020931264
 21
13.00717430171391
 31
0.0
  0
LINE
  5
93
330
7F
100
AcDbEntity
  8
중심선
100
AcDbLine
 10
22.22332737316547
 20
13.45928029700563
 30
0.0
 11
24.52862924686651
 21
15.39360700705356
 31
0.0
  0
ATTDEF
  5
95
330
7F
100
AcDbEntity
  8
FORMAT
 62
     2
100
AcDbText
 10
3.448148490846466
 20
2.075366912832191
 30
0.0
 40
4.233333333333333
  1
EM965016
 41
0.75
  7
SLDTEXTSTYLE0
 11
3.448148490846466
 21
-0.0412997538344756
 31
0.0
100
AcDbAttributeDefinition
  3

  2
AUTOATTR0
 70
     0
 74
     1
  0
ENDBLK
  5
81
330
7F
100
AcDbEntity
  8
0
100
AcDbBlockEnd
  0
BLOCK
  5
DC
330
DB
100
AcDbEntity
  8
0
100
AcDbBlockBegin
  2
_D
 70
     0
 10
0.0
 20
0.0
 30
0.0
  3
_D
  1

  0
LINE
  5
DE
330
DB
100
AcDbEntity
  8
치수문자_일반주서
 62
     0
370
    -2
100
AcDbLine
 10
22.54149999999997
 20
3.175000000000026
 30
0.0
 11
66.48975576068129
 21
3.175000000000178
 31
0.0
  0
LINE
  5
DF
330
DB
100
AcDbEntity
  8
치수문자_일반주서
 62
     0
370
    -2
100
AcDbLine
 10
22.54149999999997
 20
-3.174999999999973
 30
0.0
 11
66.48975576068132
 21
-3.17499999999982
 31
0.0
  0
LINE
  5
E0
330
DB
100
AcDbEntity
  8
치수문자_일반주서
 62
     0
370
    -2
100
AcDbLine
 10
66.48975576068129
 20
3.175000000000178
 30
0.0
 11
66.48975576068115
 21
35.15400000000018
 31
0.0
  0
LINE
  5
E1
330
DB
100
AcDbEntity
  8
치수문자_일반주서
 62
     0
370
    -2
100
AcDbLine
 10
66.48975576068129
 20
3.175000000000178
 30
0.0
 11
66.48975576068132
 21
-3.17499999999982
 31
0.0
  0
LINE
  5
E2
330
DB
100
AcDbEntity
  8
치수문자_일반주서
 62
     0
370
    -2
100
AcDbLine
 10
66.48975576068128
 20
6.477000000000178
 30
0.0
 11
66.48975576068126
 21
9.779000000000178
 31
0.0
  0
LINE
  5
E3
330
DB
100
AcDbEntity
  8
치수문자_일반주서
 62
     0
370
    -2
100
AcDbLine
 10
66.48975576068133
 20
-6.476999999999819
 30
0.0
 11
66.48975576068135
 21
-9.778999999999819
 31
0.0
  0
SOLID
  5
E4
330
DB
100
AcDbEntity
  8
치수문자_일반주서
 62
     0
100
AcDbTrace
 10
65.93942242734795
 20
6.477000000000175
 30
0.0
 11
67.0400890940146
 21
6.477000000000181
 31
0.0
 12
66.48975576068129
 22
3.175000000000178
 32
0.0
 13
66.48975576068129
 23
3.175000000000178
 33
0.0
  0
SOLID
  5
E5
330
DB
100
AcDbEntity
  8
치수문자_일반주서
 62
     0
100
AcDbTrace
 10
67.04008909401466
 20
-6.476999999999816
 30
0.0
 11
65.939422427348
 21
-6.476999999999822
 31
0.0
 12
66.48975576068132
 22
-3.17499999999982
 32
0.0
 13
66.48975576068132
 23
-3.17499999999982
 33
0.0
  0
MTEXT
  5
E6
330
DB
100
AcDbEntity
  8
치수문자_일반주서
 62
     0
100
AcDbMText
 10
62.11475576068121
 20
22.46650000000016
 30
0.0
 40
3.5
 41
0.0
 71
     2
 72
     1
  1
\A1;%%c6.35 [1/4]
  7
SLDTEXTSTYLE0
 11
-4.475859752819529E-15
 21
1.0
 31
0.0
 73
     1
 44
1.0
  0
POINT
  5
E7
330
DB
100
AcDbEntity
  8
Defpoints
 62
     0
100
AcDbPoint
 10
22.47899999999997
 20
3.175000000000026
 30
0.0
  0
POINT
  5
E8
330
DB
100
AcDbEntity
  8
Defpoints
 62
     0
100
AcDbPoint
 10
22.47899999999997
 20
-3.174999999999973
 30
0.0
  0
POINT
  5
E9
330
DB
100
AcDbEntity
  8
Defpoints
 62
     0
100
AcDbPoint
 10
66.48975576068132
 20
-3.17499999999982
 30
0.0
  0
ENDBLK
  5
DD
330
DB
100
AcDbEntity
  8
0
100
AcDbBlockEnd
  0
BLOCK
  5
F0
330
EF
100
AcDbEntity
  8
0
100
AcDbBlockBegin
  2
_D_1
 70
     0
 10
0.0
 20
0.0
 30
0.0
  3
_D_1
  1

  0
LINE
  5
F2
330
EF
100
AcDbEntity
  8
치수문자_일반주서
 62
     0
370
    -2
100
AcDbLine
 10
22.47899999999997
 20
1.634730889481579
 30
0.0
 11
22.47899999999997
 21
23.94661714125062
 31
0.0
  0
LINE
  5
F3
330
EF
100
AcDbEntity
  8
치수문자_일반주서
 62
     0
370
    -2
100
AcDbLine
 10
14.54149999999894
 20
3.234747313792389
 30
0.0
 11
14.54149999999894
 21
23.94661714125062
 31
0.0
  0
LINE
  5
F4
330
EF
100
AcDbEntity
  8
치수문자_일반주서
 62
     0
370
    -2
100
AcDbLine
 10
22.47899999999997
 20
23.94661714125062
 30
0.0
 11
54.45799999999997
 21
23.94661714125062
 31
0.0
  0
LINE
  5
F5
330
EF
100
AcDbEntity
  8
치수문자_일반주서
 62
     0
370
    -2
100
AcDbLine
 10
22.47899999999997
 20
23.94661714125062
 30
0.0
 11
14.54149999999894
 21
23.94661714125062
 31
0.0
  0
LINE
  5
F6
330
EF
100
AcDbEntity
  8
치수문자_일반주서
 62
     0
370
    -2
100
AcDbLine
 10
25.78099999999997
 20
23.94661714125062
 30
0.0
 11
29.08299999999997
 21
23.94661714125062
 31
0.0
  0
LINE
  5
F7
330
EF
100
AcDbEntity
  8
치수문자_일반주서
 62
     0
370
    -2
100
AcDbLine
 10
11.23949999999894
 20
23.94661714125062
 30
0.0
 11
7.937499999998945
 21
23.94661714125062
 31
0.0
  0
SOLID
  5
F8
330
EF
100
AcDbEntity
  8
치수문자_일반주서
 62
     0
100
AcDbTrace
 10
25.78099999999997
 20
24.49695047458395
 30
0.0
 11
25.78099999999997
 21
23.39628380791728
 31
0.0
 12
22.47899999999997
 22
23.94661714125062
 32
0.0
 13
22.47899999999997
 23
23.94661714125062
 33
0.0
  0
SOLID
  5
F9
330
EF
100
AcDbEntity
  8
치수문자_일반주서
 62
     0
100
AcDbTrace
 10
11.23949999999894
 20
23.39628380791728
 30
0.0
 11
11.23949999999894
 21
24.49695047458395
 31
0.0
 12
14.54149999999894
 22
23.94661714125062
 32
0.0
 13
14.54149999999894
 23
23.94661714125062
 33
0.0
  0
MTEXT
  5
FA
330
EF
100
AcDbEntity
  8
치수문자_일반주서
 62
     0
100
AcDbMText
 10
41.77049999999997
 20
28.32161714125062
 30
0.0
 40
3.5
 41
0.0
 71
     2
 72
     1
  1
\A1;7.94 [5/16]
  7
SLDTEXTSTYLE0
 73
     1
 44
1.0
  0
POINT
  5
175
330
EF
100
AcDbEntity
  8
Defpoints
 62
     0
100
AcDbPoint
 10
22.47899999999997
 20
1.572230889481579
 30
0.0
  0
POINT
  5
176
330
EF
100
AcDbEntity
  8
Defpoints
 62
     0
100
AcDbPoint
 10
14.54149999999894
 20
3.172247313792389
 30
0.0
  0
POINT
  5
178
330
EF
100
AcDbEntity
  8
Defpoints
 62
     0
100
AcDbPoint
 10
14.54149999999894
 20
23.94661714125062
 30
0.0
  0
ENDBLK
  5
F1
330
EF
100
AcDbEntity
  8
0
100
AcDbBlockEnd
  0
BLOCK
  5
105
330
104
100
AcDbEntity
  8
0
100
AcDbBlockBegin
  2
_D_2
 70
     0
 10
0.0
 20
0.0
 30
0.0
  3
_D_2
  1

  0
LINE
  5
107
330
104
100
AcDbEntity
  8
치수문자_일반주서
 62
     0
370
    -2
100
AcDbLine
 10
22.47899999999997
 20
1.634730889481579
 30
0.0
 11
22.47899999999997
 21
37.19913874761563
 31
0.0
  0
LINE
  5
108
330
104
100
AcDbEntity
  8
치수문자_일반주서
 62
     0
370
    -2
100
AcDbLine
 10
0.2539999999999765
 20
2.9835
 30
0.0
 11
0.2539999999999765
 21
37.19913874761563
 31
0.0
  0
LINE
  5
109
330
104
100
AcDbEntity
  8
치수문자_일반주서
 62
     0
370
    -2
100
AcDbLine
 10
22.47899999999997
 20
37.19913874761563
 30
0.0
 11
55.33299999999997
 21
37.19913874761563
 31
0.0
  0
LINE
  5
10A
330
104
100
AcDbEntity
  8
치수문자_일반주서
 62
     0
370
    -2
100
AcDbLine
 10
22.47899999999997
 20
37.19913874761563
 30
0.0
 11
0.2539999999999765
 21
37.19913874761563
 31
0.0
  0
LINE
  5
10B
330
104
100
AcDbEntity
  8
치수문자_일반주서
 62
     0
370
    -2
100
AcDbLine
 10
25.78099999999997
 20
37.19913874761563
 30
0.0
 11
29.08299999999997
 21
37.19913874761563
 31
0.0
  0
LINE
  5
10C
330
104
100
AcDbEntity
  8
치수문자_일반주서
 62
     0
370
    -2
100
AcDbLine
 10
-3.048000000000023
 20
37.19913874761563
 30
0.0
 11
-6.350000000000023
 21
37.19913874761563
 31
0.0
  0
SOLID
  5
10D
330
104
100
AcDbEntity
  8
치수문자_일반주서
 62
     0
100
AcDbTrace
 10
25.78099999999997
 20
37.74947208094897
 30
0.0
 11
25.78099999999997
 21
36.6488054142823
 31
0.0
 12
22.47899999999997
 22
37.19913874761563
 32
0.0
 13
22.47899999999997
 23
37.19913874761563
 33
0.0
  0
SOLID
  5
10E
330
104
100
AcDbEntity
  8
치수문자_일반주서
 62
     0
100
AcDbTrace
 10
-3.048000000000023
 20
36.6488054142823
 30
0.0
 11
-3.048000000000023
 21
37.74947208094897
 31
0.0
 12
0.2539999999999765
 22
37.19913874761563
 32
0.0
 13
0.2539999999999765
 23
37.19913874761563
 33
0.0
  0
MTEXT
  5
10F
330
104
100
AcDbEntity
  8
치수문자_일반주서
 62
     0
100
AcDbMText
 10
42.20799999999997
 20
41.57413874761563
 30
0.0
 40
3.5
 41
0.0
 71
     2
 72
     1
  1
\A1;22.23 [7/8]
  7
SLDTEXTSTYLE0
 73
     1
 44
1.0
  0
POINT
  5
172
330
104
100
AcDbEntity
  8
Defpoints
 62
     0
100
AcDbPoint
 10
22.47899999999997
 20
1.572230889481579
 30
0.0
  0
POINT
  5
173
330
104
100
AcDbEntity
  8
Defpoints
 62
     0
100
AcDbPoint
 10
0.2539999999999765
 20
2.921
 30
0.0
  0
POINT
  5
177
330
104
100
AcDbEntity
  8
Defpoints
 62
     0
100
AcDbPoint
 10
0.2539999999999765
 20
37.19913874761563
 30
0.0
  0
ENDBLK
  5
106
330
104
100
AcDbEntity
  8
0
100
AcDbBlockEnd
  0
BLOCK
  5
11B
330
11A
100
AcDbEntity
  8
0
100
AcDbBlockBegin
  2
_D_3
 70
     0
 10
0.0
 20
0.0
 30
0.0
  3
_D_3
  1

  0
LINE
  5
11D
330
11A
100
AcDbEntity
  8
치수문자_일반주서
 62
     0
370
    -2
100
AcDbLine
 10
22.47899999999997
 20
1.634730889481578
 30
0.0
 11
22.47899999999997
 21
51.52306206757276
 31
0.0
  0
LINE
  5
11E
330
11A
100
AcDbEntity
  8
치수문자_일반주서
 62
     0
370
    -2
100
AcDbLine
 10
-34.67100000000002
 20
2.602500000000005
 30
0.0
 11
-34.67100000000002
 21
51.52306206757276
 31
0.0
  0
LINE
  5
11F
330
11A
100
AcDbEntity
  8
치수문자_일반주서
 62
     0
370
    -2
100
AcDbLine
 10
19.17699999999997
 20
51.52306206757276
 30
0.0
 11
-31.36900000000002
 21
51.52306206757276
 31
0.0
  0
SOLID
  5
120
330
11A
100
AcDbEntity
  8
치수문자_일반주서
 62
     0
100
AcDbTrace
 10
19.17699999999997
 20
50.97272873423942
 30
0.0
 11
19.17699999999997
 21
52.07339540090609
 31
0.0
 12
22.47899999999997
 22
51.52306206757276
 32
0.0
 13
22.47899999999997
 23
51.52306206757276
 33
0.0
  0
SOLID
  5
121
330
11A
100
AcDbEntity
  8
치수문자_일반주서
 62
     0
100
AcDbTrace
 10
-31.36900000000002
 20
52.07339540090609
 30
0.0
 11
-31.36900000000002
 21
50.97272873423942
 31
0.0
 12
-34.67100000000002
 22
51.52306206757276
 32
0.0
 13
-34.67100000000002
 23
51.52306206757276
 33
0.0
  0
MTEXT
  5
122
330
11A
100
AcDbEntity
  8
치수문자_일반주서
 62
     0
100
AcDbMText
 10
-6.096000000000029
 20
55.89806206757276
 30
0.0
 40
3.5
 41
0.0
 71
     2
 72
     1
  1
\A1;57.15 [2 1/4]
  7
SLDTEXTSTYLE0
 73
     1
 44
1.0
  0
POINT
  5
123
330
11A
100
AcDbEntity
  8
Defpoints
 62
     0
100
AcDbPoint
 10
22.47899999999997
 20
1.572230889481578
 30
0.0
  0
POINT
  5
124
330
11A
100
AcDbEntity
  8
Defpoints
 62
     0
100
AcDbPoint
 10
-34.67100000000002
 20
2.540000000000005
 30
0.0
  0
POINT
  5
125
330
11A
100
AcDbEntity
  8
Defpoints
 62
     0
100
AcDbPoint
 10
-34.67100000000002
 20
51.52306206757276
 30
0.0
  0
ENDBLK
  5
11C
330
11A
100
AcDbEntity
  8
0
100
AcDbBlockEnd
  0
BLOCK
  5
12E
330
12D
100
AcDbEntity
  8
0
100
AcDbBlockBegin
  2
_D_4
 70
     0
 10
0.0
 20
0.0
 30
0.0
  3
_D_4
  1

  0
LINE
  5
130
330
12D
100
AcDbEntity
  8
치수문자_일반주서
 62
     0
370
    -2
100
AcDbLine
 10
-34.09850000000002
 20
3.175000000000011
 30
0.0
 11
-47.67100000000001
 21
3.174999999999965
 31
0.0
  0
LINE
  5
131
330
12D
100
AcDbEntity
  8
치수문자_일반주서
 62
     0
370
    -2
100
AcDbLine
 10
-34.09850000000002
 20
-3.175000000000011
 30
0.0
 11
-47.67099999999999
 21
-3.175000000000058
 31
0.0
  0
LINE
  5
132
330
12D
100
AcDbEntity
  8
치수문자_일반주서
 62
     0
370
    -2
100
AcDbLine
 10
-47.67100000000001
 20
3.174999999999965
 30
0.0
 11
-47.67100000000012
 21
35.15399999999997
 31
0.0
  0
LINE
  5
133
330
12D
100
AcDbEntity
  8
치수문자_일반주서
 62
     0
370
    -2
100
AcDbLine
 10
-47.67100000000001
 20
3.174999999999965
 30
0.0
 11
-47.67099999999999
 21
-3.175000000000058
 31
0.0
  0
LINE
  5
134
330
12D
100
AcDbEntity
  8
치수문자_일반주서
 62
     0
370
    -2
100
AcDbLine
 10
-47.67100000000003
 20
6.476999999999965
 30
0.0
 11
-47.67100000000004
 21
9.778999999999964
 31
0.0
  0
LINE
  5
135
330
12D
100
AcDbEntity
  8
치수문자_일반주서
 62
     0
370
    -2
100
AcDbLine
 10
-47.67099999999998
 20
-6.477000000000057
 30
0.0
 11
-47.67099999999996
 21
-9.779000000000057
 31
0.0
  0
SOLID
  5
136
330
12D
100
AcDbEntity
  8
치수문자_일반주서
 62
     0
100
AcDbTrace
 10
-48.22133333333336
 20
6.476999999999963
 30
0.0
 11
-47.12066666666669
 21
6.476999999999967
 31
0.0
 12
-47.67100000000001
 22
3.174999999999965
 32
0.0
 13
-47.67100000000001
 23
3.174999999999965
 33
0.0
  0
SOLID
  5
137
330
12D
100
AcDbEntity
  8
치수문자_일반주서
 62
     0
100
AcDbTrace
 10
-47.12066666666664
 20
-6.477000000000055
 30
0.0
 11
-48.22133333333331
 21
-6.477000000000059
 31
0.0
 12
-47.67099999999999
 22
-3.175000000000058
 32
0.0
 13
-47.67099999999999
 23
-3.175000000000058
 33
0.0
  0
MTEXT
  5
138
330
12D
100
AcDbEntity
  8
치수문자_일반주서
 62
     0
100
AcDbMText
 10
-52.04600000000008
 20
22.46649999999995
 30
0.0
 40
3.5
 41
0.0
 71
     2
 72
     1
  1
\A1;%%c6.35 [1/4]
  7
SLDTEXTSTYLE0
 11
-3.356894814614635E-15
 21
1.0
 31
0.0
 73
     1
 44
1.0
  0
POINT
  5
139
330
12D
100
AcDbEntity
  8
Defpoints
 62
     0
100
AcDbPoint
 10
-34.03600000000002
 20
3.175000000000011
 30
0.0
  0
POINT
  5
13A
330
12D
100
AcDbEntity
  8
Defpoints
 62
     0
100
AcDbPoint
 10
-34.03600000000002
 20
-3.175000000000011
 30
0.0
  0
POINT
  5
13B
330
12D
100
AcDbEntity
  8
Defpoints
 62
     0
100
AcDbPoint
 10
-47.67099999999999
 20
-3.175000000000059
 30
0.0
  0
ENDBLK
  5
12F
330
12D
100
AcDbEntity
  8
0
100
AcDbBlockEnd
  0
BLOCK
  5
148
330
147
100
AcDbEntity
  8
0
100
AcDbBlockBegin
  2
SW_DOWELSYMBOL_0
 70
     0
 10
0.0
 20
0.0
 30
0.0
  3
SW_DOWELSYMBOL_0
  1

  0
CIRCLE
  5
14A
330
147
100
AcDbEntity
  8
해칭선
 62
     0
100
AcDbCircle
 10
0.0
 20
0.0
 30
0.0
 40
3.000000000000001
  0
HATCH
  5
14B
330
147
100
AcDbEntity
  8
0
  6
Continuous
 62
     0
370
     0
100
AcDbHatch
 10
0.0
 20
0.0
 30
0.0
210
0.0
220
0.0
230
1.0
  2
SOLID
 70
     1
 71
     0
 91
        1
 92
        0
 93
        3
 72
     2
 10
0.0
 20
0.0
 40
3.000000000000001
 50
0.0
 51
90.0
 73
     1
 72
     1
 10
0.0
 20
3.000000000000001
 11
0.0
 21
0.0
 72
     1
 10
0.0
 20
0.0
 11
3.000000000000001
 21
0.0
 97
        0
 75
     0
 76
     1
 98
        1
 10
0.0
 20
0.0
  0
HATCH
  5
14C
330
147
100
AcDbEntity
  8
0
  6
Continuous
 62
     0
370
     0
100
AcDbHatch
 10
0.0
 20
0.0
 30
0.0
210
0.0
220
0.0
230
1.0
  2
SOLID
 70
     1
 71
     0
 91
        1
 92
        0
 93
        3
 72
     2
 10
0.0
 20
0.0
 40
3.000000000000001
 50
180.0
 51
270.0000000000008
 73
     1
 72
     1
 10
0.0
 20
-3.000000000000001
 11
0.0
 21
0.0
 72
     1
 10
0.0
 20
0.0
 11
-3.000000000000001
 21
0.0
 97
        0
 75
     0
 76
     1
 98
        1
 10
0.0
 20
0.0
  0
ENDBLK
  5
149
330
147
100
AcDbEntity
  8
0
100
AcDbBlockEnd
  0
ENDSEC
  0
SECTION
  2
ENTITIES
  0
LINE
  5
96
330
1F
100
AcDbEntity
  8
외형선
  6
Continuous
 62
     1
370
    15
100
AcDbLine
 10
16.24917697118648
 20
3.174999999999994
 30
0.0
 11
14.54149999999998
 21
3.174999999999993
 31
0.0
  0
ARC
  5
97
330
1F
100
AcDbEntity
  8
외형선
  6
Continuous
 62
     1
370
    15
100
AcDbCircle
 10
20.87879999999998
 20
-1.574800000000002
 30
0.0
 40
1.600199999999997
100
AcDbArc
 50
355.5522595834637
 51
0.0000000000000159
  0
LINE
  5
98
330
1F
100
AcDbEntity
  8
외형선
  6
Continuous
 62
     1
370
    15
100
AcDbLine
 10
14.54149999999998
 20
-3.175000000000004
 30
0.0
 11
16.24917697118649
 21
-3.175000000000003
 31
0.0
  0
ARC
  5
99
330
1F
100
AcDbEntity
  8
외형선
  6
Continuous
 62
     1
370
    15
100
AcDbCircle
 10
20.87879999999998
 20
1.574799999999994
 30
0.0
 40
1.600199999999999
100
AcDbArc
 50
0.0
 51
4.238286974412964
  0
LINE
  5
9A
330
1F
100
AcDbEntity
  8
외형선
  6
Continuous
370
    15
100
AcDbLine
 10
-34.03600000000002
 20
-3.174999999999999
 30
0.0
 11
-0.0000000000000208
 21
-3.174999999999999
 31
0.0
  0
LINE
  5
9B
330
1F
100
AcDbEntity
  8
외형선
  6
Continuous
370
    15
100
AcDbLine
 10
-0.0000000000000208
 20
3.174999999999999
 30
0.0
 11
-34.03600000000002
 21
3.174999999999999
 31
0.0
  0
LINE
  5
9C
330
1F
100
AcDbEntity
  8
외형선
  6
Continuous
370
    15
100
AcDbLine
 10
-0.0000000000000208
 20
-3.175
 30
0.0
 11
0.2539999999999765
 21
-2.921
 31
0.0
  0
LINE
  5
9D
330
1F
100
AcDbEntity
  8
외형선
  6
Continuous
370
    15
100
AcDbLine
 10
0.2539999999999765
 20
2.921
 30
0.0
 11
-0.0000000000000208
 21
3.175
 31
0.0
  0
LINE
  5
9E
330
1F
100
AcDbEntity
  8
외형선
  6
Continuous
370
    15
100
AcDbLine
 10
-34.03600000000002
 20
3.174999999999999
 30
0.0
 11
-34.67100000000002
 21
2.540000000000005
 31
0.0
  0
LINE
  5
9F
330
1F
100
AcDbEntity
  8
외형선
  6
Continuous
370
    15
100
AcDbLine
 10
-34.67100000000002
 20
-2.540000000000005
 30
0.0
 11
-34.03600000000002
 21
-3.174999999999999
 31
0.0
  0
LINE
  5
A0
330
1F
100
AcDbEntity
  8
외형선
  6
Continuous
370
    15
100
AcDbLine
 10
14.42747102712434
 20
-2.921
 30
0.0
 11
14.54149999999998
 21
-2.921
 31
0.0
  0
LINE
  5
A1
330
1F
100
AcDbEntity
  8
외형선
  6
Continuous
370
    15
100
AcDbLine
 10
0.2539999999999765
 20
-2.921
 30
0.0
 11
14.04118278039156
 21
-2.921
 31
0.0
  0
LINE
  5
A2
330
1F
100
AcDbEntity
  8
외형선
  6
Continuous
370
    15
100
AcDbLine
 10
14.04118278039156
 20
2.921
 30
0.0
 11
0.2539999999999765
 21
2.921
 31
0.0
  0
LINE
  5
A3
330
1F
100
AcDbEntity
  8
외형선
  6
Continuous
370
    15
100
AcDbLine
 10
14.54149999999998
 20
2.921
 30
0.0
 11
14.42747102712436
 21
2.921
 31
0.0
  0
SPLINE
  5
A4
330
1F
100
AcDbEntity
  8
외형선
  6
Continuous
 62
     1
370
    15
100
AcDbSpline
210
0.0
220
0.0
230
1.0
 70
     8
 71
     3
 72
    20
 73
    16
 74
     0
 42
0.000000001
 43
0.00000001
 40
0.0
 40
0.0
 40
0.0
 40
0.0
 40
0.1250000000000001
 40
0.1250000000000001
 40
0.2500000000000002
 40
0.2500000000000002
 40
0.3750000000000003
 40
0.3750000000000003
 40
0.5000000000000004
 40
0.5000000000000004
 40
0.7500000000000004
 40
0.7500000000000004
 40
0.8750000000000002
 40
0.8750000000000002
 40
1.0
 40
1.0
 40
1.0
 40
1.0
 10
20.87879999999998
 20
1.168486889402626
 30
0.0
 10
20.97844079002745
 20
1.114872984406226
 30
0.0
 10
21.07768051954415
 20
1.060012394722805
 30
0.0
 10
21.27682298397797
 20
0.9504208248080358
 30
0.0
 10
21.37794682690402
 20
0.8949597334576033
 30
0.0
 10
21.57302211670443
 20
0.7886327326604922
 30
0.0
 10
21.66723011489278
 20
0.737628034703442
 30
0.0
 10
21.84799837522706
 20
0.6382821884819901
 30
0.0
 10
21.93400458524502
 20
0.5901902898706515
 30
0.0
 10
22.16568512071061
 20
0.4512909729758692
 30
0.0
 10
22.28951828135838
 20
0.3630775447813839
 30
0.0
 10
22.40752775566989
 20
0.2139526215534334
 30
0.0
 10
22.4362270639432
 20
0.1604566691554145
 30
0.0
 10
22.47177547167699
 20
0.0443310246149212
 30
0.0
 10
22.47899999999997
 20
-0.0187486694209891
 30
0.0
 10
22.47899999999997
 20
-0.0899170181886745
 30
0.0
  0
LINE
  5
A5
330
1F
100
AcDbEntity
  8
외형선
  6
Continuous
 62
     1
370
    15
100
AcDbLine
 10
22.47899999999997
 20
-1.316633381811303
 30
0.0
 11
22.47899999999997
 21
-0.089917018188674
 31
0.0
  0
SPLINE
  5
A6
330
1F
100
AcDbEntity
  8
외형선
  6
Continuous
 62
     1
370
    15
100
AcDbSpline
210
0.0
220
0.0
230
1.0
 70
     8
 71
     3
 72
    18
 73
    14
 74
     0
 42
0.000000001
 43
0.00000001
 40
0.0
 40
0.0
 40
0.0
 40
0.0
 40
0.1250000000000011
 40
0.1250000000000011
 40
0.2500000000000022
 40
0.2500000000000022
 40
0.5000000000000016
 40
0.5000000000000016
 40
0.6250000000000012
 40
0.6250000000000012
 40
0.7500000000000009
 40
0.7500000000000009
 40
1.0
 40
1.0
 40
1.0
 40
1.0
 10
22.47899999999997
 20
-1.316633381811303
 30
0.0
 10
22.47899999999998
 20
-1.432178768114762
 30
0.0
 10
22.47176670035983
 20
-1.547141112513604
 30
0.0
 10
22.43207974211967
 20
-1.77494479858585
 30
0.0
 10
22.39982751310407
 20
-1.884469766140816
 30
0.0
 10
22.26442497482849
 20
-2.18125147431005
 30
0.0
 10
22.12806577460581
 20
-2.323932180847998
 30
0.0
 10
21.89397904068904
 20
-2.449407853849855
 30
0.0
 10
21.81239940493496
 20
-2.476789590849979
 30
0.0
 10
21.64083240088329
 20
-2.508863094014674
 30
0.0
 10
21.55071464113321
 20
-2.513183568222637
 30
0.0
 10
21.27545267732897
 20
-2.496489331263469
 30
0.0
 10
21.0807014287701
 20
-2.446051109998353
 30
0.0
 10
20.87879999999999
 20
-2.368230315733808
 30
0.0
  0
SPLINE
  5
A7
330
1F
100
AcDbEntity
  8
외형선
  6
Continuous
 62
     1
370
    15
100
AcDbSpline
210
0.0
220
0.0
230
1.0
 70
     8
 71
     3
 72
    22
 73
    18
 74
     0
 42
0.000000001
 43
0.00000001
 40
0.0
 40
0.0
 40
0.0
 40
0.0
 40
0.125
 40
0.125
 40
0.25
 40
0.25
 40
0.375
 40
0.375
 40
0.5
 40
0.5
 40
0.625
 40
0.625
 40
0.75
 40
0.75
 40
0.875
 40
0.875
 40
1.0
 40
1.0
 40
1.0
 40
1.0
 10
20.87879999999998
 20
-2.368230315733805
 30
0.0
 10
20.61570217153225
 20
-2.266822009188583
 30
0.0
 10
20.34970194117534
 20
-2.156831367679377
 30
0.0
 10
19.82013083116879
 20
-1.922996098866801
 30
0.0
 10
19.55898676026129
 20
-1.799575302767811
 30
0.0
 10
19.03095189792046
 20
-1.540292672989164
 30
0.0
 10
18.76477776684062
 20
-1.404497487690459
 30
0.0
 10
18.2363680124145
 20
-1.124802154405125
 30
0.0
 10
17.97537588787298
 20
-0.9811634465990233
 30
0.0
 10
17.44604362339534
 20
-0.6867709516675559
 30
0.0
 10
17.17997391919852
 20
-0.5364151622918771
 30
0.0
 10
16.65326861212378
 20
-0.2340649655898213
 30
0.0
 10
16.39121176283662
 20
-0.0818083229926708
 30
0.0
 10
15.86112836341584
 20
0.2233658331172119
 30
0.0
 10
15.59544104815643
 20
0.375825599956649
 30
0.0
 10
15.07097743103857
 20
0.6757942917645912
 30
0.0
 10
14.80664283832398
 20
0.8243645188818673
 30
0.0
 10
14.54149999999998
 20
0.969715138312477
 30
0.0
  0
SPLINE
  5
A8
330
1F
100
AcDbEntity
  8
외형선
  6
Continuous
370
    15
100
AcDbSpline
210
0.0
220
0.0
230
1.0
 70
    24
 71
     3
 72
    20
 73
    16
 74
     0
 42
0.000000001
 43
0.00000001
 40
0.0
 40
0.0
 40
0.0
 40
0.0
 40
0.0545437611628975
 40
0.120368850294299
 40
0.1876254632973565
 40
0.2553767296745567
 40
0.3207479351734178
 40
0.3870519133769524
 40
0.4538296495114126
 40
0.5215809158886164
 40
0.5869521213874473
 40
0.7199155544978361
 40
0.7876668208750588
 40
0.8928686959670885
 40
1.0
 40
1.0
 40
1.0
 40
1.0
 10
14.54149999999999
 20
1.009211991535785
 30
0.0
 10
14.54149999999999
 20
1.036172657362603
 30
0.0
 10
14.5415
 20
1.09567028421402
 30
0.0
 10
14.54149999999992
 20
1.200641727183086
 30
0.0
 10
14.54150000000001
 20
1.321369052749904
 30
0.0
 10
14.54149999999996
 20
1.450844887861973
 30
0.0
 10
14.54149999999997
 20
1.587240749026724
 30
0.0
 10
14.54150000000003
 20
1.729560846219941
 30
0.0
 10
14.54149999999996
 20
1.879270428968328
 30
0.0
 10
14.54150000000006
 20
2.032964347833304
 30
0.0
 10
14.54149999999986
 20
2.24209421957434
 30
0.0
 10
14.54150000000001
 20
2.456505686717284
 30
0.0
 10
14.54149999999996
 20
2.702558810708652
 30
0.0
 10
14.54150000000024
 20
2.926903198027131
 30
0.0
 10
14.54149999999938
 20
3.089972017337145
 30
0.0
 10
14.54149999999894
 20
3.172247313792389
 30
0.0
  0
SPLINE
  5
A9
330
1F
100
AcDbEntity
  8
외형선
  6
Continuous
 62
     1
370
    15
100
AcDbSpline
210
0.0
220
0.0
230
1.0
 70
     8
 71
     3
 72
    22
 73
    18
 74
     0
 42
0.000000001
 43
0.00000001
 40
0.0
 40
0.0
 40
0.0
 40
0.0
 40
0.125
 40
0.125
 40
0.25
 40
0.25
 40
0.375
 40
0.375
 40
0.5
 40
0.5
 40
0.625
 40
0.625
 40
0.75
 40
0.75
 40
0.875
 40
0.875
 40
1.0
 40
1.0
 40
1.0
 40
1.0
 10
20.87879999999999
 20
1.168486889402416
 30
0.0
 10
20.61570217153222
 20
1.310052426732521
 30
0.0
 10
20.34970194117526
 20
1.448084735400787
 30
0.0
 10
19.82013083116863
 20
1.712745791696289
 30
0.0
 10
19.55898676026109
 20
1.839015010513704
 30
0.0
 10
19.03095189792015
 20
2.078926167008699
 30
0.0
 10
18.76477776684026
 20
2.192398104147496
 30
0.0
 10
18.23636801241406
 20
2.402846400396177
 30
0.0
 10
17.97537588787251
 20
2.499730009761382
 30
0.0
 10
17.44604362339475
 20
2.676463153106912
 30
0.0
 10
17.17997391919791
 20
2.755974955027964
 30
0.0
 10
16.65326861212309
 20
2.894917710293442
 30
0.0
 10
16.39121176283587
 20
2.95454246057682
 30
0.0
 10
15.86112836341497
 20
3.053379013086547
 30
0.0
 10
15.59544104815553
 20
3.09236992541541
 30
0.0
 10
15.07097743103759
 20
3.148514982012726
 30
0.0
 10
14.80664283832295
 20
3.165892420555007
 30
0.0
 10
14.54149999999889
 20
3.172247313792386
 30
0.0
  0
SPLINE
  5
AA
330
1F
100
AcDbEntity
  8
외형선
  6
Continuous
 62
     1
370
    15
100
AcDbSpline
210
0.0
220
0.0
230
1.0
 70
     8
 71
     3
 72
    22
 73
    18
 74
     0
 42
0.000000001
 43
0.00000001
 40
0.0
 40
0.0
 40
0.0
 40
0.0
 40
0.125
 40
0.125
 40
0.25
 40
0.25
 40
0.375
 40
0.375
 40
0.5
 40
0.5
 40
0.625
 40
0.625
 40
0.75
 40
0.75
 40
0.875
 40
0.875
 40
1.0
 40
1.0
 40
1.0
 40
1.0
 10
21.31263304067659
 20
-3.175000000000015
 30
0.0
 10
20.62935877108079
 20
-3.149571773161101
 30
0.0
 10
20.34970194117525
 20
-2.920781344293431
 30
0.0
 10
19.82013083116863
 20
-2.707328300610931
 30
0.0
 10
19.55898676026105
 20
-2.59265947650351
 30
0.0
 10
19.03095189792013
 20
-2.404563445227573
 30
0.0
 10
18.76477776684025
 20
-2.301577917277796
 30
0.0
 10
18.23636801241403
 20
-2.080913148709831
 30
0.0
 10
17.97537588787249
 20
-1.9634783588137
 30
0.0
 10
17.44604362339473
 20
-1.714771814934098
 30
0.0
 10
17.1799739191979
 20
-1.583800002233243
 30
0.0
 10
16.65326861212309
 20
-1.312734493507642
 30
0.0
 10
16.39121176283585
 20
-1.172432616971237
 30
0.0
 10
15.86112836341497
 20
-0.8836266152238534
 30
0.0
 10
15.59544104815553
 20
-0.7355290027668272
 30
0.0
 10
15.07097743103759
 20
-0.4365868499694671
 30
0.0
 10
14.80664283832293
 20
-0.2846936942384131
 30
0.0
 10
14.54149999999887
 20
-0.1321816179994919
 30
0.0
  0
LINE
  5
AB
330
1F
100
AcDbEntity
  8
외형선
  6
Continuous
370
    15
100
AcDbLine
 10
14.54149999999997
 20
0.9697151383124707
 30
0.0
 11
14.54149999999894
 21
-0.1321816179993976
 31
0.0
  0
SPLINE
  5
AD
330
1F
100
AcDbEntity
  8
외형선
  6
Continuous
 62
     1
370
    15
100
AcDbSpline
210
0.0
220
0.0
230
1.0
 70
     8
 71
     3
 72
    12
 73
     8
 74
     0
 42
0.000000001
 43
0.00000001
 40
0.0
 40
0.0
 40
0.0
 40
0.0
 40
0.2160713211311753
 40
0.4494893333859085
 40
0.6327423315616093
 40
0.8166335136864085
 40
1.0
 40
1.0
 40
1.0
 40
1.0
 10
19.60554865034938
 20
-2.597030384014967
 30
0.0
 10
19.24074741531097
 20
-2.709554342344791
 30
0.0
 10
18.48185788245984
 20
-2.943635935194916
 30
0.0
 10
17.41355832015148
 20
-3.122241492663895
 30
0.0
 10
16.40057133782236
 20
-3.188232978272355
 30
0.0
 10
15.47055136270706
 20
-3.162184541249643
 30
0.0
 10
14.85088868648284
 20
-3.069543524778774
 30
0.0
 10
14.54149999999998
 20
-3.02328919399512
 30
0.0
  0
SPLINE
  5
AE
330
1F
100
AcDbEntity
  8
외형선
  6
Continuous
370
    15
100
AcDbSpline
210
0.0
220
0.0
230
1.0
 70
    24
 71
     3
 72
    27
 73
    23
 74
     0
 42
0.000000001
 43
0.00000001
 40
0.0
 40
0.0
 40
0.0
 40
0.0
 40
0.0644245563436878
 40
0.1297761374594564
 40
0.174981184218091
 40
0.2205024050032998
 40
0.2665133114124234
 40
0.3131949954111937
 40
0.3582367801761591
 40
0.4035912978750791
 40
0.4499321579492756
 40
0.4966138419480713
 40
0.5416556267130246
 40
0.6332695152755426
 40
0.6799511992743247
 40
0.7249929840393615
 40
0.7703475017381869
 40
0.8166883618123898
 40
0.8633700458111536
 40
0.9084118305761254
 40
0.9540963103484462
 40
1.0
 40
1.0
 40
1.0
 40
1.0
 10
14.54149999999997
 20
-3.023289193995117
 30
0.0
 10
14.54149999999996
 20
-2.960331038266283
 30
0.0
 10
14.54149999999994
 20
-2.833508802526362
 30
0.0
 10
14.54150000000005
 20
-2.647034343162205
 30
0.0
 10
14.54149999999993
 20
-2.474879946836711
 30
0.0
 10
14.54149999999997
 20
-2.320014561192718
 30
0.0
 10
14.5415
 20
-2.160701255326913
 30
0.0
 10
14.54149999999994
 20
-2.000214896416741
 30
0.0
 10
14.54150000000003
 20
-1.839977865792074
 30
0.0
 10
14.54149999999995
 20
-1.68071842299008
 30
0.0
 10
14.54149999999997
 20
-1.521282771657802
 30
0.0
 10
14.54149999999999
 20
-1.365103740087512
 30
0.0
 10
14.54149999999994
 20
-1.163101741662966
 30
0.0
 10
14.54150000000003
 20
-0.9707311620433696
 30
0.0
 10
14.54149999999995
 20
-0.7930366399380931
 30
0.0
 10
14.54150000000001
 20
-0.6681496128728848
 30
0.0
 10
14.54149999999989
 20
-0.5523283186434929
 30
0.0
 10
14.54150000000003
 20
-0.4449328777092185
 30
0.0
 10
14.54149999999994
 20
-0.3484165029980991
 30
0.0
 10
14.54149999999998
 20
-0.2638053372365133
 30
0.0
 10
14.54149999999996
 20
-0.1903541258616494
 30
0.0
 10
14.54149999999998
 20
-0.1516033696957176
 30
0.0
 10
14.54149999999999
 20
-0.1321816180001292
 30
0.0
  0
SPLINE
  5
AF
330
1F
100
AcDbEntity
  8
외형선
  6
Continuous
 62
     1
370
    15
100
AcDbSpline
210
0.0
220
0.0
230
1.0
 70
     8
 71
     3
 72
     8
 73
     4
 74
     0
 42
0.000000001
 43
0.00000001
 40
0.0
 40
0.0
 40
0.0
 40
0.0
 40
1.0
 40
1.0
 40
1.0
 40
1.0
 10
22.47899999999997
 20
0.8639858667247363
 30
0.0
 10
22.47899999999997
 20
0.8545404250023017
 30
0.0
 10
22.4766631145366
 20
0.8491190308040484
 30
0.0
 10
22.47098373587442
 20
0.8482496560650576
 30
0.0
  0
SPLINE
  5
B0
330
1F
100
AcDbEntity
  8
외형선
  6
Continuous
 62
     1
370
    15
100
AcDbSpline
210
0.0
220
0.0
230
1.0
 70
     8
 71
     3
 72
    29
 73
    25
 74
     0
 42
0.000000001
 43
0.00000001
 40
0.0
 40
0.0
 40
0.0
 40
0.0
 40
0.015410514667064
 40
0.0559246394347925
 40
0.0867344567724636
 40
0.1489454684328585
 40
0.1804245416880674
 40
0.2112176316926988
 40
0.2733758099417969
 40
0.3047704796302333
 40
0.3861001093518316
 40
0.435627400604282
 40
0.4842901858143628
 40
0.5333273579323348
 40
0.583412541488112
 40
0.6338111032143989
 40
0.6836329890671644
 40
0.7337110936453097
 40
0.7845467379678268
 40
0.8356300863234388
 40
0.8763985000649466
 40
0.9172927118992189
 40
0.9585778880022704
 40
1.0
 40
1.0
 40
1.0
 40
1.0
 10
22.46386920851597
 20
0.8497192030168357
 30
0.0
 10
22.46248200832083
 20
0.8499049416460976
 30
0.0
 10
22.45744786946088
 20
0.8505789857059491
 30
0.0
 10
22.44407852849992
 20
0.8589494271342486
 30
0.0
 10
22.41873429344268
 20
0.8778033071496993
 30
0.0
 10
22.38688709636058
 20
0.905672295933221
 30
0.0
 10
22.34764291683623
 20
0.9425757389851422
 30
0.0
 10
22.30365571614464
 20
0.9851701444634855
 30
0.0
 10
22.2529786131101
 20
1.035592614712054
 30
0.0
 10
22.17403675039873
 20
1.114848286388034
 30
0.0
 10
22.09271452452925
 20
1.196617537707539
 30
0.0
 10
21.99533945043106
 20
1.292711370337345
 30
0.0
 10
21.91145619301189
 20
1.373737124211389
 30
0.0
 10
21.82383220995347
 20
1.456020166061201
 30
0.0
 10
21.73209359996573
 20
1.539161883668021
 30
0.0
 10
21.6370892584646
 20
1.621623403588237
 30
0.0
 10
21.53959053455344
 20
1.702072910957792
 30
0.0
 10
21.43952957194042
 20
1.779946498100164
 30
0.0
 10
21.33650421002413
 20
1.854850746815621
 30
0.0
 10
21.2379385577261
 20
1.921035512424337
 30
0.0
 10
21.1448540048218
 20
1.978612088474186
 30
0.0
 10
21.05758099773928
 20
2.028194802062122
 30
0.0
 10
20.96893965714681
 20
2.074320038725375
 30
0.0
 10
20.90887969885303
 20
2.10124943803318
 30
0.0
 10
20.87879999999998
 20
2.114736430773171
 30
0.0
  0
LINE
  5
B1
330
1F
100
AcDbEntity
  8
외형선
  6
Continuous
 62
     1
370
    15
100
AcDbLine
 10
22.47899999999997
 20
0.8639858667247363
 30
0.0
 11
22.47899999999997
 21
-0.089917018188674
 31
0.0
  0
SPLINE
  5
B2
330
1F
100
AcDbEntity
  8
외형선
  6
Continuous
 62
     1
370
    15
100
AcDbSpline
210
0.0
220
0.0
230
1.0
 70
     8
 71
     3
 72
    12
 73
     8
 74
     0
 42
0.000000001
 43
0.00000001
 40
0.0
 40
0.0
 40
0.0
 40
0.0
 40
0.2557595811856641
 40
0.5113190330831278
 40
0.766661371529299
 40
0.9671268310260162
 40
0.9999999999999999
 40
0.9999999999999999
 40
0.9999999999999999
 40
0.9999999999999999
 10
20.87879999999996
 20
2.114736430773171
 30
0.0
 10
20.48398742213764
 20
2.274962430914453
 30
0.0
 10
19.69467120326616
 20
2.59528905597076
 30
0.0
 10
18.51150449003691
 20
2.933049094024359
 30
0.0
 10
17.41351969892917
 20
3.116708209048065
 30
0.0
 10
16.66012586623036
 20
3.184741633753668
 30
0.0
 10
16.29992300346649
 20
3.170769444479212
 30
0.0
 10
16.24917697118649
 20
3.168801017125516
 30
0.0
  0
LINE
  5
B3
330
1F
100
AcDbEntity
  8
외형선
  6
Continuous
370
    15
100
AcDbLine
 10
14.54149999999998
 20
3.174999999999993
 30
0.0
 11
14.54149999999894
 21
3.172247313792389
 31
0.0
  0
LINE
  5
B5
330
1F
100
AcDbEntity
  8
외형선
  6
Continuous
 62
     1
370
    15
100
AcDbLine
 10
22.47899999999997
 20
0.8639858667247363
 30
0.0
 11
22.47899999999997
 21
1.572230889481579
 31
0.0
  0
SPLINE
  5
B6
330
1F
100
AcDbEntity
  8
외형선
  6
Continuous
 62
     1
370
    15
100
AcDbSpline
210
0.0
220
0.0
230
1.0
 70
     8
 71
     3
 72
     9
 73
     5
 74
     0
 42
0.000000001
 43
0.00000001
 40
0.0
 40
0.0
 40
0.0
 40
0.0
 40
0.2685909712371921
 40
1.0
 40
1.0
 40
1.0
 40
1.0
 10
19.60554865034937
 20
2.597030384014968
 30
0.0
 10
19.71947486872148
 20
2.684679334067915
 30
0.0
 10
20.08666515533033
 20
2.904382488962615
 30
0.0
 10
20.5682410415231
 20
3.222695753968891
 30
0.0
 10
21.31263304067659
 20
3.175000000000022
 30
0.0
  0
LINE
  5
B7
330
1F
100
AcDbEntity
  8
외형선
  6
Continuous
 62
     1
370
    15
100
AcDbLine
 10
22.47899999999997
 20
-1.316633381811303
 30
0.0
 11
22.47899999999997
 21
-1.574800000000002
 31
0.0
  0
LINE
  5
B8
330
1F
100
AcDbEntity
  8
외형선
  6
Continuous
370
    15
100
AcDbLine
 10
14.54149999999997
 20
-3.023289193995117
 30
0.0
 11
14.54149999999998
 21
-3.175000000000004
 31
0.0
  0
LINE
  5
B9
330
1F
100
AcDbEntity
  8
외형선
  6
Continuous
 62
     1
370
    15
100
AcDbLine
 10
22.47899999999997
 20
1.574799999999994
 30
0.0
 11
22.47899999999997
 21
1.572230889481579
 31
0.0
  0
LINE
  5
BA
330
1F
100
AcDbEntity
  8
외형선
  6
Continuous
370
    15
100
AcDbLine
 10
-0.0000000000000208
 20
0.0
 30
0.0
 11
-0.0000000000000208
 21
3.175000000000003
 31
0.0
  0
LINE
  5
BB
330
1F
100
AcDbEntity
  8
외형선
  6
Continuous
370
    15
100
AcDbLine
 10
-0.0000000000000208
 20
-3.175000000000006
 30
0.0
 11
-0.0000000000000208
 21
0.0
 31
0.0
  0
LINE
  5
BC
330
1F
100
AcDbEntity
  8
외형선
  6
Continuous
370
    15
100
AcDbLine
 10
-34.03600000000002
 20
0.0
 30
0.0
 11
-34.03600000000002
 21
3.175000000000002
 31
0.0
  0
LINE
  5
BD
330
1F
100
AcDbEntity
  8
외형선
  6
Continuous
370
    15
100
AcDbLine
 10
-34.03600000000002
 20
-3.175000000000006
 30
0.0
 11
-34.03600000000002
 21
0.0
 31
0.0
  0
LINE
  5
BE
330
1F
100
AcDbEntity
  8
외형선
  6
Continuous
370
    15
100
AcDbLine
 10
0.2539999999999765
 20
0.0
 30
0.0
 11
0.2539999999999765
 21
2.921
 31
0.0
  0
LINE
  5
BF
330
1F
100
AcDbEntity
  8
외형선
  6
Continuous
370
    15
100
AcDbLine
 10
0.2539999999999765
 20
-2.921
 30
0.0
 11
0.2539999999999765
 21
0.0
 31
0.0
  0
LINE
  5
C0
330
1F
100
AcDbEntity
  8
외형선
  6
Continuous
370
    15
100
AcDbLine
 10
-34.67100000000002
 20
0.0
 30
0.0
 11
-34.67100000000002
 21
2.540000000000005
 31
0.0
  0
LINE
  5
C1
330
1F
100
AcDbEntity
  8
외형선
  6
Continuous
370
    15
100
AcDbLine
 10
-34.67100000000002
 20
-2.540000000000005
 30
0.0
 11
-34.67100000000002
 21
0.0
 31
0.0
  0
SPLINE
  5
C2
330
1F
100
AcDbEntity
  8
외형선
  6
Continuous
370
    15
100
AcDbSpline
210
0.0
220
0.0
230
1.0
 70
     8
 71
     3
 72
     8
 73
     4
 74
     0
 42
0.000000001
 43
0.00000001
 40
0.0
 40
0.0
 40
0.0
 40
0.0
 40
1.0
 40
1.0
 40
1.0
 40
1.0
 10
14.54149999999997
 20
-0.0604239992522588
 30
0.0
 10
14.37434338501335
 20
0.028091531710459
 30
0.0
 10
14.20722787397358
 20
0.1166827220997157
 30
0.0
 10
14.04118278039156
 20
0.2048032665666918
 30
0.0
  0
SPLINE
  5
C3
330
1F
100
AcDbEntity
  8
외형선
  6
Continuous
370
    15
100
AcDbSpline
210
0.0
220
0.0
230
1.0
 70
    24
 71
     3
 72
    17
 73
    13
 74
     0
 42
0.000000001
 43
0.00000001
 40
0.0
 40
0.0
 40
0.0
 40
0.0
 40
0.1586121409521751
 40
0.2557866142927454
 40
0.35577915394326
 40
0.4529536272837807
 40
0.5529461669342419
 40
0.6501206402747794
 40
0.7501131799252593
 40
0.8472876532657968
 40
0.9472801929162761
 40
0.9999999999999999
 40
0.9999999999999999
 40
0.9999999999999999
 40
0.9999999999999999
 10
14.54149999999993
 20
-2.799510034253665
 30
0.0
 10
14.54149999999996
 20
-2.639995999893961
 30
0.0
 10
14.54150000000002
 20
-2.382754942960317
 30
0.0
 10
14.54149999999995
 20
-1.995894994977585
 30
0.0
 10
14.54149999999994
 20
-1.675648028916561
 30
0.0
 10
14.54149999999997
 20
-1.359037132258872
 30
0.0
 10
14.54149999999995
 20
-1.061345271480109
 30
0.0
 10
14.54149999999996
 20
-0.7856809641868663
 30
0.0
 10
14.54150000000004
 20
-0.5440245570254081
 30
0.0
 10
14.54149999999994
 20
-0.3419679766576622
 30
0.0
 10
14.5415
 20
-0.2021440342151625
 30
0.0
 10
14.54149999999996
 20
-0.1501359889075881
 30
0.0
 10
14.54149999999996
 20
-0.1321816180001126
 30
0.0
  0
SPLINE
  5
C4
330
1F
100
AcDbEntity
  8
외형선
  6
Continuous
370
    15
100
AcDbSpline
210
0.0
220
0.0
230
1.0
 70
     8
 71
     3
 72
     8
 73
     4
 74
     0
 42
0.000000001
 43
0.00000001
 40
0.0
 40
0.0
 40
0.0
 40
0.0
 40
1.0
 40
1.0
 40
1.0
 40
1.0
 10
14.54149999999998
 20
-2.799510034253677
 30
0.0
 10
14.37434338501337
 20
-2.774242175379424
 30
0.0
 10
14.20722787397358
 20
-2.745110858423016
 30
0.0
 10
14.04118278039156
 20
-2.71232117792748
 30
0.0
  0
LINE
  5
C5
330
1F
100
AcDbEntity
  8
외형선
  6
Continuous
370
    15
100
AcDbLine
 10
14.04118278039156
 20
-2.712319313267531
 30
0.0
 11
14.04118278039156
 21
0.2048292543950858
 31
0.0
  0
LINE
  5
C6
330
1F
100
AcDbEntity
  8
외형선
  6
Continuous
370
    15
100
AcDbLine
 10
14.54149999999998
 20
-2.921
 30
0.0
 11
14.54149999999993
 21
-2.799510034253665
 31
0.0
  0
SPLINE
  5
C7
330
1F
100
AcDbEntity
  8
외형선
  6
Continuous
370
    15
100
AcDbSpline
210
0.0
220
0.0
230
1.0
 70
     8
 71
     3
 72
     9
 73
     5
 74
     0
 42
0.000000001
 43
0.00000001
 40
0.0
 40
0.0
 40
0.0
 40
0.0
 40
0.4310931055405702
 40
1.0
 40
1.0
 40
1.0
 40
1.0
 10
14.42747102712434
 20
-2.92008700722307
 30
0.0
 10
14.37193983573861
 20
-2.920235335086115
 30
0.0
 10
14.24312499116787
 20
-2.920579408932666
 30
0.0
 10
14.11440976180056
 20
-2.916265544081665
 30
0.0
 10
14.04118278039156
 20
-2.913811356626164
 30
0.0
  0
LINE
  5
C8
330
1F
100
AcDbEntity
  8
외형선
  6
Continuous
370
    15
100
AcDbLine
 10
14.04118278039156
 20
-2.921
 30
0.0
 11
14.04118278039156
 21
-2.913809529901354
 31
0.0
  0
LINE
  5
C9
330
1F
100
AcDbEntity
  8
외형선
  6
Continuous
370
    15
100
AcDbLine
 10
14.54149999999998
 20
2.920374965704661
 30
0.0
 11
14.54149999999998
 21
2.921
 31
0.0
  0
SPLINE
  5
CA
330
1F
100
AcDbEntity
  8
외형선
  6
Continuous
370
    15
100
AcDbSpline
210
0.0
220
0.0
230
1.0
 70
     8
 71
     3
 72
     8
 73
     4
 74
     0
 42
0.000000001
 43
0.00000001
 40
0.0
 40
0.0
 40
0.0
 40
0.0
 40
1.0
 40
1.0
 40
1.0
 40
1.0
 10
14.54149999999997
 20
2.920374965704639
 30
0.0
 10
14.37434338501335
 20
2.922206395722876
 30
0.0
 10
14.20722787397358
 20
2.920005091617769
 30
0.0
 10
14.04118278039156
 20
2.913811356626162
 30
0.0
  0
LINE
  5
CB
330
1F
100
AcDbEntity
  8
외형선
  6
Continuous
370
    15
100
AcDbLine
 10
14.04118278039156
 20
1.084234726835481
 30
0.0
 11
14.04118278039156
 21
2.921
 31
0.0
  0
SPLINE
  5
CC
330
1F
100
AcDbEntity
  8
외형선
  6
Continuous
370
    15
100
AcDbSpline
210
0.0
220
0.0
230
1.0
 70
     8
 71
     3
 72
     8
 73
     4
 74
     0
 42
0.000000001
 43
0.00000001
 40
0.0
 40
0.0
 40
0.0
 40
0.0
 40
1.0
 40
1.0
 40
1.0
 40
1.0
 10
14.54149999999998
 20
0.8336573445445271
 30
0.0
 10
14.37434338501337
 20
0.9185095022391575
 30
0.0
 10
14.20722787397358
 20
1.002203057108896
 30
0.0
 10
14.04118278039156
 20
1.084230062194437
 30
0.0
  0
SPLINE
  5
CD
330
1F
100
AcDbEntity
  8
외형선
  6
Continuous
370
    15
100
AcDbSpline
210
0.0
220
0.0
230
1.0
 70
    24
 71
     3
 72
    14
 73
    10
 74
     0
 42
0.000000001
 43
0.00000001
 40
0.0
 40
0.0
 40
0.0
 40
0.0
 40
0.1394694145474271
 40
0.2865094407145325
 40
0.437813637601684
 40
0.5848536637687914
 40
0.7361578606559448
 40
0.8666065029438873
 40
1.0
 40
1.0
 40
1.0
 40
1.0
 10
14.54149999999997
 20
1.009221991535784
 30
0.0
 10
14.54149999999998
 20
1.072746371528694
 30
0.0
 10
14.54150000000003
 20
1.203243331328556
 30
0.0
 10
14.54149999999996
 20
1.451152815426477
 30
0.0
 10
14.54149999999999
 20
1.730129154790773
 30
0.0
 10
14.54149999999992
 20
2.035382161822483
 30
0.0
 10
14.54149999999997
 20
2.339533518697439
 30
0.0
 10
14.54149999999998
 20
2.638812945451052
 30
0.0
 10
14.54149999999999
 20
2.825825184471094
 30
0.0
 10
14.54149999999998
 20
2.920374965704661
 30
0.0
  0
LINE
  5
CE
330
1F
100
AcDbEntity
  8
중심선
 62
     1
100
AcDbLine
 10
-37.67100000000001
 20
0.0
 30
0.0
 11
25.47899999999999
 21
0.0000000000000038
 31
0.0
  0
LINE
  5
CF
330
1F
100
AcDbEntity
  8
참조1
100
AcDbLine
 10
-6.096000000000011
 20
-0.0000000000000039
 30
0.0
 11
-6.096000000000008
 21
-40.00000000000001
 31
0.0
  0
LINE
  5
D0
330
1F
100
AcDbEntity
  8
참조1
100
AcDbLine
 10
-6.096000000000008
 20
-40.00000000000001
 30
0.0
 11
-5.379856814308694
 21
-40.0
 31
0.0
  0
CIRCLE
  5
D1
330
1F
100
AcDbEntity
  8
해칭선
100
AcDbCircle
 10
-0.0000000000000069
 20
-0.0010749287238931
 30
0.0
 40
3.000000000000001
  0
INSERT
  5
D2
330
1F
100
AcDbEntity
  8
0
  6
Continuous
 62
     7
100
AcDbBlockReference
 66
     1
  2
블럭10
 10
-20.03627293212522
 20
-52.04717430164393
 30
0.0
  0
ATTRIB
  5
D3
330
D2
100
AcDbEntity
  8
FORMAT
 62
     2
100
AcDbText
 10
-30.17790894426184
 20
-49.97180738881174
 30
0.0
 40
4.233333333333333
  1
EM965016 [ 4 FLUTE ]
 41
0.75
  7
SLDTEXTSTYLE0
 11
-30.17790894426184
 21
-52.08847405547841
 31
0.0
100
AcDbAttribute
  2
AUTOATTR0
 70
     0
 74
     1
  0
SEQEND
  5
D4
330
D2
100
AcDbEntity
  8
0
  6
Continuous
 62
     7
  0
HATCH
  5
D5
330
1F
100
AcDbEntity
  8
중심선
100
AcDbHatch
 10
0.0
 20
0.0
 30
0.0
210
0.0
220
0.0
230
1.0
  2
SOLID
 70
     1
 71
     0
 91
        1
 92
        0
 93
        4
 72
     1
 10
-14.32136362774439
 20
-35.8
 11
-17.76763887158167
 21
-35.8
 72
     1
 10
-17.76763887158167
 20
-35.8
 11
-19.89586873078569
 21
-38.33632558057257
 72
     1
 10
-19.89586873078569
 20
-38.33632558057257
 11
-16.44956040183524
 21
-38.33628615127008
 72
     1
 10
-16.44956040183524
 20
-38.33628615127008
 11
-14.32136362774439
 21
-35.8
 97
        0
 75
     0
 76
     1
 98
        1
 10
0.0
 20
0.0
  0
HATCH
  5
D6
330
1F
100
AcDbEntity
  8
중심선
100
AcDbHatch
 10
0.0
 20
0.0
 30
0.0
210
0.0
220
0.0
230
1.0
  2
SOLID
 70
     1
 71
     0
 91
        1
 92
        0
 93
        4
 72
     1
 10
-9.308599636708436
 20
-35.80000000000003
 11
-12.75487488054572
 21
-35.79999999999997
 72
     1
 10
-12.75487488054572
 20
-35.79999999999997
 11
-17.28601288890311
 21
-41.20000000000002
 72
     1
 10
-17.28601288890311
 20
-41.20000000000002
 11
-13.83973764506582
 21
-41.20000000000002
 72
     1
 10
-13.83973764506582
 20
-41.20000000000002
 11
-9.308599636708436
 21
-35.80000000000003
 97
        0
 75
     0
 76
     1
 98
        1
 10
0.0
 20
0.0
  0
HATCH
  5
D7
330
1F
100
AcDbEntity
  8
중심선
100
AcDbHatch
 10
0.0
 20
0.0
 30
0.0
210
0.0
220
0.0
230
1.0
  2
SOLID
 70
     1
 71
     0
 91
        1
 92
        0
 93
        4
 72
     1
 10
-4.295835645672513
 20
-35.8
 11
-7.742110889509657
 21
-35.8
 72
     1
 10
-7.742110889509657
 20
-35.8
 11
-14.79054779139891
 21
-44.20000000000002
 72
     1
 10
-14.79054779139891
 20
-44.20000000000002
 11
-11.34427254756162
 21
-44.20000000000002
 72
     1
 10
-11.34427254756162
 20
-44.20000000000002
 11
-4.295835645672513
 21
-35.8
 97
        0
 75
     0
 76
     1
 98
        1
 10
0.0
 20
0.0
  0
HATCH
  5
D8
330
1F
100
AcDbEntity
  8
중심선
100
AcDbHatch
 10
0.0
 20
0.0
 30
0.0
210
0.0
220
0.0
230
1.0
  2
SOLID
 70
     1
 71
     0
 91
        1
 92
        0
 93
        6
 72
     3
 10
0.5040547853396582
 20
-40.00000000005127
 11
3.960054785062284
 21
1.540850780301639E-10
 40
0.3939339440162633
 50
17.09539180608433
 51
320.0019657685086
 73
     0
 72
     1
 10
2.187054441040254
 20
-38.58789400463833
 11
4.492356314741319
 21
-36.65356729459038
 72
     3
 10
0.5040547852868116
 20
-40.00000000000015
 11
6.600054785286829
 21
-1.249000902703301E-13
 40
0.6363583540795982
 50
39.99873849337387
 51
368.4976242363725
 73
     1
 72
     1
 10
6.929387277187421
 20
-39.03999999993002
 11
-0.8158779078772662
 21
-39.03999999993002
 72
     1
 10
-0.815877907877266
 20
-39.03999999993002
 11
-0.8159029523231998
 21
-40.95999999992991
 72
     1
 10
-0.8159029523231998
 20
-40.95999999992991
 11
3.625476817148838
 21
-40.95999999992988
 97
        0
 75
     0
 76
     1
 98
        1
 10
0.0
 20
0.0
  0
DIMENSION
  5
D9
330
1F
100
AcDbEntity
  8
치수문자_일반주서
100
AcDbDimension
  2
_D
 10
66.48975576068132
 20
-3.17499999999982
 30
0.0
 11
66.4897557606812
 21
22.46650000000018
 31
0.0
 70
   160
  1
%%c<>
 71
     2
 42
6.35
  3
SLDDIMSTYLE0
100
AcDbAlignedDimension
 13
22.47899999999997
 23
3.175000000000026
 33
0.0
 14
22.47899999999997
 24
-3.174999999999973
 34
0.0
 50
90.0000000000002
100
AcDbRotatedDimension
1001
PE_URL
1000

1001
ACAD
1000
DSTYLE
1002
{
1070
   171
1070
     6
1070
   273
1070
     7
1002
}
  0
DIMENSION
  5
EE
330
1F
100
AcDbEntity
  8
치수문자_일반주서
100
AcDbDimension
  2
_D_1
 10
14.54149999999894
 20
23.94661714125062
 30
0.0
 11
41.77049999999997
 21
23.94661714125062
 31
0.0
 70
   160
  1
<>
 71
     2
 42
7.937500000000766
  3
SLDDIMSTYLE0
100
AcDbAlignedDimension
 13
22.47899999999997
 23
1.572230889481579
 33
0.0
 14
14.54149999999894
 24
3.172247313792389
 34
0.0
 50
0.0000000000093347
100
AcDbRotatedDimension
1001
PE_URL
1000

1001
ACAD
1000
DSTYLE
1002
{
1070
   171
1070
     6
1070
   273
1070
     7
1002
}
  0
DIMENSION
  5
103
330
1F
100
AcDbEntity
  8
치수문자_일반주서
100
AcDbDimension
  2
_D_2
 10
0.2539999999999765
 20
37.19913874761563
 30
0.0
 11
42.20799999999997
 21
37.19913874761563
 31
0.0
 70
   160
  1
<>
 71
     2
 42
22.22499999999999
  3
SLDDIMSTYLE0
100
AcDbAlignedDimension
 13
22.47899999999997
 23
1.572230889481579
 33
0.0
 14
0.2539999999999765
 24
2.921
 34
0.0
100
AcDbRotatedDimension
1001
PE_URL
1000

1001
ACAD
1000
DSTYLE
1002
{
1070
   171
1070
     6
1070
   273
1070
     7
1002
}
  0
DIMENSION
  5
118
330
1F
100
AcDbEntity
  8
치수문자_일반주서
100
AcDbDimension
  2
_D_3
 10
-34.67100000000002
 20
51.52306206757276
 30
0.0
 11
-6.096000000000029
 21
51.52306206757276
 31
0.0
 70
   160
  1
<>
 71
     2
 42
57.14999999999999
  3
SLDDIMSTYLE0
100
AcDbAlignedDimension
 13
22.47899999999997
 23
1.572230889481578
 33
0.0
 14
-34.67100000000002
 24
2.540000000000005
 34
0.0
100
AcDbRotatedDimension
1001
PE_URL
1000

1001
ACAD
1000
DSTYLE
1002
{
1070
   171
1070
     6
1070
   273
1070
     7
1002
}
  0
DIMENSION
  5
12C
330
1F
100
AcDbEntity
  8
치수문자_일반주서
100
AcDbDimension
  2
_D_4
 10
-47.67099999999999
 20
-3.175000000000058
 30
0.0
 11
-47.67100000000008
 21
22.46649999999996
 31
0.0
 70
   160
  1
%%c<>
 71
     2
 42
6.350000000000023
  3
SLDDIMSTYLE0
100
AcDbAlignedDimension
 13
-34.03600000000002
 23
3.175000000000011
 33
0.0
 14
-34.03600000000002
 24
-3.175000000000011
 34
0.0
 50
90.0000000000002
100
AcDbRotatedDimension
1001
ACAD
1000
DSTYLE
1002
{
1070
   171
1070
     6
1070
   273
1070
     7
1002
}
  0
LINE
  5
140
330
1F
100
AcDbEntity
  8
참조1
100
AcDbLine
 10
92.59248381534557
 20
7.440000000000002
 30
0.0
 11
92.59248381534557
 21
-7.440000000000002
 31
0.0
  0
LINE
  5
141
330
1F
100
AcDbEntity
  8
참조1
100
AcDbLine
 10
105.2924838153456
 20
5.440000000000002
 30
0.0
 11
92.59248381534557
 21
5.440000000000002
 31
0.0
  0
SOLID
  5
142
330
1F
100
AcDbEntity
  8
참조1
100
AcDbTrace
 10
92.59248381534557
 20
5.440000000000002
 30
0.0
 11
98.94248381534557
 21
4.424000000000002
 31
0.0
 12
98.94248381534557
 22
6.456000000000002
 32
0.0
 13
98.94248381534557
 23
6.456000000000002
 33
0.0
  0
LINE
  5
143
330
1F
100
AcDbEntity
  8
참조1
100
AcDbLine
 10
105.2924838153456
 20
-5.440000000000002
 30
0.0
 11
92.59248381534557
 21
-5.440000000000002
 31
0.0
  0
SOLID
  5
144
330
1F
100
AcDbEntity
  8
참조1
100
AcDbTrace
 10
92.59248381534557
 20
-5.440000000000002
 30
0.0
 11
98.94248381534557
 21
-6.456000000000002
 31
0.0
 12
98.94248381534557
 22
-4.424000000000002
 32
0.0
 13
98.94248381534557
 23
-4.424000000000002
 33
0.0
  0
MTEXT
  5
145
330
1F
100
AcDbEntity
  8
참조1
100
AcDbMText
 10
101.9899739078159
 20
10.98821664464994
 30
0.0
 40
3.5
 41
0.0
 71
     1
 72
     1
  1
A
  7
SLDTEXTSTYLE0
 73
     1
 44
1.0
  0
MTEXT
  5
146
330
1F
100
AcDbEntity
  8
참조1
100
AcDbMText
 10
101.9899739078159
 20
0.1082166446499328
 30
0.0
 40
3.5
 41
0.0
 71
     1
 72
     1
  1
A
  7
SLDTEXTSTYLE0
 73
     1
 44
1.0
  0
INSERT
  5
14D
330
1F
100
AcDbEntity
  8
해칭선
100
AcDbBlockReference
  2
SW_DOWELSYMBOL_0
 10
-0.0000000000000069
 20
-0.0010749287238931
 30
0.0
  0
MTEXT
  5
1A1
102
{ACAD_REACTORS
330
1A2
102
}
330
1F
100
AcDbEntity
  8
0
100
AcDbMText
 10
32.58242966419324
 20
-16.43030306582021
 30
0.0
 40
3.5
 41
0.0
 71
     7
 72
     1
  1
{R1.60[.063"]}
 73
     1
 44
1.0
1001
ACAD
1000
ACAD_MTEXT_DEFINED_HEIGHT_BEGIN
1070
    46
1040
3.5
1000
ACAD_MTEXT_DEFINED_HEIGHT_END
  0
LEADER
  5
1A2
102
{ACAD_XDICTIONARY
360
1A3
102
}
330
1F
100
AcDbEntity
  8
0
100
AcDbLeader
  3
ISO-25
 73
     0
 74
     0
 75
     1
 40
3.5
 41
30.33333333333334
 76
     3
 10
22.16349700523714
 20
-2.588771582919036
 30
0.0
 10
27.75642966419324
 20
-14.68030306582021
 30
0.0
 10
31.05842966419324
 20
-14.68030306582021
 30
0.0
340
1A1
213
0.0
223
1.75
233
0.0
1001
ACAD
1000
DSTYLE
1002
{
1070
    77
1070
     0
1070
   179
1070
     2
1070
   143
1040
0.0393700787401575
1070
    41
1040
3.302
1070
    44
1040
1.0
1070
    42
1040
1.0
1070
   147
1040
1.524
1070
    73
1070
     1
1070
    74
1070
     1
1070
   140
1040
3.5
1070
   284
1070
     0
1070
    78
1070
     0
1002
}
  0
ARC
  5
1AC
330
1F
100
AcDbEntity
  8
0
 62
     1
100
AcDbCircle
 10
20.87879999999997
 20
1.634730889481578
 30
0.0
 40
1.6002
100
AcDbArc
 50
358.9270129526088
 51
74.26956615914303
  0
ARC
  5
1AD
330
1F
100
AcDbEntity
  8
0
 62
     1
100
AcDbCircle
 10
20.87879999999997
 20
-1.634730889481571
 30
0.0
 40
1.6002
100
AcDbArc
 50
285.730433840857
 51
1.07298704739127
  0
ENDSEC
  0
SECTION
  2
OBJECTS
  0
DICTIONARY
  5
C
330
0
100
AcDbDictionary
281
     1
  3
ACAD_DETAILVIEWSTYLE
350
1A9
  3
ACAD_GROUP
350
D
  3
ACAD_LAYOUT
350
1A
  3
ACAD_MLINESTYLE
350
17
  3
ACAD_PLOTSETTINGS
350
19
  3
ACAD_PLOTSTYLENAME
350
E
  3
ACAD_SCALELIST
350
47
  3
ACAD_SECTIONVIEWSTYLE
350
1AA
  3
AcDbVariableDictionary
350
1A4
  3
APPDATA
350
16F
  3
DWGPROPS
350
1AE
  0
DICTIONARY
  5
1A3
330
1A2
100
AcDbDictionary
280
     1
281
     1
  0
DICTIONARY
  5
1A9
102
{ACAD_REACTORS
330
C
102
}
330
C
100
AcDbDictionary
281
     1
  0
DICTIONARY
  5
D
102
{ACAD_REACTORS
330
C
102
}
330
C
100
AcDbDictionary
281
     1
  0
DICTIONARY
  5
1A
102
{ACAD_REACTORS
330
C
102
}
330
C
100
AcDbDictionary
281
     1
  3
Layout1
350
1E
  3
Layout2
350
26
  3
Model
350
22
  0
DICTIONARY
  5
17
102
{ACAD_REACTORS
330
C
102
}
330
C
100
AcDbDictionary
281
     1
  3
Standard
350
18
  0
DICTIONARY
  5
19
102
{ACAD_REACTORS
330
C
102
}
330
C
100
AcDbDictionary
281
     1
  0
ACDBDICTIONARYWDFLT
  5
E
102
{ACAD_REACTORS
330
C
102
}
330
C
100
AcDbDictionary
281
     1
  3
Normal
350
F
100
AcDbDictionaryWithDefault
340
F
  0
DICTIONARY
  5
47
102
{ACAD_REACTORS
330
C
102
}
330
C
100
AcDbDictionary
281
     1
  3
A0
350
48
  3
A1
350
49
  3
A2
350
4A
  3
A3
350
4B
  3
A4
350
4C
  3
A5
350
4D
  3
A6
350
4E
  3
A7
350
4F
  3
A8
350
50
  3
A9
350
51
  3
B0
350
52
  3
B1
350
53
  3
B2
350
54
  3
B3
350
55
  3
B4
350
56
  3
B5
350
57
  3
B6
350
58
  3
B7
350
59
  3
B8
350
5A
  3
B9
350
5B
  3
C0
350
5C
  3
C1
350
5D
  3
C2
350
5E
  3
C3
350
5F
  3
C4
350
60
  3
C5
350
61
  3
C6
350
62
  3
C7
350
63
  3
C8
350
64
  3
C9
350
65
  3
D0
350
66
  3
D1
350
67
  3
D2
350
68
  0
DICTIONARY
  5
1AA
102
{ACAD_REACTORS
330
C
102
}
330
C
100
AcDbDictionary
281
     1
  0
DICTIONARY
  5
1A4
102
{ACAD_REACTORS
330
C
102
}
330
C
100
AcDbDictionary
281
     1
  0
DICTIONARY
  5
16F
102
{ACAD_REACTORS
330
C
102
}
330
C
100
AcDbDictionary
281
     1
  0
XRECORD
  5
1AE
102
{ACAD_REACTORS
330
C
102
}
330
C
100
AcDbXrecord
280
     1
  1
DWGPROPS COOKIE
  2

  3

  4

  6

  7

  8
12017103
  9

300
=
301
=
302
=
303
=
304
=
305
=
306
=
307
=
308
=
309
=
 40
0.0
 41
2458290.073320197
 42
2458302.211529039
  1

 90
        0
  0
LAYOUT
  5
1E
102
{ACAD_REACTORS
330
1A
102
}
330
1A
100
AcDbPlotSettings
  1

  2
none_device
  4

  6

 40
0.0
 41
0.0
 42
0.0
 43
0.0
 44
0.0
 45
0.0
 46
0.0
 47
0.0
 48
0.0
 49
0.0
140
0.0
141
0.0
142
1.0
143
1.0
 70
   688
 72
     1
 73
     0
 74
     5
  7

 75
    16
147
1.0
148
0.0
149
0.0
100
AcDbLayout
  1
Layout1
 70
     1
 71
     1
 10
0.0
 20
0.0
 11
420.0
 21
297.0
 12
0.0
 22
0.0
 32
0.0
 14
1.000000000000000E+20
 24
1.000000000000000E+20
 34
1.000000000000000E+20
 15
-1.000000000000000E+20
 25
-1.000000000000000E+20
 35
-1.000000000000000E+20
146
0.0
 13
0.0
 23
0.0
 33
0.0
 16
1.0
 26
0.0
 36
0.0
 17
0.0
 27
1.0
 37
0.0
 76
     0
330
1B
  0
LAYOUT
  5
26
102
{ACAD_REACTORS
330
1A
102
}
330
1A
100
AcDbPlotSettings
  1

  2
none_device
  4

  6

 40
0.0
 41
0.0
 42
0.0
 43
0.0
 44
0.0
 45
0.0
 46
0.0
 47
0.0
 48
0.0
 49
0.0
140
0.0
141
0.0
142
1.0
143
1.0
 70
   688
 72
     1
 73
     0
 74
     5
  7

 75
    16
147
1.0
148
0.0
149
0.0
100
AcDbLayout
  1
Layout2
 70
     1
 71
     2
 10
0.0
 20
0.0
 11
0.0
 21
0.0
 12
0.0
 22
0.0
 32
0.0
 14
0.0
 24
0.0
 34
0.0
 15
0.0
 25
0.0
 35
0.0
146
0.0
 13
0.0
 23
0.0
 33
0.0
 16
1.0
 26
0.0
 36
0.0
 17
0.0
 27
1.0
 37
0.0
 76
     0
330
23
  0
LAYOUT
  5
22
102
{ACAD_REACTORS
330
1A
102
}
330
1A
100
AcDbPlotSettings
  1

  2
none_device
  4
ANSI_A_(11.00_x_8.50_Inches)
  6

 40
6.35
 41
19.05
 42
6.35000508
 43
19.05000254
 44
279.4
 45
215.9
 46
93.80016906020894
 47
79.10289315087167
 48
0.0
 49
0.0
140
0.0
141
0.0
142
0.0665012316599847
143
1.0
 70
  1696
 72
     0
 73
     0
 74
     0
  7

 75
     0
147
0.0235690232323232
148
0.0
149
0.0
100
AcDbLayout
  1
Model
 70
     1
 71
     0
 10
0.0
 20
0.0
 11
420.0
 21
297.0
 12
0.0
 22
0.0
 32
0.0
 14
-52.04600000000012
 24
-49.97180738881174
 34
0.0
 15
105.2924838153456
 25
55.89806206757275
 35
0.0
146
0.0
 13
0.0
 23
0.0
 33
0.0
 16
1.0
 26
0.0
 36
0.0
 17
0.0
 27
1.0
 37
0.0
 76
     0
330
1F
331
29
  0
MLINESTYLE
  5
18
102
{ACAD_REACTORS
330
17
102
}
330
17
100
AcDbMlineStyle
  2
Standard
 70
     0
  3

 62
   256
 51
90.0
 52
90.0
 71
     2
 49
0.5
 62
   256
  6
BYLAYER
 49
-0.5
 62
   256
  6
BYLAYER
  0
ACDBPLACEHOLDER
  5
F
102
{ACAD_REACTORS
330
E
102
}
330
E
  0
SCALE
  5
48
102
{ACAD_REACTORS
330
47
102
}
330
47
100
AcDbScale
 70
     0
300
1:1
140
1.0
141
1.0
290
     1
  0
SCALE
  5
49
102
{ACAD_REACTORS
330
47
102
}
330
47
100
AcDbScale
 70
     0
300
1:2
140
1.0
141
2.0
290
     0
  0
SCALE
  5
4A
102
{ACAD_REACTORS
330
47
102
}
330
47
100
AcDbScale
 70
     0
300
1:4
140
1.0
141
4.0
290
     0
  0
SCALE
  5
4B
102
{ACAD_REACTORS
330
47
102
}
330
47
100
AcDbScale
 70
     0
300
1:5
140
1.0
141
5.0
290
     0
  0
SCALE
  5
4C
102
{ACAD_REACTORS
330
47
102
}
330
47
100
AcDbScale
 70
     0
300
1:8
140
1.0
141
8.0
290
     0
  0
SCALE
  5
4D
102
{ACAD_REACTORS
330
47
102
}
330
47
100
AcDbScale
 70
     0
300
1:10
140
1.0
141
10.0
290
     0
  0
SCALE
  5
4E
102
{ACAD_REACTORS
330
47
102
}
330
47
100
AcDbScale
 70
     0
300
1:16
140
1.0
141
16.0
290
     0
  0
SCALE
  5
4F
102
{ACAD_REACTORS
330
47
102
}
330
47
100
AcDbScale
 70
     0
300
1:20
140
1.0
141
20.0
290
     0
  0
SCALE
  5
50
102
{ACAD_REACTORS
330
47
102
}
330
47
100
AcDbScale
 70
     0
300
1:30
140
1.0
141
30.0
290
     0
  0
SCALE
  5
51
102
{ACAD_REACTORS
330
47
102
}
330
47
100
AcDbScale
 70
     0
300
1:40
140
1.0
141
40.0
290
     0
  0
SCALE
  5
52
102
{ACAD_REACTORS
330
47
102
}
330
47
100
AcDbScale
 70
     0
300
1:50
140
1.0
141
50.0
290
     0
  0
SCALE
  5
53
102
{ACAD_REACTORS
330
47
102
}
330
47
100
AcDbScale
 70
     0
300
1:100
140
1.0
141
100.0
290
     0
  0
SCALE
  5
54
102
{ACAD_REACTORS
330
47
102
}
330
47
100
AcDbScale
 70
     0
300
2:1
140
2.0
141
1.0
290
     0
  0
SCALE
  5
55
102
{ACAD_REACTORS
330
47
102
}
330
47
100
AcDbScale
 70
     0
300
4:1
140
4.0
141
1.0
290
     0
  0
SCALE
  5
56
102
{ACAD_REACTORS
330
47
102
}
330
47
100
AcDbScale
 70
     0
300
8:1
140
8.0
141
1.0
290
     0
  0
SCALE
  5
57
102
{ACAD_REACTORS
330
47
102
}
330
47
100
AcDbScale
 70
     0
300
10:1
140
10.0
141
1.0
290
     0
  0
SCALE
  5
58
102
{ACAD_REACTORS
330
47
102
}
330
47
100
AcDbScale
 70
     0
300
100:1
140
100.0
141
1.0
290
     0
  0
SCALE
  5
59
102
{ACAD_REACTORS
330
47
102
}
330
47
100
AcDbScale
 70
     0
300
1/128" = 1'-0"
140
0.0078125
141
12.0
290
     0
  0
SCALE
  5
5A
102
{ACAD_REACTORS
330
47
102
}
330
47
100
AcDbScale
 70
     0
300
1/64" = 1'-0"
140
0.015625
141
12.0
290
     0
  0
SCALE
  5
5B
102
{ACAD_REACTORS
330
47
102
}
330
47
100
AcDbScale
 70
     0
300
1/32" = 1'-0"
140
0.03125
141
12.0
290
     0
  0
SCALE
  5
5C
102
{ACAD_REACTORS
330
47
102
}
330
47
100
AcDbScale
 70
     0
300
1/16" = 1'-0"
140
0.0625
141
12.0
290
     0
  0
SCALE
  5
5D
102
{ACAD_REACTORS
330
47
102
}
330
47
100
AcDbScale
 70
     0
300
3/32" = 1'-0"
140
0.09375
141
12.0
290
     0
  0
SCALE
  5
5E
102
{ACAD_REACTORS
330
47
102
}
330
47
100
AcDbScale
 70
     0
300
1/8" = 1'-0"
140
0.125
141
12.0
290
     0
  0
SCALE
  5
5F
102
{ACAD_REACTORS
330
47
102
}
330
47
100
AcDbScale
 70
     0
300
3/16" = 1'-0"
140
0.1875
141
12.0
290
     0
  0
SCALE
  5
60
102
{ACAD_REACTORS
330
47
102
}
330
47
100
AcDbScale
 70
     0
300
1/4" = 1'-0"
140
0.25
141
12.0
290
     0
  0
SCALE
  5
61
102
{ACAD_REACTORS
330
47
102
}
330
47
100
AcDbScale
 70
     0
300
3/8" = 1'-0"
140
0.375
141
12.0
290
     0
  0
SCALE
  5
62
102
{ACAD_REACTORS
330
47
102
}
330
47
100
AcDbScale
 70
     0
300
1/2" = 1'-0"
140
0.5
141
12.0
290
     0
  0
SCALE
  5
63
102
{ACAD_REACTORS
330
47
102
}
330
47
100
AcDbScale
 70
     0
300
3/4" = 1'-0"
140
0.75
141
12.0
290
     0
  0
SCALE
  5
64
102
{ACAD_REACTORS
330
47
102
}
330
47
100
AcDbScale
 70
     0
300
1" = 1'-0"
140
1.0
141
12.0
290
     0
  0
SCALE
  5
65
102
{ACAD_REACTORS
330
47
102
}
330
47
100
AcDbScale
 70
     0
300
1-1/2" = 1'-0"
140
1.5
141
12.0
290
     0
  0
SCALE
  5
66
102
{ACAD_REACTORS
330
47
102
}
330
47
100
AcDbScale
 70
     0
300
3" = 1'-0"
140
3.0
141
12.0
290
     0
  0
SCALE
  5
67
102
{ACAD_REACTORS
330
47
102
}
330
47
100
AcDbScale
 70
     0
300
6" = 1'-0"
140
6.0
141
12.0
290
     0
  0
SCALE
  5
68
102
{ACAD_REACTORS
330
47
102
}
330
47
100
AcDbScale
 70
     0
300
1'-0" = 1'-0"
140
12.0
141
12.0
290
     0
  0
ENDSEC
  0
EOF
