  0
SECTION
  2
HEADER
  9
$ACADVER
  1
AC1015
  9
$ACADMAINTVER
 70
     6
  9
$DWGCODEPAGE
  3
ANSI_949
  9
$INSBASE
 10
0.0
 20
0.0
 30
0.0
  9
$EXTMIN
 10
-99.81238894128039
 20
-49.97180738881175
 30
0.0
  9
$EXTMAX
 10
36.30154893905218
 20
50.01173691457894
 30
0.0
  9
$LIMMIN
 10
0.0
 20
0.0
  9
$LIMMAX
 10
420.0
 20
297.0
  9
$ORTHOMODE
 70
     0
  9
$REGENMODE
 70
     1
  9
$FILLMODE
 70
     1
  9
$QTEXTMODE
 70
     0
  9
$MIRRTEXT
 70
     1
  9
$LTSCALE
 40
1.0
  9
$ATTMODE
 70
     1
  9
$TEXTSIZE
 40
3.5
  9
$TRACEWID
 40
1.0
  9
$TEXTSTYLE
  7
Standard
  9
$CLAYER
  8
0
  9
$CELTYPE
  6
ByLayer
  9
$CECOLOR
 62
   256
  9
$CELTSCALE
 40
1.0
  9
$DISPSILH
 70
     0
  9
$DIMSCALE
 40
1.0
  9
$DIMASZ
 40
3.302
  9
$DIMEXO
 40
1.0
  9
$DIMDLI
 40
3.75
  9
$DIMRND
 40
0.0
  9
$DIMDLE
 40
0.0
  9
$DIMEXE
 40
1.0
  9
$DIMTP
 40
0.0
  9
$DIMTM
 40
0.0
  9
$DIMTXT
 40
3.5
  9
$DIMCEN
 40
2.5
  9
$DIMTSZ
 40
0.0
  9
$DIMTOL
 70
     0
  9
$DIMLIM
 70
     0
  9
$DIMTIH
 70
     1
  9
$DIMTOH
 70
     1
  9
$DIMSE1
 70
     0
  9
$DIMSE2
 70
     0
  9
$DIMTAD
 70
     1
  9
$DIMZIN
 70
     0
  9
$DIMBLK
  1

  9
$DIMASO
 70
     1
  9
$DIMSHO
 70
     1
  9
$DIMPOST
  1

  9
$DIMAPOST
  1

  9
$DIMALT
 70
     0
  9
$DIMALTD
 70
     3
  9
$DIMALTF
 40
0.0393700787401575
  9
$DIMLFAC
 40
1.0
  9
$DIMTOFL
 70
     1
  9
$DIMTVP
 40
0.0
  9
$DIMTIX
 70
     0
  9
$DIMSOXD
 70
     0
  9
$DIMSAH
 70
     0
  9
$DIMBLK1
  1

  9
$DIMBLK2
  1

  9
$DIMSTYLE
  2
ISO-25
  9
$DIMCLRD
 70
     0
  9
$DIMCLRE
 70
     0
  9
$DIMCLRT
 70
     0
  9
$DIMTFAC
 40
1.0
  9
$DIMGAP
 40
1.524
  9
$DIMJUST
 70
     0
  9
$DIMSD1
 70
     0
  9
$DIMSD2
 70
     0
  9
$DIMTOLJ
 70
     0
  9
$DIMTZIN
 70
     0
  9
$DIMALTZ
 70
     0
  9
$DIMALTTZ
 70
     0
  9
$DIMUPT
 70
     0
  9
$DIMDEC
 70
     2
  9
$DIMTDEC
 70
     2
  9
$DIMALTU
 70
     2
  9
$DIMALTTD
 70
     3
  9
$DIMTXSTY
  7
Standard
  9
$DIMAUNIT
 70
     0
  9
$DIMADEC
 70
     2
  9
$DIMALTRND
 40
0.0
  9
$DIMAZIN
 70
     0
  9
$DIMDSEP
 70
    44
  9
$DIMATFIT
 70
     3
  9
$DIMFRAC
 70
     0
  9
$DIMLDRBLK
  1

  9
$DIMLUNIT
 70
     2
  9
$DIMLWD
 70
    -2
  9
$DIMLWE
 70
    -2
  9
$DIMTMOVE
 70
     0
  9
$LUNITS
 70
     2
  9
$LUPREC
 70
     2
  9
$SKETCHINC
 40
1.0
  9
$FILLETRAD
 40
10.0
  9
$AUNITS
 70
     0
  9
$AUPREC
 70
     2
  9
$MENU
  1
.
  9
$ELEVATION
 40
0.0
  9
$PELEVATION
 40
0.0
  9
$THICKNESS
 40
0.0
  9
$LIMCHECK
 70
     0
  9
$CHAMFERA
 40
0.0
  9
$CHAMFERB
 40
0.0
  9
$CHAMFERC
 40
0.0
  9
$CHAMFERD
 40
0.0
  9
$SKPOLY
 70
     0
  9
$TDCREATE
 40
2458281.434016424
  9
$TDUCREATE
 40
2458281.059016424
  9
$TDUPDATE
 40
2458281.728260382
  9
$TDUUPDATE
 40
2458281.353260382
  9
$TDINDWG
 40
0.0004976042
  9
$TDUSRTIMER
 40
2458281.352763136
  9
$USRTIMER
 70
     1
  9
$ANGBASE
 50
0.0
  9
$ANGDIR
 70
     0
  9
$PDMODE
 70
     0
  9
$PDSIZE
 40
-1.0
  9
$PLINEWID
 40
0.0
  9
$SPLFRAME
 70
     0
  9
$SPLINETYPE
 70
     6
  9
$SPLINESEGS
 70
     8
  9
$HANDSEED
  5
15C
  9
$SURFTAB1
 70
     6
  9
$SURFTAB2
 70
     6
  9
$SURFTYPE
 70
     6
  9
$SURFU
 70
     6
  9
$SURFV
 70
     6
  9
$UCSBASE
  2

  9
$UCSNAME
  2

  9
$UCSORG
 10
0.0
 20
0.0
 30
0.0
  9
$UCSXDIR
 10
1.0
 20
0.0
 30
0.0
  9
$UCSYDIR
 10
0.0
 20
1.0
 30
0.0
  9
$UCSORTHOREF
  2

  9
$UCSORTHOVIEW
 70
     0
  9
$UCSORGTOP
 10
0.0
 20
0.0
 30
0.0
  9
$UCSORGBOTTOM
 10
0.0
 20
0.0
 30
0.0
  9
$UCSORGLEFT
 10
0.0
 20
0.0
 30
0.0
  9
$UCSORGRIGHT
 10
0.0
 20
0.0
 30
0.0
  9
$UCSORGFRONT
 10
0.0
 20
0.0
 30
0.0
  9
$UCSORGBACK
 10
0.0
 20
0.0
 30
0.0
  9
$PUCSBASE
  2

  9
$PUCSNAME
  2

  9
$PUCSORG
 10
0.0
 20
0.0
 30
0.0
  9
$PUCSXDIR
 10
1.0
 20
0.0
 30
0.0
  9
$PUCSYDIR
 10
0.0
 20
1.0
 30
0.0
  9
$PUCSORTHOREF
  2

  9
$PUCSORTHOVIEW
 70
     0
  9
$PUCSORGTOP
 10
0.0
 20
0.0
 30
0.0
  9
$PUCSORGBOTTOM
 10
0.0
 20
0.0
 30
0.0
  9
$PUCSORGLEFT
 10
0.0
 20
0.0
 30
0.0
  9
$PUCSORGRIGHT
 10
0.0
 20
0.0
 30
0.0
  9
$PUCSORGFRONT
 10
0.0
 20
0.0
 30
0.0
  9
$PUCSORGBACK
 10
0.0
 20
0.0
 30
0.0
  9
$USERI1
 70
     0
  9
$USERI2
 70
     0
  9
$USERI3
 70
     0
  9
$USERI4
 70
     0
  9
$USERI5
 70
     0
  9
$USERR1
 40
0.0
  9
$USERR2
 40
0.0
  9
$USERR3
 40
0.0
  9
$USERR4
 40
0.0
  9
$USERR5
 40
0.0
  9
$WORLDVIEW
 70
     1
  9
$SHADEDGE
 70
     3
  9
$SHADEDIF
 70
    70
  9
$TILEMODE
 70
     1
  9
$MAXACTVP
 70
    64
  9
$PINSBASE
 10
0.0
 20
0.0
 30
0.0
  9
$PLIMCHECK
 70
     0
  9
$PEXTMIN
 10
1.000000000000000E+20
 20
1.000000000000000E+20
 30
1.000000000000000E+20
  9
$PEXTMAX
 10
-1.000000000000000E+20
 20
-1.000000000000000E+20
 30
-1.000000000000000E+20
  9
$PLIMMIN
 10
0.0
 20
0.0
  9
$PLIMMAX
 10
0.0
 20
0.0
  9
$UNITMODE
 70
     0
  9
$VISRETAIN
 70
     1
  9
$PLINEGEN
 70
     0
  9
$PSLTSCALE
 70
     1
  9
$TREEDEPTH
 70
  3020
  9
$CMLSTYLE
  2
Standard
  9
$CMLJUST
 70
     0
  9
$CMLSCALE
 40
20.0
  9
$PROXYGRAPHICS
 70
     1
  9
$MEASUREMENT
 70
     1
  9
$CELWEIGHT
370
    -1
  9
$ENDCAPS
280
     0
  9
$JOINSTYLE
280
     0
  9
$LWDISPLAY
290
     1
  9
$INSUNITS
 70
     4
  9
$HYPERLINKBASE
  1

  9
$STYLESHEET
  1

  9
$XEDIT
290
     1
  9
$CEPSNTYPE
380
     0
  9
$PSTYLEMODE
290
     1
  9
$FINGERPRINTGUID
  2
{E5BE71FC-3CB9-4AC9-968D-D619B8D11790}
  9
$VERSIONGUID
  2
{FAEB1C32-E019-11D5-929B-00C0DF256EC4}
  9
$EXTNAMES
290
     1
  9
$PSVPSCALE
 40
0.0
  9
$OLESTARTUP
290
     0
  0
ENDSEC
  0
SECTION
  2
CLASSES
  0
CLASS
  1
ACDBDICTIONARYWDFLT
  2
AcDbDictionaryWithDefault
  3
ObjectDBX Classes
 90
        0
280
     0
281
     0
  0
CLASS
  1
VISUALSTYLE
  2
AcDbVisualStyle
  3
ObjectDBX Classes
 90
     4095
280
     0
281
     0
  0
CLASS
  1
MATERIAL
  2
AcDbMaterial
  3
ObjectDBX Classes
 90
     1153
280
     0
281
     0
  0
CLASS
  1
SCALE
  2
AcDbScale
  3
ObjectDBX Classes
 90
     1153
280
     0
281
     0
  0
CLASS
  1
SUN
  2
AcDbSun
  3
SCENEOE
 90
     1153
280
     0
281
     0
  0
CLASS
  1
ACDBPLACEHOLDER
  2
AcDbPlaceHolder
  3
ObjectDBX Classes
 90
        0
280
     0
281
     0
  0
CLASS
  1
LAYOUT
  2
AcDbLayout
  3
ObjectDBX Classes
 90
        0
280
     0
281
     0
  0
CLASS
  1
TABLESTYLE
  2
AcDbTableStyle
  3
ObjectDBX Classes
 90
     4095
280
     0
281
     0
  0
CLASS
  1
MLEADERSTYLE
  2
AcDbMLeaderStyle
  3
ACDB_MLEADERSTYLE_CLASS
 90
     4095
280
     0
281
     0
  0
CLASS
  1
RASTERVARIABLES
  2
AcDbRasterVariables
  3
ISM
 90
        0
280
     0
281
     0
  0
ENDSEC
  0
SECTION
  2
TABLES
  0
TABLE
  2
VPORT
  5
8
330
0
100
AcDbSymbolTable
 70
     1
  0
VPORT
  5
29
330
8
100
AcDbSymbolTableRecord
100
AcDbViewportTableRecord
  2
*Active
 70
     0
 10
0.0
 20
0.0
 11
1.0
 21
1.0
 12
32.06481305879834
 22
-4.50088201932344
 13
0.0
 23
0.0
 14
10.0
 24
10.0
 15
10.0
 25
10.0
 16
0.0
 26
0.0
 36
1.0
 17
0.0
 27
0.0
 37
0.0
 40
66.65042353177977
 41
1.691714836223507
 42
50.0
 43
0.0
 44
0.0
 50
0.0
 51
0.0
 71
    16
 72
  2000
 73
     1
 74
     3
 75
     0
 76
     0
 77
     0
 78
     0
281
     0
 65
     1
110
0.0
120
0.0
130
0.0
111
1.0
121
0.0
131
0.0
112
0.0
122
1.0
132
0.0
 79
     0
146
0.0
  0
ENDTAB
  0
TABLE
  2
LTYPE
  5
5
330
0
100
AcDbSymbolTable
 70
     6
  0
LTYPE
  5
14
330
5
100
AcDbSymbolTableRecord
100
AcDbLinetypeTableRecord
  2
ByBlock
 70
     0
  3

 72
    65
 73
     0
 40
0.0
  0
LTYPE
  5
15
330
5
100
AcDbSymbolTableRecord
100
AcDbLinetypeTableRecord
  2
ByLayer
 70
     0
  3

 72
    65
 73
     0
 40
0.0
  0
LTYPE
  5
16
330
5
100
AcDbSymbolTableRecord
100
AcDbLinetypeTableRecord
  2
Continuous
 70
     0
  3
Solid line
 72
    65
 73
     0
 40
0.0
  0
LTYPE
  5
6A
330
5
100
AcDbSymbolTableRecord
100
AcDbLinetypeTableRecord
  2
HIDDEN
 70
     0
  3
Hidden __ __ __ __ __ __ __ __ __ __ __ __ __ __
 72
    65
 73
     2
 40
1.905
 49
1.27
 74
     0
 49
-0.635
 74
     0
  0
LTYPE
  5
6B
330
5
100
AcDbSymbolTableRecord
100
AcDbLinetypeTableRecord
  2
PHANTOM
 70
     0
  3
Phantom ______  __  __  ______  __  __  ______
 72
    65
 73
     6
 40
12.7
 49
6.35
 74
     0
 49
-1.27
 74
     0
 49
1.27
 74
     0
 49
-1.27
 74
     0
 49
1.27
 74
     0
 49
-1.27
 74
     0
  0
LTYPE
  5
6C
330
5
100
AcDbSymbolTableRecord
100
AcDbLinetypeTableRecord
  2
CENTER
 70
     0
  3
Center ____ _ ____ _ ____ _ ____ _ ____ _ ____
 72
    65
 73
     4
 40
10.16
 49
6.35
 74
     0
 49
-1.27
 74
     0
 49
1.27
 74
     0
 49
-1.27
 74
     0
  0
LTYPE
  5
6D
330
5
100
AcDbSymbolTableRecord
100
AcDbLinetypeTableRecord
  2
CENTERX2
 70
     0
  3
Center (2x) ________  __  ________  __  _____
 72
    65
 73
     4
 40
20.32
 49
12.7
 74
     0
 49
-2.54
 74
     0
 49
2.54
 74
     0
 49
-2.54
 74
     0
  0
LTYPE
  5
6E
330
5
100
AcDbSymbolTableRecord
100
AcDbLinetypeTableRecord
  2
DOT2
 70
     0
  3
Dot (.5x) ........................................
 72
    65
 73
     2
 40
0.635
 49
0.0
 74
     0
 49
-0.635
 74
     0
  0
ENDTAB
  0
TABLE
  2
LAYER
  5
2
330
0
100
AcDbSymbolTable
 70
    17
  0
LAYER
  5
10
330
2
100
AcDbSymbolTableRecord
100
AcDbLayerTableRecord
  2
0
 70
     0
 62
     7
  6
Continuous
370
    -3
390
F
  0
LAYER
  5
6F
330
2
100
AcDbSymbolTableRecord
100
AcDbLayerTableRecord
  2
FORMAT
 70
     0
 62
     2
  6
Continuous
370
    -3
390
F
  0
LAYER
  5
70
330
2
100
AcDbSymbolTableRecord
100
AcDbLayerTableRecord
  2
외형선
 70
     0
 62
   100
  6
Continuous
370
    30
390
F
  0
LAYER
  5
71
330
2
100
AcDbSymbolTableRecord
100
AcDbLayerTableRecord
  2
숨은선
 70
     0
 62
     2
  6
HIDDEN
370
    15
390
F
  0
LAYER
  5
72
330
2
100
AcDbSymbolTableRecord
100
AcDbLayerTableRecord
  2
중심선
 70
     0
 62
     1
  6
CENTERX2
370
    -3
390
F
  0
LAYER
  5
73
330
2
100
AcDbSymbolTableRecord
100
AcDbLayerTableRecord
  2
파단선
 70
     0
 62
     4
  6
Continuous
370
    -3
390
F
  0
LAYER
  5
74
330
2
100
AcDbSymbolTableRecord
100
AcDbLayerTableRecord
  2
해칭선
 70
     0
 62
     4
  6
Continuous
370
    -3
390
F
  0
LAYER
  5
75
330
2
100
AcDbSymbolTableRecord
100
AcDbLayerTableRecord
  2
가는실선
 70
     0
 62
     4
  6
Continuous
370
    -3
390
F
  0
LAYER
  5
76
330
2
100
AcDbSymbolTableRecord
100
AcDbLayerTableRecord
  2
치수_보조선
 70
     0
 62
     4
  6
Continuous
370
    -3
390
F
  0
LAYER
  5
77
330
2
100
AcDbSymbolTableRecord
100
AcDbLayerTableRecord
  2
치수문자_일반주서
 70
     0
 62
     7
  6
Continuous
370
    15
390
F
  0
LAYER
  5
78
330
2
100
AcDbSymbolTableRecord
100
AcDbLayerTableRecord
  2
개별주서
 70
     0
 62
   100
  6
Continuous
370
    30
390
F
  0
LAYER
  5
79
330
2
100
AcDbSymbolTableRecord
100
AcDbLayerTableRecord
  2
중간선
 70
     0
 62
     2
  6
Continuous
370
    15
390
F
  0
LAYER
  5
7A
330
2
100
AcDbSymbolTableRecord
100
AcDbLayerTableRecord
  2
윤곽선
 70
     0
 62
     3
  6
Continuous
370
    40
390
F
  0
LAYER
  5
7B
330
2
100
AcDbSymbolTableRecord
100
AcDbLayerTableRecord
  2
중심마크
 70
     0
 62
   100
  6
Continuous
370
    30
390
F
  0
LAYER
  5
7C
330
2
100
AcDbSymbolTableRecord
100
AcDbLayerTableRecord
  2
가상선
 70
     0
 62
     4
  6
PHANTOM
370
    -3
390
F
  0
LAYER
  5
7D
330
2
100
AcDbSymbolTableRecord
100
AcDbLayerTableRecord
  2
특수지정선
 70
     0
 62
     5
  6
CENTERX2
370
    60
390
F
  0
LAYER
  5
157
330
2
100
AcDbSymbolTableRecord
100
AcDbLayerTableRecord
  2
Defpoints
 70
     0
 62
     7
  6
Continuous
290
     0
370
    -3
390
F
  0
ENDTAB
  0
TABLE
  2
STYLE
  5
3
330
0
100
AcDbSymbolTable
 70
     2
  0
STYLE
  5
11
330
3
100
AcDbSymbolTableRecord
100
AcDbTextStyleTableRecord
  2
Standard
 70
     0
 40
0.0
 41
1.0
 50
0.0
 71
     0
 42
3.5
  3
txt
  4

  0
STYLE
  5
93
330
3
100
AcDbSymbolTableRecord
100
AcDbTextStyleTableRecord
  2
SLDTEXTSTYLE0
 70
     0
 40
0.0
 41
0.75
 50
0.0
 71
     0
 42
3.5
  3
TXT
  4

  0
ENDTAB
  0
TABLE
  2
VIEW
  5
6
330
0
100
AcDbSymbolTable
 70
     0
  0
ENDTAB
  0
TABLE
  2
UCS
  5
7
330
0
100
AcDbSymbolTable
 70
     0
  0
ENDTAB
  0
TABLE
  2
APPID
  5
9
330
0
100
AcDbSymbolTable
 70
     1
  0
APPID
  5
12
330
9
100
AcDbSymbolTableRecord
100
AcDbRegAppTableRecord
  2
ACAD
 70
     0
  0
ENDTAB
  0
TABLE
  2
DIMSTYLE
  5
A
330
0
100
AcDbSymbolTable
 70
     5
100
AcDbDimStyleTable
  0
DIMSTYLE
105
27
330
A
100
AcDbSymbolTableRecord
100
AcDbDimStyleTableRecord
  2
ISO-25
 70
     0
 41
2.5
 42
0.625
 43
3.75
 44
1.25
 73
     0
 74
     0
 77
     1
 78
     8
140
2.5
141
2.5
143
0.03937007874016
147
0.625
171
     3
172
     1
178
     0
271
     2
272
     2
274
     3
278
    44
283
     0
284
     8
340
11
  0
DIMSTYLE
105
E6
102
{ACAD_REACTORS
330
E5
102
}
330
A
100
AcDbSymbolTableRecord
100
AcDbDimStyleTableRecord
  2
SLDDIMSTYLE0
 70
     0
 41
3.302
 44
0.0
 45
0.000000001
 73
     0
 74
     0
 77
     1
 78
     4
 79
     1
140
3.5
147
0.875
172
     1
173
     1
178
     0
271
     2
272
     2
276
     2
284
    12
289
     0
340
93
  0
DIMSTYLE
105
F3
102
{ACAD_REACTORS
330
F2
330
FE
102
}
330
A
100
AcDbSymbolTableRecord
100
AcDbDimStyleTableRecord
  2
SLDDIMSTYLE1
 70
     0
 41
3.302
 44
0.0
 45
0.000000001
 73
     0
 74
     0
 77
     1
 78
    12
 79
     3
140
3.5
147
0.875
173
     1
178
     0
271
     2
272
     2
276
     2
284
    12
340
93
  0
DIMSTYLE
105
109
102
{ACAD_REACTORS
330
108
330
116
102
}
330
A
100
AcDbSymbolTableRecord
100
AcDbDimStyleTableRecord
  2
SLDDIMSTYLE2
 70
     0
 41
3.302
 44
0.0
 45
0.000000001
 73
     0
 74
     0
 77
     1
 78
    12
 79
     3
140
3.5
147
0.875
172
     1
173
     1
178
     0
271
     2
272
     2
276
     2
284
    12
289
     0
340
93
  0
DIMSTYLE
105
124
102
{ACAD_REACTORS
330
123
102
}
330
A
100
AcDbSymbolTableRecord
100
AcDbDimStyleTableRecord
  2
SLDDIMSTYLE3
 70
     0
 41
3.302
 44
0.0
 45
0.000000001
 73
     0
 74
     0
 77
     1
 78
    12
 79
     3
140
3.5
141
0.0
147
0.875
173
     1
178
     0
271
     2
272
     2
276
     2
284
    12
340
93
  0
ENDTAB
  0
TABLE
  2
BLOCK_RECORD
  5
1
330
0
100
AcDbSymbolTable
 70
     9
  0
BLOCK_RECORD
  5
1F
330
1
100
AcDbSymbolTableRecord
100
AcDbBlockTableRecord
  2
*Model_Space
340
22
  0
BLOCK_RECORD
  5
1B
330
1
100
AcDbSymbolTableRecord
100
AcDbBlockTableRecord
  2
*Paper_Space
340
1E
  0
BLOCK_RECORD
  5
23
330
1
100
AcDbSymbolTableRecord
100
AcDbBlockTableRecord
  2
*Paper_Space0
340
26
  0
BLOCK_RECORD
  5
7E
330
1
100
AcDbSymbolTableRecord
100
AcDbBlockTableRecord
  2
블럭10
340
0
102
{BLKREFS
331
DC
102
}
  0
BLOCK_RECORD
  5
E7
330
1
100
AcDbSymbolTableRecord
100
AcDbBlockTableRecord
  2
_D
340
0
  0
BLOCK_RECORD
  5
F4
330
1
100
AcDbSymbolTableRecord
100
AcDbBlockTableRecord
  2
_D_1
340
0
  0
BLOCK_RECORD
  5
FF
330
1
100
AcDbSymbolTableRecord
100
AcDbBlockTableRecord
  2
_D_2
340
0
  0
BLOCK_RECORD
  5
10A
330
1
100
AcDbSymbolTableRecord
100
AcDbBlockTableRecord
  2
_D_3
340
0
  0
BLOCK_RECORD
  5
117
330
1
100
AcDbSymbolTableRecord
100
AcDbBlockTableRecord
  2
_D_4
340
0
  0
BLOCK_RECORD
  5
125
330
1
100
AcDbSymbolTableRecord
100
AcDbBlockTableRecord
  2
_D_5
340
0
  0
BLOCK_RECORD
  5
12C
330
1
100
AcDbSymbolTableRecord
100
AcDbBlockTableRecord
  2
SW_DOWELSYMBOL_0
340
0
102
{BLKREFS
331
132
102
}
  0
ENDTAB
  0
ENDSEC
  0
SECTION
  2
BLOCKS
  0
BLOCK
  5
20
330
1F
100
AcDbEntity
  8
0
100
AcDbBlockBegin
  2
*Model_Space
 70
     0
 10
0.0
 20
0.0
 30
0.0
  3
*Model_Space
  1
*Model_Space
  0
ENDBLK
  5
21
330
1F
100
AcDbEntity
  8
0
100
AcDbBlockEnd
  0
BLOCK
  5
1C
330
1B
100
AcDbEntity
 67
     1
  8
0
100
AcDbBlockBegin
  2
*Paper_Space
 70
     0
 10
0.0
 20
0.0
 30
0.0
  3
*Paper_Space
  1
*Paper_Space
  0
ENDBLK
  5
1D
330
1B
100
AcDbEntity
 67
     1
  8
0
100
AcDbBlockEnd
  0
BLOCK
  5
24
330
23
100
AcDbEntity
  8
0
100
AcDbBlockBegin
  2
*Paper_Space0
 70
     0
 10
0.0
 20
0.0
 30
0.0
  3
*Paper_Space0
  1
*Paper_Space0
  0
ENDBLK
  5
25
330
23
100
AcDbEntity
  8
0
100
AcDbBlockEnd
  0
BLOCK
  5
7F
330
7E
100
AcDbEntity
  8
0
100
AcDbBlockBegin
  2
블럭10
 70
     2
 10
0.0
 20
0.0
 30
0.0
  3
블럭10
  1
블럭10
  0
ELLIPSE
  5
81
330
7E
100
AcDbEntity
  8
중심선
100
AcDbEllipse
 10
20.54032771741204
 20
12.0471743016438
 30
0.0
 11
6.600054785286829
 21
-1.261213355974178E-13
 31
0.0
210
0.0
220
0.0
230
1.0
 40
0.636358354079598
 41
0.9219305317359503
 42
6.513795318482858
  0
ELLIPSE
  5
82
330
7E
100
AcDbEntity
  8
중심선
100
AcDbEllipse
 10
20.54032771746488
 20
12.04717430159265
 30
0.0
 11
3.960054785062283
 21
1.540847449632565E-10
 31
0.0
210
0.0
220
0.0
230
1.0
 40
0.3939339440162632
 41
1.131841032648279
 42
5.62031148352944
  0
LINE
  5
83
330
7E
100
AcDbEntity
  8
중심선
100
AcDbLine
 10
2.268634060543552
 20
16.24717430164393
 30
0.0
 11
5.714909304380834
 21
16.24717430164393
 31
0.0
  0
LINE
  5
84
330
7E
100
AcDbEntity
  8
중심선
100
AcDbLine
 10
5.245725140726316
 20
7.84717430164391
 30
0.0
 11
8.692000384563599
 21
7.84717430164391
 31
0.0
  0
LINE
  5
85
330
7E
100
AcDbEntity
  8
중심선
100
AcDbLine
 10
15.74043728645272
 20
16.24717430164393
 30
0.0
 11
8.692000384563599
 21
7.84717430164391
 31
0.0
  0
LINE
  5
86
330
7E
100
AcDbEntity
  8
중심선
100
AcDbLine
 10
0.1404042013395286
 20
13.71084872107135
 30
0.0
 11
3.58671253028996
 21
13.71088815037384
 31
0.0
  0
LINE
  5
87
330
7E
100
AcDbEntity
  8
중심선
100
AcDbLine
 10
2.750260043222114
 20
10.84717430164391
 30
0.0
 11
6.196535287059397
 21
10.84717430164391
 31
0.0
  0
LINE
  5
88
330
7E
100
AcDbEntity
  8
중심선
100
AcDbLine
 10
12.29416204261559
 20
16.24717430164393
 30
0.0
 11
5.245725140726316
 21
7.84717430164391
 31
0.0
  0
LINE
  5
89
330
7E
100
AcDbEntity
  8
중심선
100
AcDbLine
 10
10.72767329541681
 20
16.24717430164393
 30
0.0
 11
6.196535287059397
 21
10.84717430164391
 31
0.0
  0
LINE
  5
8A
330
7E
100
AcDbEntity
  8
중심선
100
AcDbLine
 10
7.28139805157953
 20
16.24717430164393
 30
0.0
 11
2.750260043222114
 21
10.84717430164391
 31
0.0
  0
LINE
  5
8B
330
7E
100
AcDbEntity
  8
중심선
100
AcDbLine
 10
5.714909304380834
 20
16.24717430164393
 30
0.0
 11
3.58671253028996
 21
13.71088815037384
 31
0.0
  0
LINE
  5
8C
330
7E
100
AcDbEntity
  8
중심선
100
AcDbLine
 10
2.268634060543552
 20
16.24717430164393
 30
0.0
 11
0.1404042013395286
 21
13.71084872107135
 31
0.0
  0
LINE
  5
8D
330
7E
100
AcDbEntity
  8
중심선
100
AcDbLine
 10
7.28139805157953
 20
16.24717430164393
 30
0.0
 11
10.72767329541681
 21
16.24717430164393
 31
0.0
  0
LINE
  5
8E
330
7E
100
AcDbEntity
  8
중심선
100
AcDbLine
 10
12.29416204261559
 20
16.24717430164393
 30
0.0
 11
15.74043728645272
 21
16.24717430164393
 31
0.0
  0
LINE
  5
8F
330
7E
100
AcDbEntity
  8
중심선
100
AcDbLine
 10
19.22036997980202
 20
11.08717430171403
 30
0.0
 11
23.66174974927406
 21
11.08717430171406
 31
0.0
  0
LINE
  5
90
330
7E
100
AcDbEntity
  8
중심선
100
AcDbLine
 10
19.22039502424796
 20
13.00717430171391
 30
0.0
 11
19.22036997980202
 21
11.08717430171403
 31
0.0
  0
LINE
  5
91
330
7E
100
AcDbEntity
  8
중심선
100
AcDbLine
 10
19.22039502424796
 20
13.00717430171391
 30
0.0
 11
26.96566020931264
 21
13.00717430171391
 31
0.0
  0
LINE
  5
92
330
7E
100
AcDbEntity
  8
중심선
100
AcDbLine
 10
22.22332737316547
 20
13.45928029700563
 30
0.0
 11
24.52862924686651
 21
15.39360700705356
 31
0.0
  0
ATTDEF
  5
94
330
7E
100
AcDbEntity
  8
FORMAT
 62
     2
100
AcDbText
 10
-13.30487872475355
 20
2.075366912832191
 30
0.0
 40
4.233333333333333
  1
G8B5408010 [ 4 FLUTE ]
 41
0.75
  7
SLDTEXTSTYLE0
 11
-13.30487872475355
 21
-0.0412997538344756
 31
0.0
100
AcDbAttributeDefinition
  3

  2
AUTOATTR0
 70
     0
 74
     1
  0
ENDBLK
  5
80
330
7E
100
AcDbEntity
  8
0
100
AcDbBlockEnd
  0
BLOCK
  5
E8
330
E7
100
AcDbEntity
  8
0
100
AcDbBlockBegin
  2
_D
 70
     0
 10
0.0
 20
0.0
 30
0.0
  3
_D
  1
_D
  0
LINE
  5
EA
330
E7
100
AcDbEntity
  8
치수문자_일반주서
 62
     0
370
    -2
100
AcDbLine
 10
17.49282032458141
 20
3.0625
 30
0.0
 11
17.49282032458141
 21
25.94962154344662
 31
0.0
  0
LINE
  5
EB
330
E7
100
AcDbEntity
  8
치수문자_일반주서
 62
     0
370
    -2
100
AcDbLine
 10
13.99282032458141
 20
3.878256805667783
 30
0.0
 11
13.99282032458141
 21
25.94962154344662
 31
0.0
  0
LINE
  5
EC
330
E7
100
AcDbEntity
  8
치수문자_일반주서
 62
     0
370
    -2
100
AcDbLine
 10
14.19082032458141
 20
25.94962154344662
 30
0.0
 11
17.29482032458142
 21
25.94962154344662
 31
0.0
  0
SOLID
  5
ED
330
E7
100
AcDbEntity
  8
치수문자_일반주서
 62
     0
100
AcDbTrace
 10
14.19082032458141
 20
25.39928821011328
 30
0.0
 11
14.19082032458141
 21
26.49995487677995
 31
0.0
 12
17.49282032458141
 22
25.94962154344662
 32
0.0
 13
17.49282032458141
 23
25.94962154344662
 33
0.0
  0
SOLID
  5
EE
330
E7
100
AcDbEntity
  8
치수문자_일반주서
 62
     0
100
AcDbTrace
 10
17.29482032458142
 20
26.49995487677995
 30
0.0
 11
17.29482032458142
 21
25.39928821011328
 31
0.0
 12
13.99282032458141
 22
25.94962154344662
 32
0.0
 13
13.99282032458141
 23
25.94962154344662
 33
0.0
  0
MTEXT
  5
EF
330
E7
100
AcDbEntity
  8
치수문자_일반주서
 62
     0
100
AcDbMText
 10
15.58598055652755
 20
30.32462154344662
 30
0.0
 40
3.5
 41
0.0
 71
     2
 72
     1
  1
\A1;3.50
  7
SLDTEXTSTYLE0
 73
     1
 44
1.0
  0
POINT
  5
F0
330
E7
100
AcDbEntity
  8
Defpoints
 62
     0
100
AcDbPoint
 10
17.49282032458141
 20
3.0
 30
0.0
  0
POINT
  5
F1
330
E7
100
AcDbEntity
  8
Defpoints
 62
     0
100
AcDbPoint
 10
13.99282032458141
 20
3.815756805667783
 30
0.0
  0
POINT
  5
15A
330
E7
100
AcDbEntity
  8
Defpoints
 62
     0
100
AcDbPoint
 10
13.99282032458141
 20
25.94962154344662
 30
0.0
  0
ENDBLK
  5
E9
330
E7
100
AcDbEntity
  8
0
100
AcDbBlockEnd
  0
BLOCK
  5
F5
330
F4
100
AcDbEntity
  8
0
100
AcDbBlockBegin
  2
_D_1
 70
     0
 10
0.0
 20
0.0
 30
0.0
  3
_D_1
  1
_D_1
  0
LINE
  5
F7
330
F4
100
AcDbEntity
  8
치수문자_일반주서
 62
     0
370
    -2
100
AcDbLine
 10
17.49282032458141
 20
2.608289851347716
 30
0.0
 11
17.49282032458141
 21
35.11032187228074
 31
0.0
  0
LINE
  5
F8
330
F4
100
AcDbEntity
  8
치수문자_일반주서
 62
     0
370
    -2
100
AcDbLine
 10
1.492820323027572
 20
3.6625
 30
0.0
 11
1.492820323027573
 21
35.11032187228074
 31
0.0
  0
LINE
  5
F9
330
F4
100
AcDbEntity
  8
치수문자_일반주서
 62
     0
370
    -2
100
AcDbLine
 10
14.19082032458141
 20
35.11032187228074
 30
0.0
 11
4.794820323027572
 21
35.11032187228074
 31
0.0
  0
SOLID
  5
FA
330
F4
100
AcDbEntity
  8
치수문자_일반주서
 62
     0
100
AcDbTrace
 10
14.19082032458141
 20
34.5599885389474
 30
0.0
 11
14.19082032458141
 21
35.66065520561407
 31
0.0
 12
17.49282032458141
 22
35.11032187228074
 32
0.0
 13
17.49282032458141
 23
35.11032187228074
 33
0.0
  0
SOLID
  5
FB
330
F4
100
AcDbEntity
  8
치수문자_일반주서
 62
     0
100
AcDbTrace
 10
4.794820323027572
 20
35.66065520561407
 30
0.0
 11
4.794820323027572
 21
34.5599885389474
 31
0.0
 12
1.492820323027573
 22
35.11032187228074
 32
0.0
 13
1.492820323027573
 23
35.11032187228074
 33
0.0
  0
MTEXT
  5
FC
330
F4
100
AcDbEntity
  8
치수문자_일반주서
 62
     0
100
AcDbMText
 10
9.492820323804487
 20
39.48532187228074
 30
0.0
 40
3.5
 41
0.0
 71
     2
 72
     1
  1
\A1;16
  7
SLDTEXTSTYLE0
 73
     1
 44
1.0
  0
POINT
  5
FD
330
F4
100
AcDbEntity
  8
Defpoints
 62
     0
100
AcDbPoint
 10
17.49282032458141
 20
2.545789851347716
 30
0.0
  0
POINT
  5
158
330
F4
100
AcDbEntity
  8
Defpoints
 62
     0
100
AcDbPoint
 10
1.492820323027572
 20
3.6
 30
0.0
  0
POINT
  5
159
330
F4
100
AcDbEntity
  8
Defpoints
 62
     0
100
AcDbPoint
 10
1.492820323027572
 20
35.11032187228074
 30
0.0
  0
ENDBLK
  5
F6
330
F4
100
AcDbEntity
  8
0
100
AcDbBlockEnd
  0
BLOCK
  5
100
330
FF
100
AcDbEntity
  8
0
100
AcDbBlockBegin
  2
_D_2
 70
     0
 10
0.0
 20
0.0
 30
0.0
  3
_D_2
  1
_D_2
  0
SOLID
  5
102
330
FF
100
AcDbEntity
  8
치수문자_일반주서
100
AcDbTrace
 10
17.49282032458141
 20
45.50000000000005
 30
0.0
 11
14.19082032458141
 21
46.00800000000005
 31
0.0
 12
14.19082032458141
 22
44.99200000000005
 32
0.0
 13
14.19082032458141
 23
44.99200000000005
 33
0.0
  0
SOLID
  5
103
330
FF
100
AcDbEntity
  8
치수문자_일반주서
100
AcDbTrace
 10
-82.5071796754186
 20
45.50000000000005
 30
0.0
 11
-79.2051796754186
 21
44.99200000000005
 31
0.0
 12
-79.2051796754186
 22
46.00800000000005
 32
0.0
 13
-79.2051796754186
 23
46.00800000000005
 33
0.0
  0
LINE
  5
104
330
FF
100
AcDbEntity
  8
치수문자_일반주서
100
AcDbLine
 10
17.49282032458141
 20
4.0
 30
0.0
 11
17.49282032458141
 21
46.50000000000005
 31
0.0
  0
LINE
  5
105
330
FF
100
AcDbEntity
  8
치수문자_일반주서
100
AcDbLine
 10
-82.5071796754186
 20
4.189999999999996
 30
0.0
 11
-82.5071796754186
 21
46.50000000000005
 31
0.0
  0
LINE
  5
106
330
FF
100
AcDbEntity
  8
치수문자_일반주서
100
AcDbLine
 10
17.49282032458141
 20
45.50000000000005
 30
0.0
 11
-82.5071796754186
 21
45.50000000000005
 31
0.0
  0
MTEXT
  5
107
330
FF
100
AcDbEntity
  8
치수문자_일반주서
100
AcDbMText
 10
-37.23149783831841
 20
50.01173691457894
 30
0.0
 40
3.5
 41
0.0
 71
     1
 72
     1
  1
100
  7
SLDTEXTSTYLE0
 73
     1
 44
1.0
  0
ENDBLK
  5
101
330
FF
100
AcDbEntity
  8
0
100
AcDbBlockEnd
  0
BLOCK
  5
10B
330
10A
100
AcDbEntity
  8
0
100
AcDbBlockBegin
  2
_D_3
 70
     0
 10
0.0
 20
0.0
 30
0.0
  3
_D_3
  1
_D_3
  0
SOLID
  5
10D
330
10A
100
AcDbEntity
  8
치수문자_일반주서
100
AcDbTrace
 10
-95.24717967541862
 20
3.999999999999999
 30
0.0
 11
-94.73917967541863
 21
7.301999999999999
 31
0.0
 12
-95.75517967541862
 22
7.301999999999999
 32
0.0
 13
-95.75517967541862
 23
7.301999999999999
 33
0.0
  0
SOLID
  5
10E
330
10A
100
AcDbEntity
  8
치수문자_일반주서
100
AcDbTrace
 10
-95.24717967541862
 20
-4.000000000000001
 30
0.0
 11
-95.75517967541862
 21
-7.302
 31
0.0
 12
-94.73917967541863
 22
-7.302
 32
0.0
 13
-94.73917967541863
 23
-7.302
 33
0.0
  0
LINE
  5
10F
330
10A
100
AcDbEntity
  8
치수문자_일반주서
100
AcDbLine
 10
-82.6971796754186
 20
4.0
 30
0.0
 11
-96.24717967541862
 21
3.999999999999999
 31
0.0
  0
LINE
  5
110
330
10A
100
AcDbEntity
  8
치수문자_일반주서
100
AcDbLine
 10
-82.6971796754186
 20
-4.0
 30
0.0
 11
-96.24717967541862
 21
-4.000000000000001
 31
0.0
  0
LINE
  5
111
330
10A
100
AcDbEntity
  8
치수문자_일반주서
100
AcDbLine
 10
-95.24717967541862
 20
3.999999999999999
 30
0.0
 11
-95.24717967541862
 21
10.35
 31
0.0
  0
LINE
  5
112
330
10A
100
AcDbEntity
  8
치수문자_일반주서
100
AcDbLine
 10
-95.24717967541862
 20
3.999999999999999
 30
0.0
 11
-95.24717967541862
 21
-4.000000000000001
 31
0.0
  0
LINE
  5
113
330
10A
100
AcDbEntity
  8
치수문자_일반주서
100
AcDbLine
 10
-95.24717967541862
 20
-4.000000000000001
 30
0.0
 11
-95.24717967541862
 21
-10.35
 31
0.0
  0
MTEXT
  5
114
330
10A
100
AcDbEntity
  8
치수문자_일반주서
100
AcDbMText
 10
-99.75891676462048
 20
-5.219003357599054
 30
0.0
 40
3.5
 41
0.0
 71
     1
 72
     1
  1
%%c
  7
SLDTEXTSTYLE0
 11
-7.044195017643634E-15
 21
1.0
 31
0.0
 73
     1
 44
1.0
  0
MTEXT
  5
115
330
10A
100
AcDbEntity
  8
치수문자_일반주서
100
AcDbMText
 10
-99.81238894128037
 20
0.0594340407750265
 30
0.0
 40
3.5
 41
0.0
 71
     1
 72
     1
  1
8
  7
SLDTEXTSTYLE0
 11
-7.044195017643634E-15
 21
1.0
 31
0.0
 73
     1
 44
1.0
  0
ENDBLK
  5
10C
330
10A
100
AcDbEntity
  8
0
100
AcDbBlockEnd
  0
BLOCK
  5
118
330
117
100
AcDbEntity
  8
0
100
AcDbBlockBegin
  2
_D_4
 70
     0
 10
0.0
 20
0.0
 30
0.0
  3
_D_4
  1
_D_4
  0
SOLID
  5
11A
330
117
100
AcDbEntity
  8
치수문자_일반주서
100
AcDbTrace
 10
30.49282032458143
 20
3.999999999999999
 30
0.0
 11
31.00082032458143
 21
7.301999999999999
 31
0.0
 12
29.98482032458143
 22
7.301999999999999
 32
0.0
 13
29.98482032458143
 23
7.301999999999999
 33
0.0
  0
SOLID
  5
11B
330
117
100
AcDbEntity
  8
치수문자_일반주서
100
AcDbTrace
 10
30.49282032458143
 20
-4.000000000000001
 30
0.0
 11
29.98482032458143
 21
-7.302
 31
0.0
 12
31.00082032458143
 22
-7.302
 32
0.0
 13
31.00082032458143
 23
-7.302
 33
0.0
  0
LINE
  5
11C
330
117
100
AcDbEntity
  8
치수문자_일반주서
100
AcDbLine
 10
17.49282032458141
 20
4.0
 30
0.0
 11
31.49282032458144
 21
3.999999999999999
 31
0.0
  0
LINE
  5
11D
330
117
100
AcDbEntity
  8
치수문자_일반주서
100
AcDbLine
 10
17.49282032458141
 20
-4.0
 30
0.0
 11
31.49282032458144
 21
-4.000000000000001
 31
0.0
  0
LINE
  5
11E
330
117
100
AcDbEntity
  8
치수문자_일반주서
100
AcDbLine
 10
30.49282032458143
 20
3.999999999999999
 30
0.0
 11
30.49282032458143
 21
10.35
 31
0.0
  0
LINE
  5
11F
330
117
100
AcDbEntity
  8
치수문자_일반주서
100
AcDbLine
 10
30.49282032458143
 20
3.999999999999999
 30
0.0
 11
30.49282032458143
 21
-4.000000000000001
 31
0.0
  0
LINE
  5
120
330
117
100
AcDbEntity
  8
치수문자_일반주서
100
AcDbLine
 10
30.49282032458143
 20
-4.000000000000001
 30
0.0
 11
30.49282032458143
 21
-10.35
 31
0.0
  0
MTEXT
  5
121
330
117
100
AcDbEntity
  8
치수문자_일반주서
100
AcDbMText
 10
25.98108323537957
 20
-3.364263840470525
 30
0.0
 40
3.5
 41
0.0
 71
     1
 72
     1
  1
%%c
  7
SLDTEXTSTYLE0
 11
-7.044195017643634E-15
 21
1.0
 31
0.0
 73
     1
 44
1.0
  0
MTEXT
  5
122
330
117
100
AcDbEntity
  8
치수문자_일반주서
100
AcDbMText
 10
25.92761105871968
 20
1.914173557903555
 30
0.0
 40
3.5
 41
0.0
 71
     1
 72
     1
  1
8
  7
SLDTEXTSTYLE0
 11
-7.044195017643634E-15
 21
1.0
 31
0.0
 73
     1
 44
1.0
  0
ENDBLK
  5
119
330
117
100
AcDbEntity
  8
0
100
AcDbBlockEnd
  0
BLOCK
  5
126
330
125
100
AcDbEntity
  8
0
100
AcDbBlockBegin
  2
_D_5
 70
     0
 10
0.0
 20
0.0
 30
0.0
  3
_D_5
  1
_D_5
  0
SOLID
  5
128
330
125
100
AcDbEntity
  8
치수문자_일반주서
100
AcDbTrace
 10
17.25462328115668
 20
-3.647808810802369
 30
0.0
 11
19.44100976788061
 21
-6.17386940601203
 31
0.0
 12
20.09918351965582
 22
-5.399877602131558
 32
0.0
 13
20.09918351965582
 23
-5.399877602131558
 33
0.0
  0
LINE
  5
129
330
125
100
AcDbEntity
  8
치수문자_일반주서
100
AcDbLine
 10
17.25462328115668
 20
-3.647808810802369
 30
0.0
 11
34.85631481587242
 21
-18.61563055892886
 31
0.0
  0
LINE
  5
12A
330
125
100
AcDbEntity
  8
치수문자_일반주서
100
AcDbLine
 10
17.25462328115668
 20
-3.647808810802369
 30
0.0
 11
16.49282032458141
 21
-3.0
 31
0.0
  0
MTEXT
  5
12B
330
125
100
AcDbEntity
  8
치수문자_일반주서
100
AcDbMText
 10
33.6352385910387
 20
-11.68469737884264
 30
0.0
 40
3.5
 41
0.0
 71
     1
 72
     1
  1
R1
  7
SLDTEXTSTYLE0
 11
0.7618029565752771
 21
-0.647808810802359
 31
0.0
 73
     1
 44
1.0
  0
ENDBLK
  5
127
330
125
100
AcDbEntity
  8
0
100
AcDbBlockEnd
  0
BLOCK
  5
12D
330
12C
100
AcDbEntity
  8
0
100
AcDbBlockBegin
  2
SW_DOWELSYMBOL_0
 70
     0
 10
0.0
 20
0.0
 30
0.0
  3
SW_DOWELSYMBOL_0
  1
SW_DOWELSYMBOL_0
  0
CIRCLE
  5
12F
330
12C
100
AcDbEntity
  8
외형선
 62
     0
100
AcDbCircle
 10
0.0
 20
0.0
 30
0.0
 40
3.000000000000001
  0
HATCH
  5
130
330
12C
100
AcDbEntity
  8
0
  6
Continuous
 62
     0
370
    30
100
AcDbHatch
 10
0.0
 20
0.0
 30
0.0
210
0.0
220
0.0
230
1.0
  2
SOLID
 70
     1
 71
     0
 91
        1
 92
        0
 93
        3
 72
     2
 10
0.0
 20
0.0
 40
3.000000000000001
 50
0.0
 51
90.0
 73
     1
 72
     1
 10
0.0
 20
3.000000000000001
 11
0.0
 21
0.0
 72
     1
 10
0.0
 20
0.0
 11
3.000000000000001
 21
0.0
 97
        0
 75
     0
 76
     1
 98
        1
 10
0.0
 20
0.0
  0
HATCH
  5
131
330
12C
100
AcDbEntity
  8
0
  6
Continuous
 62
     0
370
    30
100
AcDbHatch
 10
0.0
 20
0.0
 30
0.0
210
0.0
220
0.0
230
1.0
  2
SOLID
 70
     1
 71
     0
 91
        1
 92
        0
 93
        3
 72
     2
 10
0.0
 20
0.0
 40
3.000000000000001
 50
180.0
 51
270.0000000000008
 73
     1
 72
     1
 10
0.0
 20
-3.000000000000001
 11
0.0
 21
0.0
 72
     1
 10
0.0
 20
0.0
 11
-3.000000000000001
 21
0.0
 97
        0
 75
     0
 76
     1
 98
        1
 10
0.0
 20
0.0
  0
ENDBLK
  5
12E
330
12C
100
AcDbEntity
  8
0
100
AcDbBlockEnd
  0
ENDSEC
  0
SECTION
  2
ENTITIES
  0
LINE
  5
95
330
1F
100
AcDbEntity
  8
0
  6
Continuous
 62
     4
370
    15
100
AcDbLine
 10
0.0
 20
-4.000000000000005
 30
0.0
 11
1.492820323027569
 21
-3.6
 31
0.0
  0
LINE
  5
96
330
1F
100
AcDbEntity
  8
0
  6
Continuous
 62
     4
370
    15
100
AcDbLine
 10
1.492820323027569
 20
3.6
 30
0.0
 11
0.0
 21
4.000000000000005
 31
0.0
  0
LINE
  5
97
330
1F
100
AcDbEntity
  8
0
  6
Continuous
 62
     4
370
    15
100
AcDbLine
 10
0.0
 20
4.0
 30
0.0
 11
-81.6971796754186
 21
4.0
 31
0.0
  0
LINE
  5
98
330
1F
100
AcDbEntity
  8
0
  6
Continuous
 62
     4
370
    15
100
AcDbLine
 10
-81.6971796754186
 20
-4.0
 30
0.0
 11
0.0
 21
-4.0
 31
0.0
  0
LINE
  5
99
330
1F
100
AcDbEntity
  8
0
  6
Continuous
 62
     4
370
    15
100
AcDbLine
 10
12.63315978002711
 20
3.635680055106223
 30
0.0
 11
12.50000000155382
 21
3.6
 31
0.0
  0
LINE
  5
9A
330
1F
100
AcDbEntity
  8
0
  6
Continuous
 62
     4
370
    15
100
AcDbLine
 10
12.50000000155382
 20
-3.6
 30
0.0
 11
12.63315978002711
 21
-3.635680055106223
 31
0.0
  0
LINE
  5
9B
330
1F
100
AcDbEntity
  8
0
  6
Continuous
 62
     4
370
    15
100
AcDbLine
 10
-81.6971796754186
 20
3.999999999999995
 30
0.0
 11
-82.5071796754186
 21
3.189999999999996
 31
0.0
  0
LINE
  5
9C
330
1F
100
AcDbEntity
  8
0
  6
Continuous
 62
     4
370
    15
100
AcDbLine
 10
-82.5071796754186
 20
-3.189999999999996
 30
0.0
 11
-81.6971796754186
 21
-3.999999999999995
 31
0.0
  0
LINE
  5
9D
330
1F
100
AcDbEntity
  8
0
  6
Continuous
 62
     4
370
    15
100
AcDbLine
 10
12.50000000155382
 20
3.6
 30
0.0
 11
1.492820323027569
 21
3.6
 31
0.0
  0
LINE
  5
9E
330
1F
100
AcDbEntity
  8
0
  6
Continuous
 62
     4
370
    15
100
AcDbLine
 10
1.492820323027569
 20
-3.6
 30
0.0
 11
12.50000000155382
 21
-3.6
 31
0.0
  0
LINE
  5
9F
330
1F
100
AcDbEntity
  8
0
  6
Continuous
 62
     4
370
    15
100
AcDbLine
 10
1.492820323027569
 20
3.6
 30
0.0
 11
1.492820323027569
 21
-3.6
 31
0.0
  0
LINE
  5
A0
330
1F
100
AcDbEntity
  8
0
  6
Continuous
 62
     4
370
    15
100
AcDbLine
 10
0.0
 20
4.000000000000005
 30
0.0
 11
0.0
 21
-4.000000000000005
 31
0.0
  0
LINE
  5
A1
330
1F
100
AcDbEntity
  8
0
  6
Continuous
 62
     4
370
    15
100
AcDbLine
 10
-81.6971796754186
 20
4.0
 30
0.0
 11
-81.6971796754186
 21
-4.0
 31
0.0
  0
LINE
  5
A2
330
1F
100
AcDbEntity
  8
0
  6
Continuous
 62
     4
370
    15
100
AcDbLine
 10
13.99282032458141
 20
4.0
 30
0.0
 11
12.63315978002711
 21
3.635680055106223
 31
0.0
  0
LINE
  5
A3
330
1F
100
AcDbEntity
  8
0
  6
Continuous
 62
     4
370
    15
100
AcDbLine
 10
13.99282032458141
 20
4.0
 30
0.0
 11
13.99282032458141
 21
3.815756805667783
 31
0.0
  0
SPLINE
  5
A4
330
1F
100
AcDbEntity
  8
0
  6
Continuous
 62
     4
370
    15
100
AcDbSpline
210
0.0
220
0.0
230
1.0
 70
     8
 71
     3
 72
    18
 73
    14
 74
     0
 42
0.000000001
 43
0.00000001
 40
0.0
 40
0.0
 40
0.0
 40
0.0
 40
0.25
 40
0.25
 40
0.3749999999999999
 40
0.3749999999999999
 40
0.4999999999999999
 40
0.4999999999999999
 40
0.6249999999999999
 40
0.6249999999999999
 40
0.7499999999999999
 40
0.7499999999999999
 40
1.0
 40
1.0
 40
1.0
 40
1.0
 10
13.99282032458123
 20
3.815756805667896
 30
0.0
 10
13.81742441627515
 20
3.729439994575038
 30
0.0
 10
13.65172278840589
 20
3.635570347201504
 30
0.0
 10
13.44313458541124
 20
3.476227524071683
 30
0.0
 10
13.38098954392289
 20
3.420411275405882
 30
0.0
 10
13.27875832354521
 20
3.300707329289615
 30
0.0
 10
13.23890590596411
 20
3.23615526062949
 30
0.0
 10
13.19610420546011
 20
3.104252926069768
 30
0.0
 10
13.19314737411552
 20
3.035240047613327
 30
0.0
 10
13.22541601307316
 20
2.902438572392221
 30
0.0
 10
13.2606710842215
 20
2.836844032902575
 30
0.0
 10
13.40342539709106
 20
2.654134350138629
 30
0.0
 10
13.54731293104543
 20
2.546400414718834
 30
0.0
 10
13.70547362504584
 20
2.450362277729454
 30
0.0
  0
ELLIPSE
  5
A5
330
1F
100
AcDbEntity
  8
0
  6
Continuous
 62
     4
370
    15
100
AcDbEllipse
 10
41.47257570441784
 20
3.535368299976185
 30
0.0
 11
31.20073054423833
 21
5.044635197602427
 31
0.0
210
0.0
220
0.0
230
1.0
 40
0.2178316143066898
 41
2.631619779800643
 42
2.695125489143337
  0
LINE
  5
A6
330
1F
100
AcDbEntity
  8
0
  6
Continuous
 62
     4
370
    15
100
AcDbLine
 10
12.85572203679117
 20
1.91982428352078
 30
0.0
 11
12.63315978002711
 21
1.885546241327162
 31
0.0
  0
LINE
  5
A7
330
1F
100
AcDbEntity
  8
0
  6
Continuous
 62
     4
370
    15
100
AcDbLine
 10
12.63315978002711
 20
-0.0000000000000127
 30
0.0
 11
12.63315978002711
 21
1.885546241327162
 31
0.0
  0
LINE
  5
A8
330
1F
100
AcDbEntity
  8
0
  6
Continuous
 62
     1
370
    15
100
AcDbLine
 10
13.99282032458141
 20
-0.000000000000014
 30
0.0
 11
12.63315978002711
 21
-0.0000000000000127
 31
0.0
  0
LINE
  5
A9
330
1F
100
AcDbEntity
  8
0
  6
Continuous
 62
     1
370
    15
100
AcDbLine
 10
13.99282032458141
 20
-0.000000000000014
 30
0.0
 11
13.99282032458141
 21
-1.200000000000013
 31
0.0
  0
SPLINE
  5
AA
330
1F
100
AcDbEntity
  8
0
  6
Continuous
 62
     4
370
    15
100
AcDbSpline
210
0.0
220
0.0
230
1.0
 70
     8
 71
     3
 72
    18
 73
    14
 74
     0
 42
0.000000001
 43
0.00000001
 40
0.0
 40
0.0
 40
0.0
 40
0.0
 40
0.2500000000000003
 40
0.2500000000000003
 40
0.3750000000000002
 40
0.3750000000000002
 40
0.5000000000000002
 40
0.5000000000000002
 40
0.6250000000000001
 40
0.6250000000000001
 40
0.75
 40
0.75
 40
1.0
 40
1.0
 40
1.0
 40
1.0
 10
13.99282032458123
 20
-1.19999999999986
 30
0.0
 10
13.81742441627515
 20
-1.317812659521356
 30
0.0
 10
13.65172278840589
 20
-1.445934084136127
 30
0.0
 10
13.44313458541125
 20
-1.663418969535707
 30
0.0
 10
13.3809895439229
 20
-1.739601819858536
 30
0.0
 10
13.27875832354521
 20
-1.902984132858998
 30
0.0
 10
13.23890590596411
 20
-1.991090386903558
 30
0.0
 10
13.19610420546011
 20
-2.171122116931879
 30
0.0
 10
13.19314737411552
 20
-2.265316870529069
 30
0.0
 10
13.22541601307316
 20
-2.446575825604985
 30
0.0
 10
13.2606710842215
 20
-2.536104934124176
 30
0.0
 10
13.40342539709105
 20
-2.785482933313611
 30
0.0
 10
13.54731293104542
 20
-2.932527539014681
 30
0.0
 10
13.70547362504582
 20
-3.063608706066098
 30
0.0
  0
ELLIPSE
  5
AB
330
1F
100
AcDbEntity
  8
0
  6
Continuous
 62
     4
370
    15
100
AcDbEllipse
 10
41.47257570441784
 20
7.581621785848889
 30
0.0
 11
31.20484710040548
 21
10.39501469816178
 31
0.0
210
0.0
220
0.0
230
1.0
 40
0.0937958713517014
 41
3.521619361644391
 42
3.585125070987079
  0
LINE
  5
AC
330
1F
100
AcDbEntity
  8
0
  6
Continuous
 62
     4
370
    15
100
AcDbLine
 10
12.85572203679117
 20
-3.157472226783943
 30
0.0
 11
12.63315978002711
 21
-3.108518109150108
 31
0.0
  0
LINE
  5
AD
330
1F
100
AcDbEntity
  8
0
  6
Continuous
 62
     4
370
    15
100
AcDbLine
 10
12.63315978002711
 20
-3.635680055106223
 30
0.0
 11
12.63315978002711
 21
-3.108518109150108
 31
0.0
  0
LINE
  5
AE
330
1F
100
AcDbEntity
  8
0
  6
Continuous
 62
     4
370
    15
100
AcDbLine
 10
13.99282032458141
 20
-4.0
 30
0.0
 11
12.63315978002711
 21
-3.635680055106223
 31
0.0
  0
LINE
  5
AF
330
1F
100
AcDbEntity
  8
0
  6
Continuous
 62
     4
370
    15
100
AcDbLine
 10
12.50000000155382
 20
3.6
 30
0.0
 11
12.50000000155382
 21
-3.6
 31
0.0
  0
LINE
  5
B0
330
1F
100
AcDbEntity
  8
0
  6
Continuous
 62
     4
370
    15
100
AcDbLine
 10
-82.5071796754186
 20
3.189999999999996
 30
0.0
 11
-82.5071796754186
 21
-3.189999999999996
 31
0.0
  0
LINE
  5
B1
330
1F
100
AcDbEntity
  8
0
  6
Continuous
 62
     4
370
    15
100
AcDbLine
 10
13.99282032458141
 20
-2.977596809755683
 30
0.0
 11
13.70547362504583
 21
-3.063608706066094
 31
0.0
  0
LINE
  5
B2
330
1F
100
AcDbEntity
  8
0
  6
Continuous
 62
     1
370
    15
100
AcDbLine
 10
13.99282032458141
 20
-1.200000000000013
 30
0.0
 11
13.99282032458141
 21
-2.977596809755683
 31
0.0
  0
LINE
  5
B3
330
1F
100
AcDbEntity
  8
0
  6
Continuous
 62
     4
370
    15
100
AcDbLine
 10
13.99282032458141
 20
2.513379890910578
 30
0.0
 11
13.70547362504584
 21
2.450362277729452
 31
0.0
  0
LINE
  5
B4
330
1F
100
AcDbEntity
  8
0
  6
Continuous
 62
     4
370
    15
100
AcDbLine
 10
13.99282032458141
 20
3.815756805667783
 30
0.0
 11
13.99282032458141
 21
2.513379890910578
 31
0.0
  0
LINE
  5
B5
330
1F
100
AcDbEntity
  8
0
  6
Continuous
 62
     4
370
    15
100
AcDbLine
 10
12.85572203679117
 20
1.91982428352078
 30
0.0
 11
13.99282032458141
 21
1.445052204177484
 31
0.0
  0
LINE
  5
B6
330
1F
100
AcDbEntity
  8
0
  6
Continuous
 62
     4
370
    15
100
AcDbLine
 10
13.99282032458141
 20
1.445052204177484
 30
0.0
 11
13.99282032458141
 21
2.513379890910578
 31
0.0
  0
LINE
  5
B7
330
1F
100
AcDbEntity
  8
0
  6
Continuous
 62
     4
370
    15
100
AcDbLine
 10
12.63315978002711
 20
0.1916336711098959
 30
0.0
 11
13.99282032458141
 21
0.1916336711098959
 31
0.0
  0
LINE
  5
B8
330
1F
100
AcDbEntity
  8
0
  6
Continuous
 62
     4
370
    15
100
AcDbLine
 10
13.99282032458141
 20
0.1916336711098959
 30
0.0
 11
13.99282032458141
 21
1.445052204177484
 31
0.0
  0
LINE
  5
B9
330
1F
100
AcDbEntity
  8
0
  6
Continuous
 62
     4
370
    15
100
AcDbLine
 10
13.99282032458141
 20
-0.0000000000000028
 30
0.0
 11
13.99282032458141
 21
0.1916336711098959
 31
0.0
  0
LINE
  5
BA
330
1F
100
AcDbEntity
  8
0
  6
Continuous
 62
     4
370
    15
100
AcDbLine
 10
13.99282032458141
 20
-2.977596809755681
 30
0.0
 11
13.99282032458141
 21
-4.0
 31
0.0
  0
LINE
  5
BB
330
1F
100
AcDbEntity
  8
0
  6
Continuous
 62
     1
370
    15
100
AcDbLine
 10
17.49282032458141
 20
-0.0000000000000105
 30
0.0
 11
16.49282032458142
 21
-0.000000000000014
 31
0.0
  0
LINE
  5
BC
330
1F
100
AcDbEntity
  8
0
  6
Continuous
 62
     1
370
    15
100
AcDbLine
 10
17.49282032458141
 20
-1.587121303736732
 30
0.0
 11
17.49282032458141
 21
-0.0000000000000105
 31
0.0
  0
SPLINE
  5
BD
330
1F
100
AcDbEntity
  8
0
  6
Continuous
 62
     1
370
    15
100
AcDbSpline
210
0.0
220
0.0
230
1.0
 70
     8
 71
     3
 72
    10
 73
     6
 74
     0
 42
0.000000001
 43
0.00000001
 40
0.0
 40
0.0
 40
0.0
 40
0.0
 40
0.5
 40
0.5
 40
1.0
 40
1.0
 40
1.0
 40
1.0
 10
17.49282032458141
 20
-1.587121303736733
 30
0.0
 10
17.49282032458141
 20
-1.652698355018247
 30
0.0
 10
17.45651669066416
 20
-1.729446743745195
 30
0.0
 10
17.32011848846306
 20
-1.88875958002995
 30
0.0
 10
17.21989944663541
 20
-1.971361270816731
 30
0.0
 10
17.09992669171707
 20
-2.047542241154481
 30
0.0
  0
SPLINE
  5
BE
330
1F
100
AcDbEntity
  8
0
  6
Continuous
 62
     1
370
    15
100
AcDbSpline
210
0.0
220
0.0
230
1.0
 70
     8
 71
     3
 72
    14
 73
    10
 74
     0
 42
0.000000001
 43
0.00000001
 40
0.0
 40
0.0
 40
0.0
 40
0.0
 40
0.25
 40
0.25
 40
0.5
 40
0.5
 40
0.75
 40
0.75
 40
1.0
 40
1.0
 40
1.0
 40
1.0
 10
17.09992669171706
 20
-2.047542241154489
 30
0.0
 10
17.09111526416836
 20
-1.960403212185164
 30
0.0
 10
17.07623218312439
 20
-1.873854357447674
 30
0.0
 10
17.03042448660716
 20
-1.70231591025053
 30
0.0
 10
16.99936700282782
 20
-1.616729577497631
 30
0.0
 10
16.91295473783
 20
-1.454175602647845
 30
0.0
 10
16.85807187662278
 20
-1.376474425787419
 30
0.0
 10
16.70529063917716
 20
-1.248273346562624
 30
0.0
 10
16.60393235000348
 20
-1.199999999997134
 30
0.0
 10
16.49282032458174
 20
-1.199999999997044
 30
0.0
  0
LINE
  5
BF
330
1F
100
AcDbEntity
  8
0
  6
Continuous
 62
     1
370
    15
100
AcDbLine
 10
16.49282032458142
 20
-1.200000000000013
 30
0.0
 11
16.49282032458142
 21
-0.000000000000014
 31
0.0
  0
LINE
  5
C0
330
1F
100
AcDbEntity
  8
0
  6
Continuous
 62
     1
370
    15
100
AcDbLine
 10
13.99282032458141
 20
-1.200000000000013
 30
0.0
 11
16.49282032458142
 21
-1.200000000000013
 31
0.0
  0
LINE
  5
C1
330
1F
100
AcDbEntity
  8
0
  6
Continuous
 62
     4
370
    15
100
AcDbLine
 10
13.99282032458141
 20
-1.200000000000013
 30
0.0
 11
13.99282032458141
 21
-0.000000000000014
 31
0.0
  0
LINE
  5
C2
330
1F
100
AcDbEntity
  8
0
  6
Continuous
 62
     1
370
    15
100
AcDbLine
 10
16.49282032458142
 20
-0.000000000000014
 30
0.0
 11
13.99282032458141
 21
-0.000000000000014
 31
0.0
  0
LINE
  5
C3
330
1F
100
AcDbEntity
  8
0
  6
Continuous
 62
     1
370
    15
100
AcDbLine
 10
17.09992669171706
 20
-2.04754224115449
 30
0.0
 11
13.99282032458141
 21
-2.977596809755667
 31
0.0
  0
LINE
  5
C4
330
1F
100
AcDbEntity
  8
0
  6
Continuous
 62
     4
370
    15
100
AcDbLine
 10
13.99282032458141
 20
-1.200000000000013
 30
0.0
 11
13.99282032458141
 21
-2.977596809755667
 31
0.0
  0
SPLINE
  5
C5
330
1F
100
AcDbEntity
  8
0
  6
Continuous
 62
     1
370
    15
100
AcDbSpline
210
0.0
220
0.0
230
1.0
 70
     8
 71
     3
 72
    10
 73
     6
 74
     0
 42
0.000000001
 43
0.00000001
 40
0.0
 40
0.0
 40
0.0
 40
0.0
 40
0.5
 40
0.5
 40
1.0
 40
1.0
 40
1.0
 40
1.0
 10
17.49282032458141
 20
2.545789851347716
 30
0.0
 10
17.49282032458141
 20
2.686420291647527
 30
0.0
 10
17.45651669066416
 20
2.819742074696134
 30
0.0
 10
17.32011848846306
 20
3.043919747712241
 30
0.0
 10
17.21989944663542
 20
3.134748306072226
 30
0.0
 10
17.09992669171707
 20
3.194795155026157
 30
0.0
  0
LINE
  5
C6
330
1F
100
AcDbEntity
  8
0
  6
Continuous
 62
     1
370
    15
100
AcDbLine
 10
16.49297701358097
 20
0.4011630323565417
 30
0.0
 11
17.49282032458141
 21
0.3832673422197945
 31
0.0
  0
LINE
  5
C7
330
1F
100
AcDbEntity
  8
0
  6
Continuous
 62
     1
370
    15
100
AcDbLine
 10
13.99282032458141
 20
1.445052204177484
 30
0.0
 11
16.49297701358097
 21
0.4011630323565417
 31
0.0
  0
LINE
  5
C8
330
1F
100
AcDbEntity
  8
0
  6
Continuous
 62
     1
370
    15
100
AcDbLine
 10
17.09992669171706
 20
3.194795155026156
 30
0.0
 11
13.99282032458141
 21
2.513379890910576
 31
0.0
  0
LINE
  5
C9
330
1F
100
AcDbEntity
  8
0
  6
Continuous
 62
     1
370
    15
100
AcDbLine
 10
17.49282032458141
 20
0.3832673422197945
 30
0.0
 11
17.49282032458141
 21
2.545789851347716
 31
0.0
  0
LINE
  5
CA
330
1F
100
AcDbEntity
  8
0
  6
Continuous
 62
     4
370
    15
100
AcDbLine
 10
13.99282032458141
 20
1.445052204177484
 30
0.0
 11
13.99282032458141
 21
2.513379890910576
 31
0.0
  0
LINE
  5
CB
330
1F
100
AcDbEntity
  8
0
  6
Continuous
 62
     1
370
    15
100
AcDbLine
 10
13.99282032458141
 20
3.815756805667783
 30
0.0
 11
16.49282032458142
 21
3.815756805667783
 31
0.0
  0
SPLINE
  5
CC
330
1F
100
AcDbEntity
  8
0
  6
Continuous
 62
     1
370
    15
100
AcDbSpline
210
0.0
220
0.0
230
1.0
 70
     8
 71
     3
 72
    14
 73
    10
 74
     0
 42
0.000000001
 43
0.00000001
 40
0.0
 40
0.0
 40
0.0
 40
0.0
 40
0.25
 40
0.25
 40
0.5
 40
0.5
 40
0.75
 40
0.75
 40
1.0
 40
1.0
 40
1.0
 40
1.0
 10
17.09992669171706
 20
3.194795155026156
 30
0.0
 10
17.09111526416836
 20
3.258638575019471
 30
0.0
 10
17.07623218312439
 20
3.322049597018478
 30
0.0
 10
17.03042448660716
 20
3.44772922942824
 30
0.0
 10
16.99936700282782
 20
3.510435048534331
 30
0.0
 10
16.91295473783
 20
3.629532103099525
 30
0.0
 10
16.85807187662278
 20
3.686460771308822
 30
0.0
 10
16.70529063917716
 20
3.780388778556023
 30
0.0
 10
16.60393235000348
 20
3.815756805669893
 30
0.0
 10
16.49282032458174
 20
3.815756805669959
 30
0.0
  0
LINE
  5
CD
330
1F
100
AcDbEntity
  8
0
  6
Continuous
 62
     1
370
    15
100
AcDbLine
 10
16.49297701358097
 20
0.4011630323565417
 30
0.0
 11
17.49282032458141
 21
0.1916336711098959
 31
0.0
  0
LINE
  5
CE
330
1F
100
AcDbEntity
  8
0
  6
Continuous
 62
     1
370
    15
100
AcDbLine
 10
13.99282032458141
 20
0.1916336711098959
 30
0.0
 11
17.49282032458141
 21
0.1916336711098959
 31
0.0
  0
LINE
  5
CF
330
1F
100
AcDbEntity
  8
0
  6
Continuous
 62
     4
370
    15
100
AcDbLine
 10
13.99282032458141
 20
0.1916336711098959
 30
0.0
 11
13.99282032458141
 21
1.445052204177484
 31
0.0
  0
LINE
  5
D0
330
1F
100
AcDbEntity
  8
0
  6
Continuous
 62
     1
370
    15
100
AcDbLine
 10
16.49282032458142
 20
3.815756805667783
 30
0.0
 11
16.49282032458142
 21
4.0
 31
0.0
  0
ARC
  5
D1
330
1F
100
AcDbEntity
  8
0
  6
Continuous
 62
     1
370
    15
100
AcDbCircle
 10
16.49282032458142
 20
3.0
 30
0.0
 40
1.0
100
AcDbArc
 50
0.0000000000000254
 51
90.0
  0
LINE
  5
D2
330
1F
100
AcDbEntity
  8
0
  6
Continuous
 62
     1
370
    15
100
AcDbLine
 10
17.49282032458141
 20
2.545789851347716
 30
0.0
 11
17.49282032458141
 21
3.0
 31
0.0
  0
LINE
  5
D3
330
1F
100
AcDbEntity
  8
0
  6
Continuous
 62
     1
370
    15
100
AcDbLine
 10
16.49282032458142
 20
4.0
 30
0.0
 11
13.99282032458141
 21
4.0
 31
0.0
  0
LINE
  5
D4
330
1F
100
AcDbEntity
  8
0
  6
Continuous
 62
     4
370
    15
100
AcDbLine
 10
13.99282032458141
 20
3.815756805667783
 30
0.0
 11
13.99282032458141
 21
4.0
 31
0.0
  0
LINE
  5
D5
330
1F
100
AcDbEntity
  8
0
  6
Continuous
 62
     1
370
    15
100
AcDbLine
 10
17.49282032458141
 20
0.1916336711098959
 30
0.0
 11
17.49282032458141
 21
0.3832673422197945
 31
0.0
  0
LINE
  5
D6
330
1F
100
AcDbEntity
  8
0
  6
Continuous
 62
     1
370
    15
100
AcDbLine
 10
17.49282032458141
 20
-0.0000000000000028
 30
0.0
 11
17.49282032458141
 21
0.1916336711098959
 31
0.0
  0
LINE
  5
D7
330
1F
100
AcDbEntity
  8
0
  6
Continuous
 62
     1
370
    15
100
AcDbLine
 10
16.49282032458142
 20
-4.0
 30
0.0
 11
13.99282032458141
 21
-4.0
 31
0.0
  0
ARC
  5
D8
330
1F
100
AcDbEntity
  8
0
  6
Continuous
 62
     1
370
    15
100
AcDbCircle
 10
16.49282032458142
 20
-3.0
 30
0.0
 40
1.0
100
AcDbArc
 50
270.0000000000008
 51
0.0000000000007633
  0
LINE
  5
D9
330
1F
100
AcDbEntity
  8
0
  6
Continuous
 62
     1
370
    15
100
AcDbLine
 10
17.49282032458141
 20
-1.587121303736732
 30
0.0
 11
17.49282032458141
 21
-3.0
 31
0.0
  0
LINE
  5
DA
330
1F
100
AcDbEntity
  8
중심선
100
AcDbLine
 10
-85.5071796754186
 20
0.0
 30
0.0
 11
20.49282032458141
 21
0.0
 31
0.0
  0
CIRCLE
  5
DB
330
1F
100
AcDbEntity
  8
외형선
100
AcDbCircle
 10
0.0
 20
0.0
 30
0.0
 40
3.000000000000001
  0
INSERT
  5
DC
330
1F
100
AcDbEntity
  8
0
  6
Continuous
 62
     7
100
AcDbBlockReference
 66
     1
  2
블럭10
 10
-46.44745260754381
 20
-52.04717430164394
 30
0.0
  0
ATTRIB
  5
DD
330
DC
100
AcDbEntity
  8
FORMAT
 62
     2
100
AcDbText
 10
-59.75233133229735
 20
-49.97180738881175
 30
0.0
 40
4.233333333333333
  1
G8B5408010 [ 4 FLUTE ]
 41
0.75
  7
SLDTEXTSTYLE0
 11
-59.75233133229735
 21
-52.08847405547841
 31
0.0
100
AcDbAttribute
  2
AUTOATTR0
 70
     0
 74
     1
  0
SEQEND
  5
DE
330
DC
100
AcDbEntity
  8
0
  6
Continuous
 62
     7
  0
HATCH
  5
DF
330
1F
100
AcDbEntity
  8
중심선
100
AcDbHatch
 10
0.0
 20
0.0
 30
0.0
210
0.0
220
0.0
230
1.0
  2
SOLID
 70
     1
 71
     0
 91
        1
 92
        0
 93
        4
 72
     1
 10
-40.73254330316295
 20
-35.8
 11
-44.17881854700023
 21
-35.8
 72
     1
 10
-44.17881854700023
 20
-35.8
 11
-46.30704840620425
 21
-38.33632558057259
 72
     1
 10
-46.30704840620425
 20
-38.33632558057259
 11
-42.86074007725382
 21
-38.3362861512701
 72
     1
 10
-42.86074007725382
 20
-38.3362861512701
 11
-40.73254330316295
 21
-35.8
 97
        0
 75
     0
 76
     1
 98
        1
 10
0.0
 20
0.0
  0
HATCH
  5
E0
330
1F
100
AcDbEntity
  8
중심선
100
AcDbHatch
 10
0.0
 20
0.0
 30
0.0
210
0.0
220
0.0
230
1.0
  2
SOLID
 70
     1
 71
     0
 91
        1
 92
        0
 93
        4
 72
     1
 10
-35.71977931212697
 20
-35.80000000000003
 11
-39.16605455596425
 21
-35.79999999999997
 72
     1
 10
-39.16605455596425
 20
-35.79999999999997
 11
-43.69719256432167
 21
-41.20000000000002
 72
     1
 10
-43.69719256432167
 20
-41.20000000000002
 11
-40.25091732048438
 21
-41.20000000000002
 72
     1
 10
-40.25091732048438
 20
-41.20000000000002
 11
-35.71977931212697
 21
-35.80000000000003
 97
        0
 75
     0
 76
     1
 98
        1
 10
0.0
 20
0.0
  0
HATCH
  5
E1
330
1F
100
AcDbEntity
  8
중심선
100
AcDbHatch
 10
0.0
 20
0.0
 30
0.0
210
0.0
220
0.0
230
1.0
  2
SOLID
 70
     1
 71
     0
 91
        1
 92
        0
 93
        4
 72
     1
 10
-30.70701532109107
 20
-35.8
 11
-34.15329056492819
 21
-35.79999999999997
 72
     1
 10
-34.15329056492819
 20
-35.79999999999997
 11
-41.20172746681747
 21
-44.20000000000002
 72
     1
 10
-41.20172746681747
 20
-44.20000000000002
 11
-37.75545222298018
 21
-44.20000000000002
 72
     1
 10
-37.75545222298018
 20
-44.20000000000002
 11
-30.70701532109107
 21
-35.8
 97
        0
 75
     0
 76
     1
 98
        1
 10
0.0
 20
0.0
  0
HATCH
  5
E2
330
1F
100
AcDbEntity
  8
중심선
100
AcDbHatch
 10
0.0
 20
0.0
 30
0.0
210
0.0
220
0.0
230
1.0
  2
SOLID
 70
     1
 71
     0
 91
        1
 92
        0
 93
        6
 72
     3
 10
-25.9071248900789
 20
-40.00000000005127
 11
3.960054785062284
 21
1.540850780301639E-10
 40
0.3939339440162633
 50
17.09539180608432
 51
320.0019657685082
 73
     0
 72
     1
 10
-24.22412523437833
 20
-38.58789400463833
 11
-21.91882336067727
 21
-36.65356729459038
 72
     3
 10
-25.90712489013175
 20
-40.00000000000015
 11
6.600054785286829
 21
-1.249000902703301E-13
 40
0.6363583540795982
 50
39.99873849337406
 51
368.4976242363725
 73
     1
 72
     1
 10
-19.48179239823114
 20
-39.03999999993002
 11
-27.22705758329583
 21
-39.03999999992999
 72
     1
 10
-27.22705758329583
 20
-39.03999999992999
 11
-27.22708262774176
 21
-40.95999999992991
 72
     1
 10
-27.22708262774176
 20
-40.95999999992991
 11
-22.78570285826972
 21
-40.95999999992988
 97
        0
 75
     0
 76
     1
 98
        1
 10
0.0
 20
0.0
  0
POINT
  5
E3
330
1F
100
AcDbEntity
  8
치수문자_일반주서
100
AcDbPoint
 10
0.0
 20
0.0
 30
0.0
  0
POINT
  5
E4
330
1F
100
AcDbEntity
  8
FORMAT
100
AcDbPoint
 10
-32.50717967541859
 20
0.0
 30
0.0
  0
DIMENSION
  5
E5
330
1F
100
AcDbEntity
  8
치수문자_일반주서
100
AcDbDimension
  2
_D
 10
13.99282032458141
 20
25.94962154344662
 30
0.0
 11
15.58598055652755
 21
25.94962154344662
 31
0.0
 70
   160
  1
<>
 71
     2
 42
3.499999999999995
  3
SLDDIMSTYLE0
100
AcDbAlignedDimension
 13
17.49282032458141
 23
3.0
 33
0.0
 14
13.99282032458141
 24
3.815756805667783
 34
0.0
100
AcDbRotatedDimension
  0
DIMENSION
  5
F2
330
1F
100
AcDbEntity
  8
치수문자_일반주서
100
AcDbDimension
  2
_D_1
 10
1.492820323027573
 20
35.11032187228074
 30
0.0
 11
9.492820323804487
 21
35.11032187228074
 31
0.0
 70
   160
  1
<>
 71
     2
 42
16.00000000155384
  3
SLDDIMSTYLE1
100
AcDbAlignedDimension
 13
17.49282032458141
 23
2.545789851347716
 33
0.0
 14
1.492820323027572
 24
3.6
 34
0.0
100
AcDbRotatedDimension
  0
DIMENSION
  5
FE
330
1F
100
AcDbEntity
  8
치수문자_일반주서
100
AcDbDimension
  2
_D_2
 10
-82.5071796754186
 20
45.50000000000004
 30
0.0
 11
-33.35233116444951
 21
45.50000000000004
 31
0.0
 70
   160
  1
<>
 71
     2
 42
-1.0
  3
SLDDIMSTYLE1
100
AcDbAlignedDimension
 13
17.49282032458141
 23
3.0
 33
0.0
 14
-82.5071796754186
 24
3.189999999999996
 34
0.0
100
AcDbRotatedDimension
  0
DIMENSION
  5
108
330
1F
100
AcDbEntity
  8
치수문자_일반주서
100
AcDbDimension
  2
_D_3
 10
-95.2471796754186
 20
-4.000000000000001
 30
0.0
 11
-95.2471796754186
 21
-1.286728945235257
 31
0.0
 70
   160
  1
%%c<>
 71
     2
 42
-1.0
  3
SLDDIMSTYLE2
100
AcDbAlignedDimension
 13
-81.6971796754186
 23
4.0
 33
0.0
 14
-81.6971796754186
 24
-4.0
 34
0.0
 50
90.0000000000002
100
AcDbRotatedDimension
  0
DIMENSION
  5
116
330
1F
100
AcDbEntity
  8
치수문자_일반주서
100
AcDbDimension
  2
_D_4
 10
30.49282032458142
 20
-4.000000000000001
 30
0.0
 11
30.49282032458142
 21
0.5680105718932618
 31
0.0
 70
   160
  1
%%c<>
 71
     2
 42
-1.0
  3
SLDDIMSTYLE2
100
AcDbAlignedDimension
 13
16.49282032458141
 23
4.0
 33
0.0
 14
16.49282032458141
 24
-4.0
 34
0.0
 50
90.0000000000002
100
AcDbRotatedDimension
  0
DIMENSION
  5
123
330
1F
100
AcDbEntity
  8
치수문자_일반주서
100
AcDbDimension
  2
_D_5
 10
16.49282032458141
 20
-3.0
 30
0.0
 11
32.92639220298737
 21
-16.97447787223954
 31
0.0
 70
   164
  1
<>
 71
     1
 42
-1.0
  3
SLDDIMSTYLE3
100
AcDbRadialDimension
 15
17.25462328115668
 25
-3.647808810802369
 35
0.0
 40
0.0
  0
INSERT
  5
132
330
1F
100
AcDbEntity
  8
외형선
100
AcDbBlockReference
  2
SW_DOWELSYMBOL_0
 10
0.0
 20
0.0
 30
0.0
  0
ENDSEC
  0
SECTION
  2
OBJECTS
  0
DICTIONARY
  5
C
330
0
100
AcDbDictionary
281
     1
  3
ACAD_GROUP
350
D
  3
ACAD_IMAGE_VARS
350
156
  3
ACAD_LAYOUT
350
1A
  3
ACAD_MLINESTYLE
350
17
  3
ACAD_PLOTSETTINGS
350
19
  3
ACAD_PLOTSTYLENAME
350
E
  3
ACAD_SCALELIST
350
47
  3
APPDATA
350
154
  3
DWGPROPS
350
15B
  0
DICTIONARY
  5
D
102
{ACAD_REACTORS
330
C
102
}
330
C
100
AcDbDictionary
281
     1
  0
RASTERVARIABLES
  5
156
102
{ACAD_REACTORS
330
C
102
}
330
C
100
AcDbRasterVariables
 90
        0
 70
     1
 71
     1
 72
     1
  0
DICTIONARY
  5
1A
102
{ACAD_REACTORS
330
C
102
}
330
C
100
AcDbDictionary
281
     1
  3
Layout1
350
1E
  3
Layout2
350
26
  3
Model
350
22
  0
DICTIONARY
  5
17
102
{ACAD_REACTORS
330
C
102
}
330
C
100
AcDbDictionary
281
     1
  3
Standard
350
18
  0
DICTIONARY
  5
19
102
{ACAD_REACTORS
330
C
102
}
330
C
100
AcDbDictionary
281
     1
  0
ACDBDICTIONARYWDFLT
  5
E
102
{ACAD_REACTORS
330
C
102
}
330
C
100
AcDbDictionary
281
     1
  3
Normal
350
F
100
AcDbDictionaryWithDefault
340
F
  0
DICTIONARY
  5
47
102
{ACAD_REACTORS
330
C
102
}
330
C
100
AcDbDictionary
281
     1
  3
A0
350
48
  3
A1
350
49
  3
A2
350
4A
  3
A3
350
4B
  3
A4
350
4C
  3
A5
350
4D
  3
A6
350
4E
  3
A7
350
4F
  3
A8
350
50
  3
A9
350
51
  3
B0
350
52
  3
B1
350
53
  3
B2
350
54
  3
B3
350
55
  3
B4
350
56
  3
B5
350
57
  3
B6
350
58
  3
B7
350
59
  3
B8
350
5A
  3
B9
350
5B
  3
C0
350
5C
  3
C1
350
5D
  3
C2
350
5E
  3
C3
350
5F
  3
C4
350
60
  3
C5
350
61
  3
C6
350
62
  3
C7
350
63
  3
C8
350
64
  3
C9
350
65
  3
D0
350
66
  3
D1
350
67
  3
D2
350
68
  0
DICTIONARY
  5
154
102
{ACAD_REACTORS
330
C
102
}
330
C
100
AcDbDictionary
281
     1
  0
XRECORD
  5
15B
102
{ACAD_REACTORS
330
C
102
}
330
C
100
AcDbXrecord
280
     1
  1
DWGPROPS COOKIE
  2

  3

  4

  6

  7

  8
12016016
  9

300
=
301
=
302
=
303
=
304
=
305
=
306
=
307
=
308
=
309
=
 40
0.0
 41
2458281.059016424
 42
2458281.353260382
  1

 90
        0
  0
LAYOUT
  5
1E
102
{ACAD_REACTORS
330
1A
102
}
330
1A
100
AcDbPlotSettings
  1

  2
none_device
  4

  6

 40
0.0
 41
0.0
 42
0.0
 43
0.0
 44
0.0
 45
0.0
 46
0.0
 47
0.0
 48
0.0
 49
0.0
140
0.0
141
0.0
142
1.0
143
1.0
 70
   688
 72
     1
 73
     0
 74
     5
  7

 75
    16
147
1.0
148
0.0
149
0.0
100
AcDbLayout
  1
Layout1
 70
     1
 71
     1
 10
0.0
 20
0.0
 11
420.0
 21
297.0
 12
0.0
 22
0.0
 32
0.0
 14
1.000000000000000E+20
 24
1.000000000000000E+20
 34
1.000000000000000E+20
 15
-1.000000000000000E+20
 25
-1.000000000000000E+20
 35
-1.000000000000000E+20
146
0.0
 13
0.0
 23
0.0
 33
0.0
 16
1.0
 26
0.0
 36
0.0
 17
0.0
 27
1.0
 37
0.0
 76
     0
330
1B
  0
LAYOUT
  5
26
102
{ACAD_REACTORS
330
1A
102
}
330
1A
100
AcDbPlotSettings
  1

  2
none_device
  4

  6

 40
0.0
 41
0.0
 42
0.0
 43
0.0
 44
0.0
 45
0.0
 46
0.0
 47
0.0
 48
0.0
 49
0.0
140
0.0
141
0.0
142
1.0
143
1.0
 70
   688
 72
     1
 73
     0
 74
     5
  7

 75
    16
147
1.0
148
0.0
149
0.0
100
AcDbLayout
  1
Layout2
 70
     1
 71
     2
 10
0.0
 20
0.0
 11
0.0
 21
0.0
 12
0.0
 22
0.0
 32
0.0
 14
0.0
 24
0.0
 34
0.0
 15
0.0
 25
0.0
 35
0.0
146
0.0
 13
0.0
 23
0.0
 33
0.0
 16
1.0
 26
0.0
 36
0.0
 17
0.0
 27
1.0
 37
0.0
 76
     0
330
23
  0
LAYOUT
  5
22
102
{ACAD_REACTORS
330
1A
102
}
330
1A
100
AcDbPlotSettings
  1

  2
none_device
  4
ANSI_A_(11.00_x_8.50_Inches)
  6

 40
6.35
 41
19.05
 42
6.35000508
 43
19.05000254
 44
279.4
 45
215.9
 46
197.9100720054749
 47
89.61545575940433
 48
0.0
 49
0.0
140
0.0
141
0.0
142
0.0800174738130391
143
1.0
 70
  1696
 72
     0
 73
     0
 74
     0
  7

 75
     0
147
0.0235690232323232
148
0.0
149
0.0
100
AcDbLayout
  1
Model
 70
     1
 71
     0
 10
0.0
 20
0.0
 11
420.0
 21
297.0
 12
0.0
 22
0.0
 32
0.0
 14
-99.81238894128039
 24
-49.97180738881175
 34
0.0
 15
36.30154893905218
 25
50.01173691457894
 35
0.0
146
0.0
 13
0.0
 23
0.0
 33
0.0
 16
1.0
 26
0.0
 36
0.0
 17
0.0
 27
1.0
 37
0.0
 76
     0
330
1F
331
29
  0
MLINESTYLE
  5
18
102
{ACAD_REACTORS
330
17
102
}
330
17
100
AcDbMlineStyle
  2
Standard
 70
     0
  3

 62
   256
 51
90.0
 52
90.0
 71
     2
 49
0.5
 62
   256
  6
BYLAYER
 49
-0.5
 62
   256
  6
BYLAYER
  0
ACDBPLACEHOLDER
  5
F
102
{ACAD_REACTORS
330
E
102
}
330
E
  0
SCALE
  5
48
102
{ACAD_REACTORS
330
47
102
}
330
47
100
AcDbScale
 70
     0
300
1:1
140
1.0
141
1.0
290
     1
  0
SCALE
  5
49
102
{ACAD_REACTORS
330
47
102
}
330
47
100
AcDbScale
 70
     0
300
1:2
140
1.0
141
2.0
290
     0
  0
SCALE
  5
4A
102
{ACAD_REACTORS
330
47
102
}
330
47
100
AcDbScale
 70
     0
300
1:4
140
1.0
141
4.0
290
     0
  0
SCALE
  5
4B
102
{ACAD_REACTORS
330
47
102
}
330
47
100
AcDbScale
 70
     0
300
1:5
140
1.0
141
5.0
290
     0
  0
SCALE
  5
4C
102
{ACAD_REACTORS
330
47
102
}
330
47
100
AcDbScale
 70
     0
300
1:8
140
1.0
141
8.0
290
     0
  0
SCALE
  5
4D
102
{ACAD_REACTORS
330
47
102
}
330
47
100
AcDbScale
 70
     0
300
1:10
140
1.0
141
10.0
290
     0
  0
SCALE
  5
4E
102
{ACAD_REACTORS
330
47
102
}
330
47
100
AcDbScale
 70
     0
300
1:16
140
1.0
141
16.0
290
     0
  0
SCALE
  5
4F
102
{ACAD_REACTORS
330
47
102
}
330
47
100
AcDbScale
 70
     0
300
1:20
140
1.0
141
20.0
290
     0
  0
SCALE
  5
50
102
{ACAD_REACTORS
330
47
102
}
330
47
100
AcDbScale
 70
     0
300
1:30
140
1.0
141
30.0
290
     0
  0
SCALE
  5
51
102
{ACAD_REACTORS
330
47
102
}
330
47
100
AcDbScale
 70
     0
300
1:40
140
1.0
141
40.0
290
     0
  0
SCALE
  5
52
102
{ACAD_REACTORS
330
47
102
}
330
47
100
AcDbScale
 70
     0
300
1:50
140
1.0
141
50.0
290
     0
  0
SCALE
  5
53
102
{ACAD_REACTORS
330
47
102
}
330
47
100
AcDbScale
 70
     0
300
1:100
140
1.0
141
100.0
290
     0
  0
SCALE
  5
54
102
{ACAD_REACTORS
330
47
102
}
330
47
100
AcDbScale
 70
     0
300
2:1
140
2.0
141
1.0
290
     0
  0
SCALE
  5
55
102
{ACAD_REACTORS
330
47
102
}
330
47
100
AcDbScale
 70
     0
300
4:1
140
4.0
141
1.0
290
     0
  0
SCALE
  5
56
102
{ACAD_REACTORS
330
47
102
}
330
47
100
AcDbScale
 70
     0
300
8:1
140
8.0
141
1.0
290
     0
  0
SCALE
  5
57
102
{ACAD_REACTORS
330
47
102
}
330
47
100
AcDbScale
 70
     0
300
10:1
140
10.0
141
1.0
290
     0
  0
SCALE
  5
58
102
{ACAD_REACTORS
330
47
102
}
330
47
100
AcDbScale
 70
     0
300
100:1
140
100.0
141
1.0
290
     0
  0
SCALE
  5
59
102
{ACAD_REACTORS
330
47
102
}
330
47
100
AcDbScale
 70
     0
300
1/128" = 1'-0"
140
0.0078125
141
12.0
290
     0
  0
SCALE
  5
5A
102
{ACAD_REACTORS
330
47
102
}
330
47
100
AcDbScale
 70
     0
300
1/64" = 1'-0"
140
0.015625
141
12.0
290
     0
  0
SCALE
  5
5B
102
{ACAD_REACTORS
330
47
102
}
330
47
100
AcDbScale
 70
     0
300
1/32" = 1'-0"
140
0.03125
141
12.0
290
     0
  0
SCALE
  5
5C
102
{ACAD_REACTORS
330
47
102
}
330
47
100
AcDbScale
 70
     0
300
1/16" = 1'-0"
140
0.0625
141
12.0
290
     0
  0
SCALE
  5
5D
102
{ACAD_REACTORS
330
47
102
}
330
47
100
AcDbScale
 70
     0
300
3/32" = 1'-0"
140
0.09375
141
12.0
290
     0
  0
SCALE
  5
5E
102
{ACAD_REACTORS
330
47
102
}
330
47
100
AcDbScale
 70
     0
300
1/8" = 1'-0"
140
0.125
141
12.0
290
     0
  0
SCALE
  5
5F
102
{ACAD_REACTORS
330
47
102
}
330
47
100
AcDbScale
 70
     0
300
3/16" = 1'-0"
140
0.1875
141
12.0
290
     0
  0
SCALE
  5
60
102
{ACAD_REACTORS
330
47
102
}
330
47
100
AcDbScale
 70
     0
300
1/4" = 1'-0"
140
0.25
141
12.0
290
     0
  0
SCALE
  5
61
102
{ACAD_REACTORS
330
47
102
}
330
47
100
AcDbScale
 70
     0
300
3/8" = 1'-0"
140
0.375
141
12.0
290
     0
  0
SCALE
  5
62
102
{ACAD_REACTORS
330
47
102
}
330
47
100
AcDbScale
 70
     0
300
1/2" = 1'-0"
140
0.5
141
12.0
290
     0
  0
SCALE
  5
63
102
{ACAD_REACTORS
330
47
102
}
330
47
100
AcDbScale
 70
     0
300
3/4" = 1'-0"
140
0.75
141
12.0
290
     0
  0
SCALE
  5
64
102
{ACAD_REACTORS
330
47
102
}
330
47
100
AcDbScale
 70
     0
300
1" = 1'-0"
140
1.0
141
12.0
290
     0
  0
SCALE
  5
65
102
{ACAD_REACTORS
330
47
102
}
330
47
100
AcDbScale
 70
     0
300
1-1/2" = 1'-0"
140
1.5
141
12.0
290
     0
  0
SCALE
  5
66
102
{ACAD_REACTORS
330
47
102
}
330
47
100
AcDbScale
 70
     0
300
3" = 1'-0"
140
3.0
141
12.0
290
     0
  0
SCALE
  5
67
102
{ACAD_REACTORS
330
47
102
}
330
47
100
AcDbScale
 70
     0
300
6" = 1'-0"
140
6.0
141
12.0
290
     0
  0
SCALE
  5
68
102
{ACAD_REACTORS
330
47
102
}
330
47
100
AcDbScale
 70
     0
300
1'-0" = 1'-0"
140
12.0
141
12.0
290
     0
  0
ENDSEC
  0
EOF
