  0
SECTION
  2
HEADER
  9
$ACADVER
  1
AC1015
  9
$ACADMAINTVER
 70
     6
  9
$DWGCODEPAGE
  3
ANSI_949
  9
$INSBASE
 10
0.0
 20
0.0
 30
0.0
  9
$EXTMIN
 10
-92.05897459543864
 20
-49.97180738881175
 30
0.0
  9
$EXTMAX
 10
37.53461451189154
 20
50.87500000000002
 30
0.0
  9
$LIMMIN
 10
0.0
 20
0.0
  9
$LIMMAX
 10
420.0
 20
297.0
  9
$ORTHOMODE
 70
     1
  9
$REGENMODE
 70
     1
  9
$FILLMODE
 70
     1
  9
$QTEXTMODE
 70
     0
  9
$MIRRTEXT
 70
     1
  9
$LTSCALE
 40
1.0
  9
$ATTMODE
 70
     1
  9
$TEXTSIZE
 40
3.5
  9
$TRACEWID
 40
1.0
  9
$TEXTSTYLE
  7
Standard
  9
$CLAYER
  8
0
  9
$CELTYPE
  6
ByLayer
  9
$CECOLOR
 62
   256
  9
$CELTSCALE
 40
1.0
  9
$DISPSILH
 70
     0
  9
$DIMSCALE
 40
1.0
  9
$DIMASZ
 40
3.302
  9
$DIMEXO
 40
1.0
  9
$DIMDLI
 40
3.75
  9
$DIMRND
 40
0.0
  9
$DIMDLE
 40
0.0
  9
$DIMEXE
 40
1.0
  9
$DIMTP
 40
0.0
  9
$DIMTM
 40
0.0
  9
$DIMTXT
 40
3.5
  9
$DIMCEN
 40
2.5
  9
$DIMTSZ
 40
0.0
  9
$DIMTOL
 70
     0
  9
$DIMLIM
 70
     0
  9
$DIMTIH
 70
     1
  9
$DIMTOH
 70
     1
  9
$DIMSE1
 70
     0
  9
$DIMSE2
 70
     0
  9
$DIMTAD
 70
     1
  9
$DIMZIN
 70
     0
  9
$DIMBLK
  1

  9
$DIMASO
 70
     1
  9
$DIMSHO
 70
     1
  9
$DIMPOST
  1

  9
$DIMAPOST
  1

  9
$DIMALT
 70
     0
  9
$DIMALTD
 70
     3
  9
$DIMALTF
 40
0.0393700787401575
  9
$DIMLFAC
 40
1.0
  9
$DIMTOFL
 70
     1
  9
$DIMTVP
 40
0.0
  9
$DIMTIX
 70
     0
  9
$DIMSOXD
 70
     0
  9
$DIMSAH
 70
     0
  9
$DIMBLK1
  1

  9
$DIMBLK2
  1

  9
$DIMSTYLE
  2
ISO-25
  9
$DIMCLRD
 70
     0
  9
$DIMCLRE
 70
     0
  9
$DIMCLRT
 70
     0
  9
$DIMTFAC
 40
1.0
  9
$DIMGAP
 40
1.524
  9
$DIMJUST
 70
     0
  9
$DIMSD1
 70
     0
  9
$DIMSD2
 70
     0
  9
$DIMTOLJ
 70
     0
  9
$DIMTZIN
 70
     0
  9
$DIMALTZ
 70
     0
  9
$DIMALTTZ
 70
     0
  9
$DIMUPT
 70
     0
  9
$DIMDEC
 70
     2
  9
$DIMTDEC
 70
     2
  9
$DIMALTU
 70
     2
  9
$DIMALTTD
 70
     3
  9
$DIMTXSTY
  7
Standard
  9
$DIMAUNIT
 70
     0
  9
$DIMADEC
 70
     2
  9
$DIMALTRND
 40
0.0
  9
$DIMAZIN
 70
     0
  9
$DIMDSEP
 70
    44
  9
$DIMATFIT
 70
     3
  9
$DIMFRAC
 70
     0
  9
$DIMLDRBLK
  1

  9
$DIMLUNIT
 70
     2
  9
$DIMLWD
 70
    -2
  9
$DIMLWE
 70
    -2
  9
$DIMTMOVE
 70
     0
  9
$LUNITS
 70
     2
  9
$LUPREC
 70
     2
  9
$SKETCHINC
 40
1.0
  9
$FILLETRAD
 40
10.0
  9
$AUNITS
 70
     0
  9
$AUPREC
 70
     2
  9
$MENU
  1
.
  9
$ELEVATION
 40
0.0
  9
$PELEVATION
 40
0.0
  9
$THICKNESS
 40
0.0
  9
$LIMCHECK
 70
     0
  9
$CHAMFERA
 40
0.0
  9
$CHAMFERB
 40
0.0
  9
$CHAMFERC
 40
0.0
  9
$CHAMFERD
 40
0.0
  9
$SKPOLY
 70
     0
  9
$TDCREATE
 40
2458281.434234039
  9
$TDUCREATE
 40
2458281.059234039
  9
$TDUPDATE
 40
2458281.727093114
  9
$TDUUPDATE
 40
2458281.352093114
  9
$TDINDWG
 40
0.0013048727
  9
$TDUSRTIMER
 40
2458281.350788496
  9
$USRTIMER
 70
     1
  9
$ANGBASE
 50
0.0
  9
$ANGDIR
 70
     0
  9
$PDMODE
 70
     0
  9
$PDSIZE
 40
-1.0
  9
$PLINEWID
 40
0.0
  9
$SPLFRAME
 70
     0
  9
$SPLINETYPE
 70
     6
  9
$SPLINESEGS
 70
     8
  9
$HANDSEED
  5
16D
  9
$SURFTAB1
 70
     6
  9
$SURFTAB2
 70
     6
  9
$SURFTYPE
 70
     6
  9
$SURFU
 70
     6
  9
$SURFV
 70
     6
  9
$UCSBASE
  2

  9
$UCSNAME
  2

  9
$UCSORG
 10
0.0
 20
0.0
 30
0.0
  9
$UCSXDIR
 10
1.0
 20
0.0
 30
0.0
  9
$UCSYDIR
 10
0.0
 20
1.0
 30
0.0
  9
$UCSORTHOREF
  2

  9
$UCSORTHOVIEW
 70
     0
  9
$UCSORGTOP
 10
0.0
 20
0.0
 30
0.0
  9
$UCSORGBOTTOM
 10
0.0
 20
0.0
 30
0.0
  9
$UCSORGLEFT
 10
0.0
 20
0.0
 30
0.0
  9
$UCSORGRIGHT
 10
0.0
 20
0.0
 30
0.0
  9
$UCSORGFRONT
 10
0.0
 20
0.0
 30
0.0
  9
$UCSORGBACK
 10
0.0
 20
0.0
 30
0.0
  9
$PUCSBASE
  2

  9
$PUCSNAME
  2

  9
$PUCSORG
 10
0.0
 20
0.0
 30
0.0
  9
$PUCSXDIR
 10
1.0
 20
0.0
 30
0.0
  9
$PUCSYDIR
 10
0.0
 20
1.0
 30
0.0
  9
$PUCSORTHOREF
  2

  9
$PUCSORTHOVIEW
 70
     0
  9
$PUCSORGTOP
 10
0.0
 20
0.0
 30
0.0
  9
$PUCSORGBOTTOM
 10
0.0
 20
0.0
 30
0.0
  9
$PUCSORGLEFT
 10
0.0
 20
0.0
 30
0.0
  9
$PUCSORGRIGHT
 10
0.0
 20
0.0
 30
0.0
  9
$PUCSORGFRONT
 10
0.0
 20
0.0
 30
0.0
  9
$PUCSORGBACK
 10
0.0
 20
0.0
 30
0.0
  9
$USERI1
 70
     0
  9
$USERI2
 70
     0
  9
$USERI3
 70
     0
  9
$USERI4
 70
     0
  9
$USERI5
 70
     0
  9
$USERR1
 40
0.0
  9
$USERR2
 40
0.0
  9
$USERR3
 40
0.0
  9
$USERR4
 40
0.0
  9
$USERR5
 40
0.0
  9
$WORLDVIEW
 70
     1
  9
$SHADEDGE
 70
     3
  9
$SHADEDIF
 70
    70
  9
$TILEMODE
 70
     1
  9
$MAXACTVP
 70
    64
  9
$PINSBASE
 10
0.0
 20
0.0
 30
0.0
  9
$PLIMCHECK
 70
     0
  9
$PEXTMIN
 10
1.000000000000000E+20
 20
1.000000000000000E+20
 30
1.000000000000000E+20
  9
$PEXTMAX
 10
-1.000000000000000E+20
 20
-1.000000000000000E+20
 30
-1.000000000000000E+20
  9
$PLIMMIN
 10
0.0
 20
0.0
  9
$PLIMMAX
 10
0.0
 20
0.0
  9
$UNITMODE
 70
     0
  9
$VISRETAIN
 70
     1
  9
$PLINEGEN
 70
     0
  9
$PSLTSCALE
 70
     1
  9
$TREEDEPTH
 70
  3020
  9
$CMLSTYLE
  2
Standard
  9
$CMLJUST
 70
     0
  9
$CMLSCALE
 40
20.0
  9
$PROXYGRAPHICS
 70
     1
  9
$MEASUREMENT
 70
     1
  9
$CELWEIGHT
370
    -1
  9
$ENDCAPS
280
     0
  9
$JOINSTYLE
280
     0
  9
$LWDISPLAY
290
     1
  9
$INSUNITS
 70
     4
  9
$HYPERLINKBASE
  1

  9
$STYLESHEET
  1

  9
$XEDIT
290
     1
  9
$CEPSNTYPE
380
     0
  9
$PSTYLEMODE
290
     1
  9
$FINGERPRINTGUID
  2
{01AD9F3E-B604-498B-A741-3DF41F191A19}
  9
$VERSIONGUID
  2
{FAEB1C32-E019-11D5-929B-00C0DF256EC4}
  9
$EXTNAMES
290
     1
  9
$PSVPSCALE
 40
0.0
  9
$OLESTARTUP
290
     0
  0
ENDSEC
  0
SECTION
  2
CLASSES
  0
CLASS
  1
ACDBDICTIONARYWDFLT
  2
AcDbDictionaryWithDefault
  3
ObjectDBX Classes
 90
        0
280
     0
281
     0
  0
CLASS
  1
VISUALSTYLE
  2
AcDbVisualStyle
  3
ObjectDBX Classes
 90
     4095
280
     0
281
     0
  0
CLASS
  1
MATERIAL
  2
AcDbMaterial
  3
ObjectDBX Classes
 90
     1153
280
     0
281
     0
  0
CLASS
  1
SCALE
  2
AcDbScale
  3
ObjectDBX Classes
 90
     1153
280
     0
281
     0
  0
CLASS
  1
SUN
  2
AcDbSun
  3
SCENEOE
 90
     1153
280
     0
281
     0
  0
CLASS
  1
ACDBPLACEHOLDER
  2
AcDbPlaceHolder
  3
ObjectDBX Classes
 90
        0
280
     0
281
     0
  0
CLASS
  1
LAYOUT
  2
AcDbLayout
  3
ObjectDBX Classes
 90
        0
280
     0
281
     0
  0
CLASS
  1
TABLESTYLE
  2
AcDbTableStyle
  3
ObjectDBX Classes
 90
     4095
280
     0
281
     0
  0
CLASS
  1
MLEADERSTYLE
  2
AcDbMLeaderStyle
  3
ACDB_MLEADERSTYLE_CLASS
 90
     4095
280
     0
281
     0
  0
CLASS
  1
RASTERVARIABLES
  2
AcDbRasterVariables
  3
ISM
 90
        0
280
     0
281
     0
  0
CLASS
  1
DIMASSOC
  2
AcDbDimAssoc
  3
"AcDbDimAssoc|Product Desc:     AcDim ARX App For Dimension|Company:          Autodesk, Inc.|WEB Address:      www.autodesk.com"
 90
        0
280
     0
281
     0
  0
ENDSEC
  0
SECTION
  2
TABLES
  0
TABLE
  2
VPORT
  5
8
330
0
100
AcDbSymbolTable
 70
     1
  0
VPORT
  5
29
330
8
100
AcDbSymbolTableRecord
100
AcDbViewportTableRecord
  2
*Active
 70
     0
 10
0.0
 20
0.0
 11
1.0
 21
1.0
 12
31.63852424975343
 22
-11.19818630626454
 13
0.0
 23
0.0
 14
10.0
 24
10.0
 15
10.0
 25
10.0
 16
0.0
 26
0.0
 36
1.0
 17
0.0
 27
0.0
 37
0.0
 40
27.56740035861699
 41
1.691714836223507
 42
50.0
 43
0.0
 44
0.0
 50
0.0
 51
0.0
 71
    16
 72
  2000
 73
     1
 74
     3
 75
     0
 76
     0
 77
     0
 78
     0
281
     0
 65
     1
110
0.0
120
0.0
130
0.0
111
1.0
121
0.0
131
0.0
112
0.0
122
1.0
132
0.0
 79
     0
146
0.0
  0
ENDTAB
  0
TABLE
  2
LTYPE
  5
5
330
0
100
AcDbSymbolTable
 70
     6
  0
LTYPE
  5
14
330
5
100
AcDbSymbolTableRecord
100
AcDbLinetypeTableRecord
  2
ByBlock
 70
     0
  3

 72
    65
 73
     0
 40
0.0
  0
LTYPE
  5
15
330
5
100
AcDbSymbolTableRecord
100
AcDbLinetypeTableRecord
  2
ByLayer
 70
     0
  3

 72
    65
 73
     0
 40
0.0
  0
LTYPE
  5
16
330
5
100
AcDbSymbolTableRecord
100
AcDbLinetypeTableRecord
  2
Continuous
 70
     0
  3
Solid line
 72
    65
 73
     0
 40
0.0
  0
LTYPE
  5
6A
330
5
100
AcDbSymbolTableRecord
100
AcDbLinetypeTableRecord
  2
HIDDEN
 70
     0
  3
Hidden __ __ __ __ __ __ __ __ __ __ __ __ __ __
 72
    65
 73
     2
 40
1.905
 49
1.27
 74
     0
 49
-0.635
 74
     0
  0
LTYPE
  5
6B
330
5
100
AcDbSymbolTableRecord
100
AcDbLinetypeTableRecord
  2
PHANTOM
 70
     0
  3
Phantom ______  __  __  ______  __  __  ______
 72
    65
 73
     6
 40
12.7
 49
6.35
 74
     0
 49
-1.27
 74
     0
 49
1.27
 74
     0
 49
-1.27
 74
     0
 49
1.27
 74
     0
 49
-1.27
 74
     0
  0
LTYPE
  5
6C
330
5
100
AcDbSymbolTableRecord
100
AcDbLinetypeTableRecord
  2
CENTER
 70
     0
  3
Center ____ _ ____ _ ____ _ ____ _ ____ _ ____
 72
    65
 73
     4
 40
10.16
 49
6.35
 74
     0
 49
-1.27
 74
     0
 49
1.27
 74
     0
 49
-1.27
 74
     0
  0
LTYPE
  5
6D
330
5
100
AcDbSymbolTableRecord
100
AcDbLinetypeTableRecord
  2
CENTERX2
 70
     0
  3
Center (2x) ________  __  ________  __  _____
 72
    65
 73
     4
 40
20.32
 49
12.7
 74
     0
 49
-2.54
 74
     0
 49
2.54
 74
     0
 49
-2.54
 74
     0
  0
LTYPE
  5
6E
330
5
100
AcDbSymbolTableRecord
100
AcDbLinetypeTableRecord
  2
DOT2
 70
     0
  3
Dot (.5x) ........................................
 72
    65
 73
     2
 40
0.635
 49
0.0
 74
     0
 49
-0.635
 74
     0
  0
ENDTAB
  0
TABLE
  2
LAYER
  5
2
330
0
100
AcDbSymbolTable
 70
    17
  0
LAYER
  5
10
330
2
100
AcDbSymbolTableRecord
100
AcDbLayerTableRecord
  2
0
 70
     0
 62
     7
  6
Continuous
370
    -3
390
F
  0
LAYER
  5
6F
330
2
100
AcDbSymbolTableRecord
100
AcDbLayerTableRecord
  2
FORMAT
 70
     0
 62
     2
  6
Continuous
370
    -3
390
F
  0
LAYER
  5
70
330
2
100
AcDbSymbolTableRecord
100
AcDbLayerTableRecord
  2
외형선
 70
     0
 62
   100
  6
Continuous
370
    30
390
F
  0
LAYER
  5
71
330
2
100
AcDbSymbolTableRecord
100
AcDbLayerTableRecord
  2
숨은선
 70
     0
 62
     2
  6
HIDDEN
370
    15
390
F
  0
LAYER
  5
72
330
2
100
AcDbSymbolTableRecord
100
AcDbLayerTableRecord
  2
중심선
 70
     0
 62
     1
  6
CENTERX2
370
    -3
390
F
  0
LAYER
  5
73
330
2
100
AcDbSymbolTableRecord
100
AcDbLayerTableRecord
  2
파단선
 70
     0
 62
     4
  6
Continuous
370
    -3
390
F
  0
LAYER
  5
74
330
2
100
AcDbSymbolTableRecord
100
AcDbLayerTableRecord
  2
해칭선
 70
     0
 62
     4
  6
Continuous
370
    -3
390
F
  0
LAYER
  5
75
330
2
100
AcDbSymbolTableRecord
100
AcDbLayerTableRecord
  2
가는실선
 70
     0
 62
     4
  6
Continuous
370
    -3
390
F
  0
LAYER
  5
76
330
2
100
AcDbSymbolTableRecord
100
AcDbLayerTableRecord
  2
치수_보조선
 70
     0
 62
     4
  6
Continuous
370
    -3
390
F
  0
LAYER
  5
77
330
2
100
AcDbSymbolTableRecord
100
AcDbLayerTableRecord
  2
치수문자_일반주서
 70
     0
 62
     7
  6
Continuous
370
    15
390
F
  0
LAYER
  5
78
330
2
100
AcDbSymbolTableRecord
100
AcDbLayerTableRecord
  2
개별주서
 70
     0
 62
   100
  6
Continuous
370
    30
390
F
  0
LAYER
  5
79
330
2
100
AcDbSymbolTableRecord
100
AcDbLayerTableRecord
  2
중간선
 70
     0
 62
     2
  6
Continuous
370
    15
390
F
  0
LAYER
  5
7A
330
2
100
AcDbSymbolTableRecord
100
AcDbLayerTableRecord
  2
윤곽선
 70
     0
 62
     3
  6
Continuous
370
    40
390
F
  0
LAYER
  5
7B
330
2
100
AcDbSymbolTableRecord
100
AcDbLayerTableRecord
  2
중심마크
 70
     0
 62
   100
  6
Continuous
370
    30
390
F
  0
LAYER
  5
7C
330
2
100
AcDbSymbolTableRecord
100
AcDbLayerTableRecord
  2
가상선
 70
     0
 62
     4
  6
PHANTOM
370
    -3
390
F
  0
LAYER
  5
7D
330
2
100
AcDbSymbolTableRecord
100
AcDbLayerTableRecord
  2
특수지정선
 70
     0
 62
     5
  6
CENTERX2
370
    60
390
F
  0
LAYER
  5
153
330
2
100
AcDbSymbolTableRecord
100
AcDbLayerTableRecord
  2
Defpoints
 70
     0
 62
     7
  6
Continuous
290
     0
370
    -3
390
F
  0
ENDTAB
  0
TABLE
  2
STYLE
  5
3
330
0
100
AcDbSymbolTable
 70
     2
  0
STYLE
  5
11
330
3
100
AcDbSymbolTableRecord
100
AcDbTextStyleTableRecord
  2
Standard
 70
     0
 40
0.0
 41
1.0
 50
0.0
 71
     0
 42
3.5
  3
txt
  4

  0
STYLE
  5
93
330
3
100
AcDbSymbolTableRecord
100
AcDbTextStyleTableRecord
  2
SLDTEXTSTYLE0
 70
     0
 40
0.0
 41
0.75
 50
0.0
 71
     0
 42
3.5
  3
TXT
  4

  0
ENDTAB
  0
TABLE
  2
VIEW
  5
6
330
0
100
AcDbSymbolTable
 70
     0
  0
ENDTAB
  0
TABLE
  2
UCS
  5
7
330
0
100
AcDbSymbolTable
 70
     0
  0
ENDTAB
  0
TABLE
  2
APPID
  5
9
330
0
100
AcDbSymbolTable
 70
     2
  0
APPID
  5
12
330
9
100
AcDbSymbolTableRecord
100
AcDbRegAppTableRecord
  2
ACAD
 70
     0
  0
APPID
  5
15E
330
9
100
AcDbSymbolTableRecord
100
AcDbRegAppTableRecord
  2
ACAD_DSTYLE_DIMRADIAL_EXTENSION
 70
     0
  0
ENDTAB
  0
TABLE
  2
DIMSTYLE
  5
A
330
0
100
AcDbSymbolTable
 70
     4
100
AcDbDimStyleTable
  0
DIMSTYLE
105
27
330
A
100
AcDbSymbolTableRecord
100
AcDbDimStyleTableRecord
  2
ISO-25
 70
     0
 41
2.5
 42
0.625
 43
3.75
 44
1.25
 73
     0
 74
     0
 77
     1
 78
     8
140
2.5
141
2.5
143
0.03937007874016
147
0.625
171
     3
172
     1
178
     0
271
     2
272
     2
274
     3
278
    44
283
     0
284
     8
340
11
  0
DIMSTYLE
105
E3
102
{ACAD_REACTORS
330
E2
330
105
330
112
330
15F
102
}
330
A
100
AcDbSymbolTableRecord
100
AcDbDimStyleTableRecord
  2
SLDDIMSTYLE0
 70
     0
 41
3.302
 44
0.0
 45
0.000000001
 73
     0
 74
     0
 77
     1
 78
    12
 79
     3
140
3.5
147
0.875
172
     1
173
     1
178
     0
271
     2
272
     2
276
     2
284
    12
289
     0
340
93
  0
DIMSTYLE
105
F0
102
{ACAD_REACTORS
330
EF
330
FB
102
}
330
A
100
AcDbSymbolTableRecord
100
AcDbDimStyleTableRecord
  2
SLDDIMSTYLE1
 70
     0
 41
3.302
 44
0.0
 45
0.000000001
 73
     0
 74
     0
 77
     1
 78
    12
 79
     3
140
3.5
147
0.875
173
     1
178
     0
271
     2
272
     2
276
     2
284
    12
340
93
  0
DIMSTYLE
105
120
330
A
100
AcDbSymbolTableRecord
100
AcDbDimStyleTableRecord
  2
SLDDIMSTYLE2
 70
     0
 41
3.302
 44
0.0
 45
0.000000001
 73
     0
 74
     0
 77
     1
 78
    12
 79
     3
140
3.5
141
0.0
147
0.875
173
     1
178
     0
271
     2
272
     2
276
     2
284
    12
340
93
  0
ENDTAB
  0
TABLE
  2
BLOCK_RECORD
  5
1
330
0
100
AcDbSymbolTable
 70
    10
  0
BLOCK_RECORD
  5
1F
330
1
100
AcDbSymbolTableRecord
100
AcDbBlockTableRecord
  2
*Model_Space
340
22
  0
BLOCK_RECORD
  5
1B
330
1
100
AcDbSymbolTableRecord
100
AcDbBlockTableRecord
  2
*Paper_Space
340
1E
  0
BLOCK_RECORD
  5
23
330
1
100
AcDbSymbolTableRecord
100
AcDbBlockTableRecord
  2
*Paper_Space0
340
26
  0
BLOCK_RECORD
  5
7E
330
1
100
AcDbSymbolTableRecord
100
AcDbBlockTableRecord
  2
블럭10
340
0
102
{BLKREFS
331
D9
102
}
  0
BLOCK_RECORD
  5
E4
330
1
100
AcDbSymbolTableRecord
100
AcDbBlockTableRecord
  2
_D
340
0
  0
BLOCK_RECORD
  5
F1
330
1
100
AcDbSymbolTableRecord
100
AcDbBlockTableRecord
  2
_D_1
340
0
  0
BLOCK_RECORD
  5
FC
330
1
100
AcDbSymbolTableRecord
100
AcDbBlockTableRecord
  2
_D_2
340
0
  0
BLOCK_RECORD
  5
106
330
1
100
AcDbSymbolTableRecord
100
AcDbBlockTableRecord
  2
_D_3
340
0
  0
BLOCK_RECORD
  5
113
330
1
100
AcDbSymbolTableRecord
100
AcDbBlockTableRecord
  2
_D_4
340
0
  0
BLOCK_RECORD
  5
121
330
1
100
AcDbSymbolTableRecord
100
AcDbBlockTableRecord
  2
_D_5
340
0
  0
BLOCK_RECORD
  5
128
330
1
100
AcDbSymbolTableRecord
100
AcDbBlockTableRecord
  2
SW_DOWELSYMBOL_0
340
0
102
{BLKREFS
331
12E
102
}
  0
BLOCK_RECORD
  5
162
330
1
100
AcDbSymbolTableRecord
100
AcDbBlockTableRecord
  2
*D9
340
0
  0
ENDTAB
  0
ENDSEC
  0
SECTION
  2
BLOCKS
  0
BLOCK
  5
20
330
1F
100
AcDbEntity
  8
0
100
AcDbBlockBegin
  2
*Model_Space
 70
     0
 10
0.0
 20
0.0
 30
0.0
  3
*Model_Space
  1
*Model_Space
  0
ENDBLK
  5
21
330
1F
100
AcDbEntity
  8
0
100
AcDbBlockEnd
  0
BLOCK
  5
1C
330
1B
100
AcDbEntity
 67
     1
  8
0
100
AcDbBlockBegin
  2
*Paper_Space
 70
     0
 10
0.0
 20
0.0
 30
0.0
  3
*Paper_Space
  1
*Paper_Space
  0
ENDBLK
  5
1D
330
1B
100
AcDbEntity
 67
     1
  8
0
100
AcDbBlockEnd
  0
BLOCK
  5
24
330
23
100
AcDbEntity
  8
0
100
AcDbBlockBegin
  2
*Paper_Space0
 70
     0
 10
0.0
 20
0.0
 30
0.0
  3
*Paper_Space0
  1
*Paper_Space0
  0
ENDBLK
  5
25
330
23
100
AcDbEntity
  8
0
100
AcDbBlockEnd
  0
BLOCK
  5
7F
330
7E
100
AcDbEntity
  8
0
100
AcDbBlockBegin
  2
블럭10
 70
     2
 10
0.0
 20
0.0
 30
0.0
  3
블럭10
  1
블럭10
  0
ELLIPSE
  5
81
330
7E
100
AcDbEntity
  8
중심선
100
AcDbEllipse
 10
20.54032771741204
 20
12.0471743016438
 30
0.0
 11
6.600054785286829
 21
-1.261213355974178E-13
 31
0.0
210
0.0
220
0.0
230
1.0
 40
0.636358354079598
 41
0.9219305317359503
 42
6.513795318482858
  0
ELLIPSE
  5
82
330
7E
100
AcDbEntity
  8
중심선
100
AcDbEllipse
 10
20.54032771746488
 20
12.04717430159265
 30
0.0
 11
3.960054785062283
 21
1.540847449632565E-10
 31
0.0
210
0.0
220
0.0
230
1.0
 40
0.3939339440162632
 41
1.131841032648279
 42
5.62031148352944
  0
LINE
  5
83
330
7E
100
AcDbEntity
  8
중심선
100
AcDbLine
 10
2.268634060543552
 20
16.24717430164393
 30
0.0
 11
5.714909304380834
 21
16.24717430164393
 31
0.0
  0
LINE
  5
84
330
7E
100
AcDbEntity
  8
중심선
100
AcDbLine
 10
5.245725140726316
 20
7.84717430164391
 30
0.0
 11
8.692000384563599
 21
7.84717430164391
 31
0.0
  0
LINE
  5
85
330
7E
100
AcDbEntity
  8
중심선
100
AcDbLine
 10
15.74043728645272
 20
16.24717430164393
 30
0.0
 11
8.692000384563599
 21
7.84717430164391
 31
0.0
  0
LINE
  5
86
330
7E
100
AcDbEntity
  8
중심선
100
AcDbLine
 10
0.1404042013395286
 20
13.71084872107135
 30
0.0
 11
3.58671253028996
 21
13.71088815037384
 31
0.0
  0
LINE
  5
87
330
7E
100
AcDbEntity
  8
중심선
100
AcDbLine
 10
2.750260043222114
 20
10.84717430164391
 30
0.0
 11
6.196535287059397
 21
10.84717430164391
 31
0.0
  0
LINE
  5
88
330
7E
100
AcDbEntity
  8
중심선
100
AcDbLine
 10
12.29416204261559
 20
16.24717430164393
 30
0.0
 11
5.245725140726316
 21
7.84717430164391
 31
0.0
  0
LINE
  5
89
330
7E
100
AcDbEntity
  8
중심선
100
AcDbLine
 10
10.72767329541681
 20
16.24717430164393
 30
0.0
 11
6.196535287059397
 21
10.84717430164391
 31
0.0
  0
LINE
  5
8A
330
7E
100
AcDbEntity
  8
중심선
100
AcDbLine
 10
7.28139805157953
 20
16.24717430164393
 30
0.0
 11
2.750260043222114
 21
10.84717430164391
 31
0.0
  0
LINE
  5
8B
330
7E
100
AcDbEntity
  8
중심선
100
AcDbLine
 10
5.714909304380834
 20
16.24717430164393
 30
0.0
 11
3.58671253028996
 21
13.71088815037384
 31
0.0
  0
LINE
  5
8C
330
7E
100
AcDbEntity
  8
중심선
100
AcDbLine
 10
2.268634060543552
 20
16.24717430164393
 30
0.0
 11
0.1404042013395286
 21
13.71084872107135
 31
0.0
  0
LINE
  5
8D
330
7E
100
AcDbEntity
  8
중심선
100
AcDbLine
 10
7.28139805157953
 20
16.24717430164393
 30
0.0
 11
10.72767329541681
 21
16.24717430164393
 31
0.0
  0
LINE
  5
8E
330
7E
100
AcDbEntity
  8
중심선
100
AcDbLine
 10
12.29416204261559
 20
16.24717430164393
 30
0.0
 11
15.74043728645272
 21
16.24717430164393
 31
0.0
  0
LINE
  5
8F
330
7E
100
AcDbEntity
  8
중심선
100
AcDbLine
 10
19.22036997980202
 20
11.08717430171403
 30
0.0
 11
23.66174974927406
 21
11.08717430171406
 31
0.0
  0
LINE
  5
90
330
7E
100
AcDbEntity
  8
중심선
100
AcDbLine
 10
19.22039502424796
 20
13.00717430171391
 30
0.0
 11
19.22036997980202
 21
11.08717430171403
 31
0.0
  0
LINE
  5
91
330
7E
100
AcDbEntity
  8
중심선
100
AcDbLine
 10
19.22039502424796
 20
13.00717430171391
 30
0.0
 11
26.96566020931264
 21
13.00717430171391
 31
0.0
  0
LINE
  5
92
330
7E
100
AcDbEntity
  8
중심선
100
AcDbLine
 10
22.22332737316547
 20
13.45928029700563
 30
0.0
 11
24.52862924686651
 21
15.39360700705356
 31
0.0
  0
ATTDEF
  5
94
330
7E
100
AcDbEntity
  8
FORMAT
 62
     2
100
AcDbText
 10
-13.30487872475355
 20
2.075366912832191
 30
0.0
 40
4.233333333333333
  1
G8B5410010 [ 4 FLUTE ]
 41
0.75
  7
SLDTEXTSTYLE0
 11
-13.30487872475355
 21
-0.0412997538344756
 31
0.0
100
AcDbAttributeDefinition
  3

  2
AUTOATTR0
 70
     0
 74
     1
  0
ENDBLK
  5
80
330
7E
100
AcDbEntity
  8
0
100
AcDbBlockEnd
  0
BLOCK
  5
E5
330
E4
100
AcDbEntity
  8
0
100
AcDbBlockBegin
  2
_D
 70
     0
 10
0.0
 20
0.0
 30
0.0
  3
_D
  1
_D
  0
LINE
  5
E7
330
E4
100
AcDbEntity
  8
치수문자_일반주서
 62
     0
370
    -2
100
AcDbLine
 10
24.86602540456137
 20
4.0625
 30
0.0
 11
24.86602540456137
 21
26.36971106383601
 31
0.0
  0
LINE
  5
E8
330
E4
100
AcDbEntity
  8
치수문자_일반주서
 62
     0
370
    -2
100
AcDbLine
 10
20.86602540456137
 20
4.832196007084728
 30
0.0
 11
20.86602540456137
 21
26.36971106383601
 31
0.0
  0
LINE
  5
E9
330
E4
100
AcDbEntity
  8
치수문자_일반주서
 62
     0
370
    -2
100
AcDbLine
 10
21.56402540456137
 20
26.36971106383601
 30
0.0
 11
24.16802540456137
 21
26.36971106383601
 31
0.0
  0
SOLID
  5
EA
330
E4
100
AcDbEntity
  8
치수문자_일반주서
 62
     0
100
AcDbTrace
 10
21.56402540456137
 20
25.81937773050268
 30
0.0
 11
21.56402540456137
 21
26.92004439716935
 31
0.0
 12
24.86602540456137
 22
26.36971106383601
 32
0.0
 13
24.86602540456137
 23
26.36971106383601
 33
0.0
  0
SOLID
  5
EB
330
E4
100
AcDbEntity
  8
치수문자_일반주서
 62
     0
100
AcDbTrace
 10
24.16802540456137
 20
26.92004439716935
 30
0.0
 11
24.16802540456137
 21
25.81937773050268
 31
0.0
 12
20.86602540456137
 22
26.36971106383601
 32
0.0
 13
20.86602540456137
 23
26.36971106383601
 33
0.0
  0
MTEXT
  5
EC
330
E4
100
AcDbEntity
  8
치수문자_일반주서
 62
     0
100
AcDbMText
 10
22.86602540456136
 20
30.74471106383601
 30
0.0
 40
3.5
 41
0.0
 71
     2
 72
     1
  1
\A1;4
  7
SLDTEXTSTYLE0
 73
     1
 44
1.0
  0
POINT
  5
ED
330
E4
100
AcDbEntity
  8
Defpoints
 62
     0
100
AcDbPoint
 10
24.86602540456137
 20
4.0
 30
0.0
  0
POINT
  5
EE
330
E4
100
AcDbEntity
  8
Defpoints
 62
     0
100
AcDbPoint
 10
20.86602540456137
 20
4.769696007084728
 30
0.0
  0
POINT
  5
156
330
E4
100
AcDbEntity
  8
Defpoints
 62
     0
100
AcDbPoint
 10
20.86602540456137
 20
26.36971106383601
 30
0.0
  0
ENDBLK
  5
E6
330
E4
100
AcDbEntity
  8
0
100
AcDbBlockEnd
  0
BLOCK
  5
F2
330
F1
100
AcDbEntity
  8
0
100
AcDbBlockBegin
  2
_D_1
 70
     0
 10
0.0
 20
0.0
 30
0.0
  3
_D_1
  1
_D_1
  0
LINE
  5
F4
330
F1
100
AcDbEntity
  8
치수문자_일반주서
 62
     0
370
    -2
100
AcDbLine
 10
24.86602540456137
 20
3.472881299028392
 30
0.0
 11
24.86602540456137
 21
35.97491331996142
 31
0.0
  0
LINE
  5
F5
330
F1
100
AcDbEntity
  8
치수문자_일반주서
 62
     0
370
    -2
100
AcDbLine
 10
4.86602540378445
 20
4.5625
 30
0.0
 11
4.86602540378445
 21
35.97491331996142
 31
0.0
  0
LINE
  5
F6
330
F1
100
AcDbEntity
  8
치수문자_일반주서
 62
     0
370
    -2
100
AcDbLine
 10
21.56402540456137
 20
35.97491331996142
 30
0.0
 11
8.16802540378445
 21
35.97491331996142
 31
0.0
  0
SOLID
  5
F7
330
F1
100
AcDbEntity
  8
치수문자_일반주서
 62
     0
100
AcDbTrace
 10
21.56402540456137
 20
35.42457998662808
 30
0.0
 11
21.56402540456137
 21
36.52524665329475
 31
0.0
 12
24.86602540456137
 22
35.97491331996142
 32
0.0
 13
24.86602540456137
 23
35.97491331996142
 33
0.0
  0
SOLID
  5
F8
330
F1
100
AcDbEntity
  8
치수문자_일반주서
 62
     0
100
AcDbTrace
 10
8.16802540378445
 20
36.52524665329475
 30
0.0
 11
8.16802540378445
 21
35.42457998662808
 31
0.0
 12
4.86602540378445
 22
35.97491331996142
 32
0.0
 13
4.86602540378445
 23
35.97491331996142
 33
0.0
  0
MTEXT
  5
F9
330
F1
100
AcDbEntity
  8
치수문자_일반주서
 62
     0
100
AcDbMText
 10
14.86602540417291
 20
40.34991331996142
 30
0.0
 40
3.5
 41
0.0
 71
     2
 72
     1
  1
\A1;20
  7
SLDTEXTSTYLE0
 73
     1
 44
1.0
  0
POINT
  5
FA
330
F1
100
AcDbEntity
  8
Defpoints
 62
     0
100
AcDbPoint
 10
24.86602540456137
 20
3.410381299028392
 30
0.0
  0
POINT
  5
154
330
F1
100
AcDbEntity
  8
Defpoints
 62
     0
100
AcDbPoint
 10
4.86602540378445
 20
4.5
 30
0.0
  0
POINT
  5
155
330
F1
100
AcDbEntity
  8
Defpoints
 62
     0
100
AcDbPoint
 10
4.86602540378445
 20
35.97491331996142
 30
0.0
  0
ENDBLK
  5
F3
330
F1
100
AcDbEntity
  8
0
100
AcDbBlockEnd
  0
BLOCK
  5
FD
330
FC
100
AcDbEntity
  8
0
100
AcDbBlockBegin
  2
_D_2
 70
     0
 10
0.0
 20
0.0
 30
0.0
  3
_D_2
  1
_D_2
  0
LINE
  5
FF
330
FC
100
AcDbEntity
  8
치수문자_일반주서
 62
     0
370
    -2
100
AcDbLine
 10
24.86602540456137
 20
4.0625
 30
0.0
 11
24.86602540456137
 21
46.50000000000002
 31
0.0
  0
LINE
  5
100
330
FC
100
AcDbEntity
  8
치수문자_일반주서
 62
     0
370
    -2
100
AcDbLine
 10
-75.13397459543864
 20
4.062499999999995
 30
0.0
 11
-75.13397459543863
 21
46.50000000000002
 31
0.0
  0
LINE
  5
101
330
FC
100
AcDbEntity
  8
치수문자_일반주서
 62
     0
370
    -2
100
AcDbLine
 10
21.56402540456137
 20
46.50000000000002
 30
0.0
 11
-71.83197459543862
 21
46.50000000000002
 31
0.0
  0
SOLID
  5
102
330
FC
100
AcDbEntity
  8
치수문자_일반주서
 62
     0
100
AcDbTrace
 10
21.56402540456137
 20
45.94966666666669
 30
0.0
 11
21.56402540456137
 21
47.05033333333336
 31
0.0
 12
24.86602540456137
 22
46.50000000000002
 32
0.0
 13
24.86602540456137
 23
46.50000000000002
 33
0.0
  0
SOLID
  5
103
330
FC
100
AcDbEntity
  8
치수문자_일반주서
 62
     0
100
AcDbTrace
 10
-71.83197459543862
 20
47.05033333333336
 30
0.0
 11
-71.83197459543862
 21
45.94966666666669
 31
0.0
 12
-75.13397459543863
 22
46.50000000000002
 32
0.0
 13
-75.13397459543863
 23
46.50000000000002
 33
0.0
  0
MTEXT
  5
104
330
FC
100
AcDbEntity
  8
치수문자_일반주서
 62
     0
100
AcDbMText
 10
-25.97912608446957
 20
50.87500000000002
 30
0.0
 40
3.5
 41
0.0
 71
     2
 72
     1
  1
\A1;100
  7
SLDTEXTSTYLE0
 73
     1
 44
1.0
  0
POINT
  5
15A
330
FC
100
AcDbEntity
  8
Defpoints
 62
     0
100
AcDbPoint
 10
24.86602540456137
 20
4.0
 30
0.0
  0
POINT
  5
15B
330
FC
100
AcDbEntity
  8
Defpoints
 62
     0
100
AcDbPoint
 10
-75.13397459543864
 20
3.999999999999994
 30
0.0
  0
POINT
  5
15C
330
FC
100
AcDbEntity
  8
Defpoints
 62
     0
100
AcDbPoint
 10
-75.13397459543864
 20
46.5
 30
0.0
  0
ENDBLK
  5
FE
330
FC
100
AcDbEntity
  8
0
100
AcDbBlockEnd
  0
BLOCK
  5
107
330
106
100
AcDbEntity
  8
0
100
AcDbBlockBegin
  2
_D_3
 70
     0
 10
0.0
 20
0.0
 30
0.0
  3
_D_3
  1
_D_3
  0
LINE
  5
109
330
106
100
AcDbEntity
  8
치수문자_일반주서
 62
     0
370
    -2
100
AcDbLine
 10
-74.19647459543864
 20
4.999999999999999
 30
0.0
 11
-87.68397459543866
 21
4.999999999999948
 31
0.0
  0
LINE
  5
10A
330
106
100
AcDbEntity
  8
치수문자_일반주서
 62
     0
370
    -2
100
AcDbLine
 10
-74.19647459543864
 20
-4.999999999999999
 30
0.0
 11
-87.68397459543863
 21
-5.00000000000005
 31
0.0
  0
LINE
  5
10B
330
106
100
AcDbEntity
  8
치수문자_일반주서
 62
     0
370
    -2
100
AcDbLine
 10
-87.68397459543864
 20
1.697999999999949
 30
0.0
 11
-87.68397459543864
 21
-1.69800000000005
 31
0.0
  0
SOLID
  5
10C
330
106
100
AcDbEntity
  8
치수문자_일반주서
 62
     0
100
AcDbTrace
 10
-87.13364126210531
 20
1.69799999999995
 30
0.0
 11
-88.23430792877197
 21
1.697999999999947
 31
0.0
 12
-87.68397459543866
 22
4.999999999999948
 32
0.0
 13
-87.68397459543866
 23
4.999999999999948
 33
0.0
  0
SOLID
  5
10D
330
106
100
AcDbEntity
  8
치수문자_일반주서
 62
     0
100
AcDbTrace
 10
-88.23430792877197
 20
-1.698000000000052
 30
0.0
 11
-87.13364126210531
 21
-1.698000000000049
 31
0.0
 12
-87.68397459543863
 22
-5.00000000000005
 32
0.0
 13
-87.68397459543863
 23
-5.00000000000005
 33
0.0
  0
MTEXT
  5
10E
330
106
100
AcDbEntity
  8
치수문자_일반주서
 62
     0
100
AcDbMText
 10
-92.05897459543864
 20
-1.608411181544084
 30
0.0
 40
3.5
 41
0.0
 71
     2
 72
     1
  1
\A1;%%c10
  7
SLDTEXTSTYLE0
 11
-2.842170943040401E-15
 21
1.0
 31
0.0
 73
     1
 44
1.0
  0
POINT
  5
10F
330
106
100
AcDbEntity
  8
Defpoints
 62
     0
100
AcDbPoint
 10
-74.13397459543864
 20
4.999999999999999
 30
0.0
  0
POINT
  5
110
330
106
100
AcDbEntity
  8
Defpoints
 62
     0
100
AcDbPoint
 10
-74.13397459543864
 20
-4.999999999999999
 30
0.0
  0
POINT
  5
111
330
106
100
AcDbEntity
  8
Defpoints
 62
     0
100
AcDbPoint
 10
-87.68397459543864
 20
-5.00000000000005
 30
0.0
  0
ENDBLK
  5
108
330
106
100
AcDbEntity
  8
0
100
AcDbBlockEnd
  0
BLOCK
  5
114
330
113
100
AcDbEntity
  8
0
100
AcDbBlockBegin
  2
_D_4
 70
     0
 10
0.0
 20
0.0
 30
0.0
  3
_D_4
  1
_D_4
  0
LINE
  5
116
330
113
100
AcDbEntity
  8
치수문자_일반주서
 62
     0
370
    -2
100
AcDbLine
 10
23.92852540456137
 20
5.000000000000004
 30
0.0
 11
36.36602540456137
 21
5.00000000000005
 31
0.0
  0
LINE
  5
117
330
113
100
AcDbEntity
  8
치수문자_일반주서
 62
     0
370
    -2
100
AcDbLine
 10
23.92852540456137
 20
-5.000000000000001
 30
0.0
 11
36.36602540456141
 21
-4.999999999999956
 31
0.0
  0
LINE
  5
118
330
113
100
AcDbEntity
  8
치수문자_일반주서
 62
     0
370
    -2
100
AcDbLine
 10
36.36602540456138
 20
1.69800000000005
 30
0.0
 11
36.36602540456139
 21
-1.697999999999956
 31
0.0
  0
SOLID
  5
119
330
113
100
AcDbEntity
  8
치수문자_일반주서
 62
     0
100
AcDbTrace
 10
36.91635873789472
 20
1.698000000000052
 30
0.0
 11
35.81569207122805
 21
1.698000000000048
 31
0.0
 12
36.36602540456137
 22
5.00000000000005
 32
0.0
 13
36.36602540456137
 23
5.00000000000005
 33
0.0
  0
SOLID
  5
11A
330
113
100
AcDbEntity
  8
치수문자_일반주서
 62
     0
100
AcDbTrace
 10
35.81569207122806
 20
-1.697999999999958
 30
0.0
 11
36.91635873789473
 21
-1.697999999999954
 31
0.0
 12
36.36602540456141
 22
-4.999999999999956
 32
0.0
 13
36.36602540456141
 23
-4.999999999999956
 33
0.0
  0
MTEXT
  5
11B
330
113
100
AcDbEntity
  8
치수문자_일반주서
 62
     0
100
AcDbMText
 10
31.99102540456138
 20
0.5680105718932463
 30
0.0
 40
3.5
 41
0.0
 71
     2
 72
     1
  1
\A1;%%c10
  7
SLDTEXTSTYLE0
 11
-3.552713678800500E-15
 21
1.0
 31
0.0
 73
     1
 44
1.0
  0
POINT
  5
11C
330
113
100
AcDbEntity
  8
Defpoints
 62
     0
100
AcDbPoint
 10
23.86602540456137
 20
5.000000000000004
 30
0.0
  0
POINT
  5
11D
330
113
100
AcDbEntity
  8
Defpoints
 62
     0
100
AcDbPoint
 10
23.86602540456137
 20
-5.000000000000001
 30
0.0
  0
POINT
  5
11E
330
113
100
AcDbEntity
  8
Defpoints
 62
     0
100
AcDbPoint
 10
36.36602540456141
 20
-4.999999999999954
 30
0.0
  0
ENDBLK
  5
115
330
113
100
AcDbEntity
  8
0
100
AcDbBlockEnd
  0
BLOCK
  5
122
330
121
100
AcDbEntity
  8
0
100
AcDbBlockBegin
  2
_D_5
 70
     0
 10
0.0
 20
0.0
 30
0.0
  3
_D_5
  1
_D_5
  0
SOLID
  5
124
330
121
100
AcDbEntity
  8
치수문자_일반주서
100
AcDbTrace
 10
17.01642623773195
 20
-3.295617621604739
 30
0.0
 11
19.20281272445588
 21
-5.821678216814398
 31
0.0
 12
19.86098647623109
 22
-5.047686412933926
 32
0.0
 13
19.86098647623109
 23
-5.047686412933926
 33
0.0
  0
LINE
  5
125
330
121
100
AcDbEntity
  8
치수문자_일반주서
100
AcDbLine
 10
17.01642623773195
 20
-3.295617621604739
 30
0.0
 11
34.62394448099474
 21
-18.26839418528051
 31
0.0
  0
LINE
  5
126
330
121
100
AcDbEntity
  8
치수문자_일반주서
100
AcDbLine
 10
17.01642623773195
 20
-3.295617621604739
 30
0.0
 11
15.49282032458141
 21
-2.0
 31
0.0
  0
MTEXT
  5
127
330
121
100
AcDbEntity
  8
치수문자_일반주서
100
AcDbMText
 10
33.40413116471606
 20
-11.33597586412317
 30
0.0
 40
3.5
 41
0.0
 71
     1
 72
     1
  1
R2
  7
SLDTEXTSTYLE0
 11
0.7618029565752771
 21
-0.647808810802359
 31
0.0
 73
     1
 44
1.0
  0
ENDBLK
  5
123
330
121
100
AcDbEntity
  8
0
100
AcDbBlockEnd
  0
BLOCK
  5
129
330
128
100
AcDbEntity
  8
0
100
AcDbBlockBegin
  2
SW_DOWELSYMBOL_0
 70
     0
 10
0.0
 20
0.0
 30
0.0
  3
SW_DOWELSYMBOL_0
  1
SW_DOWELSYMBOL_0
  0
CIRCLE
  5
12B
330
128
100
AcDbEntity
  8
외형선
 62
     0
100
AcDbCircle
 10
0.0
 20
0.0
 30
0.0
 40
3.000000000000001
  0
HATCH
  5
12C
330
128
100
AcDbEntity
  8
0
  6
Continuous
 62
     0
370
    30
100
AcDbHatch
 10
0.0
 20
0.0
 30
0.0
210
0.0
220
0.0
230
1.0
  2
SOLID
 70
     1
 71
     0
 91
        1
 92
        0
 93
        3
 72
     2
 10
0.0
 20
0.0
 40
3.000000000000001
 50
0.0
 51
90.0
 73
     1
 72
     1
 10
0.0
 20
3.000000000000001
 11
0.0
 21
0.0
 72
     1
 10
0.0
 20
0.0
 11
3.000000000000001
 21
0.0
 97
        0
 75
     0
 76
     1
 98
        1
 10
0.0
 20
0.0
  0
HATCH
  5
12D
330
128
100
AcDbEntity
  8
0
  6
Continuous
 62
     0
370
    30
100
AcDbHatch
 10
0.0
 20
0.0
 30
0.0
210
0.0
220
0.0
230
1.0
  2
SOLID
 70
     1
 71
     0
 91
        1
 92
        0
 93
        3
 72
     2
 10
0.0
 20
0.0
 40
3.000000000000001
 50
180.0
 51
270.0000000000008
 73
     1
 72
     1
 10
0.0
 20
-3.000000000000001
 11
0.0
 21
0.0
 72
     1
 10
0.0
 20
0.0
 11
-3.000000000000001
 21
0.0
 97
        0
 75
     0
 76
     1
 98
        1
 10
0.0
 20
0.0
  0
ENDBLK
  5
12A
330
128
100
AcDbEntity
  8
0
100
AcDbBlockEnd
  0
BLOCK
  5
163
330
162
100
AcDbEntity
  8
0
100
AcDbBlockBegin
  2
*D9
 70
     1
 10
0.0
 20
0.0
 30
0.0
  3
*D9
  1
*D9
  0
LINE
  5
165
330
162
100
AcDbEntity
  8
치수문자_일반주서
 62
     0
370
    -2
100
AcDbLine
 10
26.31080759085774
 20
-7.539808478091434
 30
0.0
 11
34.43199301522937
 21
-19.29850059327451
 31
0.0
  0
MTEXT
  5
166
330
162
100
AcDbEntity
  8
치수문자_일반주서
 62
     0
100
AcDbMText
 10
35.1001575935562
 20
-15.6468152157715
 30
0.0
 40
3.5
 41
0.0
 71
     5
 72
     1
  1
\A1;R1
  7
SLDTEXTSTYLE0
 11
0.5682896760335596
 21
-0.8228285630152079
 31
0.0
 73
     1
 44
1.0
  0
LINE
  5
167
330
162
100
AcDbEntity
  8
치수문자_일반주서
 62
     0
370
    -2
100
AcDbLine
 10
23.86602540456137
 20
-4.000000000000007
 30
0.0
 11
24.43431508059493
 21
-4.822828563015218
 31
0.0
  0
SOLID
  5
168
330
162
100
AcDbEntity
  8
치수문자_일반주서
 62
     0
100
AcDbTrace
 10
26.76363757670378
 20
-7.227059726380965
 30
0.0
 11
25.8579776050117
 21
-7.852557229801903
 31
0.0
 12
24.43431508059493
 22
-4.822828563015218
 32
0.0
 13
24.43431508059493
 23
-4.822828563015218
 33
0.0
  0
POINT
  5
169
330
162
100
AcDbEntity
  8
Defpoints
 62
     0
100
AcDbPoint
 10
24.43431508059493
 20
-4.822828563015218
 30
0.0
  0
POINT
  5
16A
330
162
100
AcDbEntity
  8
Defpoints
 62
     0
100
AcDbPoint
 10
23.86602540456137
 20
-4.000000000000007
 30
0.0
  0
ENDBLK
  5
164
330
162
100
AcDbEntity
  8
0
100
AcDbBlockEnd
  0
ENDSEC
  0
SECTION
  2
ENTITIES
  0
LINE
  5
95
330
1F
100
AcDbEntity
  8
0
  6
Continuous
 62
     4
370
    15
100
AcDbLine
 10
3.0
 20
-5.000000000000004
 30
0.0
 11
4.86602540378445
 21
-4.5
 31
0.0
  0
LINE
  5
96
330
1F
100
AcDbEntity
  8
0
  6
Continuous
 62
     4
370
    15
100
AcDbLine
 10
4.86602540378445
 20
4.5
 30
0.0
 11
3.0
 21
5.000000000000004
 31
0.0
  0
LINE
  5
97
330
1F
100
AcDbEntity
  8
0
  6
Continuous
 62
     4
370
    15
100
AcDbLine
 10
3.0
 20
4.999999999999999
 30
0.0
 11
-74.13397459543864
 21
4.999999999999999
 31
0.0
  0
LINE
  5
98
330
1F
100
AcDbEntity
  8
0
  6
Continuous
 62
     4
370
    15
100
AcDbLine
 10
-74.13397459543864
 20
-4.999999999999999
 30
0.0
 11
3.0
 21
-4.999999999999999
 31
0.0
  0
LINE
  5
99
330
1F
100
AcDbEntity
  8
0
  6
Continuous
 62
     4
370
    15
100
AcDbLine
 10
-74.13397459543864
 20
4.999999999999995
 30
0.0
 11
-75.13397459543864
 21
3.999999999999994
 31
0.0
  0
LINE
  5
9A
330
1F
100
AcDbEntity
  8
0
  6
Continuous
 62
     4
370
    15
100
AcDbLine
 10
-75.13397459543864
 20
-3.999999999999994
 30
0.0
 11
-74.13397459543864
 21
-4.999999999999995
 31
0.0
  0
LINE
  5
9B
330
1F
100
AcDbEntity
  8
0
  6
Continuous
 62
     4
370
    15
100
AcDbLine
 10
19.00000000077688
 20
4.500000000000001
 30
0.0
 11
4.86602540378445
 21
4.500000000000001
 31
0.0
  0
LINE
  5
9C
330
1F
100
AcDbEntity
  8
0
  6
Continuous
 62
     4
370
    15
100
AcDbLine
 10
4.86602540378445
 20
-4.500000000000001
 30
0.0
 11
19.00000000077688
 21
-4.500000000000001
 31
0.0
  0
LINE
  5
9D
330
1F
100
AcDbEntity
  8
0
  6
Continuous
 62
     4
370
    15
100
AcDbLine
 10
20.86602540456137
 20
5.000000000000001
 30
0.0
 11
19.00000000077688
 21
4.500000000000001
 31
0.0
  0
LINE
  5
9E
330
1F
100
AcDbEntity
  8
0
  6
Continuous
 62
     4
370
    15
100
AcDbLine
 10
19.00000000077688
 20
-4.500000000000001
 30
0.0
 11
20.86602540456137
 21
-5.000000000000001
 31
0.0
  0
ARC
  5
9F
330
1F
100
AcDbEntity
  8
0
  6
Continuous
 62
     1
370
    15
100
AcDbCircle
 10
23.86602540456137
 20
4.0
 30
0.0
 40
1.000000000000004
100
AcDbArc
 50
14.26697211991169
 51
90.0
  0
LINE
  5
A0
330
1F
100
AcDbEntity
  8
0
  6
Continuous
 62
     1
370
    15
100
AcDbLine
 10
23.86602540456137
 20
5.000000000000001
 30
0.0
 11
20.86602540456137
 21
5.000000000000001
 31
0.0
  0
LINE
  5
A1
330
1F
100
AcDbEntity
  8
0
  6
Continuous
 62
     1
370
    15
100
AcDbLine
 10
20.86602540456137
 20
-5.000000000000001
 30
0.0
 11
23.86602540456137
 21
-5.000000000000001
 31
0.0
  0
LWPOLYLINE
  5
A2
330
1F
100
AcDbEntity
  8
0
  6
Continuous
 62
     1
370
    15
100
AcDbPolyline
 90
        2
 70
   128
 43
0.0
 10
24.03317300745477
 20
-4.985931883472176
 10
24.11030274007627
 20
-4.969705410603519
  0
LINE
  5
A4
330
1F
100
AcDbEntity
  8
0
  6
Continuous
 62
     4
370
    15
100
AcDbLine
 10
4.86602540378445
 20
4.5
 30
0.0
 11
4.86602540378445
 21
-4.5
 31
0.0
  0
LINE
  5
A5
330
1F
100
AcDbEntity
  8
0
  6
Continuous
 62
     4
370
    15
100
AcDbLine
 10
3.0
 20
5.000000000000004
 30
0.0
 11
3.0
 21
-5.000000000000004
 31
0.0
  0
LINE
  5
A6
330
1F
100
AcDbEntity
  8
0
  6
Continuous
 62
     4
370
    15
100
AcDbLine
 10
-74.13397459543864
 20
4.999999999999999
 30
0.0
 11
-74.13397459543864
 21
-4.999999999999999
 31
0.0
  0
LINE
  5
A7
330
1F
100
AcDbEntity
  8
0
  6
Continuous
 62
     4
370
    15
100
AcDbLine
 10
19.00000000077688
 20
2.135058640426925
 30
0.0
 11
19.00000000077688
 21
-3.901455066966101
 31
0.0
  0
LINE
  5
A8
330
1F
100
AcDbEntity
  8
0
  6
Continuous
 62
     4
370
    15
100
AcDbLine
 10
19.00000000077689
 20
2.135058640426924
 30
0.0
 11
20.86602540456139
 21
1.455880937064788
 31
0.0
  0
SPLINE
  5
A9
330
1F
100
AcDbEntity
  8
0
  6
Continuous
 62
     4
370
    15
100
AcDbSpline
210
0.0
220
0.0
230
1.0
 70
     8
 71
     3
 72
    18
 73
    14
 74
     0
 42
0.000000001
 43
0.00000001
 40
0.0
 40
0.0
 40
0.0
 40
0.0
 40
0.2499999999999994
 40
0.2499999999999994
 40
0.3749999999999994
 40
0.3749999999999994
 40
0.4999999999999994
 40
0.4999999999999994
 40
0.6249999999999994
 40
0.6249999999999994
 40
0.7499999999999994
 40
0.7499999999999994
 40
1.0
 40
1.0
 40
1.0
 40
1.0
 10
20.86602540456122
 20
-1.499999999999893
 30
0.0
 10
20.65589895779647
 20
-1.641141009321262
 30
0.0
 10
20.45727538058524
 20
-1.793921229116273
 30
0.0
 10
20.20293119173137
 20
-2.052247142378398
 30
0.0
 10
20.12640844891051
 20
-2.142480198531661
 30
0.0
 10
19.99739801448315
 20
-2.334949551788998
 30
0.0
 10
19.9445784500234
 20
-2.438869114648087
 30
0.0
 10
19.87950116258682
 20
-2.652197125577639
 30
0.0
 10
19.86691456021617
 20
-2.764318677419757
 30
0.0
 10
19.88710592557065
 20
-2.983528547520771
 30
0.0
 10
19.91957390142878
 20
-3.092171596194063
 30
0.0
 10
20.06720157426381
 20
-3.400666916639032
 30
0.0
 10
20.22836025637605
 20
-3.583190769872854
 30
0.0
 10
20.41013402821299
 20
-3.746209342941486
 30
0.0
  0
ELLIPSE
  5
AA
330
1F
100
AcDbEntity
  8
0
  6
Continuous
 62
     4
370
    15
100
AcDbEllipse
 10
54.39700060227132
 20
9.330658055022719
 30
0.0
 11
38.40362473588504
 21
12.7930844303681
 31
0.0
210
0.0
220
0.0
230
1.0
 40
0.0937958713517016
 41
3.509845269561245
 42
3.595605093323793
  0
LINE
  5
AB
330
1F
100
AcDbEntity
  8
0
  6
Continuous
 62
     1
370
    15
100
AcDbLine
 10
20.86602540456137
 20
1.455880937064794
 30
0.0
 11
20.86602540456137
 21
-1.500000000000017
 31
0.0
  0
LINE
  5
AC
330
1F
100
AcDbEntity
  8
0
  6
Continuous
 62
     4
370
    15
100
AcDbLine
 10
-75.13397459543864
 20
3.999999999999994
 30
0.0
 11
-75.13397459543864
 21
-3.999999999999994
 31
0.0
  0
LINE
  5
AD
330
1F
100
AcDbEntity
  8
0
  6
Continuous
 62
     4
370
    15
100
AcDbLine
 10
20.86602540456136
 20
-3.609746728773089
 30
0.0
 11
20.41013402821299
 21
-3.74620934294148
 31
0.0
  0
LINE
  5
AE
330
1F
100
AcDbEntity
  8
0
  6
Continuous
 62
     1
370
    15
100
AcDbLine
 10
20.86602540456137
 20
-1.500000000000017
 30
0.0
 11
20.86602540456136
 21
-3.609746728773089
 31
0.0
  0
LINE
  5
AF
330
1F
100
AcDbEntity
  8
0
  6
Continuous
 62
     4
370
    15
100
AcDbLine
 10
19.00000000077688
 20
4.500000000000001
 30
0.0
 11
19.00000000077688
 21
2.242464795809394
 31
0.0
  0
ELLIPSE
  5
B0
330
1F
100
AcDbEntity
  8
0
  6
Continuous
 62
     4
370
    15
100
AcDbEllipse
 10
26.11105549454091
 20
0.0
 30
0.0
 11
12.34479120453586
 21
2.124047471337177
 31
0.0
210
0.0
220
0.0
230
1.0
 40
0.321363722123195
 41
2.128356359264624
 42
2.142526146589125
  0
ELLIPSE
  5
B1
330
1F
100
AcDbEntity
  8
0
  6
Continuous
 62
     4
370
    15
100
AcDbEllipse
 10
26.11105549454091
 20
0.0
 30
0.0
 11
12.35021316112903
 21
4.162588518678269
 31
0.0
210
0.0
220
0.0
230
1.0
 40
0.1384297126977413
 41
4.038798144134002
 42
4.052967931458503
  0
ELLIPSE
  5
B2
330
1F
100
AcDbEntity
  8
0
  6
Continuous
 62
     4
370
    15
100
AcDbEllipse
 10
24.86602540456137
 20
0.0
 30
0.0
 11
12.36364838754577
 21
0.0
 31
0.0
210
0.0
220
0.0
230
1.0
 40
0.3639702342662032
 41
4.204892449584735
 42
4.218041361052293
  0
LINE
  5
B3
330
1F
100
AcDbEntity
  8
0
  6
Continuous
 62
     4
370
    15
100
AcDbLine
 10
19.00000000077688
 20
-3.961252908100953
 30
0.0
 11
19.00000000077688
 21
-4.500000000000001
 31
0.0
  0
LINE
  5
B4
330
1F
100
AcDbEntity
  8
0
  6
Continuous
 62
     4
370
    15
100
AcDbLine
 10
18.85740565816215
 20
2.186958736713447
 30
0.0
 11
19.00000000077688
 21
2.135058640426927
 31
0.0
  0
ELLIPSE
  5
B5
330
1F
100
AcDbEntity
  8
0
  6
Continuous
 62
     4
370
    15
100
AcDbEllipse
 10
54.39700060227132
 20
4.350957306682806
 30
0.0
 11
38.3985585140337
 21
6.20840334307049
 31
0.0
210
0.0
220
0.0
230
1.0
 40
0.2178316143066903
 41
2.621139757463924
 42
2.706899581226484
  0
LINE
  5
B6
330
1F
100
AcDbEntity
  8
0
  6
Continuous
 62
     4
370
    15
100
AcDbLine
 10
20.86602540456136
 20
3.22396560272141
 30
0.0
 11
20.410134028213
 21
3.123984686101294
 31
0.0
  0
LINE
  5
B7
330
1F
100
AcDbEntity
  8
0
  6
Continuous
 62
     4
370
    15
100
AcDbLine
 10
20.86602540456137
 20
1.455880937064804
 30
0.0
 11
20.86602540456136
 21
3.22396560272141
 31
0.0
  0
SPLINE
  5
B8
330
1F
100
AcDbEntity
  8
0
  6
Continuous
 62
     4
370
    15
100
AcDbSpline
210
0.0
220
0.0
230
1.0
 70
     8
 71
     3
 72
    18
 73
    14
 74
     0
 42
0.000000001
 43
0.00000001
 40
0.0
 40
0.0
 40
0.0
 40
0.0
 40
0.2499999999999999
 40
0.2499999999999999
 40
0.3749999999999999
 40
0.3749999999999999
 40
0.4999999999999999
 40
0.4999999999999999
 40
0.6249999999999999
 40
0.6249999999999999
 40
0.7499999999999998
 40
0.7499999999999998
 40
1.0
 40
1.0
 40
1.0
 40
1.0
 10
20.86602540456122
 20
4.76969600708482
 30
0.0
 10
20.65589895779647
 20
4.666287410007652
 30
0.0
 10
20.45727538058524
 20
4.554351210414726
 30
0.0
 10
20.20293119173137
 20
4.365085734650058
 30
0.0
 10
20.1264084489105
 20
4.298975439763698
 30
0.0
 10
19.99739801448314
 20
4.157960536325016
 30
0.0
 10
19.9445784500234
 20
4.081822663599003
 30
0.0
 10
19.87950116258682
 20
3.925525422750606
 30
0.0
 10
19.86691456021617
 20
3.843378267690174
 30
0.0
 10
19.88710592557065
 20
3.682771614516822
 30
0.0
 10
19.91957390142878
 20
3.603173025137946
 30
0.0
 10
20.06720157426382
 20
3.377150351462368
 30
0.0
 10
20.22836025637606
 20
3.243422133938767
 30
0.0
 10
20.41013402821301
 20
3.123984686101297
 30
0.0
  0
LINE
  5
B9
330
1F
100
AcDbEntity
  8
0
  6
Continuous
 62
     4
370
    15
100
AcDbLine
 10
20.86602540456137
 20
5.000000000000001
 30
0.0
 11
20.86602540456137
 21
4.769696007084729
 31
0.0
  0
LINE
  5
BA
330
1F
100
AcDbEntity
  8
0
  6
Continuous
 62
     4
370
    15
100
AcDbLine
 10
20.86602540456137
 20
4.769696007084729
 30
0.0
 11
20.86602540456136
 21
3.22396560272141
 31
0.0
  0
ELLIPSE
  5
BB
330
1F
100
AcDbEntity
  8
0
  6
Continuous
 62
     4
370
    15
100
AcDbEllipse
 10
51.67878773837764
 20
0.0
 30
0.0
 11
36.42126068535178
 21
0.0
 31
0.0
210
0.0
220
0.0
230
1.0
 40
0.2463281585757263
 41
3.598899590803988
 42
3.703931713632773
  0
LINE
  5
BC
330
1F
100
AcDbEntity
  8
0
  6
Continuous
 62
     4
370
    15
100
AcDbLine
 10
20.86602540456137
 20
-4.783347227318051
 30
0.0
 11
20.86602540456137
 21
-3.609746728773084
 31
0.0
  0
LINE
  5
BD
330
1F
100
AcDbEntity
  8
0
  6
Continuous
 62
     4
370
    15
100
AcDbLine
 10
20.86602540456137
 20
-4.783347227318051
 30
0.0
 11
20.86602540456137
 21
-5.000000000000001
 31
0.0
  0
LINE
  5
BE
330
1F
100
AcDbEntity
  8
0
  6
Continuous
 62
     1
370
    15
100
AcDbLine
 10
23.86602540456137
 20
-1.500000000000017
 30
0.0
 11
23.86602540456137
 21
0.3639702342661862
 31
0.0
  0
LINE
  5
BF
330
1F
100
AcDbEntity
  8
0
  6
Continuous
 62
     1
370
    15
100
AcDbLine
 10
20.86602540456137
 20
-1.500000000000016
 30
0.0
 11
23.86602540456137
 21
-1.500000000000017
 31
0.0
  0
LINE
  5
C0
330
1F
100
AcDbEntity
  8
0
  6
Continuous
 62
     4
370
    15
100
AcDbLine
 10
20.86602540456137
 20
-1.500000000000016
 30
0.0
 11
20.86602540456137
 21
1.455880937064796
 31
0.0
  0
LINE
  5
C1
330
1F
100
AcDbEntity
  8
0
  6
Continuous
 62
     1
370
    15
100
AcDbLine
 10
20.86602540456137
 20
1.455880937064797
 30
0.0
 11
23.86602540456137
 21
0.3639702342661868
 31
0.0
  0
LINE
  5
C2
330
1F
100
AcDbEntity
  8
0
  6
Continuous
 62
     1
370
    15
100
AcDbLine
 10
24.86602540456137
 20
-2.090286916965558
 30
0.0
 11
24.86602540456137
 21
-0.000000000000014
 31
0.0
  0
SPLINE
  5
C3
330
1F
100
AcDbEntity
  8
0
  6
Continuous
 62
     1
370
    15
100
AcDbSpline
210
0.0
220
0.0
230
1.0
 70
     8
 71
     3
 72
    10
 73
     6
 74
     0
 42
0.000000001
 43
0.00000001
 40
0.0
 40
0.0
 40
0.0
 40
0.0
 40
0.5
 40
0.5
 40
1.0
 40
1.0
 40
1.0
 40
1.0
 10
24.86602540456137
 20
-2.090286916965558
 30
0.0
 10
24.86602540456137
 20
-2.15021503310949
 30
0.0
 10
24.83557052072407
 20
-2.219922233312316
 30
0.0
 10
24.719987529725
 20
-2.365175204849843
 30
0.0
 10
24.63432543535295
 20
-2.441277785553778
 30
0.0
 10
24.53059516906174
 20
-2.512825848470758
 30
0.0
  0
SPLINE
  5
C4
330
1F
100
AcDbEntity
  8
0
  6
Continuous
 62
     1
370
    15
100
AcDbSpline
210
0.0
220
0.0
230
1.0
 70
     8
 71
     3
 72
    16
 73
    12
 74
     0
 42
0.000000001
 43
0.00000001
 40
0.0
 40
0.0
 40
0.0
 40
0.0
 40
0.2500000000000003
 40
0.2500000000000003
 40
0.5000000000000006
 40
0.5000000000000006
 40
0.7500000000000009
 40
0.7500000000000009
 40
0.8750000000000004
 40
0.8750000000000004
 40
1.0
 40
1.0
 40
1.0
 40
1.0
 10
24.53059516906173
 20
-2.512825848470781
 30
0.0
 10
24.52012540178042
 20
-2.411918565183949
 30
0.0
 10
24.50391869508461
 20
-2.311552215562088
 30
0.0
 10
24.45573714554903
 20
-2.112306287409684
 30
0.0
 10
24.42388278739596
 20
-2.012900466408057
 30
0.0
 10
24.33318000617291
 20
-1.818848419490802
 30
0.0
 10
24.27523910596217
 20
-1.724664058735669
 30
0.0
 10
24.15226925719164
 20
-1.605769010035505
 30
0.0
 10
24.1045686466896
 20
-1.569705300908191
 30
0.0
 10
23.99370650901146
 20
-1.516347644251688
 30
0.0
 10
23.93110670639107
 20
-1.499999999999548
 30
0.0
 10
23.86602540456141
 20
-1.499999999999542
 30
0.0
  0
SPLINE
  5
C5
330
1F
100
AcDbEntity
  8
0
  6
Continuous
 62
     1
370
    15
100
AcDbSpline
210
0.0
220
0.0
230
1.0
 70
    24
 71
     3
 72
    14
 73
    10
 74
     0
 42
0.000000001
 43
0.00000001
 40
0.0
 40
0.0
 40
0.0
 40
0.0
 40
0.25
 40
0.25
 40
0.5
 40
0.5
 40
0.75
 40
0.75
 40
1.0
 40
1.0
 40
1.0
 40
1.0
 10
23.86602540456137
 20
0.3639702342661861
 30
0.0
 10
23.99382975987007
 20
0.3174532531242381
 30
0.0
 10
24.11969911235465
 20
0.2716405554134892
 30
0.0
 10
24.35873972843047
 20
0.1846368863812364
 30
0.0
 10
24.46918093737198
 20
0.1444395736901512
 30
0.0
 10
24.65681548038047
 20
0.0761461851149228
 30
0.0
 10
24.73377020684505
 20
0.0481369552957183
 30
0.0
 10
24.83808924185131
 20
0.0101679316860651
 30
0.0
 10
24.86602540456137
 20
-0.0000000000000143
 30
0.0
 10
24.86602540456137
 20
-0.0000000000000138
 30
0.0
  0
LINE
  5
C6
330
1F
100
AcDbEntity
  8
0
  6
Continuous
 62
     1
370
    15
100
AcDbLine
 10
24.53059516906172
 20
-2.512825848470781
 30
0.0
 11
20.86602540456137
 21
-3.609746728773056
 31
0.0
  0
LINE
  5
C7
330
1F
100
AcDbEntity
  8
0
  6
Continuous
 62
     4
370
    15
100
AcDbLine
 10
20.86602540456137
 20
-1.500000000000016
 30
0.0
 11
20.86602540456137
 21
-3.609746728773056
 31
0.0
  0
LINE
  5
C8
330
1F
100
AcDbEntity
  8
0
  6
Continuous
 62
     1
370
    15
100
AcDbLine
 10
20.86602540456137
 20
4.769696007084728
 30
0.0
 11
23.86602540456137
 21
4.769696007084729
 31
0.0
  0
SPLINE
  5
C9
330
1F
100
AcDbEntity
  8
0
  6
Continuous
 62
     1
370
    15
100
AcDbSpline
210
0.0
220
0.0
230
1.0
 70
     8
 71
     3
 72
    16
 73
    12
 74
     0
 42
0.000000001
 43
0.00000001
 40
0.0
 40
0.0
 40
0.0
 40
0.0
 40
0.2500000000000003
 40
0.2500000000000003
 40
0.5000000000000007
 40
0.5000000000000007
 40
0.750000000000001
 40
0.750000000000001
 40
0.8750000000000004
 40
0.8750000000000004
 40
1.0
 40
1.0
 40
1.0
 40
1.0
 10
24.53059516906173
 20
4.027637404999925
 30
0.0
 10
24.52012540178042
 20
4.101568296168492
 30
0.0
 10
24.50391869508461
 20
4.175102866015028
 30
0.0
 10
24.45573714554903
 20
4.321082705628226
 30
0.0
 10
24.42388278739596
 20
4.393913533043358
 30
0.0
 10
24.33318000617291
 20
4.536088015344075
 30
0.0
 10
24.27523910596217
 20
4.605093279364271
 30
0.0
 10
24.15226925719164
 20
4.692203115439701
 30
0.0
 10
24.1045686466896
 20
4.718625610107877
 30
0.0
 10
23.99370650901146
 20
4.757718715964947
 30
0.0
 10
23.93110670639107
 20
4.769696007085075
 30
0.0
 10
23.86602540456141
 20
4.769696007085079
 30
0.0
  0
LINE
  5
CA
330
1F
100
AcDbEntity
  8
0
  6
Continuous
 62
     1
370
    15
100
AcDbLine
 10
24.53059516906172
 20
4.027637404999924
 30
0.0
 11
20.86602540456136
 21
3.223965602721413
 31
0.0
  0
SPLINE
  5
CB
330
1F
100
AcDbEntity
  8
0
  6
Continuous
 62
     1
370
    15
100
AcDbSpline
210
0.0
220
0.0
230
1.0
 70
     8
 71
     3
 72
    10
 73
     6
 74
     0
 42
0.000000001
 43
0.00000001
 40
0.0
 40
0.0
 40
0.0
 40
0.0
 40
0.5
 40
0.5
 40
1.0
 40
1.0
 40
1.0
 40
1.0
 10
24.86602540456137
 20
3.410381299028393
 30
0.0
 10
24.86602540456137
 20
3.538897558832153
 30
0.0
 10
24.83557052072407
 20
3.662156565522902
 30
0.0
 10
24.719987529725
 20
3.874109382030655
 30
0.0
 10
24.63432543535295
 20
3.963537389219843
 30
0.0
 10
24.53059516906174
 20
4.027637404999952
 30
0.0
  0
LINE
  5
CC
330
1F
100
AcDbEntity
  8
0
  6
Continuous
 62
     1
370
    15
100
AcDbLine
 10
23.48167608356841
 20
0.5038619466680648
 30
0.0
 11
24.86602540456137
 21
0.4790841777747399
 31
0.0
  0
LINE
  5
CD
330
1F
100
AcDbEntity
  8
0
  6
Continuous
 62
     1
370
    15
100
AcDbLine
 10
24.86602540456137
 20
0.4790841777747399
 30
0.0
 11
24.86602540456137
 21
3.410381299028392
 31
0.0
  0
LINE
  5
CE
330
1F
100
AcDbEntity
  8
0
  6
Continuous
 62
     4
370
    15
100
AcDbLine
 10
20.86602540456137
 20
1.455880937064803
 30
0.0
 11
20.86602540456136
 21
3.223965602721413
 31
0.0
  0
SPLINE
  5
CF
330
1F
100
AcDbEntity
  8
0
  6
Continuous
 62
     1
370
    15
100
AcDbSpline
210
0.0
220
0.0
230
1.0
 70
     8
 71
     3
 72
     9
 73
     5
 74
     0
 42
0.000000001
 43
0.00000001
 40
0.0
 40
0.0
 40
0.0
 40
0.0
 40
0.2207265041224033
 40
1.0
 40
1.0
 40
1.0
 40
1.0
 10
24.82770668458138
 20
4.244610252256932
 30
0.0
 10
24.83469519712369
 20
4.227717186808435
 30
0.0
 10
24.8663566080181
 20
4.151183263002308
 30
0.0
 10
24.86617046268547
 20
4.066214165585533
 30
0.0
 10
24.86602540456137
 20
4.0
 30
0.0
  0
LINE
  5
D0
330
1F
100
AcDbEntity
  8
0
  6
Continuous
 62
     1
370
    15
100
AcDbLine
 10
24.86602540456137
 20
3.410381299028392
 30
0.0
 11
24.86602540456137
 21
4.0
 31
0.0
  0
ELLIPSE
  5
D1
330
1F
100
AcDbEntity
  8
0
  6
Continuous
 62
     1
370
    15
100
AcDbEllipse
 10
24.86602540456137
 20
0.0
 30
0.0
 11
13.73738709727308
 21
0.0
 31
0.0
210
0.0
220
0.0
230
1.0
 40
0.3639702342662032
 41
4.416932911651259
 42
4.639530490795469
  0
LINE
  5
D3
330
1F
100
AcDbEntity
  8
0
  6
Continuous
 62
     1
370
    15
100
AcDbLine
 10
24.86602540456137
 20
-2.090286916965558
 30
0.0
 11
24.86602540456137
 21
-4.000000000000007
 31
0.0
  0
LINE
  5
D4
330
1F
100
AcDbEntity
  8
0
  6
Continuous
 62
     1
370
    15
100
AcDbLine
 10
24.86602540456137
 20
-0.0000000000000035
 30
0.0
 11
24.86602540456137
 21
0.4790841777747399
 31
0.0
  0
LINE
  5
D5
330
1F
100
AcDbEntity
  8
0
  6
Continuous
 62
     8
370
    15
100
AcDbLine
 10
23.86602540456137
 20
4.769696007084729
 30
0.0
 11
23.86602540456137
 21
5.000000000000001
 31
0.0
  0
LINE
  5
D6
330
1F
100
AcDbEntity
  8
0
  6
Continuous
 62
     8
370
    15
100
AcDbLine
 10
23.86602540456137
 20
-5.000000000000001
 30
0.0
 11
23.86602540456137
 21
-4.986734970756739
 31
0.0
  0
LINE
  5
D7
330
1F
100
AcDbEntity
  8
중심선
100
AcDbLine
 10
-78.13397459543864
 20
0.0
 30
0.0
 11
27.86602540456137
 21
0.0
 31
0.0
  0
CIRCLE
  5
D8
330
1F
100
AcDbEntity
  8
외형선
100
AcDbCircle
 10
0.0
 20
0.0
 30
0.0
 40
3.000000000000001
  0
INSERT
  5
D9
330
1F
100
AcDbEntity
  8
0
  6
Continuous
 62
     7
100
AcDbBlockReference
 66
     1
  2
블럭10
 10
-39.07424752756386
 20
-52.04717430164394
 30
0.0
  0
ATTRIB
  5
DA
330
D9
100
AcDbEntity
  8
FORMAT
 62
     2
100
AcDbText
 10
-52.37912625231739
 20
-49.97180738881175
 30
0.0
 40
4.233333333333333
  1
G8B5410010 [ 4 FLUTE ]
 41
0.75
  7
SLDTEXTSTYLE0
 11
-52.37912625231739
 21
-52.08847405547841
 31
0.0
100
AcDbAttribute
  2
AUTOATTR0
 70
     0
 74
     1
  0
SEQEND
  5
DB
330
D9
100
AcDbEntity
  8
0
  6
Continuous
 62
     7
  0
HATCH
  5
DC
330
1F
100
AcDbEntity
  8
중심선
100
AcDbHatch
 10
0.0
 20
0.0
 30
0.0
210
0.0
220
0.0
230
1.0
  2
SOLID
 70
     1
 71
     0
 91
        1
 92
        0
 93
        4
 72
     1
 10
-33.35933822318299
 20
-35.8
 11
-36.80561346702027
 21
-35.8
 72
     1
 10
-36.80561346702028
 20
-35.8
 11
-38.9338433262243
 21
-38.33632558057259
 72
     1
 10
-38.93384332622429
 20
-38.33632558057259
 11
-35.48753499727386
 21
-38.3362861512701
 72
     1
 10
-35.48753499727387
 20
-38.3362861512701
 11
-33.35933822318299
 21
-35.8
 97
        0
 75
     0
 76
     1
 98
        1
 10
6.873205079979957
 20
0.0
  0
HATCH
  5
DD
330
1F
100
AcDbEntity
  8
중심선
100
AcDbHatch
 10
0.0
 20
0.0
 30
0.0
210
0.0
220
0.0
230
1.0
  2
SOLID
 70
     1
 71
     0
 91
        1
 92
        0
 93
        4
 72
     1
 10
-28.34657423214704
 20
-35.8
 11
-31.79284947598432
 21
-35.8
 72
     1
 10
-31.79284947598432
 20
-35.8
 11
-36.32398748434171
 21
-41.20000000000002
 72
     1
 10
-36.32398748434171
 20
-41.20000000000002
 11
-32.87771224050443
 21
-41.20000000000002
 72
     1
 10
-32.87771224050442
 20
-41.20000000000002
 11
-28.34657423214703
 21
-35.8
 97
        0
 75
     0
 76
     1
 98
        1
 10
6.873205079979957
 20
0.0
  0
HATCH
  5
DE
330
1F
100
AcDbEntity
  8
중심선
100
AcDbHatch
 10
0.0
 20
0.0
 30
0.0
210
0.0
220
0.0
230
1.0
  2
SOLID
 70
     1
 71
     0
 91
        1
 92
        0
 93
        4
 72
     1
 10
-23.33381024111112
 20
-35.8
 11
-26.78008548494829
 21
-35.8
 72
     1
 10
-26.78008548494829
 20
-35.8
 11
-33.82852238683751
 21
-44.20000000000002
 72
     1
 10
-33.82852238683751
 20
-44.20000000000002
 11
-30.38224714300022
 21
-44.20000000000002
 72
     1
 10
-30.38224714300022
 20
-44.20000000000002
 11
-23.33381024111112
 21
-35.8
 97
        0
 75
     0
 76
     1
 98
        1
 10
6.873205079979957
 20
0.0
  0
HATCH
  5
DF
330
1F
100
AcDbEntity
  8
중심선
100
AcDbHatch
 10
0.0
 20
0.0
 30
0.0
210
0.0
220
0.0
230
1.0
  2
SOLID
 70
     1
 71
     0
 91
        1
 92
        0
 93
        6
 72
     3
 10
-18.53391981009895
 20
-40.00000000005127
 11
3.960054785062283
 21
1.540882976769353E-10
 40
0.3939339440162628
 50
17.09539180608437
 51
320.0019657685075
 73
     0
 72
     1
 10
-16.85092015439835
 20
-38.58789400463827
 11
-14.54561828069728
 21
-36.65356729459035
 72
     3
 10
-18.53391981015179
 20
-40.00000000000015
 11
6.600054785286829
 21
-1.278976924368180E-13
 40
0.636358354079598
 50
39.99873849337413
 51
368.4976242363725
 73
     1
 72
     1
 10
-12.10858731825118
 20
-39.03999999993002
 11
-19.85385250331587
 21
-39.03999999992999
 72
     1
 10
-19.85385250331587
 20
-39.03999999992999
 11
-19.8538775477618
 21
-40.95999999992991
 72
     1
 10
-19.8538775477618
 20
-40.95999999992991
 11
-15.41249777828977
 21
-40.95999999992988
 97
        0
 75
     0
 76
     1
 98
        1
 10
6.873205079979957
 20
0.0
  0
POINT
  5
E0
330
1F
100
AcDbEntity
  8
치수문자_일반주서
100
AcDbPoint
 10
2.999999999999992
 20
0.0
 30
0.0
  0
POINT
  5
E1
330
1F
100
AcDbEntity
  8
FORMAT
100
AcDbPoint
 10
-25.13397459543863
 20
0.0
 30
0.0
  0
DIMENSION
  5
E2
330
1F
100
AcDbEntity
  8
치수문자_일반주서
100
AcDbDimension
  2
_D
 10
20.86602540456137
 20
26.36971106383601
 30
0.0
 11
22.86602540456136
 21
26.36971106383601
 31
0.0
 70
   160
  1
<>
 71
     2
 42
3.999999999999996
  3
SLDDIMSTYLE0
100
AcDbAlignedDimension
 13
24.86602540456137
 23
4.0
 33
0.0
 14
20.86602540456137
 24
4.769696007084728
 34
0.0
 50
0.0000000000000509
100
AcDbRotatedDimension
  0
DIMENSION
  5
EF
330
1F
100
AcDbEntity
  8
치수문자_일반주서
100
AcDbDimension
  2
_D_1
 10
4.86602540378445
 20
35.97491331996142
 30
0.0
 11
14.86602540417291
 21
35.97491331996142
 31
0.0
 70
   160
  1
<>
 71
     2
 42
20.00000000077692
  3
SLDDIMSTYLE1
100
AcDbAlignedDimension
 13
24.86602540456137
 23
3.410381299028392
 33
0.0
 14
4.86602540378445
 24
4.5
 34
0.0
 50
-0.0000000000000204
100
AcDbRotatedDimension
  0
DIMENSION
  5
FB
330
1F
100
AcDbEntity
  8
치수문자_일반주서
100
AcDbDimension
  2
_D_2
 10
-75.13397459543863
 20
46.50000000000002
 30
0.0
 11
-25.97912608446957
 21
46.50000000000002
 31
0.0
 70
   160
  1
<>
 71
     2
 42
100.0
  3
SLDDIMSTYLE1
100
AcDbAlignedDimension
 13
24.86602540456137
 23
4.0
 33
0.0
 14
-75.13397459543864
 24
3.999999999999994
 34
0.0
 50
0.0000000000000244
100
AcDbRotatedDimension
  0
DIMENSION
  5
105
330
1F
100
AcDbEntity
  8
치수문자_일반주서
100
AcDbDimension
  2
_D_3
 10
-87.68397459543863
 20
-5.00000000000005
 30
0.0
 11
-87.68397459543864
 21
-1.608411181544071
 31
0.0
 70
   160
  1
%%c<>
 71
     2
 42
9.999999999999998
 52
-270.0
  3
SLDDIMSTYLE0
100
AcDbAlignedDimension
 13
-74.13397459543864
 23
4.999999999999999
 33
0.0
 14
-74.13397459543864
 24
-4.999999999999999
 34
0.0
 50
90.0000000000002
100
AcDbRotatedDimension
  0
DIMENSION
  5
112
330
1F
100
AcDbEntity
  8
치수문자_일반주서
100
AcDbDimension
  2
_D_4
 10
36.36602540456141
 20
-4.999999999999956
 30
0.0
 11
36.36602540456138
 21
0.5680105718932618
 31
0.0
 70
   160
  1
%%c<>
 71
     2
 42
10.00000000000001
 52
-270.0
  3
SLDDIMSTYLE0
100
AcDbAlignedDimension
 13
23.86602540456137
 23
5.000000000000004
 33
0.0
 14
23.86602540456137
 24
-5.000000000000001
 34
0.0
 50
90.0000000000002
100
AcDbRotatedDimension
  0
INSERT
  5
12E
330
1F
100
AcDbEntity
  8
외형선
100
AcDbBlockReference
  2
SW_DOWELSYMBOL_0
 10
0.0
 20
0.0
 30
0.0
  0
ARC
  5
157
102
{ACAD_REACTORS
102
}
330
1F
100
AcDbEntity
  8
0
  6
Continuous
 62
     1
370
    15
100
AcDbCircle
 10
23.86602540456137
 20
-4.000000000000007
 30
0.0
 40
1.000000000000004
100
AcDbArc
 50
270.0
 51
0.0000000000000509
  0
DIMENSION
  5
15F
102
{ACAD_REACTORS
102
}
102
{ACAD_XDICTIONARY
360
160
102
}
330
1F
100
AcDbEntity
  8
치수문자_일반주서
100
AcDbDimension
  2
*D9
 10
23.86602540456137
 20
-4.000000000000007
 30
0.0
 11
32.94023261564128
 21
-17.13857561535959
 31
0.0
 70
   164
  1
<>
 71
     5
 42
1.000000000000004
  3
SLDDIMSTYLE0
100
AcDbRadialDimension
 15
24.43431508059493
 25
-4.822828563015218
 35
0.0
 40
0.0
1001
ACAD_DSTYLE_DIMRADIAL_EXTENSION
1070
   387
1070
     1
1070
   388
1040
4.71238898038469
1070
   390
1040
0.0000000000000009
  0
ENDSEC
  0
SECTION
  2
OBJECTS
  0
DICTIONARY
  5
C
330
0
100
AcDbDictionary
281
     1
  3
ACAD_GROUP
350
D
  3
ACAD_IMAGE_VARS
350
152
  3
ACAD_LAYOUT
350
1A
  3
ACAD_MLINESTYLE
350
17
  3
ACAD_PLOTSETTINGS
350
19
  3
ACAD_PLOTSTYLENAME
350
E
  3
ACAD_SCALELIST
350
47
  3
APPDATA
350
150
  3
DWGPROPS
350
16C
  0
DICTIONARY
  5
160
330
15F
100
AcDbDictionary
280
     1
281
     1
  0
DICTIONARY
  5
D
102
{ACAD_REACTORS
330
C
102
}
330
C
100
AcDbDictionary
281
     1
  0
RASTERVARIABLES
  5
152
102
{ACAD_REACTORS
330
C
102
}
330
C
100
AcDbRasterVariables
 90
        0
 70
     1
 71
     1
 72
     1
  0
DICTIONARY
  5
1A
102
{ACAD_REACTORS
330
C
102
}
330
C
100
AcDbDictionary
281
     1
  3
Layout1
350
1E
  3
Layout2
350
26
  3
Model
350
22
  0
DICTIONARY
  5
17
102
{ACAD_REACTORS
330
C
102
}
330
C
100
AcDbDictionary
281
     1
  3
Standard
350
18
  0
DICTIONARY
  5
19
102
{ACAD_REACTORS
330
C
102
}
330
C
100
AcDbDictionary
281
     1
  0
ACDBDICTIONARYWDFLT
  5
E
102
{ACAD_REACTORS
330
C
102
}
330
C
100
AcDbDictionary
281
     1
  3
Normal
350
F
100
AcDbDictionaryWithDefault
340
F
  0
DICTIONARY
  5
47
102
{ACAD_REACTORS
330
C
102
}
330
C
100
AcDbDictionary
281
     1
  3
A0
350
48
  3
A1
350
49
  3
A2
350
4A
  3
A3
350
4B
  3
A4
350
4C
  3
A5
350
4D
  3
A6
350
4E
  3
A7
350
4F
  3
A8
350
50
  3
A9
350
51
  3
B0
350
52
  3
B1
350
53
  3
B2
350
54
  3
B3
350
55
  3
B4
350
56
  3
B5
350
57
  3
B6
350
58
  3
B7
350
59
  3
B8
350
5A
  3
B9
350
5B
  3
C0
350
5C
  3
C1
350
5D
  3
C2
350
5E
  3
C3
350
5F
  3
C4
350
60
  3
C5
350
61
  3
C6
350
62
  3
C7
350
63
  3
C8
350
64
  3
C9
350
65
  3
D0
350
66
  3
D1
350
67
  3
D2
350
68
  0
DICTIONARY
  5
150
102
{ACAD_REACTORS
330
C
102
}
330
C
100
AcDbDictionary
281
     1
  0
XRECORD
  5
16C
102
{ACAD_REACTORS
330
C
102
}
330
C
100
AcDbXrecord
280
     1
  1
DWGPROPS COOKIE
  2

  3

  4

  6

  7

  8
12016016
  9

300
=
301
=
302
=
303
=
304
=
305
=
306
=
307
=
308
=
309
=
 40
0.0
 41
2458281.059234039
 42
2458281.352093114
  1

 90
        0
  0
LAYOUT
  5
1E
102
{ACAD_REACTORS
330
1A
102
}
330
1A
100
AcDbPlotSettings
  1

  2
none_device
  4

  6

 40
0.0
 41
0.0
 42
0.0
 43
0.0
 44
0.0
 45
0.0
 46
0.0
 47
0.0
 48
0.0
 49
0.0
140
0.0
141
0.0
142
1.0
143
1.0
 70
   688
 72
     1
 73
     0
 74
     5
  7

 75
    16
147
1.0
148
0.0
149
0.0
100
AcDbLayout
  1
Layout1
 70
     1
 71
     1
 10
0.0
 20
0.0
 11
420.0
 21
297.0
 12
0.0
 22
0.0
 32
0.0
 14
1.000000000000000E+20
 24
1.000000000000000E+20
 34
1.000000000000000E+20
 15
-1.000000000000000E+20
 25
-1.000000000000000E+20
 35
-1.000000000000000E+20
146
0.0
 13
0.0
 23
0.0
 33
0.0
 16
1.0
 26
0.0
 36
0.0
 17
0.0
 27
1.0
 37
0.0
 76
     0
330
1B
  0
LAYOUT
  5
26
102
{ACAD_REACTORS
330
1A
102
}
330
1A
100
AcDbPlotSettings
  1

  2
none_device
  4

  6

 40
0.0
 41
0.0
 42
0.0
 43
0.0
 44
0.0
 45
0.0
 46
0.0
 47
0.0
 48
0.0
 49
0.0
140
0.0
141
0.0
142
1.0
143
1.0
 70
   688
 72
     1
 73
     0
 74
     5
  7

 75
    16
147
1.0
148
0.0
149
0.0
100
AcDbLayout
  1
Layout2
 70
     1
 71
     2
 10
0.0
 20
0.0
 11
0.0
 21
0.0
 12
0.0
 22
0.0
 32
0.0
 14
0.0
 24
0.0
 34
0.0
 15
0.0
 25
0.0
 35
0.0
146
0.0
 13
0.0
 23
0.0
 33
0.0
 16
1.0
 26
0.0
 36
0.0
 17
0.0
 27
1.0
 37
0.0
 76
     0
330
23
  0
LAYOUT
  5
22
102
{ACAD_REACTORS
330
1A
102
}
330
1A
100
AcDbPlotSettings
  1

  2
none_device
  4
ANSI_A_(11.00_x_8.50_Inches)
  6

 40
6.35
 41
19.05
 42
6.35000508
 43
19.05000254
 44
279.4
 45
215.9
 46
196.9099339199804
 47
88.59863331726102
 48
0.0
 49
0.0
140
0.0
141
0.0
142
0.080177241368313
143
1.0
 70
  1696
 72
     0
 73
     0
 74
     0
  7

 75
     0
147
0.0235690232323232
148
0.0
149
0.0
100
AcDbLayout
  1
Model
 70
     1
 71
     0
 10
0.0
 20
0.0
 11
420.0
 21
297.0
 12
0.0
 22
0.0
 32
0.0
 14
-92.05897459543864
 24
-49.97180738881175
 34
0.0
 15
37.53461451189154
 25
50.87500000000002
 35
0.0
146
0.0
 13
0.0
 23
0.0
 33
0.0
 16
1.0
 26
0.0
 36
0.0
 17
0.0
 27
1.0
 37
0.0
 76
     0
330
1F
331
29
  0
MLINESTYLE
  5
18
102
{ACAD_REACTORS
330
17
102
}
330
17
100
AcDbMlineStyle
  2
Standard
 70
     0
  3

 62
   256
 51
90.0
 52
90.0
 71
     2
 49
0.5
 62
   256
  6
BYLAYER
 49
-0.5
 62
   256
  6
BYLAYER
  0
ACDBPLACEHOLDER
  5
F
102
{ACAD_REACTORS
330
E
102
}
330
E
  0
SCALE
  5
48
102
{ACAD_REACTORS
330
47
102
}
330
47
100
AcDbScale
 70
     0
300
1:1
140
1.0
141
1.0
290
     1
  0
SCALE
  5
49
102
{ACAD_REACTORS
330
47
102
}
330
47
100
AcDbScale
 70
     0
300
1:2
140
1.0
141
2.0
290
     0
  0
SCALE
  5
4A
102
{ACAD_REACTORS
330
47
102
}
330
47
100
AcDbScale
 70
     0
300
1:4
140
1.0
141
4.0
290
     0
  0
SCALE
  5
4B
102
{ACAD_REACTORS
330
47
102
}
330
47
100
AcDbScale
 70
     0
300
1:5
140
1.0
141
5.0
290
     0
  0
SCALE
  5
4C
102
{ACAD_REACTORS
330
47
102
}
330
47
100
AcDbScale
 70
     0
300
1:8
140
1.0
141
8.0
290
     0
  0
SCALE
  5
4D
102
{ACAD_REACTORS
330
47
102
}
330
47
100
AcDbScale
 70
     0
300
1:10
140
1.0
141
10.0
290
     0
  0
SCALE
  5
4E
102
{ACAD_REACTORS
330
47
102
}
330
47
100
AcDbScale
 70
     0
300
1:16
140
1.0
141
16.0
290
     0
  0
SCALE
  5
4F
102
{ACAD_REACTORS
330
47
102
}
330
47
100
AcDbScale
 70
     0
300
1:20
140
1.0
141
20.0
290
     0
  0
SCALE
  5
50
102
{ACAD_REACTORS
330
47
102
}
330
47
100
AcDbScale
 70
     0
300
1:30
140
1.0
141
30.0
290
     0
  0
SCALE
  5
51
102
{ACAD_REACTORS
330
47
102
}
330
47
100
AcDbScale
 70
     0
300
1:40
140
1.0
141
40.0
290
     0
  0
SCALE
  5
52
102
{ACAD_REACTORS
330
47
102
}
330
47
100
AcDbScale
 70
     0
300
1:50
140
1.0
141
50.0
290
     0
  0
SCALE
  5
53
102
{ACAD_REACTORS
330
47
102
}
330
47
100
AcDbScale
 70
     0
300
1:100
140
1.0
141
100.0
290
     0
  0
SCALE
  5
54
102
{ACAD_REACTORS
330
47
102
}
330
47
100
AcDbScale
 70
     0
300
2:1
140
2.0
141
1.0
290
     0
  0
SCALE
  5
55
102
{ACAD_REACTORS
330
47
102
}
330
47
100
AcDbScale
 70
     0
300
4:1
140
4.0
141
1.0
290
     0
  0
SCALE
  5
56
102
{ACAD_REACTORS
330
47
102
}
330
47
100
AcDbScale
 70
     0
300
8:1
140
8.0
141
1.0
290
     0
  0
SCALE
  5
57
102
{ACAD_REACTORS
330
47
102
}
330
47
100
AcDbScale
 70
     0
300
10:1
140
10.0
141
1.0
290
     0
  0
SCALE
  5
58
102
{ACAD_REACTORS
330
47
102
}
330
47
100
AcDbScale
 70
     0
300
100:1
140
100.0
141
1.0
290
     0
  0
SCALE
  5
59
102
{ACAD_REACTORS
330
47
102
}
330
47
100
AcDbScale
 70
     0
300
1/128" = 1'-0"
140
0.0078125
141
12.0
290
     0
  0
SCALE
  5
5A
102
{ACAD_REACTORS
330
47
102
}
330
47
100
AcDbScale
 70
     0
300
1/64" = 1'-0"
140
0.015625
141
12.0
290
     0
  0
SCALE
  5
5B
102
{ACAD_REACTORS
330
47
102
}
330
47
100
AcDbScale
 70
     0
300
1/32" = 1'-0"
140
0.03125
141
12.0
290
     0
  0
SCALE
  5
5C
102
{ACAD_REACTORS
330
47
102
}
330
47
100
AcDbScale
 70
     0
300
1/16" = 1'-0"
140
0.0625
141
12.0
290
     0
  0
SCALE
  5
5D
102
{ACAD_REACTORS
330
47
102
}
330
47
100
AcDbScale
 70
     0
300
3/32" = 1'-0"
140
0.09375
141
12.0
290
     0
  0
SCALE
  5
5E
102
{ACAD_REACTORS
330
47
102
}
330
47
100
AcDbScale
 70
     0
300
1/8" = 1'-0"
140
0.125
141
12.0
290
     0
  0
SCALE
  5
5F
102
{ACAD_REACTORS
330
47
102
}
330
47
100
AcDbScale
 70
     0
300
3/16" = 1'-0"
140
0.1875
141
12.0
290
     0
  0
SCALE
  5
60
102
{ACAD_REACTORS
330
47
102
}
330
47
100
AcDbScale
 70
     0
300
1/4" = 1'-0"
140
0.25
141
12.0
290
     0
  0
SCALE
  5
61
102
{ACAD_REACTORS
330
47
102
}
330
47
100
AcDbScale
 70
     0
300
3/8" = 1'-0"
140
0.375
141
12.0
290
     0
  0
SCALE
  5
62
102
{ACAD_REACTORS
330
47
102
}
330
47
100
AcDbScale
 70
     0
300
1/2" = 1'-0"
140
0.5
141
12.0
290
     0
  0
SCALE
  5
63
102
{ACAD_REACTORS
330
47
102
}
330
47
100
AcDbScale
 70
     0
300
3/4" = 1'-0"
140
0.75
141
12.0
290
     0
  0
SCALE
  5
64
102
{ACAD_REACTORS
330
47
102
}
330
47
100
AcDbScale
 70
     0
300
1" = 1'-0"
140
1.0
141
12.0
290
     0
  0
SCALE
  5
65
102
{ACAD_REACTORS
330
47
102
}
330
47
100
AcDbScale
 70
     0
300
1-1/2" = 1'-0"
140
1.5
141
12.0
290
     0
  0
SCALE
  5
66
102
{ACAD_REACTORS
330
47
102
}
330
47
100
AcDbScale
 70
     0
300
3" = 1'-0"
140
3.0
141
12.0
290
     0
  0
SCALE
  5
67
102
{ACAD_REACTORS
330
47
102
}
330
47
100
AcDbScale
 70
     0
300
6" = 1'-0"
140
6.0
141
12.0
290
     0
  0
SCALE
  5
68
102
{ACAD_REACTORS
330
47
102
}
330
47
100
AcDbScale
 70
     0
300
1'-0" = 1'-0"
140
12.0
141
12.0
290
     0
  0
ENDSEC
  0
EOF
