  0
SECTION
  2
HEADER
  9
$ACADVER
  1
AC1015
  9
$ACADMAINTVER
 70
     6
  9
$DWGCODEPAGE
  3
ANSI_949
  9
$INSBASE
 10
0.0
 20
0.0
 30
0.0
  9
$EXTMIN
 10
-47.59112778739772
 20
-49.97073246008787
 30
0.0
  9
$EXTMAX
 10
26.25164507709998
 20
52.75625000000001
 30
0.0
  9
$LIMMIN
 10
0.0
 20
0.0
  9
$LIMMAX
 10
420.0
 20
297.0
  9
$ORTHOMODE
 70
     1
  9
$REGENMODE
 70
     1
  9
$FILLMODE
 70
     1
  9
$QTEXTMODE
 70
     0
  9
$MIRRTEXT
 70
     1
  9
$LTSCALE
 40
1.0
  9
$ATTMODE
 70
     1
  9
$TEXTSIZE
 40
3.5
  9
$TRACEWID
 40
1.0
  9
$TEXTSTYLE
  7
Standard
  9
$CLAYER
  8
가는실선
  9
$CELTYPE
  6
ByLayer
  9
$CECOLOR
 62
   256
  9
$CELTSCALE
 40
1.0
  9
$DISPSILH
 70
     0
  9
$DIMSCALE
 40
1.0
  9
$DIMASZ
 40
3.302
  9
$DIMEXO
 40
1.0
  9
$DIMDLI
 40
3.75
  9
$DIMRND
 40
0.0
  9
$DIMDLE
 40
0.0
  9
$DIMEXE
 40
1.0
  9
$DIMTP
 40
0.0
  9
$DIMTM
 40
0.0
  9
$DIMTXT
 40
3.5
  9
$DIMCEN
 40
2.5
  9
$DIMTSZ
 40
0.0
  9
$DIMTOL
 70
     0
  9
$DIMLIM
 70
     0
  9
$DIMTIH
 70
     1
  9
$DIMTOH
 70
     1
  9
$DIMSE1
 70
     0
  9
$DIMSE2
 70
     0
  9
$DIMTAD
 70
     1
  9
$DIMZIN
 70
     0
  9
$DIMBLK
  1

  9
$DIMASO
 70
     1
  9
$DIMSHO
 70
     1
  9
$DIMPOST
  1

  9
$DIMAPOST
  1

  9
$DIMALT
 70
     0
  9
$DIMALTD
 70
     3
  9
$DIMALTF
 40
0.0393700787401575
  9
$DIMLFAC
 40
1.0
  9
$DIMTOFL
 70
     1
  9
$DIMTVP
 40
0.0
  9
$DIMTIX
 70
     0
  9
$DIMSOXD
 70
     0
  9
$DIMSAH
 70
     0
  9
$DIMBLK1
  1

  9
$DIMBLK2
  1

  9
$DIMSTYLE
  2
ISO-25
  9
$DIMCLRD
 70
     0
  9
$DIMCLRE
 70
     0
  9
$DIMCLRT
 70
     0
  9
$DIMTFAC
 40
1.0
  9
$DIMGAP
 40
1.524
  9
$DIMJUST
 70
     0
  9
$DIMSD1
 70
     0
  9
$DIMSD2
 70
     0
  9
$DIMTOLJ
 70
     0
  9
$DIMTZIN
 70
     0
  9
$DIMALTZ
 70
     0
  9
$DIMALTTZ
 70
     0
  9
$DIMUPT
 70
     0
  9
$DIMDEC
 70
     2
  9
$DIMTDEC
 70
     2
  9
$DIMALTU
 70
     2
  9
$DIMALTTD
 70
     3
  9
$DIMTXSTY
  7
Standard
  9
$DIMAUNIT
 70
     0
  9
$DIMADEC
 70
     2
  9
$DIMALTRND
 40
0.0
  9
$DIMAZIN
 70
     0
  9
$DIMDSEP
 70
    44
  9
$DIMATFIT
 70
     3
  9
$DIMFRAC
 70
     0
  9
$DIMLDRBLK
  1

  9
$DIMLUNIT
 70
     2
  9
$DIMLWD
 70
    -2
  9
$DIMLWE
 70
    -2
  9
$DIMTMOVE
 70
     0
  9
$LUNITS
 70
     2
  9
$LUPREC
 70
     2
  9
$SKETCHINC
 40
1.0
  9
$FILLETRAD
 40
10.0
  9
$AUNITS
 70
     0
  9
$AUPREC
 70
     2
  9
$MENU
  1
.
  9
$ELEVATION
 40
0.0
  9
$PELEVATION
 40
0.0
  9
$THICKNESS
 40
0.0
  9
$LIMCHECK
 70
     0
  9
$CHAMFERA
 40
0.0
  9
$CHAMFERB
 40
0.0
  9
$CHAMFERC
 40
0.0
  9
$CHAMFERD
 40
0.0
  9
$SKPOLY
 70
     0
  9
$TDCREATE
 40
2458262.816289618
  9
$TDUCREATE
 40
2458262.441289618
  9
$TDUPDATE
 40
2459697.668975636
  9
$TDUUPDATE
 40
2459697.293975636
  9
$TDINDWG
 40
0.1908880787
  9
$TDUSRTIMER
 40
0.1976994213
  9
$USRTIMER
 70
     1
  9
$ANGBASE
 50
0.0
  9
$ANGDIR
 70
     0
  9
$PDMODE
 70
     0
  9
$PDSIZE
 40
-1.0
  9
$PLINEWID
 40
0.0
  9
$SPLFRAME
 70
     0
  9
$SPLINETYPE
 70
     6
  9
$SPLINESEGS
 70
     8
  9
$HANDSEED
  5
245
  9
$SURFTAB1
 70
     6
  9
$SURFTAB2
 70
     6
  9
$SURFTYPE
 70
     6
  9
$SURFU
 70
     6
  9
$SURFV
 70
     6
  9
$UCSBASE
  2

  9
$UCSNAME
  2

  9
$UCSORG
 10
0.0
 20
0.0
 30
0.0
  9
$UCSXDIR
 10
1.0
 20
0.0
 30
0.0
  9
$UCSYDIR
 10
0.0
 20
1.0
 30
0.0
  9
$UCSORTHOREF
  2

  9
$UCSORTHOVIEW
 70
     0
  9
$UCSORGTOP
 10
0.0
 20
0.0
 30
0.0
  9
$UCSORGBOTTOM
 10
0.0
 20
0.0
 30
0.0
  9
$UCSORGLEFT
 10
0.0
 20
0.0
 30
0.0
  9
$UCSORGRIGHT
 10
0.0
 20
0.0
 30
0.0
  9
$UCSORGFRONT
 10
0.0
 20
0.0
 30
0.0
  9
$UCSORGBACK
 10
0.0
 20
0.0
 30
0.0
  9
$PUCSBASE
  2

  9
$PUCSNAME
  2

  9
$PUCSORG
 10
0.0
 20
0.0
 30
0.0
  9
$PUCSXDIR
 10
1.0
 20
0.0
 30
0.0
  9
$PUCSYDIR
 10
0.0
 20
1.0
 30
0.0
  9
$PUCSORTHOREF
  2

  9
$PUCSORTHOVIEW
 70
     0
  9
$PUCSORGTOP
 10
0.0
 20
0.0
 30
0.0
  9
$PUCSORGBOTTOM
 10
0.0
 20
0.0
 30
0.0
  9
$PUCSORGLEFT
 10
0.0
 20
0.0
 30
0.0
  9
$PUCSORGRIGHT
 10
0.0
 20
0.0
 30
0.0
  9
$PUCSORGFRONT
 10
0.0
 20
0.0
 30
0.0
  9
$PUCSORGBACK
 10
0.0
 20
0.0
 30
0.0
  9
$USERI1
 70
     0
  9
$USERI2
 70
     0
  9
$USERI3
 70
     0
  9
$USERI4
 70
     0
  9
$USERI5
 70
     0
  9
$USERR1
 40
0.0
  9
$USERR2
 40
0.0
  9
$USERR3
 40
0.0
  9
$USERR4
 40
0.0
  9
$USERR5
 40
0.0
  9
$WORLDVIEW
 70
     1
  9
$SHADEDGE
 70
     3
  9
$SHADEDIF
 70
    70
  9
$TILEMODE
 70
     1
  9
$MAXACTVP
 70
    64
  9
$PINSBASE
 10
0.0
 20
0.0
 30
0.0
  9
$PLIMCHECK
 70
     0
  9
$PEXTMIN
 10
1.000000000000000E+20
 20
1.000000000000000E+20
 30
1.000000000000000E+20
  9
$PEXTMAX
 10
-1.000000000000000E+20
 20
-1.000000000000000E+20
 30
-1.000000000000000E+20
  9
$PLIMMIN
 10
0.0
 20
0.0
  9
$PLIMMAX
 10
0.0
 20
0.0
  9
$UNITMODE
 70
     0
  9
$VISRETAIN
 70
     1
  9
$PLINEGEN
 70
     0
  9
$PSLTSCALE
 70
     1
  9
$TREEDEPTH
 70
  3020
  9
$CMLSTYLE
  2
Standard
  9
$CMLJUST
 70
     0
  9
$CMLSCALE
 40
20.0
  9
$PROXYGRAPHICS
 70
     1
  9
$MEASUREMENT
 70
     1
  9
$CELWEIGHT
370
    -1
  9
$ENDCAPS
280
     0
  9
$JOINSTYLE
280
     0
  9
$LWDISPLAY
290
     1
  9
$INSUNITS
 70
     4
  9
$HYPERLINKBASE
  1

  9
$STYLESHEET
  1

  9
$XEDIT
290
     1
  9
$CEPSNTYPE
380
     0
  9
$PSTYLEMODE
290
     1
  9
$FINGERPRINTGUID
  2
{9B1D5580-7BB0-4605-AF92-97D7E798BA43}
  9
$VERSIONGUID
  2
{FAEB1C32-E019-11D5-929B-00C0DF256EC4}
  9
$EXTNAMES
290
     1
  9
$PSVPSCALE
 40
0.0
  9
$OLESTARTUP
290
     0
  0
ENDSEC
  0
SECTION
  2
CLASSES
  0
CLASS
  1
ACDBDICTIONARYWDFLT
  2
AcDbDictionaryWithDefault
  3
ObjectDBX Classes
 90
        0
280
     0
281
     0
  0
CLASS
  1
VISUALSTYLE
  2
AcDbVisualStyle
  3
ObjectDBX Classes
 90
     4095
280
     0
281
     0
  0
CLASS
  1
MATERIAL
  2
AcDbMaterial
  3
ObjectDBX Classes
 90
     1153
280
     0
281
     0
  0
CLASS
  1
SCALE
  2
AcDbScale
  3
ObjectDBX Classes
 90
     1153
280
     0
281
     0
  0
CLASS
  1
SUN
  2
AcDbSun
  3
SCENEOE
 90
     1153
280
     0
281
     0
  0
CLASS
  1
ACDBPLACEHOLDER
  2
AcDbPlaceHolder
  3
ObjectDBX Classes
 90
        0
280
     0
281
     0
  0
CLASS
  1
LAYOUT
  2
AcDbLayout
  3
ObjectDBX Classes
 90
        0
280
     0
281
     0
  0
CLASS
  1
TABLESTYLE
  2
AcDbTableStyle
  3
ObjectDBX Classes
 90
     4095
280
     0
281
     0
  0
CLASS
  1
MLEADERSTYLE
  2
AcDbMLeaderStyle
  3
ACDB_MLEADERSTYLE_CLASS
 90
     4095
280
     0
281
     0
  0
CLASS
  1
RASTERVARIABLES
  2
AcDbRasterVariables
  3
ISM
 90
        0
280
     0
281
     0
  0
CLASS
  1
DIMASSOC
  2
AcDbDimAssoc
  3
"AcDbDimAssoc|Product Desc:     AcDim ARX App For Dimension|Company:          Autodesk, Inc.|WEB Address:      www.autodesk.com"
 90
        0
280
     0
281
     0
  0
CLASS
  1
BREAKDATA
  2
AcDbBreakData
  3
ObjectDBX Classes
 90
     1024
280
     0
281
     0
  0
CLASS
  1
DICTIONARYVAR
  2
AcDbDictionaryVar
  3
ObjectDBX Classes
 90
        0
280
     0
281
     0
  0
ENDSEC
  0
SECTION
  2
TABLES
  0
TABLE
  2
VPORT
  5
8
330
0
100
AcDbSymbolTable
 70
     1
  0
VPORT
  5
29
330
8
100
AcDbSymbolTableRecord
100
AcDbViewportTableRecord
  2
*Active
 70
     0
 10
0.0
 20
0.0
 11
1.0
 21
1.0
 12
-17.11617972239792
 22
5.271182451004526
 13
0.0
 23
0.0
 14
10.0
 24
10.0
 15
10.0
 25
10.0
 16
0.0
 26
0.0
 36
1.0
 17
0.0
 27
0.0
 37
0.0
 40
87.7653133970745
 41
1.867028493894165
 42
50.0
 43
0.0
 44
0.0
 50
0.0
 51
0.0
 71
    16
 72
  2000
 73
     1
 74
     3
 75
     0
 76
     0
 77
     0
 78
     0
281
     0
 65
     1
110
0.0
120
0.0
130
0.0
111
1.0
121
0.0
131
0.0
112
0.0
122
1.0
132
0.0
 79
     0
146
0.0
  0
ENDTAB
  0
TABLE
  2
LTYPE
  5
5
330
0
100
AcDbSymbolTable
 70
     6
  0
LTYPE
  5
14
330
5
100
AcDbSymbolTableRecord
100
AcDbLinetypeTableRecord
  2
ByBlock
 70
     0
  3

 72
    65
 73
     0
 40
0.0
  0
LTYPE
  5
15
330
5
100
AcDbSymbolTableRecord
100
AcDbLinetypeTableRecord
  2
ByLayer
 70
     0
  3

 72
    65
 73
     0
 40
0.0
  0
LTYPE
  5
16
330
5
100
AcDbSymbolTableRecord
100
AcDbLinetypeTableRecord
  2
Continuous
 70
     0
  3
Solid line
 72
    65
 73
     0
 40
0.0
  0
LTYPE
  5
6A
330
5
100
AcDbSymbolTableRecord
100
AcDbLinetypeTableRecord
  2
HIDDEN
 70
     0
  3
Hidden __ __ __ __ __ __ __ __ __ __ __ __ __ __
 72
    65
 73
     2
 40
1.905
 49
1.27
 74
     0
 49
-0.635
 74
     0
  0
LTYPE
  5
6B
330
5
100
AcDbSymbolTableRecord
100
AcDbLinetypeTableRecord
  2
PHANTOM
 70
     0
  3
Phantom ______  __  __  ______  __  __  ______
 72
    65
 73
     6
 40
12.7
 49
6.35
 74
     0
 49
-1.27
 74
     0
 49
1.27
 74
     0
 49
-1.27
 74
     0
 49
1.27
 74
     0
 49
-1.27
 74
     0
  0
LTYPE
  5
6C
330
5
100
AcDbSymbolTableRecord
100
AcDbLinetypeTableRecord
  2
CENTER
 70
     0
  3
Center ____ _ ____ _ ____ _ ____ _ ____ _ ____
 72
    65
 73
     4
 40
10.16
 49
6.35
 74
     0
 49
-1.27
 74
     0
 49
1.27
 74
     0
 49
-1.27
 74
     0
  0
LTYPE
  5
6D
330
5
100
AcDbSymbolTableRecord
100
AcDbLinetypeTableRecord
  2
CENTERX2
 70
     0
  3
Center (2x) ________  __  ________  __  _____
 72
    65
 73
     4
 40
20.32
 49
12.7
 74
     0
 49
-2.54
 74
     0
 49
2.54
 74
     0
 49
-2.54
 74
     0
  0
LTYPE
  5
6E
330
5
100
AcDbSymbolTableRecord
100
AcDbLinetypeTableRecord
  2
DOT2
 70
     0
  3
Dot (.5x) ........................................
 72
    65
 73
     2
 40
0.635
 49
0.0
 74
     0
 49
-0.635
 74
     0
  0
ENDTAB
  0
TABLE
  2
LAYER
  5
2
102
{ACAD_XDICTIONARY
360
22D
102
}
330
0
100
AcDbSymbolTable
 70
    17
  0
LAYER
  5
10
330
2
100
AcDbSymbolTableRecord
100
AcDbLayerTableRecord
  2
0
 70
     0
 62
     7
  6
Continuous
370
    -3
390
F
  0
LAYER
  5
6F
330
2
100
AcDbSymbolTableRecord
100
AcDbLayerTableRecord
  2
FORMAT
 70
     0
 62
     2
  6
Continuous
370
    -3
390
F
  0
LAYER
  5
70
330
2
100
AcDbSymbolTableRecord
100
AcDbLayerTableRecord
  2
외형선
 70
     0
 62
   100
  6
Continuous
370
    30
390
F
  0
LAYER
  5
71
330
2
100
AcDbSymbolTableRecord
100
AcDbLayerTableRecord
  2
숨은선
 70
     0
 62
     2
  6
HIDDEN
370
    15
390
F
  0
LAYER
  5
72
330
2
100
AcDbSymbolTableRecord
100
AcDbLayerTableRecord
  2
중심선
 70
     0
 62
     1
  6
CENTERX2
370
    -3
390
F
  0
LAYER
  5
73
330
2
100
AcDbSymbolTableRecord
100
AcDbLayerTableRecord
  2
파단선
 70
     0
 62
     4
  6
Continuous
370
    -3
390
F
  0
LAYER
  5
74
330
2
100
AcDbSymbolTableRecord
100
AcDbLayerTableRecord
  2
해칭선
 70
     0
 62
     4
  6
Continuous
370
    -3
390
F
  0
LAYER
  5
75
330
2
100
AcDbSymbolTableRecord
100
AcDbLayerTableRecord
  2
가는실선
 70
     0
 62
     4
  6
Continuous
370
    -3
390
F
  0
LAYER
  5
76
330
2
100
AcDbSymbolTableRecord
100
AcDbLayerTableRecord
  2
치수_보조선
 70
     0
 62
     4
  6
Continuous
370
    -3
390
F
  0
LAYER
  5
77
330
2
100
AcDbSymbolTableRecord
100
AcDbLayerTableRecord
  2
치수문자_일반주서
 70
     0
 62
     7
  6
Continuous
370
    15
390
F
  0
LAYER
  5
78
330
2
100
AcDbSymbolTableRecord
100
AcDbLayerTableRecord
  2
개별주서
 70
     0
 62
   100
  6
Continuous
370
    30
390
F
  0
LAYER
  5
79
330
2
100
AcDbSymbolTableRecord
100
AcDbLayerTableRecord
  2
중간선
 70
     0
 62
     2
  6
Continuous
370
    15
390
F
  0
LAYER
  5
7A
330
2
100
AcDbSymbolTableRecord
100
AcDbLayerTableRecord
  2
윤곽선
 70
     0
 62
     3
  6
Continuous
370
    40
390
F
  0
LAYER
  5
7B
330
2
100
AcDbSymbolTableRecord
100
AcDbLayerTableRecord
  2
중심마크
 70
     0
 62
   100
  6
Continuous
370
    30
390
F
  0
LAYER
  5
7C
330
2
100
AcDbSymbolTableRecord
100
AcDbLayerTableRecord
  2
가상선
 70
     0
 62
     4
  6
PHANTOM
370
    -3
390
F
  0
LAYER
  5
7D
330
2
100
AcDbSymbolTableRecord
100
AcDbLayerTableRecord
  2
특수지정선
 70
     0
 62
     5
  6
CENTERX2
370
    60
390
F
  0
LAYER
  5
178
330
2
100
AcDbSymbolTableRecord
100
AcDbLayerTableRecord
  2
Defpoints
 70
     0
 62
     7
  6
Continuous
290
     0
370
    -3
390
F
  0
ENDTAB
  0
TABLE
  2
STYLE
  5
3
330
0
100
AcDbSymbolTable
 70
     2
  0
STYLE
  5
11
330
3
100
AcDbSymbolTableRecord
100
AcDbTextStyleTableRecord
  2
Standard
 70
     0
 40
0.0
 41
1.0
 50
0.0
 71
     0
 42
3.5
  3
txt
  4

  0
STYLE
  5
93
330
3
100
AcDbSymbolTableRecord
100
AcDbTextStyleTableRecord
  2
SLDTEXTSTYLE0
 70
     0
 40
0.0
 41
0.75
 50
0.0
 71
     0
 42
3.5
  3
TXT
  4

  0
ENDTAB
  0
TABLE
  2
VIEW
  5
6
330
0
100
AcDbSymbolTable
 70
     0
  0
ENDTAB
  0
TABLE
  2
UCS
  5
7
330
0
100
AcDbSymbolTable
 70
     0
  0
ENDTAB
  0
TABLE
  2
APPID
  5
9
330
0
100
AcDbSymbolTable
 70
     3
  0
APPID
  5
12
330
9
100
AcDbSymbolTableRecord
100
AcDbRegAppTableRecord
  2
ACAD
 70
     0
  0
APPID
  5
18F
330
9
100
AcDbSymbolTableRecord
100
AcDbRegAppTableRecord
  2
ACAD_DSTYLE_DIMRADIAL_EXTENSION
 70
     0
  0
APPID
  5
235
330
9
100
AcDbSymbolTableRecord
100
AcDbRegAppTableRecord
  2
ENABLE_CUSTOM_SPLIT
 70
     0
  0
ENDTAB
  0
TABLE
  2
DIMSTYLE
  5
A
330
0
100
AcDbSymbolTable
 70
     3
100
AcDbDimStyleTable
  0
DIMSTYLE
105
27
330
A
100
AcDbSymbolTableRecord
100
AcDbDimStyleTableRecord
  2
ISO-25
 70
     0
 41
2.5
 42
0.625
 43
3.75
 44
1.25
 73
     0
 74
     0
 77
     1
 78
     8
140
2.5
141
2.5
143
0.03937007874016
147
0.625
171
     3
172
     1
178
     0
271
     2
272
     2
274
     3
278
    44
283
     0
284
     8
340
11
  0
DIMSTYLE
105
E7
102
{ACAD_REACTORS
330
E6
330
FB
330
139
330
190
102
}
330
A
100
AcDbSymbolTableRecord
100
AcDbDimStyleTableRecord
  2
SLDDIMSTYLE0
 70
     0
 41
3.302
 44
0.0
 45
0.000000001
 73
     0
 74
     0
 77
     1
 78
    12
 79
     3
140
3.5
143
0.0393700787401575
147
0.875
148
0.000000001
170
     1
172
     1
173
     1
178
     0
271
     2
272
     2
276
     2
284
    12
289
     0
340
93
  0
DIMSTYLE
105
111
102
{ACAD_REACTORS
330
110
102
}
330
A
100
AcDbSymbolTableRecord
100
AcDbDimStyleTableRecord
  2
SLDDIMSTYLE1
 70
     0
 41
3.302
 44
0.0
 45
0.000000001
 73
     0
 74
     0
 77
     1
 78
     4
 79
     1
140
3.5
143
0.0393700787401575
147
0.875
148
0.000000001
170
     1
173
     1
178
     0
271
     2
272
     2
276
     2
284
    12
340
93
  0
ENDTAB
  0
TABLE
  2
BLOCK_RECORD
  5
1
330
0
100
AcDbSymbolTable
 70
     9
  0
BLOCK_RECORD
  5
1F
102
{ACAD_XDICTIONARY
360
242
102
}
330
1
100
AcDbSymbolTableRecord
100
AcDbBlockTableRecord
  2
*Model_Space
340
22
  0
BLOCK_RECORD
  5
1B
330
1
100
AcDbSymbolTableRecord
100
AcDbBlockTableRecord
  2
*Paper_Space
340
1E
  0
BLOCK_RECORD
  5
23
330
1
100
AcDbSymbolTableRecord
100
AcDbBlockTableRecord
  2
*Paper_Space0
340
26
  0
BLOCK_RECORD
  5
7E
330
1
100
AcDbSymbolTableRecord
100
AcDbBlockTableRecord
  2
블럭10
340
0
102
{BLKREFS
331
DF
102
}
  0
BLOCK_RECORD
  5
E8
330
1
100
AcDbSymbolTableRecord
100
AcDbBlockTableRecord
  2
_D
340
0
  0
BLOCK_RECORD
  5
FC
330
1
100
AcDbSymbolTableRecord
100
AcDbBlockTableRecord
  2
_D_1
340
0
  0
BLOCK_RECORD
  5
112
330
1
100
AcDbSymbolTableRecord
100
AcDbBlockTableRecord
  2
_D_2
340
0
  0
BLOCK_RECORD
  5
125
330
1
100
AcDbSymbolTableRecord
100
AcDbBlockTableRecord
  2
_D_3
340
0
  0
BLOCK_RECORD
  5
13A
330
1
100
AcDbSymbolTableRecord
100
AcDbBlockTableRecord
  2
_D_4
340
0
  0
BLOCK_RECORD
  5
14D
330
1
100
AcDbSymbolTableRecord
100
AcDbBlockTableRecord
  2
SW_DOWELSYMBOL_0
340
0
102
{BLKREFS
331
153
102
}
  0
BLOCK_RECORD
  5
193
330
1
100
AcDbSymbolTableRecord
100
AcDbBlockTableRecord
  2
*D8
340
0
  0
ENDTAB
  0
ENDSEC
  0
SECTION
  2
BLOCKS
  0
BLOCK
  5
20
330
1F
100
AcDbEntity
  8
0
100
AcDbBlockBegin
  2
*Model_Space
 70
     0
 10
0.0
 20
0.0
 30
0.0
  3
*Model_Space
  1
*Model_Space
  0
ENDBLK
  5
21
330
1F
100
AcDbEntity
  8
0
100
AcDbBlockEnd
  0
BLOCK
  5
1C
330
1B
100
AcDbEntity
 67
     1
  8
0
100
AcDbBlockBegin
  2
*Paper_Space
 70
     0
 10
0.0
 20
0.0
 30
0.0
  3
*Paper_Space
  1
*Paper_Space
  0
ENDBLK
  5
1D
330
1B
100
AcDbEntity
 67
     1
  8
0
100
AcDbBlockEnd
  0
BLOCK
  5
24
330
23
100
AcDbEntity
  8
0
100
AcDbBlockBegin
  2
*Paper_Space0
 70
     0
 10
0.0
 20
0.0
 30
0.0
  3
*Paper_Space0
  1
*Paper_Space0
  0
ENDBLK
  5
25
330
23
100
AcDbEntity
  8
0
100
AcDbBlockEnd
  0
BLOCK
  5
7F
330
7E
100
AcDbEntity
  8
0
100
AcDbBlockBegin
  2
블럭10
 70
     2
 10
0.0
 20
0.0
 30
0.0
  3
블럭10
  1
블럭10
  0
ELLIPSE
  5
81
330
7E
100
AcDbEntity
  8
중심선
100
AcDbEllipse
 10
20.54032771741204
 20
12.0471743016438
 30
0.0
 11
6.600054785286829
 21
-1.261213355974178E-13
 31
0.0
210
0.0
220
0.0
230
1.0
 40
0.636358354079598
 41
0.9219305317359503
 42
6.513795318482858
  0
ELLIPSE
  5
82
330
7E
100
AcDbEntity
  8
중심선
100
AcDbEllipse
 10
20.54032771746488
 20
12.04717430159265
 30
0.0
 11
3.960054785062283
 21
1.540847449632565E-10
 31
0.0
210
0.0
220
0.0
230
1.0
 40
0.3939339440162632
 41
1.131841032648279
 42
5.62031148352944
  0
LINE
  5
83
330
7E
100
AcDbEntity
  8
중심선
100
AcDbLine
 10
2.268634060543552
 20
16.24717430164393
 30
0.0
 11
5.714909304380834
 21
16.24717430164393
 31
0.0
  0
LINE
  5
84
330
7E
100
AcDbEntity
  8
중심선
100
AcDbLine
 10
5.245725140726316
 20
7.84717430164391
 30
0.0
 11
8.692000384563599
 21
7.84717430164391
 31
0.0
  0
LINE
  5
85
330
7E
100
AcDbEntity
  8
중심선
100
AcDbLine
 10
15.74043728645272
 20
16.24717430164393
 30
0.0
 11
8.692000384563599
 21
7.84717430164391
 31
0.0
  0
LINE
  5
86
330
7E
100
AcDbEntity
  8
중심선
100
AcDbLine
 10
0.1404042013395286
 20
13.71084872107135
 30
0.0
 11
3.58671253028996
 21
13.71088815037384
 31
0.0
  0
LINE
  5
87
330
7E
100
AcDbEntity
  8
중심선
100
AcDbLine
 10
2.750260043222114
 20
10.84717430164391
 30
0.0
 11
6.196535287059397
 21
10.84717430164391
 31
0.0
  0
LINE
  5
88
330
7E
100
AcDbEntity
  8
중심선
100
AcDbLine
 10
12.29416204261559
 20
16.24717430164393
 30
0.0
 11
5.245725140726316
 21
7.84717430164391
 31
0.0
  0
LINE
  5
89
330
7E
100
AcDbEntity
  8
중심선
100
AcDbLine
 10
10.72767329541681
 20
16.24717430164393
 30
0.0
 11
6.196535287059397
 21
10.84717430164391
 31
0.0
  0
LINE
  5
8A
330
7E
100
AcDbEntity
  8
중심선
100
AcDbLine
 10
7.28139805157953
 20
16.24717430164393
 30
0.0
 11
2.750260043222114
 21
10.84717430164391
 31
0.0
  0
LINE
  5
8B
330
7E
100
AcDbEntity
  8
중심선
100
AcDbLine
 10
5.714909304380834
 20
16.24717430164393
 30
0.0
 11
3.58671253028996
 21
13.71088815037384
 31
0.0
  0
LINE
  5
8C
330
7E
100
AcDbEntity
  8
중심선
100
AcDbLine
 10
2.268634060543552
 20
16.24717430164393
 30
0.0
 11
0.1404042013395286
 21
13.71084872107135
 31
0.0
  0
LINE
  5
8D
330
7E
100
AcDbEntity
  8
중심선
100
AcDbLine
 10
7.28139805157953
 20
16.24717430164393
 30
0.0
 11
10.72767329541681
 21
16.24717430164393
 31
0.0
  0
LINE
  5
8E
330
7E
100
AcDbEntity
  8
중심선
100
AcDbLine
 10
12.29416204261559
 20
16.24717430164393
 30
0.0
 11
15.74043728645272
 21
16.24717430164393
 31
0.0
  0
LINE
  5
8F
330
7E
100
AcDbEntity
  8
중심선
100
AcDbLine
 10
19.22036997980202
 20
11.08717430171403
 30
0.0
 11
23.66174974927406
 21
11.08717430171406
 31
0.0
  0
LINE
  5
90
330
7E
100
AcDbEntity
  8
중심선
100
AcDbLine
 10
19.22039502424796
 20
13.00717430171391
 30
0.0
 11
19.22036997980202
 21
11.08717430171403
 31
0.0
  0
LINE
  5
91
330
7E
100
AcDbEntity
  8
중심선
100
AcDbLine
 10
19.22039502424796
 20
13.00717430171391
 30
0.0
 11
26.96566020931264
 21
13.00717430171391
 31
0.0
  0
LINE
  5
92
330
7E
100
AcDbEntity
  8
중심선
100
AcDbLine
 10
22.22332737316547
 20
13.45928029700563
 30
0.0
 11
24.52862924686651
 21
15.39360700705356
 31
0.0
  0
ATTDEF
  5
94
330
7E
100
AcDbEntity
  8
FORMAT
 62
     2
100
AcDbText
 10
-10.82367519849508
 20
2.075366912832191
 30
0.0
 40
4.233333333333333
  1
GMF21004 [ 4 FLUTE ]
 41
0.75
  7
SLDTEXTSTYLE0
 11
-10.82367519849508
 21
-0.0412997538344756
 31
0.0
100
AcDbAttributeDefinition
  3

  2
AUTOATTR0
 70
     0
 74
     1
  0
ENDBLK
  5
80
330
7E
100
AcDbEntity
  8
0
100
AcDbBlockEnd
  0
BLOCK
  5
E9
330
E8
100
AcDbEntity
  8
0
100
AcDbBlockBegin
  2
_D
 70
     0
 10
0.0
 20
0.0
 30
0.0
  3
_D
  1
_D
  0
LINE
  5
EB
330
E8
100
AcDbEntity
  8
치수문자_일반주서
 62
     0
370
    -2
100
AcDbLine
 10
-30.8446697657856
 20
1.587499999999985
 30
0.0
 11
-43.21612778739767
 21
1.587499999999939
 31
0.0
  0
LINE
  5
EC
330
E8
100
AcDbEntity
  8
치수문자_일반주서
 62
     0
370
    -2
100
AcDbLine
 10
-30.8446697657856
 20
-1.587500000000015
 30
0.0
 11
-43.21612778739766
 21
-1.587500000000061
 31
0.0
  0
LINE
  5
ED
330
E8
100
AcDbEntity
  8
치수문자_일반주서
 62
     0
370
    -2
100
AcDbLine
 10
-43.21612778739766
 20
-1.714500000000061
 30
0.0
 11
-43.21612778739767
 21
1.714499999999939
 31
0.0
  0
SOLID
  5
EE
330
E8
100
AcDbEntity
  8
치수문자_일반주서
 62
     0
100
AcDbTrace
 10
-42.66579445406433
 20
-1.714500000000059
 30
0.0
 11
-43.76646112073099
 21
-1.714500000000063
 31
0.0
 12
-43.21612778739767
 22
1.587499999999939
 32
0.0
 13
-43.21612778739767
 23
1.587499999999939
 33
0.0
  0
SOLID
  5
EF
330
E8
100
AcDbEntity
  8
치수문자_일반주서
 62
     0
100
AcDbTrace
 10
-43.76646112073101
 20
1.714499999999937
 30
0.0
 11
-42.66579445406434
 21
1.714499999999942
 31
0.0
 12
-43.21612778739766
 22
-1.587500000000061
 32
0.0
 13
-43.21612778739766
 23
-1.587500000000061
 33
0.0
  0
MTEXT
  5
F0
330
E8
100
AcDbEntity
  8
치수문자_일반주서
 62
     0
100
AcDbMText
 10
-47.59112778739767
 20
-0.000000000000029
 30
0.0
 40
3.5
 41
0.0
 71
     2
 72
     1
  1
\A1;%%c3.18 [1/8]
  7
SLDTEXTSTYLE0
 11
-4.475859752819529E-15
 21
1.0
 31
0.0
 73
     1
 44
1.0
  0
POINT
  5
F1
330
E8
100
AcDbEntity
  8
Defpoints
 62
     0
100
AcDbPoint
 10
-30.7821697657856
 20
1.587499999999986
 30
0.0
  0
POINT
  5
F2
330
E8
100
AcDbEntity
  8
Defpoints
 62
     0
100
AcDbPoint
 10
-30.7821697657856
 20
-1.587500000000014
 30
0.0
  0
POINT
  5
F3
330
E8
100
AcDbEntity
  8
Defpoints
 62
     0
100
AcDbPoint
 10
-43.21612778739766
 20
-1.587500000000061
 30
0.0
  0
ENDBLK
  5
EA
330
E8
100
AcDbEntity
  8
0
100
AcDbBlockEnd
  0
BLOCK
  5
FD
330
FC
100
AcDbEntity
  8
0
100
AcDbBlockBegin
  2
_D_1
 70
     0
 10
0.0
 20
0.0
 30
0.0
  3
_D_1
  1
_D_1
  0
LINE
  5
FF
330
FC
100
AcDbEntity
  8
치수문자_일반주서
 62
     0
370
    -2
100
AcDbLine
 10
4.4365802342144
 20
0.8309999999999843
 30
0.0
 11
4.4365802342144
 21
16.41790635426784
 31
0.0
  0
LINE
  5
100
330
FC
100
AcDbEntity
  8
치수문자_일반주서
 62
     0
370
    -2
100
AcDbLine
 10
6.817830234214398
 20
0.7500836180967234
 30
0.0
 11
6.817830234214398
 21
16.41790635426784
 31
0.0
  0
LINE
  5
101
330
FC
100
AcDbEntity
  8
치수문자_일반주서
 62
     0
370
    -2
100
AcDbLine
 10
4.4365802342144
 20
16.41790635426784
 30
0.0
 11
-28.4174197657856
 21
16.41790635426784
 31
0.0
  0
LINE
  5
102
330
FC
100
AcDbEntity
  8
치수문자_일반주서
 62
     0
370
    -2
100
AcDbLine
 10
4.4365802342144
 20
16.41790635426784
 30
0.0
 11
6.817830234214398
 21
16.41790635426784
 31
0.0
  0
LINE
  5
103
330
FC
100
AcDbEntity
  8
치수문자_일반주서
 62
     0
370
    -2
100
AcDbLine
 10
1.1345802342144
 20
16.41790635426784
 30
0.0
 11
-2.1674197657856
 21
16.41790635426784
 31
0.0
  0
LINE
  5
104
330
FC
100
AcDbEntity
  8
치수문자_일반주서
 62
     0
370
    -2
100
AcDbLine
 10
10.1198302342144
 20
16.41790635426784
 30
0.0
 11
13.4218302342144
 21
16.41790635426784
 31
0.0
  0
SOLID
  5
105
330
FC
100
AcDbEntity
  8
치수문자_일반주서
 62
     0
100
AcDbTrace
 10
1.1345802342144
 20
15.86757302093451
 30
0.0
 11
1.1345802342144
 21
16.96823968760117
 31
0.0
 12
4.4365802342144
 22
16.41790635426784
 32
0.0
 13
4.4365802342144
 23
16.41790635426784
 33
0.0
  0
SOLID
  5
106
330
FC
100
AcDbEntity
  8
치수문자_일반주서
 62
     0
100
AcDbTrace
 10
10.1198302342144
 20
16.96823968760117
 30
0.0
 11
10.1198302342144
 21
15.86757302093451
 31
0.0
 12
6.817830234214398
 22
16.41790635426784
 32
0.0
 13
6.817830234214398
 23
16.41790635426784
 33
0.0
  0
MTEXT
  5
107
330
FC
100
AcDbEntity
  8
치수문자_일반주서
 62
     0
100
AcDbMText
 10
-15.2924197657856
 20
20.79290635426784
 30
0.0
 40
3.5
 41
0.0
 71
     2
 72
     1
  1
\A1;2.38 [3/32]
  7
SLDTEXTSTYLE0
 73
     1
 44
1.0
  0
POINT
  5
184
330
FC
100
AcDbEntity
  8
Defpoints
 62
     0
100
AcDbPoint
 10
4.4365802342144
 20
0.7684999999999843
 30
0.0
  0
POINT
  5
185
330
FC
100
AcDbEntity
  8
Defpoints
 62
     0
100
AcDbPoint
 10
6.817830234214398
 20
0.6875836180967234
 30
0.0
  0
POINT
  5
186
330
FC
100
AcDbEntity
  8
Defpoints
 62
     0
100
AcDbPoint
 10
6.817830234214398
 20
16.41790635426784
 30
0.0
  0
ENDBLK
  5
FE
330
FC
100
AcDbEntity
  8
0
100
AcDbBlockEnd
  0
BLOCK
  5
113
330
112
100
AcDbEntity
  8
0
100
AcDbBlockBegin
  2
_D_2
 70
     0
 10
0.0
 20
0.0
 30
0.0
  3
_D_2
  1
_D_2
  0
LINE
  5
115
330
112
100
AcDbEntity
  8
치수문자_일반주서
 62
     0
370
    -2
100
AcDbLine
 10
-31.2821697657856
 20
1.649999999999985
 30
0.0
 11
-31.2821697657856
 21
48.38125
 31
0.0
  0
LINE
  5
116
330
112
100
AcDbEntity
  8
치수문자_일반주서
 62
     0
370
    -2
100
AcDbLine
 10
6.817830234214398
 20
0.7500836180967234
 30
0.0
 11
6.817830234214401
 21
48.38125
 31
0.0
  0
LINE
  5
117
330
112
100
AcDbEntity
  8
치수문자_일반주서
 62
     0
370
    -2
100
AcDbLine
 10
-27.9801697657856
 20
48.38125
 30
0.0
 11
3.515830234214401
 21
48.38125
 31
0.0
  0
SOLID
  5
118
330
112
100
AcDbEntity
  8
치수문자_일반주서
 62
     0
100
AcDbTrace
 10
-27.9801697657856
 20
48.93158333333334
 30
0.0
 11
-27.9801697657856
 21
47.83091666666667
 31
0.0
 12
-31.2821697657856
 22
48.38125
 32
0.0
 13
-31.2821697657856
 23
48.38125
 33
0.0
  0
SOLID
  5
119
330
112
100
AcDbEntity
  8
치수문자_일반주서
 62
     0
100
AcDbTrace
 10
3.515830234214401
 20
47.83091666666667
 30
0.0
 11
3.515830234214401
 21
48.93158333333334
 31
0.0
 12
6.817830234214401
 22
48.38125
 32
0.0
 13
6.817830234214401
 23
48.38125
 33
0.0
  0
MTEXT
  5
11A
330
112
100
AcDbEntity
  8
치수문자_일반주서
 62
     0
100
AcDbMText
 10
-12.2321697657856
 20
52.75625
 30
0.0
 40
3.5
 41
0.0
 71
     2
 72
     1
  1
\A1;38.10 [1 1/2]
  7
SLDTEXTSTYLE0
 73
     1
 44
1.0
  0
POINT
  5
11B
330
112
100
AcDbEntity
  8
Defpoints
 62
     0
100
AcDbPoint
 10
-31.2821697657856
 20
1.587499999999985
 30
0.0
  0
POINT
  5
11C
330
112
100
AcDbEntity
  8
Defpoints
 62
     0
100
AcDbPoint
 10
6.817830234214398
 20
0.6875836180967234
 30
0.0
  0
POINT
  5
11D
330
112
100
AcDbEntity
  8
Defpoints
 62
     0
100
AcDbPoint
 10
6.817830234214398
 20
48.38125
 30
0.0
  0
ENDBLK
  5
114
330
112
100
AcDbEntity
  8
0
100
AcDbBlockEnd
  0
BLOCK
  5
126
330
125
100
AcDbEntity
  8
0
100
AcDbBlockBegin
  2
_D_3
 70
     0
 10
0.0
 20
0.0
 30
0.0
  3
_D_3
  1
_D_3
  0
LINE
  5
128
330
125
100
AcDbEntity
  8
치수문자_일반주서
 62
     0
370
    -2
100
AcDbLine
 10
12.36886494982197
 20
0.7500836180967287
 30
0.0
 11
12.36886494982197
 21
33.02418139684177
 31
0.0
  0
LINE
  5
129
330
125
100
AcDbEntity
  8
치수문자_일반주서
 62
     0
370
    -2
100
AcDbLine
 10
6.018864939906718
 20
0.8309999999999863
 30
0.0
 11
6.018864939906717
 21
33.02418139684177
 31
0.0
  0
LINE
  5
12A
330
125
100
AcDbEntity
  8
치수문자_일반주서
 62
     0
370
    -2
100
AcDbLine
 10
6.018864939906717
 20
33.02418139684177
 30
0.0
 11
-23.33513506009328
 21
33.02418139684177
 31
0.0
  0
LINE
  5
12B
330
125
100
AcDbEntity
  8
치수문자_일반주서
 62
     0
370
    -2
100
AcDbLine
 10
12.36886494982197
 20
33.02418139684177
 30
0.0
 11
6.018864939906717
 21
33.02418139684177
 31
0.0
  0
LINE
  5
12C
330
125
100
AcDbEntity
  8
치수문자_일반주서
 62
     0
370
    -2
100
AcDbLine
 10
15.67086494982196
 20
33.02418139684177
 30
0.0
 11
18.97286494982196
 21
33.02418139684177
 31
0.0
  0
LINE
  5
12D
330
125
100
AcDbEntity
  8
치수문자_일반주서
 62
     0
370
    -2
100
AcDbLine
 10
2.716864939906717
 20
33.02418139684177
 30
0.0
 11
-0.5851350600932825
 21
33.02418139684177
 31
0.0
  0
SOLID
  5
12E
330
125
100
AcDbEntity
  8
치수문자_일반주서
 62
     0
100
AcDbTrace
 10
15.67086494982196
 20
33.5745147301751
 30
0.0
 11
15.67086494982196
 21
32.47384806350843
 31
0.0
 12
12.36886494982197
 22
33.02418139684177
 32
0.0
 13
12.36886494982197
 23
33.02418139684177
 33
0.0
  0
SOLID
  5
12F
330
125
100
AcDbEntity
  8
치수문자_일반주서
 62
     0
100
AcDbTrace
 10
2.716864939906717
 20
32.47384806350843
 30
0.0
 11
2.716864939906717
 21
33.5745147301751
 31
0.0
 12
6.018864939906717
 22
33.02418139684177
 32
0.0
 13
6.018864939906717
 23
33.02418139684177
 33
0.0
  0
MTEXT
  5
130
330
125
100
AcDbEntity
  8
치수문자_일반주서
 62
     0
100
AcDbMText
 10
-11.96013506009328
 20
37.39918139684177
 30
0.0
 40
3.5
 41
0.0
 71
     2
 72
     1
  1
\A1;6.35 [1/4]
  7
SLDTEXTSTYLE0
 73
     1
 44
1.0
  0
POINT
  5
187
330
125
100
AcDbEntity
  8
Defpoints
 62
     0
100
AcDbPoint
 10
12.36886494982197
 20
0.6875836180967287
 30
0.0
  0
POINT
  5
18D
330
125
100
AcDbEntity
  8
Defpoints
 62
     0
100
AcDbPoint
 10
6.018864939906718
 20
0.7684999999999863
 30
0.0
  0
POINT
  5
18E
330
125
100
AcDbEntity
  8
Defpoints
 62
     0
100
AcDbPoint
 10
6.018864939906718
 20
33.02418139684177
 30
0.0
  0
ENDBLK
  5
127
330
125
100
AcDbEntity
  8
0
100
AcDbBlockEnd
  0
BLOCK
  5
13B
330
13A
100
AcDbEntity
  8
0
100
AcDbBlockBegin
  2
_D_4
 70
     0
 10
0.0
 20
0.0
 30
0.0
  3
_D_4
  1
_D_4
  0
LINE
  5
13D
330
13A
100
AcDbEntity
  8
치수문자_일반주서
 62
     0
370
    -2
100
AcDbLine
 10
6.532158239669858
 20
0.7937499999999861
 30
0.0
 11
20.53247550918733
 21
0.7937500000000384
 31
0.0
  0
LINE
  5
13E
330
13A
100
AcDbEntity
  8
치수문자_일반주서
 62
     0
370
    -2
100
AcDbLine
 10
6.532158239669858
 20
-0.7937500000000138
 30
0.0
 11
20.53247550918734
 21
-0.7937499999999602
 31
0.0
  0
LINE
  5
13F
330
13A
100
AcDbEntity
  8
치수문자_일반주서
 62
     0
370
    -2
100
AcDbLine
 10
20.53247550918733
 20
0.7937500000000384
 30
0.0
 11
20.53247550918718
 21
33.64775000000007
 31
0.0
  0
LINE
  5
140
330
13A
100
AcDbEntity
  8
치수문자_일반주서
 62
     0
370
    -2
100
AcDbLine
 10
20.53247550918733
 20
0.7937500000000384
 30
0.0
 11
20.53247550918734
 21
-0.7937499999999602
 31
0.0
  0
LINE
  5
141
330
13A
100
AcDbEntity
  8
치수문자_일반주서
 62
     0
370
    -2
100
AcDbLine
 10
20.53247550918731
 20
4.095750000000038
 30
0.0
 11
20.5324755091873
 21
7.397750000000038
 31
0.0
  0
LINE
  5
142
330
13A
100
AcDbEntity
  8
치수문자_일반주서
 62
     0
370
    -2
100
AcDbLine
 10
20.53247550918735
 20
-4.09574999999996
 30
0.0
 11
20.53247550918736
 21
-7.397749999999959
 31
0.0
  0
SOLID
  5
143
330
13A
100
AcDbEntity
  8
치수문자_일반주서
 62
     0
100
AcDbTrace
 10
19.98214217585398
 20
4.095750000000035
 30
0.0
 11
21.08280884252065
 21
4.095750000000041
 31
0.0
 12
20.53247550918733
 22
0.7937500000000384
 32
0.0
 13
20.53247550918733
 23
0.7937500000000384
 33
0.0
  0
SOLID
  5
144
330
13A
100
AcDbEntity
  8
치수문자_일반주서
 62
     0
100
AcDbTrace
 10
21.08280884252068
 20
-4.095749999999957
 30
0.0
 11
19.98214217585402
 21
-4.095749999999962
 31
0.0
 12
20.53247550918734
 22
-0.7937499999999602
 32
0.0
 13
20.53247550918734
 23
-0.7937499999999602
 33
0.0
  0
MTEXT
  5
145
330
13A
100
AcDbEntity
  8
치수문자_일반주서
 62
     0
100
AcDbMText
 10
16.15747550918724
 20
20.52275000000005
 30
0.0
 40
3.5
 41
0.0
 71
     2
 72
     1
  1
\A1;%%c1.59 [1/16]
  7
SLDTEXTSTYLE0
 11
-4.475859752819529E-15
 21
1.0
 31
0.0
 73
     1
 44
1.0
  0
POINT
  5
17F
330
13A
100
AcDbEntity
  8
Defpoints
 62
     0
100
AcDbPoint
 10
6.469658239669858
 20
0.7937499999999859
 30
0.0
  0
POINT
  5
180
330
13A
100
AcDbEntity
  8
Defpoints
 62
     0
100
AcDbPoint
 10
6.469658239669858
 20
-0.793750000000014
 30
0.0
  0
POINT
  5
181
330
13A
100
AcDbEntity
  8
Defpoints
 62
     0
100
AcDbPoint
 10
20.53247550918734
 20
-0.7937499999999615
 30
0.0
  0
ENDBLK
  5
13C
330
13A
100
AcDbEntity
  8
0
100
AcDbBlockEnd
  0
BLOCK
  5
14E
330
14D
100
AcDbEntity
  8
0
100
AcDbBlockBegin
  2
SW_DOWELSYMBOL_0
 70
     0
 10
0.0
 20
0.0
 30
0.0
  3
SW_DOWELSYMBOL_0
  1
SW_DOWELSYMBOL_0
  0
CIRCLE
  5
150
330
14D
100
AcDbEntity
  8
외형선
 62
     0
100
AcDbCircle
 10
0.0
 20
0.0
 30
0.0
 40
3.000000000000004
  0
HATCH
  5
151
330
14D
100
AcDbEntity
  8
0
  6
Continuous
 62
     0
370
    30
100
AcDbHatch
 10
0.0
 20
0.0
 30
0.0
210
0.0
220
0.0
230
1.0
  2
SOLID
 70
     1
 71
     0
 91
        1
 92
        0
 93
        3
 72
     2
 10
0.0
 20
0.0
 40
3.000000000000004
 50
0.0
 51
90.0
 73
     1
 72
     1
 10
0.0
 20
3.000000000000004
 11
0.0
 21
0.0
 72
     1
 10
0.0
 20
0.0
 11
3.000000000000004
 21
0.0
 97
        0
 75
     0
 76
     1
 98
        1
 10
0.0
 20
0.0
  0
HATCH
  5
152
330
14D
100
AcDbEntity
  8
0
  6
Continuous
 62
     0
370
    30
100
AcDbHatch
 10
0.0
 20
0.0
 30
0.0
210
0.0
220
0.0
230
1.0
  2
SOLID
 70
     1
 71
     0
 91
        1
 92
        0
 93
        3
 72
     2
 10
0.0
 20
0.0
 40
3.000000000000004
 50
180.0
 51
270.0000000000007
 73
     1
 72
     1
 10
0.0
 20
-3.000000000000004
 11
0.0
 21
0.0
 72
     1
 10
0.0
 20
0.0
 11
-3.000000000000004
 21
0.0
 97
        0
 75
     0
 76
     1
 98
        1
 10
0.0
 20
0.0
  0
ENDBLK
  5
14F
330
14D
100
AcDbEntity
  8
0
100
AcDbBlockEnd
  0
BLOCK
  5
194
330
193
100
AcDbEntity
  8
0
100
AcDbBlockBegin
  2
*D8
 70
     1
 10
0.0
 20
0.0
 30
0.0
  3
*D8
  1
*D8
  0
LINE
  5
196
330
193
100
AcDbEntity
  8
치수문자_일반주서
 62
     0
370
    -2
100
AcDbLine
 10
8.228642635540597
 20
-3.741264902445432
 30
0.0
 11
22.72111362597814
 21
-32.95896321770164
 31
0.0
  0
MTEXT
  5
197
330
193
100
AcDbEntity
  8
치수문자_일반주서
 62
     0
100
AcDbMText
 10
19.53214738137925
 20
-20.62239781831641
 30
0.0
 40
3.5
 41
0.0
 71
     5
 72
     1
  1
\A1;R.1 [R0.004]
  7
SLDTEXTSTYLE0
 11
0.4443566815507689
 21
-0.8958499537094305
 31
0.0
 73
     1
 44
1.0
  0
LINE
  5
198
330
193
100
AcDbEntity
  8
치수문자_일반주서
 62
     0
370
    -2
100
AcDbLine
 10
6.7162302342144
 20
-0.692150000000014
 30
0.0
 11
6.761376873059959
 21
-0.7831683552968931
 31
0.0
  0
SOLID
  5
199
330
193
100
AcDbEntity
  8
치수문자_일반주서
 62
     0
100
AcDbTrace
 10
8.721658726732022
 20
-3.49672060869866
 30
0.0
 11
7.735626544349175
 21
-3.985809196192206
 31
0.0
 12
6.761376873059959
 22
-0.7831683552968931
 32
0.0
 13
6.761376873059959
 23
-0.7831683552968931
 33
0.0
  0
POINT
  5
19A
330
193
100
AcDbEntity
  8
Defpoints
 62
     0
100
AcDbPoint
 10
6.761376873059959
 20
-0.7831683552968931
 30
0.0
  0
POINT
  5
19B
330
193
100
AcDbEntity
  8
Defpoints
 62
     0
100
AcDbPoint
 10
6.7162302342144
 20
-0.692150000000014
 30
0.0
  0
ENDBLK
  5
195
330
193
100
AcDbEntity
  8
0
100
AcDbBlockEnd
  0
ENDSEC
  0
SECTION
  2
ENTITIES
  0
LINE
  5
97
330
1F
100
AcDbEntity
  8
0
  6
Continuous
 62
   131
370
    15
100
AcDbLine
 10
-30.7821697657856
 20
1.587499999999985
 30
0.0
 11
-31.2821697657856
 21
1.087499999999984
 31
0.0
  0
LINE
  5
98
330
1F
100
AcDbEntity
  8
0
  6
Continuous
 62
   131
370
    15
100
AcDbLine
 10
-31.2821697657856
 20
-1.087500000000015
 30
0.0
 11
-30.7821697657856
 21
-1.587500000000014
 31
0.0
  0
LINE
  5
99
330
1F
100
AcDbEntity
  8
0
  6
Continuous
 62
   131
370
    15
100
AcDbLine
 10
0.0000000000000195
 20
-1.587500000000001
 30
0.0
 11
3.056549611398975
 21
-0.7684999999999853
 31
0.0
  0
LINE
  5
9A
330
1F
100
AcDbEntity
  8
0
  6
Continuous
 62
   131
370
    15
100
AcDbLine
 10
3.056549611398975
 20
0.768499999999981
 30
0.0
 11
0.0
 21
1.5875
 31
0.0
  0
LINE
  5
9B
330
1F
100
AcDbEntity
  8
0
  6
Continuous
 62
   131
370
    15
100
AcDbLine
 10
3.741699996091494
 20
0.7684999999999841
 30
0.0
 11
3.056549611398964
 21
0.7684999999999839
 31
0.0
  0
LINE
  5
9C
330
1F
100
AcDbEntity
  8
0
  6
Continuous
 62
   131
370
    15
100
AcDbLine
 10
4.4365802342144
 20
0.7684999999999843
 30
0.0
 11
4.0139152647229
 21
0.7684999999999842
 31
0.0
  0
LINE
  5
9D
330
1F
100
AcDbEntity
  8
0
  6
Continuous
 62
   131
370
    15
100
AcDbLine
 10
4.013915264722893
 20
-0.7684999999999865
 30
0.0
 11
4.4365802342144
 21
-0.7684999999999864
 31
0.0
  0
LINE
  5
9E
330
1F
100
AcDbEntity
  8
0
  6
Continuous
 62
   131
370
    15
100
AcDbLine
 10
3.056549611398969
 20
-0.7684999999999869
 30
0.0
 11
3.741699996091505
 21
-0.7684999999999866
 31
0.0
  0
LINE
  5
9F
330
1F
100
AcDbEntity
  8
0
  6
Continuous
 62
     1
370
    15
100
AcDbLine
 10
6.470271988707267
 20
-0.793750000000014
 30
0.0
 11
6.7162302342144
 21
-0.793750000000014
 31
0.0
  0
LINE
  5
A0
330
1F
100
AcDbEntity
  8
0
  6
Continuous
 62
     1
370
    15
100
AcDbLine
 10
5.045857220781375
 20
0.7197557362133306
 30
0.0
 11
5.045854439230464
 21
0.7202620034210605
 31
0.0
  0
ARC
  5
A1
330
1F
100
AcDbEntity
  8
0
  6
Continuous
 62
     1
370
    15
100
AcDbCircle
 10
6.7162302342144
 20
-0.692150000000014
 30
0.0
 40
0.1016000000000012
100
AcDbArc
 50
270.0
 51
0.0000000000007513
  0
LINE
  5
A2
330
1F
100
AcDbEntity
  8
0
  6
Continuous
 62
     1
370
    15
100
AcDbLine
 10
5.045854439230456
 20
-0.7202620034210874
 30
0.0
 11
5.045857220781368
 21
-0.7197557362133576
 31
0.0
  0
ARC
  5
A3
330
1F
100
AcDbEntity
  8
0
  6
Continuous
 62
     1
370
    15
100
AcDbCircle
 10
6.7162302342144
 20
0.6921499999999859
 30
0.0
 40
0.1016000000000012
100
AcDbArc
 50
0.0000000000000626
 51
90.0
  0
LINE
  5
A4
330
1F
100
AcDbEntity
  8
0
  6
Continuous
 62
     1
370
    15
100
AcDbLine
 10
6.7162302342144
 20
0.7937499999999859
 30
0.0
 11
6.470271988707267
 21
0.7937499999999859
 31
0.0
  0
LINE
  5
A5
330
1F
100
AcDbEntity
  8
0
  6
Continuous
 62
   131
370
    15
100
AcDbLine
 10
0.0
 20
1.5875
 30
0.0
 11
0.0
 21
-1.5875
 31
0.0
  0
LINE
  5
A6
330
1F
100
AcDbEntity
  8
0
  6
Continuous
 62
   131
370
    15
100
AcDbLine
 10
-30.7821697657856
 20
1.587499999999986
 30
0.0
 11
-30.7821697657856
 21
-1.587500000000015
 31
0.0
  0
LINE
  5
A8
330
1F
100
AcDbEntity
  8
0
  6
Continuous
 62
   131
370
    15
100
AcDbLine
 10
3.056549611398975
 20
0.768499999999981
 30
0.0
 11
3.056549611398975
 21
-0.7684999999999852
 31
0.0
  0
SPLINE
  5
A9
330
1F
100
AcDbEntity
  8
0
  6
Continuous
 62
   131
370
    15
100
AcDbSpline
210
0.0
220
0.0
230
1.0
 70
     8
 71
     3
 72
    10
 73
     6
 74
     0
 42
0.000000001
 43
0.00000001
 40
0.0
 40
0.0
 40
0.0
 40
0.0
 40
0.5
 40
0.5
 40
1.0
 40
1.0
 40
1.0
 40
1.0
 10
3.77013865883664
 20
-0.6279807217345262
 30
0.0
 10
3.726278050035685
 20
-0.6153635055736475
 30
0.0
 10
3.690593924414905
 20
-0.594175909304802
 30
0.0
 10
3.645180418981965
 20
-0.5357606590608749
 30
0.0
 10
3.636722949893808
 20
-0.499428840510653
 30
0.0
 10
3.636722949893805
 20
-0.4602736880844573
 30
0.0
  0
SPLINE
  5
AA
330
1F
100
AcDbEntity
  8
0
  6
Continuous
 62
   131
370
    15
100
AcDbSpline
210
0.0
220
0.0
230
1.0
 70
     8
 71
     3
 72
    12
 73
     8
 74
     0
 42
0.000000001
 43
0.00000001
 40
0.0
 40
0.0
 40
0.0
 40
0.0
 40
0.25
 40
0.25
 40
0.5
 40
0.5
 40
1.0
 40
1.0
 40
1.0
 40
1.0
 10
3.636722949894016
 20
-0.2216434361476317
 30
0.0
 10
3.636722949894016
 20
-0.1809603975097234
 30
0.0
 10
3.642869097537666
 20
-0.1391908713782402
 30
0.0
 10
3.676116289227456
 20
-0.0624034929601645
 30
0.0
 10
3.702928313224643
 20
-0.0280240028469043
 30
0.0
 10
3.80615855064708
 20
0.04697212395478
 30
0.0
 10
3.901514344966376
 20
0.0551913589189286
 30
0.0
 10
3.978171627427304
 20
0.0175697230806764
 30
0.0
  0
LINE
  5
AB
330
1F
100
AcDbEntity
  8
0
  6
Continuous
 62
   131
370
    15
100
AcDbLine
 10
4.4365802342144
 20
-0.2119837247390792
 30
0.0
 11
4.4365802342144
 21
-0.755209808657224
 31
0.0
  0
SPLINE
  5
AC
330
1F
100
AcDbEntity
  8
0
  6
Continuous
 62
   131
370
    15
100
AcDbSpline
210
0.0
220
0.0
230
1.0
 70
     8
 71
     3
 72
    10
 73
     6
 74
     0
 42
0.000000001
 43
0.00000001
 40
0.0
 40
0.0
 40
0.0
 40
0.0
 40
0.5
 40
0.5
 40
1.0
 40
1.0
 40
1.0
 40
1.0
 10
4.4365802342144
 20
-0.755209808657224
 30
0.0
 10
4.326291512773459
 20
-0.7450802837833037
 30
0.0
 10
4.216496225223139
 20
-0.729236574253843
 30
0.0
 10
3.99206768204159
 20
-0.6863754063792439
 30
0.0
 10
3.879420420065259
 20
-0.6594173944473513
 30
0.0
 10
3.770138658838195
 20
-0.6279807217349741
 30
0.0
  0
SPLINE
  5
AD
330
1F
100
AcDbEntity
  8
0
  6
Continuous
 62
   131
370
    15
100
AcDbSpline
210
0.0
220
0.0
230
1.0
 70
     8
 71
     3
 72
    10
 73
     6
 74
     0
 42
0.000000001
 43
0.00000001
 40
0.0
 40
0.0
 40
0.0
 40
0.0
 40
0.5
 40
0.5
 40
1.0
 40
1.0
 40
1.0
 40
1.0
 10
4.4365802342144
 20
-0.2060588587487226
 30
0.0
 10
4.360776006658099
 20
-0.1698364582125653
 30
0.0
 10
4.285963550127402
 20
-0.133035079776629
 30
0.0
 10
4.132617148257033
 20
-0.0581373742694949
 30
0.0
 10
4.055158535319606
 20
-0.0202136853582118
 30
0.0
 10
3.978171627435141
 20
0.0175697230768344
 30
0.0
  0
LINE
  5
AE
330
1F
100
AcDbEntity
  8
0
  6
Continuous
 62
   131
370
    15
100
AcDbLine
 10
4.369873109299138
 20
0.1736569289940128
 30
0.0
 11
4.4365802342144
 21
0.2060588587486951
 31
0.0
  0
LINE
  5
AF
330
1F
100
AcDbEntity
  8
0
  6
Continuous
 62
   131
370
    15
100
AcDbLine
 10
4.4365802342144
 20
0.7658481266145081
 30
0.0
 11
4.4365802342144
 21
0.7403593699894726
 31
0.0
  0
SPLINE
  5
B0
330
1F
100
AcDbEntity
  8
0
  6
Continuous
 62
   131
370
    15
100
AcDbSpline
210
0.0
220
0.0
230
1.0
 70
     8
 71
     3
 72
    10
 73
     6
 74
     0
 42
0.000000001
 43
0.00000001
 40
0.0
 40
0.0
 40
0.0
 40
0.0
 40
0.5
 40
0.5
 40
1.0
 40
1.0
 40
1.0
 40
1.0
 10
4.4365802342144
 20
0.7403593699894367
 30
0.0
 10
4.360776006658099
 20
0.7504408882603889
 30
0.0
 10
4.285963550127402
 20
0.7578379583100325
 30
0.0
 10
4.132617148257033
 20
0.7672266609156247
 30
0.0
 10
4.055158535319606
 20
0.7691631747871834
 30
0.0
 10
3.978171627435141
 20
0.7682991310882628
 30
0.0
  0
SPLINE
  5
B1
330
1F
100
AcDbEntity
  8
0
  6
Continuous
 62
   131
370
    15
100
AcDbSpline
210
0.0
220
0.0
230
1.0
 70
     8
 71
     3
 72
    12
 73
     8
 74
     0
 42
0.000000001
 43
0.00000001
 40
0.0
 40
0.0
 40
0.0
 40
0.0
 40
0.2499999999999999
 40
0.2499999999999999
 40
0.4999999999999999
 40
0.4999999999999999
 40
1.0
 40
1.0
 40
1.0
 40
1.0
 10
3.636722949894016
 20
0.7358440304933094
 30
0.0
 10
3.636722949894016
 20
0.7480981605846919
 30
0.0
 10
3.642869097537666
 20
0.7567813616805139
 30
0.0
 10
3.676116289227451
 20
0.7669406314235907
 30
0.0
 10
3.702928313224643
 20
0.7683956340307678
 30
0.0
 10
3.80615855064708
 20
0.7686908677119025
 30
0.0
 10
3.901514344966376
 20
0.767438786859248
 30
0.0
 10
3.978171627427308
 20
0.7682991310881744
 30
0.0
  0
LINE
  5
B2
330
1F
100
AcDbEntity
  8
0
  6
Continuous
 62
   131
370
    15
100
AcDbLine
 10
3.636722949894016
 20
0.7358440304933093
 30
0.0
 11
3.636722949894016
 21
0.6154188671605135
 31
0.0
  0
SPLINE
  5
B3
330
1F
100
AcDbEntity
  8
0
  6
Continuous
 62
   131
370
    15
100
AcDbSpline
210
0.0
220
0.0
230
1.0
 70
     8
 71
     3
 72
    10
 73
     6
 74
     0
 42
0.000000001
 43
0.00000001
 40
0.0
 40
0.0
 40
0.0
 40
0.0
 40
0.5000000000000001
 40
0.5000000000000001
 40
1.0
 40
1.0
 40
1.0
 40
1.0
 10
3.77013865883664
 20
0.442981334967704
 30
0.0
 10
3.726278050035685
 20
0.4608677962823022
 30
0.0
 10
3.690593924414901
 20
0.4892888846983234
 30
0.0
 10
3.645180418981962
 20
0.5526383447519512
 30
0.0
 10
3.636722949893808
 20
0.5861346066732158
 30
0.0
 10
3.636722949893805
 20
0.6154188671604955
 30
0.0
  0
SPLINE
  5
B4
330
1F
100
AcDbEntity
  8
0
  6
Continuous
 62
   131
370
    15
100
AcDbSpline
210
0.0
220
0.0
230
1.0
 70
     8
 71
     3
 72
    10
 73
     6
 74
     0
 42
0.000000001
 43
0.00000001
 40
0.0
 40
0.0
 40
0.0
 40
0.0
 40
0.5
 40
0.5
 40
1.0
 40
1.0
 40
1.0
 40
1.0
 10
4.4365802342144
 20
0.1423038822657953
 30
0.0
 10
4.326291512773459
 20
0.1960614918265269
 30
0.0
 10
4.216496225223139
 20
0.2486632582104263
 30
0.0
 10
3.99206768204159
 20
0.3500117122769308
 30
0.0
 10
3.879420420065259
 20
0.3984159710102977
 30
0.0
 10
3.770138658838195
 20
0.4429813349670689
 30
0.0
  0
LINE
  5
B5
330
1F
100
AcDbEntity
  8
0
  6
Continuous
 62
   131
370
    15
100
AcDbLine
 10
4.4365802342144
 20
0.1423038822657953
 30
0.0
 11
4.4365802342144
 21
-0.0341700895998746
 31
0.0
  0
LINE
  5
B6
330
1F
100
AcDbEntity
  8
0
  6
Continuous
 62
   131
370
    15
100
AcDbLine
 10
3.636722949894016
 20
-0.2216434361476318
 30
0.0
 11
3.636722949894016
 21
-0.4602736880844409
 31
0.0
  0
LINE
  5
B7
330
1F
100
AcDbEntity
  8
0
  6
Continuous
 62
   131
370
    15
100
AcDbLine
 10
4.4365802342144
 20
-0.755209808657224
 30
0.0
 11
4.4365802342144
 21
-0.7684999999999864
 31
0.0
  0
LINE
  5
B8
330
1F
100
AcDbEntity
  8
0
  6
Continuous
 62
   131
370
    15
100
AcDbLine
 10
3.978171627435141
 20
-0.7682991310882906
 30
0.0
 11
4.013915264722893
 21
-0.7672524554761091
 31
0.0
  0
SPLINE
  5
B9
330
1F
100
AcDbEntity
  8
0
  6
Continuous
 62
   131
370
    15
100
AcDbSpline
210
0.0
220
0.0
230
1.0
 70
     8
 71
     3
 72
    12
 73
     8
 74
     0
 42
0.000000001
 43
0.00000001
 40
0.0
 40
0.0
 40
0.0
 40
0.0
 40
0.0013026328782894
 40
0.3131966448870317
 40
0.6289232322850601
 40
0.9476857479791513
 40
1.0
 40
1.0
 40
1.0
 40
1.0
 10
3.741699996091505
 20
-0.7684918170552435
 30
0.0
 10
3.741776618116308
 20
-0.7684945425010461
 30
0.0
 10
3.76019912340767
 20
-0.769149831105686
 30
0.0
 10
3.812395584880921
 20
-0.7673703648202211
 30
0.0
 10
3.889649029914153
 20
-0.7672166442064089
 30
0.0
 10
3.946559795718268
 20
-0.7679188783810502
 30
0.0
 10
3.974265665199059
 20
-0.7682521470119331
 30
0.0
 10
3.978171627427304
 20
-0.7682991310881769
 30
0.0
  0
SPLINE
  5
BA
330
1F
100
AcDbEntity
  8
0
  6
Continuous
 62
     1
370
    15
100
AcDbSpline
210
0.0
220
0.0
230
1.0
 70
     8
 71
     3
 72
    16
 73
    12
 74
     0
 42
0.000000001
 43
0.00000001
 40
0.0
 40
0.0
 40
0.0
 40
0.0
 40
0.1250000000000002
 40
0.1250000000000002
 40
0.2500000000000003
 40
0.2500000000000003
 40
0.5000000000000002
 40
0.5000000000000002
 40
0.7500000000000001
 40
0.7500000000000001
 40
1.0
 40
1.0
 40
1.0
 40
1.0
 10
6.716230234214215
 20
-0.1246088439596215
 30
0.0
 10
6.621628944907734
 20
-0.0769034048640584
 30
0.0
 10
6.525317407038042
 20
-0.0282145448899171
 30
0.0
 10
6.334067156547469
 20
0.0687093706432299
 30
0.0
 10
6.240606047041972
 20
0.1166896319906198
 30
0.0
 10
5.958471459328212
 20
0.2582037146826029
 30
0.0
 10
5.7633976925714
 20
0.3499115485864199
 30
0.0
 10
5.389845160206317
 20
0.51151497318222
 30
0.0
 10
5.193461408760857
 20
0.5838291792949585
 30
0.0
 10
4.819492208115893
 20
0.6974591725001469
 30
0.0
 10
4.62484867512261
 20
0.7405002382897614
 30
0.0
 10
4.436580234214397
 20
0.7658481266145046
 30
0.0
  0
SPLINE
  5
BB
330
1F
100
AcDbEntity
  8
0
  6
Continuous
 62
     1
370
    15
100
AcDbSpline
210
0.0
220
0.0
230
1.0
 70
     8
 71
     3
 72
     8
 73
     4
 74
     0
 42
0.000000001
 43
0.00000001
 40
0.0
 40
0.0
 40
0.0
 40
0.0
 40
0.0000244115030204
 40
0.0000244115030204
 40
0.0000244115030204
 40
0.0000244115030204
 10
6.7162302342144
 20
-0.124608843959715
 30
0.0
 10
6.723495484847657
 20
-0.1282725569401601
 30
0.0
 10
6.730748255257328
 20
-0.1319159575279333
 30
0.0
 10
6.737791533974661
 20
-0.1354187012702978
 30
0.0
  0
LINE
  5
BC
330
1F
100
AcDbEntity
  8
0
  6
Continuous
 62
     1
370
    15
100
AcDbLine
 10
6.737791533962895
 20
-0.1354187012646265
 30
0.0
 11
6.732318206716727
 21
-0.1392511662614822
 31
0.0
  0
SPLINE
  5
BD
330
1F
100
AcDbEntity
  8
0
  6
Continuous
 62
     1
370
    15
100
AcDbSpline
210
0.0
220
0.0
230
1.0
 70
    24
 71
     3
 72
    11
 73
     7
 74
     0
 42
0.000000001
 43
0.00000001
 40
0.0
 40
0.0
 40
0.0
 40
0.0
 40
0.1905545603455062
 40
0.5110091386015847
 40
0.8170160553966548
 40
1.0
 40
1.0
 40
1.0
 40
1.0
 10
6.703657879963927
 20
-0.1593193431013463
 30
0.0
 10
6.695594040925421
 20
-0.1649657039830199
 30
0.0
 10
6.673969287188655
 20
-0.1801075195614355
 30
0.0
 10
6.605551946863688
 20
-0.2280138570012047
 30
0.0
 10
6.526093248968497
 20
-0.2836514362438456
 30
0.0
 10
6.474171817987852
 20
-0.3200072136109622
 30
0.0
 10
6.45474244005813
 20
-0.3336118105000146
 30
0.0
  0
SPLINE
  5
BE
330
1F
100
AcDbEntity
  8
0
  6
Continuous
 62
     1
370
    15
100
AcDbSpline
210
0.0
220
0.0
230
1.0
 70
     8
 71
     3
 72
     8
 73
     4
 74
     0
 42
0.000000001
 43
0.00000001
 40
0.0
 40
0.0
 40
0.0
 40
0.0
 40
1.0
 40
1.0
 40
1.0
 40
1.0
 10
6.817830234214398
 20
-0.59977790674179
 30
0.0
 10
6.69269098200493
 20
-0.5201178349508414
 30
0.0
 10
6.572480394886121
 20
-0.4295907307340905
 30
0.0
 10
6.45474244005554
 20
-0.3336118105065228
 30
0.0
  0
LINE
  5
BF
330
1F
100
AcDbEntity
  8
0
  6
Continuous
 62
     1
370
    15
100
AcDbLine
 10
6.817830234214398
 20
-0.6690469491086467
 30
0.0
 11
6.817830234214398
 21
-0.5997779067417888
 31
0.0
  0
SPLINE
  5
C0
330
1F
100
AcDbEntity
  8
0
  6
Continuous
 62
     1
370
    15
100
AcDbSpline
210
0.0
220
0.0
230
1.0
 70
     8
 71
     3
 72
    11
 73
     7
 74
     0
 42
0.000000001
 43
0.00000001
 40
0.0
 40
0.0
 40
0.0
 40
0.0
 40
0.000028814469242
 40
0.000028814469242
 40
0.000028814469242
 40
0.0000436326228875
 40
0.0000436326228875
 40
0.0000436326228875
 40
0.0000436326228875
 10
6.817830234214401
 20
-0.6690469491086455
 30
0.0
 10
6.817830234214401
 20
-0.6785944764904167
 30
0.0
 10
6.816604879964331
 20
-0.6883677402329813
 30
0.0
 10
6.814046516058479
 20
-0.697603383451013
 30
0.0
 10
6.812728590810927
 20
-0.7023610675891431
 30
0.0
 10
6.811050666855841
 20
-0.7070237225995807
 30
0.0
 10
6.809041200264456
 20
-0.7114718793823887
 30
0.0
  0
SPLINE
  5
C1
330
1F
100
AcDbEntity
  8
0
  6
Continuous
 62
     1
370
    15
100
AcDbSpline
210
0.0
220
0.0
230
1.0
 70
     8
 71
     3
 72
    16
 73
    12
 74
     0
 42
0.000000001
 43
0.00000001
 40
0.0
 40
0.0
 40
0.0
 40
0.0
 40
0.125
 40
0.125
 40
0.25
 40
0.25
 40
0.5
 40
0.5
 40
0.75
 40
0.75
 40
1.0
 40
1.0
 40
1.0
 40
1.0
 10
4.436580234214677
 20
0.143783040586921
 30
0.0
 10
4.534588793776543
 20
0.0982854463812969
 30
0.0
 10
4.634771337617902
 20
0.0515828820305669
 30
0.0
 10
4.834101973600543
 20
-0.0417294415850748
 30
0.0
 10
4.931887381157818
 20
-0.0881180960441482
 30
0.0
 10
5.22505624968851
 20
-0.2248471735990363
 30
0.0
 10
5.427863732391938
 20
-0.3137748100235847
 30
0.0
 10
5.81753040329389
 20
-0.4703161108358654
 30
0.0
 10
6.021664532415894
 20
-0.5400704912342921
 30
0.0
 10
6.410024192688759
 20
-0.6485093785750875
 30
0.0
 10
6.614896991333083
 20
-0.6889796231031784
 30
0.0
 10
6.809041200268542
 20
-0.7114718793739812
 30
0.0
  0
SPLINE
  5
C2
330
1F
100
AcDbEntity
  8
0
  6
Continuous
 62
   131
370
    15
100
AcDbSpline
210
0.0
220
0.0
230
1.0
 70
    24
 71
     3
 72
    16
 73
    12
 74
     0
 42
0.000000001
 43
0.00000001
 40
0.0
 40
0.0
 40
0.0
 40
0.0
 40
0.125
 40
0.125
 40
0.2500000000000002
 40
0.2500000000000002
 40
0.5
 40
0.5
 40
0.75
 40
0.75
 40
1.0
 40
1.0
 40
1.0
 40
1.0
 10
4.4365802342144
 20
0.7658481266148274
 30
0.0
 10
4.4365802342144
 20
0.7395091956963672
 30
0.0
 10
4.4365802342144
 20
0.7157085565227203
 30
0.0
 10
4.4365802342144
 20
0.6637489453516806
 30
0.0
 10
4.4365802342144
 20
0.6360523202449732
 30
0.0
 10
4.4365802342144
 20
0.5483585127492692
 30
0.0
 10
4.4365802342144
 20
0.4831978422318808
 30
0.0
 10
4.4365802342144
 20
0.3524231869311215
 30
0.0
 10
4.4365802342144
 20
0.2869661401041776
 30
0.0
 10
4.4365802342144
 20
0.1855596240640448
 30
0.0
 10
4.4365802342144
 20
0.1510002199132049
 30
0.0
 10
4.4365802342144
 20
0.1437830405871251
 30
0.0
  0
SPLINE
  5
C3
330
1F
100
AcDbEntity
  8
0
  6
Continuous
 62
     1
370
    15
100
AcDbSpline
210
0.0
220
0.0
230
1.0
 70
     8
 71
     3
 72
    10
 73
     6
 74
     0
 42
0.000000001
 43
0.00000001
 40
0.0
 40
0.0
 40
0.0
 40
0.0
 40
0.5000000000000001
 40
0.5000000000000001
 40
1.0
 40
1.0
 40
1.0
 40
1.0
 10
6.7162302342144
 20
0.052102958830343
 30
0.0
 10
6.336288567738553
 20
0.2451627893460718
 30
0.0
 10
5.956346901262705
 20
0.4324862158983858
 30
0.0
 10
5.196463568311006
 20
0.7029277322202034
 30
0.0
 10
4.816521901835159
 20
0.7645123721196301
 30
0.0
 10
4.4365802342144
 20
0.7684999999999843
 30
0.0
  0
LINE
  5
C4
330
1F
100
AcDbEntity
  8
0
  6
Continuous
 62
     1
370
    15
100
AcDbLine
 10
6.817830234214398
 20
-0.0793750000000162
 30
0.0
 11
6.817830234214398
 21
0.177335282412799
 31
0.0
  0
SPLINE
  5
C5
330
1F
100
AcDbEntity
  8
0
  6
Continuous
 62
     1
370
    15
100
AcDbSpline
210
0.0
220
0.0
230
1.0
 70
     8
 71
     3
 72
    29
 73
    25
 74
     0
 42
0.000000001
 43
0.00000001
 40
0.0000343418149057
 40
0.0000343418149057
 40
0.0000343418149057
 40
0.0000343418149057
 40
0.0000685007837097
 40
0.0000685007837097
 40
0.0000685007837097
 40
0.0001366991148271
 40
0.0001366991148271
 40
0.0001366991148271
 40
0.0001605913869446
 40
0.0001605913869446
 40
0.0001605913869446
 40
0.0001847461791221
 40
0.0001847461791221
 40
0.0001847461791221
 40
0.000200109295391
 40
0.000200109295391
 40
0.000200109295391
 40
0.0002156647155758
 40
0.0002156647155758
 40
0.0002156647155758
 40
0.0002293195636723
 40
0.0002293195636723
 40
0.0002293195636723
 40
0.0002386039689504
 40
0.0002386039689504
 40
0.0002386039689504
 40
0.0002386039689504
 10
6.809041200268595
 20
0.1783530945620624
 30
0.0
 10
6.808013583289618
 20
0.1681421147857231
 30
0.0
 10
6.806756998318374
 20
0.1579639343080675
 30
0.0
 10
6.805153322037491
 20
0.1478660023507485
 30
0.0
 10
6.801961599457304
 20
0.1277685563602164
 30
0.0
 10
6.797553397881344
 20
0.1076983540452808
 30
0.0
 10
6.789681792819959
 20
0.0892013056509631
 30
0.0
 10
6.786909182757178
 20
0.0826861029559834
 30
0.0
 10
6.783664985182174
 20
0.0763473718467153
 30
0.0
 10
6.779720069503998
 20
0.0704802623785604
 30
0.0
 10
6.775751154185002
 20
0.0645774592400202
 30
0.0
 10
6.770992836789965
 20
0.0590455448599293
 30
0.0
 10
6.765219704219493
 20
0.0546862457235772
 30
0.0
 10
6.761536274701985
 20
0.0519048837994411
 30
0.0
 10
6.757358334780054
 20
0.0495710664433456
 30
0.0
 10
6.752829971800516
 20
0.0480372718792127
 30
0.0
 10
6.748267483588492
 20
0.0464919188122999
 30
0.0
 10
6.743211430604354
 20
0.0457512490665735
 30
0.0
 10
6.738171502591424
 20
0.045954513547357
 30
0.0
 10
6.733722874915859
 20
0.046133930394652
 30
0.0
 10
6.729181031211635
 20
0.0470337888042434
 30
0.0
 10
6.724863631056767
 20
0.0484671120041268
 30
0.0
 10
6.721905417327211
 20
0.0494492022011643
 30
0.0
 10
6.719011556853836
 20
0.0506858499934612
 30
0.0
 10
6.716230234213359
 20
0.0521029588308718
 30
0.0
  0
SPLINE
  5
C6
330
1F
100
AcDbEntity
  8
0
  6
Continuous
 62
     1
370
    15
100
AcDbSpline
210
0.0
220
0.0
230
1.0
 70
     8
 71
     3
 72
    11
 73
     7
 74
     0
 42
0.000000001
 43
0.00000001
 40
0.0
 40
0.0
 40
0.0
 40
0.0
 40
0.000028814469242
 40
0.000028814469242
 40
0.000028814469242
 40
0.0000436326228875
 40
0.0000436326228875
 40
0.0000436326228875
 40
0.0000436326228875
 10
6.817830234214401
 20
0.177335282412799
 30
0.0
 10
6.817830234214401
 20
0.1762877389505996
 30
0.0
 10
6.816604879964331
 20
0.175996762497282
 30
0.0
 10
6.814046516058479
 20
0.1766373051463969
 30
0.0
 10
6.812728590810927
 20
0.1769672767065304
 30
0.0
 10
6.811050666855841
 20
0.1775423468839453
 30
0.0
 10
6.809041200264456
 20
0.1783530945638763
 30
0.0
  0
SPLINE
  5
C7
330
1F
100
AcDbEntity
  8
0
  6
Continuous
 62
     1
370
    15
100
AcDbSpline
210
0.0
220
0.0
230
1.0
 70
    24
 71
     3
 72
    23
 73
    19
 74
     0
 42
0.000000001
 43
0.00000001
 40
0.0000263245825671
 40
0.0000263245825671
 40
0.0000263245825671
 40
0.0000263245825671
 40
0.0000287607398167
 40
0.0000287607398167
 40
0.0000287607398167
 40
0.0000576221359759
 40
0.0000576221359759
 40
0.0000576221359759
 40
0.0000854749858974
 40
0.0000854749858974
 40
0.0000854749858974
 40
0.0001147225933933
 40
0.0001147225933933
 40
0.0001147225933933
 40
0.0001476505025685
 40
0.0001476505025685
 40
0.0001476505025685
 40
0.0001735078753348
 40
0.0001735078753348
 40
0.0001735078753348
 40
0.0001735078753348
 10
6.817830234214401
 20
-0.079375000000016
 30
0.0
 10
6.817830234214401
 20
-0.079375000000016
 30
0.0
 10
6.817820396478595
 20
-0.0793818884567862
 30
0.0
 10
6.817800673079223
 20
-0.0793956989297057
 30
0.0
 10
6.8175700061566
 20
-0.0795572136477398
 30
0.0
 10
6.815928793522822
 20
-0.080706403105718
 30
0.0
 10
6.813024330803746
 20
-0.0827401297960624
 30
0.0
 10
6.810215739514426
 20
-0.0847067265885949
 30
0.0
 10
6.806167523521552
 20
-0.0875413179431072
 30
0.0
 10
6.801276732261215
 20
-0.0909658868514061
 30
0.0
 10
6.796137142234709
 20
-0.0945646665312714
 30
0.0
 10
6.789956432074803
 20
-0.0988924463767274
 30
0.0
 10
6.783242275790908
 20
-0.1035937492194282
 30
0.0
 10
6.775686812302478
 20
-0.1088841417086968
 30
0.0
 10
6.767290101457313
 20
-0.1147635819386476
 30
0.0
 10
6.758649194829392
 20
-0.1208140098964863
 30
0.0
 10
6.751863991294197
 20
-0.1255650605601154
 30
0.0
 10
6.744836137427853
 20
-0.1304860168147653
 30
0.0
 10
6.73779153396794
 20
-0.1354187012610957
 30
0.0
  0
SPLINE
  5
C8
330
1F
100
AcDbEntity
  8
0
  6
Continuous
 62
     1
370
    15
100
AcDbSpline
210
0.0
220
0.0
230
1.0
 70
     8
 71
     3
 72
    11
 73
     7
 74
     0
 42
0.000000001
 43
0.00000001
 40
0.0
 40
0.0
 40
0.0
 40
0.0
 40
0.3134857346781577
 40
0.6270092559061309
 40
0.8739262223791148
 40
1.0
 40
1.0
 40
1.0
 40
1.0
 10
4.436580234214397
 20
-0.2086041932968571
 30
0.0
 10
4.649101424228224
 20
-0.3099905801370597
 30
0.0
 10
5.074169420868202
 20
-0.512775574602442
 30
0.0
 10
5.666730944573967
 20
-0.7029794313490709
 30
0.0
 10
6.131982004836217
 20
-0.7909751637545549
 30
0.0
 10
6.384813106454146
 20
-0.7853839897206192
 30
0.0
 10
6.470271988707267
 20
-0.7834941293341192
 30
0.0
  0
SPLINE
  5
C9
330
1F
100
AcDbEntity
  8
0
  6
Continuous
 62
     1
370
    15
100
AcDbSpline
210
0.0
220
0.0
230
1.0
 70
     8
 71
     3
 72
    10
 73
     6
 74
     0
 42
0.000000001
 43
0.00000001
 40
0.0
 40
0.0
 40
0.0
 40
0.0
 40
0.5
 40
0.5
 40
1.0
 40
1.0
 40
1.0
 40
1.0
 10
6.7162302342144
 20
-0.792038095157767
 30
0.0
 10
6.336288567738553
 20
-0.7793379631026874
 30
0.0
 10
5.956346901262705
 20
-0.6931292282618582
 30
0.0
 10
5.196463568311006
 20
-0.4163712973881969
 30
0.0
 10
4.816521901835159
 20
-0.2271078054170586
 30
0.0
 10
4.436580235359308
 20
-0.033806256020205
 30
0.0
  0
LINE
  5
CA
330
1F
100
AcDbEntity
  8
0
  6
Continuous
 62
   131
370
    15
100
AcDbLine
 10
4.4365802342144
 20
-0.2086041932968546
 30
0.0
 11
4.4365802342144
 21
-0.0338062560190281
 31
0.0
  0
SPLINE
  5
CB
330
1F
100
AcDbEntity
  8
0
  6
Continuous
 62
     1
370
    15
100
AcDbSpline
210
0.0
220
0.0
230
1.0
 70
     8
 71
     3
 72
    11
 73
     7
 74
     0
 42
0.000000001
 43
0.00000001
 40
0.0
 40
0.0
 40
0.0
 40
0.0
 40
0.0502146106718526
 40
0.3981956760333935
 40
0.6984413718632879
 40
1.0
 40
1.0
 40
1.0
 40
1.0
 10
5.049382137154176
 20
0.7159781882439945
 30
0.0
 10
5.078793674756522
 20
0.7142647003815424
 30
0.0
 10
5.312023544351239
 20
0.7006769527392677
 30
0.0
 10
5.722213342672671
 20
0.6035112598021676
 30
0.0
 10
6.279039593556941
 20
0.4146730580003473
 30
0.0
 10
6.632117232932892
 20
0.2572409035096437
 30
0.0
 10
6.809041200268609
 20
0.1783530945621994
 30
0.0
  0
SPLINE
  5
CC
330
1F
100
AcDbEntity
  8
0
  6
Continuous
 62
     1
370
    15
100
AcDbSpline
210
0.0
220
0.0
230
1.0
 70
     8
 71
     3
 72
    29
 73
    25
 74
     0
 42
0.000000001
 43
0.00000001
 40
0.0000343418149057
 40
0.0000343418149057
 40
0.0000343418149057
 40
0.0000343418149057
 40
0.0000685007837097
 40
0.0000685007837097
 40
0.0000685007837097
 40
0.0001366991148271
 40
0.0001366991148271
 40
0.0001366991148271
 40
0.0001605913869446
 40
0.0001605913869446
 40
0.0001605913869446
 40
0.0001847461791221
 40
0.0001847461791221
 40
0.0001847461791221
 40
0.000200109295391
 40
0.000200109295391
 40
0.000200109295391
 40
0.0002156647155758
 40
0.0002156647155758
 40
0.0002156647155758
 40
0.0002293195636723
 40
0.0002293195636723
 40
0.0002293195636723
 40
0.0002386039689504
 40
0.0002386039689504
 40
0.0002386039689504
 40
0.0002386039689504
 10
6.809041200268595
 20
-0.7114718793734388
 30
0.0
 10
6.808013583289618
 20
-0.7164102548645015
 30
0.0
 10
6.806756998318374
 20
-0.7213813115688417
 30
0.0
 10
6.805153322037491
 20
-0.7263980485273147
 30
0.0
 10
6.801961599457307
 20
-0.7363826275973432
 30
0.0
 10
6.797553397881344
 20
-0.7466360023332406
 30
0.0
 10
6.789681792819959
 20
-0.757108980994189
 30
0.0
 10
6.786909182757178
 20
-0.7607978710993388
 30
0.0
 10
6.783664985182174
 20
-0.7645342302017296
 30
0.0
 10
6.779720069503998
 20
-0.7682433823562721
 30
0.0
 10
6.775751154185002
 20
-0.7719750998396416
 30
0.0
 10
6.770992836789965
 20
-0.7757511844805881
 30
0.0
 10
6.765219704219493
 20
-0.7792423935034084
 30
0.0
 10
6.761536274701985
 20
-0.7814698882317005
 30
0.0
 10
6.757358334780054
 20
-0.7836154873203829
 30
0.0
 10
6.752829971800516
 20
-0.7854612291464871
 30
0.0
 10
6.748267483588492
 20
-0.7873208802747409
 30
0.0
 10
6.743211430604354
 20
-0.7889123139327328
 30
0.0
 10
6.738171502591427
 20
-0.7900170882447439
 30
0.0
 10
6.733722874915859
 20
-0.790992246930952
 30
0.0
 10
6.729181031211638
 20
-0.7916195694518046
 30
0.0
 10
6.724863631056767
 20
-0.791900734121738
 30
0.0
 10
6.721905417327211
 20
-0.7920933836693886
 30
0.0
 10
6.719011556853836
 20
-0.7921313173952556
 30
0.0
 10
6.716230234213359
 20
-0.7920380951577287
 30
0.0
  0
LINE
  5
CD
330
1F
100
AcDbEntity
  8
0
  6
Continuous
 62
   131
370
    15
100
AcDbLine
 10
4.4365802342144
 20
0.1437830405870948
 30
0.0
 11
4.4365802342144
 21
-0.033806255434199
 31
0.0
  0
SPLINE
  5
CE
330
1F
100
AcDbEntity
  8
0
  6
Continuous
 62
     1
370
    15
100
AcDbSpline
210
0.0
220
0.0
230
1.0
 70
     8
 71
     3
 72
    13
 73
     9
 74
     0
 42
0.000000001
 43
0.00000001
 40
0.0
 40
0.0
 40
0.0
 40
0.0
 40
0.161023127364259
 40
0.3224147443899462
 40
0.483437660868445
 40
0.6448333353675029
 40
0.9254469920438197
 40
1.0
 40
1.0
 40
1.0
 40
1.0
 10
4.436580234214496
 20
-0.7192555169894297
 30
0.0
 10
4.494929945550575
 20
-0.723766238751494
 30
0.0
 10
4.61176289727366
 20
-0.7327980047327882
 30
0.0
 10
4.787267664292386
 20
-0.7346095120464124
 30
0.0
 10
4.962503732200307
 20
-0.7280777535314578
 30
0.0
 10
5.180643611315435
 20
-0.7069093016532453
 30
0.0
 10
5.368457986690913
 20
-0.680699922373922
 30
0.0
 10
5.497047842373188
 20
-0.648082544708541
 30
0.0
 10
5.524040129342706
 20
-0.6412358334072057
 30
0.0
  0
SPLINE
  5
CF
330
1F
100
AcDbEntity
  8
0
  6
Continuous
 62
   131
370
    15
100
AcDbSpline
210
0.0
220
0.0
230
1.0
 70
    24
 71
     3
 72
    16
 73
    12
 74
     0
 42
0.000000001
 43
0.00000001
 40
0.0
 40
0.0
 40
0.0
 40
0.0
 40
0.0668713848924456
 40
0.1833055745669952
 40
0.3031163636299191
 40
0.419550553304468
 40
0.5393613423673917
 40
0.655795532041959
 40
0.7756063211048648
 40
0.8863573799236828
 40
1.0
 40
1.0
 40
1.0
 40
1.0
 10
4.4365802342144
 20
-0.2070817997322858
 30
0.0
 10
4.4365802342144
 20
-0.2082868424311126
 30
0.0
 10
4.4365802342144
 20
-0.2115900646485299
 30
0.0
 10
4.4365802342144
 20
-0.2327553378784866
 30
0.0
 10
4.4365802342144
 20
-0.2701882691667981
 30
0.0
 10
4.4365802342144
 20
-0.3225068031170205
 30
0.0
 10
4.436580234214397
 20
-0.3865686003678523
 30
0.0
 10
4.4365802342144
 20
-0.4618983596519139
 30
0.0
 10
4.4365802342144
 20
-0.5436505114595914
 30
0.0
 10
4.4365802342144
 20
-0.6304048751034648
 30
0.0
 10
4.4365802342144
 20
-0.6893852936720776
 30
0.0
 10
4.4365802342144
 20
-0.7192555169882493
 30
0.0
  0
SPLINE
  5
D0
330
1F
100
AcDbEntity
  8
0
  6
Continuous
 62
     1
370
    15
100
AcDbSpline
210
0.0
220
0.0
230
1.0
 70
     8
 71
     3
 72
    10
 73
     6
 74
     0
 42
0.000000001
 43
0.00000001
 40
0.0
 40
0.0
 40
0.0
 40
0.0
 40
0.1701831688562295
 40
0.5849989448945422
 40
1.0
 40
1.0
 40
1.0
 40
1.0
 10
5.505798848673859
 20
0.6353544399421818
 30
0.0
 10
5.574479881091681
 20
0.6588190352878898
 30
0.0
 10
5.810568630459336
 20
0.7394777961505046
 30
0.0
 10
6.213953842006436
 20
0.7972911068925895
 30
0.0
 10
6.548779850488721
 20
0.7883696766708667
 30
0.0
 10
6.716230234214215
 20
0.7839079655846238
 30
0.0
  0
SPLINE
  5
D1
330
1F
100
AcDbEntity
  8
0
  6
Continuous
 62
     1
370
    15
100
AcDbSpline
210
0.0
220
0.0
230
1.0
 70
     8
 71
     3
 72
     8
 73
     4
 74
     0
 42
0.000000001
 43
0.00000001
 40
0.0
 40
0.0
 40
0.0
 40
0.0
 40
0.0000244115030069
 40
0.0000244115030069
 40
0.0000244115030069
 40
0.0000244115030069
 10
6.7162302342144
 20
0.7839079655846122
 30
0.0
 10
6.723495484843667
 20
0.7833255872202055
 30
0.0
 10
6.730748255249342
 20
0.7819250740978906
 30
0.0
 10
6.737791533962998
 20
0.7797643253148688
 30
0.0
  0
SPLINE
  5
D2
330
1F
100
AcDbEntity
  8
0
  6
Continuous
 62
     1
370
    15
100
AcDbSpline
210
0.0
220
0.0
230
1.0
 70
     8
 71
     3
 72
    10
 73
     6
 74
     0
 42
0.000000001
 43
0.00000001
 40
0.0
 40
0.0
 40
0.0
 40
0.0
 40
0.4999999999999999
 40
0.4999999999999999
 40
1.0
 40
1.0
 40
1.0
 40
1.0
 10
6.737791533963048
 20
0.779764325314866
 30
0.0
 10
6.739786999935568
 20
0.6794610810607555
 30
0.0
 10
6.718078209920957
 20
0.5775154828624622
 30
0.0
 10
6.614443989950598
 20
0.4227712280011034
 30
0.0
 10
6.535609932594507
 20
0.3762907920880151
 30
0.0
 10
6.454742440059302
 20
0.3630877941615863
 30
0.0
  0
SPLINE
  5
D3
330
1F
100
AcDbEntity
  8
0
  6
Continuous
 62
     1
370
    15
100
AcDbSpline
210
0.0
220
0.0
230
1.0
 70
     8
 71
     3
 72
     8
 73
     4
 74
     0
 42
0.000000001
 43
0.00000001
 40
0.0
 40
0.0
 40
0.0
 40
0.0
 40
1.0
 40
1.0
 40
1.0
 40
1.0
 10
6.817830234214398
 20
0.1894111678796004
 30
0.0
 10
6.692690982004997
 20
0.2536641983026711
 30
0.0
 10
6.572480394886245
 20
0.3102893807688369
 30
0.0
 10
6.454742440055714
 20
0.3630877941604195
 30
0.0
  0
LINE
  5
D4
330
1F
100
AcDbEntity
  8
0
  6
Continuous
 62
     1
370
    15
100
AcDbLine
 10
6.817830234214398
 20
0.177335282412799
 30
0.0
 11
6.817830234214398
 21
0.1894111678796007
 31
0.0
  0
LINE
  5
D5
330
1F
100
AcDbEntity
  8
0
  6
Continuous
 62
     1
370
    15
100
AcDbLine
 10
6.817830234214398
 20
-0.0793750000000138
 30
0.0
 11
6.817830234214398
 21
-0.5997779067417895
 31
0.0
  0
SPLINE
  5
D6
330
1F
100
AcDbEntity
  8
0
  6
Continuous
 62
     1
370
    15
100
AcDbSpline
210
0.0
220
0.0
230
1.0
 70
     8
 71
     3
 72
    23
 73
    19
 74
     0
 42
0.000000001
 43
0.00000001
 40
0.0000263245825671
 40
0.0000263245825671
 40
0.0000263245825671
 40
0.0000263245825671
 40
0.0000287607398167
 40
0.0000287607398167
 40
0.0000287607398167
 40
0.0000576221359759
 40
0.0000576221359759
 40
0.0000576221359759
 40
0.0000854749858974
 40
0.0000854749858974
 40
0.0000854749858974
 40
0.0001147225933933
 40
0.0001147225933933
 40
0.0001147225933933
 40
0.0001476505025685
 40
0.0001476505025685
 40
0.0001476505025685
 40
0.0001735078753408
 40
0.0001735078753408
 40
0.0001735078753408
 40
0.0001735078753408
 10
6.817830234214401
 20
0.6875836180967234
 30
0.0
 10
6.817830234214401
 20
0.6884052195265703
 30
0.0
 10
6.817820396478595
 20
0.6892269096495285
 30
0.0
 10
6.817800673079223
 20
0.6900481581916164
 30
0.0
 10
6.8175700061566
 20
0.6996527334645639
 30
0.0
 10
6.815928793522822
 20
0.7093478089350687
 30
0.0
 10
6.813024330803746
 20
0.7182783863223118
 30
0.0
 10
6.810215739514426
 20
0.7269141803690727
 30
0.0
 10
6.806167523521552
 20
0.7350614334367227
 30
0.0
 10
6.801276732261215
 20
0.7421807814007593
 30
0.0
 10
6.796137142234709
 20
0.7496622967309886
 30
0.0
 10
6.789956432074803
 20
0.7561967467838487
 30
0.0
 10
6.783242275790908
 20
0.7615031136612764
 30
0.0
 10
6.775686812302478
 20
0.7674743868195739
 30
0.0
 10
6.767290101457313
 20
0.7720370757756461
 30
0.0
 10
6.758649194829392
 20
0.7751122080526458
 30
0.0
 10
6.751863991292627
 20
0.7775269313334738
 30
0.0
 10
6.744836137424596
 20
0.7790682332320157
 30
0.0
 10
6.737791533963026
 20
0.7797643253148665
 30
0.0
  0
LINE
  5
D7
330
1F
100
AcDbEntity
  8
0
  6
Continuous
 62
     1
370
    15
100
AcDbLine
 10
6.817830234214398
 20
0.1894111678796004
 30
0.0
 11
6.817830234214398
 21
0.6875836180967234
 31
0.0
  0
LINE
  5
D8
330
1F
100
AcDbEntity
  8
0
  6
Continuous
 62
     1
370
    15
100
AcDbLine
 10
6.817830234214401
 20
-0.6921500000000141
 30
0.0
 11
6.817830234214401
 21
-0.6690469491086467
 31
0.0
  0
SPLINE
  5
D9
330
1F
100
AcDbEntity
  8
0
  6
Continuous
 62
     1
370
    15
100
AcDbSpline
210
0.0
220
0.0
230
1.0
 70
     8
 71
     3
 72
     9
 73
     5
 74
     0
 42
0.000000001
 43
0.00000001
 40
0.0
 40
0.0
 40
0.0
 40
0.0
 40
0.0634593846723789
 40
1.0
 40
1.0
 40
1.0
 40
1.0
 10
5.045109636419408
 20
-0.7176268614510221
 30
0.0
 10
5.032237335970631
 20
-0.7213281625384925
 30
0.0
 10
4.829394202283932
 20
-0.7715868940909478
 30
0.0
 10
4.626551068597233
 20
-0.7706057275186038
 30
0.0
 10
4.4365802342144
 20
-0.7684999999999864
 30
0.0
  0
LINE
  5
DA
330
1F
100
AcDbEntity
  8
0
  6
Continuous
 62
   131
370
    15
100
AcDbLine
 10
4.4365802342144
 20
-0.7192555169885925
 30
0.0
 11
4.4365802342144
 21
-0.7378277903746836
 31
0.0
  0
LINE
  5
DC
330
1F
100
AcDbEntity
  8
0
  6
Continuous
 62
     1
370
    15
100
AcDbLine
 10
6.817830234214398
 20
0.6875836180967234
 30
0.0
 11
6.817830234214401
 21
0.692149999999986
 31
0.0
  0
LINE
  5
DD
102
{ACAD_REACTORS
330
234
330
236
102
}
330
1F
100
AcDbEntity
  8
중심선
 62
     1
100
AcDbLine
 10
-45.4821697657856
 20
-0.0000000000000216
 30
0.0
 11
8.3178302342144
 21
-0.0000000000000215
 31
0.0
  0
CIRCLE
  5
DE
330
1F
100
AcDbEntity
  8
외형선
100
AcDbCircle
 10
0.0
 20
-0.0000000000000004
 30
0.0
 40
3.000000000000004
  0
INSERT
  5
DF
330
1F
100
AcDbEntity
  8
0
  6
Continuous
 62
     7
100
AcDbBlockReference
 66
     1
  2
블럭10
 10
-25.48613344676895
 20
-52.04609937292005
 30
0.0
  0
ATTRIB
  5
E0
330
DF
100
AcDbEntity
  8
FORMAT
 62
     2
100
AcDbText
 10
-36.30980864526404
 20
-49.97073246008787
 30
0.0
 40
4.233333333333333
  1
G8C50004 [ 4 FLUTE ]
 41
0.75
  7
SLDTEXTSTYLE0
 11
-36.30980864526404
 21
-52.08739912675453
 31
0.0
100
AcDbAttribute
  2
AUTOATTR0
 70
     0
 74
     1
  0
SEQEND
  5
E1
330
DF
100
AcDbEntity
  8
0
  6
Continuous
 62
     7
  0
HATCH
  5
E2
330
1F
100
AcDbEntity
  8
중심선
100
AcDbHatch
 10
0.0
 20
0.0
 30
0.0
210
0.0
220
0.0
230
1.0
  2
SOLID
 70
     1
 71
     0
 91
        1
 92
        0
 93
        4
 72
     1
 10
-19.7712241423881
 20
-35.79892507127611
 11
-23.21749938622538
 21
-35.79892507127611
 72
     1
 10
-23.21749938622538
 20
-35.79892507127611
 11
-25.34572924542941
 21
-38.33525065184871
 72
     1
 10
-25.34572924542941
 20
-38.33525065184871
 11
-21.89942091647897
 21
-38.33521122254622
 72
     1
 10
-21.89942091647897
 20
-38.33521122254622
 11
-19.7712241423881
 21
-35.79892507127611
 97
        0
 75
     0
 76
     1
 98
        1
 10
-2.116760671511116
 20
-0.000000000000004
  0
HATCH
  5
E3
330
1F
100
AcDbEntity
  8
중심선
100
AcDbHatch
 10
0.0
 20
0.0
 30
0.0
210
0.0
220
0.0
230
1.0
  2
SOLID
 70
     1
 71
     0
 91
        1
 92
        0
 93
        4
 72
     1
 10
-14.75846015135215
 20
-35.79892507127611
 11
-18.20473539518943
 21
-35.79892507127611
 72
     1
 10
-18.20473539518943
 20
-35.79892507127611
 11
-22.73587340354682
 21
-41.19892507127613
 72
     1
 10
-22.73587340354682
 20
-41.19892507127613
 11
-19.28959815970954
 21
-41.19892507127613
 72
     1
 10
-19.28959815970954
 20
-41.19892507127613
 11
-14.75846015135215
 21
-35.79892507127611
 97
        0
 75
     0
 76
     1
 98
        1
 10
-2.116760671511116
 20
-0.000000000000004
  0
HATCH
  5
E4
330
1F
100
AcDbEntity
  8
중심선
100
AcDbHatch
 10
0.0
 20
0.0
 30
0.0
210
0.0
220
0.0
230
1.0
  2
SOLID
 70
     1
 71
     0
 91
        1
 92
        0
 93
        4
 72
     1
 10
-9.745696160316255
 20
-35.79892507127614
 11
-13.19197140415337
 21
-35.79892507127611
 72
     1
 10
-13.19197140415337
 20
-35.79892507127611
 11
-20.24040830604262
 21
-44.19892507127613
 72
     1
 10
-20.24040830604262
 20
-44.19892507127613
 11
-16.79413306220534
 21
-44.19892507127613
 72
     1
 10
-16.79413306220534
 20
-44.19892507127613
 11
-9.745696160316255
 21
-35.79892507127614
 97
        0
 75
     0
 76
     1
 98
        1
 10
-2.116760671511116
 20
-0.000000000000004
  0
HATCH
  5
E5
330
1F
100
AcDbEntity
  8
중심선
100
AcDbHatch
 10
0.0
 20
0.0
 30
0.0
210
0.0
220
0.0
230
1.0
  2
SOLID
 70
     1
 71
     0
 91
        1
 92
        0
 93
        6
 72
     3
 10
-4.945805729304055
 20
-39.99892507132738
 11
3.960054785062284
 21
1.540882976769353E-10
 40
0.3939339440162627
 50
17.0953918060844
 51
320.0019657685082
 73
     0
 72
     1
 10
-3.26280607360346
 20
-38.58681907591441
 11
-0.9575041999024223
 21
-36.65249236586649
 72
     3
 10
-4.945805729356902
 20
-39.99892507127626
 11
6.600054785286829
 21
-1.278976924368180E-13
 40
0.636358354079598
 50
39.99873849337411
 51
368.4976242363724
 73
     1
 72
     1
 10
1.479526762543707
 20
-39.03892507120614
 11
-6.26573842252098
 21
-39.03892507120611
 72
     1
 10
-6.26573842252098
 20
-39.03892507120611
 11
-6.265763466966914
 21
-40.95892507120602
 72
     1
 10
-6.265763466966914
 20
-40.95892507120602
 11
-1.824383697494876
 21
-40.958925071206
 97
        0
 75
     0
 76
     1
 98
        1
 10
-2.116760671511116
 20
-0.000000000000004
  0
DIMENSION
  5
E6
102
{ACAD_XDICTIONARY
360
233
102
}
330
1F
100
AcDbEntity
  8
치수문자_일반주서
100
AcDbDimension
  2
_D
 10
-43.21612778739766
 20
-1.587500000000061
 30
0.0
 11
-43.21612778739767
 21
-0.0000000000000096
 31
0.0
 70
   160
  1
%%c<>
 71
     2
 42
3.175
 52
-270.0
  3
SLDDIMSTYLE0
100
AcDbAlignedDimension
 13
-30.7821697657856
 23
1.587499999999986
 33
0.0
 14
-30.7821697657856
 24
-1.587500000000014
 34
0.0
 50
90.0000000000002
100
AcDbRotatedDimension
1001
ACAD
1000
DSTYLE
1002
{
1070
   171
1070
     6
1070
   273
1070
     7
1002
}
1001
ENABLE_CUSTOM_SPLIT
1070
     1
  0
DIMENSION
  5
FB
330
1F
100
AcDbEntity
  8
치수문자_일반주서
100
AcDbDimension
  2
_D_1
 10
6.817830234214398
 20
16.41790635426784
 30
0.0
 11
-15.2924197657856
 21
16.41790635426784
 31
0.0
 70
   160
  1
<>
 71
     2
 42
2.381249999999998
  3
SLDDIMSTYLE0
100
AcDbAlignedDimension
 13
4.4365802342144
 23
0.7684999999999843
 33
0.0
 14
6.817830234214398
 24
0.6875836180967234
 34
0.0
100
AcDbRotatedDimension
1001
ACAD
1000
DSTYLE
1002
{
1070
   171
1070
     6
1070
   273
1070
     7
1002
}
  0
DIMENSION
  5
110
330
1F
100
AcDbEntity
  8
치수문자_일반주서
100
AcDbDimension
  2
_D_2
 10
6.817830234214401
 20
48.38125
 30
0.0
 11
-12.2321697657856
 21
48.38125
 31
0.0
 70
   160
  1
<>
 71
     2
 42
38.09999999999999
  3
SLDDIMSTYLE1
100
AcDbAlignedDimension
 13
-31.2821697657856
 23
1.587499999999985
 33
0.0
 14
6.817830234214398
 24
0.6875836180967234
 34
0.0
100
AcDbRotatedDimension
1001
ACAD
1000
DSTYLE
1002
{
1070
   171
1070
     6
1070
   273
1070
     7
1002
}
  0
DIMENSION
  5
139
330
1F
100
AcDbEntity
  8
치수문자_일반주서
100
AcDbDimension
  2
_D_4
 10
20.53247550918734
 20
-0.7937499999999602
 30
0.0
 11
20.53247550918724
 21
20.52275000000007
 31
0.0
 70
   160
  1
%%c<>
 71
     2
 42
1.5875
 52
-270.0
  3
SLDDIMSTYLE0
100
AcDbAlignedDimension
 13
6.469658239669858
 23
0.7937499999999859
 33
0.0
 14
6.469658239669858
 24
-0.793750000000014
 34
0.0
 50
90.0000000000002
100
AcDbRotatedDimension
1001
ACAD
1000
DSTYLE
1002
{
1070
   171
1070
     6
1070
   273
1070
     7
1002
}
  0
INSERT
  5
153
330
1F
100
AcDbEntity
  8
외형선
100
AcDbBlockReference
  2
SW_DOWELSYMBOL_0
 10
0.0
 20
-0.0000000000000004
 30
0.0
  0
DIMENSION
  5
190
330
1F
100
AcDbEntity
  8
치수문자_일반주서
100
AcDbDimension
  2
*D8
 10
6.7162302342144
 20
-0.692150000000014
 30
0.0
 11
17.180541252892
 21
-21.78883410738718
 31
0.0
 70
   164
  1
<>
 71
     5
 42
0.1016000000000011
  3
SLDDIMSTYLE0
100
AcDbRadialDimension
 15
6.761376873059959
 25
-0.7831683552968931
 35
0.0
 40
0.0
1001
ACAD
1000
DSTYLE
1002
{
1070
   171
1070
     3
1070
   273
1070
     2
1002
}
1001
ACAD_DSTYLE_DIMRADIAL_EXTENSION
1070
   387
1070
     1
1070
   388
1040
4.71238898038469
1070
   390
1040
0.0000000000000131
  0
LINE
  5
207
330
1F
100
AcDbEntity
  8
0
  6
Continuous
 62
   131
370
    15
100
AcDbLine
 10
-31.2821697657856
 20
1.087499999999984
 30
0.0
 11
-31.2821697657856
 21
-1.087500000000015
 31
0.0
  0
LINE
  5
230
330
1F
100
AcDbEntity
  8
가는실선
100
AcDbLine
 10
-31.2821697657856
 20
-0.0000000000000149
 30
0.0
 11
-1.86602540378442
 21
-0.0000000000000013
 31
0.0
  0
LINE
  5
231
330
1F
100
AcDbEntity
  8
가는실선
100
AcDbLine
 10
-30.7821697657856
 20
1.587499999999985
 30
0.0
 11
-0.0000000000000036
 21
1.587499999999999
 31
0.0
  0
LINE
  5
232
330
1F
100
AcDbEntity
  8
가는실선
100
AcDbLine
 10
-30.7821697657856
 20
-1.587500000000014
 30
0.0
 11
0.0000000000000142
 21
-1.5875
 31
0.0
  0
ENDSEC
  0
SECTION
  2
OBJECTS
  0
DICTIONARY
  5
C
330
0
100
AcDbDictionary
281
     1
  3
ACAD_DETAILVIEWSTYLE
350
23E
  3
ACAD_GROUP
350
D
  3
ACAD_IMAGE_VARS
350
177
  3
ACAD_LAYOUT
350
1A
  3
ACAD_MLINESTYLE
350
17
  3
ACAD_PLOTSETTINGS
350
19
  3
ACAD_PLOTSTYLENAME
350
E
  3
ACAD_SCALELIST
350
47
  3
ACAD_SECTIONVIEWSTYLE
350
23F
  3
AcDbVariableDictionary
350
239
  3
APPDATA
350
175
  3
DWGPROPS
350
244
  0
DICTIONARY
  5
22D
330
2
100
AcDbDictionary
280
     1
281
     1
  3
ACAD_LAYERSTATES
360
22E
  0
DICTIONARY
  5
242
330
1F
100
AcDbDictionary
280
     1
281
     1
  3
DIM_BOUNDING_BOXES_V1
360
243
  0
DICTIONARY
  5
233
330
E6
100
AcDbDictionary
280
     1
281
     1
  3
ACAD_CUSTOM_BREAKDATA
360
236
  0
DICTIONARY
  5
23E
102
{ACAD_REACTORS
330
C
102
}
330
C
100
AcDbDictionary
281
     1
  0
DICTIONARY
  5
D
102
{ACAD_REACTORS
330
C
102
}
330
C
100
AcDbDictionary
281
     1
  0
RASTERVARIABLES
  5
177
102
{ACAD_REACTORS
330
C
102
}
330
C
100
AcDbRasterVariables
 90
        0
 70
     1
 71
     1
 72
     1
  0
DICTIONARY
  5
1A
102
{ACAD_REACTORS
330
C
102
}
330
C
100
AcDbDictionary
281
     1
  3
Layout1
350
1E
  3
Layout2
350
26
  3
Model
350
22
  0
DICTIONARY
  5
17
102
{ACAD_REACTORS
330
C
102
}
330
C
100
AcDbDictionary
281
     1
  3
Standard
350
18
  0
DICTIONARY
  5
19
102
{ACAD_REACTORS
330
C
102
}
330
C
100
AcDbDictionary
281
     1
  0
ACDBDICTIONARYWDFLT
  5
E
102
{ACAD_REACTORS
330
C
102
}
330
C
100
AcDbDictionary
281
     1
  3
Normal
350
F
100
AcDbDictionaryWithDefault
340
F
  0
DICTIONARY
  5
47
102
{ACAD_REACTORS
330
C
102
}
330
C
100
AcDbDictionary
281
     1
  3
A0
350
48
  3
A1
350
49
  3
A2
350
4A
  3
A3
350
4B
  3
A4
350
4C
  3
A5
350
4D
  3
A6
350
4E
  3
A7
350
4F
  3
A8
350
50
  3
A9
350
51
  3
B0
350
52
  3
B1
350
53
  3
B2
350
54
  3
B3
350
55
  3
B4
350
56
  3
B5
350
57
  3
B6
350
58
  3
B7
350
59
  3
B8
350
5A
  3
B9
350
5B
  3
C0
350
5C
  3
C1
350
5D
  3
C2
350
5E
  3
C3
350
5F
  3
C4
350
60
  3
C5
350
61
  3
C6
350
62
  3
C7
350
63
  3
C8
350
64
  3
C9
350
65
  3
D0
350
66
  3
D1
350
67
  3
D2
350
68
  0
DICTIONARY
  5
23F
102
{ACAD_REACTORS
330
C
102
}
330
C
100
AcDbDictionary
281
     1
  0
DICTIONARY
  5
239
102
{ACAD_REACTORS
330
C
102
}
330
C
100
AcDbDictionary
281
     1
  0
DICTIONARY
  5
175
102
{ACAD_REACTORS
330
C
102
}
330
C
100
AcDbDictionary
281
     1
  0
XRECORD
  5
244
102
{ACAD_REACTORS
330
C
102
}
330
C
100
AcDbXrecord
280
     1
  1
DWGPROPS COOKIE
  2

  3

  4

  6

  7

  8
12017111
  9

300
=
301
=
302
=
303
=
304
=
305
=
306
=
307
=
308
=
309
=
 40
0.0
 41
2458262.441289618
 42
2459697.293975636
  1

 90
        0
  0
DICTIONARY
  5
22E
102
{ACAD_REACTORS
330
22D
102
}
330
22D
100
AcDbDictionary
281
     1
  0
DICTIONARY
  5
243
102
{ACAD_REACTORS
330
242
102
}
330
242
100
AcDbDictionary
281
     1
  0
BREAKDATA
  5
236
102
{ACAD_REACTORS
330
233
102
}
330
233
100
AcDbBreakData
 70
     0
330
E6
 90
        1
100
AcDbBreakPointRef
 71
     0
 72
     0
 91
       -1
 10
0.0
 20
0.0
 30
0.0
 11
0.0
 21
0.0
 31
0.0
331
DD
 73
     2
 92
        0
  0
LAYOUT
  5
1E
102
{ACAD_REACTORS
330
1A
102
}
330
1A
100
AcDbPlotSettings
  1

  2
none_device
  4

  6

 40
0.0
 41
0.0
 42
0.0
 43
0.0
 44
0.0
 45
0.0
 46
0.0
 47
0.0
 48
0.0
 49
0.0
140
0.0
141
0.0
142
1.0
143
1.0
 70
   688
 72
     1
 73
     0
 74
     5
  7

 75
    16
147
1.0
148
0.0
149
0.0
100
AcDbLayout
  1
Layout1
 70
     1
 71
     1
 10
0.0
 20
0.0
 11
420.0
 21
297.0
 12
0.0
 22
0.0
 32
0.0
 14
1.000000000000000E+20
 24
1.000000000000000E+20
 34
1.000000000000000E+20
 15
-1.000000000000000E+20
 25
-1.000000000000000E+20
 35
-1.000000000000000E+20
146
0.0
 13
0.0
 23
0.0
 33
0.0
 16
1.0
 26
0.0
 36
0.0
 17
0.0
 27
1.0
 37
0.0
 76
     0
330
1B
  0
LAYOUT
  5
26
102
{ACAD_REACTORS
330
1A
102
}
330
1A
100
AcDbPlotSettings
  1

  2
none_device
  4

  6

 40
0.0
 41
0.0
 42
0.0
 43
0.0
 44
0.0
 45
0.0
 46
0.0
 47
0.0
 48
0.0
 49
0.0
140
0.0
141
0.0
142
1.0
143
1.0
 70
   688
 72
     1
 73
     0
 74
     5
  7

 75
    16
147
1.0
148
0.0
149
0.0
100
AcDbLayout
  1
Layout2
 70
     1
 71
     2
 10
0.0
 20
0.0
 11
0.0
 21
0.0
 12
0.0
 22
0.0
 32
0.0
 14
0.0
 24
0.0
 34
0.0
 15
0.0
 25
0.0
 35
0.0
146
0.0
 13
0.0
 23
0.0
 33
0.0
 16
1.0
 26
0.0
 36
0.0
 17
0.0
 27
1.0
 37
0.0
 76
     0
330
23
  0
LAYOUT
  5
22
102
{ACAD_REACTORS
330
1A
102
}
330
1A
100
AcDbPlotSettings
  1

  2
none_device
  4
ANSI_A_(11.00_x_8.50_Inches)
  6

 40
6.35
 41
19.05
 42
6.35000508
 43
19.05000254
 44
279.4
 45
215.9
 46
152.9478924637877
 47
80.67195658856505
 48
0.0
 49
0.0
140
0.0
141
0.0
142
0.0765766428867448
143
1.0
 70
  1696
 72
     0
 73
     0
 74
     0
  7

 75
     0
147
0.0235690232323232
148
0.0
149
0.0
100
AcDbLayout
  1
Model
 70
     1
 71
     0
 10
0.0
 20
0.0
 11
420.0
 21
297.0
 12
0.0
 22
0.0
 32
0.0
 14
-47.59112778739772
 24
-49.97073246008787
 34
0.0
 15
26.25164507709998
 25
52.75625000000001
 35
0.0
146
0.0
 13
0.0
 23
0.0
 33
0.0
 16
1.0
 26
0.0
 36
0.0
 17
0.0
 27
1.0
 37
0.0
 76
     0
330
1F
331
29
  0
MLINESTYLE
  5
18
102
{ACAD_REACTORS
330
17
102
}
330
17
100
AcDbMlineStyle
  2
Standard
 70
     0
  3

 62
   256
 51
90.0
 52
90.0
 71
     2
 49
0.5
 62
   256
  6
BYLAYER
 49
-0.5
 62
   256
  6
BYLAYER
  0
ACDBPLACEHOLDER
  5
F
102
{ACAD_REACTORS
330
E
102
}
330
E
  0
SCALE
  5
48
102
{ACAD_REACTORS
330
47
102
}
330
47
100
AcDbScale
 70
     0
300
1:1
140
1.0
141
1.0
290
     1
  0
SCALE
  5
49
102
{ACAD_REACTORS
330
47
102
}
330
47
100
AcDbScale
 70
     0
300
1:2
140
1.0
141
2.0
290
     0
  0
SCALE
  5
4A
102
{ACAD_REACTORS
330
47
102
}
330
47
100
AcDbScale
 70
     0
300
1:4
140
1.0
141
4.0
290
     0
  0
SCALE
  5
4B
102
{ACAD_REACTORS
330
47
102
}
330
47
100
AcDbScale
 70
     0
300
1:5
140
1.0
141
5.0
290
     0
  0
SCALE
  5
4C
102
{ACAD_REACTORS
330
47
102
}
330
47
100
AcDbScale
 70
     0
300
1:8
140
1.0
141
8.0
290
     0
  0
SCALE
  5
4D
102
{ACAD_REACTORS
330
47
102
}
330
47
100
AcDbScale
 70
     0
300
1:10
140
1.0
141
10.0
290
     0
  0
SCALE
  5
4E
102
{ACAD_REACTORS
330
47
102
}
330
47
100
AcDbScale
 70
     0
300
1:16
140
1.0
141
16.0
290
     0
  0
SCALE
  5
4F
102
{ACAD_REACTORS
330
47
102
}
330
47
100
AcDbScale
 70
     0
300
1:20
140
1.0
141
20.0
290
     0
  0
SCALE
  5
50
102
{ACAD_REACTORS
330
47
102
}
330
47
100
AcDbScale
 70
     0
300
1:30
140
1.0
141
30.0
290
     0
  0
SCALE
  5
51
102
{ACAD_REACTORS
330
47
102
}
330
47
100
AcDbScale
 70
     0
300
1:40
140
1.0
141
40.0
290
     0
  0
SCALE
  5
52
102
{ACAD_REACTORS
330
47
102
}
330
47
100
AcDbScale
 70
     0
300
1:50
140
1.0
141
50.0
290
     0
  0
SCALE
  5
53
102
{ACAD_REACTORS
330
47
102
}
330
47
100
AcDbScale
 70
     0
300
1:100
140
1.0
141
100.0
290
     0
  0
SCALE
  5
54
102
{ACAD_REACTORS
330
47
102
}
330
47
100
AcDbScale
 70
     0
300
2:1
140
2.0
141
1.0
290
     0
  0
SCALE
  5
55
102
{ACAD_REACTORS
330
47
102
}
330
47
100
AcDbScale
 70
     0
300
4:1
140
4.0
141
1.0
290
     0
  0
SCALE
  5
56
102
{ACAD_REACTORS
330
47
102
}
330
47
100
AcDbScale
 70
     0
300
8:1
140
8.0
141
1.0
290
     0
  0
SCALE
  5
57
102
{ACAD_REACTORS
330
47
102
}
330
47
100
AcDbScale
 70
     0
300
10:1
140
10.0
141
1.0
290
     0
  0
SCALE
  5
58
102
{ACAD_REACTORS
330
47
102
}
330
47
100
AcDbScale
 70
     0
300
100:1
140
100.0
141
1.0
290
     0
  0
SCALE
  5
59
102
{ACAD_REACTORS
330
47
102
}
330
47
100
AcDbScale
 70
     0
300
1/128" = 1'-0"
140
0.0078125
141
12.0
290
     0
  0
SCALE
  5
5A
102
{ACAD_REACTORS
330
47
102
}
330
47
100
AcDbScale
 70
     0
300
1/64" = 1'-0"
140
0.015625
141
12.0
290
     0
  0
SCALE
  5
5B
102
{ACAD_REACTORS
330
47
102
}
330
47
100
AcDbScale
 70
     0
300
1/32" = 1'-0"
140
0.03125
141
12.0
290
     0
  0
SCALE
  5
5C
102
{ACAD_REACTORS
330
47
102
}
330
47
100
AcDbScale
 70
     0
300
1/16" = 1'-0"
140
0.0625
141
12.0
290
     0
  0
SCALE
  5
5D
102
{ACAD_REACTORS
330
47
102
}
330
47
100
AcDbScale
 70
     0
300
3/32" = 1'-0"
140
0.09375
141
12.0
290
     0
  0
SCALE
  5
5E
102
{ACAD_REACTORS
330
47
102
}
330
47
100
AcDbScale
 70
     0
300
1/8" = 1'-0"
140
0.125
141
12.0
290
     0
  0
SCALE
  5
5F
102
{ACAD_REACTORS
330
47
102
}
330
47
100
AcDbScale
 70
     0
300
3/16" = 1'-0"
140
0.1875
141
12.0
290
     0
  0
SCALE
  5
60
102
{ACAD_REACTORS
330
47
102
}
330
47
100
AcDbScale
 70
     0
300
1/4" = 1'-0"
140
0.25
141
12.0
290
     0
  0
SCALE
  5
61
102
{ACAD_REACTORS
330
47
102
}
330
47
100
AcDbScale
 70
     0
300
3/8" = 1'-0"
140
0.375
141
12.0
290
     0
  0
SCALE
  5
62
102
{ACAD_REACTORS
330
47
102
}
330
47
100
AcDbScale
 70
     0
300
1/2" = 1'-0"
140
0.5
141
12.0
290
     0
  0
SCALE
  5
63
102
{ACAD_REACTORS
330
47
102
}
330
47
100
AcDbScale
 70
     0
300
3/4" = 1'-0"
140
0.75
141
12.0
290
     0
  0
SCALE
  5
64
102
{ACAD_REACTORS
330
47
102
}
330
47
100
AcDbScale
 70
     0
300
1" = 1'-0"
140
1.0
141
12.0
290
     0
  0
SCALE
  5
65
102
{ACAD_REACTORS
330
47
102
}
330
47
100
AcDbScale
 70
     0
300
1-1/2" = 1'-0"
140
1.5
141
12.0
290
     0
  0
SCALE
  5
66
102
{ACAD_REACTORS
330
47
102
}
330
47
100
AcDbScale
 70
     0
300
3" = 1'-0"
140
3.0
141
12.0
290
     0
  0
SCALE
  5
67
102
{ACAD_REACTORS
330
47
102
}
330
47
100
AcDbScale
 70
     0
300
6" = 1'-0"
140
6.0
141
12.0
290
     0
  0
SCALE
  5
68
102
{ACAD_REACTORS
330
47
102
}
330
47
100
AcDbScale
 70
     0
300
1'-0" = 1'-0"
140
12.0
141
12.0
290
     0
  0
ENDSEC
  0
EOF
