  0
SECTION
  2
HEADER
  9
$ACADVER
  1
AC1015
  9
$ACADMAINTVER
 70
     6
  9
$DWGCODEPAGE
  3
ANSI_949
  9
$INSBASE
 10
0.0
 20
0.0
 30
0.0
  9
$EXTMIN
 10
-53.31836225184585
 20
-49.97180738881174
 30
0.0
  9
$EXTMAX
 10
105.2924838153456
 20
57.28180488342439
 30
0.0
  9
$LIMMIN
 10
0.0
 20
0.0
  9
$LIMMAX
 10
420.0
 20
297.0
  9
$ORTHOMODE
 70
     0
  9
$REGENMODE
 70
     1
  9
$FILLMODE
 70
     1
  9
$QTEXTMODE
 70
     0
  9
$MIRRTEXT
 70
     1
  9
$LTSCALE
 40
1.0
  9
$ATTMODE
 70
     1
  9
$TEXTSIZE
 40
3.5
  9
$TRACEWID
 40
1.0
  9
$TEXTSTYLE
  7
Standard
  9
$CLAYER
  8
0
  9
$CELTYPE
  6
ByLayer
  9
$CECOLOR
 62
   256
  9
$CELTSCALE
 40
1.0
  9
$DISPSILH
 70
     0
  9
$DIMSCALE
 40
1.0
  9
$DIMASZ
 40
3.302
  9
$DIMEXO
 40
1.0
  9
$DIMDLI
 40
3.75
  9
$DIMRND
 40
0.0
  9
$DIMDLE
 40
0.0
  9
$DIMEXE
 40
1.0
  9
$DIMTP
 40
0.0
  9
$DIMTM
 40
0.0
  9
$DIMTXT
 40
3.5
  9
$DIMCEN
 40
2.5
  9
$DIMTSZ
 40
0.0
  9
$DIMTOL
 70
     0
  9
$DIMLIM
 70
     0
  9
$DIMTIH
 70
     1
  9
$DIMTOH
 70
     1
  9
$DIMSE1
 70
     0
  9
$DIMSE2
 70
     0
  9
$DIMTAD
 70
     1
  9
$DIMZIN
 70
     0
  9
$DIMBLK
  1

  9
$DIMASO
 70
     1
  9
$DIMSHO
 70
     1
  9
$DIMPOST
  1

  9
$DIMAPOST
  1

  9
$DIMALT
 70
     0
  9
$DIMALTD
 70
     3
  9
$DIMALTF
 40
0.0393700787401575
  9
$DIMLFAC
 40
1.0
  9
$DIMTOFL
 70
     1
  9
$DIMTVP
 40
0.0
  9
$DIMTIX
 70
     0
  9
$DIMSOXD
 70
     0
  9
$DIMSAH
 70
     0
  9
$DIMBLK1
  1

  9
$DIMBLK2
  1

  9
$DIMSTYLE
  2
ISO-25
  9
$DIMCLRD
 70
     0
  9
$DIMCLRE
 70
     0
  9
$DIMCLRT
 70
     0
  9
$DIMTFAC
 40
1.0
  9
$DIMGAP
 40
1.524
  9
$DIMJUST
 70
     0
  9
$DIMSD1
 70
     0
  9
$DIMSD2
 70
     0
  9
$DIMTOLJ
 70
     0
  9
$DIMTZIN
 70
     0
  9
$DIMALTZ
 70
     0
  9
$DIMALTTZ
 70
     0
  9
$DIMUPT
 70
     0
  9
$DIMDEC
 70
     2
  9
$DIMTDEC
 70
     2
  9
$DIMALTU
 70
     2
  9
$DIMALTTD
 70
     3
  9
$DIMTXSTY
  7
Standard
  9
$DIMAUNIT
 70
     0
  9
$DIMADEC
 70
     2
  9
$DIMALTRND
 40
0.0
  9
$DIMAZIN
 70
     0
  9
$DIMDSEP
 70
    44
  9
$DIMATFIT
 70
     3
  9
$DIMFRAC
 70
     0
  9
$DIMLDRBLK
  1

  9
$DIMLUNIT
 70
     2
  9
$DIMLWD
 70
    -2
  9
$DIMLWE
 70
    -2
  9
$DIMTMOVE
 70
     0
  9
$LUNITS
 70
     2
  9
$LUPREC
 70
     2
  9
$SKETCHINC
 40
1.0
  9
$FILLETRAD
 40
10.0
  9
$AUNITS
 70
     0
  9
$AUPREC
 70
     2
  9
$MENU
  1
.
  9
$ELEVATION
 40
0.0
  9
$PELEVATION
 40
0.0
  9
$THICKNESS
 40
0.0
  9
$LIMCHECK
 70
     0
  9
$CHAMFERA
 40
0.0
  9
$CHAMFERB
 40
0.0
  9
$CHAMFERC
 40
0.0
  9
$CHAMFERD
 40
0.0
  9
$SKPOLY
 70
     0
  9
$TDCREATE
 40
2458290.449642755
  9
$TDUCREATE
 40
2458290.074642755
  9
$TDUPDATE
 40
2459697.67785022
  9
$TDUUPDATE
 40
2459697.30285022
  9
$TDINDWG
 40
0.0074871644
  9
$TDUSRTIMER
 40
0.00666375
  9
$USRTIMER
 70
     1
  9
$ANGBASE
 50
0.0
  9
$ANGDIR
 70
     0
  9
$PDMODE
 70
     0
  9
$PDSIZE
 40
-1.0
  9
$PLINEWID
 40
0.0
  9
$SPLFRAME
 70
     0
  9
$SPLINETYPE
 70
     6
  9
$SPLINESEGS
 70
     8
  9
$HANDSEED
  5
203
  9
$SURFTAB1
 70
     6
  9
$SURFTAB2
 70
     6
  9
$SURFTYPE
 70
     6
  9
$SURFU
 70
     6
  9
$SURFV
 70
     6
  9
$UCSBASE
  2

  9
$UCSNAME
  2

  9
$UCSORG
 10
0.0
 20
0.0
 30
0.0
  9
$UCSXDIR
 10
1.0
 20
0.0
 30
0.0
  9
$UCSYDIR
 10
0.0
 20
1.0
 30
0.0
  9
$UCSORTHOREF
  2

  9
$UCSORTHOVIEW
 70
     0
  9
$UCSORGTOP
 10
0.0
 20
0.0
 30
0.0
  9
$UCSORGBOTTOM
 10
0.0
 20
0.0
 30
0.0
  9
$UCSORGLEFT
 10
0.0
 20
0.0
 30
0.0
  9
$UCSORGRIGHT
 10
0.0
 20
0.0
 30
0.0
  9
$UCSORGFRONT
 10
0.0
 20
0.0
 30
0.0
  9
$UCSORGBACK
 10
0.0
 20
0.0
 30
0.0
  9
$PUCSBASE
  2

  9
$PUCSNAME
  2

  9
$PUCSORG
 10
0.0
 20
0.0
 30
0.0
  9
$PUCSXDIR
 10
1.0
 20
0.0
 30
0.0
  9
$PUCSYDIR
 10
0.0
 20
1.0
 30
0.0
  9
$PUCSORTHOREF
  2

  9
$PUCSORTHOVIEW
 70
     0
  9
$PUCSORGTOP
 10
0.0
 20
0.0
 30
0.0
  9
$PUCSORGBOTTOM
 10
0.0
 20
0.0
 30
0.0
  9
$PUCSORGLEFT
 10
0.0
 20
0.0
 30
0.0
  9
$PUCSORGRIGHT
 10
0.0
 20
0.0
 30
0.0
  9
$PUCSORGFRONT
 10
0.0
 20
0.0
 30
0.0
  9
$PUCSORGBACK
 10
0.0
 20
0.0
 30
0.0
  9
$USERI1
 70
     0
  9
$USERI2
 70
     0
  9
$USERI3
 70
     0
  9
$USERI4
 70
     0
  9
$USERI5
 70
     0
  9
$USERR1
 40
0.0
  9
$USERR2
 40
0.0
  9
$USERR3
 40
0.0
  9
$USERR4
 40
0.0
  9
$USERR5
 40
0.0
  9
$WORLDVIEW
 70
     1
  9
$SHADEDGE
 70
     3
  9
$SHADEDIF
 70
    70
  9
$TILEMODE
 70
     1
  9
$MAXACTVP
 70
    64
  9
$PINSBASE
 10
0.0
 20
0.0
 30
0.0
  9
$PLIMCHECK
 70
     0
  9
$PEXTMIN
 10
1.000000000000000E+20
 20
1.000000000000000E+20
 30
1.000000000000000E+20
  9
$PEXTMAX
 10
-1.000000000000000E+20
 20
-1.000000000000000E+20
 30
-1.000000000000000E+20
  9
$PLIMMIN
 10
0.0
 20
0.0
  9
$PLIMMAX
 10
0.0
 20
0.0
  9
$UNITMODE
 70
     0
  9
$VISRETAIN
 70
     1
  9
$PLINEGEN
 70
     0
  9
$PSLTSCALE
 70
     1
  9
$TREEDEPTH
 70
  3020
  9
$CMLSTYLE
  2
Standard
  9
$CMLJUST
 70
     0
  9
$CMLSCALE
 40
20.0
  9
$PROXYGRAPHICS
 70
     1
  9
$MEASUREMENT
 70
     1
  9
$CELWEIGHT
370
    -1
  9
$ENDCAPS
280
     0
  9
$JOINSTYLE
280
     0
  9
$LWDISPLAY
290
     1
  9
$INSUNITS
 70
     4
  9
$HYPERLINKBASE
  1

  9
$STYLESHEET
  1

  9
$XEDIT
290
     1
  9
$CEPSNTYPE
380
     0
  9
$PSTYLEMODE
290
     1
  9
$FINGERPRINTGUID
  2
{4B1F05B6-AB4D-4EB5-A5CB-16132B2B2B9C}
  9
$VERSIONGUID
  2
{FAEB1C32-E019-11D5-929B-00C0DF256EC4}
  9
$EXTNAMES
290
     1
  9
$PSVPSCALE
 40
0.0
  9
$OLESTARTUP
290
     0
  0
ENDSEC
  0
SECTION
  2
CLASSES
  0
CLASS
  1
ACDBDICTIONARYWDFLT
  2
AcDbDictionaryWithDefault
  3
ObjectDBX Classes
 90
        0
280
     0
281
     0
  0
CLASS
  1
VISUALSTYLE
  2
AcDbVisualStyle
  3
ObjectDBX Classes
 90
     4095
280
     0
281
     0
  0
CLASS
  1
MATERIAL
  2
AcDbMaterial
  3
ObjectDBX Classes
 90
     1153
280
     0
281
     0
  0
CLASS
  1
SCALE
  2
AcDbScale
  3
ObjectDBX Classes
 90
     1153
280
     0
281
     0
  0
CLASS
  1
SUN
  2
AcDbSun
  3
SCENEOE
 90
     1153
280
     0
281
     0
  0
CLASS
  1
ACDBPLACEHOLDER
  2
AcDbPlaceHolder
  3
ObjectDBX Classes
 90
        0
280
     0
281
     0
  0
CLASS
  1
LAYOUT
  2
AcDbLayout
  3
ObjectDBX Classes
 90
        0
280
     0
281
     0
  0
CLASS
  1
TABLESTYLE
  2
AcDbTableStyle
  3
ObjectDBX Classes
 90
     4095
280
     0
281
     0
  0
CLASS
  1
MLEADERSTYLE
  2
AcDbMLeaderStyle
  3
ACDB_MLEADERSTYLE_CLASS
 90
     4095
280
     0
281
     0
  0
CLASS
  1
RASTERVARIABLES
  2
AcDbRasterVariables
  3
ISM
 90
        0
280
     0
281
     0
  0
CLASS
  1
DIMASSOC
  2
AcDbDimAssoc
  3
"AcDbDimAssoc|Product Desc:     AcDim ARX App For Dimension|Company:          Autodesk, Inc.|WEB Address:      www.autodesk.com"
 90
        0
280
     0
281
     0
  0
ENDSEC
  0
SECTION
  2
TABLES
  0
TABLE
  2
VPORT
  5
8
330
0
100
AcDbSymbolTable
 70
     1
  0
VPORT
  5
29
330
8
100
AcDbSymbolTableRecord
100
AcDbViewportTableRecord
  2
*Active
 70
     0
 10
0.0
 20
0.0
 11
1.0
 21
1.0
 12
-8.169449251995054
 22
-13.34068699995061
 13
0.0
 23
0.0
 14
10.0
 24
10.0
 15
10.0
 25
10.0
 16
0.0
 26
0.0
 36
1.0
 17
0.0
 27
0.0
 37
0.0
 40
147.6299048350554
 41
1.925764192139738
 42
50.0
 43
0.0
 44
0.0
 50
0.0
 51
0.0
 71
    16
 72
  2000
 73
     1
 74
     3
 75
     0
 76
     0
 77
     0
 78
     0
281
     0
 65
     1
110
0.0
120
0.0
130
0.0
111
1.0
121
0.0
131
0.0
112
0.0
122
1.0
132
0.0
 79
     0
146
0.0
  0
ENDTAB
  0
TABLE
  2
LTYPE
  5
5
330
0
100
AcDbSymbolTable
 70
     6
  0
LTYPE
  5
14
330
5
100
AcDbSymbolTableRecord
100
AcDbLinetypeTableRecord
  2
ByBlock
 70
     0
  3

 72
    65
 73
     0
 40
0.0
  0
LTYPE
  5
15
330
5
100
AcDbSymbolTableRecord
100
AcDbLinetypeTableRecord
  2
ByLayer
 70
     0
  3

 72
    65
 73
     0
 40
0.0
  0
LTYPE
  5
16
330
5
100
AcDbSymbolTableRecord
100
AcDbLinetypeTableRecord
  2
Continuous
 70
     0
  3
Solid line
 72
    65
 73
     0
 40
0.0
  0
LTYPE
  5
6A
330
5
100
AcDbSymbolTableRecord
100
AcDbLinetypeTableRecord
  2
HIDDEN
 70
     0
  3
Hidden __ __ __ __ __ __ __ __ __ __ __ __ __ __
 72
    65
 73
     2
 40
1.905
 49
1.27
 74
     0
 49
-0.635
 74
     0
  0
LTYPE
  5
6B
330
5
100
AcDbSymbolTableRecord
100
AcDbLinetypeTableRecord
  2
PHANTOM
 70
     0
  3
Phantom ______  __  __  ______  __  __  ______
 72
    65
 73
     6
 40
12.7
 49
6.35
 74
     0
 49
-1.27
 74
     0
 49
1.27
 74
     0
 49
-1.27
 74
     0
 49
1.27
 74
     0
 49
-1.27
 74
     0
  0
LTYPE
  5
6C
330
5
100
AcDbSymbolTableRecord
100
AcDbLinetypeTableRecord
  2
CENTER
 70
     0
  3
Center ____ _ ____ _ ____ _ ____ _ ____ _ ____
 72
    65
 73
     4
 40
10.16
 49
6.35
 74
     0
 49
-1.27
 74
     0
 49
1.27
 74
     0
 49
-1.27
 74
     0
  0
LTYPE
  5
6D
330
5
100
AcDbSymbolTableRecord
100
AcDbLinetypeTableRecord
  2
CENTERX2
 70
     0
  3
Center (2x) ________  __  ________  __  _____
 72
    65
 73
     4
 40
20.32
 49
12.7
 74
     0
 49
-2.54
 74
     0
 49
2.54
 74
     0
 49
-2.54
 74
     0
  0
LTYPE
  5
6E
330
5
100
AcDbSymbolTableRecord
100
AcDbLinetypeTableRecord
  2
DOT2
 70
     0
  3
Dot (.5x) ........................................
 72
    65
 73
     2
 40
0.635
 49
0.0
 74
     0
 49
-0.635
 74
     0
  0
ENDTAB
  0
TABLE
  2
LAYER
  5
2
102
{ACAD_XDICTIONARY
360
193
102
}
330
0
100
AcDbSymbolTable
 70
    18
  0
LAYER
  5
10
330
2
100
AcDbSymbolTableRecord
100
AcDbLayerTableRecord
  2
0
 70
     0
 62
     7
  6
Continuous
370
    -3
390
F
  0
LAYER
  5
6F
330
2
100
AcDbSymbolTableRecord
100
AcDbLayerTableRecord
  2
FORMAT
 70
     0
 62
     2
  6
Continuous
370
    -3
390
F
  0
LAYER
  5
70
330
2
100
AcDbSymbolTableRecord
100
AcDbLayerTableRecord
  2
외형선
 70
     0
 62
     4
  6
Continuous
370
    30
390
F
  0
LAYER
  5
71
330
2
100
AcDbSymbolTableRecord
100
AcDbLayerTableRecord
  2
숨은선
 70
     0
 62
     2
  6
HIDDEN
370
    15
390
F
  0
LAYER
  5
72
330
2
100
AcDbSymbolTableRecord
100
AcDbLayerTableRecord
  2
중심선
 70
     0
 62
     1
  6
CENTERX2
370
    -3
390
F
  0
LAYER
  5
73
330
2
100
AcDbSymbolTableRecord
100
AcDbLayerTableRecord
  2
파단선
 70
     0
 62
     4
  6
Continuous
370
    -3
390
F
  0
LAYER
  5
74
330
2
100
AcDbSymbolTableRecord
100
AcDbLayerTableRecord
  2
해칭선
 70
     0
 62
   100
  6
Continuous
370
    -3
390
F
  0
LAYER
  5
75
330
2
100
AcDbSymbolTableRecord
100
AcDbLayerTableRecord
  2
가는실선
 70
     0
 62
     4
  6
Continuous
370
    -3
390
F
  0
LAYER
  5
76
330
2
100
AcDbSymbolTableRecord
100
AcDbLayerTableRecord
  2
치수_보조선
 70
     0
 62
     4
  6
Continuous
370
    -3
390
F
  0
LAYER
  5
77
330
2
100
AcDbSymbolTableRecord
100
AcDbLayerTableRecord
  2
치수문자_일반주서
 70
     0
 62
     7
  6
Continuous
370
    15
390
F
  0
LAYER
  5
78
330
2
100
AcDbSymbolTableRecord
100
AcDbLayerTableRecord
  2
개별주서
 70
     0
 62
   100
  6
Continuous
370
    30
390
F
  0
LAYER
  5
79
330
2
100
AcDbSymbolTableRecord
100
AcDbLayerTableRecord
  2
중간선
 70
     0
 62
     2
  6
Continuous
370
    15
390
F
  0
LAYER
  5
7A
330
2
100
AcDbSymbolTableRecord
100
AcDbLayerTableRecord
  2
윤곽선
 70
     0
 62
     3
  6
Continuous
370
    40
390
F
  0
LAYER
  5
7B
330
2
100
AcDbSymbolTableRecord
100
AcDbLayerTableRecord
  2
중심마크
 70
     0
 62
   100
  6
Continuous
370
    30
390
F
  0
LAYER
  5
7C
330
2
100
AcDbSymbolTableRecord
100
AcDbLayerTableRecord
  2
가상선
 70
     0
 62
     4
  6
PHANTOM
370
    -3
390
F
  0
LAYER
  5
7D
330
2
100
AcDbSymbolTableRecord
100
AcDbLayerTableRecord
  2
특수지정선
 70
     0
 62
     5
  6
CENTERX2
370
    60
390
F
  0
LAYER
  5
7E
330
2
100
AcDbSymbolTableRecord
100
AcDbLayerTableRecord
  2
참조1
 70
     0
 62
    -4
  6
Continuous
370
    -3
390
F
  0
LAYER
  5
19A
330
2
100
AcDbSymbolTableRecord
100
AcDbLayerTableRecord
  2
Defpoints
 70
     0
 62
     7
  6
Continuous
290
     0
370
    -3
390
F
  0
ENDTAB
  0
TABLE
  2
STYLE
  5
3
330
0
100
AcDbSymbolTable
 70
     2
  0
STYLE
  5
11
330
3
100
AcDbSymbolTableRecord
100
AcDbTextStyleTableRecord
  2
Standard
 70
     0
 40
0.0
 41
1.0
 50
0.0
 71
     0
 42
3.5
  3
txt
  4

  0
STYLE
  5
94
330
3
100
AcDbSymbolTableRecord
100
AcDbTextStyleTableRecord
  2
SLDTEXTSTYLE0
 70
     0
 40
0.0
 41
0.75
 50
0.0
 71
     0
 42
3.5
  3
TXT
  4

  0
ENDTAB
  0
TABLE
  2
VIEW
  5
6
330
0
100
AcDbSymbolTable
 70
     0
  0
ENDTAB
  0
TABLE
  2
UCS
  5
7
330
0
100
AcDbSymbolTable
 70
     0
  0
ENDTAB
  0
TABLE
  2
APPID
  5
9
330
0
100
AcDbSymbolTable
 70
     4
  0
APPID
  5
12
330
9
100
AcDbSymbolTableRecord
100
AcDbRegAppTableRecord
  2
ACAD
 70
     0
  0
APPID
  5
1A7
330
9
100
AcDbSymbolTableRecord
100
AcDbRegAppTableRecord
  2
ACAD_DSTYLE_DIMFLIPARROW_SYMBOL
 70
     0
  0
APPID
  5
1A8
330
9
100
AcDbSymbolTableRecord
100
AcDbRegAppTableRecord
  2
ACAD_DSTYLE_DIMFLIPARROW_WHICH_SYMBOL
 70
     0
  0
APPID
  5
1CB
330
9
100
AcDbSymbolTableRecord
100
AcDbRegAppTableRecord
  2
ACAD_DSTYLE_DIMRADIAL_EXTENSION
 70
     0
  0
ENDTAB
  0
TABLE
  2
DIMSTYLE
  5
A
330
0
100
AcDbSymbolTable
 70
     3
100
AcDbDimStyleTable
  0
DIMSTYLE
105
27
330
A
100
AcDbSymbolTableRecord
100
AcDbDimStyleTableRecord
  2
ISO-25
 70
     0
 41
2.5
 42
0.625
 43
3.75
 44
1.25
 73
     0
 74
     0
 77
     1
 78
     8
140
2.5
141
2.5
143
0.03937007874016
147
0.625
171
     3
172
     1
178
     0
271
     2
272
     2
274
     3
278
    44
283
     0
284
     8
340
11
  0
DIMSTYLE
105
D5
102
{ACAD_REACTORS
330
D4
330
E9
330
FE
330
127
330
113
330
1CC
102
}
330
A
100
AcDbSymbolTableRecord
100
AcDbDimStyleTableRecord
  2
SLDDIMSTYLE0
 70
     0
 41
3.302
 44
0.0
 45
0.000000001
 73
     0
 74
     0
 77
     1
 78
    12
 79
     3
140
3.5
143
0.0393700787401575
147
0.875
148
0.000000001
170
     1
172
     1
173
     1
178
     0
271
     2
272
     2
276
     2
284
    12
289
     0
340
94
  0
DIMSTYLE
105
114
330
A
100
AcDbSymbolTableRecord
100
AcDbDimStyleTableRecord
  2
SLDDIMSTYLE1
 70
     0
 41
3.302
 44
0.0
 45
0.000000001
 73
     0
 74
     0
 77
     1
 78
     4
 79
     1
140
3.5
143
0.0393700787401575
147
0.875
148
0.000000001
170
     1
173
     1
178
     0
271
     2
272
     2
276
     2
284
    12
340
94
  0
ENDTAB
  0
TABLE
  2
BLOCK_RECORD
  5
1
330
0
100
AcDbSymbolTable
 70
     9
  0
BLOCK_RECORD
  5
1F
102
{ACAD_XDICTIONARY
360
200
102
}
330
1
100
AcDbSymbolTableRecord
100
AcDbBlockTableRecord
  2
*Model_Space
340
22
  0
BLOCK_RECORD
  5
1B
330
1
100
AcDbSymbolTableRecord
100
AcDbBlockTableRecord
  2
*Paper_Space
340
1E
  0
BLOCK_RECORD
  5
23
330
1
100
AcDbSymbolTableRecord
100
AcDbBlockTableRecord
  2
*Paper_Space0
340
26
  0
BLOCK_RECORD
  5
7F
330
1
100
AcDbSymbolTableRecord
100
AcDbBlockTableRecord
  2
블럭10
340
0
102
{BLKREFS
331
CD
102
}
  0
BLOCK_RECORD
  5
D6
330
1
100
AcDbSymbolTableRecord
100
AcDbBlockTableRecord
  2
_D
340
0
  0
BLOCK_RECORD
  5
EA
330
1
100
AcDbSymbolTableRecord
100
AcDbBlockTableRecord
  2
_D_1
340
0
  0
BLOCK_RECORD
  5
FF
330
1
100
AcDbSymbolTableRecord
100
AcDbBlockTableRecord
  2
_D_2
340
0
  0
BLOCK_RECORD
  5
115
330
1
100
AcDbSymbolTableRecord
100
AcDbBlockTableRecord
  2
_D_3
340
0
  0
BLOCK_RECORD
  5
128
330
1
100
AcDbSymbolTableRecord
100
AcDbBlockTableRecord
  2
_D_4
340
0
  0
BLOCK_RECORD
  5
142
330
1
100
AcDbSymbolTableRecord
100
AcDbBlockTableRecord
  2
SW_DOWELSYMBOL_0
340
0
102
{BLKREFS
331
148
102
}
  0
BLOCK_RECORD
  5
1CF
330
1
100
AcDbSymbolTableRecord
100
AcDbBlockTableRecord
  2
*D8
340
0
  0
ENDTAB
  0
ENDSEC
  0
SECTION
  2
BLOCKS
  0
BLOCK
  5
20
330
1F
100
AcDbEntity
  8
0
100
AcDbBlockBegin
  2
*Model_Space
 70
     0
 10
0.0
 20
0.0
 30
0.0
  3
*Model_Space
  1
*Model_Space
  0
ENDBLK
  5
21
330
1F
100
AcDbEntity
  8
0
100
AcDbBlockEnd
  0
BLOCK
  5
1C
330
1B
100
AcDbEntity
 67
     1
  8
0
100
AcDbBlockBegin
  2
*Paper_Space
 70
     0
 10
0.0
 20
0.0
 30
0.0
  3
*Paper_Space
  1
*Paper_Space
  0
ENDBLK
  5
1D
330
1B
100
AcDbEntity
 67
     1
  8
0
100
AcDbBlockEnd
  0
BLOCK
  5
24
330
23
100
AcDbEntity
  8
0
100
AcDbBlockBegin
  2
*Paper_Space0
 70
     0
 10
0.0
 20
0.0
 30
0.0
  3
*Paper_Space0
  1
*Paper_Space0
  0
ENDBLK
  5
25
330
23
100
AcDbEntity
  8
0
100
AcDbBlockEnd
  0
BLOCK
  5
80
330
7F
100
AcDbEntity
  8
0
100
AcDbBlockBegin
  2
블럭10
 70
     2
 10
0.0
 20
0.0
 30
0.0
  3
블럭10
  1
블럭10
  0
ELLIPSE
  5
82
330
7F
100
AcDbEntity
  8
중심선
100
AcDbEllipse
 10
20.54032771741204
 20
12.0471743016438
 30
0.0
 11
6.600054785286829
 21
-1.261213355974178E-13
 31
0.0
210
0.0
220
0.0
230
1.0
 40
0.636358354079598
 41
0.9219305317359503
 42
6.513795318482858
  0
ELLIPSE
  5
83
330
7F
100
AcDbEntity
  8
중심선
100
AcDbEllipse
 10
20.54032771746488
 20
12.04717430159265
 30
0.0
 11
3.960054785062283
 21
1.540847449632565E-10
 31
0.0
210
0.0
220
0.0
230
1.0
 40
0.3939339440162632
 41
1.131841032648279
 42
5.62031148352944
  0
LINE
  5
84
330
7F
100
AcDbEntity
  8
중심선
100
AcDbLine
 10
2.268634060543552
 20
16.24717430164393
 30
0.0
 11
5.714909304380834
 21
16.24717430164393
 31
0.0
  0
LINE
  5
85
330
7F
100
AcDbEntity
  8
중심선
100
AcDbLine
 10
5.245725140726316
 20
7.84717430164391
 30
0.0
 11
8.692000384563599
 21
7.84717430164391
 31
0.0
  0
LINE
  5
86
330
7F
100
AcDbEntity
  8
중심선
100
AcDbLine
 10
15.74043728645272
 20
16.24717430164393
 30
0.0
 11
8.692000384563599
 21
7.84717430164391
 31
0.0
  0
LINE
  5
87
330
7F
100
AcDbEntity
  8
중심선
100
AcDbLine
 10
0.1404042013395286
 20
13.71084872107135
 30
0.0
 11
3.58671253028996
 21
13.71088815037384
 31
0.0
  0
LINE
  5
88
330
7F
100
AcDbEntity
  8
중심선
100
AcDbLine
 10
2.750260043222114
 20
10.84717430164391
 30
0.0
 11
6.196535287059397
 21
10.84717430164391
 31
0.0
  0
LINE
  5
89
330
7F
100
AcDbEntity
  8
중심선
100
AcDbLine
 10
12.29416204261559
 20
16.24717430164393
 30
0.0
 11
5.245725140726316
 21
7.84717430164391
 31
0.0
  0
LINE
  5
8A
330
7F
100
AcDbEntity
  8
중심선
100
AcDbLine
 10
10.72767329541681
 20
16.24717430164393
 30
0.0
 11
6.196535287059397
 21
10.84717430164391
 31
0.0
  0
LINE
  5
8B
330
7F
100
AcDbEntity
  8
중심선
100
AcDbLine
 10
7.28139805157953
 20
16.24717430164393
 30
0.0
 11
2.750260043222114
 21
10.84717430164391
 31
0.0
  0
LINE
  5
8C
330
7F
100
AcDbEntity
  8
중심선
100
AcDbLine
 10
5.714909304380834
 20
16.24717430164393
 30
0.0
 11
3.58671253028996
 21
13.71088815037384
 31
0.0
  0
LINE
  5
8D
330
7F
100
AcDbEntity
  8
중심선
100
AcDbLine
 10
2.268634060543552
 20
16.24717430164393
 30
0.0
 11
0.1404042013395286
 21
13.71084872107135
 31
0.0
  0
LINE
  5
8E
330
7F
100
AcDbEntity
  8
중심선
100
AcDbLine
 10
7.28139805157953
 20
16.24717430164393
 30
0.0
 11
10.72767329541681
 21
16.24717430164393
 31
0.0
  0
LINE
  5
8F
330
7F
100
AcDbEntity
  8
중심선
100
AcDbLine
 10
12.29416204261559
 20
16.24717430164393
 30
0.0
 11
15.74043728645272
 21
16.24717430164393
 31
0.0
  0
LINE
  5
90
330
7F
100
AcDbEntity
  8
중심선
100
AcDbLine
 10
19.22036997980202
 20
11.08717430171403
 30
0.0
 11
23.66174974927406
 21
11.08717430171406
 31
0.0
  0
LINE
  5
91
330
7F
100
AcDbEntity
  8
중심선
100
AcDbLine
 10
19.22039502424796
 20
13.00717430171391
 30
0.0
 11
19.22036997980202
 21
11.08717430171403
 31
0.0
  0
LINE
  5
92
330
7F
100
AcDbEntity
  8
중심선
100
AcDbLine
 10
19.22039502424796
 20
13.00717430171391
 30
0.0
 11
26.96566020931264
 21
13.00717430171391
 31
0.0
  0
LINE
  5
93
330
7F
100
AcDbEntity
  8
중심선
100
AcDbLine
 10
22.22332737316547
 20
13.45928029700563
 30
0.0
 11
24.52862924686651
 21
15.39360700705356
 31
0.0
  0
ATTDEF
  5
95
330
7F
100
AcDbEntity
  8
FORMAT
 62
     2
100
AcDbText
 10
2.883703680694412
 20
2.075366912832191
 30
0.0
 40
4.233333333333333
  1
G8C50016
 41
0.75
  7
SLDTEXTSTYLE0
 11
2.883703680694412
 21
-0.0412997538344756
 31
0.0
100
AcDbAttributeDefinition
  3

  2
AUTOATTR0
 70
     0
 74
     1
  0
ENDBLK
  5
81
330
7F
100
AcDbEntity
  8
0
100
AcDbBlockEnd
  0
BLOCK
  5
D7
330
D6
100
AcDbEntity
  8
0
100
AcDbBlockBegin
  2
_D
 70
     0
 10
0.0
 20
0.0
 30
0.0
  3
_D
  1
_D
  0
LINE
  5
D9
330
D6
100
AcDbEntity
  8
치수문자_일반주서
 62
     0
370
    -2
100
AcDbLine
 10
14.91913774815426
 20
3.174999999999994
 30
0.0
 11
30.85663774815443
 21
3.175000000000054
 31
0.0
  0
LINE
  5
DA
330
D6
100
AcDbEntity
  8
치수문자_일반주서
 62
     0
370
    -2
100
AcDbLine
 10
14.91913774815426
 20
-3.174999999999997
 30
0.0
 11
30.85663774815445
 21
-3.174999999999937
 31
0.0
  0
LINE
  5
DB
330
D6
100
AcDbEntity
  8
치수문자_일반주서
 62
     0
370
    -2
100
AcDbLine
 10
30.85663774815443
 20
3.175000000000054
 30
0.0
 11
30.85663774815432
 21
35.81025000000007
 31
0.0
  0
LINE
  5
DC
330
D6
100
AcDbEntity
  8
치수문자_일반주서
 62
     0
370
    -2
100
AcDbLine
 10
30.85663774815443
 20
3.175000000000054
 30
0.0
 11
30.85663774815445
 21
-3.174999999999937
 31
0.0
  0
LINE
  5
DD
330
D6
100
AcDbEntity
  8
치수문자_일반주서
 62
     0
370
    -2
100
AcDbLine
 10
30.85663774815442
 20
6.477000000000054
 30
0.0
 11
30.85663774815441
 21
9.779000000000053
 31
0.0
  0
LINE
  5
DE
330
D6
100
AcDbEntity
  8
치수문자_일반주서
 62
     0
370
    -2
100
AcDbLine
 10
30.85663774815447
 20
-6.476999999999936
 30
0.0
 11
30.85663774815448
 21
-9.778999999999936
 31
0.0
  0
SOLID
  5
DF
330
D6
100
AcDbEntity
  8
치수문자_일반주서
 62
     0
100
AcDbTrace
 10
30.30630441482109
 20
6.477000000000052
 30
0.0
 11
31.40697108148776
 21
6.477000000000055
 31
0.0
 12
30.85663774815443
 22
3.175000000000054
 32
0.0
 13
30.85663774815443
 23
3.175000000000054
 33
0.0
  0
SOLID
  5
E0
330
D6
100
AcDbEntity
  8
치수문자_일반주서
 62
     0
100
AcDbTrace
 10
31.4069710814878
 20
-6.476999999999935
 30
0.0
 11
30.30630441482113
 21
-6.476999999999938
 31
0.0
 12
30.85663774815445
 22
-3.174999999999937
 32
0.0
 13
30.85663774815445
 23
-3.174999999999937
 33
0.0
  0
MTEXT
  5
E1
330
D6
100
AcDbEntity
  8
치수문자_일반주서
 62
     0
100
AcDbMText
 10
26.48163774815437
 20
23.12275000000006
 30
0.0
 40
3.5
 41
0.0
 71
     2
 72
     1
  1
\A1;%%c6.35 [1/4]
  7
SLDTEXTSTYLE0
 11
-3.356894814614651E-15
 21
1.0
 31
0.0
 73
     1
 44
1.0
  0
POINT
  5
E2
330
D6
100
AcDbEntity
  8
Defpoints
 62
     0
100
AcDbPoint
 10
14.85663774815426
 20
3.174999999999994
 30
0.0
  0
POINT
  5
E3
330
D6
100
AcDbEntity
  8
Defpoints
 62
     0
100
AcDbPoint
 10
14.85663774815426
 20
-3.174999999999997
 30
0.0
  0
POINT
  5
E4
330
D6
100
AcDbEntity
  8
Defpoints
 62
     0
100
AcDbPoint
 10
30.85663774815446
 20
-3.174999999999937
 30
0.0
  0
ENDBLK
  5
D8
330
D6
100
AcDbEntity
  8
0
100
AcDbBlockEnd
  0
BLOCK
  5
EB
330
EA
100
AcDbEntity
  8
0
100
AcDbBlockBegin
  2
_D_1
 70
     0
 10
0.0
 20
0.0
 30
0.0
  3
_D_1
  1
_D_1
  0
LINE
  5
ED
330
EA
100
AcDbEntity
  8
치수문자_일반주서
 62
     0
370
    -2
100
AcDbLine
 10
14.85663774815426
 20
3.237500000000002
 30
0.0
 11
14.85663774815426
 21
25.33035995710224
 31
0.0
  0
LINE
  5
EE
330
EA
100
AcDbEntity
  8
치수문자_일반주서
 62
     0
370
    -2
100
AcDbLine
 10
6.919137748153215
 20
3.234747313792389
 30
0.0
 11
6.919137748153217
 21
25.33035995710224
 31
0.0
  0
LINE
  5
EF
330
EA
100
AcDbEntity
  8
치수문자_일반주서
 62
     0
370
    -2
100
AcDbLine
 10
6.919137748153217
 20
25.33035995710224
 30
0.0
 11
-25.05986225184678
 21
25.33035995710224
 31
0.0
  0
LINE
  5
F0
330
EA
100
AcDbEntity
  8
치수문자_일반주서
 62
     0
370
    -2
100
AcDbLine
 10
11.55463774815426
 20
25.33035995710224
 30
0.0
 11
10.22113774815322
 21
25.33035995710224
 31
0.0
  0
LINE
  5
F1
330
EA
100
AcDbEntity
  8
치수문자_일반주서
 62
     0
370
    -2
100
AcDbLine
 10
10.22113774815322
 20
25.33035995710224
 30
0.0
 11
13.52313774815322
 21
25.33035995710224
 31
0.0
  0
SOLID
  5
F2
330
EA
100
AcDbEntity
  8
치수문자_일반주서
 62
     0
100
AcDbTrace
 10
11.55463774815426
 20
24.7800266237689
 30
0.0
 11
11.55463774815426
 21
25.88069329043557
 31
0.0
 12
14.85663774815426
 22
25.33035995710224
 32
0.0
 13
14.85663774815426
 23
25.33035995710224
 33
0.0
  0
SOLID
  5
F3
330
EA
100
AcDbEntity
  8
치수문자_일반주서
 62
     0
100
AcDbTrace
 10
10.22113774815322
 20
25.88069329043557
 30
0.0
 11
10.22113774815322
 21
24.7800266237689
 31
0.0
 12
6.919137748153217
 22
25.33035995710224
 32
0.0
 13
6.919137748153217
 23
25.33035995710224
 33
0.0
  0
MTEXT
  5
F4
330
EA
100
AcDbEntity
  8
치수문자_일반주서
 62
     0
100
AcDbMText
 10
-12.37236225184678
 20
29.70535995710224
 30
0.0
 40
3.5
 41
0.0
 71
     2
 72
     1
  1
\A1;7.94 [5/16]
  7
SLDTEXTSTYLE0
 73
     1
 44
1.0
  0
POINT
  5
F5
330
EA
100
AcDbEntity
  8
Defpoints
 62
     0
100
AcDbPoint
 10
14.85663774815426
 20
3.175000000000002
 30
0.0
  0
POINT
  5
19F
330
EA
100
AcDbEntity
  8
Defpoints
 62
     0
100
AcDbPoint
 10
6.919137748153215
 20
3.172247313792389
 30
0.0
  0
POINT
  5
1FE
330
EA
100
AcDbEntity
  8
Defpoints
 62
     0
100
AcDbPoint
 10
6.919137748153215
 20
25.33035995710224
 30
0.0
  0
ENDBLK
  5
EC
330
EA
100
AcDbEntity
  8
0
100
AcDbBlockEnd
  0
BLOCK
  5
100
330
FF
100
AcDbEntity
  8
0
100
AcDbBlockBegin
  2
_D_2
 70
     0
 10
0.0
 20
0.0
 30
0.0
  3
_D_2
  1
_D_2
  0
LINE
  5
102
330
FF
100
AcDbEntity
  8
치수문자_일반주서
 62
     0
370
    -2
100
AcDbLine
 10
14.85663774815426
 20
3.237500000000002
 30
0.0
 11
14.85663774815426
 21
38.58288156346726
 31
0.0
  0
LINE
  5
103
330
FF
100
AcDbEntity
  8
치수문자_일반주서
 62
     0
370
    -2
100
AcDbLine
 10
0.5691377481542477
 20
3.085
 30
0.0
 11
0.5691377481542474
 21
38.58288156346726
 31
0.0
  0
LINE
  5
104
330
FF
100
AcDbEntity
  8
치수문자_일반주서
 62
     0
370
    -2
100
AcDbLine
 10
0.5691377481542474
 20
38.58288156346726
 30
0.0
 11
-33.15986225184575
 21
38.58288156346726
 31
0.0
  0
LINE
  5
105
330
FF
100
AcDbEntity
  8
치수문자_일반주서
 62
     0
370
    -2
100
AcDbLine
 10
11.55463774815426
 20
38.58288156346726
 30
0.0
 11
3.871137748154247
 21
38.58288156346726
 31
0.0
  0
LINE
  5
106
330
FF
100
AcDbEntity
  8
치수문자_일반주서
 62
     0
370
    -2
100
AcDbLine
 10
3.871137748154247
 20
38.58288156346726
 30
0.0
 11
7.173137748154248
 21
38.58288156346726
 31
0.0
  0
SOLID
  5
107
330
FF
100
AcDbEntity
  8
치수문자_일반주서
 62
     0
100
AcDbTrace
 10
11.55463774815426
 20
38.03254823013393
 30
0.0
 11
11.55463774815426
 21
39.1332148968006
 31
0.0
 12
14.85663774815426
 22
38.58288156346726
 32
0.0
 13
14.85663774815426
 23
38.58288156346726
 33
0.0
  0
SOLID
  5
108
330
FF
100
AcDbEntity
  8
치수문자_일반주서
 62
     0
100
AcDbTrace
 10
3.871137748154247
 20
39.1332148968006
 30
0.0
 11
3.871137748154247
 21
38.03254823013393
 31
0.0
 12
0.5691377481542474
 22
38.58288156346726
 32
0.0
 13
0.5691377481542474
 23
38.58288156346726
 33
0.0
  0
MTEXT
  5
109
330
FF
100
AcDbEntity
  8
치수문자_일반주서
 62
     0
100
AcDbMText
 10
-19.59736225184575
 20
42.95788156346726
 30
0.0
 40
3.5
 41
0.0
 71
     2
 72
     1
  1
\A1;14.29 [9/16]
  7
SLDTEXTSTYLE0
 73
     1
 44
1.0
  0
POINT
  5
10A
330
FF
100
AcDbEntity
  8
Defpoints
 62
     0
100
AcDbPoint
 10
14.85663774815426
 20
3.175000000000002
 30
0.0
  0
POINT
  5
1A1
330
FF
100
AcDbEntity
  8
Defpoints
 62
     0
100
AcDbPoint
 10
0.5691377481542477
 20
3.0225
 30
0.0
  0
POINT
  5
1FF
330
FF
100
AcDbEntity
  8
Defpoints
 62
     0
100
AcDbPoint
 10
0.5691377481542477
 20
38.58288156346726
 30
0.0
  0
ENDBLK
  5
101
330
FF
100
AcDbEntity
  8
0
100
AcDbBlockEnd
  0
BLOCK
  5
116
330
115
100
AcDbEntity
  8
0
100
AcDbBlockBegin
  2
_D_3
 70
     0
 10
0.0
 20
0.0
 30
0.0
  3
_D_3
  1
_D_3
  0
LINE
  5
118
330
115
100
AcDbEntity
  8
치수문자_일반주서
 62
     0
370
    -2
100
AcDbLine
 10
14.85663774815426
 20
3.237500000000002
 30
0.0
 11
14.85663774815426
 21
52.90680488342439
 31
0.0
  0
LINE
  5
119
330
115
100
AcDbEntity
  8
치수문자_일반주서
 62
     0
370
    -2
100
AcDbLine
 10
-35.94336225184575
 20
2.602500000000005
 30
0.0
 11
-35.94336225184576
 21
52.90680488342439
 31
0.0
  0
LINE
  5
11A
330
115
100
AcDbEntity
  8
치수문자_일반주서
 62
     0
370
    -2
100
AcDbLine
 10
11.55463774815426
 20
52.90680488342439
 30
0.0
 11
-32.64136225184576
 21
52.90680488342439
 31
0.0
  0
SOLID
  5
11B
330
115
100
AcDbEntity
  8
치수문자_일반주서
 62
     0
100
AcDbTrace
 10
11.55463774815426
 20
52.35647155009106
 30
0.0
 11
11.55463774815426
 21
53.45713821675773
 31
0.0
 12
14.85663774815426
 22
52.90680488342439
 32
0.0
 13
14.85663774815426
 23
52.90680488342439
 33
0.0
  0
SOLID
  5
11C
330
115
100
AcDbEntity
  8
치수문자_일반주서
 62
     0
100
AcDbTrace
 10
-32.64136225184576
 20
53.45713821675773
 30
0.0
 11
-32.64136225184576
 21
52.35647155009106
 31
0.0
 12
-35.94336225184576
 22
52.90680488342439
 32
0.0
 13
-35.94336225184576
 23
52.90680488342439
 33
0.0
  0
MTEXT
  5
11D
330
115
100
AcDbEntity
  8
치수문자_일반주서
 62
     0
100
AcDbMText
 10
-10.54336225184575
 20
57.28180488342439
 30
0.0
 40
3.5
 41
0.0
 71
     2
 72
     1
  1
\A1;50.8 [2]
  7
SLDTEXTSTYLE0
 73
     1
 44
1.0
  0
POINT
  5
11E
330
115
100
AcDbEntity
  8
Defpoints
 62
     0
100
AcDbPoint
 10
14.85663774815426
 20
3.175000000000002
 30
0.0
  0
POINT
  5
11F
330
115
100
AcDbEntity
  8
Defpoints
 62
     0
100
AcDbPoint
 10
-35.94336225184575
 20
2.540000000000005
 30
0.0
  0
POINT
  5
120
330
115
100
AcDbEntity
  8
Defpoints
 62
     0
100
AcDbPoint
 10
-35.94336225184575
 20
52.90680488342439
 30
0.0
  0
ENDBLK
  5
117
330
115
100
AcDbEntity
  8
0
100
AcDbBlockEnd
  0
BLOCK
  5
129
330
128
100
AcDbEntity
  8
0
100
AcDbBlockBegin
  2
_D_4
 70
     0
 10
0.0
 20
0.0
 30
0.0
  3
_D_4
  1
_D_4
  0
LINE
  5
12B
330
128
100
AcDbEntity
  8
치수문자_일반주서
 62
     0
370
    -2
100
AcDbLine
 10
-35.37086225184574
 20
3.17500000000001
 30
0.0
 11
-48.94336225184575
 21
3.174999999999962
 31
0.0
  0
LINE
  5
12C
330
128
100
AcDbEntity
  8
치수문자_일반주서
 62
     0
370
    -2
100
AcDbLine
 10
-35.37086225184574
 20
-3.175000000000011
 30
0.0
 11
-48.94336225184573
 21
-3.175000000000061
 31
0.0
  0
LINE
  5
12D
330
128
100
AcDbEntity
  8
치수문자_일반주서
 62
     0
370
    -2
100
AcDbLine
 10
-48.94336225184575
 20
3.174999999999962
 30
0.0
 11
-48.94336225184585
 21
35.15399999999996
 31
0.0
  0
LINE
  5
12E
330
128
100
AcDbEntity
  8
치수문자_일반주서
 62
     0
370
    -2
100
AcDbLine
 10
-48.94336225184575
 20
3.174999999999962
 30
0.0
 11
-48.94336225184573
 21
-3.175000000000061
 31
0.0
  0
LINE
  5
12F
330
128
100
AcDbEntity
  8
치수문자_일반주서
 62
     0
370
    -2
100
AcDbLine
 10
-48.94336225184576
 20
6.476999999999961
 30
0.0
 11
-48.94336225184578
 21
9.77899999999996
 31
0.0
  0
LINE
  5
130
330
128
100
AcDbEntity
  8
치수문자_일반주서
 62
     0
370
    -2
100
AcDbLine
 10
-48.94336225184571
 20
-6.477000000000061
 30
0.0
 11
-48.9433622518457
 21
-9.77900000000006
 31
0.0
  0
SOLID
  5
131
330
128
100
AcDbEntity
  8
치수문자_일반주서
 62
     0
100
AcDbTrace
 10
-49.4936955851791
 20
6.476999999999959
 30
0.0
 11
-48.39302891851243
 21
6.476999999999963
 31
0.0
 12
-48.94336225184575
 22
3.174999999999962
 32
0.0
 13
-48.94336225184575
 23
3.174999999999962
 33
0.0
  0
SOLID
  5
132
330
128
100
AcDbEntity
  8
치수문자_일반주서
 62
     0
100
AcDbTrace
 10
-48.39302891851238
 20
-6.477000000000059
 30
0.0
 11
-49.49369558517905
 21
-6.477000000000062
 31
0.0
 12
-48.94336225184573
 22
-3.175000000000061
 32
0.0
 13
-48.94336225184573
 23
-3.175000000000061
 33
0.0
  0
MTEXT
  5
133
330
128
100
AcDbEntity
  8
치수문자_일반주서
 62
     0
100
AcDbMText
 10
-53.31836225184581
 20
22.46649999999995
 30
0.0
 40
3.5
 41
0.0
 71
     2
 72
     1
  1
\A1;%%c6.35 [1/4]
  7
SLDTEXTSTYLE0
 11
-3.356894814614635E-15
 21
1.0
 31
0.0
 73
     1
 44
1.0
  0
POINT
  5
134
330
128
100
AcDbEntity
  8
Defpoints
 62
     0
100
AcDbPoint
 10
-35.30836225184574
 20
3.175000000000011
 30
0.0
  0
POINT
  5
135
330
128
100
AcDbEntity
  8
Defpoints
 62
     0
100
AcDbPoint
 10
-35.30836225184574
 20
-3.175000000000011
 30
0.0
  0
POINT
  5
136
330
128
100
AcDbEntity
  8
Defpoints
 62
     0
100
AcDbPoint
 10
-48.94336225184572
 20
-3.175000000000062
 30
0.0
  0
ENDBLK
  5
12A
330
128
100
AcDbEntity
  8
0
100
AcDbBlockEnd
  0
BLOCK
  5
143
330
142
100
AcDbEntity
  8
0
100
AcDbBlockBegin
  2
SW_DOWELSYMBOL_0
 70
     0
 10
0.0
 20
0.0
 30
0.0
  3
SW_DOWELSYMBOL_0
  1
SW_DOWELSYMBOL_0
  0
CIRCLE
  5
145
330
142
100
AcDbEntity
  8
해칭선
 62
     0
100
AcDbCircle
 10
0.0
 20
0.0
 30
0.0
 40
3.000000000000001
  0
HATCH
  5
146
330
142
100
AcDbEntity
  8
0
  6
Continuous
 62
     0
370
     0
100
AcDbHatch
 10
0.0
 20
0.0
 30
0.0
210
0.0
220
0.0
230
1.0
  2
SOLID
 70
     1
 71
     0
 91
        1
 92
        0
 93
        3
 72
     2
 10
0.0
 20
0.0
 40
3.000000000000001
 50
0.0
 51
90.0
 73
     1
 72
     1
 10
0.0
 20
3.000000000000001
 11
0.0
 21
0.0
 72
     1
 10
0.0
 20
0.0
 11
3.000000000000001
 21
0.0
 97
        0
 75
     0
 76
     1
 98
        1
 10
0.0
 20
0.0
  0
HATCH
  5
147
330
142
100
AcDbEntity
  8
0
  6
Continuous
 62
     0
370
     0
100
AcDbHatch
 10
0.0
 20
0.0
 30
0.0
210
0.0
220
0.0
230
1.0
  2
SOLID
 70
     1
 71
     0
 91
        1
 92
        0
 93
        3
 72
     2
 10
0.0
 20
0.0
 40
3.000000000000001
 50
180.0
 51
270.0000000000007
 73
     1
 72
     1
 10
0.0
 20
-3.000000000000001
 11
0.0
 21
0.0
 72
     1
 10
0.0
 20
0.0
 11
-3.000000000000001
 21
0.0
 97
        0
 75
     0
 76
     1
 98
        1
 10
0.0
 20
0.0
  0
ENDBLK
  5
144
330
142
100
AcDbEntity
  8
0
100
AcDbBlockEnd
  0
BLOCK
  5
1D0
330
1CF
100
AcDbEntity
  8
0
100
AcDbBlockBegin
  2
*D8
 70
     1
 10
0.0
 20
0.0
 30
0.0
  3
*D8
  1
*D8
  0
LINE
  5
1D2
330
1CF
100
AcDbEntity
  8
치수문자_일반주서
 62
     0
370
    -2
100
AcDbLine
 10
16.16087373589353
 20
-6.136300558203219
 30
0.0
 11
32.25661911793104
 21
-39.92546020440659
 31
0.0
  0
MTEXT
  5
1D3
330
1CF
100
AcDbEntity
  8
치수문자_일반주서
 62
     0
100
AcDbMText
 10
29.07604974914279
 20
-27.14477585055347
 30
0.0
 40
3.5
 41
0.0
 71
     5
 72
     1
  1
\A1;R.2 [R0.008]
  7
SLDTEXTSTYLE0
 11
0.4300570545872633
 21
-0.9028017112299509
 31
0.0
 73
     1
 44
1.0
  0
LINE
  5
1D4
330
1CF
100
AcDbEntity
  8
치수문자_일반주서
 62
     0
370
    -2
100
AcDbLine
 10
14.65343774815426
 20
-2.971799999999997
 30
0.0
 11
14.74082534164639
 21
-3.155249307721922
 31
0.0
  0
SOLID
  5
1D5
330
1CF
100
AcDbEntity
  8
치수문자_일반주서
 62
     0
100
AcDbTrace
 10
16.65771561097375
 20
-5.899625825828696
 30
0.0
 11
15.66403186081332
 21
-6.372975290577743
 31
0.0
 12
14.74082534164639
 22
-3.155249307721922
 32
0.0
 13
14.74082534164639
 23
-3.155249307721922
 33
0.0
  0
POINT
  5
1D6
330
1CF
100
AcDbEntity
  8
Defpoints
 62
     0
100
AcDbPoint
 10
14.74082534164639
 20
-3.155249307721922
 30
0.0
  0
POINT
  5
1D7
330
1CF
100
AcDbEntity
  8
Defpoints
 62
     0
100
AcDbPoint
 10
14.65343774815426
 20
-2.971799999999997
 30
0.0
  0
ENDBLK
  5
1D1
330
1CF
100
AcDbEntity
  8
0
100
AcDbBlockEnd
  0
ENDSEC
  0
SECTION
  2
ENTITIES
  0
LINE
  5
96
330
1F
100
AcDbEntity
  8
0
  6
Continuous
 62
     1
370
    15
100
AcDbLine
 10
8.62549379737963
 20
3.174999999999994
 30
0.0
 11
6.919137748154249
 21
3.174999999999994
 31
0.0
  0
LINE
  5
97
330
1F
100
AcDbEntity
  8
0
  6
Continuous
 62
     1
370
    15
100
AcDbLine
 10
6.919137748154249
 20
-3.175000000000004
 30
0.0
 11
8.62549379737963
 21
-3.175000000000004
 31
0.0
  0
LINE
  5
98
330
1F
100
AcDbEntity
  8
외형선
  6
Continuous
370
    15
100
AcDbLine
 10
-35.30836225184574
 20
-3.174999999999999
 30
0.0
 11
-0.0000000000000033
 21
-3.174999999999999
 31
0.0
  0
LINE
  5
99
330
1F
100
AcDbEntity
  8
외형선
  6
Continuous
370
    15
100
AcDbLine
 10
0.0
 20
3.174999999999999
 30
0.0
 11
-35.30836225184574
 21
3.174999999999999
 31
0.0
  0
LINE
  5
9B
330
1F
100
AcDbEntity
  8
외형선
  6
Continuous
370
    15
100
AcDbLine
 10
0.5691377481542477
 20
3.0225
 30
0.0
 11
-0.0000000000000001
 21
3.174999999999999
 31
0.0
  0
LINE
  5
9C
330
1F
100
AcDbEntity
  8
외형선
  6
Continuous
370
    15
100
AcDbLine
 10
-35.30836225184574
 20
3.174999999999999
 30
0.0
 11
-35.94336225184575
 21
2.540000000000005
 31
0.0
  0
LINE
  5
9D
330
1F
100
AcDbEntity
  8
외형선
  6
Continuous
370
    15
100
AcDbLine
 10
-35.94336225184575
 20
-2.540000000000005
 30
0.0
 11
-35.30836225184574
 21
-3.174999999999999
 31
0.0
  0
LINE
  5
9E
330
1F
100
AcDbEntity
  8
외형선
  6
Continuous
370
    15
100
AcDbLine
 10
6.764653390039133
 20
-3.0225
 30
0.0
 11
6.919137748154249
 21
-3.0225
 31
0.0
  0
LINE
  5
9F
330
1F
100
AcDbEntity
  8
외형선
  6
Continuous
370
    15
100
AcDbLine
 10
0.5691377481542477
 20
-3.0225
 30
0.0
 11
6.418820528548999
 21
-3.0225
 31
0.0
  0
LINE
  5
A0
330
1F
100
AcDbEntity
  8
외형선
  6
Continuous
370
    15
100
AcDbLine
 10
6.418820528548999
 20
3.0225
 30
0.0
 11
0.5691377481542477
 21
3.0225
 31
0.0
  0
LINE
  5
A1
330
1F
100
AcDbEntity
  8
외형선
  6
Continuous
370
    15
100
AcDbLine
 10
6.919137748154249
 20
3.0225
 30
0.0
 11
6.764653390039166
 21
3.0225
 31
0.0
  0
SPLINE
  5
A2
330
1F
100
AcDbEntity
  8
0
  6
Continuous
 62
     1
370
    15
100
AcDbSpline
210
0.0
220
0.0
230
1.0
 70
     8
 71
     3
 72
    10
 73
     6
 74
     0
 42
0.000000001
 43
0.00000001
 40
0.0
 40
0.0
 40
0.0
 40
0.0
 40
0.5
 40
0.5
 40
1.0
 40
1.0
 40
1.0
 40
1.0
 10
14.65343774815425
 20
0.3891233597315599
 30
0.0
 10
14.70195872210307
 20
0.3612778208165587
 30
0.0
 10
14.75296795834367
 20
0.3356654616650814
 30
0.0
 10
14.83230702991797
 20
0.3043660354618228
 30
0.0
 10
14.85663774815425
 20
0.3002000615093445
 30
0.0
 10
14.85663774815426
 20
0.3062918434746441
 30
0.0
  0
LINE
  5
A3
330
1F
100
AcDbEntity
  8
0
  6
Continuous
 62
     1
370
    15
100
AcDbLine
 10
14.85663774815425
 20
-2.713094243474614
 30
0.0
 11
14.85663774815425
 21
0.3062918434746449
 31
0.0
  0
SPLINE
  5
A4
330
1F
100
AcDbEntity
  8
0
  6
Continuous
 62
     1
370
    15
100
AcDbSpline
210
0.0
220
0.0
230
1.0
 70
     8
 71
     3
 72
    10
 73
     6
 74
     0
 42
0.000000001
 43
0.00000001
 40
0.0
 40
0.0
 40
0.0
 40
0.0
 40
0.5
 40
0.5
 40
1.0
 40
1.0
 40
1.0
 40
1.0
 10
14.85663774815425
 20
-2.713094243474613
 30
0.0
 10
14.85663774815425
 20
-2.762478741978496
 30
0.0
 10
14.83038378338099
 20
-2.798492072475855
 30
0.0
 10
14.75541235054756
 20
-2.835292452880962
 30
0.0
 10
14.70625185560102
 20
-2.83762351761833
 30
0.0
 10
14.65343774815415
 20
-2.823659513670254
 30
0.0
  0
SPLINE
  5
A5
330
1F
100
AcDbEntity
  8
0
  6
Continuous
 62
     1
370
    15
100
AcDbSpline
210
0.0
220
0.0
230
1.0
 70
     8
 71
     3
 72
    32
 73
    28
 74
     0
 42
0.000000001
 43
0.00000001
 40
0.0
 40
0.0
 40
0.0
 40
0.0
 40
0.1249999999999991
 40
0.1249999999999991
 40
0.1874999999999987
 40
0.1874999999999987
 40
0.2499999999999983
 40
0.2499999999999983
 40
0.3124999999999979
 40
0.3124999999999979
 40
0.3749999999999976
 40
0.3749999999999976
 40
0.4999999999999968
 40
0.4999999999999968
 40
0.5624999999999964
 40
0.5624999999999964
 40
0.6249999999999961
 40
0.6249999999999961
 40
0.6874999999999958
 40
0.6874999999999958
 40
0.7499999999999954
 40
0.7499999999999954
 40
0.8749999999999967
 40
0.8749999999999967
 40
0.9374999999999983
 40
0.9374999999999983
 40
1.0
 40
1.0
 40
1.0
 40
1.0
 10
14.65343774815424
 20
-2.823659513670281
 30
0.0
 10
14.33197081841517
 20
-2.738663937809015
 30
0.0
 10
14.00650929773875
 20
-2.638689424258548
 30
0.0
 10
13.52356098035918
 20
-2.469678941537785
 30
0.0
 10
13.36427142056885
 20
-2.410301366096664
 30
0.0
 10
13.04272078829111
 20
-2.285147420839252
 30
0.0
 10
12.88096762502144
 20
-2.219419592796203
 30
0.0
 10
12.55737305754786
 20
-2.082386146091127
 30
0.0
 10
12.39553407108079
 20
-2.011081543768497
 30
0.0
 10
12.07364344159742
 20
-1.863749907312591
 30
0.0
 10
11.91436815948014
 20
-1.787855560206293
 30
0.0
 10
11.4319191459159
 20
-1.552853525175416
 30
0.0
 10
11.10645022109002
 20
-1.386708803550336
 30
0.0
 10
10.62372914751971
 20
-1.129006452625124
 30
0.0
 10
10.46446148190364
 20
-1.041840266257144
 30
0.0
 10
10.14274842329066
 20
-0.8644824437707471
 30
0.0
 10
9.980953281653974
 20
-0.774403071215777
 30
0.0
 10
9.657354838739602
 20
-0.5924737415284074
 30
0.0
 10
9.495553955400926
 20
-0.5006251436183253
 30
0.0
 10
9.173818150462639
 20
-0.3162313474243244
 30
0.0
 10
9.014551440044347
 20
-0.2238166540117027
 30
0.0
 10
8.531863770651713
 20
0.0548702658536499
 30
0.0
 10
8.20639435047692
 20
0.2420397104240317
 30
0.0
 10
7.723910502705783
 20
0.518399612496302
 30
0.0
 10
7.564638086165376
 20
0.609676976055985
 30
0.0
 10
7.242769248874108
 20
0.7910603669338178
 30
0.0
 10
7.080935517912172
 20
0.8810180186563015
 30
0.0
 10
6.919137748154262
 20
0.9697151383124736
 30
0.0
  0
SPLINE
  5
A6
330
1F
100
AcDbEntity
  8
외형선
  6
Continuous
370
    15
100
AcDbSpline
210
0.0
220
0.0
230
1.0
 70
    24
 71
     3
 72
    14
 73
    10
 74
     0
 42
0.000000001
 43
0.00000001
 40
0.0
 40
0.0
 40
0.0
 40
0.0
 40
0.1232054554934762
 40
0.2578017004752398
 40
0.3886046510297492
 40
0.5232008960114656
 40
0.6540038465659197
 40
0.7886000915476749
 40
1.0
 40
1.0
 40
1.0
 40
1.0
 10
6.919137748154256
 20
1.004938701189878
 30
0.0
 10
6.919137748154249
 20
1.067918105773111
 30
0.0
 10
6.919137748154235
 20
1.199699588431038
 30
0.0
 10
6.919137748154262
 20
1.446656912024173
 30
0.0
 10
6.919137748154228
 20
1.72791486960197
 30
0.0
 10
6.919137748154297
 20
2.03021115414671
 30
0.0
 10
6.919137748154187
 20
2.348752574851621
 30
0.0
 10
6.919137748154464
 20
2.736429994021686
 30
0.0
 10
6.919137748153688
 20
3.006957768707228
 30
0.0
 10
6.919137748153215
 20
3.172247313792389
 30
0.0
  0
SPLINE
  5
A7
330
1F
100
AcDbEntity
  8
0
  6
Continuous
 62
     1
370
    15
100
AcDbSpline
210
0.0
220
0.0
230
1.0
 70
     8
 71
     3
 72
    32
 73
    28
 74
     0
 42
0.000000001
 43
0.00000001
 40
0.0
 40
0.0
 40
0.0
 40
0.0
 40
0.1250000000000004
 40
0.1250000000000004
 40
0.1874999999999995
 40
0.1874999999999995
 40
0.2499999999999987
 40
0.2499999999999987
 40
0.3124999999999978
 40
0.3124999999999978
 40
0.374999999999997
 40
0.374999999999997
 40
0.4999999999999973
 40
0.4999999999999973
 40
0.5624999999999976
 40
0.5624999999999976
 40
0.6249999999999976
 40
0.6249999999999976
 40
0.6874999999999977
 40
0.6874999999999977
 40
0.7499999999999977
 40
0.7499999999999977
 40
0.8749999999999999
 40
0.8749999999999999
 40
0.9374999999999999
 40
0.9374999999999999
 40
1.0
 40
1.0
 40
1.0
 40
1.0
 10
14.65343774815427
 20
0.3891233597315586
 30
0.0
 10
14.33197081841518
 20
0.5736089372753637
 30
0.0
 10
14.00650929773867
 20
0.7568344576352197
 30
0.0
 10
13.52356098035903
 20
1.023449099856799
 30
0.0
 10
13.36427142056866
 20
1.11081119067492
 30
0.0
 10
13.04272078829089
 20
1.282998715602001
 30
0.0
 10
12.88096762502119
 20
1.367725034917462
 30
0.0
 10
12.55737305754755
 20
1.533440782349371
 30
0.0
 10
12.39553407108047
 20
1.614428967196722
 30
0.0
 10
12.07364344159707
 20
1.771749650735034
 30
0.0
 10
11.91436815947975
 20
1.847968172162379
 30
0.0
 10
11.43191914591542
 20
2.069945635222883
 30
0.0
 10
11.10645022108953
 20
2.208550546001899
 30
0.0
 10
10.62372914751915
 20
2.397593302145779
 30
0.0
 10
10.46446148190304
 20
2.457402179053774
 30
0.0
 10
10.14274842329002
 20
2.570951137555279
 30
0.0
 10
9.98095328165335
 20
2.624596246821884
 30
0.0
 10
9.657354838738893
 20
2.724967792112411
 30
0.0
 10
9.495553955400176
 20
2.771693477529286
 30
0.0
 10
9.173818150461862
 20
2.857724588199266
 30
0.0
 10
9.01455144004355
 20
2.896991354780408
 30
0.0
 10
8.531863770650839
 20
3.003878720835214
 30
0.0
 10
8.206394350475984
 20
3.060199947430259
 30
0.0
 10
7.723910502704777
 20
3.120341561934691
 30
0.0
 10
7.564638086164355
 20
3.136352667835387
 30
0.0
 10
7.24276924887306
 20
3.160387674267329
 30
0.0
 10
7.080935517911088
 20
3.168369375548402
 30
0.0
 10
6.919137748153166
 20
3.172247313792396
 30
0.0
  0
SPLINE
  5
A8
330
1F
100
AcDbEntity
  8
0
  6
Continuous
 62
     1
370
    15
100
AcDbSpline
210
0.0
220
0.0
230
1.0
 70
     8
 71
     3
 72
    32
 73
    28
 74
     0
 42
0.000000001
 43
0.00000001
 40
0.0
 40
0.0
 40
0.0
 40
0.0
 40
0.1249999999999997
 40
0.1249999999999997
 40
0.1874999999999986
 40
0.1874999999999986
 40
0.2499999999999974
 40
0.2499999999999974
 40
0.3124999999999963
 40
0.3124999999999963
 40
0.3749999999999952
 40
0.3749999999999952
 40
0.4999999999999949
 40
0.4999999999999949
 40
0.5624999999999948
 40
0.5624999999999948
 40
0.6249999999999947
 40
0.6249999999999947
 40
0.6874999999999944
 40
0.6874999999999944
 40
0.7499999999999943
 40
0.7499999999999943
 40
0.8749999999999962
 40
0.8749999999999962
 40
0.9374999999999981
 40
0.9374999999999981
 40
1.0
 40
1.0
 40
1.0
 40
1.0
 10
14.65343774815426
 20
-3.174999999999997
 30
0.0
 10
14.33197081841515
 20
-3.128282553780694
 30
0.0
 10
14.00650929773867
 20
-3.089080158809936
 30
0.0
 10
13.52356098035905
 20
-3.006962644589495
 30
0.0
 10
13.3642714205687
 20
-2.975796277176202
 30
0.0
 10
13.04272078829089
 20
-2.905714934460708
 30
0.0
 10
12.88096762502119
 20
-2.866815264748274
 30
0.0
 10
12.55737305754754
 20
-2.78170108033941
 30
0.0
 10
12.39553407108047
 20
-2.735487191695106
 30
0.0
 10
12.07364344159707
 20
-2.636318311807613
 30
0.0
 10
11.91436815947975
 20
-2.58346280925824
 30
0.0
 10
11.43191914591542
 20
-2.41464611813078
 30
0.0
 10
11.10645022108954
 20
-2.288560305320952
 30
0.0
 10
10.62372914751916
 20
-2.083462515583079
 30
0.0
 10
10.46446148190305
 20
-2.012571096966603
 30
0.0
 10
10.14274842329004
 20
-1.865335931747096
 30
0.0
 10
9.980953281653322
 20
-1.789076897111105
 30
0.0
 10
9.657354838738915
 20
-1.632131163405144
 30
0.0
 10
9.49555395540019
 20
-1.551445636638292
 30
0.0
 10
9.173818150461862
 20
-1.386606820560069
 30
0.0
 10
9.014551440043542
 20
-1.302578361690147
 30
0.0
 10
8.531863770650846
 20
-1.044947282199631
 30
0.0
 10
8.206394350475984
 20
-0.866238276631843
 30
0.0
 10
7.723910502704777
 20
-0.5939153175340567
 30
0.0
 10
7.564638086164361
 20
-0.5025560856682396
 30
0.0
 10
7.24276924887306
 20
-0.3181515749127613
 30
0.0
 10
7.080935517911081
 20
-0.2252488641396532
 30
0.0
 10
6.91913774815316
 20
-0.1321816179994822
 30
0.0
  0
LINE
  5
A9
330
1F
100
AcDbEntity
  8
외형선
  6
Continuous
370
    15
100
AcDbLine
 10
6.919137748154262
 20
0.9697151383124755
 30
0.0
 11
6.919137748153215
 21
-0.1321816179993857
 31
0.0
  0
SPLINE
  5
AB
330
1F
100
AcDbEntity
  8
0
  6
Continuous
 62
     1
370
    15
100
AcDbSpline
210
0.0
220
0.0
230
1.0
 70
     8
 71
     3
 72
    12
 73
     8
 74
     0
 42
0.000000001
 43
0.00000001
 40
0.0
 40
0.0
 40
0.0
 40
0.0
 40
0.1130873829330273
 40
0.3270670560188849
 40
0.5515985202108377
 40
0.7759234105645539
 40
1.0
 40
1.0
 40
1.0
 40
1.0
 10
11.97687332602919
 20
-2.591001480032096
 30
0.0
 10
11.78626597668238
 20
-2.656180989148989
 30
0.0
 10
11.23499860282029
 20
-2.844690702670642
 30
0.0
 10
10.30522766530846
 20
-3.045985672194296
 30
0.0
 10
9.187253931099097
 20
-3.18025149080315
 30
0.0
 10
8.052677368977847
 20
-3.185834190255387
 30
0.0
 10
7.296844775116456
 20
-3.077450853770574
 30
0.0
 10
6.91913774815427
 20
-3.023289193995117
 30
0.0
  0
SPLINE
  5
AC
330
1F
100
AcDbEntity
  8
외형선
  6
Continuous
370
    15
100
AcDbSpline
210
0.0
220
0.0
230
1.0
 70
    24
 71
     3
 72
    18
 73
    14
 74
     0
 42
0.000000001
 43
0.00000001
 40
0.0
 40
0.0
 40
0.0
 40
0.0
 40
0.1289686217963164
 40
0.2201842708634239
 40
0.3113999199305313
 40
0.4026155689976864
 40
0.4938312180648416
 40
0.5850468671319722
 40
0.6762625161991025
 40
0.7674781652662332
 40
0.8586938143333639
 40
0.9499094634004944
 40
1.0
 40
1.0
 40
1.0
 40
1.0
 10
6.919137748154262
 20
-3.023289193995117
 30
0.0
 10
6.919137748154249
 20
-2.893501927710319
 30
0.0
 10
6.919137748154228
 20
-2.671920009595323
 30
0.0
 10
6.919137748154249
 20
-2.318126339803024
 30
0.0
 10
6.919137748154249
 20
-1.998683351906056
 30
0.0
 10
6.919137748154256
 20
-1.676428830399169
 30
0.0
 10
6.919137748154242
 20
-1.361245117808848
 30
0.0
 10
6.91913774815427
 20
-1.062273690649763
 30
0.0
 10
6.919137748154235
 20
-0.7874507703663154
 30
0.0
 10
6.91913774815427
 20
-0.5448965935635655
 30
0.0
 10
6.919137748154235
 20
-0.3431421387083133
 30
0.0
 10
6.919137748154262
 20
-0.2028439825695521
 30
0.0
 10
6.919137748154262
 20
-0.1506747025041996
 30
0.0
 10
6.919137748154262
 20
-0.132181618000112
 30
0.0
  0
SPLINE
  5
AD
330
1F
100
AcDbEntity
  8
0
  6
Continuous
 62
     1
370
    15
100
AcDbSpline
210
0.0
220
0.0
230
1.0
 70
     8
 71
     3
 72
    10
 73
     6
 74
     0
 42
0.000000001
 43
0.00000001
 40
0.0
 40
0.0
 40
0.0
 40
0.0
 40
0.5
 40
0.5
 40
1.0
 40
1.0
 40
1.0
 40
1.0
 10
14.85663774815425
 20
1.212730335245567
 30
0.0
 10
14.85663774815425
 20
1.24889852809807
 30
0.0
 10
14.83038378338097
 20
1.296845626614613
 30
0.0
 10
14.75541235054752
 20
1.384155934041954
 30
0.0
 10
14.70625185560102
 20
1.424587812578427
 30
0.0
 10
14.65343774815415
 20
1.451747895076597
 30
0.0
  0
LINE
  5
AE
330
1F
100
AcDbEntity
  8
0
  6
Continuous
 62
     1
370
    15
100
AcDbLine
 10
14.85663774815425
 20
1.212730335245566
 30
0.0
 11
14.85663774815425
 21
0.3062918434746449
 31
0.0
  0
SPLINE
  5
AF
330
1F
100
AcDbEntity
  8
0
  6
Continuous
 62
     1
370
    15
100
AcDbSpline
210
0.0
220
0.0
230
1.0
 70
     8
 71
     3
 72
    13
 73
     9
 74
     0
 42
0.000000001
 43
0.00000001
 40
0.0
 40
0.0
 40
0.0
 40
0.0
 40
0.1798914592786621
 40
0.3594931903015097
 40
0.5389105681096981
 40
0.7184571214993386
 40
0.9068574958985415
 40
1.0
 40
1.0
 40
1.0
 40
1.0
 10
14.65343774815424
 20
1.451747895076555
 30
0.0
 10
14.29186608914144
 20
1.631712359671077
 30
0.0
 10
13.56930510852383
 20
1.991351443023943
 30
0.0
 10
12.48658561044848
 20
2.43873526094091
 30
0.0
 10
11.40480716087473
 20
2.79766829715233
 30
0.0
 10
10.30523645125353
 20
3.044604232430399
 30
0.0
 10
9.378351182944087
 20
3.171420834774709
 30
0.0
 10
8.812645539557993
 20
3.161434084871287
 30
0.0
 10
8.62549379737963
 20
3.158130179978387
 30
0.0
  0
LINE
  5
B0
330
1F
100
AcDbEntity
  8
외형선
  6
Continuous
370
    15
100
AcDbLine
 10
6.919137748154249
 20
3.174999999999994
 30
0.0
 11
6.919137748153215
 21
3.172247313792389
 31
0.0
  0
SPLINE
  5
B2
330
1F
100
AcDbEntity
  8
0
  6
Continuous
 62
     1
370
    15
100
AcDbSpline
210
0.0
220
0.0
230
1.0
 70
     8
 71
     3
 72
    10
 73
     6
 74
     0
 42
0.000000001
 43
0.00000001
 40
0.0
 40
0.0
 40
0.0
 40
0.0
 40
0.1517312012408079
 40
0.5756519225772154
 40
1.0
 40
1.0
 40
1.0
 40
1.0
 10
11.97687332602919
 20
2.591001480032096
 30
0.0
 10
12.11220680502279
 20
2.63897866806975
 30
0.0
 10
12.62564752607846
 20
2.820998979698943
 30
0.0
 10
13.51781767453129
 20
3.027907055599453
 30
0.0
 10
14.27477060650013
 20
3.109998288562509
 30
0.0
 10
14.65343774815426
 20
3.175000000000002
 30
0.0
  0
LINE
  5
B3
330
1F
100
AcDbEntity
  8
0
  6
Continuous
 62
     1
370
    15
100
AcDbLine
 10
14.85663774815425
 20
1.212730335245566
 30
0.0
 11
14.85663774815426
 21
2.971800000000003
 31
0.0
  0
LINE
  5
B4
330
1F
100
AcDbEntity
  8
0
  6
Continuous
 62
     1
370
    15
100
AcDbLine
 10
14.85663774815425
 20
-2.713094243474614
 30
0.0
 11
14.85647989910584
 21
-2.96379219524747
 31
0.0
  0
LINE
  5
B5
330
1F
100
AcDbEntity
  8
외형선
  6
Continuous
370
    15
100
AcDbLine
 10
6.919137748154262
 20
-3.023289193995117
 30
0.0
 11
6.919137748154249
 21
-3.175000000000004
 31
0.0
  0
LINE
  5
B6
330
1F
100
AcDbEntity
  8
외형선
  6
Continuous
370
    15
100
AcDbLine
 10
0.0000000000000001
 20
-3.174999999999999
 30
0.0
 11
0.0
 21
3.174999999999999
 31
0.0
  0
LINE
  5
B8
330
1F
100
AcDbEntity
  8
외형선
  6
Continuous
370
    15
100
AcDbLine
 10
-35.30836225184574
 20
0.0
 30
0.0
 11
-35.30836225184574
 21
3.174999999999999
 31
0.0
  0
LINE
  5
B9
330
1F
100
AcDbEntity
  8
외형선
  6
Continuous
370
    15
100
AcDbLine
 10
-35.30836225184574
 20
-3.174999999999999
 30
0.0
 11
-35.30836225184574
 21
0.0
 31
0.0
  0
LINE
  5
BA
330
1F
100
AcDbEntity
  8
외형선
  6
Continuous
370
    15
100
AcDbLine
 10
0.5691377481542477
 20
0.0
 30
0.0
 11
0.5691377481542477
 21
3.0225
 31
0.0
  0
LINE
  5
BB
330
1F
100
AcDbEntity
  8
외형선
  6
Continuous
370
    15
100
AcDbLine
 10
0.5691377481542477
 20
-3.0225
 30
0.0
 11
0.5691377481542477
 21
0.0
 31
0.0
  0
LINE
  5
BC
330
1F
100
AcDbEntity
  8
외형선
  6
Continuous
370
    15
100
AcDbLine
 10
-35.94336225184575
 20
0.0
 30
0.0
 11
-35.94336225184575
 21
2.540000000000005
 31
0.0
  0
LINE
  5
BD
330
1F
100
AcDbEntity
  8
외형선
  6
Continuous
370
    15
100
AcDbLine
 10
-35.94336225184575
 20
-2.540000000000005
 30
0.0
 11
-35.94336225184575
 21
0.0
 31
0.0
  0
SPLINE
  5
BE
330
1F
100
AcDbEntity
  8
외형선
  6
Continuous
370
    15
100
AcDbSpline
210
0.0
220
0.0
230
1.0
 70
     8
 71
     3
 72
     8
 73
     4
 74
     0
 42
0.000000001
 43
0.00000001
 40
0.0
 40
0.0
 40
0.0
 40
0.0
 40
1.0
 40
1.0
 40
1.0
 40
1.0
 10
6.919137748154256
 20
-0.0846979609905819
 30
0.0
 10
6.751981133168691
 20
0.0068769673552992
 30
0.0
 10
6.584865622129971
 20
0.0985608048247467
 30
0.0
 10
6.418820528548977
 20
0.1897879720236683
 30
0.0
  0
SPLINE
  5
BF
330
1F
100
AcDbEntity
  8
외형선
  6
Continuous
370
    15
100
AcDbSpline
210
0.0
220
0.0
230
1.0
 70
    24
 71
     3
 72
    17
 73
    13
 74
     0
 42
0.000000001
 43
0.00000001
 40
0.0
 40
0.0
 40
0.0
 40
0.0
 40
0.1480044352712959
 40
0.2425076697845586
 40
0.339751504500806
 40
0.434254739014222
 40
0.531498573730636
 40
0.6260018082439736
 40
0.7232456429603024
 40
0.8177488774736371
 40
0.9149927121899625
 40
1.0
 40
1.0
 40
1.0
 40
1.0
 10
6.919137748154256
 20
-2.890380034581314
 30
0.0
 10
6.919137748154242
 20
-2.741387432249963
 30
0.0
 10
6.919137748154201
 20
-2.497260634696341
 30
0.0
 10
6.919137748154297
 20
-2.121049443753953
 30
0.0
 10
6.91913774815427
 20
-1.800566150752217
 30
0.0
 10
6.919137748154228
 20
-1.480090659091529
 30
0.0
 10
6.919137748154187
 20
-1.175187047794661
 30
0.0
 10
6.91913774815427
 20
-0.8889069975768724
 30
0.0
 10
6.91913774815422
 20
-0.6341438940562789
 30
0.0
 10
6.919137748154284
 20
-0.4150664559787583
 30
0.0
 10
6.919137748154228
 20
-0.2419604491962932
 30
0.0
 10
6.919137748154262
 20
-0.1670991372923893
 30
0.0
 10
6.919137748154277
 20
-0.1321816180001193
 30
0.0
  0
SPLINE
  5
C0
330
1F
100
AcDbEntity
  8
외형선
  6
Continuous
370
    15
100
AcDbSpline
210
0.0
220
0.0
230
1.0
 70
     8
 71
     3
 72
     8
 73
     4
 74
     0
 42
0.000000001
 43
0.00000001
 40
0.0
 40
0.0
 40
0.0
 40
0.0
 40
1.0
 40
1.0
 40
1.0
 40
1.0
 10
6.919137748154242
 20
-2.89038003458131
 30
0.0
 10
6.751981133168686
 20
-2.863590533748932
 30
0.0
 10
6.584865622129964
 20
-2.832812231503917
 30
0.0
 10
6.418820528548977
 20
-2.798261200496551
 30
0.0
  0
LINE
  5
C1
330
1F
100
AcDbEntity
  8
외형선
  6
Continuous
370
    15
100
AcDbLine
 10
6.418820528548991
 20
-2.79826792710529
 30
0.0
 11
6.418820528548999
 21
0.1898025969401219
 31
0.0
  0
SPLINE
  5
C2
330
1F
100
AcDbEntity
  8
외형선
  6
Continuous
370
    15
100
AcDbSpline
210
0.0
220
0.0
230
1.0
 70
     8
 71
     3
 72
     9
 73
     5
 74
     0
 42
0.000000001
 43
0.00000001
 40
0.0
 40
0.0
 40
0.0
 40
0.0
 40
0.3645579249248039
 40
1.0
 40
1.0
 40
1.0
 40
1.0
 10
6.764653390039133
 20
-3.02153095039955
 30
0.0
 10
6.722609332253635
 20
-3.02178139048132
 30
0.0
 10
6.607280450583713
 20
-3.022468359724469
 30
0.0
 10
6.49204560068781
 20
-3.018840715971041
 30
0.0
 10
6.418820528548977
 20
-3.01653555849673
 30
0.0
  0
LINE
  5
C3
330
1F
100
AcDbEntity
  8
외형선
  6
Continuous
370
    15
100
AcDbLine
 10
6.418820528548999
 20
-3.0225
 30
0.0
 11
6.418820528548999
 21
-3.016534638321725
 31
0.0
  0
LINE
  5
C4
330
1F
100
AcDbEntity
  8
외형선
  6
Continuous
370
    15
100
AcDbLine
 10
6.919137748154262
 20
3.021313043265328
 30
0.0
 11
6.919137748154249
 21
3.0225
 31
0.0
  0
SPLINE
  5
C5
330
1F
100
AcDbEntity
  8
외형선
  6
Continuous
370
    15
100
AcDbSpline
210
0.0
220
0.0
230
1.0
 70
     8
 71
     3
 72
     8
 73
     4
 74
     0
 42
0.000000001
 43
0.00000001
 40
0.0
 40
0.0
 40
0.0
 40
0.0
 40
1.0
 40
1.0
 40
1.0
 40
1.0
 10
6.919137748154256
 20
3.021313043265144
 30
0.0
 10
6.751981133168691
 20
3.023880208467055
 30
0.0
 10
6.584865622129971
 20
3.022275195481078
 30
0.0
 10
6.418820528548977
 20
3.016535558496729
 30
0.0
  0
LINE
  5
C6
330
1F
100
AcDbEntity
  8
외형선
  6
Continuous
370
    15
100
AcDbLine
 10
6.418820528548991
 20
1.14245475102252
 30
0.0
 11
6.418820528548999
 21
3.0225
 31
0.0
  0
SPLINE
  5
C7
330
1F
100
AcDbEntity
  8
외형선
  6
Continuous
370
    15
100
AcDbSpline
210
0.0
220
0.0
230
1.0
 70
     8
 71
     3
 72
     8
 73
     4
 74
     0
 42
0.000000001
 43
0.00000001
 40
0.0
 40
0.0
 40
0.0
 40
0.0
 40
1.0
 40
1.0
 40
1.0
 40
1.0
 10
6.919137748154242
 20
0.8838605691475233
 30
0.0
 10
6.751981133168686
 20
0.9714669643700095
 30
0.0
 10
6.584865622129964
 20
1.057845192128647
 30
0.0
 10
6.418820528548977
 20
1.142471226681728
 30
0.0
  0
SPLINE
  5
C8
330
1F
100
AcDbEntity
  8
외형선
  6
Continuous
370
    15
100
AcDbSpline
210
0.0
220
0.0
230
1.0
 70
    24
 71
     3
 72
    15
 73
    11
 74
     0
 42
0.000000001
 43
0.00000001
 40
0.0
 40
0.0
 40
0.0
 40
0.0
 40
0.0831705085103891
 40
0.2246434906019753
 40
0.3661164726935615
 40
0.5075894547851499
 40
0.6490624368767384
 40
0.7905354189683097
 40
0.9320084010598811
 40
1.0
 40
1.0
 40
1.0
 40
1.0
 10
6.919137748154242
 20
1.004938701189878
 30
0.0
 10
6.919137748154249
 20
1.041997900755268
 30
0.0
 10
6.919137748154262
 20
1.142094775217017
 30
0.0
 10
6.919137748154242
 20
1.351731310947297
 30
0.0
 10
6.919137748154216
 20
1.62019569729194
 30
0.0
 10
6.919137748154249
 20
1.916803328254351
 30
0.0
 10
6.91913774815422
 20
2.229876559937075
 30
0.0
 10
6.91913774815427
 20
2.551443963697342
 30
0.0
 10
6.919137748154228
 20
2.817364657810435
 30
0.0
 10
6.919137748154262
 20
2.971334784248922
 30
0.0
 10
6.919137748154262
 20
3.021313043265328
 30
0.0
  0
LINE
  5
C9
330
1F
100
AcDbEntity
  8
중심선
 48
0.8
100
AcDbLine
 10
-38.94336225184574
 20
0.0
 30
0.0
 11
17.85663774815425
 21
0.0000000000000031
 31
0.0
  0
LINE
  5
CA
330
1F
100
AcDbEntity
  8
참조1
100
AcDbLine
 10
-9.271000000000015
 20
-0.0000000000000039
 30
0.0
 11
-9.271000000000011
 21
-40.00000000000001
 31
0.0
  0
LINE
  5
CB
330
1F
100
AcDbEntity
  8
참조1
100
AcDbLine
 10
-9.271000000000011
 20
-40.00000000000001
 30
0.0
 11
-5.379856814308694
 21
-40.0
 31
0.0
  0
CIRCLE
  5
CC
330
1F
100
AcDbEntity
  8
해칭선
100
AcDbCircle
 10
0.0
 20
0.0
 30
0.0
 40
3.000000000000001
  0
INSERT
  5
CD
330
1F
100
AcDbEntity
  8
0
  6
Continuous
 62
     7
100
AcDbBlockReference
 66
     1
  2
블럭10
 10
-24.9002729321252
 20
-52.04717430164393
 30
0.0
  0
ATTRIB
  5
CE
330
CD
100
AcDbEntity
  8
FORMAT
 62
     2
100
AcDbText
 10
-35.60635375441387
 20
-49.97180738881174
 30
0.0
 40
4.233333333333333
  1
G8C50016 [ 4 FLUTE ]
 41
0.75
  7
SLDTEXTSTYLE0
 11
-35.60635375441387
 21
-52.08847405547841
 31
0.0
100
AcDbAttribute
  2
AUTOATTR0
 70
     0
 74
     1
  0
SEQEND
  5
CF
330
CD
100
AcDbEntity
  8
0
  6
Continuous
 62
     7
  0
HATCH
  5
D0
330
1F
100
AcDbEntity
  8
중심선
100
AcDbHatch
 10
0.0
 20
0.0
 30
0.0
210
0.0
220
0.0
230
1.0
  2
SOLID
 70
     1
 71
     0
 91
        1
 92
        0
 93
        4
 72
     1
 10
-19.18536362774435
 20
-35.8
 11
-22.63163887158163
 21
-35.8
 72
     1
 10
-22.63163887158163
 20
-35.8
 11
-24.75986873078565
 21
-38.33632558057259
 72
     1
 10
-24.75986873078565
 20
-38.33632558057259
 11
-21.31356040183522
 21
-38.3362861512701
 72
     1
 10
-21.31356040183522
 20
-38.3362861512701
 11
-19.18536362774435
 21
-35.8
 97
        0
 75
     0
 76
     1
 98
        1
 10
-1.688999999999975
 20
0.0
  0
HATCH
  5
D1
330
1F
100
AcDbEntity
  8
중심선
100
AcDbHatch
 10
0.0
 20
0.0
 30
0.0
210
0.0
220
0.0
230
1.0
  2
SOLID
 70
     1
 71
     0
 91
        1
 92
        0
 93
        4
 72
     1
 10
-14.17259963670837
 20
-35.80000000000003
 11
-17.61887488054565
 21
-35.79999999999997
 72
     1
 10
-17.61887488054565
 20
-35.79999999999997
 11
-22.15001288890307
 21
-41.20000000000002
 72
     1
 10
-22.15001288890307
 20
-41.20000000000002
 11
-18.70373764506578
 21
-41.20000000000002
 72
     1
 10
-18.70373764506578
 20
-41.20000000000002
 11
-14.17259963670837
 21
-35.80000000000003
 97
        0
 75
     0
 76
     1
 98
        1
 10
-1.688999999999975
 20
0.0
  0
HATCH
  5
D2
330
1F
100
AcDbEntity
  8
중심선
100
AcDbHatch
 10
0.0
 20
0.0
 30
0.0
210
0.0
220
0.0
230
1.0
  2
SOLID
 70
     1
 71
     0
 91
        1
 92
        0
 93
        4
 72
     1
 10
-9.1598356456725
 20
-35.8
 11
-12.60611088950962
 21
-35.8
 72
     1
 10
-12.60611088950962
 20
-35.8
 11
-19.65454779139887
 21
-44.20000000000002
 72
     1
 10
-19.65454779139887
 20
-44.20000000000002
 11
-16.20827254756158
 21
-44.20000000000002
 72
     1
 10
-16.20827254756158
 20
-44.20000000000002
 11
-9.159835645672501
 21
-35.8
 97
        0
 75
     0
 76
     1
 98
        1
 10
-1.688999999999975
 20
0.0
  0
HATCH
  5
D3
330
1F
100
AcDbEntity
  8
중심선
100
AcDbHatch
 10
0.0
 20
0.0
 30
0.0
210
0.0
220
0.0
230
1.0
  2
SOLID
 70
     1
 71
     0
 91
        1
 92
        0
 93
        6
 72
     3
 10
-4.3599452146603
 20
-40.00000000005127
 11
3.960054785062283
 21
1.540882976769353E-10
 40
0.3939339440162628
 50
17.09539180608436
 51
320.0019657685078
 73
     0
 72
     1
 10
-2.676945558959705
 20
-38.5878940046383
 11
-0.3716436852586398
 21
-36.65356729459038
 72
     3
 10
-4.359945214713147
 20
-40.00000000000015
 11
6.600054785286829
 21
-1.278976924368180E-13
 40
0.636358354079598
 50
39.99873849337385
 51
368.4976242363724
 73
     1
 72
     1
 10
2.065387277187463
 20
-39.03999999993002
 11
-5.679877907877222
 21
-39.03999999993002
 72
     1
 10
-5.679877907877224
 20
-39.03999999993002
 11
-5.679902952323158
 21
-40.95999999992991
 72
     1
 10
-5.679902952323158
 20
-40.95999999992991
 11
-1.238523182851123
 21
-40.95999999992988
 97
        0
 75
     0
 76
     1
 98
        1
 10
-1.688999999999975
 20
0.0
  0
DIMENSION
  5
D4
330
1F
100
AcDbEntity
  8
치수문자_일반주서
100
AcDbDimension
  2
_D
 10
30.85663774815445
 20
-3.174999999999937
 30
0.0
 11
30.85663774815437
 21
23.12275000000007
 31
0.0
 70
   160
  1
%%c<>
 71
     2
 42
6.349999999999991
 52
-270.0
  3
SLDDIMSTYLE0
100
AcDbAlignedDimension
 13
14.85663774815426
 23
3.174999999999994
 33
0.0
 14
14.85663774815426
 24
-3.174999999999997
 34
0.0
 50
90.0000000000002
100
AcDbRotatedDimension
1001
ACAD
1000
DSTYLE
1002
{
1070
   171
1070
     6
1070
   273
1070
     7
1002
}
  0
DIMENSION
  5
E9
330
1F
100
AcDbEntity
  8
치수문자_일반주서
100
AcDbDimension
  2
_D_1
 10
6.919137748153217
 20
25.33035995710224
 30
0.0
 11
-12.37236225184678
 21
25.33035995710224
 31
0.0
 70
   160
  1
<>
 71
     2
 42
7.937500000001044
  3
SLDDIMSTYLE0
100
AcDbAlignedDimension
 13
14.85663774815426
 23
3.175000000000002
 33
0.0
 14
6.919137748153215
 24
3.172247313792389
 34
0.0
 50
0.0000000000093347
100
AcDbRotatedDimension
1001
ACAD
1000
DSTYLE
1002
{
1070
   171
1070
     6
1070
   273
1070
     7
1002
}
1001
ACAD_DSTYLE_DIMFLIPARROW_SYMBOL
1070
   385
1070
     0
1001
ACAD_DSTYLE_DIMFLIPARROW_WHICH_SYMBOL
1070
   386
1070
     3
  0
DIMENSION
  5
FE
330
1F
100
AcDbEntity
  8
치수문자_일반주서
100
AcDbDimension
  2
_D_2
 10
0.5691377481542474
 20
38.58288156346726
 30
0.0
 11
-19.59736225184575
 21
38.58288156346726
 31
0.0
 70
   160
  1
<>
 71
     2
 42
14.28750000000001
  3
SLDDIMSTYLE0
100
AcDbAlignedDimension
 13
14.85663774815426
 23
3.175000000000002
 33
0.0
 14
0.5691377481542477
 24
3.0225
 34
0.0
100
AcDbRotatedDimension
1001
ACAD
1000
DSTYLE
1002
{
1070
   171
1070
     6
1070
   273
1070
     7
1002
}
1001
ACAD_DSTYLE_DIMFLIPARROW_SYMBOL
1070
   385
1070
     0
1001
ACAD_DSTYLE_DIMFLIPARROW_WHICH_SYMBOL
1070
   386
1070
     3
  0
DIMENSION
  5
113
330
1F
100
AcDbEntity
  8
치수문자_일반주서
100
AcDbDimension
  2
_D_3
 10
-35.94336225184576
 20
52.90680488342439
 30
0.0
 11
-10.54336225184575
 21
52.90680488342439
 31
0.0
 70
   160
  1
<>
 71
     2
 42
50.8
  3
SLDDIMSTYLE0
100
AcDbAlignedDimension
 13
14.85663774815426
 23
3.175000000000002
 33
0.0
 14
-35.94336225184575
 24
2.540000000000005
 34
0.0
100
AcDbRotatedDimension
1001
ACAD
1000
DSTYLE
1002
{
1070
   171
1070
     6
1070
   273
1070
     7
1002
}
  0
DIMENSION
  5
127
330
1F
100
AcDbEntity
  8
치수문자_일반주서
100
AcDbDimension
  2
_D_4
 10
-48.94336225184573
 20
-3.175000000000061
 30
0.0
 11
-48.94336225184581
 21
22.46649999999996
 31
0.0
 70
   160
  1
%%c<>
 71
     2
 42
6.350000000000022
 52
-270.0
  3
SLDDIMSTYLE0
100
AcDbAlignedDimension
 13
-35.30836225184574
 23
3.175000000000011
 33
0.0
 14
-35.30836225184574
 24
-3.175000000000011
 34
0.0
 50
90.0000000000002
100
AcDbRotatedDimension
1001
ACAD
1000
DSTYLE
1002
{
1070
   171
1070
     6
1070
   273
1070
     7
1002
}
  0
LINE
  5
13B
330
1F
100
AcDbEntity
  8
참조1
100
AcDbLine
 10
92.59248381534557
 20
7.440000000000002
 30
0.0
 11
92.59248381534557
 21
-7.440000000000002
 31
0.0
  0
LINE
  5
13C
330
1F
100
AcDbEntity
  8
참조1
100
AcDbLine
 10
105.2924838153456
 20
5.440000000000002
 30
0.0
 11
92.59248381534557
 21
5.440000000000002
 31
0.0
  0
SOLID
  5
13D
330
1F
100
AcDbEntity
  8
참조1
100
AcDbTrace
 10
92.59248381534557
 20
5.440000000000002
 30
0.0
 11
98.94248381534557
 21
4.424000000000002
 31
0.0
 12
98.94248381534557
 22
6.456000000000002
 32
0.0
 13
98.94248381534557
 23
6.456000000000002
 33
0.0
  0
LINE
  5
13E
330
1F
100
AcDbEntity
  8
참조1
100
AcDbLine
 10
105.2924838153456
 20
-5.440000000000002
 30
0.0
 11
92.59248381534557
 21
-5.440000000000002
 31
0.0
  0
SOLID
  5
13F
330
1F
100
AcDbEntity
  8
참조1
100
AcDbTrace
 10
92.59248381534557
 20
-5.440000000000002
 30
0.0
 11
98.94248381534557
 21
-6.456000000000002
 31
0.0
 12
98.94248381534557
 22
-4.424000000000002
 32
0.0
 13
98.94248381534557
 23
-4.424000000000002
 33
0.0
  0
MTEXT
  5
140
330
1F
100
AcDbEntity
  8
참조1
100
AcDbMText
 10
101.9899739078159
 20
10.98821664464994
 30
0.0
 40
3.5
 41
0.0
 71
     1
 72
     1
  1
A
  7
SLDTEXTSTYLE0
 73
     1
 44
1.0
  0
MTEXT
  5
141
330
1F
100
AcDbEntity
  8
참조1
100
AcDbMText
 10
101.9899739078159
 20
0.1082166446499328
 30
0.0
 40
3.5
 41
0.0
 71
     1
 72
     1
  1
A
  7
SLDTEXTSTYLE0
 73
     1
 44
1.0
  0
INSERT
  5
148
330
1F
100
AcDbEntity
  8
해칭선
100
AcDbBlockReference
  2
SW_DOWELSYMBOL_0
 10
0.0
 20
0.0
 30
0.0
  0
ARC
  5
19E
330
1F
100
AcDbEntity
  8
0
  6
Continuous
 62
     1
370
    15
100
AcDbCircle
 10
14.65343774815426
 20
2.971800000000003
 30
0.0
 40
0.2031999999999999
100
AcDbArc
 50
357.7414751133136
 51
90.0
  0
ARC
  5
1A5
330
1F
100
AcDbEntity
  8
0
  6
Continuous
 62
     1
370
    15
100
AcDbCircle
 10
14.65343774815426
 20
-2.971799999999997
 30
0.0
 40
0.2031999999999999
100
AcDbArc
 50
270.0
 51
2.258524886686403
  0
DIMENSION
  5
1CC
330
1F
100
AcDbEntity
  8
치수문자_일반주서
100
AcDbDimension
  2
*D8
 10
14.65343774815426
 20
-2.971799999999997
 30
0.0
 11
26.70619525716417
 21
-28.27367561884504
 31
0.0
 70
   164
  1
<>
 71
     5
 42
0.2031999999999992
  3
SLDDIMSTYLE0
100
AcDbRadialDimension
 15
14.74082534164639
 25
-3.155249307721923
 35
0.0
 40
0.0
1001
ACAD
1000
DSTYLE
1002
{
1070
   171
1070
     3
1070
   273
1070
     2
1002
}
1001
ACAD_DSTYLE_DIMRADIAL_EXTENSION
1070
   387
1070
     1
1070
   388
1040
4.71238898038469
1070
   390
1040
0.0394186955109096
  0
LINE
  5
1FB
330
1F
100
AcDbEntity
  8
외형선
  6
Continuous
370
    15
100
AcDbLine
 10
0.5691377481542499
 20
-3.0225
 30
0.0
 11
0.0000000000000022
 21
-3.174999999999999
 31
0.0
  0
ENDSEC
  0
SECTION
  2
OBJECTS
  0
DICTIONARY
  5
C
330
0
100
AcDbDictionary
281
     1
  3
ACAD_GROUP
350
D
  3
ACAD_IMAGE_VARS
350
16C
  3
ACAD_LAYOUT
350
1A
  3
ACAD_MLINESTYLE
350
17
  3
ACAD_PLOTSETTINGS
350
19
  3
ACAD_PLOTSTYLENAME
350
E
  3
ACAD_SCALELIST
350
47
  3
APPDATA
350
16A
  3
DWGPROPS
350
202
  0
DICTIONARY
  5
193
330
2
100
AcDbDictionary
280
     1
281
     1
  3
ACAD_LAYERSTATES
360
194
  0
DICTIONARY
  5
200
330
1F
100
AcDbDictionary
280
     1
281
     1
  3
DIM_BOUNDING_BOXES_V1
360
201
  0
DICTIONARY
  5
D
102
{ACAD_REACTORS
330
C
102
}
330
C
100
AcDbDictionary
281
     1
  0
RASTERVARIABLES
  5
16C
102
{ACAD_REACTORS
330
C
102
}
330
C
100
AcDbRasterVariables
 90
        0
 70
     1
 71
     1
 72
     1
  0
DICTIONARY
  5
1A
102
{ACAD_REACTORS
330
C
102
}
330
C
100
AcDbDictionary
281
     1
  3
Layout1
350
1E
  3
Layout2
350
26
  3
Model
350
22
  0
DICTIONARY
  5
17
102
{ACAD_REACTORS
330
C
102
}
330
C
100
AcDbDictionary
281
     1
  3
Standard
350
18
  0
DICTIONARY
  5
19
102
{ACAD_REACTORS
330
C
102
}
330
C
100
AcDbDictionary
281
     1
  0
ACDBDICTIONARYWDFLT
  5
E
102
{ACAD_REACTORS
330
C
102
}
330
C
100
AcDbDictionary
281
     1
  3
Normal
350
F
100
AcDbDictionaryWithDefault
340
F
  0
DICTIONARY
  5
47
102
{ACAD_REACTORS
330
C
102
}
330
C
100
AcDbDictionary
281
     1
  3
A0
350
48
  3
A1
350
49
  3
A2
350
4A
  3
A3
350
4B
  3
A4
350
4C
  3
A5
350
4D
  3
A6
350
4E
  3
A7
350
4F
  3
A8
350
50
  3
A9
350
51
  3
B0
350
52
  3
B1
350
53
  3
B2
350
54
  3
B3
350
55
  3
B4
350
56
  3
B5
350
57
  3
B6
350
58
  3
B7
350
59
  3
B8
350
5A
  3
B9
350
5B
  3
C0
350
5C
  3
C1
350
5D
  3
C2
350
5E
  3
C3
350
5F
  3
C4
350
60
  3
C5
350
61
  3
C6
350
62
  3
C7
350
63
  3
C8
350
64
  3
C9
350
65
  3
D0
350
66
  3
D1
350
67
  3
D2
350
68
  0
DICTIONARY
  5
16A
102
{ACAD_REACTORS
330
C
102
}
330
C
100
AcDbDictionary
281
     1
  0
XRECORD
  5
202
102
{ACAD_REACTORS
330
C
102
}
330
C
100
AcDbXrecord
280
     1
  1
DWGPROPS COOKIE
  2

  3

  4

  6

  7

  8
12017111
  9

300
=
301
=
302
=
303
=
304
=
305
=
306
=
307
=
308
=
309
=
 40
0.0
 41
2458290.074642755
 42
2459697.30285022
  1

 90
        0
  0
DICTIONARY
  5
194
102
{ACAD_REACTORS
330
193
102
}
330
193
100
AcDbDictionary
281
     1
  0
DICTIONARY
  5
201
102
{ACAD_REACTORS
330
200
102
}
330
200
100
AcDbDictionary
281
     1
  0
LAYOUT
  5
1E
102
{ACAD_REACTORS
330
1A
102
}
330
1A
100
AcDbPlotSettings
  1

  2
none_device
  4

  6

 40
0.0
 41
0.0
 42
0.0
 43
0.0
 44
0.0
 45
0.0
 46
0.0
 47
0.0
 48
0.0
 49
0.0
140
0.0
141
0.0
142
1.0
143
1.0
 70
   688
 72
     1
 73
     0
 74
     5
  7

 75
    16
147
1.0
148
0.0
149
0.0
100
AcDbLayout
  1
Layout1
 70
     1
 71
     1
 10
0.0
 20
0.0
 11
420.0
 21
297.0
 12
0.0
 22
0.0
 32
0.0
 14
1.000000000000000E+20
 24
1.000000000000000E+20
 34
1.000000000000000E+20
 15
-1.000000000000000E+20
 25
-1.000000000000000E+20
 35
-1.000000000000000E+20
146
0.0
 13
0.0
 23
0.0
 33
0.0
 16
1.0
 26
0.0
 36
0.0
 17
0.0
 27
1.0
 37
0.0
 76
     0
330
1B
  0
LAYOUT
  5
26
102
{ACAD_REACTORS
330
1A
102
}
330
1A
100
AcDbPlotSettings
  1

  2
none_device
  4

  6

 40
0.0
 41
0.0
 42
0.0
 43
0.0
 44
0.0
 45
0.0
 46
0.0
 47
0.0
 48
0.0
 49
0.0
140
0.0
141
0.0
142
1.0
143
1.0
 70
   688
 72
     1
 73
     0
 74
     5
  7

 75
    16
147
1.0
148
0.0
149
0.0
100
AcDbLayout
  1
Layout2
 70
     1
 71
     2
 10
0.0
 20
0.0
 11
0.0
 21
0.0
 12
0.0
 22
0.0
 32
0.0
 14
0.0
 24
0.0
 34
0.0
 15
0.0
 25
0.0
 35
0.0
146
0.0
 13
0.0
 23
0.0
 33
0.0
 16
1.0
 26
0.0
 36
0.0
 17
0.0
 27
1.0
 37
0.0
 76
     0
330
23
  0
LAYOUT
  5
22
102
{ACAD_REACTORS
330
1A
102
}
330
1A
100
AcDbPlotSettings
  1

  2
none_device
  4
ANSI_A_(11.00_x_8.50_Inches)
  6

 40
6.35
 41
19.05
 42
6.35000508
 43
19.05000254
 44
279.4
 45
215.9
 46
93.80016906020894
 47
77.93423151112583
 48
0.0
 49
0.0
140
0.0
141
0.0
142
0.0665012316599847
143
1.0
 70
  1696
 72
     0
 73
     0
 74
     0
  7

 75
     0
147
0.0235690232323232
148
0.0
149
0.0
100
AcDbLayout
  1
Model
 70
     1
 71
     0
 10
0.0
 20
0.0
 11
420.0
 21
297.0
 12
0.0
 22
0.0
 32
0.0
 14
-53.31836225184585
 24
-49.97180738881174
 34
0.0
 15
105.2924838153456
 25
57.28180488342439
 35
0.0
146
0.0
 13
0.0
 23
0.0
 33
0.0
 16
1.0
 26
0.0
 36
0.0
 17
0.0
 27
1.0
 37
0.0
 76
     0
330
1F
331
29
  0
MLINESTYLE
  5
18
102
{ACAD_REACTORS
330
17
102
}
330
17
100
AcDbMlineStyle
  2
Standard
 70
     0
  3

 62
   256
 51
90.0
 52
90.0
 71
     2
 49
0.5
 62
   256
  6
BYLAYER
 49
-0.5
 62
   256
  6
BYLAYER
  0
ACDBPLACEHOLDER
  5
F
102
{ACAD_REACTORS
330
E
102
}
330
E
  0
SCALE
  5
48
102
{ACAD_REACTORS
330
47
102
}
330
47
100
AcDbScale
 70
     0
300
1:1
140
1.0
141
1.0
290
     1
  0
SCALE
  5
49
102
{ACAD_REACTORS
330
47
102
}
330
47
100
AcDbScale
 70
     0
300
1:2
140
1.0
141
2.0
290
     0
  0
SCALE
  5
4A
102
{ACAD_REACTORS
330
47
102
}
330
47
100
AcDbScale
 70
     0
300
1:4
140
1.0
141
4.0
290
     0
  0
SCALE
  5
4B
102
{ACAD_REACTORS
330
47
102
}
330
47
100
AcDbScale
 70
     0
300
1:5
140
1.0
141
5.0
290
     0
  0
SCALE
  5
4C
102
{ACAD_REACTORS
330
47
102
}
330
47
100
AcDbScale
 70
     0
300
1:8
140
1.0
141
8.0
290
     0
  0
SCALE
  5
4D
102
{ACAD_REACTORS
330
47
102
}
330
47
100
AcDbScale
 70
     0
300
1:10
140
1.0
141
10.0
290
     0
  0
SCALE
  5
4E
102
{ACAD_REACTORS
330
47
102
}
330
47
100
AcDbScale
 70
     0
300
1:16
140
1.0
141
16.0
290
     0
  0
SCALE
  5
4F
102
{ACAD_REACTORS
330
47
102
}
330
47
100
AcDbScale
 70
     0
300
1:20
140
1.0
141
20.0
290
     0
  0
SCALE
  5
50
102
{ACAD_REACTORS
330
47
102
}
330
47
100
AcDbScale
 70
     0
300
1:30
140
1.0
141
30.0
290
     0
  0
SCALE
  5
51
102
{ACAD_REACTORS
330
47
102
}
330
47
100
AcDbScale
 70
     0
300
1:40
140
1.0
141
40.0
290
     0
  0
SCALE
  5
52
102
{ACAD_REACTORS
330
47
102
}
330
47
100
AcDbScale
 70
     0
300
1:50
140
1.0
141
50.0
290
     0
  0
SCALE
  5
53
102
{ACAD_REACTORS
330
47
102
}
330
47
100
AcDbScale
 70
     0
300
1:100
140
1.0
141
100.0
290
     0
  0
SCALE
  5
54
102
{ACAD_REACTORS
330
47
102
}
330
47
100
AcDbScale
 70
     0
300
2:1
140
2.0
141
1.0
290
     0
  0
SCALE
  5
55
102
{ACAD_REACTORS
330
47
102
}
330
47
100
AcDbScale
 70
     0
300
4:1
140
4.0
141
1.0
290
     0
  0
SCALE
  5
56
102
{ACAD_REACTORS
330
47
102
}
330
47
100
AcDbScale
 70
     0
300
8:1
140
8.0
141
1.0
290
     0
  0
SCALE
  5
57
102
{ACAD_REACTORS
330
47
102
}
330
47
100
AcDbScale
 70
     0
300
10:1
140
10.0
141
1.0
290
     0
  0
SCALE
  5
58
102
{ACAD_REACTORS
330
47
102
}
330
47
100
AcDbScale
 70
     0
300
100:1
140
100.0
141
1.0
290
     0
  0
SCALE
  5
59
102
{ACAD_REACTORS
330
47
102
}
330
47
100
AcDbScale
 70
     0
300
1/128" = 1'-0"
140
0.0078125
141
12.0
290
     0
  0
SCALE
  5
5A
102
{ACAD_REACTORS
330
47
102
}
330
47
100
AcDbScale
 70
     0
300
1/64" = 1'-0"
140
0.015625
141
12.0
290
     0
  0
SCALE
  5
5B
102
{ACAD_REACTORS
330
47
102
}
330
47
100
AcDbScale
 70
     0
300
1/32" = 1'-0"
140
0.03125
141
12.0
290
     0
  0
SCALE
  5
5C
102
{ACAD_REACTORS
330
47
102
}
330
47
100
AcDbScale
 70
     0
300
1/16" = 1'-0"
140
0.0625
141
12.0
290
     0
  0
SCALE
  5
5D
102
{ACAD_REACTORS
330
47
102
}
330
47
100
AcDbScale
 70
     0
300
3/32" = 1'-0"
140
0.09375
141
12.0
290
     0
  0
SCALE
  5
5E
102
{ACAD_REACTORS
330
47
102
}
330
47
100
AcDbScale
 70
     0
300
1/8" = 1'-0"
140
0.125
141
12.0
290
     0
  0
SCALE
  5
5F
102
{ACAD_REACTORS
330
47
102
}
330
47
100
AcDbScale
 70
     0
300
3/16" = 1'-0"
140
0.1875
141
12.0
290
     0
  0
SCALE
  5
60
102
{ACAD_REACTORS
330
47
102
}
330
47
100
AcDbScale
 70
     0
300
1/4" = 1'-0"
140
0.25
141
12.0
290
     0
  0
SCALE
  5
61
102
{ACAD_REACTORS
330
47
102
}
330
47
100
AcDbScale
 70
     0
300
3/8" = 1'-0"
140
0.375
141
12.0
290
     0
  0
SCALE
  5
62
102
{ACAD_REACTORS
330
47
102
}
330
47
100
AcDbScale
 70
     0
300
1/2" = 1'-0"
140
0.5
141
12.0
290
     0
  0
SCALE
  5
63
102
{ACAD_REACTORS
330
47
102
}
330
47
100
AcDbScale
 70
     0
300
3/4" = 1'-0"
140
0.75
141
12.0
290
     0
  0
SCALE
  5
64
102
{ACAD_REACTORS
330
47
102
}
330
47
100
AcDbScale
 70
     0
300
1" = 1'-0"
140
1.0
141
12.0
290
     0
  0
SCALE
  5
65
102
{ACAD_REACTORS
330
47
102
}
330
47
100
AcDbScale
 70
     0
300
1-1/2" = 1'-0"
140
1.5
141
12.0
290
     0
  0
SCALE
  5
66
102
{ACAD_REACTORS
330
47
102
}
330
47
100
AcDbScale
 70
     0
300
3" = 1'-0"
140
3.0
141
12.0
290
     0
  0
SCALE
  5
67
102
{ACAD_REACTORS
330
47
102
}
330
47
100
AcDbScale
 70
     0
300
6" = 1'-0"
140
6.0
141
12.0
290
     0
  0
SCALE
  5
68
102
{ACAD_REACTORS
330
47
102
}
330
47
100
AcDbScale
 70
     0
300
1'-0" = 1'-0"
140
12.0
141
12.0
290
     0
  0
ENDSEC
  0
EOF
