  0
SECTION
  2
HEADER
  9
$ACADVER
  1
AC1015
  9
$ACADMAINTVER
 70
     6
  9
$DWGCODEPAGE
  3
ANSI_949
  9
$INSBASE
 10
0.0
 20
0.0
 30
0.0
  9
$EXTMIN
 10
-51.66625000000003
 20
-49.97073246008785
 30
0.0
  9
$EXTMAX
 10
89.6384838153456
 20
38.57275000000004
 30
0.0
  9
$LIMMIN
 10
0.0
 20
0.0
  9
$LIMMAX
 10
420.0
 20
297.0
  9
$ORTHOMODE
 70
     1
  9
$REGENMODE
 70
     1
  9
$FILLMODE
 70
     1
  9
$QTEXTMODE
 70
     0
  9
$MIRRTEXT
 70
     1
  9
$LTSCALE
 40
1.0
  9
$ATTMODE
 70
     1
  9
$TEXTSIZE
 40
3.5
  9
$TRACEWID
 40
1.0
  9
$TEXTSTYLE
  7
Standard
  9
$CLAYER
  8
0
  9
$CELTYPE
  6
ByLayer
  9
$CECOLOR
 62
   256
  9
$CELTSCALE
 40
1.0
  9
$DISPSILH
 70
     0
  9
$DIMSCALE
 40
1.0
  9
$DIMASZ
 40
3.302
  9
$DIMEXO
 40
1.0
  9
$DIMDLI
 40
3.75
  9
$DIMRND
 40
0.0
  9
$DIMDLE
 40
0.0
  9
$DIMEXE
 40
1.0
  9
$DIMTP
 40
0.0
  9
$DIMTM
 40
0.0
  9
$DIMTXT
 40
3.5
  9
$DIMCEN
 40
2.5
  9
$DIMTSZ
 40
0.0
  9
$DIMTOL
 70
     0
  9
$DIMLIM
 70
     0
  9
$DIMTIH
 70
     1
  9
$DIMTOH
 70
     1
  9
$DIMSE1
 70
     0
  9
$DIMSE2
 70
     0
  9
$DIMTAD
 70
     1
  9
$DIMZIN
 70
     0
  9
$DIMBLK
  1

  9
$DIMASO
 70
     1
  9
$DIMSHO
 70
     1
  9
$DIMPOST
  1

  9
$DIMAPOST
  1

  9
$DIMALT
 70
     0
  9
$DIMALTD
 70
     3
  9
$DIMALTF
 40
0.0393700787401575
  9
$DIMLFAC
 40
1.0
  9
$DIMTOFL
 70
     1
  9
$DIMTVP
 40
0.0
  9
$DIMTIX
 70
     0
  9
$DIMSOXD
 70
     0
  9
$DIMSAH
 70
     0
  9
$DIMBLK1
  1

  9
$DIMBLK2
  1

  9
$DIMSTYLE
  2
ISO-25
  9
$DIMCLRD
 70
     0
  9
$DIMCLRE
 70
     0
  9
$DIMCLRT
 70
     0
  9
$DIMTFAC
 40
1.0
  9
$DIMGAP
 40
1.524
  9
$DIMJUST
 70
     0
  9
$DIMSD1
 70
     0
  9
$DIMSD2
 70
     0
  9
$DIMTOLJ
 70
     0
  9
$DIMTZIN
 70
     0
  9
$DIMALTZ
 70
     0
  9
$DIMALTTZ
 70
     0
  9
$DIMUPT
 70
     0
  9
$DIMDEC
 70
     2
  9
$DIMTDEC
 70
     2
  9
$DIMALTU
 70
     2
  9
$DIMALTTD
 70
     3
  9
$DIMTXSTY
  7
Standard
  9
$DIMAUNIT
 70
     0
  9
$DIMADEC
 70
     2
  9
$DIMALTRND
 40
0.0
  9
$DIMAZIN
 70
     0
  9
$DIMDSEP
 70
    44
  9
$DIMATFIT
 70
     3
  9
$DIMFRAC
 70
     0
  9
$DIMLDRBLK
  1

  9
$DIMLUNIT
 70
     2
  9
$DIMLWD
 70
    -2
  9
$DIMLWE
 70
    -2
  9
$DIMTMOVE
 70
     0
  9
$LUNITS
 70
     2
  9
$LUPREC
 70
     2
  9
$SKETCHINC
 40
1.0
  9
$FILLETRAD
 40
10.0
  9
$AUNITS
 70
     0
  9
$AUPREC
 70
     2
  9
$MENU
  1
.
  9
$ELEVATION
 40
0.0
  9
$PELEVATION
 40
0.0
  9
$THICKNESS
 40
0.0
  9
$LIMCHECK
 70
     0
  9
$CHAMFERA
 40
0.0
  9
$CHAMFERB
 40
0.0
  9
$CHAMFERC
 40
0.0
  9
$CHAMFERD
 40
0.0
  9
$SKPOLY
 70
     0
  9
$TDCREATE
 40
2458295.501230995
  9
$TDUCREATE
 40
2458295.126230995
  9
$TDUPDATE
 40
2458295.941176748
  9
$TDUUPDATE
 40
2458295.566176748
  9
$TDINDWG
 40
0.0011930093
  9
$TDUSRTIMER
 40
0.0011929977
  9
$USRTIMER
 70
     1
  9
$ANGBASE
 50
0.0
  9
$ANGDIR
 70
     0
  9
$PDMODE
 70
     0
  9
$PDSIZE
 40
-1.0
  9
$PLINEWID
 40
0.0
  9
$SPLFRAME
 70
     0
  9
$SPLINETYPE
 70
     6
  9
$SPLINESEGS
 70
     8
  9
$HANDSEED
  5
269
  9
$SURFTAB1
 70
     6
  9
$SURFTAB2
 70
     6
  9
$SURFTYPE
 70
     6
  9
$SURFU
 70
     6
  9
$SURFV
 70
     6
  9
$UCSBASE
  2

  9
$UCSNAME
  2

  9
$UCSORG
 10
0.0
 20
0.0
 30
0.0
  9
$UCSXDIR
 10
1.0
 20
0.0
 30
0.0
  9
$UCSYDIR
 10
0.0
 20
1.0
 30
0.0
  9
$UCSORTHOREF
  2

  9
$UCSORTHOVIEW
 70
     0
  9
$UCSORGTOP
 10
0.0
 20
0.0
 30
0.0
  9
$UCSORGBOTTOM
 10
0.0
 20
0.0
 30
0.0
  9
$UCSORGLEFT
 10
0.0
 20
0.0
 30
0.0
  9
$UCSORGRIGHT
 10
0.0
 20
0.0
 30
0.0
  9
$UCSORGFRONT
 10
0.0
 20
0.0
 30
0.0
  9
$UCSORGBACK
 10
0.0
 20
0.0
 30
0.0
  9
$PUCSBASE
  2

  9
$PUCSNAME
  2

  9
$PUCSORG
 10
0.0
 20
0.0
 30
0.0
  9
$PUCSXDIR
 10
1.0
 20
0.0
 30
0.0
  9
$PUCSYDIR
 10
0.0
 20
1.0
 30
0.0
  9
$PUCSORTHOREF
  2

  9
$PUCSORTHOVIEW
 70
     0
  9
$PUCSORGTOP
 10
0.0
 20
0.0
 30
0.0
  9
$PUCSORGBOTTOM
 10
0.0
 20
0.0
 30
0.0
  9
$PUCSORGLEFT
 10
0.0
 20
0.0
 30
0.0
  9
$PUCSORGRIGHT
 10
0.0
 20
0.0
 30
0.0
  9
$PUCSORGFRONT
 10
0.0
 20
0.0
 30
0.0
  9
$PUCSORGBACK
 10
0.0
 20
0.0
 30
0.0
  9
$USERI1
 70
     0
  9
$USERI2
 70
     0
  9
$USERI3
 70
     0
  9
$USERI4
 70
     0
  9
$USERI5
 70
     0
  9
$USERR1
 40
0.0
  9
$USERR2
 40
0.0
  9
$USERR3
 40
0.0
  9
$USERR4
 40
0.0
  9
$USERR5
 40
0.0
  9
$WORLDVIEW
 70
     1
  9
$SHADEDGE
 70
     3
  9
$SHADEDIF
 70
    70
  9
$TILEMODE
 70
     1
  9
$MAXACTVP
 70
    64
  9
$PINSBASE
 10
0.0
 20
0.0
 30
0.0
  9
$PLIMCHECK
 70
     0
  9
$PEXTMIN
 10
1.000000000000000E+20
 20
1.000000000000000E+20
 30
1.000000000000000E+20
  9
$PEXTMAX
 10
-1.000000000000000E+20
 20
-1.000000000000000E+20
 30
-1.000000000000000E+20
  9
$PLIMMIN
 10
0.0
 20
0.0
  9
$PLIMMAX
 10
0.0
 20
0.0
  9
$UNITMODE
 70
     0
  9
$VISRETAIN
 70
     1
  9
$PLINEGEN
 70
     0
  9
$PSLTSCALE
 70
     1
  9
$TREEDEPTH
 70
  3020
  9
$CMLSTYLE
  2
Standard
  9
$CMLJUST
 70
     0
  9
$CMLSCALE
 40
20.0
  9
$PROXYGRAPHICS
 70
     1
  9
$MEASUREMENT
 70
     1
  9
$CELWEIGHT
370
    -1
  9
$ENDCAPS
280
     0
  9
$JOINSTYLE
280
     0
  9
$LWDISPLAY
290
     1
  9
$INSUNITS
 70
     4
  9
$HYPERLINKBASE
  1

  9
$STYLESHEET
  1

  9
$XEDIT
290
     1
  9
$CEPSNTYPE
380
     0
  9
$PSTYLEMODE
290
     1
  9
$FINGERPRINTGUID
  2
{37E943CE-1C35-491D-9DFE-E881CFCFBDBD}
  9
$VERSIONGUID
  2
{FAEB1C32-E019-11D5-929B-00C0DF256EC4}
  9
$EXTNAMES
290
     1
  9
$PSVPSCALE
 40
0.0
  9
$OLESTARTUP
290
     0
  0
ENDSEC
  0
SECTION
  2
CLASSES
  0
CLASS
  1
ACDBDICTIONARYWDFLT
  2
AcDbDictionaryWithDefault
  3
ObjectDBX Classes
 90
        0
280
     0
281
     0
  0
CLASS
  1
VISUALSTYLE
  2
AcDbVisualStyle
  3
ObjectDBX Classes
 90
     4095
280
     0
281
     0
  0
CLASS
  1
MATERIAL
  2
AcDbMaterial
  3
ObjectDBX Classes
 90
     1153
280
     0
281
     0
  0
CLASS
  1
SCALE
  2
AcDbScale
  3
ObjectDBX Classes
 90
     1153
280
     0
281
     0
  0
CLASS
  1
SUN
  2
AcDbSun
  3
SCENEOE
 90
     1153
280
     0
281
     0
  0
CLASS
  1
ACDBPLACEHOLDER
  2
AcDbPlaceHolder
  3
ObjectDBX Classes
 90
        0
280
     0
281
     0
  0
CLASS
  1
LAYOUT
  2
AcDbLayout
  3
ObjectDBX Classes
 90
        0
280
     0
281
     0
  0
CLASS
  1
TABLESTYLE
  2
AcDbTableStyle
  3
ObjectDBX Classes
 90
     4095
280
     0
281
     0
  0
CLASS
  1
MLEADERSTYLE
  2
AcDbMLeaderStyle
  3
ACDB_MLEADERSTYLE_CLASS
 90
     4095
280
     0
281
     0
  0
CLASS
  1
DICTIONARYVAR
  2
AcDbDictionaryVar
  3
ObjectDBX Classes
 90
        0
280
     0
281
     0
  0
CLASS
  1
DIMASSOC
  2
AcDbDimAssoc
  3
"AcDbDimAssoc|Product Desc:     AcDim ARX App For Dimension|Company:          Autodesk, Inc.|WEB Address:      www.autodesk.com"
 90
        0
280
     0
281
     0
  0
ENDSEC
  0
SECTION
  2
TABLES
  0
TABLE
  2
VPORT
  5
8
330
0
100
AcDbSymbolTable
 70
     1
  0
VPORT
  5
29
330
8
100
AcDbSymbolTableRecord
100
AcDbViewportTableRecord
  2
*Active
 70
     0
 10
0.0
 20
0.0
 11
1.0
 21
1.0
 12
-35.78973144381169
 22
-5.688786278686855
 13
0.0
 23
0.0
 14
10.0
 24
10.0
 15
10.0
 25
10.0
 16
0.0
 26
0.0
 36
1.0
 17
0.0
 27
0.0
 37
0.0
 40
93.62019660446593
 41
2.959259259259259
 42
50.0
 43
0.0
 44
0.0
 50
0.0
 51
0.0
 71
    16
 72
  2000
 73
     1
 74
     3
 75
     0
 76
     0
 77
     0
 78
     0
281
     0
 65
     1
110
0.0
120
0.0
130
0.0
111
1.0
121
0.0
131
0.0
112
0.0
122
1.0
132
0.0
 79
     0
146
0.0
  0
ENDTAB
  0
TABLE
  2
LTYPE
  5
5
330
0
100
AcDbSymbolTable
 70
     6
  0
LTYPE
  5
14
330
5
100
AcDbSymbolTableRecord
100
AcDbLinetypeTableRecord
  2
ByBlock
 70
     0
  3

 72
    65
 73
     0
 40
0.0
  0
LTYPE
  5
15
330
5
100
AcDbSymbolTableRecord
100
AcDbLinetypeTableRecord
  2
ByLayer
 70
     0
  3

 72
    65
 73
     0
 40
0.0
  0
LTYPE
  5
16
330
5
100
AcDbSymbolTableRecord
100
AcDbLinetypeTableRecord
  2
Continuous
 70
     0
  3
Solid line
 72
    65
 73
     0
 40
0.0
  0
LTYPE
  5
6A
330
5
100
AcDbSymbolTableRecord
100
AcDbLinetypeTableRecord
  2
HIDDEN
 70
     0
  3
Hidden __ __ __ __ __ __ __ __ __ __ __ __ __ __
 72
    65
 73
     2
 40
1.905
 49
1.27
 74
     0
 49
-0.635
 74
     0
  0
LTYPE
  5
6B
330
5
100
AcDbSymbolTableRecord
100
AcDbLinetypeTableRecord
  2
PHANTOM
 70
     0
  3
Phantom ______  __  __  ______  __  __  ______
 72
    65
 73
     6
 40
12.7
 49
6.35
 74
     0
 49
-1.27
 74
     0
 49
1.27
 74
     0
 49
-1.27
 74
     0
 49
1.27
 74
     0
 49
-1.27
 74
     0
  0
LTYPE
  5
6C
330
5
100
AcDbSymbolTableRecord
100
AcDbLinetypeTableRecord
  2
CENTER
 70
     0
  3
Center ____ _ ____ _ ____ _ ____ _ ____ _ ____
 72
    65
 73
     4
 40
10.16
 49
6.35
 74
     0
 49
-1.27
 74
     0
 49
1.27
 74
     0
 49
-1.27
 74
     0
  0
LTYPE
  5
6D
330
5
100
AcDbSymbolTableRecord
100
AcDbLinetypeTableRecord
  2
CENTERX2
 70
     0
  3
Center (2x) ________  __  ________  __  _____
 72
    65
 73
     4
 40
20.32
 49
12.7
 74
     0
 49
-2.54
 74
     0
 49
2.54
 74
     0
 49
-2.54
 74
     0
  0
LTYPE
  5
6E
330
5
100
AcDbSymbolTableRecord
100
AcDbLinetypeTableRecord
  2
DOT2
 70
     0
  3
Dot (.5x) ........................................
 72
    65
 73
     2
 40
0.635
 49
0.0
 74
     0
 49
-0.635
 74
     0
  0
ENDTAB
  0
TABLE
  2
LAYER
  5
2
102
{ACAD_XDICTIONARY
360
186
102
}
330
0
100
AcDbSymbolTable
 70
    18
  0
LAYER
  5
10
330
2
100
AcDbSymbolTableRecord
100
AcDbLayerTableRecord
  2
0
 70
     0
 62
     7
  6
Continuous
370
    -3
390
F
  0
LAYER
  5
6F
330
2
100
AcDbSymbolTableRecord
100
AcDbLayerTableRecord
  2
FORMAT
 70
     0
 62
     2
  6
Continuous
370
    -3
390
F
  0
LAYER
  5
70
330
2
100
AcDbSymbolTableRecord
100
AcDbLayerTableRecord
  2
외형선
 70
     0
 62
     4
  6
Continuous
370
    30
390
F
  0
LAYER
  5
71
330
2
100
AcDbSymbolTableRecord
100
AcDbLayerTableRecord
  2
숨은선
 70
     0
 62
     2
  6
HIDDEN
370
    15
390
F
  0
LAYER
  5
72
330
2
100
AcDbSymbolTableRecord
100
AcDbLayerTableRecord
  2
중심선
 70
     0
 62
     1
  6
CENTERX2
370
    -3
390
F
  0
LAYER
  5
73
330
2
100
AcDbSymbolTableRecord
100
AcDbLayerTableRecord
  2
파단선
 70
     0
 62
     4
  6
Continuous
370
    -3
390
F
  0
LAYER
  5
74
330
2
100
AcDbSymbolTableRecord
100
AcDbLayerTableRecord
  2
해칭선
 70
     0
 62
   100
  6
Continuous
370
    -3
390
F
  0
LAYER
  5
75
330
2
100
AcDbSymbolTableRecord
100
AcDbLayerTableRecord
  2
가는실선
 70
     0
 62
     4
  6
Continuous
370
    -3
390
F
  0
LAYER
  5
76
330
2
100
AcDbSymbolTableRecord
100
AcDbLayerTableRecord
  2
치수_보조선
 70
     0
 62
     4
  6
Continuous
370
    -3
390
F
  0
LAYER
  5
77
330
2
100
AcDbSymbolTableRecord
100
AcDbLayerTableRecord
  2
치수문자_일반주서
 70
     0
 62
     7
  6
Continuous
370
    15
390
F
  0
LAYER
  5
78
330
2
100
AcDbSymbolTableRecord
100
AcDbLayerTableRecord
  2
개별주서
 70
     0
 62
   100
  6
Continuous
370
    30
390
F
  0
LAYER
  5
79
330
2
100
AcDbSymbolTableRecord
100
AcDbLayerTableRecord
  2
중간선
 70
     0
 62
     2
  6
Continuous
370
    15
390
F
  0
LAYER
  5
7A
330
2
100
AcDbSymbolTableRecord
100
AcDbLayerTableRecord
  2
윤곽선
 70
     0
 62
     3
  6
Continuous
370
    40
390
F
  0
LAYER
  5
7B
330
2
100
AcDbSymbolTableRecord
100
AcDbLayerTableRecord
  2
중심마크
 70
     0
 62
   100
  6
Continuous
370
    30
390
F
  0
LAYER
  5
7C
330
2
100
AcDbSymbolTableRecord
100
AcDbLayerTableRecord
  2
가상선
 70
     0
 62
     4
  6
PHANTOM
370
    -3
390
F
  0
LAYER
  5
7D
330
2
100
AcDbSymbolTableRecord
100
AcDbLayerTableRecord
  2
특수지정선
 70
     0
 62
     5
  6
CENTERX2
370
    60
390
F
  0
LAYER
  5
7E
330
2
100
AcDbSymbolTableRecord
100
AcDbLayerTableRecord
  2
참조1
 70
     0
 62
    -4
  6
Continuous
370
    -3
390
F
  0
LAYER
  5
18E
330
2
100
AcDbSymbolTableRecord
100
AcDbLayerTableRecord
  2
Defpoints
 70
     0
 62
     7
  6
Continuous
290
     0
370
    -3
390
F
  0
ENDTAB
  0
TABLE
  2
STYLE
  5
3
330
0
100
AcDbSymbolTable
 70
     2
  0
STYLE
  5
11
330
3
100
AcDbSymbolTableRecord
100
AcDbTextStyleTableRecord
  2
Standard
 70
     0
 40
0.0
 41
1.0
 50
0.0
 71
     0
 42
3.5
  3
txt
  4

  0
STYLE
  5
94
330
3
100
AcDbSymbolTableRecord
100
AcDbTextStyleTableRecord
  2
SLDTEXTSTYLE0
 70
     0
 40
0.0
 41
0.75
 50
0.0
 71
     0
 42
3.5
  3
TXT
  4

  0
ENDTAB
  0
TABLE
  2
VIEW
  5
6
330
0
100
AcDbSymbolTable
 70
     0
  0
ENDTAB
  0
TABLE
  2
UCS
  5
7
330
0
100
AcDbSymbolTable
 70
     0
  0
ENDTAB
  0
TABLE
  2
APPID
  5
9
330
0
100
AcDbSymbolTable
 70
     3
  0
APPID
  5
12
330
9
100
AcDbSymbolTableRecord
100
AcDbRegAppTableRecord
  2
ACAD
 70
     0
  0
APPID
  5
18D
330
9
100
AcDbSymbolTableRecord
100
AcDbRegAppTableRecord
  2
PE_URL
 70
     0
  0
APPID
  5
19B
330
9
100
AcDbSymbolTableRecord
100
AcDbRegAppTableRecord
  2
ACAD_DSTYLE_DIMRADIAL_EXTENSION
 70
     0
  0
ENDTAB
  0
TABLE
  2
DIMSTYLE
  5
A
330
0
100
AcDbSymbolTable
 70
     4
100
AcDbDimStyleTable
  0
DIMSTYLE
105
27
330
A
100
AcDbSymbolTableRecord
100
AcDbDimStyleTableRecord
  2
ISO-25
 70
     0
 41
2.5
 42
0.625
 43
3.75
 44
1.25
 73
     0
 74
     0
 77
     1
 78
     8
140
2.5
141
2.5
143
0.03937007874016
147
0.625
171
     3
172
     1
178
     0
271
     2
272
     2
274
     3
278
    44
283
     0
284
     8
340
11
  0
DIMSTYLE
105
DF
102
{ACAD_REACTORS
330
DE
330
108
330
F4
330
11C
330
19C
330
21B
102
}
330
A
100
AcDbSymbolTableRecord
100
AcDbDimStyleTableRecord
  2
SLDDIMSTYLE0
 70
     0
 41
3.302
 44
0.0
 45
0.000000001
 73
     0
 74
     0
 77
     1
 78
    12
 79
     3
140
3.5
143
0.0393700787401575
147
0.875
148
0.000000001
170
     1
172
     1
173
     1
178
     0
271
     2
272
     2
276
     2
284
    12
289
     0
340
94
  0
DIMSTYLE
105
F5
330
A
100
AcDbSymbolTableRecord
100
AcDbDimStyleTableRecord
  2
SLDDIMSTYLE1
 70
     0
 41
3.302
 44
0.0
 45
0.000000001
 73
     0
 74
     0
 77
     1
 78
     4
 79
     1
140
3.5
143
0.0393700787401575
147
0.875
148
0.000000001
170
     1
173
     1
178
     0
271
     2
272
     2
276
     2
284
    12
340
94
  0
DIMSTYLE
105
11D
330
A
100
AcDbSymbolTableRecord
100
AcDbDimStyleTableRecord
  2
SLDDIMSTYLE2
 70
     0
 41
3.302
 44
0.0
 45
0.000000001
 73
     0
 74
     0
 77
     1
 78
    12
 79
     3
140
3.5
143
0.0393700787401575
147
0.875
148
0.000000001
170
     1
173
     1
178
     0
271
     2
272
     2
276
     2
284
    12
340
94
  0
ENDTAB
  0
TABLE
  2
BLOCK_RECORD
  5
1
330
0
100
AcDbSymbolTable
 70
    13
  0
BLOCK_RECORD
  5
1F
330
1
100
AcDbSymbolTableRecord
100
AcDbBlockTableRecord
  2
*Model_Space
340
22
  0
BLOCK_RECORD
  5
1B
330
1
100
AcDbSymbolTableRecord
100
AcDbBlockTableRecord
  2
*Paper_Space
340
1E
  0
BLOCK_RECORD
  5
23
330
1
100
AcDbSymbolTableRecord
100
AcDbBlockTableRecord
  2
*Paper_Space0
340
26
  0
BLOCK_RECORD
  5
7F
330
1
100
AcDbSymbolTableRecord
100
AcDbBlockTableRecord
  2
블럭10
340
0
102
{BLKREFS
331
D7
102
}
  0
BLOCK_RECORD
  5
E0
330
1
100
AcDbSymbolTableRecord
100
AcDbBlockTableRecord
  2
_D
340
0
  0
BLOCK_RECORD
  5
F6
330
1
100
AcDbSymbolTableRecord
100
AcDbBlockTableRecord
  2
_D_1
340
0
  0
BLOCK_RECORD
  5
109
330
1
100
AcDbSymbolTableRecord
100
AcDbBlockTableRecord
  2
_D_2
340
0
  0
BLOCK_RECORD
  5
11E
330
1
100
AcDbSymbolTableRecord
100
AcDbBlockTableRecord
  2
_D_3
340
0
  0
BLOCK_RECORD
  5
137
330
1
100
AcDbSymbolTableRecord
100
AcDbBlockTableRecord
  2
SW_DOWELSYMBOL_0
340
0
102
{BLKREFS
331
0
331
1CD
331
0
331
228
331
259
102
}
1001
PE_URL
1000

  0
BLOCK_RECORD
  5
19F
330
1
100
AcDbSymbolTableRecord
100
AcDbBlockTableRecord
  2
*D8
340
0
  0
BLOCK_RECORD
  5
231
330
1
100
AcDbSymbolTableRecord
100
AcDbBlockTableRecord
  2
*D11
340
0
  0
BLOCK_RECORD
  5
25A
330
1
100
AcDbSymbolTableRecord
100
AcDbBlockTableRecord
  2
*D12
340
0
  0
ENDTAB
  0
ENDSEC
  0
SECTION
  2
BLOCKS
  0
BLOCK
  5
20
330
1F
100
AcDbEntity
  8
0
100
AcDbBlockBegin
  2
*Model_Space
 70
     0
 10
0.0
 20
0.0
 30
0.0
  3
*Model_Space
  1

  0
ENDBLK
  5
21
330
1F
100
AcDbEntity
  8
0
100
AcDbBlockEnd
  0
BLOCK
  5
1C
330
1B
100
AcDbEntity
 67
     1
  8
0
100
AcDbBlockBegin
  2
*Paper_Space
 70
     0
 10
0.0
 20
0.0
 30
0.0
  3
*Paper_Space
  1

  0
ENDBLK
  5
1D
330
1B
100
AcDbEntity
 67
     1
  8
0
100
AcDbBlockEnd
  0
BLOCK
  5
24
330
23
100
AcDbEntity
  8
0
100
AcDbBlockBegin
  2
*Paper_Space0
 70
     0
 10
0.0
 20
0.0
 30
0.0
  3
*Paper_Space0
  1

  0
ENDBLK
  5
25
330
23
100
AcDbEntity
  8
0
100
AcDbBlockEnd
  0
BLOCK
  5
80
330
7F
100
AcDbEntity
  8
0
100
AcDbBlockBegin
  2
블럭10
 70
     2
 10
0.0
 20
0.0
 30
0.0
  3
블럭10
  1

  0
ELLIPSE
  5
82
330
7F
100
AcDbEntity
  8
중심선
100
AcDbEllipse
 10
20.54032771741204
 20
12.0471743016438
 30
0.0
 11
6.600054785286829
 21
-1.261213355974178E-13
 31
0.0
210
0.0
220
0.0
230
1.0
 40
0.636358354079598
 41
0.9219305317359503
 42
6.513795318482858
  0
ELLIPSE
  5
83
330
7F
100
AcDbEntity
  8
중심선
100
AcDbEllipse
 10
20.54032771746488
 20
12.04717430159265
 30
0.0
 11
3.960054785062283
 21
1.540847449632565E-10
 31
0.0
210
0.0
220
0.0
230
1.0
 40
0.3939339440162632
 41
1.131841032648279
 42
5.62031148352944
  0
LINE
  5
84
330
7F
100
AcDbEntity
  8
중심선
100
AcDbLine
 10
2.268634060543552
 20
16.24717430164393
 30
0.0
 11
5.714909304380834
 21
16.24717430164393
 31
0.0
  0
LINE
  5
85
330
7F
100
AcDbEntity
  8
중심선
100
AcDbLine
 10
5.245725140726316
 20
7.84717430164391
 30
0.0
 11
8.692000384563599
 21
7.84717430164391
 31
0.0
  0
LINE
  5
86
330
7F
100
AcDbEntity
  8
중심선
100
AcDbLine
 10
15.74043728645272
 20
16.24717430164393
 30
0.0
 11
8.692000384563599
 21
7.84717430164391
 31
0.0
  0
LINE
  5
87
330
7F
100
AcDbEntity
  8
중심선
100
AcDbLine
 10
0.1404042013395286
 20
13.71084872107135
 30
0.0
 11
3.58671253028996
 21
13.71088815037384
 31
0.0
  0
LINE
  5
88
330
7F
100
AcDbEntity
  8
중심선
100
AcDbLine
 10
2.750260043222114
 20
10.84717430164391
 30
0.0
 11
6.196535287059397
 21
10.84717430164391
 31
0.0
  0
LINE
  5
89
330
7F
100
AcDbEntity
  8
중심선
100
AcDbLine
 10
12.29416204261559
 20
16.24717430164393
 30
0.0
 11
5.245725140726316
 21
7.84717430164391
 31
0.0
  0
LINE
  5
8A
330
7F
100
AcDbEntity
  8
중심선
100
AcDbLine
 10
10.72767329541681
 20
16.24717430164393
 30
0.0
 11
6.196535287059397
 21
10.84717430164391
 31
0.0
  0
LINE
  5
8B
330
7F
100
AcDbEntity
  8
중심선
100
AcDbLine
 10
7.28139805157953
 20
16.24717430164393
 30
0.0
 11
2.750260043222114
 21
10.84717430164391
 31
0.0
  0
LINE
  5
8C
330
7F
100
AcDbEntity
  8
중심선
100
AcDbLine
 10
5.714909304380834
 20
16.24717430164393
 30
0.0
 11
3.58671253028996
 21
13.71088815037384
 31
0.0
  0
LINE
  5
8D
330
7F
100
AcDbEntity
  8
중심선
100
AcDbLine
 10
2.268634060543552
 20
16.24717430164393
 30
0.0
 11
0.1404042013395286
 21
13.71084872107135
 31
0.0
  0
LINE
  5
8E
330
7F
100
AcDbEntity
  8
중심선
100
AcDbLine
 10
7.28139805157953
 20
16.24717430164393
 30
0.0
 11
10.72767329541681
 21
16.24717430164393
 31
0.0
  0
LINE
  5
8F
330
7F
100
AcDbEntity
  8
중심선
100
AcDbLine
 10
12.29416204261559
 20
16.24717430164393
 30
0.0
 11
15.74043728645272
 21
16.24717430164393
 31
0.0
  0
LINE
  5
90
330
7F
100
AcDbEntity
  8
중심선
100
AcDbLine
 10
19.22036997980202
 20
11.08717430171403
 30
0.0
 11
23.66174974927406
 21
11.08717430171406
 31
0.0
  0
LINE
  5
91
330
7F
100
AcDbEntity
  8
중심선
100
AcDbLine
 10
19.22039502424796
 20
13.00717430171391
 30
0.0
 11
19.22036997980202
 21
11.08717430171403
 31
0.0
  0
LINE
  5
92
330
7F
100
AcDbEntity
  8
중심선
100
AcDbLine
 10
19.22039502424796
 20
13.00717430171391
 30
0.0
 11
26.96566020931264
 21
13.00717430171391
 31
0.0
  0
LINE
  5
93
330
7F
100
AcDbEntity
  8
중심선
100
AcDbLine
 10
22.22332737316547
 20
13.45928029700563
 30
0.0
 11
24.52862924686651
 21
15.39360700705356
 31
0.0
  0
ATTDEF
  5
95
330
7F
100
AcDbEntity
  8
FORMAT
 62
     2
100
AcDbText
 10
2.883703680694412
 20
2.075366912832191
 30
0.0
 40
4.233333333333333
  1
G8C51020
 41
0.75
  7
SLDTEXTSTYLE0
 11
2.883703680694412
 21
-0.0412997538344756
 31
0.0
100
AcDbAttributeDefinition
  3

  2
AUTOATTR0
 70
     0
 74
     1
  0
ENDBLK
  5
81
330
7F
100
AcDbEntity
  8
0
100
AcDbBlockEnd
  0
BLOCK
  5
E1
330
E0
100
AcDbEntity
  8
0
100
AcDbBlockBegin
  2
_D
 70
     0
 10
0.0
 20
0.0
 30
0.0
  3
_D
  1

  0
LINE
  5
E3
330
E0
100
AcDbEntity
  8
치수문자_일반주서
 62
     0
370
    -2
100
AcDbLine
 10
29.05000000000001
 20
4.031249999999998
 30
0.0
 11
29.05000000000001
 21
14.48966617116924
 31
0.0
  0
LINE
  5
E4
330
E0
100
AcDbEntity
  8
치수문자_일반주서
 62
     0
370
    -2
100
AcDbLine
 10
10.00000000000002
 20
3.908450313788212
 30
0.0
 11
10.00000000000002
 21
14.48966617116924
 31
0.0
  0
LINE
  5
E5
330
E0
100
AcDbEntity
  8
치수문자_일반주서
 62
     0
370
    -2
100
AcDbLine
 10
25.74800000000001
 20
14.48966617116924
 30
0.0
 11
13.30200000000002
 21
14.48966617116924
 31
0.0
  0
SOLID
  5
E6
330
E0
100
AcDbEntity
  8
치수문자_일반주서
 62
     0
100
AcDbTrace
 10
25.74800000000001
 20
13.93933283783591
 30
0.0
 11
25.74800000000001
 21
15.03999950450257
 31
0.0
 12
29.05000000000001
 22
14.48966617116924
 32
0.0
 13
29.05000000000001
 23
14.48966617116924
 33
0.0
  0
SOLID
  5
E7
330
E0
100
AcDbEntity
  8
치수문자_일반주서
 62
     0
100
AcDbTrace
 10
13.30200000000002
 20
15.03999950450257
 30
0.0
 11
13.30200000000002
 21
13.93933283783591
 31
0.0
 12
10.00000000000002
 22
14.48966617116924
 32
0.0
 13
10.00000000000002
 23
14.48966617116924
 33
0.0
  0
MTEXT
  5
E8
330
E0
100
AcDbEntity
  8
치수문자_일반주서
 62
     0
100
AcDbMText
 10
19.52500000000001
 20
18.86466617116924
 30
0.0
 40
3.5
 41
0.0
 71
     2
 72
     1
  1
\A1;19.05 [3/4]
  7
SLDTEXTSTYLE0
 73
     1
 44
1.0
  0
POINT
  5
E9
330
E0
100
AcDbEntity
  8
Defpoints
 62
     0
100
AcDbPoint
 10
29.05000000000001
 20
3.968749999999998
 30
0.0
  0
POINT
  5
EA
330
E0
100
AcDbEntity
  8
Defpoints
 62
     0
100
AcDbPoint
 10
10.00000000000002
 20
3.845950313788212
 30
0.0
  0
POINT
  5
EB
330
E0
100
AcDbEntity
  8
Defpoints
 62
     0
100
AcDbPoint
 10
10.00000000000002
 20
14.48966617116924
 30
0.0
  0
ENDBLK
  5
E2
330
E0
100
AcDbEntity
  8
0
100
AcDbBlockEnd
  0
BLOCK
  5
F7
330
F6
100
AcDbEntity
  8
0
100
AcDbBlockBegin
  2
_D_1
 70
     0
 10
0.0
 20
0.0
 30
0.0
  3
_D_1
  1

  0
LINE
  5
F9
330
F6
100
AcDbEntity
  8
치수문자_일반주서
 62
     0
370
    -2
100
AcDbLine
 10
29.05000000000001
 20
4.031249999999998
 30
0.0
 11
29.05000000000001
 21
28.90315070344566
 31
0.0
  0
LINE
  5
FA
330
F6
100
AcDbEntity
  8
치수문자_일반주서
 62
     0
370
    -2
100
AcDbLine
 10
-34.45
 20
3.2375
 30
0.0
 11
-34.45
 21
28.90315070344566
 31
0.0
  0
LINE
  5
FB
330
F6
100
AcDbEntity
  8
치수문자_일반주서
 62
     0
370
    -2
100
AcDbLine
 10
25.74800000000001
 20
28.90315070344566
 30
0.0
 11
-31.148
 21
28.90315070344566
 31
0.0
  0
SOLID
  5
FC
330
F6
100
AcDbEntity
  8
치수문자_일반주서
 62
     0
100
AcDbTrace
 10
25.74800000000001
 20
28.35281737011232
 30
0.0
 11
25.74800000000001
 21
29.45348403677899
 31
0.0
 12
29.05000000000001
 22
28.90315070344566
 32
0.0
 13
29.05000000000001
 23
28.90315070344566
 33
0.0
  0
SOLID
  5
FD
330
F6
100
AcDbEntity
  8
치수문자_일반주서
 62
     0
100
AcDbTrace
 10
-31.148
 20
29.45348403677899
 30
0.0
 11
-31.148
 21
28.35281737011232
 31
0.0
 12
-34.45
 22
28.90315070344566
 32
0.0
 13
-34.45
 23
28.90315070344566
 33
0.0
  0
MTEXT
  5
FE
330
F6
100
AcDbEntity
  8
치수문자_일반주서
 62
     0
100
AcDbMText
 10
-2.699999999999994
 20
33.27815070344566
 30
0.0
 40
3.5
 41
0.0
 71
     2
 72
     1
  1
\A1;63.5 [2 1/2]
  7
SLDTEXTSTYLE0
 73
     1
 44
1.0
  0
POINT
  5
FF
330
F6
100
AcDbEntity
  8
Defpoints
 62
     0
100
AcDbPoint
 10
29.05000000000001
 20
3.968749999999998
 30
0.0
  0
POINT
  5
100
330
F6
100
AcDbEntity
  8
Defpoints
 62
     0
100
AcDbPoint
 10
-34.45
 20
3.175
 30
0.0
  0
POINT
  5
101
330
F6
100
AcDbEntity
  8
Defpoints
 62
     0
100
AcDbPoint
 10
-34.45
 20
28.90315070344566
 30
0.0
  0
ENDBLK
  5
F8
330
F6
100
AcDbEntity
  8
0
100
AcDbBlockEnd
  0
BLOCK
  5
10A
330
109
100
AcDbEntity
  8
0
100
AcDbBlockBegin
  2
_D_2
 70
     0
 10
0.0
 20
0.0
 30
0.0
  3
_D_2
  1

  0
LINE
  5
10C
330
109
100
AcDbEntity
  8
치수문자_일반주서
 62
     0
370
    -2
100
AcDbLine
 10
-33.71874999999999
 20
3.968749999999991
 30
0.0
 11
-47.29125000000001
 21
3.96874999999994
 31
0.0
  0
LINE
  5
10D
330
109
100
AcDbEntity
  8
치수문자_일반주서
 62
     0
370
    -2
100
AcDbLine
 10
-33.71874999999999
 20
-3.968749999999996
 30
0.0
 11
-47.29124999999998
 21
-3.968750000000046
 31
0.0
  0
LINE
  5
10E
330
109
100
AcDbEntity
  8
치수문자_일반주서
 62
     0
370
    -2
100
AcDbLine
 10
-47.29124999999999
 20
0.6667499999999409
 30
0.0
 11
-47.29124999999999
 21
-0.6667500000000461
 31
0.0
  0
SOLID
  5
10F
330
109
100
AcDbEntity
  8
치수문자_일반주서
 62
     0
100
AcDbTrace
 10
-46.74091666666666
 20
0.6667499999999429
 30
0.0
 11
-47.84158333333333
 21
0.6667499999999389
 31
0.0
 12
-47.29125000000001
 22
3.96874999999994
 32
0.0
 13
-47.29125000000001
 23
3.96874999999994
 33
0.0
  0
SOLID
  5
110
330
109
100
AcDbEntity
  8
치수문자_일반주서
 62
     0
100
AcDbTrace
 10
-47.84158333333333
 20
-0.6667500000000481
 30
0.0
 11
-46.74091666666666
 21
-0.6667500000000441
 31
0.0
 12
-47.29124999999998
 22
-3.968750000000046
 32
0.0
 13
-47.29124999999998
 23
-3.968750000000046
 33
0.0
  0
MTEXT
  5
111
330
109
100
AcDbEntity
  8
치수문자_일반주서
 62
     0
100
AcDbMText
 10
-51.66624999999999
 20
-0.000000000000024
 30
0.0
 40
3.5
 41
0.0
 71
     2
 72
     1
  1
\A1;%%c7.94 [5/16]
  7
SLDTEXTSTYLE0
 11
-3.580687802255629E-15
 21
1.0
 31
0.0
 73
     1
 44
1.0
  0
POINT
  5
112
330
109
100
AcDbEntity
  8
Defpoints
 62
     0
100
AcDbPoint
 10
-33.65624999999999
 20
3.968749999999991
 30
0.0
  0
POINT
  5
113
330
109
100
AcDbEntity
  8
Defpoints
 62
     0
100
AcDbPoint
 10
-33.65624999999999
 20
-3.968749999999995
 30
0.0
  0
POINT
  5
114
330
109
100
AcDbEntity
  8
Defpoints
 62
     0
100
AcDbPoint
 10
-47.29124999999998
 20
-3.968750000000046
 30
0.0
  0
ENDBLK
  5
10B
330
109
100
AcDbEntity
  8
0
100
AcDbBlockEnd
  0
BLOCK
  5
11F
330
11E
100
AcDbEntity
  8
0
100
AcDbBlockBegin
  2
_D_3
 70
     0
 10
0.0
 20
0.0
 30
0.0
  3
_D_3
  1

  0
LINE
  5
121
330
11E
100
AcDbEntity
  8
치수문자_일반주서
 62
     0
370
    -2
100
AcDbLine
 10
29.11250000000001
 20
3.968749999999998
 30
0.0
 11
41.70000000000007
 21
3.968750000000043
 31
0.0
  0
LINE
  5
122
330
11E
100
AcDbEntity
  8
치수문자_일반주서
 62
     0
370
    -2
100
AcDbLine
 10
29.11250000000001
 20
-3.968749999999978
 30
0.0
 11
41.7000000000001
 21
-3.968749999999932
 31
0.0
  0
LINE
  5
123
330
11E
100
AcDbEntity
  8
치수문자_일반주서
 62
     0
370
    -2
100
AcDbLine
 10
41.70000000000007
 20
3.968750000000043
 30
0.0
 11
41.69999999999995
 21
38.57275000000004
 31
0.0
  0
LINE
  5
124
330
11E
100
AcDbEntity
  8
치수문자_일반주서
 62
     0
370
    -2
100
AcDbLine
 10
41.70000000000007
 20
3.968750000000043
 30
0.0
 11
41.7000000000001
 21
-3.968749999999932
 31
0.0
  0
LINE
  5
125
330
11E
100
AcDbEntity
  8
치수문자_일반주서
 62
     0
370
    -2
100
AcDbLine
 10
41.70000000000006
 20
7.270750000000042
 30
0.0
 11
41.70000000000005
 21
10.57275000000004
 31
0.0
  0
LINE
  5
126
330
11E
100
AcDbEntity
  8
치수문자_일반주서
 62
     0
370
    -2
100
AcDbLine
 10
41.70000000000012
 20
-7.270749999999932
 30
0.0
 11
41.70000000000013
 21
-10.57274999999993
 31
0.0
  0
SOLID
  5
127
330
11E
100
AcDbEntity
  8
치수문자_일반주서
 62
     0
100
AcDbTrace
 10
41.14966666666673
 20
7.27075000000004
 30
0.0
 11
42.25033333333339
 21
7.270750000000044
 31
0.0
 12
41.70000000000007
 22
3.968750000000043
 32
0.0
 13
41.70000000000007
 23
3.968750000000043
 33
0.0
  0
SOLID
  5
128
330
11E
100
AcDbEntity
  8
치수문자_일반주서
 62
     0
100
AcDbTrace
 10
42.25033333333345
 20
-7.27074999999993
 30
0.0
 11
41.14966666666678
 21
-7.270749999999934
 31
0.0
 12
41.7000000000001
 22
-3.968749999999932
 32
0.0
 13
41.7000000000001
 23
-3.968749999999932
 33
0.0
  0
MTEXT
  5
129
330
11E
100
AcDbEntity
  8
치수문자_일반주서
 62
     0
100
AcDbMText
 10
37.325
 20
24.57275000000002
 30
0.0
 40
3.5
 41
0.0
 71
     2
 72
     1
  1
\A1;%%c7.94 [5/16]
  7
SLDTEXTSTYLE0
 11
-3.580687802255634E-15
 21
1.0
 31
0.0
 73
     1
 44
1.0
  0
POINT
  5
12A
330
11E
100
AcDbEntity
  8
Defpoints
 62
     0
100
AcDbPoint
 10
29.05000000000001
 20
3.968749999999998
 30
0.0
  0
POINT
  5
12B
330
11E
100
AcDbEntity
  8
Defpoints
 62
     0
100
AcDbPoint
 10
29.05000000000001
 20
-3.968749999999978
 30
0.0
  0
POINT
  5
18F
330
11E
100
AcDbEntity
  8
Defpoints
 62
     0
100
AcDbPoint
 10
41.70000000000011
 20
-3.968749999999931
 30
0.0
  0
ENDBLK
  5
120
330
11E
100
AcDbEntity
  8
0
100
AcDbBlockEnd
  0
BLOCK
  5
138
330
137
100
AcDbEntity
  8
0
100
AcDbBlockBegin
  2
SW_DOWELSYMBOL_0
 70
     0
 10
0.0
 20
0.0
 30
0.0
  3
SW_DOWELSYMBOL_0
  1

  0
CIRCLE
  5
13A
330
137
100
AcDbEntity
  8
해칭선
 62
     0
100
AcDbCircle
 10
0.0
 20
0.0
 30
0.0
 40
3.000000000000004
  0
HATCH
  5
13B
330
137
100
AcDbEntity
  8
0
  6
Continuous
 62
     0
370
     0
100
AcDbHatch
 10
0.0
 20
0.0
 30
0.0
210
0.0
220
0.0
230
1.0
  2
SOLID
 70
     1
 71
     0
 91
        1
 92
        0
 93
        3
 72
     2
 10
0.0000000000000069
 20
0.0
 40
3.000000000000004
 50
0.0
 51
90.0
 73
     1
 72
     1
 10
0.0000000000000069
 20
3.000000000000004
 11
0.0000000000000069
 21
0.0
 72
     1
 10
0.0000000000000069
 20
0.0
 11
3.000000000000012
 21
0.0
 97
        0
 75
     0
 76
     1
 98
        1
 10
0.0
 20
0.0
  0
HATCH
  5
13C
330
137
100
AcDbEntity
  8
0
  6
Continuous
 62
     0
370
     0
100
AcDbHatch
 10
0.0
 20
0.0
 30
0.0
210
0.0
220
0.0
230
1.0
  2
SOLID
 70
     1
 71
     0
 91
        1
 92
        0
 93
        3
 72
     2
 10
0.0000000000000069
 20
0.0
 40
3.000000000000004
 50
180.0
 51
270.0000000000008
 73
     1
 72
     1
 10
0.0000000000000069
 20
-3.000000000000004
 11
0.0000000000000069
 21
0.0
 72
     1
 10
0.0000000000000069
 20
0.0
 11
-2.999999999999997
 21
0.0
 97
        0
 75
     0
 76
     1
 98
        1
 10
0.0
 20
0.0
  0
ENDBLK
  5
139
330
137
100
AcDbEntity
  8
0
100
AcDbBlockEnd
  0
BLOCK
  5
1A0
330
19F
100
AcDbEntity
  8
0
100
AcDbBlockBegin
  2
*D8
 70
     1
 10
0.0
 20
0.0
 30
0.0
  3
*D8
  1

  0
LINE
  5
1A2
330
19F
100
AcDbEntity
  8
치수문자_일반주서
 62
     0
370
    -2
100
AcDbLine
 10
30.85180644571662
 20
-6.490749040152657
 30
0.0
 11
49.56336052545945
 21
-31.03652472907434
 31
0.0
  0
MTEXT
  5
1A3
330
19F
100
AcDbEntity
  8
치수문자_일반주서
 62
     0
100
AcDbMText
 10
43.29609737594993
 20
-18.48523438993789
 30
0.0
 40
3.5
 41
0.0
 71
     5
 72
     1
  1
\A1;R.51 [R0.020]
  7
SLDTEXTSTYLE0
 11
0.6062484109492406
 21
-0.7952753386227444
 31
0.0
 73
     1
 44
1.0
  0
LINE
  5
1A4
330
19F
100
AcDbEntity
  8
치수문자_일반주서
 62
     0
370
    -2
100
AcDbLine
 10
28.54200000000001
 20
-3.460750000000004
 30
0.0
 11
28.84997419276223
 21
-3.864749872020356
 31
0.0
  0
SOLID
  5
1A5
330
19F
100
AcDbEntity
  8
치수문자_일반주서
 62
     0
100
AcDbTrace
 10
31.28947297373867
 20
-6.157110331326925
 30
0.0
 11
30.41413991769457
 21
-6.824387748978389
 31
0.0
 12
28.84997419276223
 22
-3.864749872020356
 32
0.0
 13
28.84997419276223
 23
-3.864749872020356
 33
0.0
  0
POINT
  5
1A6
330
19F
100
AcDbEntity
  8
Defpoints
 62
     0
100
AcDbPoint
 10
28.84997419276223
 20
-3.864749872020356
 30
0.0
  0
POINT
  5
1A7
330
19F
100
AcDbEntity
  8
Defpoints
 62
     0
100
AcDbPoint
 10
28.54200000000001
 20
-3.460750000000004
 30
0.0
  0
ENDBLK
  5
1A1
330
19F
100
AcDbEntity
  8
0
100
AcDbBlockEnd
  0
BLOCK
  5
232
330
231
100
AcDbEntity
  8
0
100
AcDbBlockBegin
  2
*D11
 70
     1
 10
0.0
 20
0.0
 30
0.0
  3
*D11
  1

  0
LINE
  5
234
330
231
100
AcDbEntity
  8
치수문자_일반주서
 62
     0
370
    -2
100
AcDbLine
 10
64.00004186422878
 20
6.406559092676754
 30
0.0
 11
64.00004186422878
 21
39.68708616572358
 31
0.0
  0
LINE
  5
235
330
231
100
AcDbEntity
  8
치수문자_일반주서
 62
     0
370
    -2
100
AcDbLine
 10
90.00000000000001
 20
14.07010657646163
 30
0.0
 11
90.00000000000001
 21
39.68708616572358
 31
0.0
  0
LINE
  5
236
330
231
100
AcDbEntity
  8
치수문자_일반주서
 62
     0
370
    -2
100
AcDbLine
 10
67.30204186422878
 20
39.68708616572358
 30
0.0
 11
86.69800000000001
 21
39.68708616572358
 31
0.0
  0
SOLID
  5
237
330
231
100
AcDbEntity
  8
치수문자_일반주서
 62
     0
100
AcDbTrace
 10
67.30204186422878
 20
40.23741949905692
 30
0.0
 11
67.30204186422878
 21
39.13675283239025
 31
0.0
 12
64.00004186422878
 22
39.68708616572358
 32
0.0
 13
64.00004186422878
 23
39.68708616572358
 33
0.0
  0
SOLID
  5
238
330
231
100
AcDbEntity
  8
치수문자_일반주서
 62
     0
100
AcDbTrace
 10
86.69800000000001
 20
39.13675283239025
 30
0.0
 11
86.69800000000001
 21
40.23741949905692
 31
0.0
 12
90.00000000000001
 22
39.68708616572358
 32
0.0
 13
90.00000000000001
 23
39.68708616572358
 33
0.0
  0
MTEXT
  5
239
330
231
100
AcDbEntity
  8
치수문자_일반주서
 62
     0
100
AcDbMText
 10
77.04659572693204
 20
44.06208616572358
 30
0.0
 40
3.5
 41
0.0
 71
     2
 72
     1
  1
\A1;26 [1.02]
  7
SLDTEXTSTYLE0
 73
     1
 44
1.0
  0
POINT
  5
23A
330
231
100
AcDbEntity
  8
Defpoints
 62
     0
100
AcDbPoint
 10
64.00004186422878
 20
6.344059092676754
 30
0.0
  0
POINT
  5
23B
330
231
100
AcDbEntity
  8
Defpoints
 62
     0
100
AcDbPoint
 10
90.00000000000001
 20
14.00760657646163
 30
0.0
  0
POINT
  5
23C
330
231
100
AcDbEntity
  8
Defpoints
 62
     0
100
AcDbPoint
 10
90.00000000000001
 20
39.68708616572358
 30
0.0
  0
ENDBLK
  5
233
330
231
100
AcDbEntity
  8
0
100
AcDbBlockEnd
  0
BLOCK
  5
25B
330
25A
100
AcDbEntity
  8
0
100
AcDbBlockBegin
  2
*D12
 70
     1
 10
0.0
 20
0.0
 30
0.0
  3
*D12
  1

  0
LINE
  5
25D
330
25A
100
AcDbEntity
  8
치수문자_일반주서
 62
     0
370
    -2
100
AcDbLine
 10
141.0277254245174
 20
17.99328254328968
 30
0.0
 11
141.0277254245174
 21
51.27380961633651
 31
0.0
  0
LINE
  5
25E
330
25A
100
AcDbEntity
  8
치수문자_일반주서
 62
     0
370
    -2
100
AcDbLine
 10
167.0276835602887
 20
25.65683002707455
 30
0.0
 11
167.0276835602887
 21
51.27380961633651
 31
0.0
  0
LINE
  5
25F
330
25A
100
AcDbEntity
  8
치수문자_일반주서
 62
     0
370
    -2
100
AcDbLine
 10
144.3297254245174
 20
51.27380961633651
 30
0.0
 11
163.7256835602887
 21
51.27380961633651
 31
0.0
  0
SOLID
  5
260
330
25A
100
AcDbEntity
  8
치수문자_일반주서
 62
     0
100
AcDbTrace
 10
144.3297254245174
 20
51.82414294966984
 30
0.0
 11
144.3297254245174
 21
50.72347628300317
 31
0.0
 12
141.0277254245174
 22
51.27380961633651
 32
0.0
 13
141.0277254245174
 23
51.27380961633651
 33
0.0
  0
SOLID
  5
261
330
25A
100
AcDbEntity
  8
치수문자_일반주서
 62
     0
100
AcDbTrace
 10
163.7256835602887
 20
50.72347628300317
 30
0.0
 11
163.7256835602887
 21
51.82414294966984
 31
0.0
 12
167.0276835602887
 22
51.27380961633651
 32
0.0
 13
167.0276835602887
 23
51.27380961633651
 33
0.0
  0
MTEXT
  5
262
330
25A
100
AcDbEntity
  8
치수문자_일반주서
 62
     0
100
AcDbMText
 10
154.0742792872207
 20
55.64880961633651
 30
0.0
 40
3.5
 41
0.0
 71
     2
 72
     1
  1
\A1;26 [1.02]
  7
SLDTEXTSTYLE0
 73
     1
 44
1.0
  0
POINT
  5
263
330
25A
100
AcDbEntity
  8
Defpoints
 62
     0
100
AcDbPoint
 10
141.0277254245174
 20
17.93078254328968
 30
0.0
  0
POINT
  5
264
330
25A
100
AcDbEntity
  8
Defpoints
 62
     0
100
AcDbPoint
 10
167.0276835602887
 20
25.59433002707455
 30
0.0
  0
POINT
  5
265
330
25A
100
AcDbEntity
  8
Defpoints
 62
     0
100
AcDbPoint
 10
167.0276835602887
 20
51.27380961633651
 30
0.0
  0
ENDBLK
  5
25C
330
25A
100
AcDbEntity
  8
0
100
AcDbBlockEnd
  0
ENDSEC
  0
SECTION
  2
ENTITIES
  0
LINE
  5
96
330
1F
100
AcDbEntity
  8
0
  6
Continuous
 62
     1
370
    15
100
AcDbLine
 10
15.483946706929
 20
3.968749999999998
 30
0.0
 11
13.82236786421397
 21
3.968749999999998
 31
0.0
1001
PE_URL
1000

  0
LINE
  5
97
330
1F
100
AcDbEntity
  8
0
  6
Continuous
 62
     1
370
    15
100
AcDbLine
 10
28.22003776372721
 20
-3.96875
 30
0.0
 11
28.54200000000001
 21
-3.96875
 31
0.0
1001
PE_URL
1000

  0
LINE
  5
98
330
1F
100
AcDbEntity
  8
0
  6
Continuous
 62
     1
370
    15
100
AcDbLine
 10
21.02027692141582
 20
-3.96875
 30
0.0
 11
22.68270603449989
 21
-3.96875
 31
0.0
1001
PE_URL
1000

  0
LINE
  5
99
330
1F
100
AcDbEntity
  8
0
  6
Continuous
 62
     1
370
    15
100
AcDbLine
 10
22.6827060344999
 20
3.968749999999998
 30
0.0
 11
21.02027692141586
 21
3.968749999999998
 31
0.0
1001
PE_URL
1000

  0
LINE
  5
9A
330
1F
100
AcDbEntity
  8
0
  6
Continuous
 62
     1
370
    15
100
AcDbLine
 10
13.82236786421393
 20
-3.96875
 30
0.0
 11
15.48394670692895
 21
-3.96875
 31
0.0
1001
PE_URL
1000

  0
ARC
  5
9B
102
{ACAD_REACTORS
102
}
330
1F
100
AcDbEntity
  8
0
  6
Continuous
 62
     1
370
    15
100
AcDbCircle
 10
28.54200000000001
 20
-3.460750000000004
 30
0.0
 40
0.5079999999999969
100
AcDbArc
 50
270.0000000000008
 51
0.0
1001
PE_URL
1000

  0
ARC
  5
9C
330
1F
100
AcDbEntity
  8
0
  6
Continuous
 62
     1
370
    15
100
AcDbCircle
 10
28.54200000000001
 20
3.46075
 30
0.0
 40
0.5079999999999978
100
AcDbArc
 50
0.0
 51
90.0
1001
PE_URL
1000

  0
LINE
  5
9D
330
1F
100
AcDbEntity
  8
0
  6
Continuous
 62
     1
370
    15
100
AcDbLine
 10
28.54200000000001
 20
3.968749999999998
 30
0.0
 11
28.22003776372721
 21
3.968749999999998
 31
0.0
1001
PE_URL
1000

  0
LINE
  5
9E
330
1F
100
AcDbEntity
  8
외형선
  6
Continuous
370
    15
100
AcDbLine
 10
-33.65625
 20
-3.96875
 30
0.0
 11
9.749909009201717
 21
-3.96875
 31
0.0
  0
LINE
  5
9F
330
1F
100
AcDbEntity
  8
외형선
  6
Continuous
370
    15
100
AcDbLine
 10
9.749909009201717
 20
3.968749999999998
 30
0.0
 11
-33.65625
 21
3.968749999999998
 31
0.0
  0
LINE
  5
A0
330
1F
100
AcDbEntity
  8
외형선
  6
Continuous
370
    15
100
AcDbLine
 10
-33.65625
 20
3.968749999999998
 30
0.0
 11
-34.45
 21
3.175
 31
0.0
  0
LINE
  5
A1
330
1F
100
AcDbEntity
  8
외형선
  6
Continuous
370
    15
100
AcDbLine
 10
-34.45
 20
-3.175000000000003
 30
0.0
 11
-33.65625
 21
-3.96875
 31
0.0
  0
LINE
  5
A2
330
1F
100
AcDbEntity
  8
0
  6
Continuous
 62
     1
370
    15
100
AcDbLine
 10
29.05000000000001
 20
-1.375254987940752
 30
0.0
 11
29.05000000000001
 21
1.375254987940849
 31
0.0
1001
PE_URL
1000

  0
SPLINE
  5
A3
330
1F
100
AcDbEntity
  8
0
  6
Continuous
 62
     1
370
    15
100
AcDbSpline
210
0.0
220
0.0
230
1.0
 70
     8
 71
     3
 72
    14
 73
    10
 74
     0
 42
0.000000001
 43
0.00000001
 40
0.0
 40
0.0
 40
0.0
 40
0.0
 40
0.25
 40
0.25
 40
0.5
 40
0.5
 40
0.75
 40
0.75
 40
1.0
 40
1.0
 40
1.0
 40
1.0
 10
28.54200000000001
 20
-1.281231356840581
 30
0.0
 10
28.60557977478478
 20
-1.315927274853263
 30
0.0
 10
28.66597290200479
 20
-1.347354621135463
 30
0.0
 10
28.7821377253719
 20
-1.401764220821274
 30
0.0
 10
28.83672032541442
 20
-1.424076788536913
 30
0.0
 10
28.93272743373591
 20
-1.45094377854744
 30
0.0
 10
28.97463028522744
 20
-1.455395758839315
 30
0.0
 10
29.03372437628401
 20
-1.436074413562392
 30
0.0
 10
29.05000000000003
 20
-1.412115694464483
 30
0.0
 10
29.05000000000003
 20
-1.375254987940752
 30
0.0
1001
PE_URL
1000

  0
SPLINE
  5
A4
330
1F
100
AcDbEntity
  8
0
  6
Continuous
 62
     1
370
    15
100
AcDbSpline
210
0.0
220
0.0
230
1.0
 70
     8
 71
     3
 72
    17
 73
    13
 74
     0
 42
0.000000001
 43
0.00000001
 40
0.0
 40
0.0
 40
0.0
 40
0.0
 40
0.0769713750313625
 40
0.1763164377839019
 40
0.2757860293571952
 40
0.3752576797458491
 40
0.4793462719677556
 40
0.5834037897224779
 40
0.6874860249241014
 40
0.7916485460080661
 40
0.8958741810883681
 40
1.0
 40
1.0
 40
1.0
 40
1.0
 10
15.48394670692899
 20
3.956439916320647
 30
0.0
 10
15.81891725634858
 20
3.953189974577709
 30
0.0
 10
16.58622606448812
 20
3.945745412870365
 30
0.0
 10
17.78639867933679
 20
3.767530942646742
 30
0.0
 10
19.08498932676387
 20
3.45773377585832
 30
0.0
 10
20.40419742112924
 20
3.013731345309746
 30
0.0
 10
21.7430230554756
 20
2.450280820672833
 30
0.0
 10
23.10187259495439
 20
1.782526678125798
 30
0.0
 10
24.46109529876997
 20
1.04500600882422
 30
0.0
 10
25.82127455538827
 20
0.2676285731260026
 30
0.0
 10
27.18195066277276
 20
-0.5233559884722018
 30
0.0
 10
28.08879503669788
 20
-1.028686931349938
 30
0.0
 10
28.54200000000001
 20
-1.281231356840572
 30
0.0
1001
PE_URL
1000

  0
SPLINE
  5
A5
330
1F
100
AcDbEntity
  8
0
  6
Continuous
 62
     1
370
    15
100
AcDbSpline
210
0.0
220
0.0
230
1.0
 70
     8
 71
     3
 72
    15
 73
    11
 74
     0
 42
0.000000001
 43
0.00000001
 40
0.0
 40
0.0
 40
0.0
 40
0.0
 40
0.1258471644312023
 40
0.2518252137017851
 40
0.3776410023296088
 40
0.5033719553933422
 40
0.6291415592222621
 40
0.7550725976583376
 40
0.8809921488532616
 40
1.0
 40
1.0
 40
1.0
 40
1.0
 10
28.542
 20
1.821107489242525
 30
0.0
 10
28.10933645160456
 20
2.036818082705536
 30
0.0
 10
27.24355937169889
 20
2.468463615142288
 30
0.0
 10
25.94466967238976
 20
3.009930276108884
 30
0.0
 10
24.64679087324033
 20
3.44971350029377
 30
0.0
 10
23.34974454034849
 20
3.765266050423701
 30
0.0
 10
22.05227900020553
 20
3.948106845763155
 30
0.0
 10
20.75366155796738
 20
3.987595114480734
 30
0.0
 10
19.47833742923356
 20
3.897769029340394
 30
0.0
 10
18.63637500257927
 20
3.725815582856924
 30
0.0
 10
18.22727361913078
 20
3.642265069653313
 30
0.0
1001
PE_URL
1000

  0
SPLINE
  5
A6
330
1F
100
AcDbEntity
  8
0
  6
Continuous
 62
     1
370
    15
100
AcDbSpline
210
0.0
220
0.0
230
1.0
 70
     8
 71
     3
 72
    10
 73
     6
 74
     0
 42
0.000000001
 43
0.00000001
 40
0.0
 40
0.0
 40
0.0
 40
0.0
 40
0.5
 40
0.5
 40
1.0
 40
1.0
 40
1.0
 40
1.0
 10
29.05000000000001
 20
1.375254987940865
 30
0.0
 10
29.04999999999995
 20
1.446390080348784
 30
0.0
 10
28.98773694443081
 20
1.525027343432741
 30
0.0
 10
28.79335030345098
 20
1.680481702169
 30
0.0
 10
28.66515306469446
 20
1.758016849506157
 30
0.0
 10
28.54199999999998
 20
1.821107489242521
 30
0.0
1001
PE_URL
1000

  0
LINE
  5
A7
330
1F
100
AcDbEntity
  8
0
  6
Continuous
 62
     1
370
    15
100
AcDbLine
 10
29.05000000000001
 20
-3.437918062343667
 30
0.0
 11
29.05000000000001
 21
-2.062663074402902
 31
0.0
1001
PE_URL
1000

  0
SPLINE
  5
A8
330
1F
100
AcDbEntity
  8
0
  6
Continuous
 62
     1
370
    15
100
AcDbSpline
210
0.0
220
0.0
230
1.0
 70
     8
 71
     3
 72
    14
 73
    10
 74
     0
 42
0.000000001
 43
0.00000001
 40
0.0
 40
0.0
 40
0.0
 40
0.0
 40
0.25
 40
0.25
 40
0.5
 40
0.5
 40
0.75
 40
0.75
 40
1.0
 40
1.0
 40
1.0
 40
1.0
 10
28.54200000000001
 20
-3.893624605484753
 30
0.0
 10
28.6055797747848
 20
-3.900723553703949
 30
0.0
 10
28.6659729020048
 20
-3.89620910029518
 30
0.0
 10
28.78213772537193
 20
-3.864632765504734
 30
0.0
 10
28.83672032541442
 20
-3.837456906405938
 30
0.0
 10
28.9327274337359
 20
-3.75951705675597
 30
0.0
 10
28.97463028522743
 20
-3.707949582601838
 30
0.0
 10
29.03372437628401
 20
-3.583416853738229
 30
0.0
 10
29.05000000000003
 20
-3.511710304623731
 30
0.0
 10
29.05000000000003
 20
-3.437918062343667
 30
0.0
1001
PE_URL
1000

  0
SPLINE
  5
A9
330
1F
100
AcDbEntity
  8
0
  6
Continuous
 62
     1
370
    15
100
AcDbSpline
210
0.0
220
0.0
230
1.0
 70
     8
 71
     3
 72
    46
 73
    42
 74
     0
 42
0.000000001
 43
0.00000001
 40
0.0
 40
0.0
 40
0.0
 40
0.0
 40
0.0625000000000001
 40
0.0625000000000001
 40
0.1250000000000001
 40
0.1250000000000001
 40
0.1875000000000002
 40
0.1875000000000002
 40
0.2500000000000002
 40
0.2500000000000002
 40
0.3125000000000003
 40
0.3125000000000003
 40
0.3437500000000003
 40
0.3437500000000003
 40
0.3750000000000003
 40
0.3750000000000003
 40
0.4062500000000003
 40
0.4062500000000003
 40
0.4375000000000004
 40
0.4375000000000004
 40
0.5000000000000004
 40
0.5000000000000004
 40
0.5312500000000004
 40
0.5312500000000004
 40
0.5625000000000004
 40
0.5625000000000004
 40
0.6250000000000006
 40
0.6250000000000006
 40
0.6875000000000007
 40
0.6875000000000007
 40
0.7500000000000007
 40
0.7500000000000007
 40
0.8125000000000007
 40
0.8125000000000007
 40
0.8750000000000008
 40
0.8750000000000008
 40
0.9375000000000009
 40
0.9375000000000009
 40
0.9687500000000004
 40
0.9687500000000004
 40
1.0
 40
1.0
 40
1.0
 40
1.0
 10
28.54199999999998
 20
-3.89362460548479
 30
0.0
 10
28.15494914102065
 20
-3.850408755548388
 30
0.0
 10
27.76574866073237
 20
-3.788522007443672
 30
0.0
 10
26.99869793510108
 20
-3.63031041694496
 30
0.0
 10
26.60932265068832
 20
-3.533193998268223
 30
0.0
 10
25.835328089205
 20
-3.306747136223338
 30
0.0
 10
25.45262921792393
 20
-3.177769901791254
 30
0.0
 10
24.67759883136098
 20
-2.889903309423463
 30
0.0
 10
24.29148722807543
 20
-2.731715884240808
 30
0.0
 10
23.52162498412592
 20
-2.391424779240171
 30
0.0
 10
23.13192584924192
 20
-2.208391776224032
 30
0.0
 10
22.55260073776707
 20
-1.920270741587658
 30
0.0
 10
22.3612899237858
 20
-1.822148555469803
 30
0.0
 10
21.97576295070493
 20
-1.621341381313511
 30
0.0
 10
21.78194468679544
 20
-1.518715130112266
 30
0.0
 10
21.39425755382551
 20
-1.310088903469848
 30
0.0
 10
21.20039113409724
 20
-1.204090244134821
 30
0.0
 10
20.81467323904299
 20
-0.989865474328891
 30
0.0
 10
20.6234105693269
 20
-0.8817547063217674
 30
0.0
 10
20.04433412778883
 20
-0.5536904912671113
 30
0.0
 10
19.6546090081918
 20
-0.3306129884479772
 30
0.0
 10
19.07688840835016
 20
0.0034621036609532
 30
0.0
 10
18.88539780603681
 20
0.1147396315465167
 30
0.0
 10
18.4988950481036
 20
0.3374372993127414
 30
0.0
 10
18.3048611543853
 20
0.4486679096880844
 30
0.0
 10
17.72351178634073
 20
0.7802233974708942
 30
0.0
 10
17.34070695987925
 20
0.997706607883708
 30
0.0
 10
16.5669427985514
 20
1.422717958491742
 30
0.0
 10
16.17748962663156
 20
1.62990560699069
 30
0.0
 10
15.40990776063179
 20
2.024990592473854
 30
0.0
 10
15.02131436384742
 20
2.214682366797392
 30
0.0
 10
14.24700869445596
 20
2.570804905460834
 30
0.0
 10
13.86441348172514
 20
2.736852021271991
 30
0.0
 10
13.0895686879673
 20
3.042870791201056
 30
0.0
 10
12.70274441110146
 20
3.182036250305948
 30
0.0
 10
11.93355951894782
 20
3.428568061932182
 30
0.0
 10
11.54391605536661
 20
3.536648138475294
 30
0.0
 10
10.96424414459726
 20
3.672439307944542
 30
0.0
 10
10.77279891952587
 20
3.713279792799101
 30
0.0
 10
10.38757333850296
 20
3.786268296421788
 30
0.0
 10
10.1938352759513
 20
3.818393490230782
 30
0.0
 10
10.0
 20
3.845950313788212
 30
0.0
1001
PE_URL
1000

  0
SPLINE
  5
AA
330
1F
100
AcDbEntity
  8
0
  6
Continuous
 62
     1
370
    15
100
AcDbSpline
210
0.0
220
0.0
230
1.0
 70
     8
 71
     3
 72
    21
 73
    17
 74
     0
 42
0.000000001
 43
0.00000001
 40
0.0
 40
0.0
 40
0.0
 40
0.0
 40
0.0742446866685881
 40
0.1485665900462974
 40
0.2227927662724676
 40
0.2969688929810109
 40
0.3711678220622888
 40
0.4454619909678402
 40
0.519749382870319
 40
0.5939452605034831
 40
0.67166251396129
 40
0.7494083954148804
 40
0.8272243089964214
 40
0.9050523106179907
 40
0.9828052448514932
 40
1.0
 40
1.0
 40
1.0
 40
1.0
 10
28.54200000000001
 20
-2.143281230675152
 30
0.0
 10
28.10933645114037
 20
-1.925621482216071
 30
0.0
 10
27.24355937030576
 20
-1.490075612607306
 30
0.0
 10
25.94466967796615
 20
-0.7644240770162526
 30
0.0
 10
24.64679085236568
 20
-0.0163000720433895
 30
0.0
 10
23.34974461823522
 20
0.7336686526697009
 30
0.0
 10
22.05227870925647
 20
1.457338037505457
 30
0.0
 10
20.75366264530665
 20
2.128850680191493
 30
0.0
 10
19.45509855159013
 20
2.724795901437073
 30
0.0
 10
18.13709601812201
 20
3.232082724697686
 30
0.0
 10
16.79879143740771
 20
3.626233450464282
 30
0.0
 10
15.43936596735809
 20
3.884262844101815
 30
0.0
 10
14.0789524090251
 20
3.993905537199497
 30
0.0
 10
12.71842623221704
 20
3.936047670673136
 30
0.0
 10
11.71155356594067
 20
3.812096188807523
 30
0.0
 10
11.15826861192028
 20
3.66658544732705
 30
0.0
 10
11.05807028825749
 20
3.640233867972993
 30
0.0
1001
PE_URL
1000

  0
SPLINE
  5
AB
330
1F
100
AcDbEntity
  8
0
  6
Continuous
 62
     1
370
    15
100
AcDbSpline
210
0.0
220
0.0
230
1.0
 70
     8
 71
     3
 72
    10
 73
     6
 74
     0
 42
0.000000001
 43
0.00000001
 40
0.0
 40
0.0
 40
0.0
 40
0.0
 40
0.5
 40
0.5
 40
1.0
 40
1.0
 40
1.0
 40
1.0
 10
29.05000000000001
 20
-2.062663074402887
 30
0.0
 10
29.04999999999997
 20
-2.133934855563722
 30
0.0
 10
28.9877369444308
 20
-2.193883762929687
 30
0.0
 10
28.79335030345095
 20
-2.22893784797857
 30
0.0
 10
28.66515306469447
 20
-2.203043899578509
 30
0.0
 10
28.54199999999998
 20
-2.143281230675151
 30
0.0
1001
PE_URL
1000

  0
SPLINE
  5
AC
330
1F
100
AcDbEntity
  8
0
  6
Continuous
 62
     1
370
    15
100
AcDbSpline
210
0.0
220
0.0
230
1.0
 70
     8
 71
     3
 72
    19
 73
    15
 74
     0
 42
0.000000001
 43
0.00000001
 40
0.0
 40
0.0
 40
0.0
 40
0.0
 40
0.0839303266542634
 40
0.1679308731731503
 40
0.2520232452689802
 40
0.3360097451954961
 40
0.4199369356885352
 40
0.5038872379372091
 40
0.5879427717077261
 40
0.6720000452544025
 40
0.7599588077289338
 40
0.8478913111137819
 40
0.9358447016678654
 40
1.0
 40
1.0
 40
1.0
 40
1.0
 10
10.00000000000002
 20
1.074604919450965
 30
0.0
 10
10.43222693026085
 20
0.8305169218312324
 30
0.0
 10
11.29704241116143
 20
0.3421367116573997
 30
0.0
 10
12.59511458412278
 20
-0.4128703845390524
 30
0.0
 10
13.89399876929821
 20
-1.149746546212733
 30
0.0
 10
15.19191796465823
 20
-1.847260769900596
 30
0.0
 10
16.48897235767022
 20
-2.478733506725118
 30
0.0
 10
17.78640040978076
 20
-3.022235837673586
 30
0.0
 10
19.08498876345
 20
-3.458092729276025
 30
0.0
 10
20.40419795974286
 20
-3.775782470983686
 30
0.0
 10
21.74302141029485
 20
-3.958268811448205
 30
0.0
 10
23.10187860299972
 20
-3.984166160111061
 30
0.0
 10
24.33815675977001
 20
-3.883191993531826
 30
0.0
 10
25.12173728414454
 20
-3.709697490405052
 30
0.0
 10
25.45223018811077
 20
-3.636522238625652
 30
0.0
1001
PE_URL
1000

  0
SPLINE
  5
AD
330
1F
100
AcDbEntity
  8
외형선
  6
Continuous
370
    15
100
AcDbSpline
210
0.0
220
0.0
230
1.0
 70
    24
 71
     3
 72
    21
 73
    17
 74
     0
 42
0.000000001
 43
0.00000001
 40
0.0
 40
0.0
 40
0.0
 40
0.0
 40
0.0455650096404824
 40
0.1182743643104996
 40
0.1930922951916302
 40
0.2658016498616357
 40
0.3406195807427528
 40
0.4133289354127588
 40
0.4881468662938769
 40
0.5608562209639574
 40
0.6356741518450018
 40
0.7083835065149491
 40
0.7832014373960032
 40
0.8559107920660679
 40
0.9307287229472496
 40
1.0
 40
1.0
 40
1.0
 40
1.0
 10
9.999999999999988
 20
3.49956078090959
 30
0.0
 10
9.99999999999998
 20
3.456068802941128
 30
0.0
 10
9.999999999999973
 20
3.343175464666575
 30
0.0
 10
9.999999999999995
 20
3.136870538195055
 30
0.0
 10
10.00000000000001
 20
2.884727520838391
 30
0.0
 10
9.999999999999961
 20
2.618461523079523
 30
0.0
 10
10.00000000000003
 20
2.350973136298887
 30
0.0
 10
9.999999999999988
 20
2.084866242911166
 30
0.0
 10
10.00000000000001
 20
1.832501776859736
 30
0.0
 10
10.00000000000004
 20
1.596476082354345
 30
0.0
 10
9.99999999999998
 20
1.387697301221599
 30
0.0
 10
10.00000000000007
 20
1.20840446232569
 30
0.0
 10
9.999999999999995
 20
1.066571800046893
 30
0.0
 10
9.99999999999994
 20
0.9648869667252211
 30
0.0
 10
10.00000000000002
 20
0.9044503288201985
 30
0.0
 10
10.00000000000001
 20
0.9013652973786278
 30
0.0
 10
10.00000000000001
 20
0.8998821601557243
 30
0.0
  0
SPLINE
  5
AE
330
1F
100
AcDbEntity
  8
0
  6
Continuous
 62
     1
370
    15
100
AcDbSpline
210
0.0
220
0.0
230
1.0
 70
     8
 71
     3
 72
    21
 73
    17
 74
     0
 42
0.000000001
 43
0.00000001
 40
0.0
 40
0.0
 40
0.0
 40
0.0
 40
0.0535739072404658
 40
0.124892642606605
 40
0.1961195189234234
 40
0.267298368102338
 40
0.3384990982653616
 40
0.4097912198421543
 40
0.4810768382581456
 40
0.5522746402746787
 40
0.6268515278521153
 40
0.7014558866373988
 40
0.7761274477220519
 40
0.8508106083983277
 40
0.9254217349777797
 40
1.0
 40
1.0
 40
1.0
 40
1.0
 10
28.22003776372721
 20
-3.955572076791689
 30
0.0
 10
27.89468420439471
 20
-3.95311715295384
 30
0.0
 10
27.13621300265625
 20
-3.94739418180427
 30
0.0
 10
25.94466586766877
 20
-3.773143498435037
 30
0.0
 10
24.64679187201219
 20
-3.466305799035136
 30
0.0
 10
23.34974434495766
 20
-3.031637690096573
 30
0.0
 10
22.05227878282006
 20
-2.490314990077353
 30
0.0
 10
20.75366262474685
 20
-1.86052189397129
 30
0.0
 10
19.45509856022054
 20
-1.164685663615278
 30
0.0
 10
18.13709600379238
 20
-0.4152952157624312
 30
0.0
 10
16.79879148831614
 20
0.3615683479340995
 30
0.0
 10
15.43936577890813
 20
1.136285768473688
 30
0.0
 10
14.0789531126185
 20
1.867194317176735
 30
0.0
 10
12.71842360719012
 20
2.52259237114578
 30
0.0
 10
11.35885230504983
 20
3.089684712071407
 30
0.0
 10
10.452884249945
 20
3.362955488843374
 30
0.0
 10
10.0
 20
3.499560780909591
 30
0.0
1001
PE_URL
1000

  0
SPLINE
  5
AF
330
1F
100
AcDbEntity
  8
0
  6
Continuous
 62
     1
370
    15
100
AcDbSpline
210
0.0
220
0.0
230
1.0
 70
     8
 71
     3
 72
    14
 73
    10
 74
     0
 42
0.000000001
 43
0.00000001
 40
0.0
 40
0.0
 40
0.0
 40
0.0
 40
0.1576321461667684
 40
0.3153961744362939
 40
0.4733326631660996
 40
0.6310703100954108
 40
0.7886965661406442
 40
0.9463662290900043
 40
1.0
 40
1.0
 40
1.0
 40
1.0
 10
10.0
 20
-2.771345394337219
 30
0.0
 10
10.4322269484962
 20
-2.940558326124715
 30
0.0
 10
11.29704246588279
 20
-3.279125760805607
 30
0.0
 10
12.59511436492378
 20
-3.644141232385189
 30
0.0
 10
13.89399959183742
 20
-3.885861945690867
 30
0.0
 10
15.19191489918241
 20
-3.99018793335028
 30
0.0
 10
16.48898379124854
 20
-3.944265508984565
 30
0.0
 10
17.50055809350039
 20
-3.824765384676548
 30
0.0
 10
18.08015764856583
 20
-3.679210352953485
 30
0.0
 10
18.22727361913073
 20
-3.642265069653318
 30
0.0
1001
PE_URL
1000

  0
SPLINE
  5
B0
330
1F
100
AcDbEntity
  8
외형선
  6
Continuous
370
    15
100
AcDbSpline
210
0.0
220
0.0
230
1.0
 70
    24
 71
     3
 72
    22
 73
    18
 74
     0
 42
0.000000001
 43
0.00000001
 40
0.0
 40
0.0
 40
0.0
 40
0.0
 40
0.0504736834715322
 40
0.1191924320167803
 40
0.1899040289251793
 40
0.2586227774704279
 40
0.3293343743788279
 40
0.3980531229241469
 40
0.468764719832477
 40
0.5374834683776701
 40
0.6081950652860095
 40
0.6769138138313137
 40
0.7476254107397736
 40
0.8163441592848775
 40
0.8870557561934217
 40
0.9429995104314333
 40
1.0
 40
1.0
 40
1.0
 40
1.0
 10
10.00000000000001
 20
0.1286578850855915
 30
0.0
 10
10.00000000000001
 20
0.1185811263009976
 30
0.0
 10
10.00000000000002
 20
0.0947850943141581
 30
0.0
 10
9.999999999999968
 20
0.0055853446212544
 30
0.0
 10
10.00000000000002
 20
-0.1270793358975221
 30
0.0
 10
9.99999999999998
 20
-0.2998968471833945
 30
0.0
 10
10.00000000000001
 20
-0.5028433574265094
 30
0.0
 10
10.00000000000004
 20
-0.7343700067520634
 30
0.0
 10
9.999999999999995
 20
-0.9836109641245392
 30
0.0
 10
10.00000000000006
 20
-1.248037424994395
 30
0.0
 10
9.999999999999988
 20
-1.51539115643568
 30
0.0
 10
9.999999999999954
 20
-1.782934545196664
 30
0.0
 10
10.00000000000002
 20
-2.038222407264318
 30
0.0
 10
9.99999999999998
 20
-2.278834476096628
 30
0.0
 10
10.00000000000001
 20
-2.479710000944638
 30
0.0
 10
10.00000000000004
 20
-2.646371045820205
 30
0.0
 10
10.00000000000002
 20
-2.72942824334639
 30
0.0
 10
10.0
 20
-2.771345394337221
 30
0.0
  0
SPLINE
  5
B1
330
1F
100
AcDbEntity
  8
0
  6
Continuous
 62
     1
370
    15
100
AcDbSpline
210
0.0
220
0.0
230
1.0
 70
     8
 71
     3
 72
    16
 73
    12
 74
     0
 42
0.000000001
 43
0.00000001
 40
0.0
 40
0.0
 40
0.0
 40
0.0
 40
0.0241929365812616
 40
0.1420512475875708
 40
0.2597643695256096
 40
0.3830642188541563
 40
0.5064094870235583
 40
0.6298658624495939
 40
0.7533414157730386
 40
0.8766978733072479
 40
1.0
 40
1.0
 40
1.0
 40
1.0
 10
21.02027692141582
 20
-3.957220720112712
 30
0.0
 10
20.93139463738768
 20
-3.960798665366854
 30
0.0
 10
20.40951341423732
 20
-3.981806928892199
 30
0.0
 10
19.45508924630179
 20
-3.881867450795528
 30
0.0
 10
18.1370986302422
 20
-3.64955138259918
 30
0.0
 10
16.79879077055008
 20
-3.263967150966026
 30
0.0
 10
15.43936597145052
 20
-2.748551087772255
 30
0.0
 10
14.07895306101435
 20
-2.125112221586016
 30
0.0
 10
12.71842362093752
 20
-1.419275193806269
 30
0.0
 10
11.35885230161613
 20
-0.6573372704215507
 30
0.0
 10
10.4528842488006
 20
-0.1333020241255839
 30
0.0
 10
10.00000000000001
 20
0.1286578850855955
 30
0.0
1001
PE_URL
1000

  0
LINE
  5
B2
330
1F
100
AcDbEntity
  8
외형선
  6
Continuous
370
    15
100
AcDbLine
 10
10.00000000000002
 20
3.499560780909587
 30
0.0
 11
10.0
 21
3.845950313788209
 31
0.0
  0
LINE
  5
B3
330
1F
100
AcDbEntity
  8
외형선
  6
Continuous
370
    15
100
AcDbLine
 10
10.00000000000002
 20
0.1286578850855831
 30
0.0
 11
10.00000000000002
 21
1.074604919450969
 31
0.0
  0
LINE
  5
B4
330
1F
100
AcDbEntity
  8
0
  6
Continuous
 62
     1
370
    15
100
AcDbLine
 10
29.05000000000001
 20
-2.062663074402902
 30
0.0
 11
29.05000000000001
 21
-1.375254987940752
 31
0.0
1001
PE_URL
1000

  0
SPLINE
  5
B5
330
1F
100
AcDbEntity
  8
0
  6
Continuous
 62
     1
370
    15
100
AcDbSpline
210
0.0
220
0.0
230
1.0
 70
     8
 71
     3
 72
    14
 73
    10
 74
     0
 42
0.000000001
 43
0.00000001
 40
0.0
 40
0.0
 40
0.0
 40
0.0
 40
0.25
 40
0.25
 40
0.5
 40
0.5
 40
0.75
 40
0.75
 40
1.0
 40
1.0
 40
1.0
 40
1.0
 10
28.54200000000001
 20
2.612393248644134
 30
0.0
 10
28.6055797747848
 20
2.584796278850648
 30
0.0
 10
28.6659729020048
 20
2.548854479159679
 30
0.0
 10
28.78213772537191
 20
2.462868544683423
 30
0.0
 10
28.83672032541443
 20
2.41338011786899
 30
0.0
 10
28.93272743373593
 20
2.308573278208494
 30
0.0
 10
28.97463028522737
 20
2.252553823762489
 30
0.0
 10
29.03372437628396
 20
2.147342440175803
 30
0.0
 10
29.05000000000003
 20
2.099594610159213
 30
0.0
 10
29.05000000000003
 20
2.06266307440288
 30
0.0
1001
PE_URL
1000

  0
LINE
  5
B6
330
1F
100
AcDbEntity
  8
0
  6
Continuous
 62
     1
370
    15
100
AcDbLine
 10
29.05000000000001
 20
1.375254987940849
 30
0.0
 11
29.05000000000001
 21
2.06266307440288
 31
0.0
1001
PE_URL
1000

  0
SPLINE
  5
B7
330
1F
100
AcDbEntity
  8
0
  6
Continuous
 62
     1
370
    15
100
AcDbSpline
210
0.0
220
0.0
230
1.0
 70
     8
 71
     3
 72
    12
 73
     8
 74
     0
 42
0.000000001
 43
0.00000001
 40
0.0
 40
0.0
 40
0.0
 40
0.0
 40
0.0715335285568358
 40
0.3035012307910792
 40
0.5356478658817485
 40
0.7679351629084454
 40
0.9999999999999999
 40
0.9999999999999999
 40
0.9999999999999999
 40
0.9999999999999999
 10
22.6827060344999
 20
3.952217199307615
 30
0.0
 10
22.8223948826995
 20
3.956911615634219
 30
0.0
 10
23.41506433731308
 20
3.976829004888101
 30
0.0
 10
24.46109584359539
 20
3.854920448094248
 30
0.0
 10
25.82127440995119
 20
3.585939787159718
 30
0.0
 10
27.18195069910059
 20
3.173531536023365
 30
0.0
 10
28.08879504880325
 20
2.799379595373023
 30
0.0
 10
28.54199999999998
 20
2.612393248644188
 30
0.0
1001
PE_URL
1000

  0
SPLINE
  5
B8
330
1F
100
AcDbEntity
  8
0
  6
Continuous
 62
     1
370
    15
100
AcDbSpline
210
0.0
220
0.0
230
1.0
 70
     8
 71
     3
 72
    10
 73
     6
 74
     0
 42
0.000000001
 43
0.00000001
 40
0.0
 40
0.0
 40
0.0
 40
0.0
 40
0.4201563290460706
 40
0.8407496333223049
 40
1.0
 40
1.0
 40
1.0
 40
1.0
 10
28.54200000000001
 20
3.968749999999998
 30
0.0
 10
28.10934129340452
 20
3.960886402466028
 30
0.0
 10
27.24357390213437
 20
3.953878125047178
 30
0.0
 10
26.21330649748519
 20
3.826287229604338
 30
0.0
 10
25.61621700868636
 20
3.677410329798437
 30
0.0
 10
25.45223018811078
 20
3.63652223862565
 30
0.0
1001
PE_URL
1000

  0
LINE
  5
BA
330
1F
100
AcDbEntity
  8
0
  6
Continuous
 62
     1
370
    15
100
AcDbLine
 10
29.05000000000001
 20
2.055832200405593
 30
0.0
 11
29.05000000000001
 21
3.437918062343739
 31
0.0
1001
PE_URL
1000

  0
SPLINE
  5
BB
330
1F
100
AcDbEntity
  8
0
  6
Continuous
 62
     1
370
    15
100
AcDbSpline
210
0.0
220
0.0
230
1.0
 70
     8
 71
     3
 72
    10
 73
     6
 74
     0
 42
0.000000001
 43
0.00000001
 40
0.0
 40
0.0
 40
0.0
 40
0.0
 40
0.2888603693452314
 40
0.6445085051061981
 40
1.0
 40
1.0
 40
1.0
 40
1.0
 10
13.82236786421393
 20
-3.956883801233591
 30
0.0
 10
13.45424723919569
 20
-3.95143465511774
 30
0.0
 10
12.63289236013399
 20
-3.939276459013531
 30
0.0
 10
11.35885319356379
 20
-3.74440161869007
 30
0.0
 10
10.45288454607281
 20
-3.495384186639797
 30
0.0
 10
9.99999999999998
 20
-3.37090289582401
 30
0.0
1001
PE_URL
1000

  0
LINE
  5
BC
330
1F
100
AcDbEntity
  8
외형선
  6
Continuous
370
    15
100
AcDbLine
 10
10.00000000000002
 20
-3.370902895824017
 30
0.0
 11
10.0
 21
-2.771345394337221
 31
0.0
  0
LINE
  5
BD
330
1F
100
AcDbEntity
  8
0
  6
Continuous
 62
     1
370
    15
100
AcDbLine
 10
10.00000000000002
 20
-3.845950313788206
 30
0.0
 11
11.05807028825743
 21
-3.640233867972996
 31
0.0
1001
PE_URL
1000

  0
SPLINE
  5
BE
330
1F
100
AcDbEntity
  8
외형선
  6
Continuous
370
    15
100
AcDbSpline
210
0.0
220
0.0
230
1.0
 70
    24
 71
     3
 72
    10
 73
     6
 74
     0
 42
0.000000001
 43
0.00000001
 40
0.0
 40
0.0
 40
0.0
 40
0.0
 40
0.0140370352894899
 40
0.5024060563792875
 40
1.0
 40
1.0
 40
1.0
 40
1.0
 10
10.00000000000003
 20
-3.415320896947115
 30
0.0
 10
10.00000000000002
 20
-3.417208066480826
 30
0.0
 10
10.00000000000018
 20
-3.484752628676314
 30
0.0
 10
9.999999999999925
 20
-3.630035329588896
 30
0.0
 10
9.999999999999995
 20
-3.773531124560481
 30
0.0
 10
10.00000000000002
 20
-3.845950313788208
 30
0.0
  0
LINE
  5
BF
330
1F
100
AcDbEntity
  8
0
  6
Continuous
 62
     1
370
    15
100
AcDbLine
 10
29.05000000000001
 20
-3.460750000000075
 30
0.0
 11
29.05000000000001
 21
-3.437918062343667
 31
0.0
1001
PE_URL
1000

  0
LINE
  5
C0
330
1F
100
AcDbEntity
  8
0
  6
Continuous
 62
     1
370
    15
100
AcDbLine
 10
29.05000000000001
 20
3.437918062343739
 30
0.0
 11
29.05000000000001
 21
3.460750000000072
 31
0.0
1001
PE_URL
1000

  0
LINE
  5
C1
330
1F
100
AcDbEntity
  8
외형선
  6
Continuous
370
    15
100
AcDbLine
 10
9.749909009201717
 20
3.878964131884203
 30
0.0
 11
9.749909009201717
 21
3.968749999999998
 31
0.0
  0
SPLINE
  5
C2
330
1F
100
AcDbEntity
  8
외형선
  6
Continuous
370
    15
100
AcDbSpline
210
0.0
220
0.0
230
1.0
 70
     8
 71
     3
 72
     8
 73
     4
 74
     0
 42
0.000000001
 43
0.00000001
 40
0.0
 40
0.0
 40
0.0
 40
0.0
 40
1.0
 40
1.0
 40
1.0
 40
1.0
 10
10.00000000000002
 20
3.84595031378821
 30
0.0
 10
9.916626581349036
 20
3.857803195446977
 30
0.0
 10
9.833235464504327
 20
3.868812071066503
 30
0.0
 10
9.74990900920171
 20
3.878966544472914
 30
0.0
  0
SPLINE
  5
C3
330
1F
100
AcDbEntity
  8
외형선
  6
Continuous
370
    15
100
AcDbSpline
210
0.0
220
0.0
230
1.0
 70
     8
 71
     3
 72
     8
 73
     4
 74
     0
 42
0.000000001
 43
0.00000001
 40
0.0
 40
0.0
 40
0.0
 40
0.0
 40
1.0
 40
1.0
 40
1.0
 40
1.0
 10
10.00000000000001
 20
3.499560780909589
 30
0.0
 10
9.916626581349028
 20
3.522210058739534
 30
0.0
 10
9.83323546450432
 20
3.544092184937645
 30
0.0
 10
9.749909009201703
 20
3.565185982585277
 30
0.0
  0
LINE
  5
C4
330
1F
100
AcDbEntity
  8
외형선
  6
Continuous
370
    15
100
AcDbLine
 10
9.749909009201717
 20
1.212529268614855
 30
0.0
 11
9.749909009201717
 21
3.565189186882886
 31
0.0
  0
SPLINE
  5
C5
330
1F
100
AcDbEntity
  8
외형선
  6
Continuous
370
    15
100
AcDbSpline
210
0.0
220
0.0
230
1.0
 70
     8
 71
     3
 72
     8
 73
     4
 74
     0
 42
0.000000001
 43
0.00000001
 40
0.0
 40
0.0
 40
0.0
 40
0.0
 40
1.0
 40
1.0
 40
1.0
 40
1.0
 10
10.00000000000002
 20
1.074604919450965
 30
0.0
 10
9.916626581349036
 20
1.120831212800121
 30
0.0
 10
9.833235464504327
 20
1.166824712348248
 30
0.0
 10
9.74990900920171
 20
1.212540130016972
 30
0.0
  0
SPLINE
  5
C6
330
1F
100
AcDbEntity
  8
외형선
  6
Continuous
370
    15
100
AcDbSpline
210
0.0
220
0.0
230
1.0
 70
     8
 71
     3
 72
     8
 73
     4
 74
     0
 42
0.000000001
 43
0.00000001
 40
0.0
 40
0.0
 40
0.0
 40
0.0
 40
1.0
 40
1.0
 40
1.0
 40
1.0
 10
10.00000000000001
 20
0.1286578850855899
 30
0.0
 10
9.916626581349028
 20
0.1766527282018533
 30
0.0
 10
9.83323546450432
 20
0.2246226994949815
 30
0.0
 10
9.749909009201703
 20
0.272520442022894
 30
0.0
  0
SPLINE
  5
C7
330
1F
100
AcDbEntity
  8
외형선
  6
Continuous
370
    15
100
AcDbSpline
210
0.0
220
0.0
230
1.0
 70
     8
 71
     3
 72
     8
 73
     4
 74
     0
 42
0.000000001
 43
0.00000001
 40
0.0
 40
0.0
 40
0.0
 40
0.0
 40
1.0
 40
1.0
 40
1.0
 40
1.0
 10
10.00000000000002
 20
-2.771345394337225
 30
0.0
 10
9.916626581349036
 20
-2.736971982646836
 30
0.0
 10
9.833235464504327
 20
-2.701987358718236
 30
0.0
 10
9.74990900920171
 20
-2.666426414455923
 30
0.0
  0
SPLINE
  5
C8
330
1F
100
AcDbEntity
  8
외형선
  6
Continuous
370
    15
100
AcDbSpline
210
0.0
220
0.0
230
1.0
 70
     8
 71
     3
 72
     8
 73
     4
 74
     0
 42
0.000000001
 43
0.00000001
 40
0.0
 40
0.0
 40
0.0
 40
0.0
 40
1.0
 40
1.0
 40
1.0
 40
1.0
 10
10.00000000000001
 20
-3.370902895824014
 30
0.0
 10
9.916626581349028
 20
-3.345557330537694
 30
0.0
 10
9.83323546450432
 20
-3.319469485442678
 30
0.0
 10
9.749909009201703
 20
-3.292665540562397
 30
0.0
  0
LINE
  5
C9
330
1F
100
AcDbEntity
  8
외형선
  6
Continuous
370
    15
100
AcDbLine
 10
9.749909009201717
 20
-3.96875
 30
0.0
 11
9.749909009201717
 21
-3.292661468839676
 31
0.0
  0
SPLINE
  5
CA
330
1F
100
AcDbEntity
  8
외형선
  6
Continuous
370
    15
100
AcDbSpline
210
0.0
220
0.0
230
1.0
 70
     8
 71
     3
 72
     8
 73
     4
 74
     0
 42
0.000000001
 43
0.00000001
 40
0.0
 40
0.0
 40
0.0
 40
0.0
 40
1.0
 40
1.0
 40
1.0
 40
1.0
 10
10.00000000000002
 20
-3.845950313788206
 30
0.0
 10
9.916626581349036
 20
-3.857803195446973
 30
0.0
 10
9.833235464504327
 20
-3.8688120710665
 30
0.0
 10
9.74990900920171
 20
-3.878966544472911
 30
0.0
  0
LINE
  5
CB
330
1F
100
AcDbEntity
  8
외형선
  6
Continuous
370
    15
100
AcDbLine
 10
-33.65625
 20
-0.0000000000000016
 30
0.0
 11
-33.65625
 21
3.968749999999998
 31
0.0
  0
LINE
  5
CC
330
1F
100
AcDbEntity
  8
외형선
  6
Continuous
370
    15
100
AcDbLine
 10
-33.65625
 20
-3.96875
 30
0.0
 11
-33.65625
 21
-0.0000000000000016
 31
0.0
  0
LINE
  5
CD
330
1F
100
AcDbEntity
  8
외형선
  6
Continuous
370
    15
100
AcDbLine
 10
9.749909009201717
 20
-2.666434863269329
 30
0.0
 11
9.749909009201717
 21
0.2725277180432253
 31
0.0
  0
LINE
  5
CE
330
1F
100
AcDbEntity
  8
외형선
  6
Continuous
370
    15
100
AcDbLine
 10
-34.45
 20
-0.0000000000000016
 30
0.0
 11
-34.45
 21
3.175
 31
0.0
  0
LINE
  5
CF
330
1F
100
AcDbEntity
  8
외형선
  6
Continuous
370
    15
100
AcDbLine
 10
-34.45
 20
-3.175000000000003
 30
0.0
 11
-34.45
 21
-0.0000000000000016
 31
0.0
  0
SPLINE
  5
D0
330
1F
100
AcDbEntity
  8
외형선
  6
Continuous
370
    15
100
AcDbSpline
210
0.0
220
0.0
230
1.0
 70
    24
 71
     3
 72
    21
 73
    17
 74
     0
 42
0.000000001
 43
0.00000001
 40
0.0
 40
0.0
 40
0.0
 40
0.0
 40
0.0960102405107741
 40
0.1650825308277448
 40
0.2361579222431939
 40
0.3052302125601526
 40
0.3763056039755915
 40
0.4453778942925676
 40
0.5164532857080395
 40
0.5855255760250099
 40
0.6566009674404619
 40
0.7256732577574321
 40
0.7967486491728845
 40
0.8658209394898347
 40
0.9368963309052644
 40
1.0
 40
1.0
 40
1.0
 40
1.0
 10
10.00000000000002
 20
-2.771345394337223
 30
0.0
 10
10.00000000000003
 20
-2.698326350250736
 30
0.0
 10
10.00000000000005
 20
-2.572775486798131
 30
0.0
 10
10.00000000000002
 20
-2.336252517681705
 30
0.0
 10
10.00000000000006
 20
-2.104220967949881
 30
0.0
 10
9.999999999999961
 20
-1.850196411750579
 30
0.0
 10
10.00000000000004
 20
-1.586984370503897
 30
0.0
 10
10.00000000000001
 20
-1.31701804063364
 30
0.0
 10
9.999999999999995
 20
-1.052870793220662
 30
0.0
 10
10.00000000000003
 20
-0.7972518143576139
 30
0.0
 10
10.00000000000001
 20
-0.5619770764285628
 30
0.0
 10
9.999999999999988
 20
-0.349564887614755
 30
0.0
 10
10.00000000000011
 20
-0.1694976849263899
 30
0.0
 10
9.999999999999973
 20
-0.0249525145135241
 30
0.0
 10
10.00000000000004
 20
0.079239674698672
 30
0.0
 10
10.00000000000002
 20
0.1128507721074021
 30
0.0
 10
10.00000000000001
 20
0.128657885085591
 30
0.0
  0
SPLINE
  5
D1
330
1F
100
AcDbEntity
  8
외형선
  6
Continuous
370
    15
100
AcDbSpline
210
0.0
220
0.0
230
1.0
 70
    24
 71
     3
 72
    21
 73
    17
 74
     0
 42
0.000000001
 43
0.00000001
 40
0.0
 40
0.0
 40
0.0
 40
0.0
 40
0.0493529436025417
 40
0.1232445816530765
 40
0.1971362197036112
 40
0.2710278577541726
 40
0.3449194958047339
 40
0.4188111338552817
 40
0.4927027719058295
 40
0.5665944099563772
 40
0.6404860480069251
 40
0.7143776860574506
 40
0.7882693241079759
 40
0.8621609621585464
 40
0.9360526002091166
 40
1.0
 40
1.0
 40
1.0
 40
1.0
 10
10.00000000000004
 20
0.9038739821195302
 30
0.0
 10
10.00000000000004
 20
0.9026204647028504
 30
0.0
 10
10.00000000000004
 20
0.8994901705737365
 30
0.0
 10
10.0
 20
0.9466857064239438
 30
0.0
 10
10.00000000000002
 20
1.036050795835587
 30
0.0
 10
10.00000000000001
 20
1.169163613316997
 30
0.0
 10
9.999999999999988
 20
1.338419686798452
 30
0.0
 10
10.0
 20
1.541046760567434
 30
0.0
 10
10.00000000000002
 20
1.769911741131755
 30
0.0
 10
10.00000000000002
 20
2.019528221718515
 30
0.0
 10
10.00000000000009
 20
2.282119793489717
 30
0.0
 10
10.00000000000002
 20
2.550581601949365
 30
0.0
 10
10.00000000000001
 20
2.817380939755898
 30
0.0
 10
10.00000000000002
 20
3.074077227604207
 30
0.0
 10
10.00000000000001
 20
3.305427892181388
 30
0.0
 10
10.00000000000001
 20
3.438038839228464
 30
0.0
 10
9.999999999999995
 20
3.499560780909609
 30
0.0
  0
SPLINE
  5
D2
330
1F
100
AcDbEntity
  8
외형선
  6
Continuous
370
    15
100
AcDbSpline
210
0.0
220
0.0
230
1.0
 70
    24
 71
     3
 72
    10
 73
     6
 74
     0
 42
0.000000001
 43
0.00000001
 40
0.0
 40
0.0
 40
0.0
 40
0.0
 40
0.4134416027151133
 40
0.8324654921952076
 40
0.9999999999999999
 40
0.9999999999999999
 40
0.9999999999999999
 40
0.9999999999999999
 10
10.00000000000002
 20
-3.845950313788208
 30
0.0
 10
10.0
 20
-3.785447236176483
 30
0.0
 10
9.999999999999988
 20
-3.663624168655928
 30
0.0
 10
10.00000000000007
 20
-3.518322052028255
 30
0.0
 10
10.00000000000002
 20
-3.438196569320427
 30
0.0
 10
10.00000000000003
 20
-3.415310896947114
 30
0.0
  0
LINE
  5
D3
330
1F
100
AcDbEntity
  8
중심선
 48
0.8
100
AcDbLine
 10
-37.45000000000001
 20
-0.000000000000002
 30
0.0
 11
32.05
 21
0.0000000000000026
 31
0.0
1001
PE_URL
1000

  0
LINE
  5
D4
330
1F
100
AcDbEntity
  8
참조1
100
AcDbLine
 10
-2.700000000000008
 20
0.0010749287238892
 30
0.0
 11
-2.700000000000003
 21
-39.99892507127611
 31
0.0
  0
LINE
  5
D5
330
1F
100
AcDbEntity
  8
참조1
100
AcDbLine
 10
-2.700000000000003
 20
-39.99892507127611
 30
0.0
 11
-21.03385681430867
 21
-39.9989250712761
 31
0.0
  0
INSERT
  5
D7
330
1F
100
AcDbEntity
  8
0
  6
Continuous
 62
     7
100
AcDbBlockReference
 66
     1
  2
블럭10
 10
-16.64027293212521
 20
-52.04609937292004
 30
0.0
  0
ATTRIB
  5
D8
330
D7
100
AcDbEntity
  8
FORMAT
 62
     2
100
AcDbText
 10
-27.3463537544139
 20
-49.97073246008785
 30
0.0
 40
4.233333333333333
  1
G8C51020 [ 6 FLUTE ]
 41
0.75
  7
SLDTEXTSTYLE0
 11
-27.3463537544139
 21
-52.08739912675452
 31
0.0
100
AcDbAttribute
  2
AUTOATTR0
 70
     0
 74
     1
  0
SEQEND
  5
D9
330
D7
100
AcDbEntity
  8
0
  6
Continuous
 62
     7
  0
HATCH
  5
DA
330
1F
100
AcDbEntity
  8
중심선
100
AcDbHatch
 10
0.0
 20
0.0
 30
0.0
210
0.0
220
0.0
230
1.0
  2
SOLID
 70
     1
 71
     0
 91
        1
 92
        0
 93
        4
 72
     1
 10
-10.92536362774438
 20
-35.7989250712761
 11
-14.37163887158166
 21
-35.7989250712761
 72
     1
 10
-14.37163887158166
 20
-35.7989250712761
 11
-16.49986873078568
 21
-38.3352506518487
 72
     1
 10
-16.49986873078568
 20
-38.3352506518487
 11
-13.05356040183525
 21
-38.33521122254621
 72
     1
 10
-13.05356040183525
 20
-38.33521122254621
 11
-10.92536362774438
 21
-35.7989250712761
 97
        0
 75
     0
 76
     1
 98
        1
 10
0.0
 20
0.0
  0
HATCH
  5
DB
330
1F
100
AcDbEntity
  8
중심선
100
AcDbHatch
 10
0.0
 20
0.0
 30
0.0
210
0.0
220
0.0
230
1.0
  2
SOLID
 70
     1
 71
     0
 91
        1
 92
        0
 93
        4
 72
     1
 10
-5.912599636708399
 20
-35.7989250712761
 11
-9.358874880545681
 21
-35.7989250712761
 72
     1
 10
-9.358874880545681
 20
-35.7989250712761
 11
-13.8900128889031
 21
-41.19892507127612
 72
     1
 10
-13.8900128889031
 20
-41.19892507127612
 11
-10.44373764506581
 21
-41.19892507127612
 72
     1
 10
-10.44373764506581
 20
-41.19892507127612
 11
-5.912599636708399
 21
-35.7989250712761
 97
        0
 75
     0
 76
     1
 98
        1
 10
0.0
 20
0.0
  0
HATCH
  5
DC
330
1F
100
AcDbEntity
  8
중심선
100
AcDbHatch
 10
0.0
 20
0.0
 30
0.0
210
0.0
220
0.0
230
1.0
  2
SOLID
 70
     1
 71
     0
 91
        1
 92
        0
 93
        4
 72
     1
 10
-0.8998356456725309
 20
-35.7989250712761
 11
-4.346110889509619
 21
-35.7989250712761
 72
     1
 10
-4.346110889509619
 20
-35.7989250712761
 11
-11.3945477913989
 21
-44.19892507127612
 72
     1
 10
-11.3945477913989
 20
-44.19892507127612
 11
-7.948272547561613
 21
-44.19892507127612
 72
     1
 10
-7.948272547561613
 20
-44.19892507127612
 11
-0.8998356456725309
 21
-35.7989250712761
 97
        0
 75
     0
 76
     1
 98
        1
 10
0.0
 20
0.0
  0
HATCH
  5
DD
330
1F
100
AcDbEntity
  8
중심선
100
AcDbHatch
 10
0.0
 20
0.0
 30
0.0
210
0.0
220
0.0
230
1.0
  2
SOLID
 70
     1
 71
     0
 91
        1
 92
        0
 93
        6
 72
     3
 10
3.900054785339668
 20
-39.99892507132738
 11
3.960054785062284
 21
1.540850780301639E-10
 40
0.3939339440162633
 50
17.09539180608434
 51
320.0019657685074
 73
     0
 72
     1
 10
5.583054441040264
 20
-38.58681907591438
 11
7.88835631474133
 21
-36.65249236586646
 72
     3
 10
3.900054785286822
 20
-39.99892507127625
 11
6.600054785286829
 21
-1.249000902703301E-13
 40
0.6363583540795982
 50
39.99873849337411
 51
368.4976242363725
 73
     1
 72
     1
 10
10.32538727718743
 20
-39.03892507120613
 11
2.580122092122744
 21
-39.03892507120613
 72
     1
 10
2.580122092122744
 20
-39.03892507120613
 11
2.58009704767681
 21
-40.95892507120602
 72
     1
 10
2.58009704767681
 20
-40.95892507120602
 11
7.021476817148847
 21
-40.95892507120599
 97
        0
 75
     0
 76
     1
 98
        1
 10
0.0
 20
0.0
  0
DIMENSION
  5
DE
330
1F
100
AcDbEntity
  8
치수문자_일반주서
100
AcDbDimension
  2
_D
 10
10.00000000000002
 20
14.48966617116924
 30
0.0
 11
19.52500000000001
 21
14.48966617116924
 31
0.0
 70
   160
  1
<>
 71
     2
 42
19.05
  3
SLDDIMSTYLE0
100
AcDbAlignedDimension
 13
29.05000000000001
 23
3.968749999999998
 33
0.0
 14
10.00000000000002
 24
3.845950313788212
 34
0.0
100
AcDbRotatedDimension
1001
PE_URL
1000

1001
ACAD
1000
DSTYLE
1002
{
1070
   171
1070
     6
1070
   273
1070
     7
1002
}
  0
DIMENSION
  5
F4
330
1F
100
AcDbEntity
  8
치수문자_일반주서
100
AcDbDimension
  2
_D_1
 10
-34.45
 20
28.90315070344566
 30
0.0
 11
-2.699999999999994
 21
28.90315070344566
 31
0.0
 70
   160
  1
<>
 71
     2
 42
63.50000000000001
  3
SLDDIMSTYLE0
100
AcDbAlignedDimension
 13
29.05000000000001
 23
3.968749999999998
 33
0.0
 14
-34.45
 24
3.175
 34
0.0
 50
0.0000000000000064
100
AcDbRotatedDimension
1001
PE_URL
1000

1001
ACAD
1000
DSTYLE
1002
{
1070
   171
1070
     6
1070
   273
1070
     7
1002
}
  0
DIMENSION
  5
108
330
1F
100
AcDbEntity
  8
치수문자_일반주서
100
AcDbDimension
  2
_D_2
 10
-47.29124999999998
 20
-3.968750000000046
 30
0.0
 11
-47.29124999999999
 21
-0.0000000000000085
 31
0.0
 70
   160
  1
%%c<>
 71
     2
 42
7.937499999999986
 52
-270.0
  3
SLDDIMSTYLE0
100
AcDbAlignedDimension
 13
-33.65624999999999
 23
3.968749999999991
 33
0.0
 14
-33.65624999999999
 24
-3.968749999999995
 34
0.0
 50
90.0000000000002
100
AcDbRotatedDimension
1001
ACAD
1000
DSTYLE
1002
{
1070
   171
1070
     6
1070
   273
1070
     7
1002
}
  0
DIMENSION
  5
11C
330
1F
100
AcDbEntity
  8
치수문자_일반주서
100
AcDbDimension
  2
_D_3
 10
41.7000000000001
 20
-3.968749999999932
 30
0.0
 11
41.7
 21
24.57275000000004
 31
0.0
 70
   160
  1
%%c<>
 71
     2
 42
7.937499999999977
 52
-270.0
  3
SLDDIMSTYLE0
100
AcDbAlignedDimension
 13
29.05000000000001
 23
3.968749999999998
 33
0.0
 14
29.05000000000001
 24
-3.968749999999978
 34
0.0
 50
90.0000000000002
100
AcDbRotatedDimension
1001
PE_URL
1000

1001
ACAD
1000
DSTYLE
1002
{
1070
   171
1070
     6
1070
   273
1070
     7
1002
}
  0
LINE
  5
130
330
1F
100
AcDbEntity
  8
참조1
100
AcDbLine
 10
76.93848381534559
 20
7.441074928723896
 30
0.0
 11
76.93848381534559
 21
-7.438925071276109
 31
0.0
  0
LINE
  5
131
330
1F
100
AcDbEntity
  8
참조1
100
AcDbLine
 10
89.6384838153456
 20
5.441074928723896
 30
0.0
 11
76.93848381534559
 21
5.441074928723896
 31
0.0
  0
SOLID
  5
132
330
1F
100
AcDbEntity
  8
참조1
100
AcDbTrace
 10
76.93848381534559
 20
5.441074928723896
 30
0.0
 11
83.28848381534559
 21
4.425074928723896
 31
0.0
 12
83.28848381534559
 22
6.457074928723896
 32
0.0
 13
83.28848381534559
 23
6.457074928723896
 33
0.0
  0
LINE
  5
133
330
1F
100
AcDbEntity
  8
참조1
100
AcDbLine
 10
89.6384838153456
 20
-5.438925071276109
 30
0.0
 11
76.93848381534559
 21
-5.438925071276109
 31
0.0
  0
SOLID
  5
134
330
1F
100
AcDbEntity
  8
참조1
100
AcDbTrace
 10
76.93848381534559
 20
-5.438925071276109
 30
0.0
 11
83.28848381534559
 21
-6.454925071276109
 31
0.0
 12
83.28848381534559
 22
-4.422925071276109
 32
0.0
 13
83.28848381534559
 23
-4.422925071276109
 33
0.0
  0
MTEXT
  5
135
330
1F
100
AcDbEntity
  8
참조1
100
AcDbMText
 10
86.33597390781587
 20
10.98929157337383
 30
0.0
 40
3.5
 41
0.0
 71
     1
 72
     1
  1
A
  7
SLDTEXTSTYLE0
 73
     1
 44
1.0
  0
MTEXT
  5
136
330
1F
100
AcDbEntity
  8
참조1
100
AcDbMText
 10
86.33597390781587
 20
0.1092915733738259
 30
0.0
 40
3.5
 41
0.0
 71
     1
 72
     1
  1
A
  7
SLDTEXTSTYLE0
 73
     1
 44
1.0
  0
ARC
  5
199
330
1F
100
AcDbEntity
  8
0
  6
Continuous
 62
     1
370
    15
100
AcDbCircle
 10
28.54200000000001
 20
3.460749999999998
 30
0.0
 40
0.508
100
AcDbArc
 50
358.7005522578921
 51
92.06669788857356
1001
PE_URL
1000

  0
DIMENSION
  5
19C
102
{ACAD_REACTORS
102
}
102
{ACAD_XDICTIONARY
360
19D
102
}
330
1F
100
AcDbEntity
  8
치수문자_일반주서
100
AcDbDimension
  2
*D8
 10
28.54200000000001
 20
-3.460750000000004
 30
0.0
 11
41.20849961206523
 21
-20.07663646867965
 31
0.0
 70
   164
 71
     5
 42
0.507999999999998
  3
SLDDIMSTYLE0
100
AcDbRadialDimension
 15
28.84997419276223
 25
-3.864749872020356
 35
0.0
 40
0.0
1001
ACAD_DSTYLE_DIMRADIAL_EXTENSION
1070
   387
1070
     1
1070
   388
1040
4.712388980384704
1070
   390
1040
0.0
1001
PE_URL
1000

1001
ACAD
1000
DSTYLE
1002
{
1070
   171
1070
     3
1002
}
  0
INSERT
  5
259
330
1F
100
AcDbEntity
  8
외형선
 62
     3
100
AcDbBlockReference
  2
SW_DOWELSYMBOL_0
 10
0.0
 20
0.0
 30
0.0
  0
ENDSEC
  0
SECTION
  2
OBJECTS
  0
DICTIONARY
  5
C
330
0
100
AcDbDictionary
281
     1
  3
ACAD_DETAILVIEWSTYLE
350
197
  3
ACAD_GROUP
350
D
  3
ACAD_LAYOUT
350
1A
  3
ACAD_MLINESTYLE
350
17
  3
ACAD_PLOTSETTINGS
350
19
  3
ACAD_PLOTSTYLENAME
350
E
  3
ACAD_SCALELIST
350
47
  3
ACAD_SECTIONVIEWSTYLE
350
198
  3
AcDbVariableDictionary
350
192
  3
APPDATA
350
15F
  3
DWGPROPS
350
268
  0
DICTIONARY
  5
186
330
2
100
AcDbDictionary
280
     1
281
     1
  3
ACAD_LAYERSTATES
360
187
  0
DICTIONARY
  5
19D
330
19C
100
AcDbDictionary
280
     1
281
     1
  0
DICTIONARY
  5
197
102
{ACAD_REACTORS
330
C
102
}
330
C
100
AcDbDictionary
281
     1
  0
DICTIONARY
  5
D
102
{ACAD_REACTORS
330
C
102
}
330
C
100
AcDbDictionary
281
     1
  0
DICTIONARY
  5
1A
102
{ACAD_REACTORS
330
C
102
}
330
C
100
AcDbDictionary
281
     1
  3
Layout1
350
1E
  3
Layout2
350
26
  3
Model
350
22
  0
DICTIONARY
  5
17
102
{ACAD_REACTORS
330
C
102
}
330
C
100
AcDbDictionary
281
     1
  3
Standard
350
18
  0
DICTIONARY
  5
19
102
{ACAD_REACTORS
330
C
102
}
330
C
100
AcDbDictionary
281
     1
  0
ACDBDICTIONARYWDFLT
  5
E
102
{ACAD_REACTORS
330
C
102
}
330
C
100
AcDbDictionary
281
     1
  3
Normal
350
F
100
AcDbDictionaryWithDefault
340
F
  0
DICTIONARY
  5
47
102
{ACAD_REACTORS
330
C
102
}
330
C
100
AcDbDictionary
281
     1
  3
A0
350
48
  3
A1
350
49
  3
A2
350
4A
  3
A3
350
4B
  3
A4
350
4C
  3
A5
350
4D
  3
A6
350
4E
  3
A7
350
4F
  3
A8
350
50
  3
A9
350
51
  3
B0
350
52
  3
B1
350
53
  3
B2
350
54
  3
B3
350
55
  3
B4
350
56
  3
B5
350
57
  3
B6
350
58
  3
B7
350
59
  3
B8
350
5A
  3
B9
350
5B
  3
C0
350
5C
  3
C1
350
5D
  3
C2
350
5E
  3
C3
350
5F
  3
C4
350
60
  3
C5
350
61
  3
C6
350
62
  3
C7
350
63
  3
C8
350
64
  3
C9
350
65
  3
D0
350
66
  3
D1
350
67
  3
D2
350
68
  0
DICTIONARY
  5
198
102
{ACAD_REACTORS
330
C
102
}
330
C
100
AcDbDictionary
281
     1
  0
DICTIONARY
  5
192
102
{ACAD_REACTORS
330
C
102
}
330
C
100
AcDbDictionary
281
     1
  0
DICTIONARY
  5
15F
102
{ACAD_REACTORS
330
C
102
}
330
C
100
AcDbDictionary
281
     1
  0
XRECORD
  5
268
102
{ACAD_REACTORS
330
C
102
}
330
C
100
AcDbXrecord
280
     1
  1
DWGPROPS COOKIE
  2

  3

  4

  6

  7

  8
박수민
  9

300
=
301
=
302
=
303
=
304
=
305
=
306
=
307
=
308
=
309
=
 40
0.0
 41
2458295.126230995
 42
2458295.566176748
  1

 90
        0
  0
DICTIONARY
  5
187
102
{ACAD_REACTORS
330
186
102
}
330
186
100
AcDbDictionary
281
     1
  0
LAYOUT
  5
1E
102
{ACAD_REACTORS
330
1A
102
}
330
1A
100
AcDbPlotSettings
  1

  2
none_device
  4

  6

 40
0.0
 41
0.0
 42
0.0
 43
0.0
 44
0.0
 45
0.0
 46
0.0
 47
0.0
 48
0.0
 49
0.0
140
0.0
141
0.0
142
1.0
143
1.0
 70
   688
 72
     1
 73
     0
 74
     5
  7

 75
    16
147
1.0
148
0.0
149
0.0
100
AcDbLayout
  1
Layout1
 70
     1
 71
     1
 10
0.0
 20
0.0
 11
420.0
 21
297.0
 12
0.0
 22
0.0
 32
0.0
 14
1.000000000000000E+20
 24
1.000000000000000E+20
 34
1.000000000000000E+20
 15
-1.000000000000000E+20
 25
-1.000000000000000E+20
 35
-1.000000000000000E+20
146
0.0
 13
0.0
 23
0.0
 33
0.0
 16
1.0
 26
0.0
 36
0.0
 17
0.0
 27
1.0
 37
0.0
 76
     0
330
1B
  0
LAYOUT
  5
26
102
{ACAD_REACTORS
330
1A
102
}
330
1A
100
AcDbPlotSettings
  1

  2
none_device
  4

  6

 40
0.0
 41
0.0
 42
0.0
 43
0.0
 44
0.0
 45
0.0
 46
0.0
 47
0.0
 48
0.0
 49
0.0
140
0.0
141
0.0
142
1.0
143
1.0
 70
   688
 72
     1
 73
     0
 74
     5
  7

 75
    16
147
1.0
148
0.0
149
0.0
100
AcDbLayout
  1
Layout2
 70
     1
 71
     2
 10
0.0
 20
0.0
 11
0.0
 21
0.0
 12
0.0
 22
0.0
 32
0.0
 14
0.0
 24
0.0
 34
0.0
 15
0.0
 25
0.0
 35
0.0
146
0.0
 13
0.0
 23
0.0
 33
0.0
 16
1.0
 26
0.0
 36
0.0
 17
0.0
 27
1.0
 37
0.0
 76
     0
330
23
  0
LAYOUT
  5
22
102
{ACAD_REACTORS
330
1A
102
}
330
1A
100
AcDbPlotSettings
  1

  2
none_device
  4
ANSI_A_(11.00_x_8.50_Inches)
  6

 40
6.35
 41
19.05
 42
6.35000508
 43
19.05000254
 44
279.4
 45
215.9
 46
103.8077263413128
 47
99.21504671240693
 48
0.0
 49
0.0
140
0.0
141
0.0
142
0.0737192471229029
143
1.0
 70
  1696
 72
     0
 73
     0
 74
     0
  7

 75
     0
147
0.0235690232323232
148
0.0
149
0.0
100
AcDbLayout
  1
Model
 70
     1
 71
     0
 10
0.0
 20
0.0
 11
420.0
 21
297.0
 12
0.0
 22
0.0
 32
0.0
 14
-51.66625000000003
 24
-49.97073246008785
 34
0.0
 15
89.6384838153456
 25
38.57275000000004
 35
0.0
146
0.0
 13
0.0
 23
0.0
 33
0.0
 16
1.0
 26
0.0
 36
0.0
 17
0.0
 27
1.0
 37
0.0
 76
     0
330
1F
331
29
  0
MLINESTYLE
  5
18
102
{ACAD_REACTORS
330
17
102
}
330
17
100
AcDbMlineStyle
  2
Standard
 70
     0
  3

 62
   256
 51
90.0
 52
90.0
 71
     2
 49
0.5
 62
   256
  6
BYLAYER
 49
-0.5
 62
   256
  6
BYLAYER
  0
ACDBPLACEHOLDER
  5
F
102
{ACAD_REACTORS
330
E
102
}
330
E
  0
SCALE
  5
48
102
{ACAD_REACTORS
330
47
102
}
330
47
100
AcDbScale
 70
     0
300
1:1
140
1.0
141
1.0
290
     1
  0
SCALE
  5
49
102
{ACAD_REACTORS
330
47
102
}
330
47
100
AcDbScale
 70
     0
300
1:2
140
1.0
141
2.0
290
     0
  0
SCALE
  5
4A
102
{ACAD_REACTORS
330
47
102
}
330
47
100
AcDbScale
 70
     0
300
1:4
140
1.0
141
4.0
290
     0
  0
SCALE
  5
4B
102
{ACAD_REACTORS
330
47
102
}
330
47
100
AcDbScale
 70
     0
300
1:5
140
1.0
141
5.0
290
     0
  0
SCALE
  5
4C
102
{ACAD_REACTORS
330
47
102
}
330
47
100
AcDbScale
 70
     0
300
1:8
140
1.0
141
8.0
290
     0
  0
SCALE
  5
4D
102
{ACAD_REACTORS
330
47
102
}
330
47
100
AcDbScale
 70
     0
300
1:10
140
1.0
141
10.0
290
     0
  0
SCALE
  5
4E
102
{ACAD_REACTORS
330
47
102
}
330
47
100
AcDbScale
 70
     0
300
1:16
140
1.0
141
16.0
290
     0
  0
SCALE
  5
4F
102
{ACAD_REACTORS
330
47
102
}
330
47
100
AcDbScale
 70
     0
300
1:20
140
1.0
141
20.0
290
     0
  0
SCALE
  5
50
102
{ACAD_REACTORS
330
47
102
}
330
47
100
AcDbScale
 70
     0
300
1:30
140
1.0
141
30.0
290
     0
  0
SCALE
  5
51
102
{ACAD_REACTORS
330
47
102
}
330
47
100
AcDbScale
 70
     0
300
1:40
140
1.0
141
40.0
290
     0
  0
SCALE
  5
52
102
{ACAD_REACTORS
330
47
102
}
330
47
100
AcDbScale
 70
     0
300
1:50
140
1.0
141
50.0
290
     0
  0
SCALE
  5
53
102
{ACAD_REACTORS
330
47
102
}
330
47
100
AcDbScale
 70
     0
300
1:100
140
1.0
141
100.0
290
     0
  0
SCALE
  5
54
102
{ACAD_REACTORS
330
47
102
}
330
47
100
AcDbScale
 70
     0
300
2:1
140
2.0
141
1.0
290
     0
  0
SCALE
  5
55
102
{ACAD_REACTORS
330
47
102
}
330
47
100
AcDbScale
 70
     0
300
4:1
140
4.0
141
1.0
290
     0
  0
SCALE
  5
56
102
{ACAD_REACTORS
330
47
102
}
330
47
100
AcDbScale
 70
     0
300
8:1
140
8.0
141
1.0
290
     0
  0
SCALE
  5
57
102
{ACAD_REACTORS
330
47
102
}
330
47
100
AcDbScale
 70
     0
300
10:1
140
10.0
141
1.0
290
     0
  0
SCALE
  5
58
102
{ACAD_REACTORS
330
47
102
}
330
47
100
AcDbScale
 70
     0
300
100:1
140
100.0
141
1.0
290
     0
  0
SCALE
  5
59
102
{ACAD_REACTORS
330
47
102
}
330
47
100
AcDbScale
 70
     0
300
1/128" = 1'-0"
140
0.0078125
141
12.0
290
     0
  0
SCALE
  5
5A
102
{ACAD_REACTORS
330
47
102
}
330
47
100
AcDbScale
 70
     0
300
1/64" = 1'-0"
140
0.015625
141
12.0
290
     0
  0
SCALE
  5
5B
102
{ACAD_REACTORS
330
47
102
}
330
47
100
AcDbScale
 70
     0
300
1/32" = 1'-0"
140
0.03125
141
12.0
290
     0
  0
SCALE
  5
5C
102
{ACAD_REACTORS
330
47
102
}
330
47
100
AcDbScale
 70
     0
300
1/16" = 1'-0"
140
0.0625
141
12.0
290
     0
  0
SCALE
  5
5D
102
{ACAD_REACTORS
330
47
102
}
330
47
100
AcDbScale
 70
     0
300
3/32" = 1'-0"
140
0.09375
141
12.0
290
     0
  0
SCALE
  5
5E
102
{ACAD_REACTORS
330
47
102
}
330
47
100
AcDbScale
 70
     0
300
1/8" = 1'-0"
140
0.125
141
12.0
290
     0
  0
SCALE
  5
5F
102
{ACAD_REACTORS
330
47
102
}
330
47
100
AcDbScale
 70
     0
300
3/16" = 1'-0"
140
0.1875
141
12.0
290
     0
  0
SCALE
  5
60
102
{ACAD_REACTORS
330
47
102
}
330
47
100
AcDbScale
 70
     0
300
1/4" = 1'-0"
140
0.25
141
12.0
290
     0
  0
SCALE
  5
61
102
{ACAD_REACTORS
330
47
102
}
330
47
100
AcDbScale
 70
     0
300
3/8" = 1'-0"
140
0.375
141
12.0
290
     0
  0
SCALE
  5
62
102
{ACAD_REACTORS
330
47
102
}
330
47
100
AcDbScale
 70
     0
300
1/2" = 1'-0"
140
0.5
141
12.0
290
     0
  0
SCALE
  5
63
102
{ACAD_REACTORS
330
47
102
}
330
47
100
AcDbScale
 70
     0
300
3/4" = 1'-0"
140
0.75
141
12.0
290
     0
  0
SCALE
  5
64
102
{ACAD_REACTORS
330
47
102
}
330
47
100
AcDbScale
 70
     0
300
1" = 1'-0"
140
1.0
141
12.0
290
     0
  0
SCALE
  5
65
102
{ACAD_REACTORS
330
47
102
}
330
47
100
AcDbScale
 70
     0
300
1-1/2" = 1'-0"
140
1.5
141
12.0
290
     0
  0
SCALE
  5
66
102
{ACAD_REACTORS
330
47
102
}
330
47
100
AcDbScale
 70
     0
300
3" = 1'-0"
140
3.0
141
12.0
290
     0
  0
SCALE
  5
67
102
{ACAD_REACTORS
330
47
102
}
330
47
100
AcDbScale
 70
     0
300
6" = 1'-0"
140
6.0
141
12.0
290
     0
  0
SCALE
  5
68
102
{ACAD_REACTORS
330
47
102
}
330
47
100
AcDbScale
 70
     0
300
1'-0" = 1'-0"
140
12.0
141
12.0
290
     0
  0
ENDSEC
  0
EOF
