  0
SECTION
  2
HEADER
  9
$ACADVER
  1
AC1015
  9
$ACADMAINTVER
 70
     6
  9
$DWGCODEPAGE
  3
ANSI_949
  9
$INSBASE
 10
0.0
 20
0.0
 30
0.0
  9
$EXTMIN
 10
-64.7475000628567
 20
-49.97073246008785
 30
0.0
  9
$EXTMAX
 10
89.6384838153456
 20
42.76082350426224
 30
0.0
  9
$LIMMIN
 10
0.0
 20
0.0
  9
$LIMMAX
 10
420.0
 20
297.0
  9
$ORTHOMODE
 70
     1
  9
$REGENMODE
 70
     1
  9
$FILLMODE
 70
     1
  9
$QTEXTMODE
 70
     0
  9
$MIRRTEXT
 70
     1
  9
$LTSCALE
 40
1.0
  9
$ATTMODE
 70
     1
  9
$TEXTSIZE
 40
3.5
  9
$TRACEWID
 40
1.0
  9
$TEXTSTYLE
  7
Standard
  9
$CLAYER
  8
0
  9
$CELTYPE
  6
ByLayer
  9
$CECOLOR
 62
   256
  9
$CELTSCALE
 40
1.0
  9
$DISPSILH
 70
     0
  9
$DIMSCALE
 40
1.0
  9
$DIMASZ
 40
3.302
  9
$DIMEXO
 40
1.0
  9
$DIMDLI
 40
3.75
  9
$DIMRND
 40
0.0
  9
$DIMDLE
 40
0.0
  9
$DIMEXE
 40
1.0
  9
$DIMTP
 40
0.0
  9
$DIMTM
 40
0.0
  9
$DIMTXT
 40
3.5
  9
$DIMCEN
 40
2.5
  9
$DIMTSZ
 40
0.0
  9
$DIMTOL
 70
     0
  9
$DIMLIM
 70
     0
  9
$DIMTIH
 70
     1
  9
$DIMTOH
 70
     1
  9
$DIMSE1
 70
     0
  9
$DIMSE2
 70
     0
  9
$DIMTAD
 70
     1
  9
$DIMZIN
 70
     0
  9
$DIMBLK
  1

  9
$DIMASO
 70
     1
  9
$DIMSHO
 70
     1
  9
$DIMPOST
  1

  9
$DIMAPOST
  1

  9
$DIMALT
 70
     0
  9
$DIMALTD
 70
     3
  9
$DIMALTF
 40
0.0393700787401575
  9
$DIMLFAC
 40
1.0
  9
$DIMTOFL
 70
     1
  9
$DIMTVP
 40
0.0
  9
$DIMTIX
 70
     0
  9
$DIMSOXD
 70
     0
  9
$DIMSAH
 70
     0
  9
$DIMBLK1
  1

  9
$DIMBLK2
  1

  9
$DIMSTYLE
  2
ISO-25
  9
$DIMCLRD
 70
     0
  9
$DIMCLRE
 70
     0
  9
$DIMCLRT
 70
     0
  9
$DIMTFAC
 40
1.0
  9
$DIMGAP
 40
1.524
  9
$DIMJUST
 70
     0
  9
$DIMSD1
 70
     0
  9
$DIMSD2
 70
     0
  9
$DIMTOLJ
 70
     0
  9
$DIMTZIN
 70
     0
  9
$DIMALTZ
 70
     0
  9
$DIMALTTZ
 70
     0
  9
$DIMUPT
 70
     0
  9
$DIMDEC
 70
     2
  9
$DIMTDEC
 70
     2
  9
$DIMALTU
 70
     2
  9
$DIMALTTD
 70
     3
  9
$DIMTXSTY
  7
Standard
  9
$DIMAUNIT
 70
     0
  9
$DIMADEC
 70
     2
  9
$DIMALTRND
 40
0.0
  9
$DIMAZIN
 70
     0
  9
$DIMDSEP
 70
    44
  9
$DIMATFIT
 70
     3
  9
$DIMFRAC
 70
     0
  9
$DIMLDRBLK
  1

  9
$DIMLUNIT
 70
     2
  9
$DIMLWD
 70
    -2
  9
$DIMLWE
 70
    -2
  9
$DIMTMOVE
 70
     0
  9
$LUNITS
 70
     2
  9
$LUPREC
 70
     2
  9
$SKETCHINC
 40
1.0
  9
$FILLETRAD
 40
10.0
  9
$AUNITS
 70
     0
  9
$AUPREC
 70
     2
  9
$MENU
  1
.
  9
$ELEVATION
 40
0.0
  9
$PELEVATION
 40
0.0
  9
$THICKNESS
 40
0.0
  9
$LIMCHECK
 70
     0
  9
$CHAMFERA
 40
0.0
  9
$CHAMFERB
 40
0.0
  9
$CHAMFERC
 40
0.0
  9
$CHAMFERD
 40
0.0
  9
$SKPOLY
 70
     0
  9
$TDCREATE
 40
2458295.501420035
  9
$TDUCREATE
 40
2458295.126420035
  9
$TDUPDATE
 40
2458295.94775235
  9
$TDUUPDATE
 40
2458295.57275235
  9
$TDINDWG
 40
0.0017193866
  9
$TDUSRTIMER
 40
0.001719375
  9
$USRTIMER
 70
     1
  9
$ANGBASE
 50
0.0
  9
$ANGDIR
 70
     0
  9
$PDMODE
 70
     0
  9
$PDSIZE
 40
-1.0
  9
$PLINEWID
 40
0.0
  9
$SPLFRAME
 70
     0
  9
$SPLINETYPE
 70
     6
  9
$SPLINESEGS
 70
     8
  9
$HANDSEED
  5
19F
  9
$SURFTAB1
 70
     6
  9
$SURFTAB2
 70
     6
  9
$SURFTYPE
 70
     6
  9
$SURFU
 70
     6
  9
$SURFV
 70
     6
  9
$UCSBASE
  2

  9
$UCSNAME
  2

  9
$UCSORG
 10
0.0
 20
0.0
 30
0.0
  9
$UCSXDIR
 10
1.0
 20
0.0
 30
0.0
  9
$UCSYDIR
 10
0.0
 20
1.0
 30
0.0
  9
$UCSORTHOREF
  2

  9
$UCSORTHOVIEW
 70
     0
  9
$UCSORGTOP
 10
0.0
 20
0.0
 30
0.0
  9
$UCSORGBOTTOM
 10
0.0
 20
0.0
 30
0.0
  9
$UCSORGLEFT
 10
0.0
 20
0.0
 30
0.0
  9
$UCSORGRIGHT
 10
0.0
 20
0.0
 30
0.0
  9
$UCSORGFRONT
 10
0.0
 20
0.0
 30
0.0
  9
$UCSORGBACK
 10
0.0
 20
0.0
 30
0.0
  9
$PUCSBASE
  2

  9
$PUCSNAME
  2

  9
$PUCSORG
 10
0.0
 20
0.0
 30
0.0
  9
$PUCSXDIR
 10
1.0
 20
0.0
 30
0.0
  9
$PUCSYDIR
 10
0.0
 20
1.0
 30
0.0
  9
$PUCSORTHOREF
  2

  9
$PUCSORTHOVIEW
 70
     0
  9
$PUCSORGTOP
 10
0.0
 20
0.0
 30
0.0
  9
$PUCSORGBOTTOM
 10
0.0
 20
0.0
 30
0.0
  9
$PUCSORGLEFT
 10
0.0
 20
0.0
 30
0.0
  9
$PUCSORGRIGHT
 10
0.0
 20
0.0
 30
0.0
  9
$PUCSORGFRONT
 10
0.0
 20
0.0
 30
0.0
  9
$PUCSORGBACK
 10
0.0
 20
0.0
 30
0.0
  9
$USERI1
 70
     0
  9
$USERI2
 70
     0
  9
$USERI3
 70
     0
  9
$USERI4
 70
     0
  9
$USERI5
 70
     0
  9
$USERR1
 40
0.0
  9
$USERR2
 40
0.0
  9
$USERR3
 40
0.0
  9
$USERR4
 40
0.0
  9
$USERR5
 40
0.0
  9
$WORLDVIEW
 70
     1
  9
$SHADEDGE
 70
     3
  9
$SHADEDIF
 70
    70
  9
$TILEMODE
 70
     1
  9
$MAXACTVP
 70
    64
  9
$PINSBASE
 10
0.0
 20
0.0
 30
0.0
  9
$PLIMCHECK
 70
     0
  9
$PEXTMIN
 10
1.000000000000000E+20
 20
1.000000000000000E+20
 30
1.000000000000000E+20
  9
$PEXTMAX
 10
-1.000000000000000E+20
 20
-1.000000000000000E+20
 30
-1.000000000000000E+20
  9
$PLIMMIN
 10
0.0
 20
0.0
  9
$PLIMMAX
 10
0.0
 20
0.0
  9
$UNITMODE
 70
     0
  9
$VISRETAIN
 70
     1
  9
$PLINEGEN
 70
     0
  9
$PSLTSCALE
 70
     1
  9
$TREEDEPTH
 70
  3020
  9
$CMLSTYLE
  2
Standard
  9
$CMLJUST
 70
     0
  9
$CMLSCALE
 40
20.0
  9
$PROXYGRAPHICS
 70
     1
  9
$MEASUREMENT
 70
     1
  9
$CELWEIGHT
370
    -1
  9
$ENDCAPS
280
     0
  9
$JOINSTYLE
280
     0
  9
$LWDISPLAY
290
     1
  9
$INSUNITS
 70
     4
  9
$HYPERLINKBASE
  1

  9
$STYLESHEET
  1

  9
$XEDIT
290
     1
  9
$CEPSNTYPE
380
     0
  9
$PSTYLEMODE
290
     1
  9
$FINGERPRINTGUID
  2
{EAD6683B-8B5A-4B14-B77A-DB6E987C2DCD}
  9
$VERSIONGUID
  2
{FAEB1C32-E019-11D5-929B-00C0DF256EC4}
  9
$EXTNAMES
290
     1
  9
$PSVPSCALE
 40
0.0
  9
$OLESTARTUP
290
     0
  0
ENDSEC
  0
SECTION
  2
CLASSES
  0
CLASS
  1
ACDBDICTIONARYWDFLT
  2
AcDbDictionaryWithDefault
  3
ObjectDBX Classes
 90
        0
280
     0
281
     0
  0
CLASS
  1
VISUALSTYLE
  2
AcDbVisualStyle
  3
ObjectDBX Classes
 90
     4095
280
     0
281
     0
  0
CLASS
  1
MATERIAL
  2
AcDbMaterial
  3
ObjectDBX Classes
 90
     1153
280
     0
281
     0
  0
CLASS
  1
SCALE
  2
AcDbScale
  3
ObjectDBX Classes
 90
     1153
280
     0
281
     0
  0
CLASS
  1
SUN
  2
AcDbSun
  3
SCENEOE
 90
     1153
280
     0
281
     0
  0
CLASS
  1
ACDBPLACEHOLDER
  2
AcDbPlaceHolder
  3
ObjectDBX Classes
 90
        0
280
     0
281
     0
  0
CLASS
  1
LAYOUT
  2
AcDbLayout
  3
ObjectDBX Classes
 90
        0
280
     0
281
     0
  0
CLASS
  1
TABLESTYLE
  2
AcDbTableStyle
  3
ObjectDBX Classes
 90
     4095
280
     0
281
     0
  0
CLASS
  1
MLEADERSTYLE
  2
AcDbMLeaderStyle
  3
ACDB_MLEADERSTYLE_CLASS
 90
     4095
280
     0
281
     0
  0
CLASS
  1
DIMASSOC
  2
AcDbDimAssoc
  3
"AcDbDimAssoc|Product Desc:     AcDim ARX App For Dimension|Company:          Autodesk, Inc.|WEB Address:      www.autodesk.com"
 90
        0
280
     0
281
     0
  0
ENDSEC
  0
SECTION
  2
TABLES
  0
TABLE
  2
VPORT
  5
8
330
0
100
AcDbSymbolTable
 70
     1
  0
VPORT
  5
29
330
8
100
AcDbSymbolTableRecord
100
AcDbViewportTableRecord
  2
*Active
 70
     0
 10
0.0
 20
0.0
 11
1.0
 21
1.0
 12
-17.20503743984301
 22
-7.319489862097758
 13
0.0
 23
0.0
 14
10.0
 24
10.0
 15
10.0
 25
10.0
 16
0.0
 26
0.0
 36
1.0
 17
0.0
 27
0.0
 37
0.0
 40
121.733035955401
 41
2.959259259259259
 42
50.0
 43
0.0
 44
0.0
 50
0.0
 51
0.0
 71
    16
 72
  2000
 73
     1
 74
     3
 75
     0
 76
     0
 77
     0
 78
     0
281
     0
 65
     1
110
0.0
120
0.0
130
0.0
111
1.0
121
0.0
131
0.0
112
0.0
122
1.0
132
0.0
 79
     0
146
0.0
  0
ENDTAB
  0
TABLE
  2
LTYPE
  5
5
330
0
100
AcDbSymbolTable
 70
     6
  0
LTYPE
  5
14
330
5
100
AcDbSymbolTableRecord
100
AcDbLinetypeTableRecord
  2
ByBlock
 70
     0
  3

 72
    65
 73
     0
 40
0.0
  0
LTYPE
  5
15
330
5
100
AcDbSymbolTableRecord
100
AcDbLinetypeTableRecord
  2
ByLayer
 70
     0
  3

 72
    65
 73
     0
 40
0.0
  0
LTYPE
  5
16
330
5
100
AcDbSymbolTableRecord
100
AcDbLinetypeTableRecord
  2
Continuous
 70
     0
  3
Solid line
 72
    65
 73
     0
 40
0.0
  0
LTYPE
  5
6A
330
5
100
AcDbSymbolTableRecord
100
AcDbLinetypeTableRecord
  2
HIDDEN
 70
     0
  3
Hidden __ __ __ __ __ __ __ __ __ __ __ __ __ __
 72
    65
 73
     2
 40
1.905
 49
1.27
 74
     0
 49
-0.635
 74
     0
  0
LTYPE
  5
6B
330
5
100
AcDbSymbolTableRecord
100
AcDbLinetypeTableRecord
  2
PHANTOM
 70
     0
  3
Phantom ______  __  __  ______  __  __  ______
 72
    65
 73
     6
 40
12.7
 49
6.35
 74
     0
 49
-1.27
 74
     0
 49
1.27
 74
     0
 49
-1.27
 74
     0
 49
1.27
 74
     0
 49
-1.27
 74
     0
  0
LTYPE
  5
6C
330
5
100
AcDbSymbolTableRecord
100
AcDbLinetypeTableRecord
  2
CENTER
 70
     0
  3
Center ____ _ ____ _ ____ _ ____ _ ____ _ ____
 72
    65
 73
     4
 40
10.16
 49
6.35
 74
     0
 49
-1.27
 74
     0
 49
1.27
 74
     0
 49
-1.27
 74
     0
  0
LTYPE
  5
6D
330
5
100
AcDbSymbolTableRecord
100
AcDbLinetypeTableRecord
  2
CENTERX2
 70
     0
  3
Center (2x) ________  __  ________  __  _____
 72
    65
 73
     4
 40
20.32
 49
12.7
 74
     0
 49
-2.54
 74
     0
 49
2.54
 74
     0
 49
-2.54
 74
     0
  0
LTYPE
  5
6E
330
5
100
AcDbSymbolTableRecord
100
AcDbLinetypeTableRecord
  2
DOT2
 70
     0
  3
Dot (.5x) ........................................
 72
    65
 73
     2
 40
0.635
 49
0.0
 74
     0
 49
-0.635
 74
     0
  0
ENDTAB
  0
TABLE
  2
LAYER
  5
2
102
{ACAD_XDICTIONARY
360
183
102
}
330
0
100
AcDbSymbolTable
 70
    18
  0
LAYER
  5
10
330
2
100
AcDbSymbolTableRecord
100
AcDbLayerTableRecord
  2
0
 70
     0
 62
     7
  6
Continuous
370
    -3
390
F
  0
LAYER
  5
6F
330
2
100
AcDbSymbolTableRecord
100
AcDbLayerTableRecord
  2
FORMAT
 70
     0
 62
     2
  6
Continuous
370
    -3
390
F
  0
LAYER
  5
70
330
2
100
AcDbSymbolTableRecord
100
AcDbLayerTableRecord
  2
외형선
 70
     0
 62
     4
  6
Continuous
370
    30
390
F
  0
LAYER
  5
71
330
2
100
AcDbSymbolTableRecord
100
AcDbLayerTableRecord
  2
숨은선
 70
     0
 62
     2
  6
HIDDEN
370
    15
390
F
  0
LAYER
  5
72
330
2
100
AcDbSymbolTableRecord
100
AcDbLayerTableRecord
  2
중심선
 70
     0
 62
     1
  6
CENTERX2
370
    -3
390
F
  0
LAYER
  5
73
330
2
100
AcDbSymbolTableRecord
100
AcDbLayerTableRecord
  2
파단선
 70
     0
 62
     4
  6
Continuous
370
    -3
390
F
  0
LAYER
  5
74
330
2
100
AcDbSymbolTableRecord
100
AcDbLayerTableRecord
  2
해칭선
 70
     0
 62
   100
  6
Continuous
370
    -3
390
F
  0
LAYER
  5
75
330
2
100
AcDbSymbolTableRecord
100
AcDbLayerTableRecord
  2
가는실선
 70
     0
 62
     4
  6
Continuous
370
    -3
390
F
  0
LAYER
  5
76
330
2
100
AcDbSymbolTableRecord
100
AcDbLayerTableRecord
  2
치수_보조선
 70
     0
 62
     4
  6
Continuous
370
    -3
390
F
  0
LAYER
  5
77
330
2
100
AcDbSymbolTableRecord
100
AcDbLayerTableRecord
  2
치수문자_일반주서
 70
     0
 62
     7
  6
Continuous
370
    15
390
F
  0
LAYER
  5
78
330
2
100
AcDbSymbolTableRecord
100
AcDbLayerTableRecord
  2
개별주서
 70
     0
 62
   100
  6
Continuous
370
    30
390
F
  0
LAYER
  5
79
330
2
100
AcDbSymbolTableRecord
100
AcDbLayerTableRecord
  2
중간선
 70
     0
 62
     2
  6
Continuous
370
    15
390
F
  0
LAYER
  5
7A
330
2
100
AcDbSymbolTableRecord
100
AcDbLayerTableRecord
  2
윤곽선
 70
     0
 62
     3
  6
Continuous
370
    40
390
F
  0
LAYER
  5
7B
330
2
100
AcDbSymbolTableRecord
100
AcDbLayerTableRecord
  2
중심마크
 70
     0
 62
   100
  6
Continuous
370
    30
390
F
  0
LAYER
  5
7C
330
2
100
AcDbSymbolTableRecord
100
AcDbLayerTableRecord
  2
가상선
 70
     0
 62
     4
  6
PHANTOM
370
    -3
390
F
  0
LAYER
  5
7D
330
2
100
AcDbSymbolTableRecord
100
AcDbLayerTableRecord
  2
특수지정선
 70
     0
 62
     5
  6
CENTERX2
370
    60
390
F
  0
LAYER
  5
7E
330
2
100
AcDbSymbolTableRecord
100
AcDbLayerTableRecord
  2
참조1
 70
     0
 62
    -4
  6
Continuous
370
    -3
390
F
  0
LAYER
  5
15C
330
2
100
AcDbSymbolTableRecord
100
AcDbLayerTableRecord
  2
Defpoints
 70
     0
 62
     7
  6
Continuous
290
     0
370
    -3
390
F
  0
ENDTAB
  0
TABLE
  2
STYLE
  5
3
330
0
100
AcDbSymbolTable
 70
     2
  0
STYLE
  5
11
330
3
100
AcDbSymbolTableRecord
100
AcDbTextStyleTableRecord
  2
Standard
 70
     0
 40
0.0
 41
1.0
 50
0.0
 71
     0
 42
3.5
  3
txt
  4

  0
STYLE
  5
94
330
3
100
AcDbSymbolTableRecord
100
AcDbTextStyleTableRecord
  2
SLDTEXTSTYLE0
 70
     0
 40
0.0
 41
0.75
 50
0.0
 71
     0
 42
3.5
  3
TXT
  4

  0
ENDTAB
  0
TABLE
  2
VIEW
  5
6
330
0
100
AcDbSymbolTable
 70
     0
  0
ENDTAB
  0
TABLE
  2
UCS
  5
7
330
0
100
AcDbSymbolTable
 70
     0
  0
ENDTAB
  0
TABLE
  2
APPID
  5
9
330
0
100
AcDbSymbolTable
 70
     3
  0
APPID
  5
12
330
9
100
AcDbSymbolTableRecord
100
AcDbRegAppTableRecord
  2
ACAD
 70
     0
  0
APPID
  5
18A
330
9
100
AcDbSymbolTableRecord
100
AcDbRegAppTableRecord
  2
PE_URL
 70
     0
  0
APPID
  5
18F
330
9
100
AcDbSymbolTableRecord
100
AcDbRegAppTableRecord
  2
ACAD_DSTYLE_DIMRADIAL_EXTENSION
 70
     0
  0
ENDTAB
  0
TABLE
  2
DIMSTYLE
  5
A
330
0
100
AcDbSymbolTable
 70
     3
100
AcDbDimStyleTable
  0
DIMSTYLE
105
27
330
A
100
AcDbSymbolTableRecord
100
AcDbDimStyleTableRecord
  2
ISO-25
 70
     0
 41
2.5
 42
0.625
 43
3.75
 44
1.25
 73
     0
 74
     0
 77
     1
 78
     8
140
2.5
141
2.5
143
0.03937007874016
147
0.625
171
     3
172
     1
178
     0
271
     2
272
     2
274
     3
278
    44
283
     0
284
     8
340
11
  0
DIMSTYLE
105
E0
330
A
100
AcDbSymbolTableRecord
100
AcDbDimStyleTableRecord
  2
SLDDIMSTYLE0
 70
     0
 41
3.302
 44
0.0
 45
0.000000001
 73
     0
 74
     0
 77
     1
 78
    12
 79
     3
140
3.5
143
0.0393700787401575
147
0.875
148
0.000000001
170
     1
173
     1
178
     0
271
     2
272
     2
276
     2
284
    12
340
94
  0
DIMSTYLE
105
107
102
{ACAD_REACTORS
330
106
330
DF
330
F3
330
11B
330
190
102
}
330
A
100
AcDbSymbolTableRecord
100
AcDbDimStyleTableRecord
  2
SLDDIMSTYLE1
 70
     0
 41
3.302
 44
0.0
 45
0.000000001
 73
     0
 74
     0
 77
     1
 78
    12
 79
     3
140
3.5
143
0.0393700787401575
147
0.875
148
0.000000001
170
     1
172
     1
173
     1
178
     0
271
     2
272
     2
276
     2
284
    12
289
     0
340
94
  0
ENDTAB
  0
TABLE
  2
BLOCK_RECORD
  5
1
330
0
100
AcDbSymbolTable
 70
     9
  0
BLOCK_RECORD
  5
1F
330
1
100
AcDbSymbolTableRecord
100
AcDbBlockTableRecord
  2
*Model_Space
340
22
  0
BLOCK_RECORD
  5
1B
330
1
100
AcDbSymbolTableRecord
100
AcDbBlockTableRecord
  2
*Paper_Space
340
1E
  0
BLOCK_RECORD
  5
23
330
1
100
AcDbSymbolTableRecord
100
AcDbBlockTableRecord
  2
*Paper_Space0
340
26
  0
BLOCK_RECORD
  5
7F
330
1
100
AcDbSymbolTableRecord
100
AcDbBlockTableRecord
  2
블럭10
340
0
102
{BLKREFS
331
D8
102
}
  0
BLOCK_RECORD
  5
E1
330
1
100
AcDbSymbolTableRecord
100
AcDbBlockTableRecord
  2
_D
340
0
  0
BLOCK_RECORD
  5
F4
330
1
100
AcDbSymbolTableRecord
100
AcDbBlockTableRecord
  2
_D_1
340
0
  0
BLOCK_RECORD
  5
108
330
1
100
AcDbSymbolTableRecord
100
AcDbBlockTableRecord
  2
_D_2
340
0
  0
BLOCK_RECORD
  5
11C
330
1
100
AcDbSymbolTableRecord
100
AcDbBlockTableRecord
  2
_D_3
340
0
  0
BLOCK_RECORD
  5
133
330
1
100
AcDbSymbolTableRecord
100
AcDbBlockTableRecord
  2
SW_DOWELSYMBOL_0
340
0
102
{BLKREFS
331
139
102
}
  0
BLOCK_RECORD
  5
193
330
1
100
AcDbSymbolTableRecord
100
AcDbBlockTableRecord
  2
*D8
340
0
  0
ENDTAB
  0
ENDSEC
  0
SECTION
  2
BLOCKS
  0
BLOCK
  5
20
330
1F
100
AcDbEntity
  8
0
100
AcDbBlockBegin
  2
*Model_Space
 70
     0
 10
0.0
 20
0.0
 30
0.0
  3
*Model_Space
  1

  0
ENDBLK
  5
21
330
1F
100
AcDbEntity
  8
0
100
AcDbBlockEnd
  0
BLOCK
  5
1C
330
1B
100
AcDbEntity
 67
     1
  8
0
100
AcDbBlockBegin
  2
*Paper_Space
 70
     0
 10
0.0
 20
0.0
 30
0.0
  3
*Paper_Space
  1

  0
ENDBLK
  5
1D
330
1B
100
AcDbEntity
 67
     1
  8
0
100
AcDbBlockEnd
  0
BLOCK
  5
24
330
23
100
AcDbEntity
  8
0
100
AcDbBlockBegin
  2
*Paper_Space0
 70
     0
 10
0.0
 20
0.0
 30
0.0
  3
*Paper_Space0
  1

  0
ENDBLK
  5
25
330
23
100
AcDbEntity
  8
0
100
AcDbBlockEnd
  0
BLOCK
  5
80
330
7F
100
AcDbEntity
  8
0
100
AcDbBlockBegin
  2
블럭10
 70
     2
 10
0.0
 20
0.0
 30
0.0
  3
블럭10
  1

  0
ELLIPSE
  5
82
330
7F
100
AcDbEntity
  8
중심선
100
AcDbEllipse
 10
20.54032771741204
 20
12.0471743016438
 30
0.0
 11
6.600054785286829
 21
-1.261213355974178E-13
 31
0.0
210
0.0
220
0.0
230
1.0
 40
0.636358354079598
 41
0.9219305317359503
 42
6.513795318482858
  0
ELLIPSE
  5
83
330
7F
100
AcDbEntity
  8
중심선
100
AcDbEllipse
 10
20.54032771746488
 20
12.04717430159265
 30
0.0
 11
3.960054785062283
 21
1.540847449632565E-10
 31
0.0
210
0.0
220
0.0
230
1.0
 40
0.3939339440162632
 41
1.131841032648279
 42
5.62031148352944
  0
LINE
  5
84
330
7F
100
AcDbEntity
  8
중심선
100
AcDbLine
 10
2.268634060543552
 20
16.24717430164393
 30
0.0
 11
5.714909304380834
 21
16.24717430164393
 31
0.0
  0
LINE
  5
85
330
7F
100
AcDbEntity
  8
중심선
100
AcDbLine
 10
5.245725140726316
 20
7.84717430164391
 30
0.0
 11
8.692000384563599
 21
7.84717430164391
 31
0.0
  0
LINE
  5
86
330
7F
100
AcDbEntity
  8
중심선
100
AcDbLine
 10
15.74043728645272
 20
16.24717430164393
 30
0.0
 11
8.692000384563599
 21
7.84717430164391
 31
0.0
  0
LINE
  5
87
330
7F
100
AcDbEntity
  8
중심선
100
AcDbLine
 10
0.1404042013395286
 20
13.71084872107135
 30
0.0
 11
3.58671253028996
 21
13.71088815037384
 31
0.0
  0
LINE
  5
88
330
7F
100
AcDbEntity
  8
중심선
100
AcDbLine
 10
2.750260043222114
 20
10.84717430164391
 30
0.0
 11
6.196535287059397
 21
10.84717430164391
 31
0.0
  0
LINE
  5
89
330
7F
100
AcDbEntity
  8
중심선
100
AcDbLine
 10
12.29416204261559
 20
16.24717430164393
 30
0.0
 11
5.245725140726316
 21
7.84717430164391
 31
0.0
  0
LINE
  5
8A
330
7F
100
AcDbEntity
  8
중심선
100
AcDbLine
 10
10.72767329541681
 20
16.24717430164393
 30
0.0
 11
6.196535287059397
 21
10.84717430164391
 31
0.0
  0
LINE
  5
8B
330
7F
100
AcDbEntity
  8
중심선
100
AcDbLine
 10
7.28139805157953
 20
16.24717430164393
 30
0.0
 11
2.750260043222114
 21
10.84717430164391
 31
0.0
  0
LINE
  5
8C
330
7F
100
AcDbEntity
  8
중심선
100
AcDbLine
 10
5.714909304380834
 20
16.24717430164393
 30
0.0
 11
3.58671253028996
 21
13.71088815037384
 31
0.0
  0
LINE
  5
8D
330
7F
100
AcDbEntity
  8
중심선
100
AcDbLine
 10
2.268634060543552
 20
16.24717430164393
 30
0.0
 11
0.1404042013395286
 21
13.71084872107135
 31
0.0
  0
LINE
  5
8E
330
7F
100
AcDbEntity
  8
중심선
100
AcDbLine
 10
7.28139805157953
 20
16.24717430164393
 30
0.0
 11
10.72767329541681
 21
16.24717430164393
 31
0.0
  0
LINE
  5
8F
330
7F
100
AcDbEntity
  8
중심선
100
AcDbLine
 10
12.29416204261559
 20
16.24717430164393
 30
0.0
 11
15.74043728645272
 21
16.24717430164393
 31
0.0
  0
LINE
  5
90
330
7F
100
AcDbEntity
  8
중심선
100
AcDbLine
 10
19.22036997980202
 20
11.08717430171403
 30
0.0
 11
23.66174974927406
 21
11.08717430171406
 31
0.0
  0
LINE
  5
91
330
7F
100
AcDbEntity
  8
중심선
100
AcDbLine
 10
19.22039502424796
 20
13.00717430171391
 30
0.0
 11
19.22036997980202
 21
11.08717430171403
 31
0.0
  0
LINE
  5
92
330
7F
100
AcDbEntity
  8
중심선
100
AcDbLine
 10
19.22039502424796
 20
13.00717430171391
 30
0.0
 11
26.96566020931264
 21
13.00717430171391
 31
0.0
  0
LINE
  5
93
330
7F
100
AcDbEntity
  8
중심선
100
AcDbLine
 10
22.22332737316547
 20
13.45928029700563
 30
0.0
 11
24.52862924686651
 21
15.39360700705356
 31
0.0
  0
ATTDEF
  5
95
330
7F
100
AcDbEntity
  8
FORMAT
 62
     2
100
AcDbText
 10
2.883703680694412
 20
2.075366912832191
 30
0.0
 40
4.233333333333333
  1
G8C51040
 41
0.75
  7
SLDTEXTSTYLE0
 11
2.883703680694412
 21
-0.0412997538344756
 31
0.0
100
AcDbAttributeDefinition
  3

  2
AUTOATTR0
 70
     0
 74
     1
  0
ENDBLK
  5
81
330
7F
100
AcDbEntity
  8
0
100
AcDbBlockEnd
  0
BLOCK
  5
E2
330
E1
100
AcDbEntity
  8
0
100
AcDbBlockBegin
  2
_D
 70
     0
 10
0.0
 20
0.0
 30
0.0
  3
_D
  1

  0
LINE
  5
E4
330
E1
100
AcDbEntity
  8
치수문자_일반주서
 62
     0
370
    -2
100
AcDbLine
 10
43.74999993714336
 20
8.000573504262029
 30
0.0
 11
43.74999993714336
 21
18.18262414587715
 31
0.0
  0
LINE
  5
E5
330
E1
100
AcDbEntity
  8
치수문자_일반주서
 62
     0
370
    -2
100
AcDbLine
 10
11.99999993714336
 20
7.965484440053137
 30
0.0
 11
11.99999993714336
 21
18.18262414587715
 31
0.0
  0
LINE
  5
E6
330
E1
100
AcDbEntity
  8
치수문자_일반주서
 62
     0
370
    -2
100
AcDbLine
 10
40.44799993714336
 20
18.18262414587715
 30
0.0
 11
15.30199993714336
 21
18.18262414587715
 31
0.0
  0
SOLID
  5
E7
330
E1
100
AcDbEntity
  8
치수문자_일반주서
 62
     0
100
AcDbTrace
 10
40.44799993714336
 20
17.63229081254382
 30
0.0
 11
40.44799993714336
 21
18.73295747921049
 31
0.0
 12
43.74999993714336
 22
18.18262414587715
 32
0.0
 13
43.74999993714336
 23
18.18262414587715
 33
0.0
  0
SOLID
  5
E8
330
E1
100
AcDbEntity
  8
치수문자_일반주서
 62
     0
100
AcDbTrace
 10
15.30199993714336
 20
18.73295747921049
 30
0.0
 11
15.30199993714336
 21
17.63229081254382
 31
0.0
 12
11.99999993714336
 22
18.18262414587715
 32
0.0
 13
11.99999993714336
 23
18.18262414587715
 33
0.0
  0
MTEXT
  5
E9
330
E1
100
AcDbEntity
  8
치수문자_일반주서
 62
     0
100
AcDbMText
 10
27.87499993714336
 20
22.55762414587715
 30
0.0
 40
3.5
 41
0.0
 71
     2
 72
     1
  1
\A1;31.75 [1 1/4]
  7
SLDTEXTSTYLE0
 73
     1
 44
1.0
  0
POINT
  5
EA
330
E1
100
AcDbEntity
  8
Defpoints
 62
     0
100
AcDbPoint
 10
43.74999993714336
 20
7.938073504262029
 30
0.0
  0
POINT
  5
EB
330
E1
100
AcDbEntity
  8
Defpoints
 62
     0
100
AcDbPoint
 10
11.99999993714336
 20
7.902984440053137
 30
0.0
  0
POINT
  5
EC
330
E1
100
AcDbEntity
  8
Defpoints
 62
     0
100
AcDbPoint
 10
11.99999993714336
 20
18.18262414587715
 30
0.0
  0
ENDBLK
  5
E3
330
E1
100
AcDbEntity
  8
0
100
AcDbBlockEnd
  0
BLOCK
  5
F5
330
F4
100
AcDbEntity
  8
0
100
AcDbBlockBegin
  2
_D_1
 70
     0
 10
0.0
 20
0.0
 30
0.0
  3
_D_1
  1

  0
LINE
  5
F7
330
F4
100
AcDbEntity
  8
치수문자_일반주서
 62
     0
370
    -2
100
AcDbLine
 10
43.74999993714336
 20
8.000573504262029
 30
0.0
 11
43.74999993714336
 21
32.59610867815357
 31
0.0
  0
LINE
  5
F8
330
F4
100
AcDbEntity
  8
치수문자_일반주서
 62
     0
370
    -2
100
AcDbLine
 10
-48.32500006285663
 20
6.413073504262034
 30
0.0
 11
-48.32500006285664
 21
32.59610867815357
 31
0.0
  0
LINE
  5
F9
330
F4
100
AcDbEntity
  8
치수문자_일반주서
 62
     0
370
    -2
100
AcDbLine
 10
40.44799993714336
 20
32.59610867815357
 30
0.0
 11
-45.02300006285664
 21
32.59610867815357
 31
0.0
  0
SOLID
  5
FA
330
F4
100
AcDbEntity
  8
치수문자_일반주서
 62
     0
100
AcDbTrace
 10
40.44799993714336
 20
32.04577534482024
 30
0.0
 11
40.44799993714336
 21
33.1464420114869
 31
0.0
 12
43.74999993714336
 22
32.59610867815357
 32
0.0
 13
43.74999993714336
 23
32.59610867815357
 33
0.0
  0
SOLID
  5
FB
330
F4
100
AcDbEntity
  8
치수문자_일반주서
 62
     0
100
AcDbTrace
 10
-45.02300006285664
 20
33.1464420114869
 30
0.0
 11
-45.02300006285664
 21
32.04577534482024
 31
0.0
 12
-48.32500006285664
 22
32.59610867815357
 32
0.0
 13
-48.32500006285664
 23
32.59610867815357
 33
0.0
  0
MTEXT
  5
FC
330
F4
100
AcDbEntity
  8
치수문자_일반주서
 62
     0
100
AcDbMText
 10
-2.287500062856637
 20
36.97110867815357
 30
0.0
 40
3.5
 41
0.0
 71
     2
 72
     1
  1
\A1;92.08 [3 5/8]
  7
SLDTEXTSTYLE0
 73
     1
 44
1.0
  0
POINT
  5
FD
330
F4
100
AcDbEntity
  8
Defpoints
 62
     0
100
AcDbPoint
 10
43.74999993714336
 20
7.938073504262029
 30
0.0
  0
POINT
  5
FE
330
F4
100
AcDbEntity
  8
Defpoints
 62
     0
100
AcDbPoint
 10
-48.32500006285663
 20
6.350573504262034
 30
0.0
  0
POINT
  5
FF
330
F4
100
AcDbEntity
  8
Defpoints
 62
     0
100
AcDbPoint
 10
-48.32500006285663
 20
32.59610867815357
 30
0.0
  0
ENDBLK
  5
F6
330
F4
100
AcDbEntity
  8
0
100
AcDbBlockEnd
  0
BLOCK
  5
109
330
108
100
AcDbEntity
  8
0
100
AcDbBlockBegin
  2
_D_2
 70
     0
 10
0.0
 20
0.0
 30
0.0
  3
_D_2
  1

  0
LINE
  5
10B
330
108
100
AcDbEntity
  8
치수문자_일반주서
 62
     0
370
    -2
100
AcDbLine
 10
-46.80000006285664
 20
7.938073504262046
 30
0.0
 11
-60.37250006285667
 21
7.938073504261994
 31
0.0
  0
LINE
  5
10C
330
108
100
AcDbEntity
  8
치수문자_일반주서
 62
     0
370
    -2
100
AcDbLine
 10
-46.80000006285664
 20
-7.936926495737982
 30
0.0
 11
-60.37250006285662
 21
-7.936926495738034
 31
0.0
  0
LINE
  5
10D
330
108
100
AcDbEntity
  8
치수문자_일반주서
 62
     0
370
    -2
100
AcDbLine
 10
-60.37250006285666
 20
4.636073504261994
 30
0.0
 11
-60.37250006285663
 21
-4.634926495738035
 31
0.0
  0
SOLID
  5
10E
330
108
100
AcDbEntity
  8
치수문자_일반주서
 62
     0
100
AcDbTrace
 10
-59.82216672952332
 20
4.636073504261996
 30
0.0
 11
-60.92283339618999
 21
4.636073504261993
 31
0.0
 12
-60.37250006285667
 22
7.938073504261994
 32
0.0
 13
-60.37250006285667
 23
7.938073504261994
 33
0.0
  0
SOLID
  5
10F
330
108
100
AcDbEntity
  8
치수문자_일반주서
 62
     0
100
AcDbTrace
 10
-60.92283339618997
 20
-4.634926495738037
 30
0.0
 11
-59.8221667295233
 21
-4.634926495738033
 31
0.0
 12
-60.37250006285662
 22
-7.936926495738034
 32
0.0
 13
-60.37250006285662
 23
-7.936926495738034
 33
0.0
  0
MTEXT
  5
110
330
108
100
AcDbEntity
  8
치수문자_일반주서
 62
     0
100
AcDbMText
 10
-64.74750006285664
 20
0.0005735042620322
 30
0.0
 40
3.5
 41
0.0
 71
     2
 72
     1
  1
\A1;%%c15.88 [5/8]
  7
SLDTEXTSTYLE0
 11
-3.580687802255617E-15
 21
1.0
 31
0.0
 73
     1
 44
1.0
  0
POINT
  5
111
330
108
100
AcDbEntity
  8
Defpoints
 62
     0
100
AcDbPoint
 10
-46.73750006285664
 20
7.938073504262046
 30
0.0
  0
POINT
  5
112
330
108
100
AcDbEntity
  8
Defpoints
 62
     0
100
AcDbPoint
 10
-46.73750006285664
 20
-7.936926495737982
 30
0.0
  0
POINT
  5
113
330
108
100
AcDbEntity
  8
Defpoints
 62
     0
100
AcDbPoint
 10
-60.37250006285662
 20
-7.936926495738033
 30
0.0
  0
ENDBLK
  5
10A
330
108
100
AcDbEntity
  8
0
100
AcDbBlockEnd
  0
BLOCK
  5
11D
330
11C
100
AcDbEntity
  8
0
100
AcDbBlockBegin
  2
_D_3
 70
     0
 10
0.0
 20
0.0
 30
0.0
  3
_D_3
  1

  0
LINE
  5
11F
330
11C
100
AcDbEntity
  8
치수문자_일반주서
 62
     0
370
    -2
100
AcDbLine
 10
43.81249993714336
 20
7.938073504262029
 30
0.0
 11
58.62844735139513
 21
7.938073504262082
 31
0.0
  0
LINE
  5
120
330
11C
100
AcDbEntity
  8
치수문자_일반주서
 62
     0
370
    -2
100
AcDbLine
 10
43.81249993714336
 20
-7.936926495737911
 30
0.0
 11
58.62844735139519
 21
-7.936926495737854
 31
0.0
  0
LINE
  5
121
330
11C
100
AcDbEntity
  8
치수문자_일반주서
 62
     0
370
    -2
100
AcDbLine
 10
58.62844735139513
 20
7.938073504262082
 30
0.0
 11
58.62844735139501
 21
42.76082350426224
 31
0.0
  0
LINE
  5
122
330
11C
100
AcDbEntity
  8
치수문자_일반주서
 62
     0
370
    -2
100
AcDbLine
 10
58.62844735139513
 20
7.938073504262082
 30
0.0
 11
58.62844735139519
 21
-7.936926495737854
 31
0.0
  0
LINE
  5
123
330
11C
100
AcDbEntity
  8
치수문자_일반주서
 62
     0
370
    -2
100
AcDbLine
 10
58.62844735139512
 20
11.24007350426208
 30
0.0
 11
58.6284473513951
 21
14.54207350426208
 31
0.0
  0
LINE
  5
124
330
11C
100
AcDbEntity
  8
치수문자_일반주서
 62
     0
370
    -2
100
AcDbLine
 10
58.6284473513952
 20
-11.23892649573785
 30
0.0
 11
58.62844735139522
 21
-14.54092649573785
 31
0.0
  0
SOLID
  5
125
330
11C
100
AcDbEntity
  8
치수문자_일반주서
 62
     0
100
AcDbTrace
 10
58.07811401806178
 20
11.24007350426208
 30
0.0
 11
59.17878068472845
 21
11.24007350426208
 31
0.0
 12
58.62844735139513
 22
7.938073504262082
 32
0.0
 13
58.62844735139513
 23
7.938073504262082
 33
0.0
  0
SOLID
  5
126
330
11C
100
AcDbEntity
  8
치수문자_일반주서
 62
     0
100
AcDbTrace
 10
59.17878068472854
 20
-11.23892649573785
 30
0.0
 11
58.07811401806187
 21
-11.23892649573786
 31
0.0
 12
58.62844735139519
 22
-7.936926495737854
 32
0.0
 13
58.62844735139519
 23
-7.936926495737854
 33
0.0
  0
MTEXT
  5
127
330
11C
100
AcDbEntity
  8
치수문자_일반주서
 62
     0
100
AcDbMText
 10
54.25344735139506
 20
28.76082350426222
 30
0.0
 40
3.5
 41
0.0
 71
     2
 72
     1
  1
\A1;%%c15.88 [5/8]
  7
SLDTEXTSTYLE0
 11
-3.580687802255637E-15
 21
1.0
 31
0.0
 73
     1
 44
1.0
  0
POINT
  5
128
330
11C
100
AcDbEntity
  8
Defpoints
 62
     0
100
AcDbPoint
 10
43.74999993714336
 20
7.938073504262029
 30
0.0
  0
POINT
  5
18D
330
11C
100
AcDbEntity
  8
Defpoints
 62
     0
100
AcDbPoint
 10
43.74999993714336
 20
-7.936926495737911
 30
0.0
  0
POINT
  5
18E
330
11C
100
AcDbEntity
  8
Defpoints
 62
     0
100
AcDbPoint
 10
58.62844735139519
 20
-7.936926495737855
 30
0.0
  0
ENDBLK
  5
11E
330
11C
100
AcDbEntity
  8
0
100
AcDbBlockEnd
  0
BLOCK
  5
134
330
133
100
AcDbEntity
  8
0
100
AcDbBlockBegin
  2
SW_DOWELSYMBOL_0
 70
     0
 10
0.0
 20
0.0
 30
0.0
  3
SW_DOWELSYMBOL_0
  1

  0
CIRCLE
  5
136
330
133
100
AcDbEntity
  8
해칭선
 62
     0
100
AcDbCircle
 10
0.0
 20
0.0
 30
0.0
 40
3.000000000000001
  0
HATCH
  5
137
330
133
100
AcDbEntity
  8
0
  6
Continuous
 62
     0
370
     0
100
AcDbHatch
 10
0.0
 20
0.0
 30
0.0
210
0.0
220
0.0
230
1.0
  2
SOLID
 70
     1
 71
     0
 91
        1
 92
        0
 93
        3
 72
     2
 10
0.0
 20
0.0
 40
3.000000000000001
 50
0.0
 51
90.0
 73
     1
 72
     1
 10
0.0
 20
3.000000000000001
 11
0.0
 21
0.0
 72
     1
 10
0.0
 20
0.0
 11
3.000000000000003
 21
0.0
 97
        0
 75
     0
 76
     1
 98
        1
 10
0.0
 20
0.0
  0
HATCH
  5
138
330
133
100
AcDbEntity
  8
0
  6
Continuous
 62
     0
370
     0
100
AcDbHatch
 10
0.0
 20
0.0
 30
0.0
210
0.0
220
0.0
230
1.0
  2
SOLID
 70
     1
 71
     0
 91
        1
 92
        0
 93
        3
 72
     2
 10
0.0
 20
0.0
 40
3.000000000000001
 50
180.0
 51
270.0000000000008
 73
     1
 72
     1
 10
0.0
 20
-3.000000000000001
 11
0.0
 21
0.0
 72
     1
 10
0.0
 20
0.0
 11
-3.000000000000001
 21
0.0
 97
        0
 75
     0
 76
     1
 98
        1
 10
0.0
 20
0.0
  0
ENDBLK
  5
135
330
133
100
AcDbEntity
  8
0
100
AcDbBlockEnd
  0
BLOCK
  5
194
330
193
100
AcDbEntity
  8
0
100
AcDbBlockBegin
  2
*D8
 70
     1
 10
0.0
 20
0.0
 30
0.0
  3
*D8
  1

  0
LINE
  5
196
330
193
100
AcDbEntity
  8
치수문자_일반주서
 62
     0
370
    -2
100
AcDbLine
 10
45.62211907516205
 20
-10.26968211884034
 30
0.0
 11
66.19436916894742
 21
-34.43946462362817
 31
0.0
  0
MTEXT
  5
197
330
193
100
AcDbEntity
  8
치수문자_일반주서
 62
     0
100
AcDbMText
 10
58.97730519673794
 20
-21.91039984673696
 30
0.0
 40
3.5
 41
0.0
 71
     5
 72
     1
  1
\A1;R.76 [R0.030]
  7
SLDTEXTSTYLE0
 11
0.6481592367171936
 21
-0.7615048285192847
 31
0.0
 73
     1
 44
1.0
  0
LINE
  5
198
330
193
100
AcDbEntity
  8
치수문자_일반주서
 62
     0
370
    -2
100
AcDbLine
 10
42.98799993714338
 20
-7.174926495737971
 30
0.0
 11
43.48189727552187
 21
-7.755193175069659
 31
0.0
  0
SOLID
  5
199
330
193
100
AcDbEntity
  8
치수문자_일반주서
 62
     0
100
AcDbTrace
 10
46.04120056579049
 20
-9.912978485566974
 30
0.0
 11
45.2030375845336
 21
-10.6263857521137
 31
0.0
 12
43.48189727552187
 22
-7.755193175069659
 32
0.0
 13
43.48189727552187
 23
-7.755193175069659
 33
0.0
  0
POINT
  5
19A
330
193
100
AcDbEntity
  8
Defpoints
 62
     0
100
AcDbPoint
 10
43.48189727552187
 20
-7.755193175069659
 30
0.0
  0
POINT
  5
19B
330
193
100
AcDbEntity
  8
Defpoints
 62
     0
100
AcDbPoint
 10
42.98799993714338
 20
-7.174926495737971
 30
0.0
  0
ENDBLK
  5
195
330
193
100
AcDbEntity
  8
0
100
AcDbBlockEnd
  0
ENDSEC
  0
SECTION
  2
ENTITIES
  0
SPLINE
  5
96
330
1F
100
AcDbEntity
  8
외형선
  6
Continuous
370
    15
100
AcDbSpline
210
0.0
220
0.0
230
1.0
 70
     8
 71
     3
 72
     9
 73
     5
 74
     0
 42
0.000000001
 43
0.00000001
 40
0.0
 40
0.0
 40
0.0
 40
0.0
 40
0.5674546957827485
 40
1.0
 40
1.0
 40
1.0
 40
1.0
 10
11.99999993714335
 20
-1.430984420462253
 30
0.0
 10
12.05393445169183
 20
-1.47584091125933
 30
0.0
 10
12.14898083151618
 20
-1.554889496336594
 30
0.0
 10
12.2510482359681
 20
-1.618005945885341
 30
0.0
 10
12.29519701247742
 20
-1.645306669756517
 30
0.0
  0
LINE
  5
97
330
1F
100
AcDbEntity
  8
0
  6
Continuous
 62
     1
370
    15
100
AcDbLine
 10
17.81059030437276
 20
1.539509122055233
 30
0.0
 11
17.72359577880135
 21
1.588115807089448
 31
0.0
1001
PE_URL
1000

  0
LINE
  5
98
330
1F
100
AcDbEntity
  8
0
  6
Continuous
 62
     1
370
    15
100
AcDbLine
 10
16.61823609704325
 20
7.938073504262029
 30
0.0
 11
13.29353151826857
 21
7.938073504262029
 31
0.0
1001
PE_URL
1000

  0
LINE
  5
99
330
1F
100
AcDbEntity
  8
0
  6
Continuous
 62
     1
370
    15
100
AcDbLine
 10
42.08895209799979
 20
-7.936926495737964
 30
0.0
 11
42.98799993714338
 21
-7.936926495737964
 31
0.0
1001
PE_URL
1000

  0
LINE
  5
9A
330
1F
100
AcDbEntity
  8
0
  6
Continuous
 62
     1
370
    15
100
AcDbLine
 10
27.69064597248548
 20
-7.936926495737964
 30
0.0
 11
31.01555477050859
 21
-7.936926495737964
 31
0.0
1001
PE_URL
1000

  0
LINE
  5
9B
330
1F
100
AcDbEntity
  8
0
  6
Continuous
 62
     1
370
    15
100
AcDbLine
 10
31.01555477050859
 20
7.938073504262029
 30
0.0
 11
27.69064597248559
 21
7.938073504262029
 31
0.0
1001
PE_URL
1000

  0
LINE
  5
9C
330
1F
100
AcDbEntity
  8
0
  6
Continuous
 62
     1
370
    15
100
AcDbLine
 10
13.29353151826849
 20
-7.936926495737964
 30
0.0
 11
16.61823609704313
 21
-7.936926495737964
 31
0.0
1001
PE_URL
1000

  0
ARC
  5
9D
102
{ACAD_REACTORS
102
}
330
1F
100
AcDbEntity
  8
0
  6
Continuous
 62
     1
370
    15
100
AcDbCircle
 10
42.98799993714338
 20
-7.174926495737971
 30
0.0
 40
0.7619999999999925
100
AcDbArc
 50
270.0000000000011
 51
0.0
1001
PE_URL
1000

  0
ARC
  5
9E
330
1F
100
AcDbEntity
  8
0
  6
Continuous
 62
     1
370
    15
100
AcDbCircle
 10
42.98799993714338
 20
7.176073504262035
 30
0.0
 40
0.7619999999999916
100
AcDbArc
 50
0.0
 51
90.0
1001
PE_URL
1000

  0
LINE
  5
9F
330
1F
100
AcDbEntity
  8
0
  6
Continuous
 62
     1
370
    15
100
AcDbLine
 10
42.98799993714338
 20
7.938073504262029
 30
0.0
 11
42.0889520979998
 21
7.938073504262029
 31
0.0
1001
PE_URL
1000

  0
LINE
  5
A0
330
1F
100
AcDbEntity
  8
외형선
  6
Continuous
370
    15
100
AcDbLine
 10
-46.73750006285663
 20
-7.936926495737968
 30
0.0
 11
11.7498449817467
 21
-7.936926495737968
 31
0.0
  0
LINE
  5
A1
330
1F
100
AcDbEntity
  8
외형선
  6
Continuous
370
    15
100
AcDbLine
 10
11.7498449817467
 20
7.938073504262032
 30
0.0
 11
-46.73750006285663
 21
7.938073504262032
 31
0.0
  0
LINE
  5
A2
330
1F
100
AcDbEntity
  8
외형선
  6
Continuous
370
    15
100
AcDbLine
 10
-46.73750006285663
 20
7.938073504262031
 30
0.0
 11
-48.32500006285663
 21
6.350573504262034
 31
0.0
  0
LINE
  5
A3
330
1F
100
AcDbEntity
  8
외형선
  6
Continuous
370
    15
100
AcDbLine
 10
-48.32500006285663
 20
-6.349426495737969
 30
0.0
 11
-46.73750006285663
 21
-7.936926495737966
 31
0.0
  0
SPLINE
  5
A4
330
1F
100
AcDbEntity
  8
0
  6
Continuous
 62
     1
370
    15
100
AcDbSpline
210
0.0
220
0.0
230
1.0
 70
     8
 71
     3
 72
    19
 73
    15
 74
     0
 42
0.000000001
 43
0.00000001
 40
0.0
 40
0.0
 40
0.0
 40
0.0
 40
0.0884613789176106
 40
0.176953390843605
 40
0.2653793273591485
 40
0.3537746119279508
 40
0.4421796031962855
 40
0.5306345920554073
 40
0.6191301199875018
 40
0.7075607333262532
 40
0.800174442875424
 40
0.8927870189682087
 40
0.9854195394840042
 40
1.0
 40
1.0
 40
1.0
 40
1.0
 10
11.99999993714337
 20
-1.4811069201772
 30
0.0
 10
12.72322899077786
 20
-1.887713013487095
 30
0.0
 10
14.16993754272605
 20
-2.701066002432348
 30
0.0
 10
16.33994859116937
 20
-3.843313576263478
 30
0.0
 10
18.50886657390817
 20
-4.893304490824669
 30
0.0
 10
20.67697842875396
 20
-5.820798561615768
 30
0.0
 10
22.84535639312286
 20
-6.603979720035633
 30
0.0
 10
25.01482023747148
 20
-7.222934400168715
 30
0.0
 10
27.18487099824051
 20
-7.662655324702668
 30
0.0
 10
29.38833381958678
 20
-7.914958592558568
 30
0.0
 10
31.62551089346173
 20
-7.968359885740449
 30
0.0
 10
33.89700886444849
 20
-7.787003622558457
 30
0.0
 10
35.53060405782787
 20
-7.553337093869664
 30
0.0
 10
36.40719503565787
 20
-7.325411467789998
 30
0.0
 10
36.52640728046186
 20
-7.294414656026569
 30
0.0
1001
PE_URL
1000

  0
SPLINE
  5
A5
330
1F
100
AcDbEntity
  8
외형선
  6
Continuous
370
    15
100
AcDbSpline
210
0.0
220
0.0
230
1.0
 70
    24
 71
     3
 72
    22
 73
    18
 74
     0
 42
0.000000001
 43
0.00000001
 40
0.0
 40
0.0
 40
0.0
 40
0.0
 40
0.0848956343010512
 40
0.1522026611440379
 40
0.2214615963251756
 40
0.2887686231681291
 40
0.3580275583492302
 40
0.4253345851921849
 40
0.4945935203732872
 40
0.5619005472162473
 40
0.6311594823973418
 40
0.6984665092402974
 40
0.7677254444214004
 40
0.8350324712643528
 40
0.904291406445455
 40
0.9715984332884093
 40
1.0
 40
1.0
 40
1.0
 40
1.0
 10
11.99999993714339
 20
4.597422634399837
 30
0.0
 10
11.99999993714337
 20
4.495425185157451
 30
0.0
 10
11.99999993714335
 20
4.312562034037762
 30
0.0
 10
11.99999993714336
 20
3.928694742901417
 30
0.0
 10
11.99999993714335
 20
3.518399834494222
 30
0.0
 10
11.99999993714339
 20
3.050579465253208
 30
0.0
 10
11.99999993714338
 20
2.549094132314676
 30
0.0
 10
11.99999993714341
 20
2.018521541218253
 30
0.0
 10
11.99999993714336
 20
1.483589226255673
 30
0.0
 10
11.99999993714331
 20
0.9497587376788396
 30
0.0
 10
11.99999993714348
 20
0.4417946842381214
 30
0.0
 10
11.99999993714332
 20
-0.0352024113075616
 30
0.0
 10
11.99999993714341
 20
-0.4586540651112354
 30
0.0
 10
11.99999993714337
 20
-0.826033149530351
 30
0.0
 10
11.9999999371434
 20
-1.113485829091181
 30
0.0
 10
11.99999993714332
 20
-1.297953690339539
 30
0.0
 10
11.99999993714337
 20
-1.351973568746439
 30
0.0
 10
11.99999993714337
 20
-1.368003991129056
 30
0.0
  0
SPLINE
  5
A6
330
1F
100
AcDbEntity
  8
0
  6
Continuous
 62
     1
370
    15
100
AcDbSpline
210
0.0
220
0.0
230
1.0
 70
     8
 71
     3
 72
    21
 73
    17
 74
     0
 42
0.000000001
 43
0.00000001
 40
0.0
 40
0.0
 40
0.0
 40
0.0
 40
0.0422163639817192
 40
0.1143551766217372
 40
0.186445014420929
 40
0.2585025275117848
 40
0.3305605948724702
 40
0.4026520916119366
 40
0.4747911050236949
 40
0.5468854053571741
 40
0.6223821089159967
 40
0.6978731160789946
 40
0.7733756150129582
 40
0.8489067415634879
 40
0.9244695339247669
 40
1.0
 40
1.0
 40
1.0
 40
1.0
 10
42.08895209799979
 20
-7.912965201498645
 30
0.0
 10
41.66554977770382
 20
-7.915791151315878
 30
0.0
 10
40.51864268877342
 20
-7.92344605003273
 30
0.0
 10
38.64826693917796
 20
-7.71633124386927
 30
0.0
 10
36.47910184641395
 20
-7.317416378623398
 30
0.0
 10
34.31089561096388
 20
-6.727862101583902
 30
0.0
 10
32.14267368482039
 20
-5.973576079260216
 30
0.0
 10
29.97346149524632
 20
-5.070107499293321
 30
0.0
 10
27.80336889228271
 20
-4.041401659112039
 30
0.0
 10
25.59965273648425
 20
-2.893766384731704
 30
0.0
 10
23.36233694349635
 20
-1.651920359885005
 30
0.0
 10
21.09090730271757
 20
-0.3461890715257182
 30
0.0
 10
18.81904986504279
 20
0.969713893010731
 30
0.0
 10
16.54632007797861
 20
2.256929129234575
 30
0.0
 10
14.27296835239124
 20
3.491254184433464
 30
0.0
 10
12.7575480012211
 20
4.22875241347004
 30
0.0
 10
11.99999993714339
 20
4.597422634399837
 30
0.0
1001
PE_URL
1000

  0
LINE
  5
A7
330
1F
100
AcDbEntity
  8
0
  6
Continuous
 62
     1
370
    15
100
AcDbLine
 10
43.74999993714336
 20
-7.129729028527577
 30
0.0
 11
43.74999993714336
 21
-4.260953760190193
 31
0.0
1001
PE_URL
1000

  0
SPLINE
  5
A8
330
1F
100
AcDbEntity
  8
0
  6
Continuous
 62
     1
370
    15
100
AcDbSpline
210
0.0
220
0.0
230
1.0
 70
     8
 71
     3
 72
    14
 73
    10
 74
     0
 42
0.000000001
 43
0.00000001
 40
0.0
 40
0.0
 40
0.0
 40
0.0
 40
0.25
 40
0.25
 40
0.5
 40
0.5
 40
0.75
 40
0.75
 40
1.0
 40
1.0
 40
1.0
 40
1.0
 10
42.98799993714335
 20
-7.813800782831531
 30
0.0
 10
43.08383808452189
 20
-7.823502142298325
 30
0.0
 10
43.17493591274769
 20
-7.815701278396505
 30
0.0
 10
43.34980824873363
 20
-7.766489759062316
 30
0.0
 10
43.43171024950224
 20
-7.724965411151927
 30
0.0
 10
43.57523661508837
 20
-7.60768006419177
 30
0.0
 10
43.63723846025225
 20
-7.531345049511584
 30
0.0
 10
43.7255104378092
 20
-7.346244280355017
 30
0.0
 10
43.74999993714336
 20
-7.240581027543016
 30
0.0
 10
43.74999993714336
 20
-7.129729028527577
 30
0.0
1001
PE_URL
1000

  0
SPLINE
  5
A9
330
1F
100
AcDbEntity
  8
0
  6
Continuous
 62
     1
370
    15
100
AcDbSpline
210
0.0
220
0.0
230
1.0
 70
     8
 71
     3
 72
    48
 73
    44
 74
     0
 42
0.000000001
 43
0.00000001
 40
0.0
 40
0.0
 40
0.0
 40
0.0
 40
0.0625000000000007
 40
0.0625000000000007
 40
0.1250000000000014
 40
0.1250000000000014
 40
0.1875000000000022
 40
0.1875000000000022
 40
0.218750000000003
 40
0.218750000000003
 40
0.2500000000000039
 40
0.2500000000000039
 40
0.3125000000000046
 40
0.3125000000000046
 40
0.343750000000005
 40
0.343750000000005
 40
0.3750000000000053
 40
0.3750000000000053
 40
0.437500000000005
 40
0.437500000000005
 40
0.5000000000000047
 40
0.5000000000000047
 40
0.5625000000000042
 40
0.5625000000000042
 40
0.5937500000000037
 40
0.5937500000000037
 40
0.625000000000003
 40
0.625000000000003
 40
0.6562500000000023
 40
0.6562500000000023
 40
0.6875000000000017
 40
0.6875000000000017
 40
0.7500000000000013
 40
0.7500000000000013
 40
0.7812500000000011
 40
0.7812500000000011
 40
0.8125000000000009
 40
0.8125000000000009
 40
0.8750000000000007
 40
0.8750000000000007
 40
0.9375000000000003
 40
0.9375000000000003
 40
1.0
 40
1.0
 40
1.0
 40
1.0
 10
42.9879999371434
 20
-7.81380078283154
 30
0.0
 10
42.34179251841266
 20
-7.748387472675893
 30
0.0
 10
41.69267999618051
 20
-7.656889453732489
 30
0.0
 10
40.407825314328
 20
-7.424728639423287
 30
0.0
 10
39.75870737844063
 20
-7.283263722035209
 30
0.0
 10
38.46629622015439
 20
-6.95347071759416
 30
0.0
 10
37.82447824002978
 20
-6.765426589144202
 30
0.0
 10
36.85395983109317
 20
-6.449999020205203
 30
0.0
 10
36.53023555107728
 20
-6.339398024888247
 30
0.0
 10
35.88475750188481
 20
-6.108126870871853
 30
0.0
 10
35.56403221370903
 20
-5.98759700598102
 30
0.0
 10
34.59678597670092
 20
-5.610850638986669
 30
0.0
 10
33.947292311828
 20
-5.339615800130847
 30
0.0
 10
32.98048948927
 20
-4.908696956894756
 30
0.0
 10
32.65964885238545
 20
-4.761103874183833
 30
0.0
 10
32.01393755144624
 20
-4.457677136169612
 30
0.0
 10
31.69017043672963
 20
-4.302004362697543
 30
0.0
 10
30.7197464857952
 20
-3.824824214890624
 30
0.0
 10
30.07809986248974
 20
-3.49387577927541
 30
0.0
 10
28.78534743667749
 20
-2.80948119303358
 30
0.0
 10
28.13713610574821
 20
-2.456490513795248
 30
0.0
 10
26.85148659120047
 20
-1.73861038991005
 30
0.0
 10
26.20226071103203
 20
-1.371531013648913
 30
0.0
 10
25.23323253476718
 20
-0.8168183742169004
 30
0.0
 10
24.91210394024025
 20
-0.6314455133990916
 30
0.0
 10
24.26803187935427
 20
-0.2596162677797184
 30
0.0
 10
23.94465012608815
 20
-0.0730741787988159
 30
0.0
 10
23.29759350954296
 20
0.299880079893673
 30
0.0
 10
22.97392063736166
 20
0.4862911015224988
 30
0.0
 10
22.32869129263079
 20
0.8575963703005643
 30
0.0
 10
22.00801427745174
 20
1.042323871398333
 30
0.0
 10
21.04035583895097
 20
1.594543690389294
 30
0.0
 10
20.39088038655459
 20
1.959442162750486
 30
0.0
 10
19.42454306912893
 20
2.493821746721268
 30
0.0
 10
19.10352238085743
 20
2.669839307456923
 30
0.0
 10
18.45759807956394
 20
3.01787681553654
 30
0.0
 10
18.13379758453988
 20
3.189691383168331
 30
0.0
 10
17.16349409042578
 20
3.696593783244555
 30
0.0
 10
16.52195992723203
 20
4.022499771141695
 30
0.0
 10
15.22890557722342
 20
4.647276601333111
 30
0.0
 10
14.58153919276191
 20
4.945397546525315
 30
0.0
 10
13.29512985789253
 20
5.505842591764789
 30
0.0
 10
12.64581412717417
 20
5.76962441758272
 30
0.0
 10
11.99999993714341
 20
6.012984140883712
 30
0.0
1001
PE_URL
1000

  0
SPLINE
  5
AA
330
1F
100
AcDbEntity
  8
외형선
  6
Continuous
370
    15
100
AcDbSpline
210
0.0
220
0.0
230
1.0
 70
    24
 71
     3
 72
    11
 73
     7
 74
     0
 42
0.000000001
 43
0.00000001
 40
0.0
 40
0.0
 40
0.0
 40
0.0
 40
0.3522137449418593
 40
0.6314561368557284
 40
0.9187965770523316
 40
1.0
 40
1.0
 40
1.0
 40
1.0
 10
11.99999993714339
 20
7.902984440081971
 30
0.0
 10
11.99999993714338
 20
7.680465937227913
 30
0.0
 10
11.99999993714333
 20
7.281530131317382
 30
0.0
 10
11.99999993714335
 20
6.712628359190454
 30
0.0
 10
11.99999993714335
 20
6.321099538627289
 30
0.0
 10
11.99999993714337
 20
6.121870864123384
 30
0.0
 10
11.99999993714337
 20
6.077973646079868
 30
0.0
  0
SPLINE
  5
AB
330
1F
100
AcDbEntity
  8
0
  6
Continuous
 62
     1
370
    15
100
AcDbSpline
210
0.0
220
0.0
230
1.0
 70
     8
 71
     3
 72
    48
 73
    44
 74
     0
 42
0.000000001
 43
0.00000001
 40
0.0
 40
0.0
 40
0.0
 40
0.0
 40
0.0625000000000009
 40
0.0625000000000009
 40
0.1250000000000017
 40
0.1250000000000017
 40
0.1875000000000026
 40
0.1875000000000026
 40
0.218750000000003
 40
0.218750000000003
 40
0.2500000000000034
 40
0.2500000000000034
 40
0.3125000000000043
 40
0.3125000000000043
 40
0.3437500000000047
 40
0.3437500000000047
 40
0.3750000000000052
 40
0.3750000000000052
 40
0.437500000000005
 40
0.437500000000005
 40
0.5000000000000049
 40
0.5000000000000049
 40
0.5625000000000048
 40
0.5625000000000048
 40
0.5937500000000042
 40
0.5937500000000042
 40
0.6250000000000036
 40
0.6250000000000036
 40
0.656250000000003
 40
0.656250000000003
 40
0.6875000000000024
 40
0.6875000000000024
 40
0.7500000000000013
 40
0.7500000000000013
 40
0.7812500000000008
 40
0.7812500000000008
 40
0.8125000000000002
 40
0.8125000000000002
 40
0.8749999999999999
 40
0.8749999999999999
 40
0.9374999999999997
 40
0.9374999999999997
 40
1.0
 40
1.0
 40
1.0
 40
1.0
 10
42.9879999371434
 20
-4.408947049352933
 30
0.0
 10
42.34179251841267
 20
-4.098941307583384
 30
0.0
 10
41.69267999618045
 20
-3.773813516097986
 30
0.0
 10
40.40782531432799
 20
-3.103088330750752
 30
0.0
 10
39.75870737844067
 20
-2.755173827041255
 30
0.0
 10
38.46629622015442
 20
-2.044430148177213
 30
0.0
 10
37.82447824002983
 20
-1.681930977804354
 30
0.0
 10
36.85395983109323
 20
-1.130183149252186
 30
0.0
 10
36.53023555107732
 20
-0.9451362483224088
 30
0.0
 10
35.88475750188481
 20
-0.5741610664467323
 30
0.0
 10
35.56403221370903
 20
-0.3884320565666519
 30
0.0
 10
34.59678597670095
 20
0.1702314492647863
 30
0.0
 10
33.947292311828
 20
0.5442379632969376
 30
0.0
 10
32.98048948926994
 20
1.099284234149134
 30
0.0
 10
32.65964885238544
 20
1.283273936187007
 30
0.0
 10
32.01393755144621
 20
1.649596085998844
 30
0.0
 10
31.69017043672962
 20
1.831715703060178
 30
0.0
 10
30.71974648579518
 20
2.372909618482462
 30
0.0
 10
30.0780998624898
 20
2.726069012437928
 30
0.0
 10
28.78534743667749
 20
3.413781451450965
 30
0.0
 10
28.1371361057482
 20
3.747754631880796
 30
0.0
 10
26.85148659120054
 20
4.386988486589495
 30
0.0
 10
26.20226071103203
 20
4.69418307933419
 30
0.0
 10
25.23323253476717
 20
5.129407493000598
 30
0.0
 10
24.91210394024022
 20
5.270084253346471
 30
0.0
 10
24.26803187935429
 20
5.542781289816745
 30
0.0
 10
23.94465012608815
 20
5.674851410795422
 30
0.0
 10
23.29759350954294
 20
5.929410704797559
 30
0.0
 10
22.97392063736169
 20
6.05189908015282
 30
0.0
 10
22.32869129263081
 20
6.286410284567432
 30
0.0
 10
22.00801427745176
 20
6.39834420271849
 30
0.0
 10
21.04035583895099
 20
6.718676100745498
 30
0.0
 10
20.39088038655461
 20
6.911100762538271
 30
0.0
 10
19.42454306912897
 20
7.163813053065084
 30
0.0
 10
19.10352238085746
 20
7.242120621371255
 30
0.0
 10
18.457598079564
 20
7.386947729227344
 30
0.0
 10
18.13379758453988
 20
7.453367009784658
 30
0.0
 10
17.16349409042574
 20
7.633873897871241
 30
0.0
 10
16.52195992723204
 20
7.729048103320556
 30
0.0
 10
15.22890557722342
 20
7.868222471409912
 30
0.0
 10
14.58153919276193
 20
7.911936686446668
 30
0.0
 10
13.29512985789256
 20
7.946797569675836
 30
0.0
 10
12.64581412717416
 20
7.937995060226361
 30
0.0
 10
11.99999993714339
 20
7.902984440081971
 30
0.0
1001
PE_URL
1000

  0
SPLINE
  5
AC
330
1F
100
AcDbEntity
  8
0
  6
Continuous
 62
     1
370
    15
100
AcDbSpline
210
0.0
220
0.0
230
1.0
 70
     8
 71
     3
 72
    14
 73
    10
 74
     0
 42
0.000000001
 43
0.00000001
 40
0.0
 40
0.0
 40
0.0
 40
0.0
 40
0.25
 40
0.25
 40
0.5
 40
0.5
 40
0.75
 40
0.75
 40
1.0
 40
1.0
 40
1.0
 40
1.0
 10
43.74999993714336
 20
-4.260953760190199
 30
0.0
 10
43.74999993714337
 20
-4.321457508349774
 30
0.0
 10
43.72756586710852
 20
-4.375866460990872
 30
0.0
 10
43.64406140108321
 20
-4.461424792893929
 30
0.0
 10
43.58262906191627
 20
-4.4921745031608
 30
0.0
 10
43.43650230588314
 20
-4.52098102068007
 30
0.0
 10
43.35106925259104
 20
-4.51930622838554
 30
0.0
 10
43.17270171884688
 20
-4.485127643149691
 30
0.0
 10
43.08002038411116
 20
-4.453092111903032
 30
0.0
 10
42.98799993714336
 20
-4.408947049352922
 30
0.0
1001
PE_URL
1000

  0
LINE
  5
AD
330
1F
100
AcDbEntity
  8
0
  6
Continuous
 62
     1
370
    15
100
AcDbLine
 10
43.74999993714336
 20
-2.868201764075246
 30
0.0
 11
43.74999993714336
 21
2.869348772599446
 31
0.0
1001
PE_URL
1000

  0
SPLINE
  5
AE
330
1F
100
AcDbEntity
  8
0
  6
Continuous
 62
     1
370
    15
100
AcDbSpline
210
0.0
220
0.0
230
1.0
 70
     8
 71
     3
 72
    14
 73
    10
 74
     0
 42
0.000000001
 43
0.00000001
 40
0.0
 40
0.0
 40
0.0
 40
0.0
 40
0.25
 40
0.25
 40
0.5
 40
0.5
 40
0.75
 40
0.75
 40
1.0
 40
1.0
 40
1.0
 40
1.0
 10
42.98799993714335
 20
-2.700547487115562
 30
0.0
 10
43.0838380845219
 20
-2.7525411368868
 30
0.0
 10
43.17493591274769
 20
-2.799322203268603
 30
0.0
 10
43.34980824873358
 20
-2.880488778526399
 30
0.0
 10
43.4317102495022
 20
-2.913839951765378
 30
0.0
 10
43.57523661508839
 20
-2.956054990377978
 30
0.0
 10
43.63723846025225
 20
-2.964867511596657
 30
0.0
 10
43.72551043780914
 20
-2.944783190047041
 30
0.0
 10
43.74999993714334
 20
-2.915855056993056
 30
0.0
 10
43.74999993714336
 20
-2.868201764075245
 30
0.0
1001
PE_URL
1000

  0
SPLINE
  5
AF
330
1F
100
AcDbEntity
  8
0
  6
Continuous
 62
     1
370
    15
100
AcDbSpline
210
0.0
220
0.0
230
1.0
 70
     8
 71
     3
 72
    19
 73
    15
 74
     0
 42
0.000000001
 43
0.00000001
 40
0.0
 40
0.0
 40
0.0
 40
0.0
 40
0.071708337823781
 40
0.153924824750733
 40
0.2361503398825159
 40
0.3184223577920136
 40
0.4007320811083036
 40
0.4829814273372738
 40
0.5691214729013492
 40
0.6552604642372171
 40
0.7414180058883191
 40
0.8276136179714214
 40
0.913828585200778
 40
1.0
 40
1.0
 40
1.0
 40
1.0
 10
16.61823609704325
 20
7.927055623957248
 30
0.0
 10
17.24853552674853
 20
7.917049986385752
 30
0.0
 10
18.60149854614368
 20
7.89557248381838
 30
0.0
 10
20.67697101908139
 20
7.62295448788097
 30
0.0
 10
22.84535839486629
 20
7.167864390187842
 30
0.0
 10
25.01481964461705
 20
6.529597948023098
 30
0.0
 10
27.18487136631702
 20
5.73087368309925
 30
0.0
 10
29.38833292086737
 20
4.774039417387324
 30
0.0
 10
31.62551427794424
 20
3.676905159441987
 30
0.0
 10
33.89699628973082
 20
2.462796538213
 30
0.0
 10
36.16906950779573
 20
1.181090589705831
 30
0.0
 10
38.44203725547193
 20
-0.1313674616863428
 30
0.0
 10
40.71532127674039
 20
-1.44525954880773
 30
0.0
 10
42.23056798980453
 20
-2.282188656124973
 30
0.0
 10
42.98799993714338
 20
-2.700547487115581
 30
0.0
1001
PE_URL
1000

  0
SPLINE
  5
B0
330
1F
100
AcDbEntity
  8
0
  6
Continuous
 62
     1
370
    15
100
AcDbSpline
210
0.0
220
0.0
230
1.0
 70
     8
 71
     3
 72
    17
 73
    13
 74
     0
 42
0.000000001
 43
0.00000001
 40
0.0
 40
0.0
 40
0.0
 40
0.0
 40
0.1041799527208801
 40
0.2084216878756121
 40
0.3125926536040138
 40
0.4167169096131657
 40
0.5208419665510667
 40
0.6250153294746316
 40
0.7292573547477309
 40
0.8334347689093726
 40
0.9425287100129762
 40
1.0
 40
1.0
 40
1.0
 40
1.0
 10
42.98799993714343
 20
3.511583171472197
 30
0.0
 10
42.26493109354641
 20
3.87757518993819
 30
0.0
 10
40.81836460069606
 20
4.609776273212404
 30
0.0
 10
38.64827354273988
 20
5.569348268162939
 30
0.0
 10
36.47910007874881
 20
6.397411064435421
 30
0.0
 10
34.31089608316988
 20
7.064696132119767
 30
0.0
 10
32.14267356324971
 20
7.55716789674403
 30
0.0
 10
29.97346150910321
 20
7.861151688146502
 30
0.0
 10
27.80336895858034
 20
7.972355430689833
 30
0.0
 10
25.59965245223206
 20
7.874774142798974
 30
0.0
 10
23.72056717689866
 20
7.648716247994908
 30
0.0
 10
22.56454723822703
 20
7.37510678304838
 30
0.0
 10
22.16567673751592
 20
7.280701193117187
 30
0.0
1001
PE_URL
1000

  0
SPLINE
  5
B1
330
1F
100
AcDbEntity
  8
0
  6
Continuous
 62
     1
370
    15
100
AcDbSpline
210
0.0
220
0.0
230
1.0
 70
     8
 71
     3
 72
    14
 73
    10
 74
     0
 42
0.000000001
 43
0.00000001
 40
0.0
 40
0.0
 40
0.0
 40
0.0
 40
0.25
 40
0.25
 40
0.5
 40
0.5
 40
0.75
 40
0.75
 40
1.0
 40
1.0
 40
1.0
 40
1.0
 10
43.74999993714336
 20
2.86934877259944
 30
0.0
 10
43.74999993714336
 20
2.914970004610423
 30
0.0
 10
43.72756586710845
 20
2.965481787752981
 30
0.0
 10
43.64406140108312
 20
3.072770984970271
 30
0.0
 10
43.58262906191627
 20
3.129775490115748
 30
0.0
 10
43.43650230588311
 20
3.243706448488483
 30
0.0
 10
43.35106925259105
 20
3.301443554245179
 30
0.0
 10
43.17270171884691
 20
3.411587862692808
 30
0.0
 10
43.08002038411114
 20
3.46396833847378
 30
0.0
 10
42.98799993714336
 20
3.511583171472207
 30
0.0
1001
PE_URL
1000

  0
LINE
  5
B2
330
1F
100
AcDbEntity
  8
외형선
  6
Continuous
370
    15
100
AcDbLine
 10
11.99999993714337
 20
4.597422634399841
 30
0.0
 11
11.99999993714338
 21
6.012984140883714
 31
0.0
  0
SPLINE
  5
B3
330
1F
100
AcDbEntity
  8
0
  6
Continuous
 62
     1
370
    15
100
AcDbSpline
210
0.0
220
0.0
230
1.0
 70
     8
 71
     3
 72
    14
 73
    10
 74
     0
 42
0.000000001
 43
0.00000001
 40
0.0
 40
0.0
 40
0.0
 40
0.0
 40
0.1310896944338518
 40
0.2758651321136801
 40
0.4206296461616182
 40
0.5654161972799545
 40
0.7102576458378187
 40
0.8551598179954507
 40
1.0
 40
1.0
 40
1.0
 40
1.0
 10
27.69064597248548
 20
-7.932082973269943
 30
0.0
 10
27.00501565577641
 20
-7.916873943396827
 30
0.0
 10
25.56217532635963
 20
-7.884868063351202
 30
0.0
 10
23.3623439315308
 20
-7.578343536320727
 30
0.0
 10
21.09090543009334
 20
-7.072357868435923
 30
0.0
 10
18.81905036687613
 20
-6.369439355862264
 30
0.0
 10
16.5463199440704
 20
-5.492283907852656
 30
0.0
 10
14.27296838585739
 20
-4.471889783950636
 30
0.0
 10
12.75754801237491
 20
-3.693899978824114
 30
0.0
 10
11.99999993714339
 20
-3.304988301420075
 30
0.0
1001
PE_URL
1000

  0
LINE
  5
B4
330
1F
100
AcDbEntity
  8
외형선
  6
Continuous
370
    15
100
AcDbLine
 10
11.99999993714338
 20
-3.304988301420067
 30
0.0
 11
11.99999993714337
 21
-1.481106920177205
 31
0.0
  0
LINE
  5
B5
330
1F
100
AcDbEntity
  8
0
  6
Continuous
 62
     1
370
    15
100
AcDbLine
 10
43.74999993714336
 20
-4.260953760190193
 30
0.0
 11
43.74999993714336
 21
-2.868201764075246
 31
0.0
1001
PE_URL
1000

  0
SPLINE
  5
B6
330
1F
100
AcDbEntity
  8
0
  6
Continuous
 62
     1
370
    15
100
AcDbSpline
210
0.0
220
0.0
230
1.0
 70
     8
 71
     3
 72
    12
 73
     8
 74
     0
 42
0.000000001
 43
0.00000001
 40
0.0
 40
0.0
 40
0.0
 40
0.0
 40
0.2134273005512845
 40
0.4269285081608481
 40
0.640270298218279
 40
0.853538135525598
 40
1.0
 40
1.0
 40
1.0
 40
1.0
 10
11.99999993714337
 20
-7.493517556798831
 30
0.0
 10
12.72322908163523
 20
-7.613011738941667
 30
0.0
 10
14.16993781532961
 20
-7.852041482486041
 30
0.0
 10
16.33994750065396
 20
-7.967177485110995
 30
0.0
 10
18.50887065928629
 20
-7.891042766863398
 30
0.0
 10
20.45053388854333
 20
-7.666862527561587
 30
0.0
 10
21.66941596146536
 20
-7.39161828407468
 30
0.0
 10
22.16567673751581
 20
-7.27955418459312
 30
0.0
1001
PE_URL
1000

  0
SPLINE
  5
B7
330
1F
100
AcDbEntity
  8
외형선
  6
Continuous
370
    15
100
AcDbSpline
210
0.0
220
0.0
230
1.0
 70
    24
 71
     3
 72
    16
 73
    12
 74
     0
 42
0.000000001
 43
0.00000001
 40
0.0
 40
0.0
 40
0.0
 40
0.0
 40
0.0668818795392864
 40
0.1850868923177624
 40
0.2999605609245611
 40
0.4181655737030516
 40
0.5330392423098442
 40
0.651244255088334
 40
0.76611792369513
 40
0.8843229364736176
 40
1.0
 40
1.0
 40
1.0
 40
1.0
 10
11.99999993714335
 20
-3.369987806616222
 30
0.0
 10
11.99999993714334
 20
-3.431857745928339
 30
0.0
 10
11.99999993714334
 20
-3.603074746318435
 30
0.0
 10
11.99999993714347
 20
-3.955574218589956
 30
0.0
 10
11.99999993714331
 20
-4.410752324546753
 30
0.0
 10
11.99999993714341
 20
-4.90618862475389
 30
0.0
 10
11.99999993714338
 20
-5.43266103322078
 30
0.0
 10
11.99999993714338
 20
-5.967170582449393
 30
0.0
 10
11.9999999371433
 20
-6.502799264131481
 30
0.0
 10
11.99999993714343
 20
-7.020184484912154
 30
0.0
 10
11.99999993714338
 20
-7.336880886242296
 30
0.0
 10
11.99999993714337
 20
-7.493517556798831
 30
0.0
  0
SPLINE
  5
B8
330
1F
100
AcDbEntity
  8
0
  6
Continuous
 62
     1
370
    15
100
AcDbSpline
210
0.0
220
0.0
230
1.0
 70
     8
 71
     3
 72
    14
 73
    10
 74
     0
 42
0.000000001
 43
0.00000001
 40
0.0
 40
0.0
 40
0.0
 40
0.0
 40
0.25
 40
0.25
 40
0.5
 40
0.5
 40
0.75
 40
0.75
 40
1.0
 40
1.0
 40
1.0
 40
1.0
 10
42.98799993714335
 20
5.113826799977926
 30
0.0
 10
43.08383808452189
 20
5.071534509673485
 30
0.0
 10
43.17493591274769
 20
5.016952579389851
 30
0.0
 10
43.34980824873363
 20
4.886574484797866
 30
0.0
 10
43.4317102495022
 20
4.811698963648494
 30
0.0
 10
43.57523661508837
 20
4.652198578075739
 30
0.0
 10
43.63723846025225
 20
4.567051042176888
 30
0.0
 10
43.7255104378092
 20
4.40203459456994
 30
0.0
 10
43.74999993714336
 20
4.325299474811922
 30
0.0
 10
43.74999993714336
 20
4.262100768714295
 30
0.0
1001
PE_URL
1000

  0
LINE
  5
B9
330
1F
100
AcDbEntity
  8
0
  6
Continuous
 62
     1
370
    15
100
AcDbLine
 10
43.74999993714336
 20
2.869348772599446
 30
0.0
 11
43.74999993714336
 21
4.262100768714293
 31
0.0
1001
PE_URL
1000

  0
SPLINE
  5
BA
330
1F
100
AcDbEntity
  8
0
  6
Continuous
 62
     1
370
    15
100
AcDbSpline
210
0.0
220
0.0
230
1.0
 70
     8
 71
     3
 72
    13
 73
     9
 74
     0
 42
0.000000001
 43
0.00000001
 40
0.0
 40
0.0
 40
0.0
 40
0.0
 40
0.0509510179732001
 40
0.2406799482835404
 40
0.4304497373433419
 40
0.620303379977791
 40
0.8101996540749246
 40
1.0
 40
1.0
 40
1.0
 40
1.0
 10
31.01555477050857
 20
7.916803405360286
 30
0.0
 10
31.21887510658775
 20
7.923096704989139
 30
0.0
 10
32.17930985193998
 20
7.952824688638106
 30
0.0
 10
33.89699613097221
 20
7.789020250738171
 30
0.0
 10
36.16906955034492
 20
7.423532953085602
 30
0.0
 10
38.44203724412038
 20
6.836218847346315
 30
0.0
 10
40.71532127957691
 20
6.0772616744937
 30
0.0
 10
42.2305679907499
 20
5.434917663307123
 30
0.0
 10
42.98799993714339
 20
5.113826799977915
 30
0.0
1001
PE_URL
1000

  0
SPLINE
  5
BB
330
1F
100
AcDbEntity
  8
0
  6
Continuous
 62
     1
370
    15
100
AcDbSpline
210
0.0
220
0.0
230
1.0
 70
     8
 71
     3
 72
    10
 73
     6
 74
     0
 42
0.000000001
 43
0.00000001
 40
0.0
 40
0.0
 40
0.0
 40
0.0
 40
0.335732527154868
 40
0.6716641556925774
 40
1.0
 40
1.0
 40
1.0
 40
1.0
 10
42.9879999371434
 20
7.92110372508714
 30
0.0
 10
42.26493177960801
 20
7.928637673718261
 30
0.0
 10
40.81836665928778
 20
7.943710038881197
 30
0.0
 10
38.66413706798162
 20
7.730943945223048
 30
0.0
 10
37.23353096477506
 20
7.439578520278207
 30
0.0
 10
36.52640728046185
 20
7.295561664550634
 30
0.0
1001
PE_URL
1000

  0
LINE
  5
BD
330
1F
100
AcDbEntity
  8
0
  6
Continuous
 62
     1
370
    15
100
AcDbLine
 10
43.74999993714336
 20
4.246242660606038
 30
0.0
 11
43.74999993714336
 21
7.130876037051648
 31
0.0
1001
PE_URL
1000

  0
LINE
  5
BE
330
1F
100
AcDbEntity
  8
0
  6
Continuous
 62
     1
370
    15
100
AcDbLine
 10
13.29353151826849
 20
-7.910354024061306
 30
0.0
 11
11.99999993714339
 21
-7.901837431557913
 31
0.0
1001
PE_URL
1000

  0
LINE
  5
BF
330
1F
100
AcDbEntity
  8
외형선
  6
Continuous
370
    15
100
AcDbLine
 10
11.99999993714338
 20
-7.901837431557913
 30
0.0
 11
11.99999993714337
 21
-7.493517556798831
 31
0.0
  0
LINE
  5
C0
330
1F
100
AcDbEntity
  8
0
  6
Continuous
 62
     1
370
    15
100
AcDbLine
 10
43.74999993714336
 20
-7.174926495737971
 30
0.0
 11
43.74999993714336
 21
-7.129729028527577
 31
0.0
1001
PE_URL
1000

  0
LINE
  5
C1
330
1F
100
AcDbEntity
  8
0
  6
Continuous
 62
     1
370
    15
100
AcDbLine
 10
43.74999993714336
 20
7.130876037051648
 30
0.0
 11
43.74999993714336
 21
7.176073504262037
 31
0.0
1001
PE_URL
1000

  0
SPLINE
  5
C2
330
1F
100
AcDbEntity
  8
외형선
  6
Continuous
370
    15
100
AcDbSpline
210
0.0
220
0.0
230
1.0
 70
     8
 71
     3
 72
     8
 73
     4
 74
     0
 42
0.000000001
 43
0.00000001
 40
0.0
 40
0.0
 40
0.0
 40
0.0
 40
1.0
 40
1.0
 40
1.0
 40
1.0
 10
11.99999993714338
 20
7.902984440081974
 30
0.0
 10
11.91654955629305
 20
7.89846046146714
 30
0.0
 10
11.83315769781797
 20
7.893501020959904
 30
0.0
 10
11.74984498174669
 20
7.888108068459946
 30
0.0
  0
LINE
  5
C3
330
1F
100
AcDbEntity
  8
외형선
  6
Continuous
370
    15
100
AcDbLine
 10
11.7498449817467
 20
6.10628388062052
 30
0.0
 11
11.7498449817467
 21
7.938073504262032
 31
0.0
  0
SPLINE
  5
C4
330
1F
100
AcDbEntity
  8
외형선
  6
Continuous
370
    15
100
AcDbSpline
210
0.0
220
0.0
230
1.0
 70
     8
 71
     3
 72
     8
 73
     4
 74
     0
 42
0.000000001
 43
0.00000001
 40
0.0
 40
0.0
 40
0.0
 40
0.0
 40
1.0
 40
1.0
 40
1.0
 40
1.0
 10
11.99999993714337
 20
6.012984140883723
 30
0.0
 10
11.91654955629304
 20
6.04443043287698
 30
0.0
 10
11.83315769781799
 20
6.075537258171162
 30
0.0
 10
11.74984498174672
 20
6.106297448707903
 30
0.0
  0
SPLINE
  5
C5
330
1F
100
AcDbEntity
  8
외형선
  6
Continuous
370
    15
100
AcDbSpline
210
0.0
220
0.0
230
1.0
 70
     8
 71
     3
 72
     8
 73
     4
 74
     0
 42
0.000000001
 43
0.00000001
 40
0.0
 40
0.0
 40
0.0
 40
0.0
 40
1.0
 40
1.0
 40
1.0
 40
1.0
 10
11.99999993714338
 20
4.597422634399834
 30
0.0
 10
11.91654955629305
 20
4.636689363065015
 30
0.0
 10
11.83315769781797
 20
4.675692991261291
 30
0.0
 10
11.74984498174669
 20
4.714424263288857
 30
0.0
  0
LINE
  5
C6
330
1F
100
AcDbEntity
  8
외형선
  6
Continuous
370
    15
100
AcDbLine
 10
11.7498449817467
 20
-1.33896874944873
 30
0.0
 11
11.7498449817467
 21
4.714446447926133
 31
0.0
  0
SPLINE
  5
C7
330
1F
100
AcDbEntity
  8
외형선
  6
Continuous
370
    15
100
AcDbSpline
210
0.0
220
0.0
230
1.0
 70
     8
 71
     3
 72
     8
 73
     4
 74
     0
 42
0.000000001
 43
0.00000001
 40
0.0
 40
0.0
 40
0.0
 40
0.0
 40
1.0
 40
1.0
 40
1.0
 40
1.0
 10
11.99999993714337
 20
-1.4811069201772
 30
0.0
 10
11.91654955629304
 20
-1.433787378132387
 30
0.0
 10
11.83315769781799
 20
-1.386397048214439
 30
0.0
 10
11.74984498174672
 20
-1.338947819991549
 30
0.0
  0
SPLINE
  5
C8
330
1F
100
AcDbEntity
  8
외형선
  6
Continuous
370
    15
100
AcDbSpline
210
0.0
220
0.0
230
1.0
 70
     8
 71
     3
 72
     8
 73
     4
 74
     0
 42
0.000000001
 43
0.00000001
 40
0.0
 40
0.0
 40
0.0
 40
0.0
 40
1.0
 40
1.0
 40
1.0
 40
1.0
 10
11.99999993714338
 20
-3.304988301420081
 30
0.0
 10
11.91654955629305
 20
-3.261197594140067
 30
0.0
 10
11.83315769781797
 20
-3.217234525436554
 30
0.0
 10
11.74984498174669
 20
-3.173110300909031
 30
0.0
  0
SPLINE
  5
C9
330
1F
100
AcDbEntity
  8
외형선
  6
Continuous
370
    15
100
AcDbSpline
210
0.0
220
0.0
230
1.0
 70
     8
 71
     3
 72
     8
 73
     4
 74
     0
 42
0.000000001
 43
0.00000001
 40
0.0
 40
0.0
 40
0.0
 40
0.0
 40
1.0
 40
1.0
 40
1.0
 40
1.0
 10
11.99999993714337
 20
-7.493517556798831
 30
0.0
 10
11.91654955629304
 20
-7.477644306747275
 30
0.0
 10
11.83315769781799
 20
-7.461360802123512
 30
0.0
 10
11.74984498174672
 20
-7.444671764437362
 30
0.0
  0
SPLINE
  5
CA
330
1F
100
AcDbEntity
  8
외형선
  6
Continuous
370
    15
100
AcDbSpline
210
0.0
220
0.0
230
1.0
 70
     8
 71
     3
 72
     8
 73
     4
 74
     0
 42
0.000000001
 43
0.00000001
 40
0.0
 40
0.0
 40
0.0
 40
0.0
 40
1.0
 40
1.0
 40
1.0
 40
1.0
 10
11.99999993714338
 20
-7.901837431557916
 30
0.0
 10
11.91654955629305
 20
-7.897313452943084
 30
0.0
 10
11.83315769781797
 20
-7.892354012435846
 30
0.0
 10
11.74984498174669
 20
-7.886961059935889
 30
0.0
  0
LINE
  5
CB
330
1F
100
AcDbEntity
  8
외형선
  6
Continuous
370
    15
100
AcDbLine
 10
11.7498449817467
 20
-7.936926495737968
 30
0.0
 11
11.7498449817467
 21
-7.886957970889611
 31
0.0
  0
LINE
  5
CC
330
1F
100
AcDbEntity
  8
외형선
  6
Continuous
370
    15
100
AcDbLine
 10
-46.73750006285663
 20
0.0005735042620329
 30
0.0
 11
-46.73750006285663
 21
7.938073504262032
 31
0.0
  0
LINE
  5
CD
330
1F
100
AcDbEntity
  8
외형선
  6
Continuous
370
    15
100
AcDbLine
 10
-46.73750006285663
 20
-7.936926495737968
 30
0.0
 11
-46.73750006285663
 21
0.0005735042620329
 31
0.0
  0
LINE
  5
CE
330
1F
100
AcDbEntity
  8
외형선
  6
Continuous
370
    15
100
AcDbLine
 10
11.7498449817467
 20
-7.444679125807158
 30
0.0
 11
11.7498449817467
 21
-3.173085027225477
 31
0.0
  0
LINE
  5
CF
330
1F
100
AcDbEntity
  8
외형선
  6
Continuous
370
    15
100
AcDbLine
 10
-48.32500006285663
 20
0.0005735042620329
 30
0.0
 11
-48.32500006285663
 21
6.350573504262034
 31
0.0
  0
LINE
  5
D0
330
1F
100
AcDbEntity
  8
외형선
  6
Continuous
370
    15
100
AcDbLine
 10
-48.32500006285663
 20
-6.349426495737969
 30
0.0
 11
-48.32500006285663
 21
0.0005735042620329
 31
0.0
  0
SPLINE
  5
D1
330
1F
100
AcDbEntity
  8
외형선
  6
Continuous
370
    15
100
AcDbSpline
210
0.0
220
0.0
230
1.0
 70
    24
 71
     3
 72
    24
 73
    20
 74
     0
 42
0.000000001
 43
0.00000001
 40
0.0
 40
0.0
 40
0.0
 40
0.0
 40
0.0498485679718641
 40
0.1059734310005854
 40
0.1669826650515151
 40
0.2297611710229804
 40
0.2907704050739106
 40
0.3535489110453776
 40
0.4145581450962834
 40
0.4773366510677749
 40
0.5383458851187044
 40
0.60112439109017
 40
0.6621336251410995
 40
0.7249121311125649
 40
0.785921365163496
 40
0.8486998711349634
 40
0.9097091051858933
 40
0.9724876111573586
 40
1.0
 40
1.0
 40
1.0
 40
1.0
 10
11.99999993714337
 20
-1.478464829089016
 30
0.0
 10
11.99999993714337
 20
-1.473988861933473
 30
0.0
 10
11.99999993714338
 20
-1.464473371001286
 30
0.0
 10
11.99999993714339
 20
-1.357640632606986
 30
0.0
 10
11.99999993714334
 20
-1.169951126861431
 30
0.0
 10
11.99999993714339
 20
-0.8941615271164591
 30
0.0
 10
11.99999993714342
 20
-0.5426153435893104
 30
0.0
 10
11.99999993714329
 20
-0.1309057811605573
 30
0.0
 10
11.99999993714336
 20
0.3365400061257501
 30
0.0
 10
11.99999993714339
 20
0.8381270833589114
 30
0.0
 10
11.99999993714343
 20
1.368672067441939
 30
0.0
 10
11.99999993714336
 20
1.903614397975018
 30
0.0
 10
11.99999993714337
 20
2.437432902628176
 30
0.0
 10
11.99999993714335
 20
2.945435454318794
 30
0.0
 10
11.99999993714332
 20
3.42229235256309
 30
0.0
 10
11.99999993714338
 20
3.846273060688961
 30
0.0
 10
11.99999993714339
 20
4.211701023061456
 30
0.0
 10
11.99999993714335
 20
4.453082912449423
 30
0.0
 10
11.99999993714336
 20
4.563712788345224
 30
0.0
 10
11.99999993714336
 20
4.597422634388117
 30
0.0
  0
SPLINE
  5
D2
330
1F
100
AcDbEntity
  8
외형선
  6
Continuous
370
    15
100
AcDbSpline
210
0.0
220
0.0
230
1.0
 70
    24
 71
     3
 72
    16
 73
    12
 74
     0
 42
0.000000001
 43
0.00000001
 40
0.0
 40
0.0
 40
0.0
 40
0.0
 40
0.104557080884534
 40
0.2091141617690681
 40
0.3257392819940743
 40
0.4423644022190806
 40
0.5589895224440884
 40
0.6756146426690964
 40
0.7922397628941047
 40
0.9088648831191131
 40
1.0
 40
1.0
 40
1.0
 40
1.0
 10
11.99999993714337
 20
-7.493517556798833
 30
0.0
 10
11.99999993714337
 20
-7.352417029401234
 30
0.0
 10
11.99999993714336
 20
-7.070215974606037
 30
0.0
 10
11.99999993714343
 20
-6.59223213981061
 30
0.0
 10
11.99999993714338
 20
-6.079678317662313
 30
0.0
 10
11.99999993714339
 20
-5.542088587601575
 30
0.0
 10
11.99999993714335
 20
-5.014340219375804
 30
0.0
 10
11.99999993714333
 20
-4.509706283198789
 30
0.0
 10
11.99999993714336
 20
-4.046637558197158
 30
0.0
 10
11.99999993714341
 20
-3.656746807529841
 30
0.0
 10
11.9999999371434
 20
-3.457415520409639
 30
0.0
 10
11.99999993714339
 20
-3.369977806616222
 30
0.0
  0
SPLINE
  5
D3
330
1F
100
AcDbEntity
  8
외형선
  6
Continuous
370
    15
100
AcDbSpline
210
0.0
220
0.0
230
1.0
 70
    24
 71
     3
 72
    12
 73
     8
 74
     0
 42
0.000000001
 43
0.00000001
 40
0.0
 40
0.0
 40
0.0
 40
0.0
 40
0.0187002912736129
 40
0.3064661847320009
 40
0.5861220394580918
 40
0.8738879329164724
 40
1.0
 40
1.0
 40
1.0
 40
1.0
 10
11.99999993714335
 20
6.077973646079868
 30
0.0
 10
11.99999993714333
 20
6.087909742467247
 30
0.0
 10
11.99999993714334
 20
6.250745577824866
 30
0.0
 10
11.99999993714337
 20
6.603314892455295
 30
0.0
 10
11.99999993714338
 20
7.125933317330202
 30
0.0
 10
11.99999993714337
 20
7.564781363106155
 30
0.0
 10
11.99999993714336
 20
7.823998742270253
 30
0.0
 10
11.99999993714336
 20
7.902984440053137
 30
0.0
  0
LINE
  5
D4
330
1F
100
AcDbEntity
  8
중심선
 48
0.8
100
AcDbLine
 10
-51.32500006285665
 20
0.0005735042620325
 30
0.0
 11
46.74999993714335
 21
0.0005735042620402
 31
0.0
1001
PE_URL
1000

  0
LINE
  5
D5
330
1F
100
AcDbEntity
  8
참조1
100
AcDbLine
 10
11.58749999999999
 20
0.0010749287238892
 30
0.0
 11
11.58749999999999
 21
-39.99892507127611
 31
0.0
  0
LINE
  5
D6
330
1F
100
AcDbEntity
  8
참조1
100
AcDbLine
 10
11.58749999999999
 20
-39.99892507127611
 30
0.0
 11
-21.03385681430867
 21
-39.9989250712761
 31
0.0
  0
CIRCLE
  5
D7
330
1F
100
AcDbEntity
  8
해칭선
100
AcDbCircle
 10
0.0
 20
0.0
 30
0.0
 40
3.000000000000001
  0
INSERT
  5
D8
330
1F
100
AcDbEntity
  8
0
  6
Continuous
 62
     7
100
AcDbBlockReference
 66
     1
  2
블럭10
 10
-2.35277293212522
 20
-52.04609937292004
 30
0.0
  0
ATTRIB
  5
D9
330
D8
100
AcDbEntity
  8
FORMAT
 62
     2
100
AcDbText
 10
-13.0588537544139
 20
-49.97073246008785
 30
0.0
 40
4.233333333333333
  1
G8C51040 [ 6 FLUTE ]
 41
0.75
  7
SLDTEXTSTYLE0
 11
-13.0588537544139
 21
-52.08739912675452
 31
0.0
100
AcDbAttribute
  2
AUTOATTR0
 70
     0
 74
     1
  0
SEQEND
  5
DA
330
D8
100
AcDbEntity
  8
0
  6
Continuous
 62
     7
  0
HATCH
  5
DB
330
1F
100
AcDbEntity
  8
중심선
100
AcDbHatch
 10
0.0
 20
0.0
 30
0.0
210
0.0
220
0.0
230
1.0
  2
SOLID
 70
     1
 71
     0
 91
        1
 92
        0
 93
        4
 72
     1
 10
3.362136372255631
 20
-35.7989250712761
 11
-0.0841388715816516
 21
-35.7989250712761
 72
     1
 10
-0.0841388715816516
 20
-35.7989250712761
 11
-2.212368730785674
 21
-38.33525065184867
 72
     1
 10
-2.212368730785674
 20
-38.33525065184867
 11
1.233939598164757
 21
-38.33521122254619
 72
     1
 10
1.233939598164757
 20
-38.33521122254619
 11
3.362136372255631
 21
-35.7989250712761
 97
        0
 75
     0
 76
     1
 98
        1
 10
0.0
 20
0.0
  0
HATCH
  5
DC
330
1F
100
AcDbEntity
  8
중심선
100
AcDbHatch
 10
0.0
 20
0.0
 30
0.0
210
0.0
220
0.0
230
1.0
  2
SOLID
 70
     1
 71
     0
 91
        1
 92
        0
 93
        4
 72
     1
 10
8.37490036329161
 20
-35.7989250712761
 11
4.928625119454299
 21
-35.7989250712761
 72
     1
 10
4.928625119454299
 20
-35.7989250712761
 11
0.3974871110969111
 21
-41.19892507127612
 72
     1
 10
0.3974871110969114
 20
-41.19892507127612
 11
3.843762354934194
 21
-41.19892507127612
 72
     1
 10
3.843762354934194
 20
-41.19892507127612
 11
8.37490036329161
 21
-35.7989250712761
 97
        0
 75
     0
 76
     1
 98
        1
 10
0.0
 20
0.0
  0
HATCH
  5
DD
330
1F
100
AcDbEntity
  8
중심선
100
AcDbHatch
 10
0.0
 20
0.0
 30
0.0
210
0.0
220
0.0
230
1.0
  2
SOLID
 70
     1
 71
     0
 91
        1
 92
        0
 93
        4
 72
     1
 10
13.38766435432751
 20
-35.79892507127608
 11
9.941389110490418
 21
-35.79892507127608
 72
     1
 10
9.941389110490418
 20
-35.79892507127608
 11
2.892952208601113
 21
-44.19892507127612
 72
     1
 10
2.892952208601113
 20
-44.19892507127612
 11
6.339227452438395
 21
-44.19892507127612
 72
     1
 10
6.339227452438395
 20
-44.19892507127612
 11
13.38766435432751
 21
-35.79892507127608
 97
        0
 75
     0
 76
     1
 98
        1
 10
0.0
 20
0.0
  0
HATCH
  5
DE
330
1F
100
AcDbEntity
  8
중심선
100
AcDbHatch
 10
0.0
 20
0.0
 30
0.0
210
0.0
220
0.0
230
1.0
  2
SOLID
 70
     1
 71
     0
 91
        1
 92
        0
 93
        6
 72
     3
 10
18.18755478533968
 20
-39.99892507132738
 11
3.960054785062284
 21
1.540850780301639E-10
 40
0.3939339440162633
 50
17.09539180608434
 51
320.0019657685079
 73
     0
 72
     1
 10
19.87055444104027
 20
-38.58681907591441
 11
22.17585631474134
 21
-36.65249236586649
 72
     3
 10
18.18755478528683
 20
-39.99892507127625
 11
6.600054785286829
 21
-1.249000902703301E-13
 40
0.6363583540795982
 50
39.99873849337388
 51
368.4976242363725
 73
     1
 72
     1
 10
24.61288727718744
 20
-39.03892507120613
 11
16.86762209212275
 21
-39.03892507120613
 72
     1
 10
16.86762209212275
 20
-39.03892507120613
 11
16.86759704767682
 21
-40.95892507120602
 72
     1
 10
16.86759704767682
 20
-40.95892507120602
 11
21.30897681714886
 21
-40.95892507120599
 97
        0
 75
     0
 76
     1
 98
        1
 10
0.0
 20
0.0
  0
DIMENSION
  5
DF
330
1F
100
AcDbEntity
  8
치수문자_일반주서
100
AcDbDimension
  2
_D
 10
11.99999993714336
 20
18.18262414587715
 30
0.0
 11
27.87499993714336
 21
18.18262414587715
 31
0.0
 70
   160
  1
<>
 71
     2
 42
31.75000000000001
  3
SLDDIMSTYLE1
100
AcDbAlignedDimension
 13
43.74999993714336
 23
7.938073504262029
 33
0.0
 14
11.99999993714336
 24
7.902984440053137
 34
0.0
 50
0.0000000000000128
100
AcDbRotatedDimension
1001
PE_URL
1000

1001
ACAD
1000
DSTYLE
1002
{
1070
   171
1070
     6
1070
   273
1070
     7
1002
}
  0
DIMENSION
  5
F3
330
1F
100
AcDbEntity
  8
치수문자_일반주서
100
AcDbDimension
  2
_D_1
 10
-48.32500006285664
 20
32.59610867815357
 30
0.0
 11
-2.287500062856637
 21
32.59610867815357
 31
0.0
 70
   160
  1
<>
 71
     2
 42
92.07499999999999
  3
SLDDIMSTYLE1
100
AcDbAlignedDimension
 13
43.74999993714336
 23
7.938073504262029
 33
0.0
 14
-48.32500006285663
 24
6.350573504262034
 34
0.0
 50
0.0000000000000044
100
AcDbRotatedDimension
1001
PE_URL
1000

1001
ACAD
1000
DSTYLE
1002
{
1070
   171
1070
     6
1070
   273
1070
     7
1002
}
  0
DIMENSION
  5
106
330
1F
100
AcDbEntity
  8
치수문자_일반주서
100
AcDbDimension
  2
_D_2
 10
-60.37250006285662
 20
-7.936926495738034
 30
0.0
 11
-60.37250006285664
 21
0.0005735042620477
 31
0.0
 70
   160
  1
%%c<>
 71
     2
 42
15.87500000000003
 52
-270.0
  3
SLDDIMSTYLE1
100
AcDbAlignedDimension
 13
-46.73750006285664
 23
7.938073504262046
 33
0.0
 14
-46.73750006285664
 24
-7.936926495737982
 34
0.0
 50
90.0000000000002
100
AcDbRotatedDimension
1001
ACAD
1000
DSTYLE
1002
{
1070
   171
1070
     6
1070
   273
1070
     7
1002
}
  0
DIMENSION
  5
11B
330
1F
100
AcDbEntity
  8
치수문자_일반주서
100
AcDbDimension
  2
_D_3
 10
58.62844735139519
 20
-7.936926495737854
 30
0.0
 11
58.62844735139506
 21
28.76082350426224
 31
0.0
 70
   160
  1
%%c<>
 71
     2
 42
15.87499999999994
 52
-270.0
  3
SLDDIMSTYLE1
100
AcDbAlignedDimension
 13
43.74999993714336
 23
7.938073504262029
 33
0.0
 14
43.74999993714336
 24
-7.936926495737911
 34
0.0
 50
90.0000000000002
100
AcDbRotatedDimension
1001
PE_URL
1000

1001
ACAD
1000
DSTYLE
1002
{
1070
   171
1070
     6
1070
   273
1070
     7
1002
}
  0
LINE
  5
12C
330
1F
100
AcDbEntity
  8
참조1
100
AcDbLine
 10
76.93848381534559
 20
7.441074928723896
 30
0.0
 11
76.93848381534559
 21
-7.438925071276109
 31
0.0
  0
LINE
  5
12D
330
1F
100
AcDbEntity
  8
참조1
100
AcDbLine
 10
89.6384838153456
 20
5.441074928723896
 30
0.0
 11
76.93848381534559
 21
5.441074928723896
 31
0.0
  0
SOLID
  5
12E
330
1F
100
AcDbEntity
  8
참조1
100
AcDbTrace
 10
76.93848381534559
 20
5.441074928723896
 30
0.0
 11
83.28848381534559
 21
4.425074928723896
 31
0.0
 12
83.28848381534559
 22
6.457074928723896
 32
0.0
 13
83.28848381534559
 23
6.457074928723896
 33
0.0
  0
LINE
  5
12F
330
1F
100
AcDbEntity
  8
참조1
100
AcDbLine
 10
89.6384838153456
 20
-5.438925071276109
 30
0.0
 11
76.93848381534559
 21
-5.438925071276109
 31
0.0
  0
SOLID
  5
130
330
1F
100
AcDbEntity
  8
참조1
100
AcDbTrace
 10
76.93848381534559
 20
-5.438925071276109
 30
0.0
 11
83.28848381534559
 21
-6.454925071276109
 31
0.0
 12
83.28848381534559
 22
-4.422925071276109
 32
0.0
 13
83.28848381534559
 23
-4.422925071276109
 33
0.0
  0
MTEXT
  5
131
330
1F
100
AcDbEntity
  8
참조1
100
AcDbMText
 10
86.33597390781587
 20
10.98929157337383
 30
0.0
 40
3.5
 41
0.0
 71
     1
 72
     1
  1
A
  7
SLDTEXTSTYLE0
 73
     1
 44
1.0
  0
MTEXT
  5
132
330
1F
100
AcDbEntity
  8
참조1
100
AcDbMText
 10
86.33597390781587
 20
0.1092915733738259
 30
0.0
 40
3.5
 41
0.0
 71
     1
 72
     1
  1
A
  7
SLDTEXTSTYLE0
 73
     1
 44
1.0
  0
INSERT
  5
139
330
1F
100
AcDbEntity
  8
해칭선
100
AcDbBlockReference
  2
SW_DOWELSYMBOL_0
 10
0.0
 20
0.0
 30
0.0
  0
DIMENSION
  5
190
102
{ACAD_REACTORS
102
}
102
{ACAD_XDICTIONARY
360
191
102
}
330
1F
100
AcDbEntity
  8
치수문자_일반주서
100
AcDbDimension
  2
*D8
 10
42.98799993714338
 20
-7.174926495737971
 30
0.0
 11
56.97835502187482
 21
-23.61181784311959
 31
0.0
 70
   164
 71
     5
 42
0.7619999999999907
  3
SLDDIMSTYLE1
100
AcDbRadialDimension
 15
43.48189727552187
 25
-7.755193175069659
 35
0.0
 40
0.0
1001
ACAD_DSTYLE_DIMRADIAL_EXTENSION
1070
   387
1070
     1
1070
   388
1040
4.712388980384708
1070
   390
1040
0.0
1001
PE_URL
1000

1001
ACAD
1000
DSTYLE
1002
{
1070
   171
1070
     3
1002
}
  0
ENDSEC
  0
SECTION
  2
OBJECTS
  0
DICTIONARY
  5
C
330
0
100
AcDbDictionary
281
     1
  3
ACAD_GROUP
350
D
  3
ACAD_LAYOUT
350
1A
  3
ACAD_MLINESTYLE
350
17
  3
ACAD_PLOTSETTINGS
350
19
  3
ACAD_PLOTSTYLENAME
350
E
  3
ACAD_SCALELIST
350
47
  3
APPDATA
350
15B
  3
DWGPROPS
350
19E
  0
DICTIONARY
  5
183
330
2
100
AcDbDictionary
280
     1
281
     1
  3
ACAD_LAYERSTATES
360
184
  0
DICTIONARY
  5
191
330
190
100
AcDbDictionary
280
     1
281
     1
  0
DICTIONARY
  5
D
102
{ACAD_REACTORS
330
C
102
}
330
C
100
AcDbDictionary
281
     1
  0
DICTIONARY
  5
1A
102
{ACAD_REACTORS
330
C
102
}
330
C
100
AcDbDictionary
281
     1
  3
Layout1
350
1E
  3
Layout2
350
26
  3
Model
350
22
  0
DICTIONARY
  5
17
102
{ACAD_REACTORS
330
C
102
}
330
C
100
AcDbDictionary
281
     1
  3
Standard
350
18
  0
DICTIONARY
  5
19
102
{ACAD_REACTORS
330
C
102
}
330
C
100
AcDbDictionary
281
     1
  0
ACDBDICTIONARYWDFLT
  5
E
102
{ACAD_REACTORS
330
C
102
}
330
C
100
AcDbDictionary
281
     1
  3
Normal
350
F
100
AcDbDictionaryWithDefault
340
F
  0
DICTIONARY
  5
47
102
{ACAD_REACTORS
330
C
102
}
330
C
100
AcDbDictionary
281
     1
  3
A0
350
48
  3
A1
350
49
  3
A2
350
4A
  3
A3
350
4B
  3
A4
350
4C
  3
A5
350
4D
  3
A6
350
4E
  3
A7
350
4F
  3
A8
350
50
  3
A9
350
51
  3
B0
350
52
  3
B1
350
53
  3
B2
350
54
  3
B3
350
55
  3
B4
350
56
  3
B5
350
57
  3
B6
350
58
  3
B7
350
59
  3
B8
350
5A
  3
B9
350
5B
  3
C0
350
5C
  3
C1
350
5D
  3
C2
350
5E
  3
C3
350
5F
  3
C4
350
60
  3
C5
350
61
  3
C6
350
62
  3
C7
350
63
  3
C8
350
64
  3
C9
350
65
  3
D0
350
66
  3
D1
350
67
  3
D2
350
68
  0
DICTIONARY
  5
15B
102
{ACAD_REACTORS
330
C
102
}
330
C
100
AcDbDictionary
281
     1
  0
XRECORD
  5
19E
102
{ACAD_REACTORS
330
C
102
}
330
C
100
AcDbXrecord
280
     1
  1
DWGPROPS COOKIE
  2

  3

  4

  6

  7

  8
박수민
  9

300
=
301
=
302
=
303
=
304
=
305
=
306
=
307
=
308
=
309
=
 40
0.0
 41
2458295.126420035
 42
2458295.57275235
  1

 90
        0
  0
DICTIONARY
  5
184
102
{ACAD_REACTORS
330
183
102
}
330
183
100
AcDbDictionary
281
     1
  0
LAYOUT
  5
1E
102
{ACAD_REACTORS
330
1A
102
}
330
1A
100
AcDbPlotSettings
  1

  2
none_device
  4

  6

 40
0.0
 41
0.0
 42
0.0
 43
0.0
 44
0.0
 45
0.0
 46
0.0
 47
0.0
 48
0.0
 49
0.0
140
0.0
141
0.0
142
1.0
143
1.0
 70
   688
 72
     1
 73
     0
 74
     5
  7

 75
    16
147
1.0
148
0.0
149
0.0
100
AcDbLayout
  1
Layout1
 70
     1
 71
     1
 10
0.0
 20
0.0
 11
420.0
 21
297.0
 12
0.0
 22
0.0
 32
0.0
 14
1.000000000000000E+20
 24
1.000000000000000E+20
 34
1.000000000000000E+20
 15
-1.000000000000000E+20
 25
-1.000000000000000E+20
 35
-1.000000000000000E+20
146
0.0
 13
0.0
 23
0.0
 33
0.0
 16
1.0
 26
0.0
 36
0.0
 17
0.0
 27
1.0
 37
0.0
 76
     0
330
1B
  0
LAYOUT
  5
26
102
{ACAD_REACTORS
330
1A
102
}
330
1A
100
AcDbPlotSettings
  1

  2
none_device
  4

  6

 40
0.0
 41
0.0
 42
0.0
 43
0.0
 44
0.0
 45
0.0
 46
0.0
 47
0.0
 48
0.0
 49
0.0
140
0.0
141
0.0
142
1.0
143
1.0
 70
   688
 72
     1
 73
     0
 74
     5
  7

 75
    16
147
1.0
148
0.0
149
0.0
100
AcDbLayout
  1
Layout2
 70
     1
 71
     2
 10
0.0
 20
0.0
 11
0.0
 21
0.0
 12
0.0
 22
0.0
 32
0.0
 14
0.0
 24
0.0
 34
0.0
 15
0.0
 25
0.0
 35
0.0
146
0.0
 13
0.0
 23
0.0
 33
0.0
 16
1.0
 26
0.0
 36
0.0
 17
0.0
 27
1.0
 37
0.0
 76
     0
330
23
  0
LAYOUT
  5
22
102
{ACAD_REACTORS
330
1A
102
}
330
1A
100
AcDbPlotSettings
  1

  2
none_device
  4
ANSI_A_(11.00_x_8.50_Inches)
  6

 40
6.35
 41
19.05
 42
6.35000508
 43
19.05000254
 44
279.4
 45
215.9
 46
102.9009801858271
 47
95.79515860354041
 48
0.0
 49
0.0
140
0.0
141
0.0
142
0.0741174986998969
143
1.0
 70
  1696
 72
     0
 73
     0
 74
     0
  7

 75
     0
147
0.0235690232323232
148
0.0
149
0.0
100
AcDbLayout
  1
Model
 70
     1
 71
     0
 10
0.0
 20
0.0
 11
420.0
 21
297.0
 12
0.0
 22
0.0
 32
0.0
 14
-64.7475000628567
 24
-49.97073246008785
 34
0.0
 15
89.6384838153456
 25
42.76082350426224
 35
0.0
146
0.0
 13
0.0
 23
0.0
 33
0.0
 16
1.0
 26
0.0
 36
0.0
 17
0.0
 27
1.0
 37
0.0
 76
     0
330
1F
331
29
  0
MLINESTYLE
  5
18
102
{ACAD_REACTORS
330
17
102
}
330
17
100
AcDbMlineStyle
  2
Standard
 70
     0
  3

 62
   256
 51
90.0
 52
90.0
 71
     2
 49
0.5
 62
   256
  6
BYLAYER
 49
-0.5
 62
   256
  6
BYLAYER
  0
ACDBPLACEHOLDER
  5
F
102
{ACAD_REACTORS
330
E
102
}
330
E
  0
SCALE
  5
48
102
{ACAD_REACTORS
330
47
102
}
330
47
100
AcDbScale
 70
     0
300
1:1
140
1.0
141
1.0
290
     1
  0
SCALE
  5
49
102
{ACAD_REACTORS
330
47
102
}
330
47
100
AcDbScale
 70
     0
300
1:2
140
1.0
141
2.0
290
     0
  0
SCALE
  5
4A
102
{ACAD_REACTORS
330
47
102
}
330
47
100
AcDbScale
 70
     0
300
1:4
140
1.0
141
4.0
290
     0
  0
SCALE
  5
4B
102
{ACAD_REACTORS
330
47
102
}
330
47
100
AcDbScale
 70
     0
300
1:5
140
1.0
141
5.0
290
     0
  0
SCALE
  5
4C
102
{ACAD_REACTORS
330
47
102
}
330
47
100
AcDbScale
 70
     0
300
1:8
140
1.0
141
8.0
290
     0
  0
SCALE
  5
4D
102
{ACAD_REACTORS
330
47
102
}
330
47
100
AcDbScale
 70
     0
300
1:10
140
1.0
141
10.0
290
     0
  0
SCALE
  5
4E
102
{ACAD_REACTORS
330
47
102
}
330
47
100
AcDbScale
 70
     0
300
1:16
140
1.0
141
16.0
290
     0
  0
SCALE
  5
4F
102
{ACAD_REACTORS
330
47
102
}
330
47
100
AcDbScale
 70
     0
300
1:20
140
1.0
141
20.0
290
     0
  0
SCALE
  5
50
102
{ACAD_REACTORS
330
47
102
}
330
47
100
AcDbScale
 70
     0
300
1:30
140
1.0
141
30.0
290
     0
  0
SCALE
  5
51
102
{ACAD_REACTORS
330
47
102
}
330
47
100
AcDbScale
 70
     0
300
1:40
140
1.0
141
40.0
290
     0
  0
SCALE
  5
52
102
{ACAD_REACTORS
330
47
102
}
330
47
100
AcDbScale
 70
     0
300
1:50
140
1.0
141
50.0
290
     0
  0
SCALE
  5
53
102
{ACAD_REACTORS
330
47
102
}
330
47
100
AcDbScale
 70
     0
300
1:100
140
1.0
141
100.0
290
     0
  0
SCALE
  5
54
102
{ACAD_REACTORS
330
47
102
}
330
47
100
AcDbScale
 70
     0
300
2:1
140
2.0
141
1.0
290
     0
  0
SCALE
  5
55
102
{ACAD_REACTORS
330
47
102
}
330
47
100
AcDbScale
 70
     0
300
4:1
140
4.0
141
1.0
290
     0
  0
SCALE
  5
56
102
{ACAD_REACTORS
330
47
102
}
330
47
100
AcDbScale
 70
     0
300
8:1
140
8.0
141
1.0
290
     0
  0
SCALE
  5
57
102
{ACAD_REACTORS
330
47
102
}
330
47
100
AcDbScale
 70
     0
300
10:1
140
10.0
141
1.0
290
     0
  0
SCALE
  5
58
102
{ACAD_REACTORS
330
47
102
}
330
47
100
AcDbScale
 70
     0
300
100:1
140
100.0
141
1.0
290
     0
  0
SCALE
  5
59
102
{ACAD_REACTORS
330
47
102
}
330
47
100
AcDbScale
 70
     0
300
1/128" = 1'-0"
140
0.0078125
141
12.0
290
     0
  0
SCALE
  5
5A
102
{ACAD_REACTORS
330
47
102
}
330
47
100
AcDbScale
 70
     0
300
1/64" = 1'-0"
140
0.015625
141
12.0
290
     0
  0
SCALE
  5
5B
102
{ACAD_REACTORS
330
47
102
}
330
47
100
AcDbScale
 70
     0
300
1/32" = 1'-0"
140
0.03125
141
12.0
290
     0
  0
SCALE
  5
5C
102
{ACAD_REACTORS
330
47
102
}
330
47
100
AcDbScale
 70
     0
300
1/16" = 1'-0"
140
0.0625
141
12.0
290
     0
  0
SCALE
  5
5D
102
{ACAD_REACTORS
330
47
102
}
330
47
100
AcDbScale
 70
     0
300
3/32" = 1'-0"
140
0.09375
141
12.0
290
     0
  0
SCALE
  5
5E
102
{ACAD_REACTORS
330
47
102
}
330
47
100
AcDbScale
 70
     0
300
1/8" = 1'-0"
140
0.125
141
12.0
290
     0
  0
SCALE
  5
5F
102
{ACAD_REACTORS
330
47
102
}
330
47
100
AcDbScale
 70
     0
300
3/16" = 1'-0"
140
0.1875
141
12.0
290
     0
  0
SCALE
  5
60
102
{ACAD_REACTORS
330
47
102
}
330
47
100
AcDbScale
 70
     0
300
1/4" = 1'-0"
140
0.25
141
12.0
290
     0
  0
SCALE
  5
61
102
{ACAD_REACTORS
330
47
102
}
330
47
100
AcDbScale
 70
     0
300
3/8" = 1'-0"
140
0.375
141
12.0
290
     0
  0
SCALE
  5
62
102
{ACAD_REACTORS
330
47
102
}
330
47
100
AcDbScale
 70
     0
300
1/2" = 1'-0"
140
0.5
141
12.0
290
     0
  0
SCALE
  5
63
102
{ACAD_REACTORS
330
47
102
}
330
47
100
AcDbScale
 70
     0
300
3/4" = 1'-0"
140
0.75
141
12.0
290
     0
  0
SCALE
  5
64
102
{ACAD_REACTORS
330
47
102
}
330
47
100
AcDbScale
 70
     0
300
1" = 1'-0"
140
1.0
141
12.0
290
     0
  0
SCALE
  5
65
102
{ACAD_REACTORS
330
47
102
}
330
47
100
AcDbScale
 70
     0
300
1-1/2" = 1'-0"
140
1.5
141
12.0
290
     0
  0
SCALE
  5
66
102
{ACAD_REACTORS
330
47
102
}
330
47
100
AcDbScale
 70
     0
300
3" = 1'-0"
140
3.0
141
12.0
290
     0
  0
SCALE
  5
67
102
{ACAD_REACTORS
330
47
102
}
330
47
100
AcDbScale
 70
     0
300
6" = 1'-0"
140
6.0
141
12.0
290
     0
  0
SCALE
  5
68
102
{ACAD_REACTORS
330
47
102
}
330
47
100
AcDbScale
 70
     0
300
1'-0" = 1'-0"
140
12.0
141
12.0
290
     0
  0
ENDSEC
  0
EOF
