  0
SECTION
  2
HEADER
  9
$ACADVER
  1
AC1015
  9
$ACADMAINTVER
 70
     6
  9
$DWGCODEPAGE
  3
ANSI_949
  9
$INSBASE
 10
0.0
 20
0.0
 30
0.0
  9
$EXTMIN
 10
-66.05000006285674
 20
-49.97073246008785
 30
0.0
  9
$EXTMAX
 10
91.22598381534554
 20
57.71026060483954
 30
0.0
  9
$LIMMIN
 10
0.0
 20
0.0
  9
$LIMMAX
 10
420.0
 20
297.0
  9
$ORTHOMODE
 70
     1
  9
$REGENMODE
 70
     1
  9
$FILLMODE
 70
     1
  9
$QTEXTMODE
 70
     0
  9
$MIRRTEXT
 70
     1
  9
$LTSCALE
 40
1.0
  9
$ATTMODE
 70
     1
  9
$TEXTSIZE
 40
3.5
  9
$TRACEWID
 40
1.0
  9
$TEXTSTYLE
  7
Standard
  9
$CLAYER
  8
0
  9
$CELTYPE
  6
ByLayer
  9
$CECOLOR
 62
   256
  9
$CELTSCALE
 40
1.0
  9
$DISPSILH
 70
     0
  9
$DIMSCALE
 40
1.0
  9
$DIMASZ
 40
3.302
  9
$DIMEXO
 40
1.0
  9
$DIMDLI
 40
3.75
  9
$DIMRND
 40
0.0
  9
$DIMDLE
 40
0.0
  9
$DIMEXE
 40
1.0
  9
$DIMTP
 40
0.0
  9
$DIMTM
 40
0.0
  9
$DIMTXT
 40
3.5
  9
$DIMCEN
 40
2.5
  9
$DIMTSZ
 40
0.0
  9
$DIMTOL
 70
     0
  9
$DIMLIM
 70
     0
  9
$DIMTIH
 70
     1
  9
$DIMTOH
 70
     1
  9
$DIMSE1
 70
     0
  9
$DIMSE2
 70
     0
  9
$DIMTAD
 70
     1
  9
$DIMZIN
 70
     0
  9
$DIMBLK
  1

  9
$DIMASO
 70
     1
  9
$DIMSHO
 70
     1
  9
$DIMPOST
  1

  9
$DIMAPOST
  1

  9
$DIMALT
 70
     0
  9
$DIMALTD
 70
     3
  9
$DIMALTF
 40
0.0393700787401575
  9
$DIMLFAC
 40
1.0
  9
$DIMTOFL
 70
     1
  9
$DIMTVP
 40
0.0
  9
$DIMTIX
 70
     0
  9
$DIMSOXD
 70
     0
  9
$DIMSAH
 70
     0
  9
$DIMBLK1
  1

  9
$DIMBLK2
  1

  9
$DIMSTYLE
  2
ISO-25
  9
$DIMCLRD
 70
     0
  9
$DIMCLRE
 70
     0
  9
$DIMCLRT
 70
     0
  9
$DIMTFAC
 40
1.0
  9
$DIMGAP
 40
1.524
  9
$DIMJUST
 70
     0
  9
$DIMSD1
 70
     0
  9
$DIMSD2
 70
     0
  9
$DIMTOLJ
 70
     0
  9
$DIMTZIN
 70
     0
  9
$DIMALTZ
 70
     0
  9
$DIMALTTZ
 70
     0
  9
$DIMUPT
 70
     0
  9
$DIMDEC
 70
     2
  9
$DIMTDEC
 70
     2
  9
$DIMALTU
 70
     2
  9
$DIMALTTD
 70
     3
  9
$DIMTXSTY
  7
Standard
  9
$DIMAUNIT
 70
     0
  9
$DIMADEC
 70
     2
  9
$DIMALTRND
 40
0.0
  9
$DIMAZIN
 70
     0
  9
$DIMDSEP
 70
    44
  9
$DIMATFIT
 70
     3
  9
$DIMFRAC
 70
     0
  9
$DIMLDRBLK
  1

  9
$DIMLUNIT
 70
     2
  9
$DIMLWD
 70
    -2
  9
$DIMLWE
 70
    -2
  9
$DIMTMOVE
 70
     0
  9
$LUNITS
 70
     2
  9
$LUPREC
 70
     2
  9
$SKETCHINC
 40
1.0
  9
$FILLETRAD
 40
10.0
  9
$AUNITS
 70
     0
  9
$AUPREC
 70
     2
  9
$MENU
  1
.
  9
$ELEVATION
 40
0.0
  9
$PELEVATION
 40
0.0
  9
$THICKNESS
 40
0.0
  9
$LIMCHECK
 70
     0
  9
$CHAMFERA
 40
0.0
  9
$CHAMFERB
 40
0.0
  9
$CHAMFERC
 40
0.0
  9
$CHAMFERD
 40
0.0
  9
$SKPOLY
 70
     0
  9
$TDCREATE
 40
2458295.511035174
  9
$TDUCREATE
 40
2458295.136035174
  9
$TDUPDATE
 40
2458296.781703704
  9
$TDUUPDATE
 40
2458296.406703704
  9
$TDINDWG
 40
0.0059868287
  9
$TDUSRTIMER
 40
2458296.40520794
  9
$USRTIMER
 70
     1
  9
$ANGBASE
 50
0.0
  9
$ANGDIR
 70
     0
  9
$PDMODE
 70
     0
  9
$PDSIZE
 40
-1.0
  9
$PLINEWID
 40
0.0
  9
$SPLFRAME
 70
     0
  9
$SPLINETYPE
 70
     6
  9
$SPLINESEGS
 70
     8
  9
$HANDSEED
  5
4DF
  9
$SURFTAB1
 70
     6
  9
$SURFTAB2
 70
     6
  9
$SURFTYPE
 70
     6
  9
$SURFU
 70
     6
  9
$SURFV
 70
     6
  9
$UCSBASE
  2

  9
$UCSNAME
  2

  9
$UCSORG
 10
0.0
 20
0.0
 30
0.0
  9
$UCSXDIR
 10
1.0
 20
0.0
 30
0.0
  9
$UCSYDIR
 10
0.0
 20
1.0
 30
0.0
  9
$UCSORTHOREF
  2

  9
$UCSORTHOVIEW
 70
     0
  9
$UCSORGTOP
 10
0.0
 20
0.0
 30
0.0
  9
$UCSORGBOTTOM
 10
0.0
 20
0.0
 30
0.0
  9
$UCSORGLEFT
 10
0.0
 20
0.0
 30
0.0
  9
$UCSORGRIGHT
 10
0.0
 20
0.0
 30
0.0
  9
$UCSORGFRONT
 10
0.0
 20
0.0
 30
0.0
  9
$UCSORGBACK
 10
0.0
 20
0.0
 30
0.0
  9
$PUCSBASE
  2

  9
$PUCSNAME
  2

  9
$PUCSORG
 10
0.0
 20
0.0
 30
0.0
  9
$PUCSXDIR
 10
1.0
 20
0.0
 30
0.0
  9
$PUCSYDIR
 10
0.0
 20
1.0
 30
0.0
  9
$PUCSORTHOREF
  2

  9
$PUCSORTHOVIEW
 70
     0
  9
$PUCSORGTOP
 10
0.0
 20
0.0
 30
0.0
  9
$PUCSORGBOTTOM
 10
0.0
 20
0.0
 30
0.0
  9
$PUCSORGLEFT
 10
0.0
 20
0.0
 30
0.0
  9
$PUCSORGRIGHT
 10
0.0
 20
0.0
 30
0.0
  9
$PUCSORGFRONT
 10
0.0
 20
0.0
 30
0.0
  9
$PUCSORGBACK
 10
0.0
 20
0.0
 30
0.0
  9
$USERI1
 70
     0
  9
$USERI2
 70
     0
  9
$USERI3
 70
     0
  9
$USERI4
 70
     0
  9
$USERI5
 70
     0
  9
$USERR1
 40
0.0
  9
$USERR2
 40
0.0
  9
$USERR3
 40
0.0
  9
$USERR4
 40
0.0
  9
$USERR5
 40
0.0
  9
$WORLDVIEW
 70
     1
  9
$SHADEDGE
 70
     3
  9
$SHADEDIF
 70
    70
  9
$TILEMODE
 70
     1
  9
$MAXACTVP
 70
    64
  9
$PINSBASE
 10
0.0
 20
0.0
 30
0.0
  9
$PLIMCHECK
 70
     0
  9
$PEXTMIN
 10
1.000000000000000E+20
 20
1.000000000000000E+20
 30
1.000000000000000E+20
  9
$PEXTMAX
 10
-1.000000000000000E+20
 20
-1.000000000000000E+20
 30
-1.000000000000000E+20
  9
$PLIMMIN
 10
0.0
 20
0.0
  9
$PLIMMAX
 10
0.0
 20
0.0
  9
$UNITMODE
 70
     0
  9
$VISRETAIN
 70
     1
  9
$PLINEGEN
 70
     0
  9
$PSLTSCALE
 70
     1
  9
$TREEDEPTH
 70
  3020
  9
$CMLSTYLE
  2
Standard
  9
$CMLJUST
 70
     0
  9
$CMLSCALE
 40
20.0
  9
$PROXYGRAPHICS
 70
     1
  9
$MEASUREMENT
 70
     1
  9
$CELWEIGHT
370
    -1
  9
$ENDCAPS
280
     0
  9
$JOINSTYLE
280
     0
  9
$LWDISPLAY
290
     1
  9
$INSUNITS
 70
     4
  9
$HYPERLINKBASE
  1

  9
$STYLESHEET
  1

  9
$XEDIT
290
     1
  9
$CEPSNTYPE
380
     0
  9
$PSTYLEMODE
290
     1
  9
$FINGERPRINTGUID
  2
{2C918121-44B8-46B7-BE7C-8E072AA8676E}
  9
$VERSIONGUID
  2
{FAEB1C32-E019-11D5-929B-00C0DF256EC4}
  9
$EXTNAMES
290
     1
  9
$PSVPSCALE
 40
0.0
  9
$OLESTARTUP
290
     0
  0
ENDSEC
  0
SECTION
  2
CLASSES
  0
CLASS
  1
ACDBDICTIONARYWDFLT
  2
AcDbDictionaryWithDefault
  3
ObjectDBX Classes
 90
        0
280
     0
281
     0
  0
CLASS
  1
VISUALSTYLE
  2
AcDbVisualStyle
  3
ObjectDBX Classes
 90
     4095
280
     0
281
     0
  0
CLASS
  1
MATERIAL
  2
AcDbMaterial
  3
ObjectDBX Classes
 90
     1153
280
     0
281
     0
  0
CLASS
  1
SCALE
  2
AcDbScale
  3
ObjectDBX Classes
 90
     1153
280
     0
281
     0
  0
CLASS
  1
SUN
  2
AcDbSun
  3
SCENEOE
 90
     1153
280
     0
281
     0
  0
CLASS
  1
ACDBPLACEHOLDER
  2
AcDbPlaceHolder
  3
ObjectDBX Classes
 90
        0
280
     0
281
     0
  0
CLASS
  1
LAYOUT
  2
AcDbLayout
  3
ObjectDBX Classes
 90
        0
280
     0
281
     0
  0
CLASS
  1
TABLESTYLE
  2
AcDbTableStyle
  3
ObjectDBX Classes
 90
     4095
280
     0
281
     0
  0
CLASS
  1
MLEADERSTYLE
  2
AcDbMLeaderStyle
  3
ACDB_MLEADERSTYLE_CLASS
 90
     4095
280
     0
281
     0
  0
CLASS
  1
DIMASSOC
  2
AcDbDimAssoc
  3
"AcDbDimAssoc|Product Desc:     AcDim ARX App For Dimension|Company:          Autodesk, Inc.|WEB Address:      www.autodesk.com"
 90
        0
280
     0
281
     0
  0
CLASS
  1
RASTERVARIABLES
  2
AcDbRasterVariables
  3
ISM
 90
        0
280
     0
281
     0
  0
ENDSEC
  0
SECTION
  2
TABLES
  0
TABLE
  2
VPORT
  5
8
330
0
100
AcDbSymbolTable
 70
     1
  0
VPORT
  5
29
330
8
100
AcDbSymbolTableRecord
100
AcDbViewportTableRecord
  2
*Active
 70
     0
 10
0.0
 20
0.0
 11
1.0
 21
1.0
 12
33.72684504540565
 22
-3.19441629269163
 13
0.0
 23
0.0
 14
10.0
 24
10.0
 15
10.0
 25
10.0
 16
0.0
 26
0.0
 36
1.0
 17
0.0
 27
0.0
 37
0.0
 40
125.9047628761615
 41
1.565637065637066
 42
50.0
 43
0.0
 44
0.0
 50
0.0
 51
0.0
 71
    16
 72
  2000
 73
     1
 74
     3
 75
     0
 76
     0
 77
     0
 78
     0
281
     0
 65
     1
110
0.0
120
0.0
130
0.0
111
1.0
121
0.0
131
0.0
112
0.0
122
1.0
132
0.0
 79
     0
146
0.0
  0
ENDTAB
  0
TABLE
  2
LTYPE
  5
5
330
0
100
AcDbSymbolTable
 70
     6
  0
LTYPE
  5
14
330
5
100
AcDbSymbolTableRecord
100
AcDbLinetypeTableRecord
  2
ByBlock
 70
     0
  3

 72
    65
 73
     0
 40
0.0
  0
LTYPE
  5
15
330
5
100
AcDbSymbolTableRecord
100
AcDbLinetypeTableRecord
  2
ByLayer
 70
     0
  3

 72
    65
 73
     0
 40
0.0
  0
LTYPE
  5
16
330
5
100
AcDbSymbolTableRecord
100
AcDbLinetypeTableRecord
  2
Continuous
 70
     0
  3
Solid line
 72
    65
 73
     0
 40
0.0
  0
LTYPE
  5
6A
330
5
100
AcDbSymbolTableRecord
100
AcDbLinetypeTableRecord
  2
HIDDEN
 70
     0
  3
Hidden __ __ __ __ __ __ __ __ __ __ __ __ __ __
 72
    65
 73
     2
 40
1.905
 49
1.27
 74
     0
 49
-0.635
 74
     0
  0
LTYPE
  5
6B
330
5
100
AcDbSymbolTableRecord
100
AcDbLinetypeTableRecord
  2
PHANTOM
 70
     0
  3
Phantom ______  __  __  ______  __  __  ______
 72
    65
 73
     6
 40
12.7
 49
6.35
 74
     0
 49
-1.27
 74
     0
 49
1.27
 74
     0
 49
-1.27
 74
     0
 49
1.27
 74
     0
 49
-1.27
 74
     0
  0
LTYPE
  5
6C
330
5
100
AcDbSymbolTableRecord
100
AcDbLinetypeTableRecord
  2
CENTER
 70
     0
  3
Center ____ _ ____ _ ____ _ ____ _ ____ _ ____
 72
    65
 73
     4
 40
10.16
 49
6.35
 74
     0
 49
-1.27
 74
     0
 49
1.27
 74
     0
 49
-1.27
 74
     0
  0
LTYPE
  5
6D
330
5
100
AcDbSymbolTableRecord
100
AcDbLinetypeTableRecord
  2
CENTERX2
 70
     0
  3
Center (2x) ________  __  ________  __  _____
 72
    65
 73
     4
 40
20.32
 49
12.7
 74
     0
 49
-2.54
 74
     0
 49
2.54
 74
     0
 49
-2.54
 74
     0
  0
LTYPE
  5
6E
330
5
100
AcDbSymbolTableRecord
100
AcDbLinetypeTableRecord
  2
DOT2
 70
     0
  3
Dot (.5x) ........................................
 72
    65
 73
     2
 40
0.635
 49
0.0
 74
     0
 49
-0.635
 74
     0
  0
ENDTAB
  0
TABLE
  2
LAYER
  5
2
102
{ACAD_XDICTIONARY
360
21F
102
}
330
0
100
AcDbSymbolTable
 70
    18
  0
LAYER
  5
10
330
2
100
AcDbSymbolTableRecord
100
AcDbLayerTableRecord
  2
0
 70
     0
 62
     7
  6
Continuous
370
    -3
390
F
  0
LAYER
  5
6F
330
2
100
AcDbSymbolTableRecord
100
AcDbLayerTableRecord
  2
FORMAT
 70
     0
 62
     2
  6
Continuous
370
    -3
390
F
  0
LAYER
  5
70
330
2
100
AcDbSymbolTableRecord
100
AcDbLayerTableRecord
  2
외형선
 70
     0
 62
     4
  6
Continuous
370
    30
390
F
  0
LAYER
  5
71
330
2
100
AcDbSymbolTableRecord
100
AcDbLayerTableRecord
  2
숨은선
 70
     0
 62
     2
  6
HIDDEN
370
    15
390
F
  0
LAYER
  5
72
330
2
100
AcDbSymbolTableRecord
100
AcDbLayerTableRecord
  2
중심선
 70
     0
 62
     1
  6
CENTERX2
370
    -3
390
F
  0
LAYER
  5
73
330
2
100
AcDbSymbolTableRecord
100
AcDbLayerTableRecord
  2
파단선
 70
     0
 62
     4
  6
Continuous
370
    -3
390
F
  0
LAYER
  5
74
330
2
100
AcDbSymbolTableRecord
100
AcDbLayerTableRecord
  2
해칭선
 70
     0
 62
   100
  6
Continuous
370
    -3
390
F
  0
LAYER
  5
75
330
2
100
AcDbSymbolTableRecord
100
AcDbLayerTableRecord
  2
가는실선
 70
     0
 62
     4
  6
Continuous
370
    -3
390
F
  0
LAYER
  5
76
330
2
100
AcDbSymbolTableRecord
100
AcDbLayerTableRecord
  2
치수_보조선
 70
     0
 62
     4
  6
Continuous
370
    -3
390
F
  0
LAYER
  5
77
330
2
100
AcDbSymbolTableRecord
100
AcDbLayerTableRecord
  2
치수문자_일반주서
 70
     0
 62
     7
  6
Continuous
370
    15
390
F
  0
LAYER
  5
78
330
2
100
AcDbSymbolTableRecord
100
AcDbLayerTableRecord
  2
개별주서
 70
     0
 62
   100
  6
Continuous
370
    30
390
F
  0
LAYER
  5
79
330
2
100
AcDbSymbolTableRecord
100
AcDbLayerTableRecord
  2
중간선
 70
     0
 62
     2
  6
Continuous
370
    15
390
F
  0
LAYER
  5
7A
330
2
100
AcDbSymbolTableRecord
100
AcDbLayerTableRecord
  2
윤곽선
 70
     0
 62
     3
  6
Continuous
370
    40
390
F
  0
LAYER
  5
7B
330
2
100
AcDbSymbolTableRecord
100
AcDbLayerTableRecord
  2
중심마크
 70
     0
 62
   100
  6
Continuous
370
    30
390
F
  0
LAYER
  5
7C
330
2
100
AcDbSymbolTableRecord
100
AcDbLayerTableRecord
  2
가상선
 70
     0
 62
     4
  6
PHANTOM
370
    -3
390
F
  0
LAYER
  5
7D
330
2
100
AcDbSymbolTableRecord
100
AcDbLayerTableRecord
  2
특수지정선
 70
     0
 62
     5
  6
CENTERX2
370
    60
390
F
  0
LAYER
  5
7E
330
2
100
AcDbSymbolTableRecord
100
AcDbLayerTableRecord
  2
참조1
 70
     0
 62
    -4
  6
Continuous
370
    -3
390
F
  0
LAYER
  5
16D
330
2
100
AcDbSymbolTableRecord
100
AcDbLayerTableRecord
  2
Defpoints
 70
     0
 62
     7
  6
Continuous
290
     0
370
    -3
390
F
  0
ENDTAB
  0
TABLE
  2
STYLE
  5
3
330
0
100
AcDbSymbolTable
 70
     2
  0
STYLE
  5
11
330
3
100
AcDbSymbolTableRecord
100
AcDbTextStyleTableRecord
  2
Standard
 70
     0
 40
0.0
 41
1.0
 50
0.0
 71
     0
 42
3.5
  3
txt
  4

  0
STYLE
  5
94
330
3
100
AcDbSymbolTableRecord
100
AcDbTextStyleTableRecord
  2
SLDTEXTSTYLE0
 70
     0
 40
0.0
 41
0.75
 50
0.0
 71
     0
 42
3.5
  3
TXT
  4

  0
ENDTAB
  0
TABLE
  2
VIEW
  5
6
330
0
100
AcDbSymbolTable
 70
     0
  0
ENDTAB
  0
TABLE
  2
UCS
  5
7
330
0
100
AcDbSymbolTable
 70
     0
  0
ENDTAB
  0
TABLE
  2
APPID
  5
9
330
0
100
AcDbSymbolTable
 70
     3
  0
APPID
  5
12
330
9
100
AcDbSymbolTableRecord
100
AcDbRegAppTableRecord
  2
ACAD
 70
     0
  0
APPID
  5
178
330
9
100
AcDbSymbolTableRecord
100
AcDbRegAppTableRecord
  2
PE_URL
 70
     0
  0
APPID
  5
179
330
9
100
AcDbSymbolTableRecord
100
AcDbRegAppTableRecord
  2
ACAD_DSTYLE_DIMRADIAL_EXTENSION
 70
     0
  0
ENDTAB
  0
TABLE
  2
DIMSTYLE
  5
A
330
0
100
AcDbSymbolTable
 70
     4
100
AcDbDimStyleTable
  0
DIMSTYLE
105
27
330
A
100
AcDbSymbolTableRecord
100
AcDbDimStyleTableRecord
  2
ISO-25
 70
     0
 41
2.5
 42
0.625
 43
3.75
 44
1.25
 73
     0
 74
     0
 77
     1
 78
     8
140
2.5
141
2.5
143
0.03937007874016
147
0.625
171
     3
172
     1
178
     0
271
     2
272
     2
274
     3
278
    44
283
     0
284
     8
340
11
  0
DIMSTYLE
105
EC
102
{ACAD_REACTORS
330
450
330
451
330
452
330
453
330
4D1
102
}
330
A
100
AcDbSymbolTableRecord
100
AcDbDimStyleTableRecord
  2
SLDDIMSTYLE0
 70
     0
 41
3.302
 44
0.0
 45
0.000000001
 73
     0
 74
     0
 77
     1
 78
    12
 79
     3
140
3.5
143
0.0393700787401575
147
0.875
148
0.000000001
170
     1
172
     1
173
     1
178
     0
271
     2
272
     2
276
     2
284
    12
289
     0
340
94
  0
DIMSTYLE
105
115
330
A
100
AcDbSymbolTableRecord
100
AcDbDimStyleTableRecord
  2
SLDDIMSTYLE1
 70
     0
 41
3.302
 44
0.0
 45
0.000000001
 73
     0
 74
     0
 77
     1
 78
     4
 79
     1
140
3.5
143
0.0393700787401575
147
0.875
148
0.000000001
170
     1
173
     1
178
     0
271
     2
272
     2
276
     2
284
    12
340
94
  0
DIMSTYLE
105
129
330
A
100
AcDbSymbolTableRecord
100
AcDbDimStyleTableRecord
  2
SLDDIMSTYLE2
 70
     0
 41
3.302
 44
0.0
 45
0.000000001
 73
     0
 74
     0
 77
     1
 78
    12
 79
     3
140
3.5
143
0.0393700787401575
147
0.875
148
0.000000001
170
     1
173
     1
178
     0
271
     2
272
     2
276
     2
284
    12
340
94
  0
ENDTAB
  0
TABLE
  2
BLOCK_RECORD
  5
1
330
0
100
AcDbSymbolTable
 70
    30
  0
BLOCK_RECORD
  5
1F
330
1
100
AcDbSymbolTableRecord
100
AcDbBlockTableRecord
  2
*Model_Space
340
22
  0
BLOCK_RECORD
  5
1B
330
1
100
AcDbSymbolTableRecord
100
AcDbBlockTableRecord
  2
*Paper_Space
340
1E
  0
BLOCK_RECORD
  5
23
330
1
100
AcDbSymbolTableRecord
100
AcDbBlockTableRecord
  2
*Paper_Space0
340
26
  0
BLOCK_RECORD
  5
7F
330
1
100
AcDbSymbolTableRecord
100
AcDbBlockTableRecord
  2
블럭10
340
0
102
{BLKREFS
331
E4
102
}
  0
BLOCK_RECORD
  5
ED
330
1
100
AcDbSymbolTableRecord
100
AcDbBlockTableRecord
  2
_D
340
0
  0
BLOCK_RECORD
  5
101
330
1
100
AcDbSymbolTableRecord
100
AcDbBlockTableRecord
  2
_D_1
340
0
  0
BLOCK_RECORD
  5
116
330
1
100
AcDbSymbolTableRecord
100
AcDbBlockTableRecord
  2
_D_2
340
0
  0
BLOCK_RECORD
  5
12A
330
1
100
AcDbSymbolTableRecord
100
AcDbBlockTableRecord
  2
_D_3
340
0
  0
BLOCK_RECORD
  5
143
330
1
100
AcDbSymbolTableRecord
100
AcDbBlockTableRecord
  2
SW_DOWELSYMBOL_0
340
0
102
{BLKREFS
331
454
102
}
  0
BLOCK_RECORD
  5
216
330
1
100
AcDbSymbolTableRecord
100
AcDbBlockTableRecord
  2
*D7
340
0
  0
BLOCK_RECORD
  5
223
330
1
100
AcDbSymbolTableRecord
100
AcDbBlockTableRecord
  2
*D8
340
0
  0
BLOCK_RECORD
  5
22F
330
1
100
AcDbSymbolTableRecord
100
AcDbBlockTableRecord
  2
*D9
340
0
  0
BLOCK_RECORD
  5
23B
330
1
100
AcDbSymbolTableRecord
100
AcDbBlockTableRecord
  2
*D10
340
0
  0
BLOCK_RECORD
  5
247
330
1
100
AcDbSymbolTableRecord
100
AcDbBlockTableRecord
  2
*D11
340
0
  0
BLOCK_RECORD
  5
29B
330
1
100
AcDbSymbolTableRecord
100
AcDbBlockTableRecord
  2
*D12
340
0
  0
BLOCK_RECORD
  5
2A7
330
1
100
AcDbSymbolTableRecord
100
AcDbBlockTableRecord
  2
*D13
340
0
  0
BLOCK_RECORD
  5
2B3
330
1
100
AcDbSymbolTableRecord
100
AcDbBlockTableRecord
  2
*D14
340
0
  0
BLOCK_RECORD
  5
2BF
330
1
100
AcDbSymbolTableRecord
100
AcDbBlockTableRecord
  2
*D15
340
0
  0
BLOCK_RECORD
  5
2CC
330
1
100
AcDbSymbolTableRecord
100
AcDbBlockTableRecord
  2
*D16
340
0
  0
BLOCK_RECORD
  5
2E2
330
1
100
AcDbSymbolTableRecord
100
AcDbBlockTableRecord
  2
*D17
340
0
  0
BLOCK_RECORD
  5
3C3
330
1
100
AcDbSymbolTableRecord
100
AcDbBlockTableRecord
  2
*D18
340
0
  0
BLOCK_RECORD
  5
3D4
330
1
100
AcDbSymbolTableRecord
100
AcDbBlockTableRecord
  2
*D19
340
0
  0
BLOCK_RECORD
  5
3E3
330
1
100
AcDbSymbolTableRecord
100
AcDbBlockTableRecord
  2
*D20
340
0
  0
BLOCK_RECORD
  5
3EF
330
1
100
AcDbSymbolTableRecord
100
AcDbBlockTableRecord
  2
*D21
340
0
  0
BLOCK_RECORD
  5
3FB
330
1
100
AcDbSymbolTableRecord
100
AcDbBlockTableRecord
  2
*D22
340
0
  0
BLOCK_RECORD
  5
45F
330
1
100
AcDbSymbolTableRecord
100
AcDbBlockTableRecord
  2
*D23
340
0
  0
BLOCK_RECORD
  5
46E
330
1
100
AcDbSymbolTableRecord
100
AcDbBlockTableRecord
  2
*D24
340
0
  0
BLOCK_RECORD
  5
47A
330
1
100
AcDbSymbolTableRecord
100
AcDbBlockTableRecord
  2
*D25
340
0
  0
BLOCK_RECORD
  5
486
330
1
100
AcDbSymbolTableRecord
100
AcDbBlockTableRecord
  2
*D26
340
0
  0
BLOCK_RECORD
  5
492
330
1
100
AcDbSymbolTableRecord
100
AcDbBlockTableRecord
  2
*D27
340
0
  0
BLOCK_RECORD
  5
4A3
330
1
100
AcDbSymbolTableRecord
100
AcDbBlockTableRecord
  2
*D28
340
0
  0
BLOCK_RECORD
  5
4D4
330
1
100
AcDbSymbolTableRecord
100
AcDbBlockTableRecord
  2
*D29
340
0
  0
ENDTAB
  0
ENDSEC
  0
SECTION
  2
BLOCKS
  0
BLOCK
  5
20
330
1F
100
AcDbEntity
  8
0
100
AcDbBlockBegin
  2
*Model_Space
 70
     0
 10
0.0
 20
0.0
 30
0.0
  3
*Model_Space
  1
*Model_Space
  0
ENDBLK
  5
21
330
1F
100
AcDbEntity
  8
0
100
AcDbBlockEnd
  0
BLOCK
  5
1C
330
1B
100
AcDbEntity
 67
     1
  8
0
100
AcDbBlockBegin
  2
*Paper_Space
 70
     0
 10
0.0
 20
0.0
 30
0.0
  3
*Paper_Space
  1
*Paper_Space
  0
ENDBLK
  5
1D
330
1B
100
AcDbEntity
 67
     1
  8
0
100
AcDbBlockEnd
  0
BLOCK
  5
24
330
23
100
AcDbEntity
  8
0
100
AcDbBlockBegin
  2
*Paper_Space0
 70
     0
 10
0.0
 20
0.0
 30
0.0
  3
*Paper_Space0
  1
*Paper_Space0
  0
ENDBLK
  5
25
330
23
100
AcDbEntity
  8
0
100
AcDbBlockEnd
  0
BLOCK
  5
80
330
7F
100
AcDbEntity
  8
0
100
AcDbBlockBegin
  2
블럭10
 70
     2
 10
0.0
 20
0.0
 30
0.0
  3
블럭10
  1
블럭10
  0
ELLIPSE
  5
82
330
7F
100
AcDbEntity
  8
중심선
100
AcDbEllipse
 10
20.54032771741204
 20
12.0471743016438
 30
0.0
 11
6.600054785286829
 21
-1.261213355974178E-13
 31
0.0
210
0.0
220
0.0
230
1.0
 40
0.636358354079598
 41
0.9219305317359503
 42
6.513795318482858
  0
ELLIPSE
  5
83
330
7F
100
AcDbEntity
  8
중심선
100
AcDbEllipse
 10
20.54032771746488
 20
12.04717430159265
 30
0.0
 11
3.960054785062283
 21
1.540847449632565E-10
 31
0.0
210
0.0
220
0.0
230
1.0
 40
0.3939339440162632
 41
1.131841032648279
 42
5.62031148352944
  0
LINE
  5
84
330
7F
100
AcDbEntity
  8
중심선
100
AcDbLine
 10
2.268634060543552
 20
16.24717430164393
 30
0.0
 11
5.714909304380834
 21
16.24717430164393
 31
0.0
  0
LINE
  5
85
330
7F
100
AcDbEntity
  8
중심선
100
AcDbLine
 10
5.245725140726316
 20
7.84717430164391
 30
0.0
 11
8.692000384563599
 21
7.84717430164391
 31
0.0
  0
LINE
  5
86
330
7F
100
AcDbEntity
  8
중심선
100
AcDbLine
 10
15.74043728645272
 20
16.24717430164393
 30
0.0
 11
8.692000384563599
 21
7.84717430164391
 31
0.0
  0
LINE
  5
87
330
7F
100
AcDbEntity
  8
중심선
100
AcDbLine
 10
0.1404042013395286
 20
13.71084872107135
 30
0.0
 11
3.58671253028996
 21
13.71088815037384
 31
0.0
  0
LINE
  5
88
330
7F
100
AcDbEntity
  8
중심선
100
AcDbLine
 10
2.750260043222114
 20
10.84717430164391
 30
0.0
 11
6.196535287059397
 21
10.84717430164391
 31
0.0
  0
LINE
  5
89
330
7F
100
AcDbEntity
  8
중심선
100
AcDbLine
 10
12.29416204261559
 20
16.24717430164393
 30
0.0
 11
5.245725140726316
 21
7.84717430164391
 31
0.0
  0
LINE
  5
8A
330
7F
100
AcDbEntity
  8
중심선
100
AcDbLine
 10
10.72767329541681
 20
16.24717430164393
 30
0.0
 11
6.196535287059397
 21
10.84717430164391
 31
0.0
  0
LINE
  5
8B
330
7F
100
AcDbEntity
  8
중심선
100
AcDbLine
 10
7.28139805157953
 20
16.24717430164393
 30
0.0
 11
2.750260043222114
 21
10.84717430164391
 31
0.0
  0
LINE
  5
8C
330
7F
100
AcDbEntity
  8
중심선
100
AcDbLine
 10
5.714909304380834
 20
16.24717430164393
 30
0.0
 11
3.58671253028996
 21
13.71088815037384
 31
0.0
  0
LINE
  5
8D
330
7F
100
AcDbEntity
  8
중심선
100
AcDbLine
 10
2.268634060543552
 20
16.24717430164393
 30
0.0
 11
0.1404042013395286
 21
13.71084872107135
 31
0.0
  0
LINE
  5
8E
330
7F
100
AcDbEntity
  8
중심선
100
AcDbLine
 10
7.28139805157953
 20
16.24717430164393
 30
0.0
 11
10.72767329541681
 21
16.24717430164393
 31
0.0
  0
LINE
  5
8F
330
7F
100
AcDbEntity
  8
중심선
100
AcDbLine
 10
12.29416204261559
 20
16.24717430164393
 30
0.0
 11
15.74043728645272
 21
16.24717430164393
 31
0.0
  0
LINE
  5
90
330
7F
100
AcDbEntity
  8
중심선
100
AcDbLine
 10
19.22036997980202
 20
11.08717430171403
 30
0.0
 11
23.66174974927406
 21
11.08717430171406
 31
0.0
  0
LINE
  5
91
330
7F
100
AcDbEntity
  8
중심선
100
AcDbLine
 10
19.22039502424796
 20
13.00717430171391
 30
0.0
 11
19.22036997980202
 21
11.08717430171403
 31
0.0
  0
LINE
  5
92
330
7F
100
AcDbEntity
  8
중심선
100
AcDbLine
 10
19.22039502424796
 20
13.00717430171391
 30
0.0
 11
26.96566020931264
 21
13.00717430171391
 31
0.0
  0
LINE
  5
93
330
7F
100
AcDbEntity
  8
중심선
100
AcDbLine
 10
22.22332737316547
 20
13.45928029700563
 30
0.0
 11
24.52862924686651
 21
15.39360700705356
 31
0.0
  0
ATTDEF
  5
95
330
7F
100
AcDbEntity
  8
FORMAT
 62
     2
100
AcDbText
 10
2.883703680694412
 20
2.075366912832191
 30
0.0
 40
4.233333333333333
  1
G8C51048
 41
0.75
  7
SLDTEXTSTYLE0
 11
2.883703680694412
 21
-0.0412997538344756
 31
0.0
100
AcDbAttributeDefinition
  3

  2
AUTOATTR0
 70
     0
 74
     1
  0
ENDBLK
  5
81
330
7F
100
AcDbEntity
  8
0
100
AcDbBlockEnd
  0
BLOCK
  5
EE
330
ED
100
AcDbEntity
  8
0
100
AcDbBlockBegin
  2
_D
 70
     0
 10
0.0
 20
0.0
 30
0.0
  3
_D
  1
_D
  0
SOLID
  5
F0
330
ED
100
AcDbEntity
  8
치수문자_일반주서
100
AcDbTrace
 10
67.09999999999992
 20
9.52607492872388
 30
0.0
 11
67.60799999999992
 21
12.82807492872388
 31
0.0
 12
66.59199999999993
 22
12.82807492872388
 32
0.0
 13
66.59199999999993
 23
12.82807492872388
 33
0.0
  0
SOLID
  5
F1
330
ED
100
AcDbEntity
  8
치수문자_일반주서
100
AcDbTrace
 10
67.09999999999992
 20
-9.523925071276118
 30
0.0
 11
66.59199999999993
 21
-12.82592507127612
 31
0.0
 12
67.60799999999992
 22
-12.82592507127612
 32
0.0
 13
67.60799999999992
 23
-12.82592507127612
 33
0.0
  0
LINE
  5
F2
330
ED
100
AcDbEntity
  8
치수문자_일반주서
100
AcDbLine
 10
56.30711828395721
 20
-5.781002371330927
 30
0.0
 11
56.30711828395722
 21
-6.491939856895427
 31
0.0
  0
LINE
  5
F3
330
ED
100
AcDbEntity
  8
치수문자_일반주서
100
AcDbLine
 10
56.30711828395722
 20
-6.491939856895427
 30
0.0
 11
61.86336827501652
 21
-6.491939856895388
 31
0.0
  0
LINE
  5
F4
330
ED
100
AcDbEntity
  8
치수문자_일반주서
100
AcDbLine
 10
61.86336827501652
 20
-6.491939856895388
 30
0.0
 11
61.86336827501651
 21
-5.781002371330888
 31
0.0
  0
LINE
  5
F5
330
ED
100
AcDbEntity
  8
치수문자_일반주서
100
AcDbLine
 10
56.30711828395714
 20
5.047730490806331
 30
0.0
 11
56.30711828395713
 21
5.758667976370831
 31
0.0
  0
LINE
  5
F6
330
ED
100
AcDbEntity
  8
치수문자_일반주서
100
AcDbLine
 10
56.30711828395713
 20
5.758667976370831
 30
0.0
 11
61.86336827501643
 21
5.75866797637087
 31
0.0
  0
LINE
  5
F7
330
ED
100
AcDbEntity
  8
치수문자_일반주서
100
AcDbLine
 10
61.86336827501643
 20
5.75866797637087
 30
0.0
 11
61.86336827501644
 21
5.04773049080637
 31
0.0
  0
LINE
  5
F8
330
ED
100
AcDbEntity
  8
치수문자_일반주서
100
AcDbLine
 10
35.49385523950279
 20
9.526074928723881
 30
0.0
 11
68.09999999999992
 21
9.52607492872388
 31
0.0
  0
LINE
  5
F9
330
ED
100
AcDbEntity
  8
치수문자_일반주서
100
AcDbLine
 10
35.49385523950279
 20
-9.523925071276116
 30
0.0
 11
68.09999999999992
 21
-9.523925071276118
 31
0.0
  0
LINE
  5
FA
330
ED
100
AcDbEntity
  8
치수문자_일반주서
100
AcDbLine
 10
67.09999999999992
 20
9.52607492872388
 30
0.0
 11
67.09999999999992
 21
15.87607492872388
 31
0.0
  0
LINE
  5
FB
330
ED
100
AcDbEntity
  8
치수문자_일반주서
100
AcDbLine
 10
67.09999999999992
 20
9.52607492872388
 30
0.0
 11
67.09999999999992
 21
-9.523925071276118
 31
0.0
  0
LINE
  5
FC
330
ED
100
AcDbEntity
  8
치수문자_일반주서
100
AcDbLine
 10
67.09999999999992
 20
-9.523925071276118
 30
0.0
 11
67.09999999999992
 21
-15.87392507127612
 31
0.0
  0
MTEXT
  5
FD
330
ED
100
AcDbEntity
  8
치수문자_일반주서
100
AcDbMText
 10
57.35163136043762
 20
-4.892330470719549
 30
0.0
 40
3.5
 41
0.0
 71
     1
 72
     1
  1
0.75
  7
SLDTEXTSTYLE0
 11
-7.044195017643634E-15
 21
1.0
 31
0.0
 73
     1
 44
1.0
  0
MTEXT
  5
FE
330
ED
100
AcDbEntity
  8
치수문자_일반주서
100
AcDbMText
 10
62.58826291079811
 20
-8.82460488308328
 30
0.0
 40
3.5
 41
0.0
 71
     1
 72
     1
  1
%%c
  7
SLDTEXTSTYLE0
 11
-7.044195017643634E-15
 21
1.0
 31
0.0
 73
     1
 44
1.0
  0
MTEXT
  5
FF
330
ED
100
AcDbEntity
  8
치수문자_일반주서
100
AcDbMText
 10
62.58826291079806
 20
-3.546167484709199
 30
0.0
 40
3.5
 41
0.0
 71
     1
 72
     1
  1
19.05
  7
SLDTEXTSTYLE0
 11
-7.044195017643634E-15
 21
1.0
 31
0.0
 73
     1
 44
1.0
  0
ENDBLK
  5
EF
330
ED
100
AcDbEntity
  8
0
100
AcDbBlockEnd
  0
BLOCK
  5
102
330
101
100
AcDbEntity
  8
0
100
AcDbBlockBegin
  2
_D_1
 70
     0
 10
0.0
 20
0.0
 30
0.0
  3
_D_1
  1
_D_1
  0
SOLID
  5
104
330
101
100
AcDbEntity
  8
치수문자_일반주서
100
AcDbTrace
 10
-63.67500000000008
 20
9.526074928723888
 30
0.0
 11
-63.16700000000007
 21
12.82807492872389
 31
0.0
 12
-64.18300000000008
 22
12.82807492872389
 32
0.0
 13
-64.18300000000008
 23
12.82807492872389
 33
0.0
  0
SOLID
  5
105
330
101
100
AcDbEntity
  8
치수문자_일반주서
100
AcDbTrace
 10
-63.67500000000008
 20
-9.523925071276123
 30
0.0
 11
-64.18300000000008
 21
-12.82592507127612
 31
0.0
 12
-63.16700000000007
 22
-12.82592507127612
 32
0.0
 13
-63.16700000000007
 23
-12.82592507127612
 33
0.0
  0
LINE
  5
106
330
101
100
AcDbEntity
  8
치수문자_일반주서
100
AcDbLine
 10
-74.4678817160428
 20
-5.413291502344814
 30
0.0
 11
-74.4678817160428
 21
-6.124228987909314
 31
0.0
  0
LINE
  5
107
330
101
100
AcDbEntity
  8
치수문자_일반주서
100
AcDbLine
 10
-74.4678817160428
 20
-6.124228987909314
 30
0.0
 11
-68.9116317249835
 21
-6.124228987909275
 31
0.0
  0
LINE
  5
108
330
101
100
AcDbEntity
  8
치수문자_일반주서
100
AcDbLine
 10
-68.9116317249835
 20
-6.124228987909275
 30
0.0
 11
-68.9116317249835
 21
-5.413291502344775
 31
0.0
  0
LINE
  5
109
330
101
100
AcDbEntity
  8
치수문자_일반주서
100
AcDbLine
 10
-74.46788171604288
 20
5.415441359792444
 30
0.0
 11
-74.46788171604288
 21
6.126378845356944
 31
0.0
  0
LINE
  5
10A
330
101
100
AcDbEntity
  8
치수문자_일반주서
100
AcDbLine
 10
-74.46788171604288
 20
6.126378845356944
 30
0.0
 11
-68.91163172498358
 21
6.126378845356983
 31
0.0
  0
LINE
  5
10B
330
101
100
AcDbEntity
  8
치수문자_일반주서
100
AcDbLine
 10
-68.91163172498358
 20
6.126378845356983
 30
0.0
 11
-68.91163172498358
 21
5.415441359792483
 31
0.0
  0
LINE
  5
10C
330
101
100
AcDbEntity
  8
치수문자_일반주서
100
AcDbLine
 10
-55.77000000000007
 20
9.526074928723888
 30
0.0
 11
-64.67500000000008
 21
9.526074928723888
 31
0.0
  0
LINE
  5
10D
330
101
100
AcDbEntity
  8
치수문자_일반주서
100
AcDbLine
 10
-55.77000000000007
 20
-9.523925071276123
 30
0.0
 11
-64.67500000000008
 21
-9.523925071276123
 31
0.0
  0
LINE
  5
10E
330
101
100
AcDbEntity
  8
치수문자_일반주서
100
AcDbLine
 10
-63.67500000000008
 20
9.526074928723888
 30
0.0
 11
-63.67500000000008
 21
15.87607492872389
 31
0.0
  0
LINE
  5
10F
330
101
100
AcDbEntity
  8
치수문자_일반주서
100
AcDbLine
 10
-63.67500000000008
 20
9.526074928723888
 30
0.0
 11
-63.67500000000008
 21
-9.523925071276123
 31
0.0
  0
LINE
  5
110
330
101
100
AcDbEntity
  8
치수문자_일반주서
100
AcDbLine
 10
-63.67500000000008
 20
-9.523925071276123
 30
0.0
 11
-63.67500000000008
 21
-15.87392507127612
 31
0.0
  0
MTEXT
  5
111
330
101
100
AcDbEntity
  8
치수문자_일반주서
100
AcDbMText
 10
-73.42336863956241
 20
-4.524619601733436
 30
0.0
 40
3.5
 41
0.0
 71
     1
 72
     1
  1
0.75
  7
SLDTEXTSTYLE0
 11
-7.044195017643634E-15
 21
1.0
 31
0.0
 73
     1
 44
1.0
  0
MTEXT
  5
112
330
101
100
AcDbEntity
  8
치수문자_일반주서
100
AcDbMText
 10
-68.18673708920191
 20
-8.456894014097168
 30
0.0
 40
3.5
 41
0.0
 71
     1
 72
     1
  1
%%c
  7
SLDTEXTSTYLE0
 11
-7.044195017643634E-15
 21
1.0
 31
0.0
 73
     1
 44
1.0
  0
MTEXT
  5
113
330
101
100
AcDbEntity
  8
치수문자_일반주서
100
AcDbMText
 10
-68.18673708920196
 20
-3.178456615723087
 30
0.0
 40
3.5
 41
0.0
 71
     1
 72
     1
  1
19.05
  7
SLDTEXTSTYLE0
 11
-7.044195017643634E-15
 21
1.0
 31
0.0
 73
     1
 44
1.0
  0
ENDBLK
  5
103
330
101
100
AcDbEntity
  8
0
100
AcDbBlockEnd
  0
BLOCK
  5
117
330
116
100
AcDbEntity
  8
0
100
AcDbBlockBegin
  2
_D_2
 70
     0
 10
0.0
 20
0.0
 30
0.0
  3
_D_2
  1
_D_2
  0
SOLID
  5
119
330
116
100
AcDbEntity
  8
치수문자_일반주서
100
AcDbTrace
 10
48.09999999999994
 20
38.22754456074204
 30
0.0
 11
44.79799999999994
 21
38.73554456074204
 31
0.0
 12
44.79799999999994
 22
37.71954456074204
 32
0.0
 13
44.79799999999994
 23
37.71954456074204
 33
0.0
  0
SOLID
  5
11A
330
116
100
AcDbEntity
  8
치수문자_일반주서
100
AcDbTrace
 10
9.99999999999996
 20
38.22754456074204
 30
0.0
 11
13.30199999999996
 21
37.71954456074204
 31
0.0
 12
13.30199999999996
 22
38.73554456074204
 32
0.0
 13
13.30199999999996
 23
38.73554456074204
 33
0.0
  0
LINE
  5
11B
330
116
100
AcDbEntity
  8
치수문자_일반주서
100
AcDbLine
 10
26.00307153726818
 20
49.02042627678478
 30
0.0
 11
25.29213405170368
 21
49.02042627678478
 31
0.0
  0
LINE
  5
11C
330
116
100
AcDbEntity
  8
치수문자_일반주서
100
AcDbLine
 10
25.29213405170368
 20
49.02042627678478
 30
0.0
 11
25.29213405170364
 21
43.46417628572548
 31
0.0
  0
LINE
  5
11D
330
116
100
AcDbEntity
  8
치수문자_일반주서
100
AcDbLine
 10
25.29213405170364
 20
43.46417628572548
 30
0.0
 11
26.00307153726814
 21
43.46417628572547
 31
0.0
  0
LINE
  5
11E
330
116
100
AcDbEntity
  8
치수문자_일반주서
100
AcDbLine
 10
36.83180439940544
 20
49.0204262767847
 30
0.0
 11
37.54274188496994
 21
49.02042627678469
 31
0.0
  0
LINE
  5
11F
330
116
100
AcDbEntity
  8
치수문자_일반주서
100
AcDbLine
 10
37.54274188496994
 20
49.02042627678469
 30
0.0
 11
37.5427418849699
 21
43.46417628572539
 31
0.0
  0
LINE
  5
120
330
116
100
AcDbEntity
  8
치수문자_일반주서
100
AcDbLine
 10
37.5427418849699
 20
43.46417628572539
 30
0.0
 11
36.8318043994054
 21
43.46417628572539
 31
0.0
  0
LINE
  5
121
330
116
100
AcDbEntity
  8
치수문자_일반주서
100
AcDbLine
 10
48.09999999999994
 20
9.756782472047465
 30
0.0
 11
48.09999999999994
 21
39.22754456074204
 31
0.0
  0
LINE
  5
122
330
116
100
AcDbEntity
  8
치수문자_일반주서
100
AcDbLine
 10
9.999999999999961
 20
10.49076696795225
 30
0.0
 11
9.99999999999996
 21
39.22754456074204
 31
0.0
  0
LINE
  5
123
330
116
100
AcDbEntity
  8
치수문자_일반주서
100
AcDbLine
 10
48.09999999999994
 20
38.22754456074204
 30
0.0
 11
9.99999999999996
 21
38.22754456074204
 31
0.0
  0
MTEXT
  5
124
330
116
100
AcDbEntity
  8
치수문자_일반주서
100
AcDbMText
 10
24.77837532621695
 20
42.79275382660376
 30
0.0
 40
3.5
 41
0.0
 71
     1
 72
     1
  1

  7
SLDTEXTSTYLE0
 73
     1
 44
1.0
  0
MTEXT
  5
125
330
116
100
AcDbEntity
  8
치수문자_일반주서
100
AcDbMText
 10
26.89174343787955
 20
47.97591320030436
 30
0.0
 40
3.5
 41
0.0
 71
     1
 72
     1
  1
1.50
  7
SLDTEXTSTYLE0
 73
     1
 44
1.0
  0
MTEXT
  5
126
330
116
100
AcDbEntity
  8
치수문자_일반주서
100
AcDbMText
 10
25.59868772470278
 20
42.7392816499439
 30
0.0
 40
3.5
 41
0.0
 71
     1
 72
     1
  1
38.10
  7
SLDTEXTSTYLE0
 73
     1
 44
1.0
  0
MTEXT
  5
127
330
116
100
AcDbEntity
  8
치수문자_일반주서
100
AcDbMText
 10
39.38844513011052
 20
42.79275382660366
 30
0.0
 40
3.5
 41
0.0
 71
     1
 72
     1
  1

  7
SLDTEXTSTYLE0
 73
     1
 44
1.0
  0
ENDBLK
  5
118
330
116
100
AcDbEntity
  8
0
100
AcDbBlockEnd
  0
BLOCK
  5
12B
330
12A
100
AcDbEntity
  8
0
100
AcDbBlockBegin
  2
_D_3
 70
     0
 10
0.0
 20
0.0
 30
0.0
  3
_D_3
  1
_D_3
  0
SOLID
  5
12D
330
12A
100
AcDbEntity
  8
치수문자_일반주서
100
AcDbTrace
 10
-56.67500000000007
 20
53.3357620293014
 30
0.0
 11
-53.37300000000007
 21
52.8277620293014
 31
0.0
 12
-53.37300000000007
 22
53.8437620293014
 32
0.0
 13
-53.37300000000007
 23
53.8437620293014
 33
0.0
  0
SOLID
  5
12E
330
12A
100
AcDbEntity
  8
치수문자_일반주서
100
AcDbTrace
 10
48.09999999999994
 20
53.33576202930139
 30
0.0
 11
44.79799999999994
 21
53.84376202930139
 31
0.0
 12
44.79799999999994
 22
52.82776202930139
 32
0.0
 13
44.79799999999994
 23
52.82776202930139
 33
0.0
  0
LINE
  5
12F
330
12A
100
AcDbEntity
  8
치수문자_일반주서
100
AcDbLine
 10
-8.57330615295581
 20
64.12864374534415
 30
0.0
 11
-9.28424363852031
 21
64.12864374534415
 31
0.0
  0
LINE
  5
130
330
12A
100
AcDbEntity
  8
치수문자_일반주서
100
AcDbLine
 10
-9.28424363852031
 20
64.12864374534415
 30
0.0
 11
-9.28424363852031
 21
58.57239375428485
 31
0.0
  0
LINE
  5
131
330
12A
100
AcDbEntity
  8
치수문자_일반주서
100
AcDbLine
 10
-9.28424363852031
 20
58.57239375428485
 30
0.0
 11
-8.57330615295581
 21
58.57239375428485
 31
0.0
  0
LINE
  5
132
330
12A
100
AcDbEntity
  8
치수문자_일반주서
100
AcDbLine
 10
2.255426709181448
 20
64.12864374534415
 30
0.0
 11
2.966364194745948
 21
64.12864374534415
 31
0.0
  0
LINE
  5
133
330
12A
100
AcDbEntity
  8
치수문자_일반주서
100
AcDbLine
 10
2.966364194745948
 20
64.12864374534415
 30
0.0
 11
2.966364194745948
 21
58.57239375428485
 31
0.0
  0
LINE
  5
134
330
12A
100
AcDbEntity
  8
치수문자_일반주서
100
AcDbLine
 10
2.966364194745948
 20
58.57239375428485
 30
0.0
 11
2.255426709181448
 21
58.57239375428485
 31
0.0
  0
LINE
  5
135
330
12A
100
AcDbEntity
  8
치수문자_일반주서
100
AcDbLine
 10
-56.67500000000007
 20
8.621074928723885
 30
0.0
 11
-56.67500000000007
 21
54.3357620293014
 31
0.0
  0
LINE
  5
136
330
12A
100
AcDbEntity
  8
치수문자_일반주서
100
AcDbLine
 10
48.09999999999994
 20
9.756782472047465
 30
0.0
 11
48.09999999999994
 21
54.33576202930139
 31
0.0
  0
LINE
  5
137
330
12A
100
AcDbEntity
  8
치수문자_일반주서
100
AcDbLine
 10
-56.67500000000007
 20
53.3357620293014
 30
0.0
 11
48.09999999999994
 21
53.33576202930139
 31
0.0
  0
MTEXT
  5
138
330
12A
100
AcDbEntity
  8
치수문자_일반주서
100
AcDbMText
 10
-10.2513012754593
 20
57.90097129516312
 30
0.0
 40
3.5
 41
0.0
 71
     1
 72
     1
  1

  7
SLDTEXTSTYLE0
 73
     1
 44
1.0
  0
MTEXT
  5
139
330
12A
100
AcDbEntity
  8
치수문자_일반주서
100
AcDbMText
 10
-7.68463425234444
 20
63.08413066886374
 30
0.0
 40
3.5
 41
0.0
 71
     1
 72
     1
  1
4.13
  7
SLDTEXTSTYLE0
 73
     1
 44
1.0
  0
MTEXT
  5
13A
330
12A
100
AcDbEntity
  8
치수문자_일반주서
100
AcDbMText
 10
-10.27074567869789
 20
57.84749911850326
 30
0.0
 40
3.5
 41
0.0
 71
     1
 72
     1
  1
104.78
  7
SLDTEXTSTYLE0
 73
     1
 44
1.0
  0
MTEXT
  5
13B
330
12A
100
AcDbEntity
  8
치수문자_일반주서
100
AcDbMText
 10
5.265366351338852
 20
57.90097129516312
 30
0.0
 40
3.5
 41
0.0
 71
     1
 72
     1
  1

  7
SLDTEXTSTYLE0
 73
     1
 44
1.0
  0
ENDBLK
  5
12C
330
12A
100
AcDbEntity
  8
0
100
AcDbBlockEnd
  0
BLOCK
  5
144
330
143
100
AcDbEntity
  8
0
100
AcDbBlockBegin
  2
SW_DOWELSYMBOL_0
 70
     0
 10
0.0
 20
0.0
 30
0.0
  3
SW_DOWELSYMBOL_0
  1
SW_DOWELSYMBOL_0
  0
CIRCLE
  5
146
330
143
100
AcDbEntity
  8
해칭선
 62
     0
100
AcDbCircle
 10
0.0
 20
0.0
 30
0.0
 40
3.000000000000001
  0
HATCH
  5
147
330
143
100
AcDbEntity
  8
0
  6
Continuous
 62
     0
370
     0
100
AcDbHatch
 10
0.0
 20
0.0
 30
0.0
210
0.0
220
0.0
230
1.0
  2
SOLID
 70
     1
 71
     0
 91
        1
 92
        0
 93
        3
 72
     2
 10
-0.0000000000000069
 20
0.0
 40
3.000000000000001
 50
0.0
 51
90.0
 73
     1
 72
     1
 10
-0.0000000000000069
 20
3.000000000000001
 11
-0.0000000000000069
 21
0.0
 72
     1
 10
-0.0000000000000069
 20
0.0
 11
2.999999999999994
 21
0.0
 97
        0
 75
     0
 76
     1
 98
        1
 10
0.0
 20
0.0
  0
HATCH
  5
148
330
143
100
AcDbEntity
  8
0
  6
Continuous
 62
     0
370
     0
100
AcDbHatch
 10
0.0
 20
0.0
 30
0.0
210
0.0
220
0.0
230
1.0
  2
SOLID
 70
     1
 71
     0
 91
        1
 92
        0
 93
        3
 72
     2
 10
-0.0000000000000069
 20
0.0
 40
3.000000000000001
 50
180.0
 51
270.0000000000007
 73
     1
 72
     1
 10
-0.0000000000000069
 20
-3.000000000000001
 11
-0.0000000000000069
 21
0.0
 72
     1
 10
-0.0000000000000069
 20
0.0
 11
-3.000000000000008
 21
0.0
 97
        0
 75
     0
 76
     1
 98
        1
 10
0.0
 20
0.0
  0
ENDBLK
  5
145
330
143
100
AcDbEntity
  8
0
100
AcDbBlockEnd
  0
BLOCK
  5
217
330
216
100
AcDbEntity
  8
0
100
AcDbBlockBegin
  2
*D7
 70
     1
 10
0.0
 20
0.0
 30
0.0
  3
*D7
  1
*D7
  0
LINE
  5
218
330
216
100
AcDbEntity
  8
치수문자_일반주서
 62
     0
370
    -2
100
AcDbLine
 10
110.3696191380187
 20
24.16978250478784
 30
0.0
 11
130.9418692318042
 21
0.0000000000001279
 31
0.0
  0
MTEXT
  5
219
330
216
100
AcDbEntity
  8
치수문자_일반주서
 62
     0
100
AcDbMText
 10
123.7248052595947
 20
12.5290647768913
 30
0.0
 40
3.5
 41
0.0
 71
     5
 72
     1
  1
\A1;R.76 [R0.030]
  7
SLDTEXTSTYLE0
 11
0.6481592367171979
 21
-0.761504828519281
 31
0.0
 73
     1
 44
1.0
  0
SOLID
  5
21A
330
216
100
AcDbEntity
  8
치수문자_일반주서
 62
     0
100
AcDbTrace
 10
110.7887006286472
 20
24.52648613806121
 30
0.0
 11
109.9505376473903
 21
23.81307887151448
 31
0.0
 12
108.2293973383786
 22
26.68427144855851
 32
0.0
 13
108.2293973383786
 23
26.68427144855851
 33
0.0
  0
LINE
  5
21B
330
216
100
AcDbEntity
  8
치수문자_일반주서
 62
     0
100
AcDbLine
 10
107.6905000000001
 20
27.2645381278902
 30
0.0
 11
107.7805000000001
 21
27.2645381278902
 31
0.0
  0
LINE
  5
21C
330
216
100
AcDbEntity
  8
치수문자_일반주서
 62
     0
100
AcDbLine
 10
107.7355000000001
 20
27.2195381278902
 30
0.0
 11
107.7355000000001
 21
27.3095381278902
 31
0.0
  0
POINT
  5
21D
330
216
100
AcDbEntity
  8
Defpoints
 62
     0
100
AcDbPoint
 10
108.2293973383786
 20
26.68427144855851
 30
0.0
  0
POINT
  5
254
330
216
100
AcDbEntity
  8
Defpoints
 62
     0
100
AcDbPoint
 10
107.7355000000001
 20
27.2645381278902
 30
0.0
  0
ENDBLK
  5
21E
330
216
100
AcDbEntity
  8
0
100
AcDbBlockEnd
  0
BLOCK
  5
224
330
223
100
AcDbEntity
  8
0
100
AcDbBlockBegin
  2
*D8
 70
     1
 10
0.0
 20
0.0
 30
0.0
  3
*D8
  1
*D8
  0
LINE
  5
226
330
223
100
AcDbEntity
  8
치수문자_일반주서
 62
     0
370
    -2
100
AcDbLine
 10
108.4975
 20
42.4400381278902
 30
0.0
 11
108.4975
 21
52.62208876950532
 31
0.0
  0
LINE
  5
227
330
223
100
AcDbEntity
  8
치수문자_일반주서
 62
     0
370
    -2
100
AcDbLine
 10
76.74750000000004
 20
42.40494906368131
 30
0.0
 11
76.74750000000004
 21
52.62208876950532
 31
0.0
  0
LINE
  5
228
330
223
100
AcDbEntity
  8
치수문자_일반주서
 62
     0
370
    -2
100
AcDbLine
 10
105.1955
 20
52.62208876950532
 30
0.0
 11
80.04950000000005
 21
52.62208876950532
 31
0.0
  0
SOLID
  5
229
330
223
100
AcDbEntity
  8
치수문자_일반주서
 62
     0
100
AcDbTrace
 10
105.1955
 20
52.07175543617198
 30
0.0
 11
105.1955
 21
53.17242210283865
 31
0.0
 12
108.4975
 22
52.62208876950532
 32
0.0
 13
108.4975
 23
52.62208876950532
 33
0.0
  0
SOLID
  5
22A
330
223
100
AcDbEntity
  8
치수문자_일반주서
 62
     0
100
AcDbTrace
 10
80.04950000000005
 20
53.17242210283865
 30
0.0
 11
80.04950000000005
 21
52.07175543617198
 31
0.0
 12
76.74750000000004
 22
52.62208876950532
 32
0.0
 13
76.74750000000004
 23
52.62208876950532
 33
0.0
  0
MTEXT
  5
22B
330
223
100
AcDbEntity
  8
치수문자_일반주서
 62
     0
100
AcDbMText
 10
92.62250000000004
 20
56.99708876950532
 30
0.0
 40
3.5
 41
0.0
 71
     2
 72
     1
  1
\A1;31.75 [1 1/4]
  7
SLDTEXTSTYLE0
 73
     1
 44
1.0
  0
POINT
  5
22C
330
223
100
AcDbEntity
  8
Defpoints
 62
     0
100
AcDbPoint
 10
108.4975
 20
42.3775381278902
 30
0.0
  0
POINT
  5
22D
330
223
100
AcDbEntity
  8
Defpoints
 62
     0
100
AcDbPoint
 10
76.74750000000004
 20
42.34244906368131
 30
0.0
  0
POINT
  5
22E
330
223
100
AcDbEntity
  8
Defpoints
 62
     0
100
AcDbPoint
 10
76.74750000000004
 20
52.62208876950532
 30
0.0
  0
ENDBLK
  5
225
330
223
100
AcDbEntity
  8
0
100
AcDbBlockEnd
  0
BLOCK
  5
230
330
22F
100
AcDbEntity
  8
0
100
AcDbBlockBegin
  2
*D9
 70
     1
 10
0.0
 20
0.0
 30
0.0
  3
*D9
  1
*D9
  0
LINE
  5
232
330
22F
100
AcDbEntity
  8
치수문자_일반주서
 62
     0
370
    -2
100
AcDbLine
 10
108.4975
 20
42.4400381278902
 30
0.0
 11
108.4975
 21
67.03557330178174
 31
0.0
  0
LINE
  5
233
330
22F
100
AcDbEntity
  8
치수문자_일반주서
 62
     0
370
    -2
100
AcDbLine
 10
16.42250000000006
 20
40.8525381278902
 30
0.0
 11
16.42250000000006
 21
67.03557330178174
 31
0.0
  0
LINE
  5
234
330
22F
100
AcDbEntity
  8
치수문자_일반주서
 62
     0
370
    -2
100
AcDbLine
 10
105.1955
 20
67.03557330178174
 30
0.0
 11
19.72450000000006
 21
67.03557330178174
 31
0.0
  0
SOLID
  5
235
330
22F
100
AcDbEntity
  8
치수문자_일반주서
 62
     0
100
AcDbTrace
 10
105.1955
 20
66.48523996844841
 30
0.0
 11
105.1955
 21
67.58590663511507
 31
0.0
 12
108.4975
 22
67.03557330178174
 32
0.0
 13
108.4975
 23
67.03557330178174
 33
0.0
  0
SOLID
  5
236
330
22F
100
AcDbEntity
  8
치수문자_일반주서
 62
     0
100
AcDbTrace
 10
19.72450000000006
 20
67.58590663511507
 30
0.0
 11
19.72450000000006
 21
66.48523996844841
 31
0.0
 12
16.42250000000006
 22
67.03557330178174
 32
0.0
 13
16.42250000000006
 23
67.03557330178174
 33
0.0
  0
MTEXT
  5
237
330
22F
100
AcDbEntity
  8
치수문자_일반주서
 62
     0
100
AcDbMText
 10
62.46000000000005
 20
71.41057330178174
 30
0.0
 40
3.5
 41
0.0
 71
     2
 72
     1
  1
\A1;92.08 [3 5/8]
  7
SLDTEXTSTYLE0
 73
     1
 44
1.0
  0
POINT
  5
238
330
22F
100
AcDbEntity
  8
Defpoints
 62
     0
100
AcDbPoint
 10
108.4975
 20
42.3775381278902
 30
0.0
  0
POINT
  5
239
330
22F
100
AcDbEntity
  8
Defpoints
 62
     0
100
AcDbPoint
 10
16.42250000000006
 20
40.7900381278902
 30
0.0
  0
POINT
  5
23A
330
22F
100
AcDbEntity
  8
Defpoints
 62
     0
100
AcDbPoint
 10
16.42250000000006
 20
67.03557330178174
 30
0.0
  0
ENDBLK
  5
231
330
22F
100
AcDbEntity
  8
0
100
AcDbBlockEnd
  0
BLOCK
  5
23C
330
23B
100
AcDbEntity
  8
0
100
AcDbBlockBegin
  2
*D10
 70
     1
 10
0.0
 20
0.0
 30
0.0
  3
*D10
  1
*D10
  0
LINE
  5
23E
330
23B
100
AcDbEntity
  8
치수문자_일반주서
 62
     0
370
    -2
100
AcDbLine
 10
17.94750000000005
 20
42.37753812789021
 30
0.0
 11
4.375000000000022
 21
42.37753812789016
 31
0.0
  0
LINE
  5
23F
330
23B
100
AcDbEntity
  8
치수문자_일반주서
 62
     0
370
    -2
100
AcDbLine
 10
17.94750000000005
 20
26.50253812789019
 30
0.0
 11
4.375000000000077
 21
26.50253812789014
 31
0.0
  0
LINE
  5
240
330
23B
100
AcDbEntity
  8
치수문자_일반주서
 62
     0
370
    -2
100
AcDbLine
 10
4.375000000000034
 20
39.07553812789016
 30
0.0
 11
4.375000000000066
 21
29.80453812789014
 31
0.0
  0
SOLID
  5
241
330
23B
100
AcDbEntity
  8
치수문자_일반주서
 62
     0
100
AcDbTrace
 10
4.925333333333367
 20
39.07553812789016
 30
0.0
 11
3.824666666666701
 21
39.07553812789016
 31
0.0
 12
4.375000000000022
 22
42.37753812789016
 32
0.0
 13
4.375000000000022
 23
42.37753812789016
 33
0.0
  0
SOLID
  5
242
330
23B
100
AcDbEntity
  8
치수문자_일반주서
 62
     0
100
AcDbTrace
 10
3.824666666666733
 20
29.80453812789013
 30
0.0
 11
4.925333333333399
 21
29.80453812789014
 31
0.0
 12
4.375000000000077
 22
26.50253812789014
 32
0.0
 13
4.375000000000077
 23
26.50253812789014
 33
0.0
  0
MTEXT
  5
243
330
23B
100
AcDbEntity
  8
치수문자_일반주서
 62
     0
100
AcDbMText
 10
0.0000000000000497
 20
34.4400381278902
 30
0.0
 40
3.5
 41
0.0
 71
     2
 72
     1
  1
\A1;%%c15.88 [5/8]
  7
SLDTEXTSTYLE0
 11
-3.468791308435129E-15
 21
1.0
 31
0.0
 73
     1
 44
1.0
  0
POINT
  5
244
330
23B
100
AcDbEntity
  8
Defpoints
 62
     0
100
AcDbPoint
 10
18.01000000000005
 20
42.37753812789021
 30
0.0
  0
POINT
  5
245
330
23B
100
AcDbEntity
  8
Defpoints
 62
     0
100
AcDbPoint
 10
18.01000000000005
 20
26.50253812789019
 30
0.0
  0
POINT
  5
246
330
23B
100
AcDbEntity
  8
Defpoints
 62
     0
100
AcDbPoint
 10
4.375000000000064
 20
26.50253812789014
 30
0.0
  0
ENDBLK
  5
23D
330
23B
100
AcDbEntity
  8
0
100
AcDbBlockEnd
  0
BLOCK
  5
248
330
247
100
AcDbEntity
  8
0
100
AcDbBlockBegin
  2
*D11
 70
     1
 10
0.0
 20
0.0
 30
0.0
  3
*D11
  1
*D11
  0
LINE
  5
24A
330
247
100
AcDbEntity
  8
치수문자_일반주서
 62
     0
370
    -2
100
AcDbLine
 10
108.56
 20
42.3775381278902
 30
0.0
 11
123.3759474142518
 21
42.37753812789025
 31
0.0
  0
LINE
  5
24B
330
247
100
AcDbEntity
  8
치수문자_일반주서
 62
     0
370
    -2
100
AcDbLine
 10
108.56
 20
26.50253812789026
 30
0.0
 11
123.3759474142519
 21
26.50253812789031
 31
0.0
  0
LINE
  5
24C
330
247
100
AcDbEntity
  8
치수문자_일반주서
 62
     0
370
    -2
100
AcDbLine
 10
123.3759474142518
 20
42.37753812789025
 30
0.0
 11
123.3759474142517
 21
77.20028812789042
 31
0.0
  0
LINE
  5
24D
330
247
100
AcDbEntity
  8
치수문자_일반주서
 62
     0
370
    -2
100
AcDbLine
 10
123.3759474142518
 20
39.07553812789025
 30
0.0
 11
123.3759474142519
 21
29.80453812789031
 31
0.0
  0
SOLID
  5
24E
330
247
100
AcDbEntity
  8
치수문자_일반주서
 62
     0
100
AcDbTrace
 10
123.9262807475852
 20
39.07553812789025
 30
0.0
 11
122.8256140809185
 21
39.07553812789025
 31
0.0
 12
123.3759474142518
 22
42.37753812789025
 32
0.0
 13
123.3759474142518
 23
42.37753812789025
 33
0.0
  0
SOLID
  5
24F
330
247
100
AcDbEntity
  8
치수문자_일반주서
 62
     0
100
AcDbTrace
 10
122.8256140809185
 20
29.80453812789031
 30
0.0
 11
123.9262807475852
 21
29.80453812789031
 31
0.0
 12
123.3759474142519
 22
26.50253812789031
 32
0.0
 13
123.3759474142519
 23
26.50253812789031
 33
0.0
  0
MTEXT
  5
250
330
247
100
AcDbEntity
  8
치수문자_일반주서
 62
     0
100
AcDbMText
 10
119.0009474142518
 20
63.2002881278904
 30
0.0
 40
3.5
 41
0.0
 71
     2
 72
     1
  1
\A1;%%c15.88 [5/8]
  7
SLDTEXTSTYLE0
 11
-3.580687802255636E-15
 21
1.0
 31
0.0
 73
     1
 44
1.0
  0
POINT
  5
251
330
247
100
AcDbEntity
  8
Defpoints
 62
     0
100
AcDbPoint
 10
108.4975
 20
42.3775381278902
 30
0.0
  0
POINT
  5
252
330
247
100
AcDbEntity
  8
Defpoints
 62
     0
100
AcDbPoint
 10
108.4975
 20
26.50253812789026
 30
0.0
  0
POINT
  5
253
330
247
100
AcDbEntity
  8
Defpoints
 62
     0
100
AcDbPoint
 10
123.3759474142519
 20
26.50253812789031
 30
0.0
  0
ENDBLK
  5
249
330
247
100
AcDbEntity
  8
0
100
AcDbBlockEnd
  0
BLOCK
  5
29C
330
29B
100
AcDbEntity
  8
0
100
AcDbBlockBegin
  2
*D12
 70
     1
 10
0.0
 20
0.0
 30
0.0
  3
*D12
  1
*D12
  0
LINE
  5
29E
330
29B
100
AcDbEntity
  8
치수문자_일반주서
 62
     0
370
    -2
100
AcDbLine
 10
43.74999993714334
 20
8.000573504262029
 30
0.0
 11
43.74999993714334
 21
18.18262414587715
 31
0.0
  0
LINE
  5
29F
330
29B
100
AcDbEntity
  8
치수문자_일반주서
 62
     0
370
    -2
100
AcDbLine
 10
11.99999993714334
 20
7.965484440053139
 30
0.0
 11
11.99999993714334
 21
18.18262414587715
 31
0.0
  0
LINE
  5
2A0
330
29B
100
AcDbEntity
  8
치수문자_일반주서
 62
     0
370
    -2
100
AcDbLine
 10
40.44799993714334
 20
18.18262414587715
 30
0.0
 11
15.30199993714334
 21
18.18262414587715
 31
0.0
  0
SOLID
  5
2A1
330
29B
100
AcDbEntity
  8
치수문자_일반주서
 62
     0
100
AcDbTrace
 10
40.44799993714334
 20
17.63229081254381
 30
0.0
 11
40.44799993714334
 21
18.73295747921048
 31
0.0
 12
43.74999993714334
 22
18.18262414587715
 32
0.0
 13
43.74999993714334
 23
18.18262414587715
 33
0.0
  0
SOLID
  5
2A2
330
29B
100
AcDbEntity
  8
치수문자_일반주서
 62
     0
100
AcDbTrace
 10
15.30199993714334
 20
18.73295747921048
 30
0.0
 11
15.30199993714334
 21
17.63229081254381
 31
0.0
 12
11.99999993714334
 22
18.18262414587715
 32
0.0
 13
11.99999993714334
 23
18.18262414587715
 33
0.0
  0
MTEXT
  5
2A3
330
29B
100
AcDbEntity
  8
치수문자_일반주서
 62
     0
100
AcDbMText
 10
27.87499993714334
 20
22.55762414587715
 30
0.0
 40
3.5
 41
0.0
 71
     2
 72
     1
  1
\A1;31.75 [1 1/4]
  7
SLDTEXTSTYLE0
 73
     1
 44
1.0
  0
POINT
  5
2A4
330
29B
100
AcDbEntity
  8
Defpoints
 62
     0
100
AcDbPoint
 10
43.74999993714334
 20
7.938073504262029
 30
0.0
  0
POINT
  5
2A5
330
29B
100
AcDbEntity
  8
Defpoints
 62
     0
100
AcDbPoint
 10
11.99999993714334
 20
7.902984440053139
 30
0.0
  0
POINT
  5
2A6
330
29B
100
AcDbEntity
  8
Defpoints
 62
     0
100
AcDbPoint
 10
11.99999993714334
 20
18.18262414587715
 30
0.0
  0
ENDBLK
  5
29D
330
29B
100
AcDbEntity
  8
0
100
AcDbBlockEnd
  0
BLOCK
  5
2A8
330
2A7
100
AcDbEntity
  8
0
100
AcDbBlockBegin
  2
*D13
 70
     1
 10
0.0
 20
0.0
 30
0.0
  3
*D13
  1
*D13
  0
LINE
  5
2AA
330
2A7
100
AcDbEntity
  8
치수문자_일반주서
 62
     0
370
    -2
100
AcDbLine
 10
43.74999993714334
 20
8.000573504262029
 30
0.0
 11
43.74999993714334
 21
32.59610867815357
 31
0.0
  0
LINE
  5
2AB
330
2A7
100
AcDbEntity
  8
치수문자_일반주서
 62
     0
370
    -2
100
AcDbLine
 10
-48.32500006285663
 20
6.41307350426203
 30
0.0
 11
-48.32500006285663
 21
32.59610867815357
 31
0.0
  0
LINE
  5
2AC
330
2A7
100
AcDbEntity
  8
치수문자_일반주서
 62
     0
370
    -2
100
AcDbLine
 10
40.44799993714334
 20
32.59610867815357
 30
0.0
 11
-45.02300006285663
 21
32.59610867815357
 31
0.0
  0
SOLID
  5
2AD
330
2A7
100
AcDbEntity
  8
치수문자_일반주서
 62
     0
100
AcDbTrace
 10
40.44799993714334
 20
32.04577534482024
 30
0.0
 11
40.44799993714334
 21
33.1464420114869
 31
0.0
 12
43.74999993714334
 22
32.59610867815357
 32
0.0
 13
43.74999993714334
 23
32.59610867815357
 33
0.0
  0
SOLID
  5
2AE
330
2A7
100
AcDbEntity
  8
치수문자_일반주서
 62
     0
100
AcDbTrace
 10
-45.02300006285663
 20
33.1464420114869
 30
0.0
 11
-45.02300006285663
 21
32.04577534482024
 31
0.0
 12
-48.32500006285663
 22
32.59610867815357
 32
0.0
 13
-48.32500006285663
 23
32.59610867815357
 33
0.0
  0
MTEXT
  5
2AF
330
2A7
100
AcDbEntity
  8
치수문자_일반주서
 62
     0
100
AcDbMText
 10
-2.287500062856623
 20
36.97110867815357
 30
0.0
 40
3.5
 41
0.0
 71
     2
 72
     1
  1
\A1;92.08 [3 5/8]
  7
SLDTEXTSTYLE0
 73
     1
 44
1.0
  0
POINT
  5
2B0
330
2A7
100
AcDbEntity
  8
Defpoints
 62
     0
100
AcDbPoint
 10
43.74999993714334
 20
7.938073504262029
 30
0.0
  0
POINT
  5
2B1
330
2A7
100
AcDbEntity
  8
Defpoints
 62
     0
100
AcDbPoint
 10
-48.32500006285663
 20
6.35057350426203
 30
0.0
  0
POINT
  5
2B2
330
2A7
100
AcDbEntity
  8
Defpoints
 62
     0
100
AcDbPoint
 10
-48.32500006285663
 20
32.59610867815357
 30
0.0
  0
ENDBLK
  5
2A9
330
2A7
100
AcDbEntity
  8
0
100
AcDbBlockEnd
  0
BLOCK
  5
2B4
330
2B3
100
AcDbEntity
  8
0
100
AcDbBlockBegin
  2
*D14
 70
     1
 10
0.0
 20
0.0
 30
0.0
  3
*D14
  1
*D14
  0
LINE
  5
2B6
330
2B3
100
AcDbEntity
  8
치수문자_일반주서
 62
     0
370
    -2
100
AcDbLine
 10
-46.80000006285664
 20
7.938073504262043
 30
0.0
 11
-60.37250006285666
 21
7.938073504261991
 31
0.0
  0
LINE
  5
2B7
330
2B3
100
AcDbEntity
  8
치수문자_일반주서
 62
     0
370
    -2
100
AcDbLine
 10
-46.80000006285664
 20
-7.936926495737982
 30
0.0
 11
-60.3725000628566
 21
-7.936926495738034
 31
0.0
  0
LINE
  5
2B8
330
2B3
100
AcDbEntity
  8
치수문자_일반주서
 62
     0
370
    -2
100
AcDbLine
 10
-60.37250006285664
 20
4.636073504261991
 30
0.0
 11
-60.37250006285662
 21
-4.634926495738035
 31
0.0
  0
SOLID
  5
2B9
330
2B3
100
AcDbEntity
  8
치수문자_일반주서
 62
     0
100
AcDbTrace
 10
-59.82216672952331
 20
4.636073504261993
 30
0.0
 11
-60.92283339618998
 21
4.636073504261989
 31
0.0
 12
-60.37250006285666
 22
7.938073504261991
 32
0.0
 13
-60.37250006285666
 23
7.938073504261991
 33
0.0
  0
SOLID
  5
2BA
330
2B3
100
AcDbEntity
  8
치수문자_일반주서
 62
     0
100
AcDbTrace
 10
-60.92283339618995
 20
-4.634926495738037
 30
0.0
 11
-59.82216672952328
 21
-4.634926495738033
 31
0.0
 12
-60.3725000628566
 22
-7.936926495738034
 32
0.0
 13
-60.3725000628566
 23
-7.936926495738034
 33
0.0
  0
MTEXT
  5
2BB
330
2B3
100
AcDbEntity
  8
치수문자_일반주서
 62
     0
100
AcDbMText
 10
-64.74750006285663
 20
0.0005735042620345
 30
0.0
 40
3.5
 41
0.0
 71
     2
 72
     1
  1
\A1;%%c15.88 [5/8]
  7
SLDTEXTSTYLE0
 11
-3.580687802255617E-15
 21
1.0
 31
0.0
 73
     1
 44
1.0
  0
POINT
  5
2BC
330
2B3
100
AcDbEntity
  8
Defpoints
 62
     0
100
AcDbPoint
 10
-46.73750006285664
 20
7.938073504262043
 30
0.0
  0
POINT
  5
2BD
330
2B3
100
AcDbEntity
  8
Defpoints
 62
     0
100
AcDbPoint
 10
-46.73750006285664
 20
-7.936926495737982
 30
0.0
  0
POINT
  5
2BE
330
2B3
100
AcDbEntity
  8
Defpoints
 62
     0
100
AcDbPoint
 10
-60.3725000628566
 20
-7.936926495738033
 30
0.0
  0
ENDBLK
  5
2B5
330
2B3
100
AcDbEntity
  8
0
100
AcDbBlockEnd
  0
BLOCK
  5
2C0
330
2BF
100
AcDbEntity
  8
0
100
AcDbBlockBegin
  2
*D15
 70
     1
 10
0.0
 20
0.0
 30
0.0
  3
*D15
  1
*D15
  0
LINE
  5
2C2
330
2BF
100
AcDbEntity
  8
치수문자_일반주서
 62
     0
370
    -2
100
AcDbLine
 10
43.81249993714334
 20
7.938073504262029
 30
0.0
 11
58.62844735139514
 21
7.938073504262082
 31
0.0
  0
LINE
  5
2C3
330
2BF
100
AcDbEntity
  8
치수문자_일반주서
 62
     0
370
    -2
100
AcDbLine
 10
43.81249993714334
 20
-7.936926495737911
 30
0.0
 11
58.6284473513952
 21
-7.936926495737858
 31
0.0
  0
LINE
  5
2C4
330
2BF
100
AcDbEntity
  8
치수문자_일반주서
 62
     0
370
    -2
100
AcDbLine
 10
58.62844735139514
 20
7.938073504262082
 30
0.0
 11
58.62844735139502
 21
42.76082350426224
 31
0.0
  0
LINE
  5
2C5
330
2BF
100
AcDbEntity
  8
치수문자_일반주서
 62
     0
370
    -2
100
AcDbLine
 10
58.62844735139515
 20
4.636073504262082
 30
0.0
 11
58.62844735139518
 21
-4.634926495737858
 31
0.0
  0
SOLID
  5
2C6
330
2BF
100
AcDbEntity
  8
치수문자_일반주서
 62
     0
100
AcDbTrace
 10
59.17878068472849
 20
4.636073504262084
 30
0.0
 11
58.07811401806182
 21
4.636073504262081
 31
0.0
 12
58.62844735139514
 22
7.938073504262082
 32
0.0
 13
58.62844735139514
 23
7.938073504262082
 33
0.0
  0
SOLID
  5
2C7
330
2BF
100
AcDbEntity
  8
치수문자_일반주서
 62
     0
100
AcDbTrace
 10
58.07811401806185
 20
-4.63492649573786
 30
0.0
 11
59.17878068472852
 21
-4.634926495737856
 31
0.0
 12
58.6284473513952
 22
-7.936926495737858
 32
0.0
 13
58.6284473513952
 23
-7.936926495737858
 33
0.0
  0
MTEXT
  5
2C8
330
2BF
100
AcDbEntity
  8
치수문자_일반주서
 62
     0
100
AcDbMText
 10
54.25344735139507
 20
28.76082350426222
 30
0.0
 40
3.5
 41
0.0
 71
     2
 72
     1
  1
\A1;%%c15.88 [5/8]
  7
SLDTEXTSTYLE0
 11
-3.580687802255637E-15
 21
1.0
 31
0.0
 73
     1
 44
1.0
  0
POINT
  5
2C9
330
2BF
100
AcDbEntity
  8
Defpoints
 62
     0
100
AcDbPoint
 10
43.74999993714334
 20
7.938073504262029
 30
0.0
  0
POINT
  5
2CA
330
2BF
100
AcDbEntity
  8
Defpoints
 62
     0
100
AcDbPoint
 10
43.74999993714334
 20
-7.936926495737911
 30
0.0
  0
POINT
  5
2CB
330
2BF
100
AcDbEntity
  8
Defpoints
 62
     0
100
AcDbPoint
 10
58.62844735139521
 20
-7.936926495737855
 30
0.0
  0
ENDBLK
  5
2C1
330
2BF
100
AcDbEntity
  8
0
100
AcDbBlockEnd
  0
BLOCK
  5
2CD
330
2CC
100
AcDbEntity
  8
0
100
AcDbBlockBegin
  2
*D16
 70
     1
 10
0.0
 20
0.0
 30
0.0
  3
*D16
  1
*D16
  0
LINE
  5
2CF
330
2CC
100
AcDbEntity
  8
치수문자_일반주서
 62
     0
370
    -2
100
AcDbLine
 10
216.297511173438
 20
-13.91923284685174
 30
0.0
 11
236.8697612672235
 21
-38.08901535163945
 31
0.0
  0
MTEXT
  5
2D0
330
2CC
100
AcDbEntity
  8
치수문자_일반주서
 62
     0
100
AcDbMText
 10
229.6526972950139
 20
-25.55995057474829
 30
0.0
 40
3.5
 41
0.0
 71
     5
 72
     1
  1
\A1;R.76 [R0.030]
  7
SLDTEXTSTYLE0
 11
0.6481592367171979
 21
-0.761504828519281
 31
0.0
 73
     1
 44
1.0
  0
SOLID
  5
2D1
330
2CC
100
AcDbEntity
  8
치수문자_일반주서
 62
     0
100
AcDbTrace
 10
216.7165926640664
 20
-13.56252921357837
 30
0.0
 11
215.8784296828095
 21
-14.2759364801251
 31
0.0
 12
214.1572893737978
 22
-11.40474390308107
 32
0.0
 13
214.1572893737978
 23
-11.40474390308107
 33
0.0
  0
LINE
  5
2D2
330
2CC
100
AcDbEntity
  8
치수문자_일반주서
 62
     0
100
AcDbLine
 10
213.6183920354193
 20
-10.82447722374938
 30
0.0
 11
213.7083920354193
 21
-10.82447722374938
 31
0.0
  0
LINE
  5
2D3
330
2CC
100
AcDbEntity
  8
치수문자_일반주서
 62
     0
100
AcDbLine
 10
213.6633920354193
 20
-10.86947722374938
 30
0.0
 11
213.6633920354193
 21
-10.77947722374938
 31
0.0
  0
POINT
  5
2D4
330
2CC
100
AcDbEntity
  8
Defpoints
 62
     0
100
AcDbPoint
 10
214.1572893737978
 20
-11.40474390308107
 30
0.0
  0
POINT
  5
2D5
330
2CC
100
AcDbEntity
  8
Defpoints
 62
     0
100
AcDbPoint
 10
213.6633920354193
 20
-10.82447722374938
 30
0.0
  0
ENDBLK
  5
2CE
330
2CC
100
AcDbEntity
  8
0
100
AcDbBlockEnd
  0
BLOCK
  5
2E3
330
2E2
100
AcDbEntity
  8
0
100
AcDbBlockBegin
  2
*D17
 70
     1
 10
0.0
 20
0.0
 30
0.0
  3
*D17
  1
*D17
  0
LINE
  5
2E5
330
2E2
100
AcDbEntity
  8
치수문자_일반주서
 62
     0
370
    -2
100
AcDbLine
 10
45.30821874126135
 20
-10.12668438092263
 30
0.0
 11
66.6958475973956
 21
-35.89713145042947
 31
0.0
  0
MTEXT
  5
2E6
330
2E2
100
AcDbEntity
  8
치수문자_일반주서
 62
     0
100
AcDbMText
 10
59.07638180991532
 20
-22.60594432602566
 30
0.0
 40
3.5
 41
0.0
 71
     5
 72
     1
  1
\A1;R1.52 [R0.060]
  7
SLDTEXTSTYLE0
 11
0.6386368520322563
 21
-0.7695082658596528
 31
0.0
 73
     1
 44
1.0
  0
SOLID
  5
2E7
330
2E2
100
AcDbEntity
  8
치수문자_일반주서
 62
     0
100
AcDbTrace
 10
45.73170479023945
 20
-9.775221233354213
 30
0.0
 11
44.88473269228325
 21
-10.47814752849105
 31
0.0
 12
43.19943985585084
 22
-7.585768087054058
 32
0.0
 13
43.19943985585084
 23
-7.585768087054058
 33
0.0
  0
LINE
  5
2E8
330
2E2
100
AcDbEntity
  8
치수문자_일반주서
 62
     0
100
AcDbLine
 10
42.18115729335368
 20
-6.413037489883944
 30
0.0
 11
42.27115729335368
 21
-6.413037489883944
 31
0.0
  0
LINE
  5
2E9
330
2E2
100
AcDbEntity
  8
치수문자_일반주서
 62
     0
100
AcDbLine
 10
42.22615729335368
 20
-6.458037489883944
 30
0.0
 11
42.22615729335368
 21
-6.368037489883944
 31
0.0
  0
POINT
  5
2EA
330
2E2
100
AcDbEntity
  8
Defpoints
 62
     0
100
AcDbPoint
 10
43.19943985585084
 20
-7.585768087054058
 30
0.0
  0
POINT
  5
2EB
330
2E2
100
AcDbEntity
  8
Defpoints
 62
     0
100
AcDbPoint
 10
42.22615729335368
 20
-6.413037489883944
 30
0.0
  0
ENDBLK
  5
2E4
330
2E2
100
AcDbEntity
  8
0
100
AcDbBlockEnd
  0
BLOCK
  5
3C4
330
3C3
100
AcDbEntity
  8
0
100
AcDbBlockBegin
  2
*D18
 70
     1
 10
0.0
 20
0.0
 30
0.0
  3
*D18
  1
*D18
  0
LINE
  5
3C5
330
3C3
100
AcDbEntity
  8
치수문자_일반주서
 62
     0
370
    -2
100
AcDbLine
 10
116.916474163718
 20
29.48018743895756
 30
0.0
 11
132.8056264008241
 21
0.000000000000048
 31
0.0
  0
MTEXT
  5
3C6
330
3C3
100
AcDbEntity
  8
치수문자_일반주서
 62
     0
100
AcDbMText
 10
127.9551090878885
 20
14.53218482745845
 30
0.0
 40
3.5
 41
0.0
 71
     5
 72
     1
  1
\A1;R1.53 [R0.060]
  7
SLDTEXTSTYLE0
 11
0.4744517606147008
 21
-0.8802815043209817
 31
0.0
 73
     1
 44
1.0
  0
LINE
  5
3C7
330
3C3
100
AcDbEntity
  8
치수문자_일반주서
 62
     0
370
    -2
100
AcDbLine
 10
114.6233536064218
 20
33.73476457689625
 30
0.0
 11
115.3498344501683
 21
32.38687696622544
 31
0.0
  0
SOLID
  5
3C8
330
3C3
100
AcDbEntity
  8
치수문자_일반주서
 62
     0
100
AcDbTrace
 10
117.4009224182627
 20
29.74129405788252
 30
0.0
 11
116.4320259091734
 21
29.21908082003261
 31
0.0
 12
115.3498344501683
 22
32.38687696622544
 32
0.0
 13
115.3498344501683
 23
32.38687696622544
 33
0.0
  0
POINT
  5
3C9
330
3C3
100
AcDbEntity
  8
Defpoints
 62
     0
100
AcDbPoint
 10
115.3498344501683
 20
32.38687696622544
 30
0.0
  0
POINT
  5
3CA
330
3C3
100
AcDbEntity
  8
Defpoints
 62
     0
100
AcDbPoint
 10
114.6233536064218
 20
33.73476457689625
 30
0.0
  0
ENDBLK
  5
3CB
330
3C3
100
AcDbEntity
  8
0
100
AcDbBlockEnd
  0
BLOCK
  5
3D5
330
3D4
100
AcDbEntity
  8
0
100
AcDbBlockBegin
  2
*D19
 70
     1
 10
0.0
 20
0.0
 30
0.0
  3
*D19
  1
*D19
  0
LINE
  5
3D7
330
3D4
100
AcDbEntity
  8
치수문자_일반주서
 62
     0
370
    -2
100
AcDbLine
 10
116.2125
 20
51.25375728325995
 30
0.0
 11
135.1500000000001
 21
51.25375728326002
 31
0.0
  0
LINE
  5
3D8
330
3D4
100
AcDbEntity
  8
치수문자_일반주서
 62
     0
370
    -2
100
AcDbLine
 10
116.2125
 20
32.20375728325995
 30
0.0
 11
135.1500000000002
 21
32.20375728326002
 31
0.0
  0
LINE
  5
3D9
330
3D4
100
AcDbEntity
  8
치수문자_일반주서
 62
     0
370
    -2
100
AcDbLine
 10
135.1500000000001
 20
51.25375728326002
 30
0.0
 11
135.1500000000001
 21
85.42025728326001
 31
0.0
  0
LINE
  5
3DA
330
3D4
100
AcDbEntity
  8
치수문자_일반주서
 62
     0
370
    -2
100
AcDbLine
 10
135.1500000000001
 20
51.25375728326002
 30
0.0
 11
135.1500000000002
 21
32.20375728326002
 31
0.0
  0
LINE
  5
3DB
330
3D4
100
AcDbEntity
  8
치수문자_일반주서
 62
     0
370
    -2
100
AcDbLine
 10
135.1500000000001
 20
54.55575728326002
 30
0.0
 11
135.1500000000001
 21
57.85775728326002
 31
0.0
  0
LINE
  5
3DC
330
3D4
100
AcDbEntity
  8
치수문자_일반주서
 62
     0
370
    -2
100
AcDbLine
 10
135.1500000000002
 20
28.90175728326002
 30
0.0
 11
135.1500000000002
 21
25.59975728326002
 31
0.0
  0
SOLID
  5
3DD
330
3D4
100
AcDbEntity
  8
치수문자_일반주서
 62
     0
100
AcDbTrace
 10
134.5996666666668
 20
54.55575728326002
 30
0.0
 11
135.7003333333335
 21
54.55575728326002
 31
0.0
 12
135.1500000000001
 22
51.25375728326002
 32
0.0
 13
135.1500000000001
 23
51.25375728326002
 33
0.0
  0
SOLID
  5
3DE
330
3D4
100
AcDbEntity
  8
치수문자_일반주서
 62
     0
100
AcDbTrace
 10
135.7003333333335
 20
28.90175728326002
 30
0.0
 11
134.5996666666669
 21
28.90175728326002
 31
0.0
 12
135.1500000000002
 22
32.20375728326002
 32
0.0
 13
135.1500000000002
 23
32.20375728326002
 33
0.0
  0
MTEXT
  5
3DF
330
3D4
100
AcDbEntity
  8
치수문자_일반주서
 62
     0
100
AcDbMText
 10
130.7750000000001
 20
71.63900728326
 30
0.0
 40
3.5
 41
0.0
 71
     2
 72
     1
  1
\A1;%%c19.05 [3/4]
  7
SLDTEXTSTYLE0
 11
-2.983906501879685E-15
 21
1.0
 31
0.0
 73
     1
 44
1.0
  0
POINT
  5
3E0
330
3D4
100
AcDbEntity
  8
Defpoints
 62
     0
100
AcDbPoint
 10
116.15
 20
51.25375728325995
 30
0.0
  0
POINT
  5
3E1
330
3D4
100
AcDbEntity
  8
Defpoints
 62
     0
100
AcDbPoint
 10
116.15
 20
32.20375728325995
 30
0.0
  0
POINT
  5
3E2
330
3D4
100
AcDbEntity
  8
Defpoints
 62
     0
100
AcDbPoint
 10
135.1500000000002
 20
32.20375728326002
 30
0.0
  0
ENDBLK
  5
3D6
330
3D4
100
AcDbEntity
  8
0
100
AcDbBlockEnd
  0
BLOCK
  5
3E4
330
3E3
100
AcDbEntity
  8
0
100
AcDbBlockBegin
  2
*D20
 70
     1
 10
0.0
 20
0.0
 30
0.0
  3
*D20
  1
*D20
  0
LINE
  5
3E6
330
3E3
100
AcDbEntity
  8
치수문자_일반주서
 62
     0
370
    -2
100
AcDbLine
 10
13.21750000000003
 20
51.2537572832599
 30
0.0
 11
4.374999999999996
 21
51.25375728325987
 31
0.0
  0
LINE
  5
3E7
330
3E3
100
AcDbEntity
  8
치수문자_일반주서
 62
     0
370
    -2
100
AcDbLine
 10
13.21750000000003
 20
32.20375728325989
 30
0.0
 11
4.375000000000062
 21
32.20375728325986
 31
0.0
  0
LINE
  5
3E8
330
3E3
100
AcDbEntity
  8
치수문자_일반주서
 62
     0
370
    -2
100
AcDbLine
 10
4.375000000000007
 20
47.95175728325987
 30
0.0
 11
4.375000000000051
 21
35.50575728325986
 31
0.0
  0
SOLID
  5
3E9
330
3E3
100
AcDbEntity
  8
치수문자_일반주서
 62
     0
100
AcDbTrace
 10
4.925333333333341
 20
47.95175728325987
 30
0.0
 11
3.824666666666674
 21
47.95175728325987
 31
0.0
 12
4.374999999999996
 22
51.25375728325987
 32
0.0
 13
4.374999999999996
 23
51.25375728325987
 33
0.0
  0
SOLID
  5
3EA
330
3E3
100
AcDbEntity
  8
치수문자_일반주서
 62
     0
100
AcDbTrace
 10
3.824666666666717
 20
35.50575728325986
 30
0.0
 11
4.925333333333384
 21
35.50575728325986
 31
0.0
 12
4.375000000000062
 22
32.20375728325986
 32
0.0
 13
4.375000000000062
 23
32.20375728325986
 33
0.0
  0
MTEXT
  5
3EB
330
3E3
100
AcDbEntity
  8
치수문자_일반주서
 62
     0
100
AcDbMText
 10
0.0000000000000284
 20
41.72875728325989
 30
0.0
 40
3.5
 41
0.0
 71
     2
 72
     1
  1
\A1;%%c19.05 [3/4]
  7
SLDTEXTSTYLE0
 11
-3.496765431890253E-15
 21
1.0
 31
0.0
 73
     1
 44
1.0
  0
POINT
  5
3EC
330
3E3
100
AcDbEntity
  8
Defpoints
 62
     0
100
AcDbPoint
 10
13.28000000000003
 20
51.2537572832599
 30
0.0
  0
POINT
  5
3ED
330
3E3
100
AcDbEntity
  8
Defpoints
 62
     0
100
AcDbPoint
 10
13.28000000000003
 20
32.20375728325989
 30
0.0
  0
POINT
  5
3EE
330
3E3
100
AcDbEntity
  8
Defpoints
 62
     0
100
AcDbPoint
 10
4.375000000000064
 20
32.20375728325985
 30
0.0
  0
ENDBLK
  5
3E5
330
3E3
100
AcDbEntity
  8
0
100
AcDbBlockEnd
  0
BLOCK
  5
3F0
330
3EF
100
AcDbEntity
  8
0
100
AcDbBlockBegin
  2
*D21
 70
     1
 10
0.0
 20
0.0
 30
0.0
  3
*D21
  1
*D21
  0
LINE
  5
3F2
330
3EF
100
AcDbEntity
  8
치수문자_일반주서
 62
     0
370
    -2
100
AcDbLine
 10
116.15
 20
51.31625728325995
 30
0.0
 11
116.15
 21
79.19949778696198
 31
0.0
  0
LINE
  5
3F3
330
3EF
100
AcDbEntity
  8
치수문자_일반주서
 62
     0
370
    -2
100
AcDbLine
 10
78.05000000000007
 20
51.28094932248826
 30
0.0
 11
78.05000000000007
 21
79.19949778696198
 31
0.0
  0
LINE
  5
3F4
330
3EF
100
AcDbEntity
  8
치수문자_일반주서
 62
     0
370
    -2
100
AcDbLine
 10
112.848
 20
79.19949778696198
 30
0.0
 11
81.35200000000007
 21
79.19949778696198
 31
0.0
  0
SOLID
  5
3F5
330
3EF
100
AcDbEntity
  8
치수문자_일반주서
 62
     0
100
AcDbTrace
 10
112.848
 20
78.64916445362866
 30
0.0
 11
112.848
 21
79.74983112029531
 31
0.0
 12
116.15
 22
79.19949778696198
 32
0.0
 13
116.15
 23
79.19949778696198
 33
0.0
  0
SOLID
  5
3F6
330
3EF
100
AcDbEntity
  8
치수문자_일반주서
 62
     0
100
AcDbTrace
 10
81.35200000000007
 20
79.74983112029531
 30
0.0
 11
81.35200000000007
 21
78.64916445362866
 31
0.0
 12
78.05000000000007
 22
79.19949778696198
 32
0.0
 13
78.05000000000007
 23
79.19949778696198
 33
0.0
  0
MTEXT
  5
3F7
330
3EF
100
AcDbEntity
  8
치수문자_일반주서
 62
     0
100
AcDbMText
 10
99.46743761909096
 20
83.57449778696198
 30
0.0
 40
3.5
 41
0.0
 71
     2
 72
     1
  1
\A1;38.1 [1 1/2]
  7
SLDTEXTSTYLE0
 73
     1
 44
1.0
  0
POINT
  5
3F8
330
3EF
100
AcDbEntity
  8
Defpoints
 62
     0
100
AcDbPoint
 10
116.15
 20
51.25375728325995
 30
0.0
  0
POINT
  5
3F9
330
3EF
100
AcDbEntity
  8
Defpoints
 62
     0
100
AcDbPoint
 10
78.05000000000007
 20
51.21844932248826
 30
0.0
  0
POINT
  5
3FA
330
3EF
100
AcDbEntity
  8
Defpoints
 62
     0
100
AcDbPoint
 10
78.05000000000007
 20
79.19949778696198
 30
0.0
  0
ENDBLK
  5
3F1
330
3EF
100
AcDbEntity
  8
0
100
AcDbBlockEnd
  0
BLOCK
  5
3FC
330
3FB
100
AcDbEntity
  8
0
100
AcDbBlockBegin
  2
*D22
 70
     1
 10
0.0
 20
0.0
 30
0.0
  3
*D22
  1
*D22
  0
LINE
  5
3FE
330
3FB
100
AcDbEntity
  8
치수문자_일반주서
 62
     0
370
    -2
100
AcDbLine
 10
11.37500000000004
 20
49.4112572832599
 30
0.0
 11
11.37500000000003
 21
95.0634443838374
 31
0.0
  0
LINE
  5
3FF
330
3FB
100
AcDbEntity
  8
치수문자_일반주서
 62
     0
370
    -2
100
AcDbLine
 10
116.15
 20
51.31625728325995
 30
0.0
 11
116.15
 21
95.0634443838374
 31
0.0
  0
LINE
  5
400
330
3FB
100
AcDbEntity
  8
치수문자_일반주서
 62
     0
370
    -2
100
AcDbLine
 10
14.67700000000003
 20
95.0634443838374
 30
0.0
 11
112.848
 21
95.0634443838374
 31
0.0
  0
SOLID
  5
401
330
3FB
100
AcDbEntity
  8
치수문자_일반주서
 62
     0
100
AcDbTrace
 10
14.67700000000003
 20
95.61377771717073
 30
0.0
 11
14.67700000000003
 21
94.51311105050408
 31
0.0
 12
11.37500000000003
 22
95.0634443838374
 32
0.0
 13
11.37500000000003
 23
95.0634443838374
 33
0.0
  0
SOLID
  5
402
330
3FB
100
AcDbEntity
  8
치수문자_일반주서
 62
     0
100
AcDbTrace
 10
112.848
 20
94.51311105050408
 30
0.0
 11
112.848
 21
95.61377771717073
 31
0.0
 12
116.15
 22
95.0634443838374
 32
0.0
 13
116.15
 23
95.0634443838374
 33
0.0
  0
MTEXT
  5
403
330
3FB
100
AcDbEntity
  8
치수문자_일반주서
 62
     0
100
AcDbMText
 10
64.89105992886697
 20
99.4384443838374
 30
0.0
 40
3.5
 41
0.0
 71
     2
 72
     1
  1
\A1;104.78 [4 1/8]
  7
SLDTEXTSTYLE0
 73
     1
 44
1.0
  0
POINT
  5
404
330
3FB
100
AcDbEntity
  8
Defpoints
 62
     0
100
AcDbPoint
 10
11.37500000000004
 20
49.3487572832599
 30
0.0
  0
POINT
  5
405
330
3FB
100
AcDbEntity
  8
Defpoints
 62
     0
100
AcDbPoint
 10
116.15
 20
51.25375728325995
 30
0.0
  0
POINT
  5
406
330
3FB
100
AcDbEntity
  8
Defpoints
 62
     0
100
AcDbPoint
 10
116.15
 20
95.0634443838374
 30
0.0
  0
ENDBLK
  5
3FD
330
3FB
100
AcDbEntity
  8
0
100
AcDbBlockEnd
  0
BLOCK
  5
460
330
45F
100
AcDbEntity
  8
0
100
AcDbBlockBegin
  2
*D23
 70
     1
 10
0.0
 20
0.0
 30
0.0
  3
*D23
  1
*D23
  0
LINE
  5
462
330
45F
100
AcDbEntity
  8
치수문자_일반주서
 62
     0
370
    -2
100
AcDbLine
 10
50.16249993714331
 20
9.525573504262077
 30
0.0
 11
69.09999993714344
 21
9.525573504262148
 31
0.0
  0
LINE
  5
463
330
45F
100
AcDbEntity
  8
치수문자_일반주서
 62
     0
370
    -2
100
AcDbLine
 10
50.16249993714331
 20
-9.524426495737927
 30
0.0
 11
69.09999993714351
 21
-9.524426495737856
 31
0.0
  0
LINE
  5
464
330
45F
100
AcDbEntity
  8
치수문자_일반주서
 62
     0
370
    -2
100
AcDbLine
 10
69.09999993714344
 20
9.525573504262148
 30
0.0
 11
69.09999993714331
 21
43.69207350426215
 31
0.0
  0
LINE
  5
465
330
45F
100
AcDbEntity
  8
치수문자_일반주서
 62
     0
370
    -2
100
AcDbLine
 10
69.09999993714344
 20
9.525573504262148
 30
0.0
 11
69.09999993714351
 21
-9.524426495737856
 31
0.0
  0
LINE
  5
466
330
45F
100
AcDbEntity
  8
치수문자_일반주서
 62
     0
370
    -2
100
AcDbLine
 10
69.09999993714342
 20
12.82757350426215
 30
0.0
 11
69.09999993714341
 21
16.12957350426215
 31
0.0
  0
LINE
  5
467
330
45F
100
AcDbEntity
  8
치수문자_일반주서
 62
     0
370
    -2
100
AcDbLine
 10
69.09999993714352
 20
-12.82642649573786
 30
0.0
 11
69.09999993714354
 21
-16.12842649573786
 31
0.0
  0
SOLID
  5
468
330
45F
100
AcDbEntity
  8
치수문자_일반주서
 62
     0
100
AcDbTrace
 10
68.5496666038101
 20
12.82757350426215
 30
0.0
 11
69.65033327047675
 21
12.82757350426215
 31
0.0
 12
69.09999993714344
 22
9.525573504262148
 32
0.0
 13
69.09999993714344
 23
9.525573504262148
 33
0.0
  0
SOLID
  5
469
330
45F
100
AcDbEntity
  8
치수문자_일반주서
 62
     0
100
AcDbTrace
 10
69.65033327047685
 20
-12.82642649573785
 30
0.0
 11
68.5496666038102
 21
-12.82642649573786
 31
0.0
 12
69.09999993714351
 22
-9.524426495737856
 32
0.0
 13
69.09999993714351
 23
-9.524426495737856
 33
0.0
  0
MTEXT
  5
46A
330
45F
100
AcDbEntity
  8
치수문자_일반주서
 62
     0
100
AcDbMText
 10
64.72499993714337
 20
29.91082350426213
 30
0.0
 40
3.5
 41
0.0
 71
     2
 72
     1
  1
\A1;%%c19.05 [3/4]
  7
SLDTEXTSTYLE0
 11
-3.729883127349606E-15
 21
1.0
 31
0.0
 73
     1
 44
1.0
  0
POINT
  5
46B
330
45F
100
AcDbEntity
  8
Defpoints
 62
     0
100
AcDbPoint
 10
50.09999993714331
 20
9.525573504262077
 30
0.0
  0
POINT
  5
46C
330
45F
100
AcDbEntity
  8
Defpoints
 62
     0
100
AcDbPoint
 10
50.09999993714331
 20
-9.524426495737927
 30
0.0
  0
POINT
  5
46D
330
45F
100
AcDbEntity
  8
Defpoints
 62
     0
100
AcDbPoint
 10
69.09999993714348
 20
-9.524426495737856
 30
0.0
  0
ENDBLK
  5
461
330
45F
100
AcDbEntity
  8
0
100
AcDbBlockEnd
  0
BLOCK
  5
46F
330
46E
100
AcDbEntity
  8
0
100
AcDbBlockBegin
  2
*D24
 70
     1
 10
0.0
 20
0.0
 30
0.0
  3
*D24
  1
*D24
  0
LINE
  5
471
330
46E
100
AcDbEntity
  8
치수문자_일반주서
 62
     0
370
    -2
100
AcDbLine
 10
-52.8325000628567
 20
9.525573504262027
 30
0.0
 11
-61.67500006285672
 21
9.525573504261997
 31
0.0
  0
LINE
  5
472
330
46E
100
AcDbEntity
  8
치수문자_일반주서
 62
     0
370
    -2
100
AcDbLine
 10
-52.8325000628567
 20
-9.524426495737984
 30
0.0
 11
-61.67500006285666
 21
-9.524426495738014
 31
0.0
  0
LINE
  5
473
330
46E
100
AcDbEntity
  8
치수문자_일반주서
 62
     0
370
    -2
100
AcDbLine
 10
-61.67500006285671
 20
6.223573504261998
 30
0.0
 11
-61.67500006285668
 21
-6.222426495738015
 31
0.0
  0
SOLID
  5
474
330
46E
100
AcDbEntity
  8
치수문자_일반주서
 62
     0
100
AcDbTrace
 10
-61.12466672952338
 20
6.223573504261999
 30
0.0
 11
-62.22533339619005
 21
6.223573504261996
 31
0.0
 12
-61.67500006285672
 22
9.525573504261997
 32
0.0
 13
-61.67500006285672
 23
9.525573504261997
 33
0.0
  0
SOLID
  5
475
330
46E
100
AcDbEntity
  8
치수문자_일반주서
 62
     0
100
AcDbTrace
 10
-62.22533339619001
 20
-6.222426495738016
 30
0.0
 11
-61.12466672952334
 21
-6.222426495738013
 31
0.0
 12
-61.67500006285666
 22
-9.524426495738014
 32
0.0
 13
-61.67500006285666
 23
-9.524426495738014
 33
0.0
  0
MTEXT
  5
476
330
46E
100
AcDbEntity
  8
치수문자_일반주서
 62
     0
100
AcDbMText
 10
-66.0500000628567
 20
0.0005735042620142
 30
0.0
 40
3.5
 41
0.0
 71
     2
 72
     1
  1
\A1;%%c19.05 [3/4]
  7
SLDTEXTSTYLE0
 11
-3.356894814614644E-15
 21
1.0
 31
0.0
 73
     1
 44
1.0
  0
POINT
  5
477
330
46E
100
AcDbEntity
  8
Defpoints
 62
     0
100
AcDbPoint
 10
-52.7700000628567
 20
9.525573504262027
 30
0.0
  0
POINT
  5
478
330
46E
100
AcDbEntity
  8
Defpoints
 62
     0
100
AcDbPoint
 10
-52.7700000628567
 20
-9.524426495737984
 30
0.0
  0
POINT
  5
479
330
46E
100
AcDbEntity
  8
Defpoints
 62
     0
100
AcDbPoint
 10
-61.67500006285666
 20
-9.524426495738018
 30
0.0
  0
ENDBLK
  5
470
330
46E
100
AcDbEntity
  8
0
100
AcDbBlockEnd
  0
BLOCK
  5
47B
330
47A
100
AcDbEntity
  8
0
100
AcDbBlockBegin
  2
*D25
 70
     1
 10
0.0
 20
0.0
 30
0.0
  3
*D25
  1
*D25
  0
LINE
  5
47D
330
47A
100
AcDbEntity
  8
치수문자_일반주서
 62
     0
370
    -2
100
AcDbLine
 10
50.09999993714331
 20
9.588073504262077
 30
0.0
 11
50.09999993714331
 21
37.47131400796411
 31
0.0
  0
LINE
  5
47E
330
47A
100
AcDbEntity
  8
치수문자_일반주서
 62
     0
370
    -2
100
AcDbLine
 10
11.99999993714334
 20
9.552765543490388
 30
0.0
 11
11.99999993714334
 21
37.47131400796411
 31
0.0
  0
LINE
  5
47F
330
47A
100
AcDbEntity
  8
치수문자_일반주서
 62
     0
370
    -2
100
AcDbLine
 10
46.79799993714331
 20
37.47131400796411
 30
0.0
 11
15.30199993714334
 21
37.47131400796411
 31
0.0
  0
SOLID
  5
480
330
47A
100
AcDbEntity
  8
치수문자_일반주서
 62
     0
100
AcDbTrace
 10
46.79799993714331
 20
36.92098067463078
 30
0.0
 11
46.79799993714331
 21
38.02164734129745
 31
0.0
 12
50.09999993714331
 22
37.47131400796411
 32
0.0
 13
50.09999993714331
 23
37.47131400796411
 33
0.0
  0
SOLID
  5
481
330
47A
100
AcDbEntity
  8
치수문자_일반주서
 62
     0
100
AcDbTrace
 10
15.30199993714334
 20
38.02164734129745
 30
0.0
 11
15.30199993714334
 21
36.92098067463078
 31
0.0
 12
11.99999993714334
 22
37.47131400796411
 32
0.0
 13
11.99999993714334
 23
37.47131400796411
 33
0.0
  0
MTEXT
  5
482
330
47A
100
AcDbEntity
  8
치수문자_일반주서
 62
     0
100
AcDbMText
 10
33.41743755623423
 20
41.84631400796411
 30
0.0
 40
3.5
 41
0.0
 71
     2
 72
     1
  1
\A1;38.1 [1 1/2]
  7
SLDTEXTSTYLE0
 73
     1
 44
1.0
  0
POINT
  5
483
330
47A
100
AcDbEntity
  8
Defpoints
 62
     0
100
AcDbPoint
 10
50.09999993714331
 20
9.525573504262077
 30
0.0
  0
POINT
  5
484
330
47A
100
AcDbEntity
  8
Defpoints
 62
     0
100
AcDbPoint
 10
11.99999993714334
 20
9.490265543490388
 30
0.0
  0
POINT
  5
485
330
47A
100
AcDbEntity
  8
Defpoints
 62
     0
100
AcDbPoint
 10
11.99999993714334
 20
37.47131400796411
 30
0.0
  0
ENDBLK
  5
47C
330
47A
100
AcDbEntity
  8
0
100
AcDbBlockEnd
  0
BLOCK
  5
487
330
486
100
AcDbEntity
  8
0
100
AcDbBlockBegin
  2
*D26
 70
     1
 10
0.0
 20
0.0
 30
0.0
  3
*D26
  1
*D26
  0
LINE
  5
489
330
486
100
AcDbEntity
  8
치수문자_일반주서
 62
     0
370
    -2
100
AcDbLine
 10
-54.6750000628567
 20
7.683073504262026
 30
0.0
 11
-54.6750000628567
 21
53.33526060483953
 31
0.0
  0
LINE
  5
48A
330
486
100
AcDbEntity
  8
치수문자_일반주서
 62
     0
370
    -2
100
AcDbLine
 10
50.09999993714331
 20
9.588073504262077
 30
0.0
 11
50.09999993714331
 21
53.33526060483953
 31
0.0
  0
LINE
  5
48B
330
486
100
AcDbEntity
  8
치수문자_일반주서
 62
     0
370
    -2
100
AcDbLine
 10
-51.3730000628567
 20
53.33526060483953
 30
0.0
 11
46.79799993714331
 21
53.33526060483953
 31
0.0
  0
SOLID
  5
48C
330
486
100
AcDbEntity
  8
치수문자_일반주서
 62
     0
100
AcDbTrace
 10
-51.3730000628567
 20
53.88559393817287
 30
0.0
 11
-51.3730000628567
 21
52.7849272715062
 31
0.0
 12
-54.6750000628567
 22
53.33526060483953
 32
0.0
 13
-54.6750000628567
 23
53.33526060483953
 33
0.0
  0
SOLID
  5
48D
330
486
100
AcDbEntity
  8
치수문자_일반주서
 62
     0
100
AcDbTrace
 10
46.79799993714331
 20
52.7849272715062
 30
0.0
 11
46.79799993714331
 21
53.88559393817287
 31
0.0
 12
50.09999993714331
 22
53.33526060483953
 32
0.0
 13
50.09999993714331
 23
53.33526060483953
 33
0.0
  0
MTEXT
  5
48E
330
486
100
AcDbEntity
  8
치수문자_일반주서
 62
     0
100
AcDbMText
 10
-1.158940133989759
 20
57.71026060483953
 30
0.0
 40
3.5
 41
0.0
 71
     2
 72
     1
  1
\A1;104.78 [4 1/8]
  7
SLDTEXTSTYLE0
 73
     1
 44
1.0
  0
POINT
  5
48F
330
486
100
AcDbEntity
  8
Defpoints
 62
     0
100
AcDbPoint
 10
-54.6750000628567
 20
7.620573504262026
 30
0.0
  0
POINT
  5
490
330
486
100
AcDbEntity
  8
Defpoints
 62
     0
100
AcDbPoint
 10
50.09999993714331
 20
9.525573504262077
 30
0.0
  0
POINT
  5
491
330
486
100
AcDbEntity
  8
Defpoints
 62
     0
100
AcDbPoint
 10
50.09999993714331
 20
53.33526060483953
 30
0.0
  0
ENDBLK
  5
488
330
486
100
AcDbEntity
  8
0
100
AcDbBlockEnd
  0
BLOCK
  5
493
330
492
100
AcDbEntity
  8
0
100
AcDbBlockBegin
  2
*D27
 70
     1
 10
0.0
 20
0.0
 30
0.0
  3
*D27
  1
*D27
  0
LINE
  5
495
330
492
100
AcDbEntity
  8
치수문자_일반주서
 62
     0
370
    -2
100
AcDbLine
 10
50.8664741008613
 20
-12.24799634004031
 30
0.0
 11
66.75562633796733
 21
-41.72818377899783
 31
0.0
  0
MTEXT
  5
496
330
492
100
AcDbEntity
  8
치수문자_일반주서
 62
     0
100
AcDbMText
 10
61.90510902503176
 20
-27.19599895153942
 30
0.0
 40
3.5
 41
0.0
 71
     5
 72
     1
  1
\A1;R1.53 [R0.060]
  7
SLDTEXTSTYLE0
 11
0.4744517606147008
 21
-0.8802815043209817
 31
0.0
 73
     1
 44
1.0
  0
LINE
  5
497
330
492
100
AcDbEntity
  8
치수문자_일반주서
 62
     0
370
    -2
100
AcDbLine
 10
48.5733535435651
 20
-7.99341920210162
 30
0.0
 11
49.29983438731156
 21
-9.34130681277243
 31
0.0
  0
SOLID
  5
498
330
492
100
AcDbEntity
  8
치수문자_일반주서
 62
     0
100
AcDbTrace
 10
51.35092235540595
 20
-11.98688972111536
 30
0.0
 11
50.38202584631666
 21
-12.50910295896527
 31
0.0
 12
49.29983438731156
 22
-9.34130681277243
 32
0.0
 13
49.29983438731156
 23
-9.34130681277243
 33
0.0
  0
POINT
  5
499
330
492
100
AcDbEntity
  8
Defpoints
 62
     0
100
AcDbPoint
 10
49.29983438731156
 20
-9.34130681277243
 30
0.0
  0
POINT
  5
49A
330
492
100
AcDbEntity
  8
Defpoints
 62
     0
100
AcDbPoint
 10
48.5733535435651
 20
-7.99341920210162
 30
0.0
  0
ENDBLK
  5
494
330
492
100
AcDbEntity
  8
0
100
AcDbBlockEnd
  0
BLOCK
  5
4A4
330
4A3
100
AcDbEntity
  8
0
100
AcDbBlockBegin
  2
*D28
 70
     1
 10
0.0
 20
0.0
 30
0.0
  3
*D28
  1
*D28
  0
LINE
  5
4A6
330
4A3
100
AcDbEntity
  8
치수문자_일반주서
 62
     0
370
    -2
100
AcDbLine
 10
176.512085430489
 20
-11.16391640728744
 30
0.0
 11
193.3197713998681
 21
-38.08783797537878
 31
0.0
  0
MTEXT
  5
4A7
330
4A3
100
AcDbEntity
  8
치수문자_일반주서
 62
     0
100
AcDbMText
 10
188.0169471348082
 20
-24.63631273188348
 30
0.0
 40
3.5
 41
0.0
 71
     5
 72
     1
  1
\A1;R.76 [R0.030]
  7
SLDTEXTSTYLE0
 11
0.5295510631666908
 21
-0.8482780626062586
 31
0.0
 73
     1
 44
1.0
  0
LINE
  5
4A8
330
4A3
100
AcDbEntity
  8
치수문자_일반주서
 62
     0
370
    -2
100
AcDbLine
 10
174.3599899097795
 20
-7.716514360855609
 30
0.0
 11
174.7635078199125
 21
-8.362902244561578
 31
0.0
  0
SOLID
  5
4A9
330
4A3
100
AcDbEntity
  8
치수문자_일반주서
 62
     0
100
AcDbTrace
 10
176.9789211242766
 20
-10.87248680552471
 30
0.0
 11
176.0452497367013
 21
-11.45534600905018
 31
0.0
 12
174.7635078199125
 22
-8.362902244561578
 32
0.0
 13
174.7635078199125
 23
-8.362902244561578
 33
0.0
  0
POINT
  5
4AA
330
4A3
100
AcDbEntity
  8
Defpoints
 62
     0
100
AcDbPoint
 10
174.7635078199125
 20
-8.362902244561578
 30
0.0
  0
POINT
  5
4AB
330
4A3
100
AcDbEntity
  8
Defpoints
 62
     0
100
AcDbPoint
 10
174.3599899097795
 20
-7.716514360855609
 30
0.0
  0
ENDBLK
  5
4A5
330
4A3
100
AcDbEntity
  8
0
100
AcDbBlockEnd
  0
BLOCK
  5
4D5
330
4D4
100
AcDbEntity
  8
0
100
AcDbBlockBegin
  2
*D29
 70
     1
 10
0.0
 20
0.0
 30
0.0
  3
*D29
  1
*D29
  0
LINE
  5
4D7
330
4D4
100
AcDbEntity
  8
치수문자_일반주서
 62
     0
370
    -2
100
AcDbLine
 10
51.09183054185749
 20
-12.42851081145792
 30
0.0
 11
66.6071243630712
 21
-44.86059129793638
 31
0.0
  0
MTEXT
  5
4D8
330
4D4
100
AcDbEntity
  8
치수문자_일반주서
 62
     0
100
AcDbMText
 10
62.83896304859914
 20
-30.90120603673608
 30
0.0
 40
3.5
 41
0.0
 71
     5
 72
     1
  1
\A1;R0.76 [R0.03]
  7
SLDTEXTSTYLE0
 11
0.4315528062780887
 21
-0.9020876761121984
 31
0.0
 73
     1
 44
1.0
  0
LINE
  5
4D9
330
4D4
100
AcDbEntity
  8
치수문자_일반주서
 62
     0
370
    -2
100
AcDbLine
 10
49.33799993714334
 20
-8.762426495737945
 30
0.0
 11
49.66684317552724
 21
-9.44981730493544
 31
0.0
  0
SOLID
  5
4DA
330
4D4
100
AcDbEntity
  8
치수문자_일반주서
 62
     0
100
AcDbTrace
 10
51.58827945961124
 20
-12.19101291706954
 30
0.0
 11
50.59538162410374
 21
-12.66600870584629
 31
0.0
 12
49.66684317552724
 22
-9.44981730493544
 32
0.0
 13
49.66684317552724
 23
-9.44981730493544
 33
0.0
  0
POINT
  5
4DB
330
4D4
100
AcDbEntity
  8
Defpoints
 62
     0
100
AcDbPoint
 10
49.66684317552724
 20
-9.44981730493544
 30
0.0
  0
POINT
  5
4DC
330
4D4
100
AcDbEntity
  8
Defpoints
 62
     0
100
AcDbPoint
 10
49.33799993714334
 20
-8.762426495737945
 30
0.0
  0
ENDBLK
  5
4D6
330
4D4
100
AcDbEntity
  8
0
100
AcDbBlockEnd
  0
ENDSEC
  0
SECTION
  2
ENTITIES
  0
LINE
  5
E1
330
1F
100
AcDbEntity
  8
참조1
100
AcDbLine
 10
-4.287500000000055
 20
0.0010749287238892
 30
0.0
 11
-4.28750000000005
 21
-39.99892507127611
 31
0.0
  0
LINE
  5
E2
330
1F
100
AcDbEntity
  8
참조1
100
AcDbLine
 10
-4.28750000000005
 20
-39.99892507127611
 30
0.0
 11
-19.44635681430873
 21
-39.9989250712761
 31
0.0
  0
INSERT
  5
E4
330
1F
100
AcDbEntity
  8
0
  6
Continuous
 62
     7
100
AcDbBlockReference
 66
     1
  2
블럭10
 10
-18.22777293212526
 20
-52.04609937292004
 30
0.0
  0
ATTRIB
  5
E5
330
E4
100
AcDbEntity
  8
FORMAT
 62
     2
100
AcDbText
 10
-28.93385375441394
 20
-49.97073246008785
 30
0.0
 40
4.233333333333333
  1
G8C51048 [ 8 FLUTE ]
 41
0.75
  7
SLDTEXTSTYLE0
 11
-28.93385375441394
 21
-52.08739912675452
 31
0.0
100
AcDbAttribute
  2
AUTOATTR0
 70
     0
 74
     1
  0
SEQEND
  5
E6
330
E4
100
AcDbEntity
  8
0
  6
Continuous
 62
     7
  0
HATCH
  5
E7
330
1F
100
AcDbEntity
  8
중심선
100
AcDbHatch
 10
0.0
 20
0.0
 30
0.0
210
0.0
220
0.0
230
1.0
  2
SOLID
 70
     1
 71
     0
 91
        1
 92
        0
 93
        4
 72
     1
 10
-12.51286362774442
 20
-35.7989250712761
 11
-15.95913887158171
 21
-35.7989250712761
 72
     1
 10
-15.95913887158171
 20
-35.7989250712761
 11
-18.08736873078573
 21
-38.3352506518487
 72
     1
 10
-18.08736873078573
 20
-38.3352506518487
 11
-14.6410604018353
 21
-38.33521122254621
 72
     1
 10
-14.6410604018353
 20
-38.33521122254621
 11
-12.51286362774442
 21
-35.7989250712761
 97
        0
 75
     0
 76
     1
 98
        1
 10
0.0
 20
0.0
  0
HATCH
  5
E8
330
1F
100
AcDbEntity
  8
중심선
100
AcDbHatch
 10
0.0
 20
0.0
 30
0.0
210
0.0
220
0.0
230
1.0
  2
SOLID
 70
     1
 71
     0
 91
        1
 92
        0
 93
        4
 72
     1
 10
-7.500099636708446
 20
-35.7989250712761
 11
-10.94637488054573
 21
-35.7989250712761
 72
     1
 10
-10.94637488054573
 20
-35.7989250712761
 11
-15.47751288890314
 21
-41.19892507127612
 72
     1
 10
-15.47751288890314
 20
-41.19892507127612
 11
-12.03123764506586
 21
-41.19892507127612
 72
     1
 10
-12.03123764506586
 20
-41.19892507127612
 11
-7.500099636708446
 21
-35.7989250712761
 97
        0
 75
     0
 76
     1
 98
        1
 10
0.0
 20
0.0
  0
HATCH
  5
E9
330
1F
100
AcDbEntity
  8
중심선
100
AcDbHatch
 10
0.0
 20
0.0
 30
0.0
210
0.0
220
0.0
230
1.0
  2
SOLID
 70
     1
 71
     0
 91
        1
 92
        0
 93
        4
 72
     1
 10
-2.487335645672578
 20
-35.7989250712761
 11
-5.933610889509694
 21
-35.7989250712761
 72
     1
 10
-5.933610889509694
 20
-35.7989250712761
 11
-12.98204779139894
 21
-44.19892507127612
 72
     1
 10
-12.98204779139894
 20
-44.19892507127612
 11
-9.53577254756166
 21
-44.19892507127612
 72
     1
 10
-9.53577254756166
 20
-44.19892507127612
 11
-2.487335645672578
 21
-35.7989250712761
 97
        0
 75
     0
 76
     1
 98
        1
 10
0.0
 20
0.0
  0
HATCH
  5
EA
330
1F
100
AcDbEntity
  8
중심선
100
AcDbHatch
 10
0.0
 20
0.0
 30
0.0
210
0.0
220
0.0
230
1.0
  2
SOLID
 70
     1
 71
     0
 91
        1
 92
        0
 93
        6
 72
     3
 10
2.312554785339621
 20
-39.99892507132738
 11
3.960054785062284
 21
1.540850780301639E-10
 40
0.3939339440162633
 50
17.09539180608434
 51
320.0019657685073
 73
     0
 72
     1
 10
3.995554441040217
 20
-38.58681907591438
 11
6.300856314741255
 21
-36.65249236586649
 72
     3
 10
2.312554785286775
 20
-39.99892507127625
 11
6.600054785286829
 21
-1.249000902703301E-13
 40
0.6363583540795982
 50
39.99873849337408
 51
368.4976242363724
 73
     1
 72
     1
 10
8.737887277187383
 20
-39.03892507120613
 11
0.9926220921226969
 21
-39.0389250712061
 72
     1
 10
0.9926220921226969
 20
-39.0389250712061
 11
0.9925970476767632
 21
-40.95892507120602
 72
     1
 10
0.9925970476767632
 20
-40.95892507120602
 11
5.4339768171488
 21
-40.95892507120599
 97
        0
 75
     0
 76
     1
 98
        1
 10
0.0
 20
0.0
  0
LINE
  5
13C
330
1F
100
AcDbEntity
  8
참조1
100
AcDbLine
 10
78.52598381534554
 20
7.441074928723896
 30
0.0
 11
78.52598381534554
 21
-7.438925071276109
 31
0.0
  0
LINE
  5
13D
330
1F
100
AcDbEntity
  8
참조1
100
AcDbLine
 10
91.22598381534554
 20
5.441074928723896
 30
0.0
 11
78.52598381534554
 21
5.441074928723896
 31
0.0
  0
SOLID
  5
13E
330
1F
100
AcDbEntity
  8
참조1
100
AcDbTrace
 10
78.52598381534554
 20
5.441074928723896
 30
0.0
 11
84.87598381534553
 21
4.425074928723896
 31
0.0
 12
84.87598381534553
 22
6.457074928723896
 32
0.0
 13
84.87598381534553
 23
6.457074928723896
 33
0.0
  0
LINE
  5
13F
330
1F
100
AcDbEntity
  8
참조1
100
AcDbLine
 10
91.22598381534554
 20
-5.438925071276109
 30
0.0
 11
78.52598381534554
 21
-5.438925071276109
 31
0.0
  0
SOLID
  5
140
330
1F
100
AcDbEntity
  8
참조1
100
AcDbTrace
 10
78.52598381534554
 20
-5.438925071276109
 30
0.0
 11
84.87598381534553
 21
-6.454925071276109
 31
0.0
 12
84.87598381534553
 22
-4.422925071276109
 32
0.0
 13
84.87598381534553
 23
-4.422925071276109
 33
0.0
  0
MTEXT
  5
141
330
1F
100
AcDbEntity
  8
참조1
100
AcDbMText
 10
87.9234739078158
 20
10.98929157337383
 30
0.0
 40
3.5
 41
0.0
 71
     1
 72
     1
  1
A
  7
SLDTEXTSTYLE0
 73
     1
 44
1.0
  0
MTEXT
  5
142
330
1F
100
AcDbEntity
  8
참조1
100
AcDbMText
 10
87.9234739078158
 20
0.1092915733738259
 30
0.0
 40
3.5
 41
0.0
 71
     1
 72
     1
  1
A
  7
SLDTEXTSTYLE0
 73
     1
 44
1.0
  0
LINE
  5
408
330
1F
100
AcDbEntity
  8
0
  6
Continuous
 62
     1
370
    15
100
AcDbLine
 10
38.88502991917051
 20
-1.375563595634468
 30
0.0
 11
38.97716251800372
 21
-1.428183095039614
 31
0.0
1001
PE_URL
1000

  0
LINE
  5
409
330
1F
100
AcDbEntity
  8
0
  6
Continuous
 62
     1
370
    15
100
AcDbLine
 10
44.01926295674897
 20
1.388248506365542
 30
0.0
 11
43.94610549897448
 21
1.429249185656531
 31
0.0
1001
PE_URL
1000

  0
LINE
  5
40A
330
1F
100
AcDbEntity
  8
0
  6
Continuous
 62
     1
370
    15
100
AcDbLine
 10
50.09999993714334
 20
-1.908828256540502
 30
0.0
 11
50.0095432278402
 21
-1.862432140579834
 31
0.0
1001
PE_URL
1000

  0
LINE
  5
40B
330
1F
100
AcDbEntity
  8
0
  6
Continuous
 62
     1
370
    15
100
AcDbLine
 10
25.93930774536059
 20
-1.382117477566801
 30
0.0
 11
26.01956662044554
 21
-1.428056973141601
 31
0.0
1001
PE_URL
1000

  0
LINE
  5
40C
330
1F
100
AcDbEntity
  8
0
  6
Continuous
 62
     1
370
    15
100
AcDbLine
 10
31.05489850647487
 20
1.392114317125248
 30
0.0
 11
30.98927232315239
 21
1.429330004345758
 31
0.0
1001
PE_URL
1000

  0
LINE
  5
40D
330
1F
100
AcDbEntity
  8
0
  6
Continuous
 62
     1
370
    15
100
AcDbLine
 10
23.53712075460993
 20
9.525573504262027
 30
0.0
 11
20.51399534292668
 21
9.525573504262027
 31
0.0
1001
PE_URL
1000

  0
LINE
  5
40E
330
1F
100
AcDbEntity
  8
0
  6
Continuous
 62
     1
370
    15
100
AcDbLine
 10
36.49344066390918
 20
9.525573504262027
 30
0.0
 11
33.47194136275047
 21
9.525573504262027
 31
0.0
1001
PE_URL
1000

  0
LINE
  5
410
330
1F
100
AcDbEntity
  8
0
  6
Continuous
 62
     1
370
    15
100
AcDbLine
 10
49.33799993714334
 20
9.525573504262029
 30
0.0
 11
46.42991891554428
 21
9.525573504262027
 31
0.0
1001
PE_URL
1000

  0
LINE
  5
411
330
1F
100
AcDbEntity
  8
외형선
  6
Continuous
370
    15
100
AcDbLine
 10
11.49986965338312
 20
9.52557350426202
 30
0.0
 11
-52.7700000628567
 21
9.52557350426202
 31
0.0
  0
LINE
  5
412
330
1F
100
AcDbEntity
  8
외형선
  6
Continuous
370
    15
100
AcDbLine
 10
-52.7700000628567
 20
9.52557350426202
 30
0.0
 11
-54.6750000628567
 21
7.620573504262026
 31
0.0
  0
LINE
  5
413
330
1F
100
AcDbEntity
  8
외형선
  6
Continuous
370
    15
100
AcDbLine
 10
-54.6750000628567
 20
-7.619426495737983
 30
0.0
 11
-52.7700000628567
 21
-9.524426495737977
 31
0.0
  0
LINE
  5
414
330
1F
100
AcDbEntity
  8
0
  6
Continuous
 62
     1
370
    15
100
AcDbLine
 10
50.09999993714334
 20
-5.746671122132064
 30
0.0
 11
50.09999993714334
 21
-1.946476869343776
 31
0.0
1001
PE_URL
1000

  0
SPLINE
  5
415
330
1F
100
AcDbEntity
  8
0
  6
Continuous
 62
     1
370
    15
100
AcDbSpline
210
0.0
220
0.0
230
1.0
 70
     8
 71
     3
 72
    18
 73
    14
 74
     0
 42
0.000000001
 43
0.00000001
 40
0.0
 40
0.0
 40
0.0
 40
0.0
 40
0.25
 40
0.25
 40
0.5
 40
0.5
 40
0.625
 40
0.625
 40
0.75
 40
0.75
 40
0.875
 40
0.875
 40
1.0
 40
1.0
 40
1.0
 40
1.0
 10
48.57599993714334
 20
-6.368087487774616
 30
0.0
 10
48.76454617852275
 20
-6.448918479072745
 30
0.0
 10
48.94541663462374
 20
-6.507026869530833
 30
0.0
 10
49.29772836434162
 20
-6.569470298333172
 30
0.0
 10
49.45916972058598
 20
-6.572539707151869
 30
0.0
 10
49.68153065791219
 20
-6.513819377965298
 30
0.0
 10
49.74965817660174
 20
-6.483861530762638
 30
0.0
 10
49.87240547154104
 20
-6.398594790764712
 30
0.0
 10
49.92670600075999
 20
-6.342748489187905
 30
0.0
 10
50.01334406230885
 20
-6.207980405336158
 30
0.0
 10
50.04702523727096
 20
-6.126445597321435
 30
0.0
 10
50.08998614228685
 20
-5.947755188795831
 30
0.0
 10
50.09999993714334
 20
-5.849427073218159
 30
0.0
 10
50.09999993714334
 20
-5.746671122132064
 30
0.0
1001
PE_URL
1000

  0
SPLINE
  5
416
330
1F
100
AcDbEntity
  8
0
  6
Continuous
 62
     1
370
    15
100
AcDbSpline
210
0.0
220
0.0
230
1.0
 70
     8
 71
     3
 72
    54
 73
    50
 74
     0
 42
0.000000001
 43
0.00000001
 40
0.0
 40
0.0
 40
0.0
 40
0.0
 40
0.0312500000000008
 40
0.0312500000000008
 40
0.0625000000000016
 40
0.0625000000000016
 40
0.1250000000000022
 40
0.1250000000000022
 40
0.1875000000000029
 40
0.1875000000000029
 40
0.2187500000000029
 40
0.2187500000000029
 40
0.2500000000000028
 40
0.2500000000000028
 40
0.2812500000000027
 40
0.2812500000000027
 40
0.3125000000000027
 40
0.3125000000000027
 40
0.3750000000000034
 40
0.3750000000000034
 40
0.4375000000000041
 40
0.4375000000000041
 40
0.4687500000000044
 40
0.4687500000000044
 40
0.5000000000000048
 40
0.5000000000000048
 40
0.5312500000000051
 40
0.5312500000000051
 40
0.5625000000000054
 40
0.5625000000000054
 40
0.6250000000000053
 40
0.6250000000000053
 40
0.6875000000000052
 40
0.6875000000000052
 40
0.7187500000000048
 40
0.7187500000000048
 40
0.7500000000000042
 40
0.7500000000000042
 40
0.7812500000000037
 40
0.7812500000000037
 40
0.8125000000000031
 40
0.8125000000000031
 40
0.8750000000000021
 40
0.8750000000000021
 40
0.9375000000000011
 40
0.9375000000000011
 40
0.9687500000000006
 40
0.9687500000000006
 40
1.0
 40
1.0
 40
1.0
 40
1.0
 10
48.57599993714334
 20
-6.368087487774595
 30
0.0
 10
48.1941853516077
 20
-6.204401109222907
 30
0.0
 10
47.81237139457639
 20
-6.035606832466243
 30
0.0
 10
47.05148782832546
 20
-5.689051836189165
 30
0.0
 10
46.6724210675545
 20
-5.511304646534327
 30
0.0
 10
45.52881664339358
 20
-4.964267174814083
 30
0.0
 10
44.76274976254058
 20
-4.581856788431878
 30
0.0
 10
43.2452301113002
 20
-3.792702679308732
 30
0.0
 10
42.47918823827175
 20
-3.383441953396307
 30
0.0
 10
41.33556878694665
 20
-2.756223594333989
 30
0.0
 10
40.95649324107768
 20
-2.545170883137295
 30
0.0
 10
40.19562469154442
 20
-2.118836612127623
 30
0.0
 10
39.81381451514986
 20
-1.903546240273783
 30
0.0
 10
39.05018535952908
 20
-1.470255951070918
 30
0.0
 10
38.66836858053901
 20
-1.252257282081942
 30
0.0
 10
37.90747377846455
 20
-0.8151287730503753
 30
0.0
 10
37.52841351229947
 20
-0.5960043769965893
 30
0.0
 10
36.38482039885272
 20
0.0635049926940212
 30
0.0
 10
35.61874973274607
 20
0.5050869486697493
 30
0.0
 10
34.101200217166
 20
1.379422825895794
 30
0.0
 10
33.33519199389517
 20
1.814954355210546
 30
0.0
 10
32.19156131253882
 20
2.456442010068727
 30
0.0
 10
31.81247908362954
 20
2.668081786991351
 30
0.0
 10
31.05162182334803
 20
3.087263550545067
 30
0.0
 10
30.66981449594968
 20
3.294805274396978
 30
0.0
 10
29.90618537895509
 20
3.704279052864898
 30
0.0
 10
29.52436578959421
 20
3.90620992738193
 30
0.0
 10
28.76345977459576
 20
4.303028851657629
 30
0.0
 10
28.38440592227809
 20
4.497920929705586
 30
0.0
 10
27.24082415412207
 20
5.072434401180324
 30
0.0
 10
26.47474972618315
 20
5.44097143171399
 30
0.0
 10
24.95717039163642
 20
6.138698056670719
 30
0.0
 10
24.19119574946947
 20
6.470096249428693
 30
0.0
 10
23.04755387266221
 20
6.933780952501998
 30
0.0
 10
22.66846487995613
 20
7.08263901860451
 30
0.0
 10
21.90761893182233
 20
7.369159166606103
 30
0.0
 10
21.52581446500713
 20
7.50681114322294
 30
0.0
 10
20.76218540981435
 20
7.769865417013484
 30
0.0
 10
20.38036302167095
 20
7.895266955336893
 30
0.0
 10
19.6194458166494
 20
8.132961314482287
 30
0.0
 10
19.24039829741972
 20
8.245267795867477
 30
0.0
 10
18.09682790912976
 20
8.562767933580673
 30
0.0
 10
17.33074974278051
 20
8.747913928466062
 30
0.0
 10
15.81314063464308
 20
9.060116897083432
 30
0.0
 10
15.04719950492296
 20
9.188160192664355
 30
0.0
 10
13.90354646724623
 20
9.33520568191183
 30
0.0
 10
13.52445062998754
 20
9.376710483642974
 30
0.0
 10
12.76361601689621
 20
9.444781989758319
 30
0.0
 10
12.38181442225095
 20
9.471329481181883
 30
0.0
 10
11.99999993714331
 20
9.490265543490395
 30
0.0
1001
PE_URL
1000

  0
SPLINE
  5
417
330
1F
100
AcDbEntity
  8
0
  6
Continuous
 62
     1
370
    15
100
AcDbSpline
210
0.0
220
0.0
230
1.0
 70
     8
 71
     3
 72
    20
 73
    16
 74
     0
 42
0.000000001
 43
0.00000001
 40
0.0
 40
0.0
 40
0.0
 40
0.0
 40
0.0774975396929596
 40
0.1550113379990633
 40
0.2325575733561198
 40
0.310113261512945
 40
0.3876333731326601
 40
0.4651333346941501
 40
0.5426293817911965
 40
0.6201377662005705
 40
0.7013567019903995
 40
0.7825975378020914
 40
0.8638300719651527
 40
0.9450422485665386
 40
1.0
 40
1.0
 40
1.0
 40
1.0
 10
48.57599993714337
 20
-1.235005384514068
 30
0.0
 10
47.72287682417883
 20
-0.7436179291208163
 30
0.0
 10
46.01645161710124
 20
0.2392600724034395
 30
0.0
 10
43.45627326409158
 20
1.715892943246011
 30
0.0
 10
40.89518583180111
 20
3.149064132300374
 30
0.0
 10
38.33391385525755
 20
4.50699241234387
 30
0.0
 10
35.77350637645682
 20
5.756724749148908
 30
0.0
 10
33.21385870742654
 20
6.867977311319947
 30
0.0
 10
30.65437106630804
 20
7.814118189250294
 30
0.0
 10
28.05387086339999
 20
8.584677564774026
 30
0.0
 10
25.41189892980776
 20
9.149024912953145
 30
0.0
 10
22.72875066706379
 20
9.483168327858408
 30
0.0
 10
20.04576491206939
 20
9.55802910035949
 30
0.0
 10
17.65229125035489
 20
9.430495200331748
 30
0.0
 10
16.15319407596809
 20
9.17422583127118
 30
0.0
 10
15.54816320701244
 20
9.0707963260339
 30
0.0
1001
PE_URL
1000

  0
SPLINE
  5
418
330
1F
100
AcDbEntity
  8
0
  6
Continuous
 62
     1
370
    15
100
AcDbSpline
210
0.0
220
0.0
230
1.0
 70
     8
 71
     3
 72
    18
 73
    14
 74
     0
 42
0.000000001
 43
0.00000001
 40
0.0
 40
0.0
 40
0.0
 40
0.0
 40
0.249999999999998
 40
0.249999999999998
 40
0.3749999999999961
 40
0.3749999999999961
 40
0.4999999999999942
 40
0.4999999999999942
 40
0.6249999999999923
 40
0.6249999999999923
 40
0.7499999999999905
 40
0.7499999999999905
 40
1.0
 40
1.0
 40
1.0
 40
1.0
 10
50.09999993714334
 20
-1.946476869343776
 30
0.0
 10
50.09999993714328
 20
-1.908926121365994
 30
0.0
 10
50.0602200780036
 20
-1.879821148503197
 30
0.0
 10
49.94095727906424
 20
-1.829910911774341
 30
0.0
 10
49.8921672673896
 20
-1.812534673973062
 30
0.0
 10
49.77752181497053
 20
-1.772918251539586
 30
0.0
 10
49.7107912617565
 20
-1.750377891979937
 30
0.0
 10
49.56556764945503
 20
-1.698875762993119
 30
0.0
 10
49.48706807161329
 20
-1.669921457011945
 30
0.0
 10
49.31948499270607
 20
-1.603452057305049
 30
0.0
 10
49.23005421501264
 20
-1.565723560925875
 30
0.0
 10
48.95809187075886
 20
-1.442411335211659
 30
0.0
 10
48.76627108392401
 20
-1.343775374029896
 30
0.0
 10
48.57599993714334
 20
-1.235005384514061
 30
0.0
1001
PE_URL
1000

  0
LINE
  5
419
330
1F
100
AcDbEntity
  8
0
  6
Continuous
 62
     1
370
    15
100
AcDbLine
 10
50.09999993714334
 20
-8.762426495737945
 30
0.0
 11
50.09999993714334
 21
-6.863684591904132
 31
0.0
1001
PE_URL
1000

  0
SPLINE
  5
41A
330
1F
100
AcDbEntity
  8
0
  6
Continuous
 62
     1
370
    15
100
AcDbSpline
210
0.0
220
0.0
230
1.0
 70
     8
 71
     3
 72
    54
 73
    50
 74
     0
 42
0.000000001
 43
0.00000001
 40
0.0
 40
0.0
 40
0.0
 40
0.0
 40
0.0312500000000006
 40
0.0312500000000006
 40
0.0625000000000012
 40
0.0625000000000012
 40
0.1250000000000015
 40
0.1250000000000015
 40
0.1875000000000018
 40
0.1875000000000018
 40
0.218750000000002
 40
0.218750000000002
 40
0.2500000000000022
 40
0.2500000000000022
 40
0.2812500000000024
 40
0.2812500000000024
 40
0.3125000000000026
 40
0.3125000000000026
 40
0.3750000000000028
 40
0.3750000000000028
 40
0.4375000000000032
 40
0.4375000000000032
 40
0.4687500000000033
 40
0.4687500000000033
 40
0.5000000000000034
 40
0.5000000000000034
 40
0.5312500000000036
 40
0.5312500000000036
 40
0.5625000000000038
 40
0.5625000000000038
 40
0.6250000000000032
 40
0.6250000000000032
 40
0.6875000000000028
 40
0.6875000000000028
 40
0.7187500000000024
 40
0.7187500000000024
 40
0.7500000000000021
 40
0.7500000000000021
 40
0.7812500000000019
 40
0.7812500000000019
 40
0.8125000000000016
 40
0.8125000000000016
 40
0.8750000000000011
 40
0.8750000000000011
 40
0.9375000000000006
 40
0.9375000000000006
 40
0.9687500000000003
 40
0.9687500000000003
 40
1.0
 40
1.0
 40
1.0
 40
1.0
 10
48.57599993714334
 20
-9.51103211914625
 30
0.0
 10
48.19418535160773
 20
-9.499362283077332
 30
0.0
 10
47.81237139457639
 20
-9.480063217921249
 30
0.0
 10
47.05148782832549
 20
-9.42640005496164
 30
0.0
 10
46.67242106755455
 20
-9.392057513790121
 30
0.0
 10
45.52881664339361
 20
-9.266382464478653
 30
0.0
 10
44.76274976254061
 20
-9.152390425025075
 30
0.0
 10
43.2452301113002
 20
-8.86753589330199
 30
0.0
 10
42.47918823827175
 20
-8.695765278344453
 30
0.0
 10
41.33556878694662
 20
-8.397578605435811
 30
0.0
 10
40.95649324107768
 20
-8.291578959548104
 30
0.0
 10
40.19562469154437
 20
-8.06625910743334
 30
0.0
 10
39.81381451514983
 20
-7.946918489560936
 30
0.0
 10
39.05018535952905
 20
-7.695687952244114
 30
0.0
 10
38.66836858053901
 20
-7.563798756322143
 30
0.0
 10
37.90747377846449
 20
-7.288464919849297
 30
0.0
 10
37.52841351229947
 20
-7.145039184506508
 30
0.0
 10
36.38482039885281
 20
-6.697155324317841
 30
0.0
 10
35.61874973274612
 20
-6.37558936351941
 30
0.0
 10
34.10120021716605
 20
-5.695916949763109
 30
0.0
 10
33.33519199389517
 20
-5.335652245099148
 30
0.0
 10
32.19156131253882
 20
-4.772194669916168
 30
0.0
 10
31.81247908362954
 20
-4.580761648092675
 30
0.0
 10
31.05162182334809
 20
-4.19043662108178
 30
0.0
 10
30.66981449594968
 20
-3.991528887861783
 30
0.0
 10
29.90618537895509
 20
-3.587629930466356
 30
0.0
 10
29.52436578959419
 20
-3.382639869729609
 30
0.0
 10
28.76345977459582
 20
-2.96807298981733
 30
0.0
 10
28.38440592227812
 20
-2.758509061733001
 30
0.0
 10
27.24082415412207
 20
-2.122521701383775
 30
0.0
 10
26.47474972618315
 20
-1.689663120279661
 30
0.0
 10
24.95717039163642
 20
-0.8186739944834258
 30
0.0
 10
24.19119574946947
 20
-0.3777882965157744
 30
0.0
 10
23.04755387266218
 20
0.2822331094485904
 30
0.0
 10
22.66846487995613
 20
0.5017819988423611
 30
0.0
 10
21.90761893182233
 20
0.9402415204770165
 30
0.0
 10
21.52581446500716
 20
1.159159982112442
 30
0.0
 10
20.76218540981441
 20
1.594793548454525
 30
0.0
 10
20.38036302167095
 20
1.811507397810587
 30
0.0
 10
19.61944581664943
 20
2.241180050292975
 30
0.0
 10
19.24039829741969
 20
2.454134915874405
 30
0.0
 10
18.09682790912979
 20
3.08780032321345
 30
0.0
 10
17.33074974278051
 20
3.502347118015891
 30
0.0
 10
15.81314063464308
 20
4.303865402888292
 30
0.0
 10
15.04719950492299
 20
4.693363262318947
 30
0.0
 10
13.90354646724617
 20
5.252327468437876
 30
0.0
 10
13.52445062998751
 20
5.434255640926203
 30
0.0
 10
12.76361601689618
 20
5.789567958179404
 30
0.0
 10
12.38181442225093
 20
5.962949543032295
 30
0.0
 10
11.99999993714331
 20
6.131415803490135
 30
0.0
1001
PE_URL
1000

  0
SPLINE
  5
41B
330
1F
100
AcDbEntity
  8
외형선
  6
Continuous
370
    15
100
AcDbSpline
210
0.0
220
0.0
230
1.0
 70
    24
 71
     3
 72
    14
 73
    10
 74
     0
 42
0.000000001
 43
0.00000001
 40
0.0
 40
0.0
 40
0.0
 40
0.0
 40
0.2109289387380632
 40
0.3609340460685092
 40
0.5152893116736081
 40
0.6652944190040011
 40
0.8196496846090433
 40
0.9696547919394383
 40
1.0
 40
1.0
 40
1.0
 40
1.0
 10
11.99999993714337
 20
9.18238201252693
 30
0.0
 10
11.99999993714337
 20
8.972708329332015
 30
0.0
 10
11.99999993714331
 20
8.613922231595055
 30
0.0
 10
11.99999993714331
 20
8.06856506230605
 30
0.0
 10
11.99999993714331
 20
7.588911785887568
 30
0.0
 10
11.99999993714331
 20
7.115145568245303
 30
0.0
 10
11.99999993714334
 20
6.67611765138048
 30
0.0
 10
11.99999993714331
 20
6.367768836248686
 30
0.0
 10
11.99999993714331
 20
6.228955900286472
 30
0.0
 10
11.99999993714331
 20
6.205599648238113
 30
0.0
  0
SPLINE
  5
41C
330
1F
100
AcDbEntity
  8
0
  6
Continuous
 62
     1
370
    15
100
AcDbSpline
210
0.0
220
0.0
230
1.0
 70
     8
 71
     3
 72
    54
 73
    50
 74
     0
 42
0.000000001
 43
0.00000001
 40
0.0
 40
0.0
 40
0.0
 40
0.0
 40
0.0312500000000003
 40
0.0312500000000003
 40
0.0625000000000006
 40
0.0625000000000006
 40
0.1250000000000012
 40
0.1250000000000012
 40
0.1875000000000018
 40
0.1875000000000018
 40
0.2187500000000017
 40
0.2187500000000017
 40
0.2500000000000016
 40
0.2500000000000016
 40
0.2812500000000016
 40
0.2812500000000016
 40
0.3125000000000014
 40
0.3125000000000014
 40
0.3750000000000012
 40
0.3750000000000012
 40
0.437500000000001
 40
0.437500000000001
 40
0.4687500000000013
 40
0.4687500000000013
 40
0.5000000000000016
 40
0.5000000000000016
 40
0.531250000000002
 40
0.531250000000002
 40
0.5625000000000023
 40
0.5625000000000023
 40
0.6250000000000029
 40
0.6250000000000029
 40
0.6875000000000036
 40
0.6875000000000036
 40
0.7187500000000034
 40
0.7187500000000034
 40
0.7500000000000032
 40
0.7500000000000032
 40
0.7812500000000031
 40
0.7812500000000031
 40
0.812500000000003
 40
0.812500000000003
 40
0.875000000000002
 40
0.875000000000002
 40
0.9375000000000009
 40
0.9375000000000009
 40
0.9687500000000004
 40
0.9687500000000004
 40
1.0
 40
1.0
 40
1.0
 40
1.0
 10
48.57599993714334
 20
-7.551397284686452
 30
0.0
 10
48.1941853516077
 20
-7.417250298000468
 30
0.0
 10
47.81237139457642
 20
-7.277046207512335
 30
0.0
 10
47.05148782832549
 20
-6.985574584695406
 30
0.0
 10
46.67242106755458
 20
-6.834323443714467
 30
0.0
 10
45.5288166433937
 20
-6.363684614975384
 30
0.0
 10
44.76274976254066
 20
-6.027949837431414
 30
0.0
 10
43.24523011130026
 20
-5.322338980035283
 30
0.0
 10
42.47918823827183
 20
-4.950212465826013
 30
0.0
 10
41.33556878694668
 20
-4.370907201046506
 30
0.0
 10
40.95649324107779
 20
-4.174518407435158
 30
0.0
 10
40.19562469154451
 20
-3.774922284781567
 30
0.0
 10
39.81381451514989
 20
-3.571702639071802
 30
0.0
 10
39.05018535952914
 20
-3.159860666145207
 30
0.0
 10
38.6683685805391
 20
-2.951239525415502
 30
0.0
 10
37.90747377846463
 20
-2.530115069263992
 30
0.0
 10
37.52841351229969
 20
-2.317620984149592
 30
0.0
 10
36.3848203988529
 20
-1.673892978024654
 30
0.0
 10
35.61874973274618
 20
-1.23729423231871
 30
0.0
 10
34.10120021716611
 20
-0.3617591718371571
 30
0.0
 10
33.33519199389534
 20
0.0799583170970308
 30
0.0
 10
32.19156131253894
 20
0.7390117921845274
 30
0.0
 10
31.81247908362965
 20
0.9578728359479598
 30
0.0
 10
31.05162182334823
 20
1.394232805493104
 30
0.0
 10
30.66981449594982
 20
1.611735571228628
 30
0.0
 10
29.9061853789552
 20
2.043813468811003
 30
0.0
 10
29.52436578959433
 20
2.25838735556696
 30
0.0
 10
28.76345977459596
 20
2.683073827290357
 30
0.0
 10
28.38440592227823
 20
2.89318631974664
 30
0.0
 10
27.24082415412224
 20
3.517260485270192
 30
0.0
 10
26.47474972618332
 20
3.923998894041901
 30
0.0
 10
24.95717039163662
 20
4.707309189103078
 30
0.0
 10
24.19119574946964
 20
5.08636009434322
 30
0.0
 10
23.04755387266238
 20
5.627830453889771
 30
0.0
 10
22.66846487995636
 20
5.803633050981567
 30
0.0
 10
21.90761893182255
 20
6.146103917612727
 30
0.0
 10
21.52581446500736
 20
6.312766107368027
 30
0.0
 10
20.76218540981461
 20
6.635708899127934
 30
0.0
 10
20.3803630216712
 20
6.79198856986568
 30
0.0
 10
19.61944581664969
 20
7.093078471718727
 30
0.0
 10
19.24039829741994
 20
7.237898633303772
 30
0.0
 10
18.09682790913001
 20
7.655461870781579
 30
0.0
 10
17.33074974278074
 20
7.910555871042042
 30
0.0
 10
15.81314063464336
 20
8.367102785409514
 30
0.0
 10
15.04719950492321
 20
8.569996540329015
 30
0.0
 10
13.90354646724646
 20
8.831757563043105
 30
0.0
 10
13.52445062998774
 20
8.911862713769558
 30
0.0
 10
12.76361601689649
 20
9.057904599724232
 30
0.0
 10
12.38181442225127
 20
9.123825282725335
 30
0.0
 10
11.99999993714363
 20
9.182382012523178
 30
0.0
1001
PE_URL
1000

  0
SPLINE
  5
41D
330
1F
100
AcDbEntity
  8
0
  6
Continuous
 62
     1
370
    15
100
AcDbSpline
210
0.0
220
0.0
230
1.0
 70
     8
 71
     3
 72
    18
 73
    14
 74
     0
 42
0.000000001
 43
0.00000001
 40
0.0
 40
0.0
 40
0.0
 40
0.0
 40
0.2499999999999972
 40
0.2499999999999972
 40
0.3749999999999954
 40
0.3749999999999954
 40
0.4999999999999937
 40
0.4999999999999937
 40
0.624999999999992
 40
0.624999999999992
 40
0.7499999999999902
 40
0.7499999999999902
 40
1.0
 40
1.0
 40
1.0
 40
1.0
 10
50.09999993714334
 20
-6.863684591904132
 30
0.0
 10
50.09999993714334
 20
-6.990192292819103
 30
0.0
 10
50.06022007800365
 20
-7.120530305796699
 30
0.0
 10
49.94095727906424
 20
-7.29822482876736
 30
0.0
 10
49.89216726738962
 20
-7.353233490042577
 30
0.0
 10
49.77752181497058
 20
-7.452321899056592
 30
0.0
 10
49.71079126175655
 20
-7.496750435948798
 30
0.0
 10
49.56556764945509
 20
-7.569020917737205
 30
0.0
 10
49.48706807161324
 20
-7.59720219595318
 30
0.0
 10
49.31948499270609
 20
-7.636437300212251
 30
0.0
 10
49.23005421501264
 20
-7.647283546798732
 30
0.0
 10
48.95809187075886
 20
-7.651936719562229
 30
0.0
 10
48.76627108392404
 20
-7.618247274081469
 30
0.0
 10
48.57599993714334
 20
-7.551397284686452
 30
0.0
1001
PE_URL
1000

  0
SPLINE
  5
41E
330
1F
100
AcDbEntity
  8
0
  6
Continuous
 62
     1
370
    15
100
AcDbSpline
210
0.0
220
0.0
230
1.0
 70
     8
 71
     3
 72
    19
 73
    15
 74
     0
 42
0.000000001
 43
0.00000001
 40
0.0
 40
0.0
 40
0.0
 40
0.0
 40
0.0869478067223115
 40
0.1739134760453089
 40
0.2609151616210499
 40
0.3479291256184899
 40
0.4349031060737219
 40
0.521854101053536
 40
0.6088003248265719
 40
0.6957600113862017
 40
0.7868826036486514
 40
0.8780298586912496
 40
0.9691690523608192
 40
1.0
 40
1.0
 40
1.0
 40
1.0
 10
11.99999993714334
 20
-0.8187982066273989
 30
0.0
 10
12.85312094226532
 20
-1.307750423828487
 30
0.0
 10
14.5595382181132
 20
-2.285755308817514
 30
0.0
 10
17.1196976217015
 20
-3.692621475532434
 30
0.0
 10
19.68076774023564
 20
-5.012050396227416
 30
0.0
 10
22.24205219834096
 20
-6.210473033501401
 30
0.0
 10
24.80247957527823
 20
-7.259978827593748
 30
0.0
 10
27.36213736365161
 20
-8.134709154078408
 30
0.0
 10
29.92162192076088
 20
-8.814213694918166
 30
0.0
 10
32.52210672727145
 20
-9.288166563541708
 30
0.0
 10
35.16406208771522
 20
-9.538234262253894
 30
0.0
 10
37.84719355776085
 20
-9.524005472061901
 30
0.0
 10
39.93861524516223
 20
-9.365092998449477
 30
0.0
 10
41.13547951788587
 20
-9.132119687760344
 30
0.0
 10
41.43801634638834
 20
-9.073229963881111
 30
0.0
1001
PE_URL
1000

  0
SPLINE
  5
41F
330
1F
100
AcDbEntity
  8
외형선
  6
Continuous
370
    15
100
AcDbSpline
210
0.0
220
0.0
230
1.0
 70
    24
 71
     3
 72
    23
 73
    19
 74
     0
 42
0.000000001
 43
0.00000001
 40
0.0
 40
0.0
 40
0.0
 40
0.0
 40
0.0890367618029246
 40
0.1523565181649894
 40
0.2175125517511401
 40
0.2808323081131824
 40
0.3459883416993093
 40
0.409308098061352
 40
0.4744641316474794
 40
0.5377838880095337
 40
0.6029399215956484
 40
0.6662596779576905
 40
0.7314157115438178
 40
0.7947354679058598
 40
0.8598915014919877
 40
0.9232112578540309
 40
0.988367291440158
 40
1.0
 40
1.0
 40
1.0
 40
1.0
 10
11.99999993714337
 20
4.701442832950157
 30
0.0
 10
11.99999993714334
 20
4.607891437734416
 30
0.0
 10
11.99999993714334
 20
4.447809640553885
 30
0.0
 10
11.99999993714326
 20
4.097895223748353
 30
0.0
 10
11.99999993714331
 20
3.736999733827233
 30
0.0
 10
11.99999993714331
 20
3.322538383218216
 30
0.0
 10
11.99999993714334
 20
2.875810956055716
 30
0.0
 10
11.99999993714331
 20
2.40085592543884
 30
0.0
 10
11.99999993714331
 20
1.919815210163875
 30
0.0
 10
11.99999993714326
 20
1.437611255677609
 30
0.0
 10
11.99999993714331
 20
0.9765633146768806
 30
0.0
 10
11.99999993714343
 20
0.5414920176390225
 30
0.0
 10
11.99999993714329
 20
0.1522763570043182
 30
0.0
 10
11.99999993714337
 20
-0.1860740258112514
 30
0.0
 10
11.99999993714331
 20
-0.4616111332786161
 30
0.0
 10
11.99999993714331
 20
-0.6575878315471329
 30
0.0
 10
11.99999993714337
 20
-0.7738458419985008
 30
0.0
 10
11.99999993714331
 20
-0.7821622893663047
 30
0.0
 10
11.99999993714331
 20
-0.7834221460299133
 30
0.0
  0
SPLINE
  5
420
330
1F
100
AcDbEntity
  8
0
  6
Continuous
 62
     1
370
    15
100
AcDbSpline
210
0.0
220
0.0
230
1.0
 70
     8
 71
     3
 72
    21
 73
    17
 74
     0
 42
0.000000001
 43
0.00000001
 40
0.0
 40
0.0
 40
0.0
 40
0.0
 40
0.0120051232718255
 40
0.0863624497456677
 40
0.16075089238773
 40
0.2351484028981456
 40
0.3095117855985116
 40
0.3838558387796098
 40
0.4581961368988108
 40
0.5325482699374786
 40
0.6104598554404004
 40
0.6883924491652279
 40
0.7663170792963339
 40
0.8442221808545565
 40
0.9221142966888497
 40
1.0
 40
1.0
 40
1.0
 40
1.0
 10
46.42991891554431
 20
-9.508917115815237
 30
0.0
 10
46.29215117157116
 20
-9.513852869930801
 30
0.0
 10
45.30107764437312
 20
-9.54935969540115
 30
0.0
 10
43.45626983837553
 20
-9.394382713816327
 30
0.0
 10
40.89518674998743
 20
-9.033134571839561
 30
0.0
 10
38.33391360946436
 20
-8.433480091978979
 30
0.0
 10
35.77350644182516
 20
-7.636669407719694
 30
0.0
 10
33.21385869163041
 20
-6.654859188788095
 30
0.0
 10
30.65437106413594
 20
-5.513504088730691
 30
0.0
 10
28.05387088831742
 20
-4.219313597937592
 30
0.0
 10
25.41189882695863
 20
-2.797062917610454
 30
0.0
 10
22.72875105166341
 20
-1.279457579819727
 30
0.0
 10
20.04576347687495
 20
0.2726663769858817
 30
0.0
 10
17.36339980879259
 20
1.815230618987663
 30
0.0
 10
14.68156579334052
 20
3.318722793168419
 30
0.0
 10
12.8938306921082
 20
4.240548801871448
 30
0.0
 10
11.99999993714363
 20
4.701442832948572
 30
0.0
1001
PE_URL
1000

  0
LINE
  5
421
330
1F
100
AcDbEntity
  8
0
  6
Continuous
 62
     1
370
    15
100
AcDbLine
 10
50.09999993714334
 20
-0.1272793776528616
 30
0.0
 11
50.09999993714334
 21
4.111286555451265
 31
0.0
1001
PE_URL
1000

  0
SPLINE
  5
422
330
1F
100
AcDbEntity
  8
0
  6
Continuous
 62
     1
370
    15
100
AcDbSpline
210
0.0
220
0.0
230
1.0
 70
     8
 71
     3
 72
    18
 73
    14
 74
     0
 42
0.000000001
 43
0.00000001
 40
0.0
 40
0.0
 40
0.0
 40
0.0
 40
0.25
 40
0.25
 40
0.5
 40
0.5
 40
0.625
 40
0.625
 40
0.75
 40
0.75
 40
0.875
 40
0.875
 40
1.0
 40
1.0
 40
1.0
 40
1.0
 10
48.57599993714334
 20
0.5055323785756229
 30
0.0
 10
48.76454617852275
 20
0.3969828489409863
 30
0.0
 10
48.9454166346238
 20
0.285320855429255
 30
0.0
 10
49.29772836434165
 20
0.0659896935096214
 30
0.0
 10
49.45916972058598
 20
-0.0356778587482722
 30
0.0
 10
49.68153065791222
 20
-0.1586631000593997
 30
0.0
 10
49.74965817660166
 20
-0.1930578673089443
 30
0.0
 10
49.87240547154099
 20
-0.2435469157619394
 30
0.0
 10
49.92670600075996
 20
-0.2592038993590009
 30
0.0
 10
50.01334406230885
 20
-0.2649931881723475
 30
0.0
 10
50.04702523727096
 20
-0.2549587547479177
 30
0.0
 10
50.08998614228685
 20
-0.2090770557904591
 30
0.0
 10
50.09999993714334
 20
-0.1732651497974089
 30
0.0
 10
50.09999993714334
 20
-0.1272793776528616
 30
0.0
1001
PE_URL
1000

  0
SPLINE
  5
423
330
1F
100
AcDbEntity
  8
0
  6
Continuous
 62
     1
370
    15
100
AcDbSpline
210
0.0
220
0.0
230
1.0
 70
     8
 71
     3
 72
    17
 73
    13
 74
     0
 42
0.000000001
 43
0.00000001
 40
0.0
 40
0.0
 40
0.0
 40
0.0
 40
0.0505445507825184
 40
0.1527715987269258
 40
0.2549930372313917
 40
0.3572303037425524
 40
0.4643618392723604
 40
0.571522370481967
 40
0.6786734240499748
 40
0.7857973762515165
 40
0.8929032223683557
 40
1.0
 40
1.0
 40
1.0
 40
1.0
 10
23.53712075460993
 20
9.496916139645052
 30
0.0
 10
23.95898012645503
 20
9.502543247934092
 30
0.0
 10
25.23405587007011
 20
9.519551259999034
 30
0.0
 10
27.36212975192845
 20
9.30035744702289
 30
0.0
 10
29.92162386470645
 20
8.858397108798876
 30
0.0
 10
32.52210653076236
 20
8.18087969539748
 30
0.0
 10
35.16406074957683
 20
7.288048159883978
 30
0.0
 10
37.84719909077197
 20
6.188406817150636
 30
0.0
 10
40.5302015484713
 20
4.92580150954312
 30
0.0
 10
43.21258310358959
 20
3.532941238459408
 30
0.0
 10
45.89442861704418
 20
2.047996425749659
 30
0.0
 10
47.68216805903074
 20
1.019672549255766
 30
0.0
 10
48.57599993714334
 20
0.5055323785756372
 30
0.0
1001
PE_URL
1000

  0
SPLINE
  5
424
330
1F
100
AcDbEntity
  8
0
  6
Continuous
 62
     1
370
    15
100
AcDbSpline
210
0.0
220
0.0
230
1.0
 70
     8
 71
     3
 72
    15
 73
    11
 74
     0
 42
0.000000001
 43
0.00000001
 40
0.0
 40
0.0
 40
0.0
 40
0.0
 40
0.127279594782663
 40
0.2545858922155135
 40
0.3819454632712096
 40
0.5093205593168476
 40
0.6366372255433561
 40
0.7639207979290035
 40
0.8911979413176785
 40
0.9999999999999999
 40
0.9999999999999999
 40
0.9999999999999999
 40
0.9999999999999999
 10
48.57599993714334
 20
5.805171871321484
 30
0.0
 10
47.72287682558851
 20
6.182322706180095
 30
0.0
 10
46.01645162133067
 20
6.936703500338496
 30
0.0
 10
43.45627324716671
 20
7.864204414673608
 30
0.0
 10
40.89518589530178
 20
8.612749836018985
 30
0.0
 10
38.33391361820549
 20
9.151142961455477
 30
0.0
 10
35.77350726061542
 20
9.471976478251761
 30
0.0
 10
33.21385540867186
 20
9.559017903607973
 30
0.0
 10
30.77835173402198
 20
9.444206903432523
 30
0.0
 10
29.19590541106535
 20
9.192555841562331
 30
0.0
 10
28.46660178676652
 20
9.076577164233385
 30
0.0
1001
PE_URL
1000

  0
SPLINE
  5
425
330
1F
100
AcDbEntity
  8
0
  6
Continuous
 62
     1
370
    15
100
AcDbSpline
210
0.0
220
0.0
230
1.0
 70
     8
 71
     3
 72
    18
 73
    14
 74
     0
 42
0.000000001
 43
0.00000001
 40
0.0
 40
0.0
 40
0.0
 40
0.0
 40
0.2499999999999977
 40
0.2499999999999977
 40
0.3749999999999958
 40
0.3749999999999958
 40
0.499999999999994
 40
0.499999999999994
 40
0.6249999999999922
 40
0.6249999999999922
 40
0.7499999999999903
 40
0.7499999999999903
 40
1.0
 40
1.0
 40
1.0
 40
1.0
 10
50.09999993714334
 20
4.111286555451265
 30
0.0
 10
50.09999993714334
 20
4.290899033433661
 30
0.0
 10
50.06022007800362
 20
4.462397693766327
 30
0.0
 10
49.94095727906426
 20
4.710675950420182
 30
0.0
 10
49.89216726738965
 20
4.790258322856978
 30
0.0
 10
49.77752181497061
 20
4.945372813769112
 30
0.0
 10
49.71079126175658
 20
5.02167823285135
 30
0.0
 10
49.5655676494552
 20
5.166783723944008
 30
0.0
 10
49.48706807161327
 20
5.23591257436766
 30
0.0
 10
49.31948499270604
 20
5.369149605175025
 30
0.0
 10
49.23005421501267
 20
5.43335200302888
 30
0.0
 10
48.95809187075892
 20
5.61239499780384
 30
0.0
 10
48.76627108392407
 20
5.718197866364029
 30
0.0
 10
48.57599993714334
 20
5.805171871321484
 30
0.0
1001
PE_URL
1000

  0
LINE
  5
426
330
1F
100
AcDbEntity
  8
외형선
  6
Continuous
370
    15
100
AcDbLine
 10
11.99999993714331
 20
9.18238201252322
 30
0.0
 11
11.99999993714331
 21
9.490265543490395
 31
0.0
  0
LINE
  5
427
330
1F
100
AcDbEntity
  8
0
  6
Continuous
 62
     1
370
    15
100
AcDbLine
 10
50.09999993714334
 20
-1.946476869343776
 30
0.0
 11
50.09999993714334
 21
-0.1272793776528616
 31
0.0
1001
PE_URL
1000

  0
LINE
  5
428
330
1F
100
AcDbEntity
  8
외형선
  6
Continuous
370
    15
100
AcDbLine
 10
11.99999993714334
 20
4.7014428329487
 30
0.0
 11
11.99999993714331
 21
6.131415803490135
 31
0.0
  0
SPLINE
  5
429
330
1F
100
AcDbEntity
  8
0
  6
Continuous
 62
     1
370
    15
100
AcDbSpline
210
0.0
220
0.0
230
1.0
 70
     8
 71
     3
 72
    16
 73
    12
 74
     0
 42
0.000000001
 43
0.00000001
 40
0.0
 40
0.0
 40
0.0
 40
0.0
 40
0.0120221420482771
 40
0.1312256874487976
 40
0.2504482099639604
 40
0.3753782607532697
 40
0.500341997909153
 40
0.6252929655627641
 40
0.7502126194446633
 40
0.8751114509143428
 40
1.0
 40
1.0
 40
1.0
 40
1.0
 10
33.4719413627503
 20
-9.514042911961582
 30
0.0
 10
33.38590110131841
 20
-9.517431278937167
 30
0.0
 10
32.44674297048473
 20
-9.554416433821686
 30
0.0
 10
30.6543747208697
 20
-9.408713083998329
 30
0.0
 10
28.05386985608604
 20
-9.057306274530418
 30
0.0
 10
25.41189910907511
 20
-8.445773374945212
 30
0.0
 10
22.72875097607167
 20
-7.608835375839725
 30
0.0
 10
20.04576349711633
 20
-6.56964871684773
 30
0.0
 10
17.36339980339648
 20
-5.356352314694796
 30
0.0
 10
14.68156579468931
 20
-4.006528202856771
 30
0.0
 10
12.8938306925578
 20
-3.02429715287186
 30
0.0
 10
11.99999993714363
 20
-2.533201844426834
 30
0.0
1001
PE_URL
1000

  0
LINE
  5
42A
330
1F
100
AcDbEntity
  8
외형선
  6
Continuous
370
    15
100
AcDbLine
 10
11.99999993714334
 20
-2.533201844426685
 30
0.0
 11
11.99999993714331
 21
-0.8187982066273918
 31
0.0
  0
SPLINE
  5
42B
330
1F
100
AcDbEntity
  8
0
  6
Continuous
 62
     1
370
    15
100
AcDbSpline
210
0.0
220
0.0
230
1.0
 70
     8
 71
     3
 72
    14
 73
    10
 74
     0
 42
0.000000001
 43
0.00000001
 40
0.0
 40
0.0
 40
0.0
 40
0.0
 40
0.155437708913369
 40
0.3109073510270121
 40
0.4664413798574862
 40
0.6219973589798624
 40
0.7774818590111691
 40
0.9329252676133545
 40
1.0
 40
1.0
 40
1.0
 40
1.0
 10
11.99999993714337
 20
-7.289035381130653
 30
0.0
 10
12.85312094310629
 20
-7.589215583630299
 30
0.0
 10
14.55953822063614
 20
-8.189637657799771
 30
0.0
 10
17.11969761160566
 20
-8.846735582030547
 30
0.0
 10
19.6807677781145
 20
-9.302785396000324
 30
0.0
 10
22.24205205693377
 20
-9.535284026392922
 30
0.0
 10
24.80248010269807
 20
-9.526627901691
 30
0.0
 10
26.8771663479763
 20
-9.372728025729437
 30
0.0
 10
28.09846097079932
 20
-9.144289498960035
 30
0.0
 10
28.4666017867664
 20
-9.075430155709334
 30
0.0
1001
PE_URL
1000

  0
SPLINE
  5
42C
330
1F
100
AcDbEntity
  8
외형선
  6
Continuous
370
    15
100
AcDbSpline
210
0.0
220
0.0
230
1.0
 70
    24
 71
     3
 72
    21
 73
    17
 74
     0
 42
0.000000001
 43
0.00000001
 40
0.0
 40
0.0
 40
0.0
 40
0.0
 40
0.0491504366043749
 40
0.1188382752486514
 40
0.1905470659346012
 40
0.2602349045788778
 40
0.3319436952648285
 40
0.4016315339091182
 40
0.4733403245950544
 40
0.5430281632393306
 40
0.6147369539252812
 40
0.6844247925695568
 40
0.7561335832555078
 40
0.8258214218997851
 40
0.8975302125857356
 40
1.0
 40
1.0
 40
1.0
 40
1.0
 10
11.99999993714331
 20
-2.295742707234879
 30
0.0
 10
11.99999993714331
 20
-2.29978351915728
 30
0.0
 10
11.99999993714331
 20
-2.309553587393459
 30
0.0
 10
11.99999993714331
 20
-2.418683823017197
 30
0.0
 10
11.99999993714334
 20
-2.605270244070212
 30
0.0
 10
11.99999993714331
 20
-2.869010298030844
 30
0.0
 10
11.99999993714331
 20
-3.193804181437969
 30
0.0
 10
11.99999993714331
 20
-3.577347467602664
 30
0.0
 10
11.99999993714331
 20
-4.001604151273902
 30
0.0
 10
11.99999993714343
 20
-4.462267715612164
 30
0.0
 10
11.99999993714329
 20
-4.938020574365027
 30
0.0
 10
11.99999993714337
 20
-5.423842713422538
 30
0.0
 10
11.99999993714331
 20
-5.897691872447339
 30
0.0
 10
11.99999993714337
 20
-6.352985786310427
 30
0.0
 10
11.99999993714331
 20
-6.840506304345865
 30
0.0
 10
11.99999993714331
 20
-7.122901454903477
 30
0.0
 10
11.99999993714334
 20
-7.28903538113066
 30
0.0
  0
SPLINE
  5
42D
330
1F
100
AcDbEntity
  8
0
  6
Continuous
 62
     1
370
    15
100
AcDbSpline
210
0.0
220
0.0
230
1.0
 70
     8
 71
     3
 72
    18
 73
    14
 74
     0
 42
0.000000001
 43
0.00000001
 40
0.0
 40
0.0
 40
0.0
 40
0.0
 40
0.2499999999999946
 40
0.2499999999999946
 40
0.4999999999999891
 40
0.4999999999999891
 40
0.6249999999999918
 40
0.6249999999999918
 40
0.7499999999999946
 40
0.7499999999999946
 40
0.8749999999999972
 40
0.8749999999999972
 40
1.0
 40
1.0
 40
1.0
 40
1.0
 10
48.57599993714334
 20
7.083354184793514
 30
0.0
 10
48.76454617852281
 20
7.010672959093121
 30
0.0
 10
48.94541663462374
 20
6.910867443925305
 30
0.0
 10
49.29772836434165
 20
6.66312976888986
 30
0.0
 10
49.459169720586
 20
6.522419546452156
 30
0.0
 10
49.68153065791219
 20
6.289771821031664
 30
0.0
 10
49.74965817660168
 20
6.211172427510014
 30
0.0
 10
49.87240547154099
 20
6.054503390438555
 30
0.0
 10
49.92670600075991
 20
5.976514770312946
 30
0.0
 10
50.01334406230873
 20
5.833559395704867
 30
0.0
 10
50.04702523727093
 20
5.766215419529694
 30
0.0
 10
50.08998614228679
 20
5.652411531934455
 30
0.0
 10
50.09999993714334
 20
5.604729099506592
 30
0.0
 10
50.09999993714334
 20
5.567006851063518
 30
0.0
1001
PE_URL
1000

  0
LINE
  5
42E
330
1F
100
AcDbEntity
  8
0
  6
Continuous
 62
     1
370
    15
100
AcDbLine
 10
50.09999993714334
 20
4.111286555451265
 30
0.0
 11
50.09999993714334
 21
5.567006851063518
 31
0.0
1001
PE_URL
1000

  0
SPLINE
  5
42F
330
1F
100
AcDbEntity
  8
0
  6
Continuous
 62
     1
370
    15
100
AcDbSpline
210
0.0
220
0.0
230
1.0
 70
     8
 71
     3
 72
    12
 73
     8
 74
     0
 42
0.000000001
 43
0.00000001
 40
0.0
 40
0.0
 40
0.0
 40
0.0
 40
0.1120402737217943
 40
0.3340957875736909
 40
0.556095137648786
 40
0.7780569654055413
 40
1.0
 40
1.0
 40
1.0
 40
1.0
 10
36.49344066390918
 20
9.49411254955514
 30
0.0
 10
36.9447163278044
 20
9.500045546355146
 30
0.0
 10
38.29038689191148
 20
9.517737302834547
 30
0.0
 10
40.53020315440261
 20
9.27528151120729
 30
0.0
 10
43.21258267546656
 20
8.785256887217045
 30
0.0
 10
45.89442872405684
 20
8.064021571656056
 30
0.0
 10
47.68216809470061
 20
7.410234087495759
 30
0.0
 10
48.57599993714334
 20
7.083354184793521
 30
0.0
1001
PE_URL
1000

  0
LINE
  5
430
330
1F
100
AcDbEntity
  8
0
  6
Continuous
 62
     1
370
    15
100
AcDbLine
 10
50.09999993714334
 20
-6.863684591904132
 30
0.0
 11
50.09999993714334
 21
-5.746671122132064
 31
0.0
1001
PE_URL
1000

  0
SPLINE
  5
431
330
1F
100
AcDbEntity
  8
0
  6
Continuous
 62
     1
370
    15
100
AcDbSpline
210
0.0
220
0.0
230
1.0
 70
     8
 71
     3
 72
    10
 73
     6
 74
     0
 42
0.000000001
 43
0.00000001
 40
0.0
 40
0.0
 40
0.0
 40
0.0
 40
0.3585766738381731
 40
0.7172285753473859
 40
1.0
 40
1.0
 40
1.0
 40
1.0
 10
48.57599993714337
 20
9.445094127862284
 30
0.0
 10
47.72287586865363
 20
9.485781931717618
 30
0.0
 10
46.01644875032517
 20
9.567166075534907
 30
0.0
 10
43.63718174196853
 20
9.431954191672887
 30
0.0
 10
42.11088440953947
 20
9.18378315505936
 30
0.0
 10
41.43801634638837
 20
9.074376972405162
 30
0.0
1001
PE_URL
1000

  0
SPLINE
  5
432
330
1F
100
AcDbEntity
  8
0
  6
Continuous
 62
     1
370
    15
100
AcDbSpline
210
0.0
220
0.0
230
1.0
 70
     8
 71
     3
 72
    18
 73
    14
 74
     0
 42
0.000000001
 43
0.00000001
 40
0.0
 40
0.0
 40
0.0
 40
0.0
 40
0.2499999999999982
 40
0.2499999999999982
 40
0.3749999999999964
 40
0.3749999999999964
 40
0.4999999999999947
 40
0.4999999999999947
 40
0.6249999999999929
 40
0.6249999999999929
 40
0.7499999999999911
 40
0.7499999999999911
 40
1.0
 40
1.0
 40
1.0
 40
1.0
 10
50.09999993714334
 20
7.761050025883698
 30
0.0
 10
50.09999993714334
 20
7.977509680240061
 30
0.0
 10
50.0602200780036
 20
8.19094043874852
 30
0.0
 10
49.94095727906424
 20
8.492148679821902
 30
0.0
 10
49.8921672673896
 20
8.587318912446584
 30
0.0
 10
49.77752181497053
 20
8.767067506781643
 30
0.0
 10
49.71079126175655
 20
8.852439305770666
 30
0.0
 10
49.56556764945509
 20
9.006147330261882
 30
0.0
 10
49.48706807161324
 20
9.074955982101095
 30
0.0
 10
49.31948499270607
 20
9.196912198372289
 30
0.0
 10
49.23005421501264
 20
9.249979603774918
 30
0.0
 10
48.95809187075884
 20
9.379872409519336
 30
0.0
 10
48.76627108392401
 20
9.430864299993381
 30
0.0
 10
48.57599993714334
 20
9.44509412786229
 30
0.0
1001
PE_URL
1000

  0
LINE
  5
433
330
1F
100
AcDbEntity
  8
0
  6
Continuous
 62
     1
370
    15
100
AcDbLine
 10
50.09999993714334
 20
5.567006851063518
 30
0.0
 11
50.09999993714334
 21
7.761050025883691
 31
0.0
1001
PE_URL
1000

  0
SPLINE
  5
434
330
1F
100
AcDbEntity
  8
0
  6
Continuous
 62
     1
370
    15
100
AcDbSpline
210
0.0
220
0.0
230
1.0
 70
     8
 71
     3
 72
    11
 73
     7
 74
     0
 42
0.000000001
 43
0.00000001
 40
0.0
 40
0.0
 40
0.0
 40
0.0
 40
0.0550147122162238
 40
0.3700534604231495
 40
0.6850396959431084
 40
1.0
 40
1.0
 40
1.0
 40
1.0
 10
20.51399534292659
 20
-9.506304374352851
 30
0.0
 10
20.35785164256259
 20
-9.512044183341295
 30
0.0
 10
19.30755956040329
 20
-9.550652695369763
 30
0.0
 10
17.36340725126738
 20
-9.375545597122994
 30
0.0
 10
14.68156393302974
 20
-8.98806655967406
 30
0.0
 10
12.89383007202164
 20
-8.51841259989206
 30
0.0
 10
11.99999993714363
 20
-8.283595286546976
 30
0.0
1001
PE_URL
1000

  0
LINE
  5
435
330
1F
100
AcDbEntity
  8
외형선
  6
Continuous
370
    15
100
AcDbLine
 10
11.99999993714334
 20
-8.283595286546898
 30
0.0
 11
11.99999993714334
 21
-7.28903538113066
 31
0.0
  0
SPLINE
  5
436
330
1F
100
AcDbEntity
  8
0
  6
Continuous
 62
     1
370
    15
100
AcDbSpline
210
0.0
220
0.0
230
1.0
 70
     8
 71
     3
 72
     9
 73
     5
 74
     0
 42
0.000000001
 43
0.00000001
 40
0.0
 40
0.0
 40
0.0
 40
0.0
 40
0.7213331349268955
 40
1.0
 40
1.0
 40
1.0
 40
1.0
 10
11.99999993714331
 20
-9.489118534966344
 30
0.0
 10
12.85311343116271
 20
-9.435614751828048
 30
0.0
 10
14.03580344318593
 20
-9.361441279755788
 30
0.0
 10
15.21856637005661
 20
-9.133241136140391
 30
0.0
 10
15.54816320701232
 20
-9.069649317509857
 30
0.0
1001
PE_URL
1000

  0
SPLINE
  5
437
330
1F
100
AcDbEntity
  8
외형선
  6
Continuous
370
    15
100
AcDbSpline
210
0.0
220
0.0
230
1.0
 70
    24
 71
     3
 72
     9
 73
     5
 74
     0
 42
0.000000001
 43
0.00000001
 40
0.0
 40
0.0
 40
0.0
 40
0.0
 40
0.392336290346457
 40
1.0
 40
1.0
 40
1.0
 40
1.0
 10
11.99999993714331
 20
-8.35778913129488
 30
0.0
 10
11.99999993714331
 20
-8.501702540744951
 30
0.0
 10
11.99999993714331
 20
-8.868513903830916
 30
0.0
 10
11.99999993714334
 20
-9.254542789977243
 30
0.0
 10
11.99999993714331
 20
-9.489118534966344
 30
0.0
  0
LINE
  5
438
330
1F
100
AcDbEntity
  8
0
  6
Continuous
 62
     1
370
    15
100
AcDbLine
 10
50.09999993714334
 20
7.761050025883691
 30
0.0
 11
50.09999993714334
 21
8.763573504262029
 31
0.0
1001
PE_URL
1000

  0
LINE
  5
439
330
1F
100
AcDbEntity
  8
외형선
  6
Continuous
370
    15
100
AcDbLine
 10
11.49986965338312
 20
9.51071828772077
 30
0.0
 11
11.49986965338312
 21
9.52557350426202
 31
0.0
  0
SPLINE
  5
43A
330
1F
100
AcDbEntity
  8
외형선
  6
Continuous
370
    15
100
AcDbSpline
210
0.0
220
0.0
230
1.0
 70
     8
 71
     3
 72
     8
 73
     4
 74
     0
 42
0.000000001
 43
0.00000001
 40
0.0
 40
0.0
 40
0.0
 40
0.0
 40
1.0
 40
1.0
 40
1.0
 40
1.0
 10
11.99999993714331
 20
9.490265543490388
 30
0.0
 10
11.83325387724366
 20
9.49853530250455
 30
0.0
 10
11.66650558976312
 20
9.50535476848966
 30
0.0
 10
11.49986965338312
 20
9.51072021313042
 30
0.0
  0
SPLINE
  5
43B
330
1F
100
AcDbEntity
  8
외형선
  6
Continuous
370
    15
100
AcDbSpline
210
0.0
220
0.0
230
1.0
 70
     8
 71
     3
 72
     8
 73
     4
 74
     0
 42
0.000000001
 43
0.00000001
 40
0.0
 40
0.0
 40
0.0
 40
0.0
 40
1.0
 40
1.0
 40
1.0
 40
1.0
 10
11.99999993714331
 20
9.182382012523213
 30
0.0
 10
11.83325387724369
 20
9.207954913382764
 30
0.0
 10
11.66650558976315
 20
9.232124651554813
 30
0.0
 10
11.49986965338314
 20
9.254875545771
 30
0.0
  0
LINE
  5
43C
330
1F
100
AcDbEntity
  8
외형선
  6
Continuous
370
    15
100
AcDbLine
 10
11.49986965338312
 20
6.349248606531717
 30
0.0
 11
11.49986965338312
 21
9.254875972901516
 31
0.0
  0
SPLINE
  5
43D
330
1F
100
AcDbEntity
  8
외형선
  6
Continuous
370
    15
100
AcDbSpline
210
0.0
220
0.0
230
1.0
 70
     8
 71
     3
 72
     8
 73
     4
 74
     0
 42
0.000000001
 43
0.00000001
 40
0.0
 40
0.0
 40
0.0
 40
0.0
 40
1.0
 40
1.0
 40
1.0
 40
1.0
 10
11.99999993714331
 20
6.131415803490114
 30
0.0
 10
11.83325387724366
 20
6.204988405507699
 30
0.0
 10
11.66650558976312
 20
6.277624340771823
 30
0.0
 10
11.49986965338312
 20
6.349274317599956
 30
0.0
  0
SPLINE
  5
43E
330
1F
100
AcDbEntity
  8
외형선
  6
Continuous
370
    15
100
AcDbSpline
210
0.0
220
0.0
230
1.0
 70
     8
 71
     3
 72
     8
 73
     4
 74
     0
 42
0.000000001
 43
0.00000001
 40
0.0
 40
0.0
 40
0.0
 40
0.0
 40
1.0
 40
1.0
 40
1.0
 40
1.0
 10
11.99999993714331
 20
4.701442832948707
 30
0.0
 10
11.83325387724369
 20
4.785053334290417
 30
0.0
 10
11.66650558976315
 20
4.867945758619321
 30
0.0
 10
11.49986965338314
 20
4.950063622425986
 30
0.0
  0
SPLINE
  5
43F
330
1F
100
AcDbEntity
  8
외형선
  6
Continuous
370
    15
100
AcDbSpline
210
0.0
220
0.0
230
1.0
 70
     8
 71
     3
 72
     8
 73
     4
 74
     0
 42
0.000000001
 43
0.00000001
 40
0.0
 40
0.0
 40
0.0
 40
0.0
 40
1.0
 40
1.0
 40
1.0
 40
1.0
 10
11.99999993714331
 20
-0.818798206627406
 30
0.0
 10
11.83325387724366
 20
-0.723020594049224
 30
0.0
 10
11.66650558976312
 20
-0.6271173352681529
 30
0.0
 10
11.49986965338312
 20
-0.531154410934846
 30
0.0
  0
SPLINE
  5
440
330
1F
100
AcDbEntity
  8
외형선
  6
Continuous
370
    15
100
AcDbSpline
210
0.0
220
0.0
230
1.0
 70
     8
 71
     3
 72
     8
 73
     4
 74
     0
 42
0.000000001
 43
0.00000001
 40
0.0
 40
0.0
 40
0.0
 40
0.0
 40
1.0
 40
1.0
 40
1.0
 40
1.0
 10
11.99999993714331
 20
-2.533201844426685
 30
0.0
 10
11.83325387724369
 20
-2.440531640331969
 30
0.0
 10
11.66650558976315
 20
-2.347473787800091
 30
0.0
 10
11.49986965338314
 20
-2.254092485307801
 30
0.0
  0
SPLINE
  5
441
330
1F
100
AcDbEntity
  8
외형선
  6
Continuous
370
    15
100
AcDbSpline
210
0.0
220
0.0
230
1.0
 70
     8
 71
     3
 72
     8
 73
     4
 74
     0
 42
0.000000001
 43
0.00000001
 40
0.0
 40
0.0
 40
0.0
 40
0.0
 40
1.0
 40
1.0
 40
1.0
 40
1.0
 10
11.99999993714331
 20
-7.289035381130645
 30
0.0
 10
11.83325387724366
 20
-7.227157984468455
 30
0.0
 10
11.66650558976312
 20
-7.164166230488611
 30
0.0
 10
11.49986965338312
 20
-7.100104138239601
 30
0.0
  0
SPLINE
  5
442
330
1F
100
AcDbEntity
  8
외형선
  6
Continuous
370
    15
100
AcDbSpline
210
0.0
220
0.0
230
1.0
 70
     8
 71
     3
 72
     8
 73
     4
 74
     0
 42
0.000000001
 43
0.00000001
 40
0.0
 40
0.0
 40
0.0
 40
0.0
 40
1.0
 40
1.0
 40
1.0
 40
1.0
 10
11.99999993714331
 20
-8.283595286546898
 30
0.0
 10
11.83325387724369
 20
-8.236150328429986
 30
0.0
 10
11.66650558976315
 20
-8.18743907562299
 30
0.0
 10
11.49986965338314
 20
-8.137495834972988
 30
0.0
  0
LINE
  5
443
330
1F
100
AcDbEntity
  8
외형선
  6
Continuous
370
    15
100
AcDbLine
 10
11.49986965338312
 20
-9.52442649573797
 30
0.0
 11
11.49986965338312
 21
-8.137494897326604
 31
0.0
  0
LINE
  5
444
330
1F
100
AcDbEntity
  8
외형선
  6
Continuous
370
    15
100
AcDbLine
 10
-52.7700000628567
 20
0.0005735042620216
 30
0.0
 11
-52.7700000628567
 21
9.52557350426202
 31
0.0
  0
LINE
  5
445
330
1F
100
AcDbEntity
  8
외형선
  6
Continuous
370
    15
100
AcDbLine
 10
-52.7700000628567
 20
-9.52442649573797
 30
0.0
 11
-52.7700000628567
 21
0.0005735042620216
 31
0.0
  0
LINE
  5
446
330
1F
100
AcDbEntity
  8
외형선
  6
Continuous
370
    15
100
AcDbLine
 10
11.49986965338312
 20
-0.5311888464666126
 30
0.0
 11
11.49986965338312
 21
4.95006516412613
 31
0.0
  0
LINE
  5
447
330
1F
100
AcDbEntity
  8
외형선
  6
Continuous
370
    15
100
AcDbLine
 10
11.49986965338312
 20
-7.100127126367404
 30
0.0
 11
11.49986965338312
 21
-2.254090732145059
 31
0.0
  0
LINE
  5
448
330
1F
100
AcDbEntity
  8
외형선
  6
Continuous
370
    15
100
AcDbLine
 10
-54.6750000628567
 20
0.0005735042620216
 30
0.0
 11
-54.6750000628567
 21
7.620573504262026
 31
0.0
  0
LINE
  5
449
330
1F
100
AcDbEntity
  8
외형선
  6
Continuous
370
    15
100
AcDbLine
 10
-54.6750000628567
 20
-7.619426495737983
 30
0.0
 11
-54.6750000628567
 21
0.0005735042620216
 31
0.0
  0
SPLINE
  5
44A
330
1F
100
AcDbEntity
  8
외형선
  6
Continuous
370
    15
100
AcDbSpline
210
0.0
220
0.0
230
1.0
 70
    24
 71
     3
 72
    23
 73
    19
 74
     0
 42
0.000000001
 43
0.00000001
 40
0.0
 40
0.0
 40
0.0
 40
0.0
 40
0.0416254994432518
 40
0.105016919379218
 40
0.1702466947877676
 40
0.2336381147237342
 40
0.2988678901322837
 40
0.3622593100682354
 40
0.4274890854768015
 40
0.4908805054127687
 40
0.5561102808213187
 40
0.6195017007572846
 40
0.6847314761658339
 40
0.7481228961017703
 40
0.8133526715102879
 40
0.8767440914462842
 40
0.941973866854866
 40
1.0
 40
1.0
 40
1.0
 40
1.0
 10
11.99999993714337
 20
-0.7826491603317436
 30
0.0
 10
11.99999993714337
 20
-0.7669599577922668
 30
0.0
 10
11.99999993714331
 20
-0.727377688744447
 30
0.0
 10
11.99999993714337
 20
-0.5748189255087084
 30
0.0
 10
11.99999993714337
 20
-0.3405239192585086
 30
0.0
 10
11.99999993714337
 20
-0.0332625434592657
 30
0.0
 10
11.99999993714331
 20
0.3287814537882099
 30
0.0
 10
11.99999993714334
 20
0.742938721954971
 30
0.0
 10
11.99999993714331
 20
1.189748641036147
 30
0.0
 10
11.99999993714331
 20
1.664681668590724
 30
0.0
 10
11.99999993714331
 20
2.145728965663118
 30
0.0
 10
11.99999993714331
 20
2.627928905769281
 30
0.0
 10
11.99999993714343
 20
3.088986516153675
 30
0.0
 10
11.99999993714334
 20
3.524023605089546
 30
0.0
 10
11.99999993714334
 20
3.913368079007512
 30
0.0
 10
11.99999993714343
 20
4.251243478901856
 30
0.0
 10
11.99999993714337
 20
4.520825330549812
 30
0.0
 10
11.99999993714331
 20
4.643629410591359
 30
0.0
 10
11.99999993714331
 20
4.701442832948715
 30
0.0
  0
SPLINE
  5
44B
330
1F
100
AcDbEntity
  8
외형선
  6
Continuous
370
    15
100
AcDbSpline
210
0.0
220
0.0
230
1.0
 70
    24
 71
     3
 72
    22
 73
    18
 74
     0
 42
0.000000001
 43
0.00000001
 40
0.0
 40
0.0
 40
0.0
 40
0.0
 40
0.068416551637847
 40
0.1368331032756938
 40
0.2074770020626402
 40
0.2781209008495867
 40
0.3487647996365335
 40
0.4194086984234802
 40
0.4900525972104279
 40
0.5606964959973754
 40
0.6313403947843228
 40
0.7019842935712702
 40
0.7726281923582163
 40
0.8432720911451624
 40
0.9139159899320748
 40
0.9845598887189873
 40
0.9999999999999999
 40
0.9999999999999999
 40
0.9999999999999999
 40
0.9999999999999999
 10
11.99999993714334
 20
-7.289035381130653
 30
0.0
 10
11.99999993714334
 20
-7.180712402723714
 30
0.0
 10
11.99999993714334
 20
-6.964066445909829
 30
0.0
 10
11.99999993714331
 20
-6.571748653655902
 30
0.0
 10
11.99999993714334
 20
-6.139028146802943
 30
0.0
 10
11.99999993714337
 20
-5.672834138599939
 30
0.0
 10
11.99999993714331
 20
-5.191591689397079
 30
0.0
 10
11.99999993714334
 20
-4.708901115918437
 30
0.0
 10
11.99999993714331
 20
-4.238799471826638
 30
0.0
 10
11.99999993714331
 20
-3.79380884757466
 30
0.0
 10
11.99999993714334
 20
-3.387930919235451
 30
0.0
 10
11.99999993714331
 20
-3.03070268219281
 30
0.0
 10
11.99999993714337
 20
-2.735153128025523
 30
0.0
 10
11.99999993714337
 20
-2.504688927815586
 30
0.0
 10
11.9999999371434
 20
-2.357536214216395
 30
0.0
 10
11.99999993714331
 20
-2.286960830449168
 30
0.0
 10
11.99999993714337
 20
-2.292592228276689
 30
0.0
 10
11.99999993714337
 20
-2.293602281236069
 30
0.0
  0
SPLINE
  5
44C
330
1F
100
AcDbEntity
  8
외형선
  6
Continuous
370
    15
100
AcDbSpline
210
0.0
220
0.0
230
1.0
 70
    24
 71
     3
 72
    14
 73
    10
 74
     0
 42
0.000000001
 43
0.00000001
 40
0.0
 40
0.0
 40
0.0
 40
0.0
 40
0.1024703742713031
 40
0.2545341390528945
 40
0.4065979038344139
 40
0.5586616686159328
 40
0.7107254333975989
 40
0.8627891981792649
 40
1.0
 40
1.0
 40
1.0
 40
1.0
 10
11.99999993714337
 20
6.20559964823812
 30
0.0
 10
11.99999993714337
 20
6.289269243288942
 30
0.0
 10
11.99999993714337
 20
6.497102663363897
 30
0.0
 10
11.9999999371434
 20
6.88204036887921
 30
0.0
 10
11.99999993714337
 20
7.339453388141379
 30
0.0
 10
11.99999993714337
 20
7.817846653426415
 30
0.0
 10
11.99999993714334
 20
8.300910593885177
 30
0.0
 10
11.99999993714337
 20
8.762902212368132
 30
0.0
 10
11.99999993714334
 20
9.047425073813486
 30
0.0
 10
11.99999993714334
 20
9.18238201252322
 30
0.0
  0
SPLINE
  5
44D
330
1F
100
AcDbEntity
  8
외형선
  6
Continuous
370
    15
100
AcDbSpline
210
0.0
220
0.0
230
1.0
 70
    24
 71
     3
 72
    10
 73
     6
 74
     0
 42
0.000000001
 43
0.00000001
 40
0.0
 40
0.0
 40
0.0
 40
0.0
 40
0.3993352471159255
 40
0.8095179186119107
 40
1.0
 40
1.0
 40
1.0
 40
1.0
 10
11.99999993714337
 20
-9.489118534966337
 30
0.0
 10
11.99999993714334
 20
-9.335748452892538
 30
0.0
 10
11.99999993714331
 20
-9.02484218925968
 30
0.0
 10
11.99999993714331
 20
-8.641570342217165
 30
0.0
 10
11.99999993714331
 20
-8.42610670108899
 30
0.0
 10
11.99999993714334
 20
-8.357779131294883
 30
0.0
  0
LINE
  5
44E
330
1F
100
AcDbEntity
  8
중심선
100
AcDbLine
 10
-57.67500006285668
 20
0.0005735042620287
 30
0.0
 11
53.09999993714334
 21
0.0005735042620429
 31
0.0
1001
PE_URL
1000

  0
CIRCLE
  5
44F
330
1F
100
AcDbEntity
  8
해칭선
100
AcDbCircle
 10
0.0
 20
0.0
 30
0.0
 40
3.000000000000001
  0
DIMENSION
  5
450
330
1F
100
AcDbEntity
  8
치수문자_일반주서
100
AcDbDimension
  2
*D23
 10
69.09999993714351
 20
-9.524426495737856
 30
0.0
 11
69.09999993714337
 21
29.91082350426215
 31
0.0
 70
   160
  1
%%c<>
 71
     2
 42
19.05
 52
-270.0
  3
SLDDIMSTYLE0
100
AcDbAlignedDimension
 13
50.09999993714331
 23
9.525573504262077
 33
0.0
 14
50.09999993714331
 24
-9.524426495737927
 34
0.0
 50
90.0000000000002
100
AcDbRotatedDimension
1001
PE_URL
1000

1001
ACAD
1000
DSTYLE
1002
{
1070
   171
1070
     6
1070
   273
1070
     7
1002
}
  0
DIMENSION
  5
451
330
1F
100
AcDbEntity
  8
치수문자_일반주서
100
AcDbDimension
  2
*D24
 10
-61.67500006285666
 20
-9.524426495738014
 30
0.0
 11
-61.6750000628567
 21
0.0005735042620287
 31
0.0
 70
   160
  1
%%c<>
 71
     2
 42
19.05000000000001
 52
-270.0
  3
SLDDIMSTYLE0
100
AcDbAlignedDimension
 13
-52.7700000628567
 23
9.525573504262027
 33
0.0
 14
-52.7700000628567
 24
-9.524426495737984
 34
0.0
 50
90.0000000000002
100
AcDbRotatedDimension
1001
ACAD
1000
DSTYLE
1002
{
1070
   171
1070
     6
1070
   273
1070
     7
1002
}
  0
DIMENSION
  5
452
330
1F
100
AcDbEntity
  8
치수문자_일반주서
100
AcDbDimension
  2
*D25
 10
11.99999993714334
 20
37.47131400796411
 30
0.0
 11
33.41743755623423
 21
37.47131400796411
 31
0.0
 70
   160
  1
<>
 71
     2
 42
38.09999999999997
  3
SLDDIMSTYLE0
100
AcDbAlignedDimension
 13
50.09999993714331
 23
9.525573504262077
 33
0.0
 14
11.99999993714334
 24
9.490265543490388
 34
0.0
100
AcDbRotatedDimension
1001
PE_URL
1000

1001
ACAD
1000
DSTYLE
1002
{
1070
   171
1070
     6
1070
   273
1070
     7
1002
}
  0
DIMENSION
  5
453
330
1F
100
AcDbEntity
  8
치수문자_일반주서
100
AcDbDimension
  2
*D26
 10
50.09999993714331
 20
53.33526060483953
 30
0.0
 11
-1.158940133989759
 21
53.33526060483953
 31
0.0
 70
   160
  1
<>
 71
     2
 42
104.775
  3
SLDDIMSTYLE0
100
AcDbAlignedDimension
 13
-54.6750000628567
 23
7.620573504262026
 33
0.0
 14
50.09999993714331
 24
9.525573504262077
 34
0.0
100
AcDbRotatedDimension
1001
PE_URL
1000

1001
ACAD
1000
DSTYLE
1002
{
1070
   171
1070
     6
1070
   273
1070
     7
1002
}
  0
INSERT
  5
454
330
1F
100
AcDbEntity
  8
해칭선
100
AcDbBlockReference
  2
SW_DOWELSYMBOL_0
 10
0.0
 20
0.0
 30
0.0
  0
ARC
  5
455
330
1F
100
AcDbEntity
  8
0
  6
Continuous
 62
     1
370
    15
100
AcDbCircle
 10
48.5733535435651
 20
-7.99341920210162
 30
0.0
 40
1.531200648945282
100
AcDbArc
 50
270.1140201745833
 51
4.256155965726843
1001
PE_URL
1000

  0
LINE
  5
459
330
1F
100
AcDbEntity
  8
0
  6
Continuous
 62
     1
370
    15
100
AcDbLine
 10
46.42991891554431
 20
-9.524426495737977
 30
0.0
 11
49.4418048306749
 21
-9.524426495737977
 31
0.0
1001
PE_URL
1000

  0
LINE
  5
45A
330
1F
100
AcDbEntity
  8
0
  6
Continuous
 62
     1
370
    15
100
AcDbLine
 10
33.4719413627503
 20
-9.524426495737977
 30
0.0
 11
36.49344066390918
 21
-9.524426495737977
 31
0.0
1001
PE_URL
1000

  0
LINE
  5
45B
330
1F
100
AcDbEntity
  8
0
  6
Continuous
 62
     1
370
    15
100
AcDbLine
 10
20.51399534292656
 20
-9.524426495737977
 30
0.0
 11
23.53712075460984
 21
-9.524426495737977
 31
0.0
1001
PE_URL
1000

  0
ARC
  5
45C
330
1F
100
AcDbEntity
  8
0
  6
Continuous
 62
     1
370
    15
100
AcDbCircle
 10
48.57599993714334
 20
-8.000426495737976
 30
0.0
 40
1.524000000000004
100
AcDbArc
 50
270.0
 51
282.9398467417943
1001
PE_URL
1000

  0
LINE
  5
45D
330
1F
100
AcDbEntity
  8
외형선
  6
Continuous
370
    15
100
AcDbLine
 10
-52.7700000628567
 20
-9.52442649573797
 30
0.0
 11
11.49986965338312
 21
-9.52442649573797
 31
0.0
  0
SPLINE
  5
45E
330
1F
100
AcDbEntity
  8
외형선
  6
Continuous
370
    15
100
AcDbSpline
210
0.0
220
0.0
230
1.0
 70
     8
 71
     3
 72
     8
 73
     4
 74
     0
 42
0.000000001
 43
0.00000001
 40
0.0
 40
0.0
 40
0.0
 40
0.0
 40
1.0
 40
1.0
 40
1.0
 40
1.0
 10
11.99999993714331
 20
-9.48911853496633
 30
0.0
 10
11.83325387724366
 20
-9.4973882939805
 30
0.0
 10
11.66650558976312
 20
-9.50420775996561
 30
0.0
 10
11.49986965338312
 20
-9.509573204606369
 30
0.0
  0
ARC
  5
49D
330
1F
100
AcDbEntity
  8
0
  6
Continuous
 62
     1
370
    15
100
AcDbCircle
 10
49.33799993714334
 20
8.763573504262029
 30
0.0
 40
0.762
100
AcDbArc
 50
0.0
 51
90.0
1001
PE_URL
1000

  0
ARC
  5
49F
102
{ACAD_REACTORS
102
}
330
1F
100
AcDbEntity
  8
0
  6
Continuous
 62
     1
370
    15
100
AcDbCircle
 10
49.33799993714334
 20
-8.762426495737945
 30
0.0
 40
0.762
100
AcDbArc
 50
270.0
 51
0.0
1001
PE_URL
1000

  0
DIMENSION
  5
4D1
102
{ACAD_REACTORS
102
}
102
{ACAD_XDICTIONARY
360
4D2
102
}
330
1F
100
AcDbEntity
  8
치수문자_일반주서
100
AcDbDimension
  2
*D29
 10
49.33799993714334
 20
-8.762426495737945
 30
0.0
 11
60.47098289880462
 21
-32.03403215321606
 31
0.0
 70
   164
  1
<>
 71
     5
 42
0.7620000000000002
  3
SLDDIMSTYLE0
100
AcDbRadialDimension
 15
49.66684317552724
 25
-9.44981730493544
 35
0.0
 40
0.0
1001
ACAD
1000
DSTYLE
1002
{
1070
    78
1070
     8
1070
   171
1070
     2
1070
   273
1070
     2
1002
}
1001
ACAD_DSTYLE_DIMRADIAL_EXTENSION
1070
   387
1070
     1
1070
   388
1040
4.71238898038469
1070
   390
1040
0.0
  0
ENDSEC
  0
SECTION
  2
OBJECTS
  0
DICTIONARY
  5
C
330
0
100
AcDbDictionary
281
     1
  3
ACAD_GROUP
350
D
  3
ACAD_IMAGE_VARS
350
4D0
  3
ACAD_LAYOUT
350
1A
  3
ACAD_MLINESTYLE
350
17
  3
ACAD_PLOTSETTINGS
350
19
  3
ACAD_PLOTSTYLENAME
350
E
  3
ACAD_SCALELIST
350
47
  3
APPDATA
350
16B
  3
DWGPROPS
350
4DE
  0
DICTIONARY
  5
21F
330
2
100
AcDbDictionary
280
     1
281
     1
  3
ACAD_LAYERSTATES
360
220
  0
DICTIONARY
  5
4D2
330
4D1
100
AcDbDictionary
280
     1
281
     1
  0
DICTIONARY
  5
D
102
{ACAD_REACTORS
330
C
102
}
330
C
100
AcDbDictionary
281
     1
  0
RASTERVARIABLES
  5
4D0
102
{ACAD_REACTORS
330
C
102
}
330
C
100
AcDbRasterVariables
 90
        0
 70
     1
 71
     1
 72
     1
  0
DICTIONARY
  5
1A
102
{ACAD_REACTORS
330
C
102
}
330
C
100
AcDbDictionary
281
     1
  3
Layout1
350
1E
  3
Layout2
350
26
  3
Model
350
22
  0
DICTIONARY
  5
17
102
{ACAD_REACTORS
330
C
102
}
330
C
100
AcDbDictionary
281
     1
  3
Standard
350
18
  0
DICTIONARY
  5
19
102
{ACAD_REACTORS
330
C
102
}
330
C
100
AcDbDictionary
281
     1
  0
ACDBDICTIONARYWDFLT
  5
E
102
{ACAD_REACTORS
330
C
102
}
330
C
100
AcDbDictionary
281
     1
  3
Normal
350
F
100
AcDbDictionaryWithDefault
340
F
  0
DICTIONARY
  5
47
102
{ACAD_REACTORS
330
C
102
}
330
C
100
AcDbDictionary
281
     1
  3
A0
350
48
  3
A1
350
49
  3
A2
350
4A
  3
A3
350
4B
  3
A4
350
4C
  3
A5
350
4D
  3
A6
350
4E
  3
A7
350
4F
  3
A8
350
50
  3
A9
350
51
  3
B0
350
52
  3
B1
350
53
  3
B2
350
54
  3
B3
350
55
  3
B4
350
56
  3
B5
350
57
  3
B6
350
58
  3
B7
350
59
  3
B8
350
5A
  3
B9
350
5B
  3
C0
350
5C
  3
C1
350
5D
  3
C2
350
5E
  3
C3
350
5F
  3
C4
350
60
  3
C5
350
61
  3
C6
350
62
  3
C7
350
63
  3
C8
350
64
  3
C9
350
65
  3
D0
350
66
  3
D1
350
67
  3
D2
350
68
  0
DICTIONARY
  5
16B
102
{ACAD_REACTORS
330
C
102
}
330
C
100
AcDbDictionary
281
     1
  0
XRECORD
  5
4DE
102
{ACAD_REACTORS
330
C
102
}
330
C
100
AcDbXrecord
280
     1
  1
DWGPROPS COOKIE
  2

  3

  4

  6

  7

  8
12016016
  9

300
=
301
=
302
=
303
=
304
=
305
=
306
=
307
=
308
=
309
=
 40
0.0
 41
2458295.136035174
 42
2458296.406703704
  1

 90
        0
  0
DICTIONARY
  5
220
102
{ACAD_REACTORS
330
21F
102
}
330
21F
100
AcDbDictionary
281
     1
  0
LAYOUT
  5
1E
102
{ACAD_REACTORS
330
1A
102
}
330
1A
100
AcDbPlotSettings
  1

  2
none_device
  4

  6

 40
0.0
 41
0.0
 42
0.0
 43
0.0
 44
0.0
 45
0.0
 46
0.0
 47
0.0
 48
0.0
 49
0.0
140
0.0
141
0.0
142
1.0
143
1.0
 70
   688
 72
     1
 73
     0
 74
     5
  7

 75
    16
147
1.0
148
0.0
149
0.0
100
AcDbLayout
  1
Layout1
 70
     1
 71
     1
 10
0.0
 20
0.0
 11
420.0
 21
297.0
 12
0.0
 22
0.0
 32
0.0
 14
1.000000000000000E+20
 24
1.000000000000000E+20
 34
1.000000000000000E+20
 15
-1.000000000000000E+20
 25
-1.000000000000000E+20
 35
-1.000000000000000E+20
146
0.0
 13
0.0
 23
0.0
 33
0.0
 16
1.0
 26
0.0
 36
0.0
 17
0.0
 27
1.0
 37
0.0
 76
     0
330
1B
  0
LAYOUT
  5
26
102
{ACAD_REACTORS
330
1A
102
}
330
1A
100
AcDbPlotSettings
  1

  2
none_device
  4

  6

 40
0.0
 41
0.0
 42
0.0
 43
0.0
 44
0.0
 45
0.0
 46
0.0
 47
0.0
 48
0.0
 49
0.0
140
0.0
141
0.0
142
1.0
143
1.0
 70
   688
 72
     1
 73
     0
 74
     5
  7

 75
    16
147
1.0
148
0.0
149
0.0
100
AcDbLayout
  1
Layout2
 70
     1
 71
     2
 10
0.0
 20
0.0
 11
0.0
 21
0.0
 12
0.0
 22
0.0
 32
0.0
 14
0.0
 24
0.0
 34
0.0
 15
0.0
 25
0.0
 35
0.0
146
0.0
 13
0.0
 23
0.0
 33
0.0
 16
1.0
 26
0.0
 36
0.0
 17
0.0
 27
1.0
 37
0.0
 76
     0
330
23
  0
LAYOUT
  5
22
102
{ACAD_REACTORS
330
1A
102
}
330
1A
100
AcDbPlotSettings
  1

  2
none_device
  4
ANSI_A_(11.00_x_8.50_Inches)
  6

 40
6.35
 41
19.05
 42
6.35000508
 43
19.05000254
 44
279.4
 45
215.9
 46
119.3621784951464
 47
77.70351354275472
 48
0.0
 49
0.0
140
0.0
141
0.0
142
0.0657236160498473
143
1.0
 70
  1696
 72
     0
 73
     0
 74
     0
  7

 75
     0
147
0.0235690232323232
148
0.0
149
0.0
100
AcDbLayout
  1
Model
 70
     1
 71
     0
 10
0.0
 20
0.0
 11
420.0
 21
297.0
 12
0.0
 22
0.0
 32
0.0
 14
-66.05000006285674
 24
-49.97073246008785
 34
0.0
 15
91.22598381534554
 25
57.71026060483954
 35
0.0
146
0.0
 13
0.0
 23
0.0
 33
0.0
 16
1.0
 26
0.0
 36
0.0
 17
0.0
 27
1.0
 37
0.0
 76
     0
330
1F
331
29
  0
MLINESTYLE
  5
18
102
{ACAD_REACTORS
330
17
102
}
330
17
100
AcDbMlineStyle
  2
Standard
 70
     0
  3

 62
   256
 51
90.0
 52
90.0
 71
     2
 49
0.5
 62
   256
  6
BYLAYER
 49
-0.5
 62
   256
  6
BYLAYER
  0
ACDBPLACEHOLDER
  5
F
102
{ACAD_REACTORS
330
E
102
}
330
E
  0
SCALE
  5
48
102
{ACAD_REACTORS
330
47
102
}
330
47
100
AcDbScale
 70
     0
300
1:1
140
1.0
141
1.0
290
     1
  0
SCALE
  5
49
102
{ACAD_REACTORS
330
47
102
}
330
47
100
AcDbScale
 70
     0
300
1:2
140
1.0
141
2.0
290
     0
  0
SCALE
  5
4A
102
{ACAD_REACTORS
330
47
102
}
330
47
100
AcDbScale
 70
     0
300
1:4
140
1.0
141
4.0
290
     0
  0
SCALE
  5
4B
102
{ACAD_REACTORS
330
47
102
}
330
47
100
AcDbScale
 70
     0
300
1:5
140
1.0
141
5.0
290
     0
  0
SCALE
  5
4C
102
{ACAD_REACTORS
330
47
102
}
330
47
100
AcDbScale
 70
     0
300
1:8
140
1.0
141
8.0
290
     0
  0
SCALE
  5
4D
102
{ACAD_REACTORS
330
47
102
}
330
47
100
AcDbScale
 70
     0
300
1:10
140
1.0
141
10.0
290
     0
  0
SCALE
  5
4E
102
{ACAD_REACTORS
330
47
102
}
330
47
100
AcDbScale
 70
     0
300
1:16
140
1.0
141
16.0
290
     0
  0
SCALE
  5
4F
102
{ACAD_REACTORS
330
47
102
}
330
47
100
AcDbScale
 70
     0
300
1:20
140
1.0
141
20.0
290
     0
  0
SCALE
  5
50
102
{ACAD_REACTORS
330
47
102
}
330
47
100
AcDbScale
 70
     0
300
1:30
140
1.0
141
30.0
290
     0
  0
SCALE
  5
51
102
{ACAD_REACTORS
330
47
102
}
330
47
100
AcDbScale
 70
     0
300
1:40
140
1.0
141
40.0
290
     0
  0
SCALE
  5
52
102
{ACAD_REACTORS
330
47
102
}
330
47
100
AcDbScale
 70
     0
300
1:50
140
1.0
141
50.0
290
     0
  0
SCALE
  5
53
102
{ACAD_REACTORS
330
47
102
}
330
47
100
AcDbScale
 70
     0
300
1:100
140
1.0
141
100.0
290
     0
  0
SCALE
  5
54
102
{ACAD_REACTORS
330
47
102
}
330
47
100
AcDbScale
 70
     0
300
2:1
140
2.0
141
1.0
290
     0
  0
SCALE
  5
55
102
{ACAD_REACTORS
330
47
102
}
330
47
100
AcDbScale
 70
     0
300
4:1
140
4.0
141
1.0
290
     0
  0
SCALE
  5
56
102
{ACAD_REACTORS
330
47
102
}
330
47
100
AcDbScale
 70
     0
300
8:1
140
8.0
141
1.0
290
     0
  0
SCALE
  5
57
102
{ACAD_REACTORS
330
47
102
}
330
47
100
AcDbScale
 70
     0
300
10:1
140
10.0
141
1.0
290
     0
  0
SCALE
  5
58
102
{ACAD_REACTORS
330
47
102
}
330
47
100
AcDbScale
 70
     0
300
100:1
140
100.0
141
1.0
290
     0
  0
SCALE
  5
59
102
{ACAD_REACTORS
330
47
102
}
330
47
100
AcDbScale
 70
     0
300
1/128" = 1'-0"
140
0.0078125
141
12.0
290
     0
  0
SCALE
  5
5A
102
{ACAD_REACTORS
330
47
102
}
330
47
100
AcDbScale
 70
     0
300
1/64" = 1'-0"
140
0.015625
141
12.0
290
     0
  0
SCALE
  5
5B
102
{ACAD_REACTORS
330
47
102
}
330
47
100
AcDbScale
 70
     0
300
1/32" = 1'-0"
140
0.03125
141
12.0
290
     0
  0
SCALE
  5
5C
102
{ACAD_REACTORS
330
47
102
}
330
47
100
AcDbScale
 70
     0
300
1/16" = 1'-0"
140
0.0625
141
12.0
290
     0
  0
SCALE
  5
5D
102
{ACAD_REACTORS
330
47
102
}
330
47
100
AcDbScale
 70
     0
300
3/32" = 1'-0"
140
0.09375
141
12.0
290
     0
  0
SCALE
  5
5E
102
{ACAD_REACTORS
330
47
102
}
330
47
100
AcDbScale
 70
     0
300
1/8" = 1'-0"
140
0.125
141
12.0
290
     0
  0
SCALE
  5
5F
102
{ACAD_REACTORS
330
47
102
}
330
47
100
AcDbScale
 70
     0
300
3/16" = 1'-0"
140
0.1875
141
12.0
290
     0
  0
SCALE
  5
60
102
{ACAD_REACTORS
330
47
102
}
330
47
100
AcDbScale
 70
     0
300
1/4" = 1'-0"
140
0.25
141
12.0
290
     0
  0
SCALE
  5
61
102
{ACAD_REACTORS
330
47
102
}
330
47
100
AcDbScale
 70
     0
300
3/8" = 1'-0"
140
0.375
141
12.0
290
     0
  0
SCALE
  5
62
102
{ACAD_REACTORS
330
47
102
}
330
47
100
AcDbScale
 70
     0
300
1/2" = 1'-0"
140
0.5
141
12.0
290
     0
  0
SCALE
  5
63
102
{ACAD_REACTORS
330
47
102
}
330
47
100
AcDbScale
 70
     0
300
3/4" = 1'-0"
140
0.75
141
12.0
290
     0
  0
SCALE
  5
64
102
{ACAD_REACTORS
330
47
102
}
330
47
100
AcDbScale
 70
     0
300
1" = 1'-0"
140
1.0
141
12.0
290
     0
  0
SCALE
  5
65
102
{ACAD_REACTORS
330
47
102
}
330
47
100
AcDbScale
 70
     0
300
1-1/2" = 1'-0"
140
1.5
141
12.0
290
     0
  0
SCALE
  5
66
102
{ACAD_REACTORS
330
47
102
}
330
47
100
AcDbScale
 70
     0
300
3" = 1'-0"
140
3.0
141
12.0
290
     0
  0
SCALE
  5
67
102
{ACAD_REACTORS
330
47
102
}
330
47
100
AcDbScale
 70
     0
300
6" = 1'-0"
140
6.0
141
12.0
290
     0
  0
SCALE
  5
68
102
{ACAD_REACTORS
330
47
102
}
330
47
100
AcDbScale
 70
     0
300
1'-0" = 1'-0"
140
12.0
141
12.0
290
     0
  0
ENDSEC
  0
EOF
