  0
SECTION
  2
HEADER
  9
$ACADVER
  1
AC1015
  9
$ACADMAINTVER
 70
     6
  9
$DWGCODEPAGE
  3
ANSI_949
  9
$INSBASE
 10
0.0
 20
0.0
 30
0.0
  9
$EXTMIN
 10
1.000000000000000E+20
 20
1.000000000000000E+20
 30
1.000000000000000E+20
  9
$EXTMAX
 10
-1.000000000000000E+20
 20
-1.000000000000000E+20
 30
-1.000000000000000E+20
  9
$LIMMIN
 10
0.0
 20
0.0
  9
$LIMMAX
 10
420.0
 20
297.0
  9
$ORTHOMODE
 70
     1
  9
$REGENMODE
 70
     1
  9
$FILLMODE
 70
     1
  9
$QTEXTMODE
 70
     0
  9
$MIRRTEXT
 70
     1
  9
$LTSCALE
 40
1.0
  9
$ATTMODE
 70
     1
  9
$TEXTSIZE
 40
3.5
  9
$TRACEWID
 40
1.0
  9
$TEXTSTYLE
  7
Standard
  9
$CLAYER
  8
0
  9
$CELTYPE
  6
ByLayer
  9
$CECOLOR
 62
   256
  9
$CELTSCALE
 40
1.0
  9
$DISPSILH
 70
     0
  9
$DIMSCALE
 40
1.0
  9
$DIMASZ
 40
3.302
  9
$DIMEXO
 40
1.0
  9
$DIMDLI
 40
3.75
  9
$DIMRND
 40
0.0
  9
$DIMDLE
 40
0.0
  9
$DIMEXE
 40
1.0
  9
$DIMTP
 40
0.0
  9
$DIMTM
 40
0.0
  9
$DIMTXT
 40
3.5
  9
$DIMCEN
 40
2.5
  9
$DIMTSZ
 40
0.0
  9
$DIMTOL
 70
     0
  9
$DIMLIM
 70
     0
  9
$DIMTIH
 70
     1
  9
$DIMTOH
 70
     1
  9
$DIMSE1
 70
     0
  9
$DIMSE2
 70
     0
  9
$DIMTAD
 70
     1
  9
$DIMZIN
 70
     0
  9
$DIMBLK
  1

  9
$DIMASO
 70
     1
  9
$DIMSHO
 70
     1
  9
$DIMPOST
  1

  9
$DIMAPOST
  1

  9
$DIMALT
 70
     0
  9
$DIMALTD
 70
     3
  9
$DIMALTF
 40
0.0393700787401575
  9
$DIMLFAC
 40
1.0
  9
$DIMTOFL
 70
     1
  9
$DIMTVP
 40
0.0
  9
$DIMTIX
 70
     0
  9
$DIMSOXD
 70
     0
  9
$DIMSAH
 70
     0
  9
$DIMBLK1
  1

  9
$DIMBLK2
  1

  9
$DIMSTYLE
  2
ISO-25
  9
$DIMCLRD
 70
     0
  9
$DIMCLRE
 70
     0
  9
$DIMCLRT
 70
     0
  9
$DIMTFAC
 40
1.0
  9
$DIMGAP
 40
1.524
  9
$DIMJUST
 70
     0
  9
$DIMSD1
 70
     0
  9
$DIMSD2
 70
     0
  9
$DIMTOLJ
 70
     0
  9
$DIMTZIN
 70
     0
  9
$DIMALTZ
 70
     0
  9
$DIMALTTZ
 70
     0
  9
$DIMUPT
 70
     0
  9
$DIMDEC
 70
     2
  9
$DIMTDEC
 70
     2
  9
$DIMALTU
 70
     2
  9
$DIMALTTD
 70
     3
  9
$DIMTXSTY
  7
Standard
  9
$DIMAUNIT
 70
     0
  9
$DIMADEC
 70
     2
  9
$DIMALTRND
 40
0.0
  9
$DIMAZIN
 70
     0
  9
$DIMDSEP
 70
    44
  9
$DIMATFIT
 70
     3
  9
$DIMFRAC
 70
     0
  9
$DIMLDRBLK
  1

  9
$DIMLUNIT
 70
     2
  9
$DIMLWD
 70
    -2
  9
$DIMLWE
 70
    -2
  9
$DIMTMOVE
 70
     0
  9
$LUNITS
 70
     2
  9
$LUPREC
 70
     2
  9
$SKETCHINC
 40
1.0
  9
$FILLETRAD
 40
10.0
  9
$AUNITS
 70
     0
  9
$AUPREC
 70
     2
  9
$MENU
  1
.
  9
$ELEVATION
 40
0.0
  9
$PELEVATION
 40
0.0
  9
$THICKNESS
 40
0.0
  9
$LIMCHECK
 70
     0
  9
$CHAMFERA
 40
0.0
  9
$CHAMFERB
 40
0.0
  9
$CHAMFERC
 40
0.0
  9
$CHAMFERD
 40
0.0
  9
$SKPOLY
 70
     0
  9
$TDCREATE
 40
2458295.511224213
  9
$TDUCREATE
 40
2458295.136224213
  9
$TDUPDATE
 40
2458295.864017732
  9
$TDUUPDATE
 40
2458295.489017732
  9
$TDINDWG
 40
0.0007200694
  9
$TDUSRTIMER
 40
2458295.48731463
  9
$USRTIMER
 70
     1
  9
$ANGBASE
 50
0.0
  9
$ANGDIR
 70
     0
  9
$PDMODE
 70
     0
  9
$PDSIZE
 40
-1.0
  9
$PLINEWID
 40
0.0
  9
$SPLFRAME
 70
     0
  9
$SPLINETYPE
 70
     6
  9
$SPLINESEGS
 70
     8
  9
$HANDSEED
  5
1AE
  9
$SURFTAB1
 70
     6
  9
$SURFTAB2
 70
     6
  9
$SURFTYPE
 70
     6
  9
$SURFU
 70
     6
  9
$SURFV
 70
     6
  9
$UCSBASE
  2

  9
$UCSNAME
  2

  9
$UCSORG
 10
0.0
 20
0.0
 30
0.0
  9
$UCSXDIR
 10
1.0
 20
0.0
 30
0.0
  9
$UCSYDIR
 10
0.0
 20
1.0
 30
0.0
  9
$UCSORTHOREF
  2

  9
$UCSORTHOVIEW
 70
     0
  9
$UCSORGTOP
 10
0.0
 20
0.0
 30
0.0
  9
$UCSORGBOTTOM
 10
0.0
 20
0.0
 30
0.0
  9
$UCSORGLEFT
 10
0.0
 20
0.0
 30
0.0
  9
$UCSORGRIGHT
 10
0.0
 20
0.0
 30
0.0
  9
$UCSORGFRONT
 10
0.0
 20
0.0
 30
0.0
  9
$UCSORGBACK
 10
0.0
 20
0.0
 30
0.0
  9
$PUCSBASE
  2

  9
$PUCSNAME
  2

  9
$PUCSORG
 10
0.0
 20
0.0
 30
0.0
  9
$PUCSXDIR
 10
1.0
 20
0.0
 30
0.0
  9
$PUCSYDIR
 10
0.0
 20
1.0
 30
0.0
  9
$PUCSORTHOREF
  2

  9
$PUCSORTHOVIEW
 70
     0
  9
$PUCSORGTOP
 10
0.0
 20
0.0
 30
0.0
  9
$PUCSORGBOTTOM
 10
0.0
 20
0.0
 30
0.0
  9
$PUCSORGLEFT
 10
0.0
 20
0.0
 30
0.0
  9
$PUCSORGRIGHT
 10
0.0
 20
0.0
 30
0.0
  9
$PUCSORGFRONT
 10
0.0
 20
0.0
 30
0.0
  9
$PUCSORGBACK
 10
0.0
 20
0.0
 30
0.0
  9
$USERI1
 70
     0
  9
$USERI2
 70
     0
  9
$USERI3
 70
     0
  9
$USERI4
 70
     0
  9
$USERI5
 70
     0
  9
$USERR1
 40
0.0
  9
$USERR2
 40
0.0
  9
$USERR3
 40
0.0
  9
$USERR4
 40
0.0
  9
$USERR5
 40
0.0
  9
$WORLDVIEW
 70
     1
  9
$SHADEDGE
 70
     3
  9
$SHADEDIF
 70
    70
  9
$TILEMODE
 70
     1
  9
$MAXACTVP
 70
    64
  9
$PINSBASE
 10
0.0
 20
0.0
 30
0.0
  9
$PLIMCHECK
 70
     0
  9
$PEXTMIN
 10
1.000000000000000E+20
 20
1.000000000000000E+20
 30
1.000000000000000E+20
  9
$PEXTMAX
 10
-1.000000000000000E+20
 20
-1.000000000000000E+20
 30
-1.000000000000000E+20
  9
$PLIMMIN
 10
0.0
 20
0.0
  9
$PLIMMAX
 10
0.0
 20
0.0
  9
$UNITMODE
 70
     0
  9
$VISRETAIN
 70
     1
  9
$PLINEGEN
 70
     0
  9
$PSLTSCALE
 70
     1
  9
$TREEDEPTH
 70
  3020
  9
$CMLSTYLE
  2
Standard
  9
$CMLJUST
 70
     0
  9
$CMLSCALE
 40
20.0
  9
$PROXYGRAPHICS
 70
     1
  9
$MEASUREMENT
 70
     1
  9
$CELWEIGHT
370
    -1
  9
$ENDCAPS
280
     0
  9
$JOINSTYLE
280
     0
  9
$LWDISPLAY
290
     1
  9
$INSUNITS
 70
     4
  9
$HYPERLINKBASE
  1

  9
$STYLESHEET
  1

  9
$XEDIT
290
     1
  9
$CEPSNTYPE
380
     0
  9
$PSTYLEMODE
290
     1
  9
$FINGERPRINTGUID
  2
{9E4C1A38-F0D3-4115-A164-A6D79584CFA7}
  9
$VERSIONGUID
  2
{FAEB1C32-E019-11D5-929B-00C0DF256EC4}
  9
$EXTNAMES
290
     1
  9
$PSVPSCALE
 40
0.0
  9
$OLESTARTUP
290
     0
  0
ENDSEC
  0
SECTION
  2
CLASSES
  0
CLASS
  1
ACDBDICTIONARYWDFLT
  2
AcDbDictionaryWithDefault
  3
ObjectDBX Classes
 90
        0
280
     0
281
     0
  0
CLASS
  1
VISUALSTYLE
  2
AcDbVisualStyle
  3
ObjectDBX Classes
 90
     4095
280
     0
281
     0
  0
CLASS
  1
MATERIAL
  2
AcDbMaterial
  3
ObjectDBX Classes
 90
     1153
280
     0
281
     0
  0
CLASS
  1
SCALE
  2
AcDbScale
  3
ObjectDBX Classes
 90
     1153
280
     0
281
     0
  0
CLASS
  1
SUN
  2
AcDbSun
  3
SCENEOE
 90
     1153
280
     0
281
     0
  0
CLASS
  1
ACDBPLACEHOLDER
  2
AcDbPlaceHolder
  3
ObjectDBX Classes
 90
        0
280
     0
281
     0
  0
CLASS
  1
LAYOUT
  2
AcDbLayout
  3
ObjectDBX Classes
 90
        0
280
     0
281
     0
  0
CLASS
  1
TABLESTYLE
  2
AcDbTableStyle
  3
ObjectDBX Classes
 90
     4095
280
     0
281
     0
  0
CLASS
  1
MLEADERSTYLE
  2
AcDbMLeaderStyle
  3
ACDB_MLEADERSTYLE_CLASS
 90
     4095
280
     0
281
     0
  0
CLASS
  1
RASTERVARIABLES
  2
AcDbRasterVariables
  3
ISM
 90
        0
280
     0
281
     0
  0
CLASS
  1
DIMASSOC
  2
AcDbDimAssoc
  3
"AcDbDimAssoc|Product Desc:     AcDim ARX App For Dimension|Company:          Autodesk, Inc.|WEB Address:      www.autodesk.com"
 90
        0
280
     0
281
     0
  0
ENDSEC
  0
SECTION
  2
TABLES
  0
TABLE
  2
VPORT
  5
8
330
0
100
AcDbSymbolTable
 70
     1
  0
VPORT
  5
29
330
8
100
AcDbSymbolTableRecord
100
AcDbViewportTableRecord
  2
*Active
 70
     0
 10
0.0
 20
0.0
 11
1.0
 21
1.0
 12
-5.214901839538975
 22
-9.179573287012257
 13
0.0
 23
0.0
 14
10.0
 24
10.0
 15
10.0
 25
10.0
 16
0.0
 26
0.0
 36
1.0
 17
0.0
 27
0.0
 37
0.0
 40
151.4139546619255
 41
1.798434442270059
 42
50.0
 43
0.0
 44
0.0
 50
0.0
 51
0.0
 71
    16
 72
  2000
 73
     1
 74
     3
 75
     0
 76
     0
 77
     0
 78
     0
281
     0
 65
     1
110
0.0
120
0.0
130
0.0
111
1.0
121
0.0
131
0.0
112
0.0
122
1.0
132
0.0
 79
     0
146
0.0
  0
ENDTAB
  0
TABLE
  2
LTYPE
  5
5
330
0
100
AcDbSymbolTable
 70
     6
  0
LTYPE
  5
14
330
5
100
AcDbSymbolTableRecord
100
AcDbLinetypeTableRecord
  2
ByBlock
 70
     0
  3

 72
    65
 73
     0
 40
0.0
  0
LTYPE
  5
15
330
5
100
AcDbSymbolTableRecord
100
AcDbLinetypeTableRecord
  2
ByLayer
 70
     0
  3

 72
    65
 73
     0
 40
0.0
  0
LTYPE
  5
16
330
5
100
AcDbSymbolTableRecord
100
AcDbLinetypeTableRecord
  2
Continuous
 70
     0
  3
Solid line
 72
    65
 73
     0
 40
0.0
  0
LTYPE
  5
6A
330
5
100
AcDbSymbolTableRecord
100
AcDbLinetypeTableRecord
  2
HIDDEN
 70
     0
  3
Hidden __ __ __ __ __ __ __ __ __ __ __ __ __ __
 72
    65
 73
     2
 40
1.905
 49
1.27
 74
     0
 49
-0.635
 74
     0
  0
LTYPE
  5
6B
330
5
100
AcDbSymbolTableRecord
100
AcDbLinetypeTableRecord
  2
PHANTOM
 70
     0
  3
Phantom ______  __  __  ______  __  __  ______
 72
    65
 73
     6
 40
12.7
 49
6.35
 74
     0
 49
-1.27
 74
     0
 49
1.27
 74
     0
 49
-1.27
 74
     0
 49
1.27
 74
     0
 49
-1.27
 74
     0
  0
LTYPE
  5
6C
330
5
100
AcDbSymbolTableRecord
100
AcDbLinetypeTableRecord
  2
CENTER
 70
     0
  3
Center ____ _ ____ _ ____ _ ____ _ ____ _ ____
 72
    65
 73
     4
 40
10.16
 49
6.35
 74
     0
 49
-1.27
 74
     0
 49
1.27
 74
     0
 49
-1.27
 74
     0
  0
LTYPE
  5
6D
330
5
100
AcDbSymbolTableRecord
100
AcDbLinetypeTableRecord
  2
CENTERX2
 70
     0
  3
Center (2x) ________  __  ________  __  _____
 72
    65
 73
     4
 40
20.32
 49
12.7
 74
     0
 49
-2.54
 74
     0
 49
2.54
 74
     0
 49
-2.54
 74
     0
  0
LTYPE
  5
6E
330
5
100
AcDbSymbolTableRecord
100
AcDbLinetypeTableRecord
  2
DOT2
 70
     0
  3
Dot (.5x) ........................................
 72
    65
 73
     2
 40
0.635
 49
0.0
 74
     0
 49
-0.635
 74
     0
  0
ENDTAB
  0
TABLE
  2
LAYER
  5
2
102
{ACAD_XDICTIONARY
360
193
102
}
330
0
100
AcDbSymbolTable
 70
    18
  0
LAYER
  5
10
330
2
100
AcDbSymbolTableRecord
100
AcDbLayerTableRecord
  2
0
 70
     0
 62
     7
  6
Continuous
370
    -3
390
F
  0
LAYER
  5
6F
330
2
100
AcDbSymbolTableRecord
100
AcDbLayerTableRecord
  2
FORMAT
 70
     0
 62
     2
  6
Continuous
370
    -3
390
F
  0
LAYER
  5
70
330
2
100
AcDbSymbolTableRecord
100
AcDbLayerTableRecord
  2
외형선
 70
     0
 62
     4
  6
Continuous
370
    30
390
F
  0
LAYER
  5
71
330
2
100
AcDbSymbolTableRecord
100
AcDbLayerTableRecord
  2
숨은선
 70
     0
 62
     2
  6
HIDDEN
370
    15
390
F
  0
LAYER
  5
72
330
2
100
AcDbSymbolTableRecord
100
AcDbLayerTableRecord
  2
중심선
 70
     0
 62
     1
  6
CENTERX2
370
    -3
390
F
  0
LAYER
  5
73
330
2
100
AcDbSymbolTableRecord
100
AcDbLayerTableRecord
  2
파단선
 70
     0
 62
     4
  6
Continuous
370
    -3
390
F
  0
LAYER
  5
74
330
2
100
AcDbSymbolTableRecord
100
AcDbLayerTableRecord
  2
해칭선
 70
     0
 62
   100
  6
Continuous
370
    -3
390
F
  0
LAYER
  5
75
330
2
100
AcDbSymbolTableRecord
100
AcDbLayerTableRecord
  2
가는실선
 70
     0
 62
     4
  6
Continuous
370
    -3
390
F
  0
LAYER
  5
76
330
2
100
AcDbSymbolTableRecord
100
AcDbLayerTableRecord
  2
치수_보조선
 70
     0
 62
     4
  6
Continuous
370
    -3
390
F
  0
LAYER
  5
77
330
2
100
AcDbSymbolTableRecord
100
AcDbLayerTableRecord
  2
치수문자_일반주서
 70
     0
 62
     7
  6
Continuous
370
    15
390
F
  0
LAYER
  5
78
330
2
100
AcDbSymbolTableRecord
100
AcDbLayerTableRecord
  2
개별주서
 70
     0
 62
   100
  6
Continuous
370
    30
390
F
  0
LAYER
  5
79
330
2
100
AcDbSymbolTableRecord
100
AcDbLayerTableRecord
  2
중간선
 70
     0
 62
     2
  6
Continuous
370
    15
390
F
  0
LAYER
  5
7A
330
2
100
AcDbSymbolTableRecord
100
AcDbLayerTableRecord
  2
윤곽선
 70
     0
 62
     3
  6
Continuous
370
    40
390
F
  0
LAYER
  5
7B
330
2
100
AcDbSymbolTableRecord
100
AcDbLayerTableRecord
  2
중심마크
 70
     0
 62
   100
  6
Continuous
370
    30
390
F
  0
LAYER
  5
7C
330
2
100
AcDbSymbolTableRecord
100
AcDbLayerTableRecord
  2
가상선
 70
     0
 62
     4
  6
PHANTOM
370
    -3
390
F
  0
LAYER
  5
7D
330
2
100
AcDbSymbolTableRecord
100
AcDbLayerTableRecord
  2
특수지정선
 70
     0
 62
     5
  6
CENTERX2
370
    60
390
F
  0
LAYER
  5
7E
330
2
100
AcDbSymbolTableRecord
100
AcDbLayerTableRecord
  2
참조1
 70
     0
 62
    -4
  6
Continuous
370
    -3
390
F
  0
LAYER
  5
19A
330
2
100
AcDbSymbolTableRecord
100
AcDbLayerTableRecord
  2
Defpoints
 70
     0
 62
     7
  6
Continuous
290
     0
370
    -3
390
F
  0
ENDTAB
  0
TABLE
  2
STYLE
  5
3
330
0
100
AcDbSymbolTable
 70
     2
  0
STYLE
  5
11
330
3
100
AcDbSymbolTableRecord
100
AcDbTextStyleTableRecord
  2
Standard
 70
     0
 40
0.0
 41
1.0
 50
0.0
 71
     0
 42
3.5
  3
txt
  4

  0
STYLE
  5
94
330
3
100
AcDbSymbolTableRecord
100
AcDbTextStyleTableRecord
  2
SLDTEXTSTYLE0
 70
     0
 40
0.0
 41
0.75
 50
0.0
 71
     0
 42
3.5
  3
TXT
  4

  0
ENDTAB
  0
TABLE
  2
VIEW
  5
6
330
0
100
AcDbSymbolTable
 70
     0
  0
ENDTAB
  0
TABLE
  2
UCS
  5
7
330
0
100
AcDbSymbolTable
 70
     0
  0
ENDTAB
  0
TABLE
  2
APPID
  5
9
330
0
100
AcDbSymbolTable
 70
     2
  0
APPID
  5
12
330
9
100
AcDbSymbolTableRecord
100
AcDbRegAppTableRecord
  2
ACAD
 70
     0
  0
APPID
  5
19F
330
9
100
AcDbSymbolTableRecord
100
AcDbRegAppTableRecord
  2
ACAD_DSTYLE_DIMRADIAL_EXTENSION
 70
     0
  0
ENDTAB
  0
TABLE
  2
DIMSTYLE
  5
A
330
0
100
AcDbSymbolTable
 70
     3
100
AcDbDimStyleTable
  0
DIMSTYLE
105
27
330
A
100
AcDbSymbolTableRecord
100
AcDbDimStyleTableRecord
  2
ISO-25
 70
     0
 41
2.5
 42
0.625
 43
3.75
 44
1.25
 73
     0
 74
     0
 77
     1
 78
     8
140
2.5
141
2.5
143
0.03937007874016
147
0.625
171
     3
172
     1
178
     0
271
     2
272
     2
274
     3
278
    44
283
     0
284
     8
340
11
  0
DIMSTYLE
105
EC
102
{ACAD_REACTORS
330
EB
330
100
330
114
330
128
330
1A0
102
}
330
A
100
AcDbSymbolTableRecord
100
AcDbDimStyleTableRecord
  2
SLDDIMSTYLE0
 70
     0
 41
3.302
 44
0.0
 45
0.000000001
 73
     0
 74
     0
 77
     1
 78
     4
 79
     1
140
3.5
143
0.0393700787401575
147
0.875
148
0.000000001
170
     1
172
     1
173
     1
178
     0
271
     2
272
     2
276
     2
284
    12
289
     0
340
94
  0
DIMSTYLE
105
115
330
A
100
AcDbSymbolTableRecord
100
AcDbDimStyleTableRecord
  2
SLDDIMSTYLE1
 70
     0
 41
3.302
 44
0.0
 45
0.000000001
 73
     0
 74
     0
 77
     1
 78
    12
 79
     3
140
3.5
143
0.0393700787401575
147
0.875
148
0.000000001
170
     1
173
     1
178
     0
271
     2
272
     2
276
     2
284
    12
340
94
  0
ENDTAB
  0
TABLE
  2
BLOCK_RECORD
  5
1
330
0
100
AcDbSymbolTable
 70
     9
  0
BLOCK_RECORD
  5
1F
330
1
100
AcDbSymbolTableRecord
100
AcDbBlockTableRecord
  2
*Model_Space
340
22
  0
BLOCK_RECORD
  5
1B
330
1
100
AcDbSymbolTableRecord
100
AcDbBlockTableRecord
  2
*Paper_Space
340
1E
  0
BLOCK_RECORD
  5
23
330
1
100
AcDbSymbolTableRecord
100
AcDbBlockTableRecord
  2
*Paper_Space0
340
26
  0
BLOCK_RECORD
  5
7F
330
1
100
AcDbSymbolTableRecord
100
AcDbBlockTableRecord
  2
블럭10
340
0
102
{BLKREFS
331
E4
102
}
  0
BLOCK_RECORD
  5
ED
330
1
100
AcDbSymbolTableRecord
100
AcDbBlockTableRecord
  2
_D
340
0
  0
BLOCK_RECORD
  5
101
330
1
100
AcDbSymbolTableRecord
100
AcDbBlockTableRecord
  2
_D_1
340
0
  0
BLOCK_RECORD
  5
116
330
1
100
AcDbSymbolTableRecord
100
AcDbBlockTableRecord
  2
_D_2
340
0
  0
BLOCK_RECORD
  5
129
330
1
100
AcDbSymbolTableRecord
100
AcDbBlockTableRecord
  2
_D_3
340
0
  0
BLOCK_RECORD
  5
142
330
1
100
AcDbSymbolTableRecord
100
AcDbBlockTableRecord
  2
SW_DOWELSYMBOL_0
340
0
102
{BLKREFS
331
148
102
}
  0
BLOCK_RECORD
  5
1A3
330
1
100
AcDbSymbolTableRecord
100
AcDbBlockTableRecord
  2
*D8
340
0
  0
ENDTAB
  0
ENDSEC
  0
SECTION
  2
BLOCKS
  0
BLOCK
  5
20
330
1F
100
AcDbEntity
  8
0
100
AcDbBlockBegin
  2
*Model_Space
 70
     0
 10
0.0
 20
0.0
 30
0.0
  3
*Model_Space
  1
*Model_Space
  0
ENDBLK
  5
21
330
1F
100
AcDbEntity
  8
0
100
AcDbBlockEnd
  0
BLOCK
  5
1C
330
1B
100
AcDbEntity
 67
     1
  8
0
100
AcDbBlockBegin
  2
*Paper_Space
 70
     0
 10
0.0
 20
0.0
 30
0.0
  3
*Paper_Space
  1
*Paper_Space
  0
ENDBLK
  5
1D
330
1B
100
AcDbEntity
 67
     1
  8
0
100
AcDbBlockEnd
  0
BLOCK
  5
24
330
23
100
AcDbEntity
  8
0
100
AcDbBlockBegin
  2
*Paper_Space0
 70
     0
 10
0.0
 20
0.0
 30
0.0
  3
*Paper_Space0
  1
*Paper_Space0
  0
ENDBLK
  5
25
330
23
100
AcDbEntity
  8
0
100
AcDbBlockEnd
  0
BLOCK
  5
80
330
7F
100
AcDbEntity
  8
0
100
AcDbBlockBegin
  2
블럭10
 70
     2
 10
0.0
 20
0.0
 30
0.0
  3
블럭10
  1
블럭10
  0
ELLIPSE
  5
82
330
7F
100
AcDbEntity
  8
중심선
100
AcDbEllipse
 10
20.54032771741204
 20
12.0471743016438
 30
0.0
 11
6.600054785286829
 21
-1.261213355974178E-13
 31
0.0
210
0.0
220
0.0
230
1.0
 40
0.636358354079598
 41
0.9219305317359503
 42
6.513795318482858
  0
ELLIPSE
  5
83
330
7F
100
AcDbEntity
  8
중심선
100
AcDbEllipse
 10
20.54032771746488
 20
12.04717430159265
 30
0.0
 11
3.960054785062283
 21
1.540847449632565E-10
 31
0.0
210
0.0
220
0.0
230
1.0
 40
0.3939339440162632
 41
1.131841032648279
 42
5.62031148352944
  0
LINE
  5
84
330
7F
100
AcDbEntity
  8
중심선
100
AcDbLine
 10
2.268634060543552
 20
16.24717430164393
 30
0.0
 11
5.714909304380834
 21
16.24717430164393
 31
0.0
  0
LINE
  5
85
330
7F
100
AcDbEntity
  8
중심선
100
AcDbLine
 10
5.245725140726316
 20
7.84717430164391
 30
0.0
 11
8.692000384563599
 21
7.84717430164391
 31
0.0
  0
LINE
  5
86
330
7F
100
AcDbEntity
  8
중심선
100
AcDbLine
 10
15.74043728645272
 20
16.24717430164393
 30
0.0
 11
8.692000384563599
 21
7.84717430164391
 31
0.0
  0
LINE
  5
87
330
7F
100
AcDbEntity
  8
중심선
100
AcDbLine
 10
0.1404042013395286
 20
13.71084872107135
 30
0.0
 11
3.58671253028996
 21
13.71088815037384
 31
0.0
  0
LINE
  5
88
330
7F
100
AcDbEntity
  8
중심선
100
AcDbLine
 10
2.750260043222114
 20
10.84717430164391
 30
0.0
 11
6.196535287059397
 21
10.84717430164391
 31
0.0
  0
LINE
  5
89
330
7F
100
AcDbEntity
  8
중심선
100
AcDbLine
 10
12.29416204261559
 20
16.24717430164393
 30
0.0
 11
5.245725140726316
 21
7.84717430164391
 31
0.0
  0
LINE
  5
8A
330
7F
100
AcDbEntity
  8
중심선
100
AcDbLine
 10
10.72767329541681
 20
16.24717430164393
 30
0.0
 11
6.196535287059397
 21
10.84717430164391
 31
0.0
  0
LINE
  5
8B
330
7F
100
AcDbEntity
  8
중심선
100
AcDbLine
 10
7.28139805157953
 20
16.24717430164393
 30
0.0
 11
2.750260043222114
 21
10.84717430164391
 31
0.0
  0
LINE
  5
8C
330
7F
100
AcDbEntity
  8
중심선
100
AcDbLine
 10
5.714909304380834
 20
16.24717430164393
 30
0.0
 11
3.58671253028996
 21
13.71088815037384
 31
0.0
  0
LINE
  5
8D
330
7F
100
AcDbEntity
  8
중심선
100
AcDbLine
 10
2.268634060543552
 20
16.24717430164393
 30
0.0
 11
0.1404042013395286
 21
13.71084872107135
 31
0.0
  0
LINE
  5
8E
330
7F
100
AcDbEntity
  8
중심선
100
AcDbLine
 10
7.28139805157953
 20
16.24717430164393
 30
0.0
 11
10.72767329541681
 21
16.24717430164393
 31
0.0
  0
LINE
  5
8F
330
7F
100
AcDbEntity
  8
중심선
100
AcDbLine
 10
12.29416204261559
 20
16.24717430164393
 30
0.0
 11
15.74043728645272
 21
16.24717430164393
 31
0.0
  0
LINE
  5
90
330
7F
100
AcDbEntity
  8
중심선
100
AcDbLine
 10
19.22036997980202
 20
11.08717430171403
 30
0.0
 11
23.66174974927406
 21
11.08717430171406
 31
0.0
  0
LINE
  5
91
330
7F
100
AcDbEntity
  8
중심선
100
AcDbLine
 10
19.22039502424796
 20
13.00717430171391
 30
0.0
 11
19.22036997980202
 21
11.08717430171403
 31
0.0
  0
LINE
  5
92
330
7F
100
AcDbEntity
  8
중심선
100
AcDbLine
 10
19.22039502424796
 20
13.00717430171391
 30
0.0
 11
26.96566020931264
 21
13.00717430171391
 31
0.0
  0
LINE
  5
93
330
7F
100
AcDbEntity
  8
중심선
100
AcDbLine
 10
22.22332737316547
 20
13.45928029700563
 30
0.0
 11
24.52862924686651
 21
15.39360700705356
 31
0.0
  0
ATTDEF
  5
95
330
7F
100
AcDbEntity
  8
FORMAT
 62
     2
100
AcDbText
 10
2.883703680694412
 20
2.075366912832191
 30
0.0
 40
4.233333333333333
  1
G8C51064
 41
0.75
  7
SLDTEXTSTYLE0
 11
2.883703680694412
 21
-0.0412997538344756
 31
0.0
100
AcDbAttributeDefinition
  3

  2
AUTOATTR0
 70
     0
 74
     1
  0
ENDBLK
  5
81
330
7F
100
AcDbEntity
  8
0
100
AcDbBlockEnd
  0
BLOCK
  5
EE
330
ED
100
AcDbEntity
  8
0
100
AcDbBlockBegin
  2
_D
 70
     0
 10
0.0
 20
0.0
 30
0.0
  3
_D
  1
_D
  0
LINE
  5
F0
330
ED
100
AcDbEntity
  8
치수문자_일반주서
 62
     0
370
    -2
100
AcDbLine
 10
56.51249999556419
 20
12.70094172471382
 30
0.0
 11
70.9143079219089
 21
12.70094172471387
 31
0.0
  0
LINE
  5
F1
330
ED
100
AcDbEntity
  8
치수문자_일반주서
 62
     0
370
    -2
100
AcDbLine
 10
56.51249999556418
 20
-12.69905827528612
 30
0.0
 11
70.91430792190899
 21
-12.69905827528606
 31
0.0
  0
LINE
  5
F2
330
ED
100
AcDbEntity
  8
치수문자_일반주서
 62
     0
370
    -2
100
AcDbLine
 10
70.91430792190891
 20
9.398941724713875
 30
0.0
 11
70.91430792190897
 21
-9.397058275286064
 31
0.0
  0
SOLID
  5
F3
330
ED
100
AcDbEntity
  8
치수문자_일반주서
 62
     0
100
AcDbTrace
 10
71.46464125524224
 20
9.398941724713877
 30
0.0
 11
70.36397458857559
 21
9.398941724713874
 31
0.0
 12
70.9143079219089
 22
12.70094172471387
 32
0.0
 13
70.9143079219089
 23
12.70094172471387
 33
0.0
  0
SOLID
  5
F4
330
ED
100
AcDbEntity
  8
치수문자_일반주서
 62
     0
100
AcDbTrace
 10
70.36397458857564
 20
-9.397058275286065
 30
0.0
 11
71.4646412552423
 21
-9.397058275286062
 31
0.0
 12
70.91430792190899
 22
-12.69905827528606
 32
0.0
 13
70.91430792190899
 23
-12.69905827528606
 33
0.0
  0
MTEXT
  5
F5
330
ED
100
AcDbEntity
  8
치수문자_일반주서
 62
     0
100
AcDbMText
 10
66.53930792190894
 20
-0.4893394339343297
 30
0.0
 40
3.5
 41
0.0
 71
     2
 72
     1
  1
\A1;%%c25.40 [1]
  7
SLDTEXTSTYLE0
 11
-3.356894814614655E-15
 21
1.0
 31
0.0
 73
     1
 44
1.0
  0
POINT
  5
F6
330
ED
100
AcDbEntity
  8
Defpoints
 62
     0
100
AcDbPoint
 10
56.44999999556419
 20
12.70094172471382
 30
0.0
  0
POINT
  5
F7
330
ED
100
AcDbEntity
  8
Defpoints
 62
     0
100
AcDbPoint
 10
56.44999999556418
 20
-12.69905827528612
 30
0.0
  0
POINT
  5
F8
330
ED
100
AcDbEntity
  8
Defpoints
 62
     0
100
AcDbPoint
 10
70.91430792190899
 20
-12.69905827528606
 30
0.0
  0
ENDBLK
  5
EF
330
ED
100
AcDbEntity
  8
0
100
AcDbBlockEnd
  0
BLOCK
  5
102
330
101
100
AcDbEntity
  8
0
100
AcDbBlockBegin
  2
_D_1
 70
     0
 10
0.0
 20
0.0
 30
0.0
  3
_D_1
  1
_D_1
  0
LINE
  5
104
330
101
100
AcDbEntity
  8
치수문자_일반주서
 62
     0
370
    -2
100
AcDbLine
 10
-49.02250000443581
 20
12.70094172471381
 30
0.0
 11
-57.86500000443586
 21
12.70094172471378
 31
0.0
  0
LINE
  5
105
330
101
100
AcDbEntity
  8
치수문자_일반주서
 62
     0
370
    -2
100
AcDbLine
 10
-49.02250000443581
 20
-12.69905827528617
 30
0.0
 11
-57.86500000443577
 21
-12.6990582752862
 31
0.0
  0
LINE
  5
106
330
101
100
AcDbEntity
  8
치수문자_일반주서
 62
     0
370
    -2
100
AcDbLine
 10
-57.86500000443584
 20
9.39894172471378
 30
0.0
 11
-57.86500000443579
 21
-9.397058275286199
 31
0.0
  0
SOLID
  5
107
330
101
100
AcDbEntity
  8
치수문자_일반주서
 62
     0
100
AcDbTrace
 10
-57.31466667110251
 20
9.398941724713781
 30
0.0
 11
-58.41533333776918
 21
9.398941724713778
 31
0.0
 12
-57.86500000443586
 22
12.70094172471378
 32
0.0
 13
-57.86500000443586
 23
12.70094172471378
 33
0.0
  0
SOLID
  5
108
330
101
100
AcDbEntity
  8
치수문자_일반주서
 62
     0
100
AcDbTrace
 10
-58.41533333776912
 20
-9.3970582752862
 30
0.0
 11
-57.31466667110245
 21
-9.397058275286197
 31
0.0
 12
-57.86500000443577
 22
-12.6990582752862
 32
0.0
 13
-57.86500000443577
 23
-12.6990582752862
 33
0.0
  0
MTEXT
  5
109
330
101
100
AcDbEntity
  8
치수문자_일반주서
 62
     0
100
AcDbMText
 10
-62.24000000443581
 20
0.0009417247137911
 30
0.0
 40
3.5
 41
0.0
 71
     2
 72
     1
  1
\A1;%%c25.40 [1]
  7
SLDTEXTSTYLE0
 11
-3.356894814614649E-15
 21
1.0
 31
0.0
 73
     1
 44
1.0
  0
POINT
  5
10A
330
101
100
AcDbEntity
  8
Defpoints
 62
     0
100
AcDbPoint
 10
-48.96000000443581
 20
12.70094172471381
 30
0.0
  0
POINT
  5
10B
330
101
100
AcDbEntity
  8
Defpoints
 62
     0
100
AcDbPoint
 10
-48.96000000443581
 20
-12.69905827528617
 30
0.0
  0
POINT
  5
10C
330
101
100
AcDbEntity
  8
Defpoints
 62
     0
100
AcDbPoint
 10
-57.86500000443577
 20
-12.6990582752862
 30
0.0
  0
ENDBLK
  5
103
330
101
100
AcDbEntity
  8
0
100
AcDbBlockEnd
  0
BLOCK
  5
117
330
116
100
AcDbEntity
  8
0
100
AcDbBlockBegin
  2
_D_2
 70
     0
 10
0.0
 20
0.0
 30
0.0
  3
_D_2
  1
_D_2
  0
LINE
  5
119
330
116
100
AcDbEntity
  8
치수문자_일반주서
 62
     0
370
    -2
100
AcDbLine
 10
56.44999999556419
 20
12.76344172471382
 30
0.0
 11
56.44999999556419
 21
41.3988992798269
 31
0.0
  0
LINE
  5
11A
330
116
100
AcDbEntity
  8
치수문자_일반주서
 62
     0
370
    -2
100
AcDbLine
 10
11.99999999556414
 20
12.43619428130568
 30
0.0
 11
11.99999999556414
 21
41.3988992798269
 31
0.0
  0
LINE
  5
11B
330
116
100
AcDbEntity
  8
치수문자_일반주서
 62
     0
370
    -2
100
AcDbLine
 10
53.14799999556419
 20
41.3988992798269
 30
0.0
 11
15.30199999556414
 21
41.3988992798269
 31
0.0
  0
SOLID
  5
11C
330
116
100
AcDbEntity
  8
치수문자_일반주서
 62
     0
100
AcDbTrace
 10
53.14799999556419
 20
40.84856594649357
 30
0.0
 11
53.14799999556419
 21
41.94923261316023
 31
0.0
 12
56.44999999556419
 22
41.3988992798269
 32
0.0
 13
56.44999999556419
 23
41.3988992798269
 33
0.0
  0
SOLID
  5
11D
330
116
100
AcDbEntity
  8
치수문자_일반주서
 62
     0
100
AcDbTrace
 10
15.30199999556414
 20
41.94923261316023
 30
0.0
 11
15.30199999556414
 21
40.84856594649357
 31
0.0
 12
11.99999999556414
 22
41.3988992798269
 32
0.0
 13
11.99999999556414
 23
41.3988992798269
 33
0.0
  0
MTEXT
  5
11E
330
116
100
AcDbEntity
  8
치수문자_일반주서
 62
     0
100
AcDbMText
 10
36.98701055117023
 20
45.7738992798269
 30
0.0
 40
3.5
 41
0.0
 71
     2
 72
     1
  1
\A1;44.45 [1 3/4]
  7
SLDTEXTSTYLE0
 73
     1
 44
1.0
  0
POINT
  5
11F
330
116
100
AcDbEntity
  8
Defpoints
 62
     0
100
AcDbPoint
 10
56.44999999556419
 20
12.70094172471382
 30
0.0
  0
POINT
  5
120
330
116
100
AcDbEntity
  8
Defpoints
 62
     0
100
AcDbPoint
 10
11.99999999556414
 20
12.37369428130568
 30
0.0
  0
POINT
  5
121
330
116
100
AcDbEntity
  8
Defpoints
 62
     0
100
AcDbPoint
 10
11.99999999556414
 20
41.3988992798269
 30
0.0
  0
ENDBLK
  5
118
330
116
100
AcDbEntity
  8
0
100
AcDbBlockEnd
  0
BLOCK
  5
12A
330
129
100
AcDbEntity
  8
0
100
AcDbBlockBegin
  2
_D_3
 70
     0
 10
0.0
 20
0.0
 30
0.0
  3
_D_3
  1
_D_3
  0
LINE
  5
12C
330
129
100
AcDbEntity
  8
치수문자_일반주서
 62
     0
370
    -2
100
AcDbLine
 10
-51.50000000443583
 20
10.22344172471383
 30
0.0
 11
-51.50000000443583
 21
55.87562882529133
 31
0.0
  0
LINE
  5
12D
330
129
100
AcDbEntity
  8
치수문자_일반주서
 62
     0
370
    -2
100
AcDbLine
 10
56.44999999556419
 20
12.76344172471382
 30
0.0
 11
56.44999999556419
 21
55.87562882529133
 31
0.0
  0
LINE
  5
12E
330
129
100
AcDbEntity
  8
치수문자_일반주서
 62
     0
370
    -2
100
AcDbLine
 10
-48.19800000443583
 20
55.87562882529133
 30
0.0
 11
53.14799999556419
 21
55.87562882529133
 31
0.0
  0
SOLID
  5
12F
330
129
100
AcDbEntity
  8
치수문자_일반주서
 62
     0
100
AcDbTrace
 10
-48.19800000443583
 20
56.42596215862466
 30
0.0
 11
-48.19800000443583
 21
55.32529549195799
 31
0.0
 12
-51.50000000443583
 22
55.87562882529133
 32
0.0
 13
-51.50000000443583
 23
55.87562882529133
 33
0.0
  0
SOLID
  5
130
330
129
100
AcDbEntity
  8
치수문자_일반주서
 62
     0
100
AcDbTrace
 10
53.14799999556419
 20
55.32529549195799
 30
0.0
 11
53.14799999556419
 21
56.42596215862466
 31
0.0
 12
56.44999999556419
 22
55.87562882529133
 32
0.0
 13
56.44999999556419
 23
55.87562882529133
 33
0.0
  0
MTEXT
  5
131
330
129
100
AcDbEntity
  8
치수문자_일반주서
 62
     0
100
AcDbMText
 10
3.637758710154339
 20
60.25062882529133
 30
0.0
 40
3.5
 41
0.0
 71
     2
 72
     1
  1
\A1;107.95 [4 1/4]
  7
SLDTEXTSTYLE0
 73
     1
 44
1.0
  0
POINT
  5
132
330
129
100
AcDbEntity
  8
Defpoints
 62
     0
100
AcDbPoint
 10
-51.50000000443583
 20
10.16094172471383
 30
0.0
  0
POINT
  5
133
330
129
100
AcDbEntity
  8
Defpoints
 62
     0
100
AcDbPoint
 10
56.44999999556419
 20
12.70094172471382
 30
0.0
  0
POINT
  5
134
330
129
100
AcDbEntity
  8
Defpoints
 62
     0
100
AcDbPoint
 10
56.44999999556419
 20
55.87562882529133
 30
0.0
  0
ENDBLK
  5
12B
330
129
100
AcDbEntity
  8
0
100
AcDbBlockEnd
  0
BLOCK
  5
143
330
142
100
AcDbEntity
  8
0
100
AcDbBlockBegin
  2
SW_DOWELSYMBOL_0
 70
     0
 10
0.0
 20
0.0
 30
0.0
  3
SW_DOWELSYMBOL_0
  1
SW_DOWELSYMBOL_0
  0
CIRCLE
  5
145
330
142
100
AcDbEntity
  8
해칭선
 62
     0
100
AcDbCircle
 10
0.0
 20
0.0
 30
0.0
 40
3.000000000000001
  0
HATCH
  5
146
330
142
100
AcDbEntity
  8
0
  6
Continuous
 62
     0
370
     0
100
AcDbHatch
 10
0.0
 20
0.0
 30
0.0
210
0.0
220
0.0
230
1.0
  2
SOLID
 70
     1
 71
     0
 91
        1
 92
        0
 93
        3
 72
     2
 10
0.0
 20
0.0
 40
3.000000000000001
 50
0.0
 51
90.0
 73
     1
 72
     1
 10
0.0
 20
3.000000000000001
 11
0.0
 21
0.0
 72
     1
 10
0.0
 20
0.0
 11
3.000000000000001
 21
0.0
 97
        0
 75
     0
 76
     1
 98
        1
 10
0.0
 20
0.0
  0
HATCH
  5
147
330
142
100
AcDbEntity
  8
0
  6
Continuous
 62
     0
370
     0
100
AcDbHatch
 10
0.0
 20
0.0
 30
0.0
210
0.0
220
0.0
230
1.0
  2
SOLID
 70
     1
 71
     0
 91
        1
 92
        0
 93
        3
 72
     2
 10
0.0
 20
0.0
 40
3.000000000000001
 50
180.0
 51
270.0000000000008
 73
     1
 72
     1
 10
0.0
 20
-3.000000000000001
 11
0.0
 21
0.0
 72
     1
 10
0.0
 20
0.0
 11
-3.000000000000001
 21
0.0
 97
        0
 75
     0
 76
     1
 98
        1
 10
0.0
 20
0.0
  0
ENDBLK
  5
144
330
142
100
AcDbEntity
  8
0
100
AcDbBlockEnd
  0
BLOCK
  5
1A4
330
1A3
100
AcDbEntity
  8
0
100
AcDbBlockBegin
  2
*D8
 70
     1
 10
0.0
 20
0.0
 30
0.0
  3
*D8
  1
*D8
  0
LINE
  5
1A6
330
1A3
100
AcDbEntity
  8
치수문자_일반주서
 62
     0
370
    -2
100
AcDbLine
 10
57.64108825989406
 20
-15.50098058528911
 30
0.0
 11
74.89196622847652
 21
-46.97973655460239
 31
0.0
  0
MTEXT
  5
1A7
330
1A3
100
AcDbEntity
  8
치수문자_일반주서
 62
     0
100
AcDbMText
 10
70.36067250439123
 20
-33.24908275558156
 30
0.0
 40
3.5
 41
0.0
 71
     5
 72
     1
  1
\A1;R.76 [R0.030]
  7
SLDTEXTSTYLE0
 11
0.4805827422071546
 21
-0.8769493873038805
 31
0.0
 73
     1
 44
1.0
  0
LINE
  5
1A8
330
1A3
100
AcDbEntity
  8
치수문자_일반주서
 62
     0
370
    -2
100
AcDbLine
 10
55.68799999556418
 20
-11.93705827528614
 30
0.0
 11
56.05420404512603
 21
-12.6052937084117
 31
0.0
  0
SOLID
  5
1A9
330
1A3
100
AcDbEntity
  8
치수문자_일반주서
 62
     0
100
AcDbTrace
 10
58.12370273937363
 20
-15.23649988282777
 30
0.0
 11
57.1584737804145
 21
-15.76546128775045
 31
0.0
 12
56.05420404512603
 22
-12.6052937084117
 32
0.0
 13
56.05420404512603
 23
-12.6052937084117
 33
0.0
  0
POINT
  5
1AA
330
1A3
100
AcDbEntity
  8
Defpoints
 62
     0
100
AcDbPoint
 10
56.05420404512603
 20
-12.6052937084117
 30
0.0
  0
POINT
  5
1AB
330
1A3
100
AcDbEntity
  8
Defpoints
 62
     0
100
AcDbPoint
 10
55.68799999556418
 20
-11.93705827528614
 30
0.0
  0
ENDBLK
  5
1A5
330
1A3
100
AcDbEntity
  8
0
100
AcDbBlockEnd
  0
ENDSEC
  0
SECTION
  2
ENTITIES
  0
LINE
  5
96
330
1F
100
AcDbEntity
  8
0
  6
Continuous
 62
     1
370
    15
100
AcDbLine
 10
41.50780183193736
 20
-1.839742906328303
 30
0.0
 11
41.62097833445804
 21
-1.904150605197802
 31
0.0
  0
LINE
  5
97
330
1F
100
AcDbEntity
  8
0
  6
Continuous
 62
     1
370
    15
100
AcDbLine
 10
48.33699021651335
 20
1.853580060387922
 30
0.0
 11
48.2453086213775
 21
1.905880792766075
 31
0.0
  0
LINE
  5
98
330
1F
100
AcDbEntity
  8
외형선
  6
Continuous
370
    15
100
AcDbLine
 10
13.78081786098932
 20
1.854631898238643
 30
0.0
 11
13.67422149644781
 21
1.915385246962734
 31
0.0
  0
LINE
  5
99
330
1F
100
AcDbEntity
  8
0
  6
Continuous
 62
     1
370
    15
100
AcDbLine
 10
21.03134749290626
 20
12.70094172471382
 30
0.0
 11
17.00413692076367
 21
12.70094172471382
 31
0.0
  0
LINE
  5
9A
330
1F
100
AcDbEntity
  8
0
  6
Continuous
 62
     1
370
    15
100
AcDbLine
 10
51.5568361895367
 20
-12.69905827528618
 30
0.0
 11
55.58565326998278
 21
-12.69905827528618
 31
0.0
  0
LINE
  5
9B
330
1F
100
AcDbEntity
  8
0
  6
Continuous
 62
     1
370
    15
100
AcDbLine
 10
34.28062838625365
 20
-12.69905827528618
 30
0.0
 11
38.30821982601371
 21
-12.69905827528618
 31
0.0
  0
LINE
  5
9C
330
1F
100
AcDbEntity
  8
0
  6
Continuous
 62
     1
370
    15
100
AcDbLine
 10
38.30821982601367
 20
12.70094172471382
 30
0.0
 11
34.28062838625382
 21
12.70094172471382
 31
0.0
  0
LINE
  5
9D
330
1F
100
AcDbEntity
  8
0
  6
Continuous
 62
     1
370
    15
100
AcDbLine
 10
17.00413692076352
 20
-12.69905827528618
 30
0.0
 11
21.03134749290611
 21
-12.69905827528618
 31
0.0
  0
LINE
  5
9E
330
1F
100
AcDbEntity
  8
0
  6
Continuous
 62
     1
370
    15
100
AcDbLine
 10
55.58565326998264
 20
12.70094172471382
 30
0.0
 11
51.55683618953671
 21
12.70094172471382
 31
0.0
  0
LINE
  5
9F
330
1F
100
AcDbEntity
  8
외형선
  6
Continuous
370
    15
100
AcDbLine
 10
-48.96000000443582
 20
-12.69905827528618
 30
0.0
 11
11.5001122828446
 21
-12.69905827528618
 31
0.0
  0
LINE
  5
A0
330
1F
100
AcDbEntity
  8
외형선
  6
Continuous
370
    15
100
AcDbLine
 10
11.5001122828446
 20
12.70094172471382
 30
0.0
 11
-48.96000000443582
 21
12.70094172471382
 31
0.0
  0
LINE
  5
A1
330
1F
100
AcDbEntity
  8
외형선
  6
Continuous
370
    15
100
AcDbLine
 10
-48.96000000443582
 20
12.70094172471382
 30
0.0
 11
-51.50000000443583
 21
10.16094172471383
 31
0.0
  0
LINE
  5
A2
330
1F
100
AcDbEntity
  8
외형선
  6
Continuous
370
    15
100
AcDbLine
 10
-51.50000000443583
 20
-10.15905827528618
 30
0.0
 11
-48.96000000443582
 21
-12.69905827528618
 31
0.0
  0
LINE
  5
A3
330
1F
100
AcDbEntity
  8
0
  6
Continuous
 62
     1
370
    15
100
AcDbLine
 10
56.44999999556418
 20
-8.791921951700404
 30
0.0
 11
56.44999999556418
 21
-2.595554598871781
 31
0.0
  0
SPLINE
  5
A4
330
1F
100
AcDbEntity
  8
0
  6
Continuous
 62
     1
370
    15
100
AcDbSpline
210
0.0
220
0.0
230
1.0
 70
     8
 71
     3
 72
    14
 73
    10
 74
     0
 42
0.000000001
 43
0.00000001
 40
0.0
 40
0.0
 40
0.0
 40
0.0
 40
0.25
 40
0.25
 40
0.5
 40
0.5
 40
0.75
 40
0.75
 40
1.0
 40
1.0
 40
1.0
 40
1.0
 10
55.68799999556418
 20
-9.02106356685761
 30
0.0
 10
55.78322446184913
 20
-9.059757714729225
 30
0.0
 10
55.87424501531858
 20
-9.086202809696681
 30
0.0
 10
56.04935167874991
 20
-9.114157054889223
 30
0.0
 10
56.1316552813103
 20
-9.114940228764963
 30
0.0
 10
56.27559725247047
 20
-9.083813292789229
 30
0.0
 10
56.3376964506768
 20
-9.051620579173287
 30
0.0
 10
56.42588122203242
 20
-8.947160496681366
 30
0.0
 10
56.44999999556421
 20
-8.876753009137975
 30
0.0
 10
56.44999999556421
 20
-8.791921951700404
 30
0.0
  0
SPLINE
  5
A5
330
1F
100
AcDbEntity
  8
0
  6
Continuous
 62
     1
370
    15
100
AcDbSpline
210
0.0
220
0.0
230
1.0
 70
     8
 71
     3
 72
    48
 73
    44
 74
     0
 42
0.000000001
 43
0.00000001
 40
0.0
 40
0.0
 40
0.0
 40
0.0
 40
0.0625000000000008
 40
0.0625000000000008
 40
0.1250000000000016
 40
0.1250000000000016
 40
0.1875000000000024
 40
0.1875000000000024
 40
0.2187500000000025
 40
0.2187500000000025
 40
0.2500000000000026
 40
0.2500000000000026
 40
0.3125000000000027
 40
0.3125000000000027
 40
0.3750000000000027
 40
0.3750000000000027
 40
0.4375000000000028
 40
0.4375000000000028
 40
0.4687500000000029
 40
0.4687500000000029
 40
0.500000000000003
 40
0.500000000000003
 40
0.5625000000000031
 40
0.5625000000000031
 40
0.6250000000000033
 40
0.6250000000000033
 40
0.6875000000000034
 40
0.6875000000000034
 40
0.7187500000000036
 40
0.7187500000000036
 40
0.7500000000000036
 40
0.7500000000000036
 40
0.812500000000003
 40
0.812500000000003
 40
0.8750000000000023
 40
0.8750000000000023
 40
0.9062500000000018
 40
0.9062500000000018
 40
0.9375000000000012
 40
0.9375000000000012
 40
0.9687500000000006
 40
0.9687500000000006
 40
1.0
 40
1.0
 40
1.0
 40
1.0
 10
55.68799999556417
 20
-9.021063566857608
 30
0.0
 10
54.77785067529648
 20
-8.651227391789911
 30
0.0
 10
53.86363308898635
 20
-8.257587025738934
 30
0.0
 10
52.04810656843456
 20
-7.431874573175241
 30
0.0
 10
51.13561256643178
 20
-6.998133855759997
 30
0.0
 10
49.31383550217853
 20
-6.097423753555215
 30
0.0
 10
48.40723530987858
 20
-5.630965470942165
 30
0.0
 10
47.03969038769711
 20
-4.910087703352069
 30
0.0
 10
46.58370928020601
 20
-4.666457936247464
 30
0.0
 10
45.67411318683787
 20
-4.173945201908547
 30
0.0
 10
45.22109086001244
 20
-3.925176221525143
 30
0.0
 10
43.85581988397499
 20
-3.170660027527902
 30
0.0
 10
42.94161180726087
 20
-2.657440726729332
 30
0.0
 10
41.12618526251075
 20
-1.622441977314651
 30
0.0
 10
40.21358173551025
 20
-1.098512393349226
 30
0.0
 10
38.39185088299862
 20
-0.0483491563094011
 30
0.0
 10
37.48522202034828
 20
0.4773933111160634
 30
0.0
 10
36.11767113996923
 20
1.263611734879444
 30
0.0
 10
35.66169826454977
 20
1.525064002301802
 30
0.0
 10
34.75213891349802
 20
2.045221773404902
 30
0.0
 10
34.29910654548686
 20
2.30382467281564
 30
0.0
 10
32.93378904483823
 20
3.075882100599321
 30
0.0
 10
32.01959079637549
 20
3.584731559360117
 30
0.0
 10
30.20426484978362
 20
4.579051420303311
 30
0.0
 10
29.29155085980113
 20
5.066638408227006
 30
0.0
 10
27.46986684864263
 20
6.012629388789296
 30
0.0
 10
26.5632083707762
 20
6.470684330639567
 30
0.0
 10
25.1956520058539
 20
7.132363544847507
 30
0.0
 10
24.7396875205316
 20
7.34849501731861
 30
0.0
 10
23.83016522509705
 20
7.770675545915465
 30
0.0
 10
23.37712171574858
 20
7.976657267360677
 30
0.0
 10
22.01175816156708
 20
8.579794652667289
 30
0.0
 10
21.09757005999958
 20
8.961381748147366
 30
0.0
 10
19.2823453338071
 20
9.67489094042703
 30
0.0
 10
18.36951994298515
 20
10.00837106184684
 30
0.0
 10
17.00329253779941
 20
10.46838816820976
 30
0.0
 10
16.54975548127774
 20
10.61489847538391
 30
0.0
 10
15.6410905280806
 20
10.89430241286406
 30
0.0
 10
15.18534057288842
 20
11.02724651656552
 30
0.0
 10
14.27363298901844
 20
11.27880464294278
 30
0.0
 10
13.81767705180905
 20
11.39741819059753
 30
0.0
 10
12.90819212524996
 20
11.61966478165887
 30
0.0
 10
12.45513637442517
 20
11.72327768662555
 30
0.0
 10
11.99999999556421
 20
11.81946043318746
 30
0.0
  0
SPLINE
  5
A6
330
1F
100
AcDbEntity
  8
외형선
  6
Continuous
370
    15
100
AcDbSpline
210
0.0
220
0.0
230
1.0
 70
    24
 71
     3
 72
     9
 73
     5
 74
     0
 42
0.000000001
 43
0.00000001
 40
0.0
 40
0.0
 40
0.0
 40
0.0
 40
0.9942923661912273
 40
1.0
 40
1.0
 40
1.0
 40
1.0
 10
11.99999999556415
 20
12.37369428133246
 30
0.0
 10
11.99999999556408
 20
12.21369757530892
 30
0.0
 10
11.99999999556401
 20
12.05278242453046
 30
0.0
 10
11.99999999556418
 20
11.89801556499985
 30
0.0
 10
11.99999999556418
 20
11.89713221243992
 30
0.0
  0
SPLINE
  5
A7
330
1F
100
AcDbEntity
  8
0
  6
Continuous
 62
     1
370
    15
100
AcDbSpline
210
0.0
220
0.0
230
1.0
 70
     8
 71
     3
 72
    48
 73
    44
 74
     0
 42
0.000000001
 43
0.00000001
 40
0.0
 40
0.0
 40
0.0
 40
0.0
 40
0.0624999999999999
 40
0.0624999999999999
 40
0.1249999999999997
 40
0.1249999999999997
 40
0.1874999999999996
 40
0.1874999999999996
 40
0.2187499999999995
 40
0.2187499999999995
 40
0.2499999999999994
 40
0.2499999999999994
 40
0.3125
 40
0.3125
 40
0.3750000000000006
 40
0.3750000000000006
 40
0.4375000000000012
 40
0.4375000000000012
 40
0.4687500000000011
 40
0.4687500000000011
 40
0.5000000000000011
 40
0.5000000000000011
 40
0.562500000000001
 40
0.562500000000001
 40
0.6250000000000008
 40
0.6250000000000008
 40
0.6875000000000007
 40
0.6875000000000007
 40
0.7187500000000007
 40
0.7187500000000007
 40
0.7500000000000006
 40
0.7500000000000006
 40
0.8125000000000004
 40
0.8125000000000004
 40
0.8750000000000002
 40
0.8750000000000002
 40
0.9062500000000002
 40
0.9062500000000002
 40
0.9375000000000001
 40
0.9375000000000001
 40
0.9687500000000001
 40
0.9687500000000001
 40
1.0
 40
1.0
 40
1.0
 40
1.0
 10
55.68799999556423
 20
-2.369935384617664
 30
0.0
 10
54.77785067529651
 20
-1.853691562185255
 30
0.0
 10
53.86363308898642
 20
-1.330573225043946
 30
0.0
 10
52.04810656843469
 20
-0.2826533772369359
 30
0.0
 10
51.13561256643184
 20
0.2442897916692202
 30
0.0
 10
49.31383550217863
 20
1.293613598966426
 30
0.0
 10
48.40723530987866
 20
1.815481396829145
 30
0.0
 10
47.0396903876972
 20
2.59074763478507
 30
0.0
 10
46.58370928020607
 20
2.847694622124039
 30
0.0
 10
45.67411318683797
 20
3.357162561399378
 30
0.0
 10
45.22109086001249
 20
3.609578015929393
 30
0.0
 10
43.85581988397504
 20
4.36054070517131
 30
0.0
 10
42.94161180726095
 20
4.851966291765831
 30
0.0
 10
41.12618526251092
 20
5.805134190243114
 30
0.0
 10
40.21358173551042
 20
6.268874435602723
 30
0.0
 10
38.39185088299865
 20
7.161195667324221
 30
0.0
 10
37.4852220203484
 20
7.589431104282356
 30
0.0
 10
36.11767113996937
 20
8.202112674295826
 30
0.0
 10
35.66169826454991
 20
8.401213080570079
 30
0.0
 10
34.75213891349821
 20
8.788035557485822
 30
0.0
 10
34.29910654548704
 20
8.975693026168214
 30
0.0
 10
32.93378904483837
 20
9.52188509404338
 30
0.0
 10
32.01959079637565
 20
9.862933636616198
 30
0.0
 10
30.20426484978386
 20
10.4911581595243
 30
0.0
 10
29.29155085980132
 20
10.7796885471597
 30
0.0
 10
27.46986684864279
 20
11.29950714151856
 30
0.0
 10
26.56320837077641
 20
11.53068434296929
 30
0.0
 10
25.19565200585412
 20
11.83281172522504
 30
0.0
 10
24.73968752053186
 20
11.92598171171714
 30
0.0
 10
23.83016522509729
 20
12.09674186402153
 30
0.0
 10
23.37712171574878
 20
12.17431913952968
 30
0.0
 10
22.0117581615673
 20
12.38382363714084
 30
0.0
 10
21.09757005999983
 20
12.49212938519314
 30
0.0
 10
19.28234533380735
 20
12.64370316064751
 30
0.0
 10
18.36951994298542
 20
12.68732405129964
 30
0.0
 10
17.00329253779972
 20
12.7036605834421
 30
0.0
 10
16.54975548127804
 20
12.70095091775104
 30
0.0
 10
15.64109052808088
 20
12.67925961820684
 30
0.0
 10
15.18534057288878
 20
12.66025718917921
 30
0.0
 10
14.27363298901875
 20
12.60599415991008
 30
0.0
 10
13.81767705180939
 20
12.57073365095635
 30
0.0
 10
12.90819212525031
 20
12.48419767436414
 30
0.0
 10
12.45513637442553
 20
12.43295714712196
 30
0.0
 10
11.99999999556453
 20
12.37369428132703
 30
0.0
  0
SPLINE
  5
A8
330
1F
100
AcDbEntity
  8
0
  6
Continuous
 62
     1
370
    15
100
AcDbSpline
210
0.0
220
0.0
230
1.0
 70
     8
 71
     3
 72
    14
 73
    10
 74
     0
 42
0.000000001
 43
0.00000001
 40
0.0
 40
0.0
 40
0.0
 40
0.0
 40
0.25
 40
0.25
 40
0.5
 40
0.5
 40
0.75
 40
0.75
 40
1.0
 40
1.0
 40
1.0
 40
1.0
 10
56.44999999556418
 20
-2.595554598871781
 30
0.0
 10
56.44999999556418
 20
-2.613936007238901
 30
0.0
 10
56.42730242631442
 20
-2.624452498262714
 30
0.0
 10
56.34352934646748
 20
-2.625935420925543
 30
0.0
 10
56.28214150650651
 20
-2.616582847923588
 30
0.0
 10
56.13646382372457
 20
-2.577093371722063
 30
0.0
 10
56.0514564337647
 20
-2.546755935698796
 30
0.0
 10
55.87343707380426
 20
-2.469315332866572
 30
0.0
 10
55.78055063622558
 20
-2.422430832825608
 30
0.0
 10
55.68799999556421
 20
-2.369935384617679
 30
0.0
  0
LINE
  5
A9
330
1F
100
AcDbEntity
  8
0
  6
Continuous
 62
     1
370
    15
100
AcDbLine
 10
56.44999999556418
 20
-11.92625374170468
 30
0.0
 11
56.44999999556418
 21
-10.07441674667496
 31
0.0
  0
SPLINE
  5
AB
330
1F
100
AcDbEntity
  8
0
  6
Continuous
 62
     1
370
    15
100
AcDbSpline
210
0.0
220
0.0
230
1.0
 70
     8
 71
     3
 72
    48
 73
    44
 74
     0
 42
0.000000001
 43
0.00000001
 40
0.0
 40
0.0
 40
0.0
 40
0.0
 40
0.0624999999999995
 40
0.0624999999999995
 40
0.1249999999999989
 40
0.1249999999999989
 40
0.1874999999999984
 40
0.1874999999999984
 40
0.2187499999999985
 40
0.2187499999999985
 40
0.2499999999999986
 40
0.2499999999999986
 40
0.3124999999999994
 40
0.3124999999999994
 40
0.3750000000000004
 40
0.3750000000000004
 40
0.4375000000000013
 40
0.4375000000000013
 40
0.4687500000000014
 40
0.4687500000000014
 40
0.5000000000000016
 40
0.5000000000000016
 40
0.5625000000000017
 40
0.5625000000000017
 40
0.6250000000000018
 40
0.6250000000000018
 40
0.687500000000002
 40
0.687500000000002
 40
0.718750000000002
 40
0.718750000000002
 40
0.7500000000000021
 40
0.7500000000000021
 40
0.8125000000000016
 40
0.8125000000000016
 40
0.875000000000001
 40
0.875000000000001
 40
0.9062500000000008
 40
0.9062500000000008
 40
0.9375000000000006
 40
0.9375000000000006
 40
0.9687500000000002
 40
0.9687500000000002
 40
1.0
 40
1.0
 40
1.0
 40
1.0
 10
55.68799999556417
 20
-12.69892038919529
 30
0.0
 10
54.77785067529651
 20
-12.70136905654518
 30
0.0
 10
53.86363308898635
 20
-12.6710823383945
 30
0.0
 10
52.04810656843454
 20
-12.54590549026004
 30
0.0
 10
51.13561256643178
 20
-12.45079233197131
 30
0.0
 10
49.31383550217853
 20
-12.19719765068606
 30
0.0
 10
48.40723530987857
 20
-12.03896311623899
 30
0.0
 10
47.03969038769703
 20
-11.75542664732149
 30
0.0
 10
46.58370928020597
 20
-11.65328113617802
 30
0.0
 10
45.67411318683786
 20
-11.43434793712889
 30
0.0
 10
45.22109086001237
 20
-11.31762641314584
 30
0.0
 10
43.85581988397496
 20
-10.94537033052576
 30
0.0
 10
42.94161180726084
 20
-10.66797779854218
 30
0.0
 10
41.12618526251078
 20
-10.06128562856472
 30
0.0
 10
40.21358173551024
 20
-9.730747843415632
 30
0.0
 10
38.39185088299855
 20
-9.021788642921726
 30
0.0
 10
37.48522202034826
 20
-8.643788454788101
 30
0.0
 10
36.11767113996922
 20
-8.043910518716574
 30
0.0
 10
35.66169826454977
 20
-7.838629180272747
 30
0.0
 10
34.75213891349797
 20
-7.418631903297861
 30
0.0
 10
34.29910654548684
 20
-7.204013416697141
 30
0.0
 10
32.93378904483823
 20
-6.545724245596984
 30
0.0
 10
32.01959079637547
 20
-6.088220899355449
 30
0.0
 10
30.20426484978362
 20
-5.146550387235472
 30
0.0
 10
29.29155085980112
 20
-4.660400077974004
 30
0.0
 10
27.46986684864259
 20
-3.667303447419878
 30
0.0
 10
26.56320837077619
 20
-3.160824405725671
 30
0.0
 10
25.19565200585387
 20
-2.389480973209618
 30
0.0
 10
24.73968752053158
 20
-2.130642354749849
 30
0.0
 10
23.83016522509698
 20
-1.611018549030228
 30
0.0
 10
23.3771217157485
 20
-1.350334142463232
 30
0.0
 10
22.01175816156706
 20
-0.5649906114071692
 30
0.0
 10
21.09757005999953
 20
-0.0378696868741054
 30
0.0
 10
19.28234533380698
 20
1.011348558534226
 30
0.0
 10
18.36951994298513
 20
1.535709644413732
 30
0.0
 10
17.00329253779941
 20
2.313750933035183
 30
0.0
 10
16.54975548127772
 20
2.571424703916431
 30
0.0
 10
15.64109052808053
 20
3.083448464216781
 30
0.0
 10
15.18534057288839
 20
3.337912013953995
 30
0.0
 10
14.27363298901838
 20
3.842259886077398
 30
0.0
 10
13.81767705180901
 20
4.092143270047734
 30
0.0
 10
12.90819212524989
 20
4.585898329561673
 30
0.0
 10
12.45513637442516
 20
4.829691440298805
 30
0.0
 10
11.99999999556417
 20
5.070601545661854
 30
0.0
  0
SPLINE
  5
AC
330
1F
100
AcDbEntity
  8
외형선
  6
Continuous
370
    15
100
AcDbSpline
210
0.0
220
0.0
230
1.0
 70
    24
 71
     3
 72
    18
 73
    14
 74
     0
 42
0.000000001
 43
0.00000001
 40
0.0
 40
0.0
 40
0.0
 40
0.0
 40
0.0745875341196475
 40
0.150385606384474
 40
0.2490010107693195
 40
0.3504762685620078
 40
0.4490916729468529
 40
0.5505669307395398
 40
0.6491823351243841
 40
0.7506575929170703
 40
0.8492729973019276
 40
0.9507482550946035
 40
1.0
 40
1.0
 40
1.0
 40
1.0
 10
11.99999999556415
 20
10.77526115025489
 30
0.0
 10
11.99999999556418
 20
10.65025623566015
 30
0.0
 10
11.99999999556421
 20
10.3982176060922
 30
0.0
 10
11.99999999556414
 20
9.932166181476584
 30
0.0
 10
11.99999999556418
 20
9.38066082664941
 30
0.0
 10
11.99999999556423
 20
8.751617418409813
 30
0.0
 10
11.99999999556418
 20
8.104157671094507
 30
0.0
 10
11.9999999955642
 20
7.467805726818561
 30
0.0
 10
11.99999999556414
 20
6.849635779125118
 30
0.0
 10
11.99999999556418
 20
6.276668202402541
 30
0.0
 10
11.99999999556421
 20
5.760717399381432
 30
0.0
 10
11.99999999556423
 20
5.379213666927686
 30
0.0
 10
11.99999999556421
 20
5.205157980006722
 30
0.0
 10
11.99999999556421
 20
5.148283324914316
 30
0.0
  0
SPLINE
  5
AD
330
1F
100
AcDbEntity
  8
0
  6
Continuous
 62
     1
370
    15
100
AcDbSpline
210
0.0
220
0.0
230
1.0
 70
     8
 71
     3
 72
    48
 73
    44
 74
     0
 42
0.000000001
 43
0.00000001
 40
0.0
 40
0.0
 40
0.0
 40
0.0
 40
0.0625000000000002
 40
0.0625000000000002
 40
0.1250000000000003
 40
0.1250000000000003
 40
0.1875000000000004
 40
0.1875000000000004
 40
0.2187500000000009
 40
0.2187500000000009
 40
0.2500000000000013
 40
0.2500000000000013
 40
0.3125000000000023
 40
0.3125000000000023
 40
0.3750000000000032
 40
0.3750000000000032
 40
0.4375000000000041
 40
0.4375000000000041
 40
0.4687500000000046
 40
0.4687500000000046
 40
0.500000000000005
 40
0.500000000000005
 40
0.5625000000000051
 40
0.5625000000000051
 40
0.6250000000000053
 40
0.6250000000000053
 40
0.6875000000000054
 40
0.6875000000000054
 40
0.7187500000000052
 40
0.7187500000000052
 40
0.750000000000005
 40
0.750000000000005
 40
0.8125000000000037
 40
0.8125000000000037
 40
0.8750000000000023
 40
0.8750000000000023
 40
0.9062500000000018
 40
0.9062500000000018
 40
0.9375000000000012
 40
0.9375000000000012
 40
0.9687500000000006
 40
0.9687500000000006
 40
1.0
 40
1.0
 40
1.0
 40
1.0
 10
55.68799999556418
 20
-10.49790620402864
 30
0.0
 10
54.77785067529653
 20
-10.20223290015801
 30
0.0
 10
53.8636330889864
 20
-9.87905780707905
 30
0.0
 10
52.04810656843465
 20
-9.185279538219154
 30
0.0
 10
51.13561256643182
 20
-8.813282058053955
 30
0.0
 10
49.31383550217857
 20
-8.026345642267787
 30
0.0
 10
48.40723530987861
 20
-7.611879797195106
 30
0.0
 10
47.03969038769718
 20
-6.961309759605625
 30
0.0
 10
46.58370928020602
 20
-6.739813572929424
 30
0.0
 10
45.67411318683797
 20
-6.288841618420799
 30
0.0
 10
45.22109086001247
 20
-6.059474213521167
 30
0.0
 10
43.85581988397506
 20
-5.359105650040349
 30
0.0
 10
42.94161180726098
 20
-4.876488885761427
 30
0.0
 10
41.12618526251089
 20
-3.89102938230042
 30
0.0
 10
40.21358173551038
 20
-3.386145142338088
 30
0.0
 10
38.39185088299869
 20
-2.362199085944307
 30
0.0
 10
37.4852220203484
 20
-1.843639275606652
 30
0.0
 10
36.11767113996932
 20
-1.059251520830385
 30
0.0
 10
35.66169826454994
 20
-0.7969155011166426
 30
0.0
 10
34.75213891349819
 20
-0.2720143830936644
 30
0.0
 10
34.29910654548706
 20
-0.0095565859571921
 30
0.0
 10
32.9337890448384
 20
0.7785285329764507
 30
0.0
 10
32.01959079637568
 20
1.304028748736613
 30
0.0
 10
30.20426484978385
 20
2.343165249563897
 30
0.0
 10
29.2915508598013
 20
2.859008017322919
 30
0.0
 10
27.46986684864282
 20
3.872668491333008
 30
0.0
 10
26.56320837077644
 20
4.370086206542231
 30
0.0
 10
25.19565200585413
 20
5.098854129733897
 30
0.0
 10
24.73968752053182
 20
5.33867297315415
 30
0.0
 10
23.83016522509723
 20
5.810734174217322
 30
0.0
 10
23.37712171574876
 20
6.042896630574813
 30
0.0
 10
22.01175816156729
 20
6.728367724020403
 30
0.0
 10
21.09757005999982
 20
7.169837190270409
 30
0.0
 10
19.28234533380732
 20
8.011691967877312
 30
0.0
 10
18.36951994298541
 20
8.413908525394099
 30
0.0
 10
17.00329253779971
 20
8.98283449945366
 30
0.0
 10
16.54975548127803
 20
9.166574540330856
 30
0.0
 10
15.64109052808089
 20
9.522289282418566
 30
0.0
 10
15.18534057288871
 20
9.694333667229614
 30
0.0
 10
14.27363298901875
 20
10.02576221615076
 30
0.0
 10
13.81767705180937
 20
10.18514575801236
 30
0.0
 10
12.90819212525028
 20
10.49036260643295
 30
0.0
 10
12.45513637442551
 20
10.63615954553023
 30
0.0
 10
11.99999999556454
 20
10.77526115025061
 30
0.0
  0
SPLINE
  5
AE
330
1F
100
AcDbEntity
  8
0
  6
Continuous
 62
     1
370
    15
100
AcDbSpline
210
0.0
220
0.0
230
1.0
 70
     8
 71
     3
 72
    14
 73
    10
 74
     0
 42
0.000000001
 43
0.00000001
 40
0.0
 40
0.0
 40
0.0
 40
0.0
 40
0.25
 40
0.25
 40
0.5
 40
0.5
 40
0.75
 40
0.75
 40
1.0
 40
1.0
 40
1.0
 40
1.0
 10
56.44999999556418
 20
-10.07441674667496
 30
0.0
 10
56.44999999556418
 20
-10.16204704333279
 30
0.0
 10
56.42730242631448
 20
-10.24378114953462
 30
0.0
 10
56.34352934646752
 20
-10.38236920500866
 30
0.0
 10
56.28214150650648
 20
-10.43892409837501
 30
0.0
 10
56.13646382372453
 20
-10.51571554747875
 30
0.0
 10
56.05145643376468
 20
-10.53659597088042
 30
0.0
 10
55.87343707380426
 20
-10.54250318825369
 30
0.0
 10
55.78055063622558
 20
-10.52797242842757
 30
0.0
 10
55.68799999556421
 20
-10.49790620402865
 30
0.0
  0
LINE
  5
AF
330
1F
100
AcDbEntity
  8
0
  6
Continuous
 62
     1
370
    15
100
AcDbLine
 10
56.44999999556418
 20
-0.4913360943438586
 30
0.0
 11
56.44999999556418
 21
6.404299880635973
 31
0.0
  0
SPLINE
  5
B0
330
1F
100
AcDbEntity
  8
0
  6
Continuous
 62
     1
370
    15
100
AcDbSpline
210
0.0
220
0.0
230
1.0
 70
     8
 71
     3
 72
    14
 73
    10
 74
     0
 42
0.000000001
 43
0.00000001
 40
0.0
 40
0.0
 40
0.0
 40
0.0
 40
0.25
 40
0.25
 40
0.5
 40
0.5
 40
0.75
 40
0.75
 40
1.0
 40
1.0
 40
1.0
 40
1.0
 10
55.68799999556418
 20
-0.0582384045191895
 30
0.0
 10
55.78322446184914
 20
-0.1132163852971438
 30
0.0
 10
55.87424501531858
 20
-0.1684112538022343
 30
0.0
 10
56.04935167874994
 20
-0.2773031605989839
 30
0.0
 10
56.13165528131034
 20
-0.3299381840261248
 30
0.0
 10
56.27559725247052
 20
-0.4210109226515866
 30
0.0
 10
56.33769645067675
 20
-0.4596782466705048
 30
0.0
 10
56.42588122203235
 20
-0.5081750930031249
 30
0.0
 10
56.44999999556421
 20
-0.5167164890913682
 30
0.0
 10
56.44999999556421
 20
-0.506849872150406
 30
0.0
  0
SPLINE
  5
B1
330
1F
100
AcDbEntity
  8
0
  6
Continuous
 62
     1
370
    15
100
AcDbSpline
210
0.0
220
0.0
230
1.0
 70
     8
 71
     3
 72
    19
 73
    15
 74
     0
 42
0.000000001
 43
0.00000001
 40
0.0
 40
0.0
 40
0.0
 40
0.0
 40
0.004065735995384
 40
0.0923082563531904
 40
0.1805827834484507
 40
0.2688495146604635
 40
0.3570868430164765
 40
0.4453092152797405
 40
0.5377360731104384
 40
0.6301687538625464
 40
0.7226133277488771
 40
0.815075843118236
 40
0.9075476071982517
 40
1.0
 40
1.0
 40
1.0
 40
1.0
 10
21.03134749290626
 20
12.69555476604923
 30
0.0
 10
21.07831268942611
 20
12.69733839207649
 30
0.0
 10
22.14460804282712
 20
12.73783374365596
 30
0.0
 10
24.23068028545577
 20
12.58990271966545
 30
0.0
 10
27.28973523923665
 20
12.2345095157896
 30
0.0
 10
30.34863561336871
 20
11.61505549707024
 30
0.0
 10
33.4066859683337
 20
10.77891925123851
 30
0.0
 10
36.51265350832536
 20
9.716237550216027
 30
0.0
 10
39.66726691126992
 20
8.439208956712406
 30
0.0
 10
42.87064413213908
 20
6.96364429096865
 30
0.0
 10
46.07452632991436
 20
5.34059547236911
 30
0.0
 10
49.27899301315021
 20
3.604455442396677
 30
0.0
 10
52.48367064101983
 20
1.792070356230606
 30
0.0
 10
54.61996480480804
 20
0.558488108765888
 30
0.0
 10
55.68799999556417
 20
-0.0582384045191825
 30
0.0
  0
SPLINE
  5
B2
330
1F
100
AcDbEntity
  8
0
  6
Continuous
 62
     1
370
    15
100
AcDbSpline
210
0.0
220
0.0
230
1.0
 70
     8
 71
     3
 72
    17
 73
    13
 74
     0
 42
0.000000001
 43
0.00000001
 40
0.0
 40
0.0
 40
0.0
 40
0.0
 40
0.1091202068254101
 40
0.2182647651565992
 40
0.3273710426650681
 40
0.4364511847173714
 40
0.5455230944065469
 40
0.6546047017223042
 40
0.7637139049719379
 40
0.8728595509011782
 40
0.9871689866479751
 40
1.0
 40
1.0
 40
1.0
 40
1.0
 10
55.68799999556423
 20
7.146863090719788
 30
0.0
 10
54.66840993688044
 20
7.620139921386867
 30
0.0
 10
52.62900228554891
 20
8.566799200221325
 30
0.0
 10
49.56983841539338
 20
9.784028844951603
 30
0.0
 10
46.51141604264262
 20
10.82268924158985
 30
0.0
 10
43.45378644769277
 20
11.64961361749017
 30
0.0
 10
40.39644345922741
 20
12.25292904842629
 30
0.0
 10
37.33876759688325
 20
12.61792850451283
 30
0.0
 10
34.28026568373827
 20
12.74594824260517
 30
0.0
 10
31.17259345597255
 20
12.60169437324612
 30
0.0
 10
28.96473806119841
 20
12.38584744567756
 30
0.0
 10
27.77678198121509
 20
12.14172078495722
 30
0.0
 10
27.65689346082739
 20
12.1170835238378
 30
0.0
  0
SPLINE
  5
B3
330
1F
100
AcDbEntity
  8
0
  6
Continuous
 62
     1
370
    15
100
AcDbSpline
210
0.0
220
0.0
230
1.0
 70
     8
 71
     3
 72
    14
 73
    10
 74
     0
 42
0.000000001
 43
0.00000001
 40
0.0
 40
0.0
 40
0.0
 40
0.0
 40
0.25
 40
0.25
 40
0.5
 40
0.5
 40
0.75
 40
0.75
 40
1.0
 40
1.0
 40
1.0
 40
1.0
 10
56.44999999556418
 20
6.404299880635973
 30
0.0
 10
56.4499999955642
 20
6.465934940285502
 30
0.0
 10
56.42730242631446
 20
6.532796482252864
 30
0.0
 10
56.34352934646753
 20
6.66928736838519
 30
0.0
 10
56.28214150650653
 20
6.739068797333992
 30
0.0
 10
56.13646382372463
 20
6.871706799252938
 30
0.0
 10
56.05145643376476
 20
6.935490836126351
 30
0.0
 10
55.87343707380429
 20
7.050915604303296
 30
0.0
 10
55.78055063622559
 20
7.102689540300179
 30
0.0
 10
55.68799999556421
 20
7.14686309071977
 30
0.0
  0
SPLINE
  5
B4
330
1F
100
AcDbEntity
  8
0
  6
Continuous
 62
     1
370
    15
100
AcDbSpline
210
0.0
220
0.0
230
1.0
 70
     8
 71
     3
 72
    18
 73
    14
 74
     0
 42
0.000000001
 43
0.00000001
 40
0.0
 40
0.0
 40
0.0
 40
0.0
 40
0.0928535360129448
 40
0.1856956302679509
 40
0.2785415431948803
 40
0.3714065227461754
 40
0.4643051856624414
 40
0.55719564431918
 40
0.6500551598930365
 40
0.7428989359204506
 40
0.8401674435246638
 40
0.9374420790757615
 40
1.0
 40
1.0
 40
1.0
 40
1.0
 10
11.99999999556418
 20
-4.647995308357252
 30
0.0
 10
13.01922875246334
 20
-5.186988933180456
 30
0.0
 10
15.05756067310473
 20
-6.264909766028423
 30
0.0
 10
18.11491320852931
 20
-7.737040214395246
 30
0.0
 10
21.17243689933241
 20
-9.066292007837045
 30
0.0
 10
24.23067480739384
 20
-10.2189836369717
 30
0.0
 10
27.28973672033473
 20
-11.17469214342856
 30
0.0
 10
30.3486351675751
 20
-11.91489718588642
 30
0.0
 10
33.40668627088237
 20
-12.42450610468826
 30
0.0
 10
36.51265272695533
 20
-12.7012423068926
 30
0.0
 10
39.66726987418615
 20
-12.71315707379383
 30
0.0
 10
42.4894172427141
 20
-12.52111843094855
 30
0.0
 10
44.24393910406452
 20
-12.21708374812576
 30
0.0
 10
44.93065301443824
 20
-12.09808560365706
 30
0.0
  0
SPLINE
  5
B5
330
1F
100
AcDbEntity
  8
외형선
  6
Continuous
370
    15
100
AcDbSpline
210
0.0
220
0.0
230
1.0
 70
    24
 71
     3
 72
    30
 73
    26
 74
     0
 42
0.000000001
 43
0.00000001
 40
0.0
 40
0.0
 40
0.0
 40
0.0
 40
0.1249999999999993
 40
0.1249999999999993
 40
0.1562499999999994
 40
0.1562499999999994
 40
0.1874999999999996
 40
0.1874999999999996
 40
0.2499999999999998
 40
0.2499999999999998
 40
0.3749999999999999
 40
0.3749999999999999
 40
0.5
 40
0.5
 40
0.625
 40
0.625
 40
0.6875
 40
0.6875
 40
0.75
 40
0.75
 40
0.8125
 40
0.8125
 40
0.875
 40
0.875
 40
1.0
 40
1.0
 40
1.0
 40
1.0
 10
11.99999999556418
 20
2.865377825035133
 30
0.0
 10
11.99999999556417
 20
2.835436515802948
 30
0.0
 10
11.99999999556417
 20
2.750156098748473
 30
0.0
 10
11.99999999556415
 20
2.614868296351673
 30
0.0
 10
11.99999999556412
 20
2.586307198017003
 30
0.0
 10
11.99999999556417
 20
2.526909435173224
 30
0.0
 10
11.99999999556415
 20
2.496700810134039
 30
0.0
 10
11.99999999556417
 20
2.39781744649303
 30
0.0
 10
11.99999999556415
 20
2.320763423790652
 30
0.0
 10
11.99999999556418
 20
2.048471731199051
 30
0.0
 10
11.99999999556414
 20
1.811475303250915
 30
0.0
 10
11.99999999556418
 20
1.189919052689143
 30
0.0
 10
11.9999999955642
 20
0.8034069038214282
 30
0.0
 10
11.99999999556418
 20
-0.1121839405184358
 30
0.0
 10
11.9999999955642
 20
-0.6422525907086427
 30
0.0
 10
11.99999999556418
 20
-1.465984732455795
 30
0.0
 10
11.99999999556422
 20
-1.744404937883313
 30
0.0
 10
11.99999999556418
 20
-2.288295139469311
 30
0.0
 10
11.99999999556417
 20
-2.553590801162881
 30
0.0
 10
11.99999999556418
 20
-3.050710579681567
 30
0.0
 10
11.9999999955642
 20
-3.282392127887582
 30
0.0
 10
11.99999999556418
 20
-3.697211880116658
 30
0.0
 10
11.99999999556418
 20
-3.880305254013739
 30
0.0
 10
11.9999999955642
 20
-4.346858460123309
 30
0.0
 10
11.9999999955642
 20
-4.544893841547688
 30
0.0
 10
11.9999999955642
 20
-4.647995308356055
 30
0.0
  0
SPLINE
  5
B6
330
1F
100
AcDbEntity
  8
0
  6
Continuous
 62
     1
370
    15
100
AcDbSpline
210
0.0
220
0.0
230
1.0
 70
     8
 71
     3
 72
    20
 73
    16
 74
     0
 42
0.000000001
 43
0.00000001
 40
0.0
 40
0.0
 40
0.0
 40
0.0
 40
0.0502351445582243
 40
0.127550053082212
 40
0.2048464414949028
 40
0.2821369962890639
 40
0.3594344230169866
 40
0.4367514047801655
 40
0.5140942105610313
 40
0.5950961819416997
 40
0.6760839974656278
 40
0.7570629628121214
 40
0.8380383999363622
 40
0.9190156372872542
 40
1.0
 40
1.0
 40
1.0
 40
1.0
 10
51.5568361895367
 20
-12.67112384660632
 30
0.0
 10
50.89439645545218
 20
-12.67215848892074
 30
0.0
 10
49.21242213270857
 20
-12.67478550797855
 30
0.0
 10
46.51141547622667
 20
-12.40036657872827
 30
0.0
 10
43.4537865754721
 20
-11.88709771613257
 30
0.0
 10
40.39644351441353
 20
-11.13460863003137
 30
0.0
 10
37.33876724827783
 20
-10.16986705380521
 30
0.0
 10
34.28026702352884
 20
-9.008012712773409
 30
0.0
 10
31.17258834355699
 20
-7.651652478337374
 30
0.0
 10
28.01673123894419
 20
-6.117156703463545
 30
0.0
 10
24.81301674962378
 20
-4.429795554656835
 30
0.0
 10
21.60972873965695
 20
-2.648353765913917
 30
0.0
 10
18.4066046327771
 20
-0.8120246584849988
 30
0.0
 10
15.20340260006684
 20
1.045901601397987
 30
0.0
 10
13.06783218126236
 20
2.258867962683673
 30
0.0
 10
11.99999999556454
 20
2.865377825034516
 30
0.0
  0
LINE
  5
B7
330
1F
100
AcDbEntity
  8
0
  6
Continuous
 62
     1
370
    15
100
AcDbLine
 10
56.44999999556418
 20
-2.595554598871781
 30
0.0
 11
56.44999999556418
 21
-0.5068498721504042
 31
0.0
  0
LINE
  5
B8
330
1F
100
AcDbEntity
  8
외형선
  6
Continuous
370
    15
100
AcDbLine
 10
11.9999999955642
 20
10.77526115025071
 30
0.0
 11
11.9999999955642
 21
11.81946043318746
 31
0.0
  0
LINE
  5
B9
330
1F
100
AcDbEntity
  8
외형선
  6
Continuous
370
    15
100
AcDbLine
 10
11.99999999556418
 20
2.865377825034711
 30
0.0
 11
11.99999999556417
 21
5.070601545661849
 31
0.0
  0
SPLINE
  5
BA
330
1F
100
AcDbEntity
  8
0
  6
Continuous
 62
     1
370
    15
100
AcDbSpline
210
0.0
220
0.0
230
1.0
 70
     8
 71
     3
 72
    28
 73
    24
 74
     0
 42
0.000000001
 43
0.00000001
 40
0.0
 40
0.0
 40
0.0
 40
0.0
 40
0.125
 40
0.125
 40
0.1875
 40
0.1875
 40
0.25
 40
0.25
 40
0.3749999999999986
 40
0.3749999999999986
 40
0.4374999999999986
 40
0.4374999999999986
 40
0.4999999999999986
 40
0.4999999999999986
 40
0.6249999999999986
 40
0.6249999999999986
 40
0.7499999999999986
 40
0.7499999999999986
 40
0.8749999999999986
 40
0.8749999999999986
 40
0.9374999999999993
 40
0.9374999999999993
 40
1.0
 40
1.0
 40
1.0
 40
1.0
 10
34.28062830376632
 20
-12.69905827528618
 30
0.0
 10
33.35378471549842
 20
-12.69905827244974
 30
0.0
 10
32.4210405655564
 20
-12.66502746220855
 30
0.0
 10
31.02983012156096
 20
-12.56351207522618
 30
0.0
 10
30.56761143289328
 20
-12.52131272802867
 30
0.0
 10
29.63889918256845
 20
-12.42011723748897
 30
0.0
 10
29.17360869752076
 20
-12.36114468361674
 30
0.0
 10
27.77912856486433
 20
-12.15960913786614
 30
0.0
 10
26.85478004909661
 20
-11.99266785819974
 30
0.0
 10
25.46016761625203
 20
-11.69442017457713
 30
0.0
 10
24.99490518404379
 20
-11.58708242849788
 30
0.0
 10
24.06639278449514
 20
-11.35722889658144
 30
0.0
 10
23.60428395289908
 20
-11.23482680761438
 30
0.0
 10
22.21267760026953
 20
-10.84491769613856
 30
0.0
 10
21.27995740393999
 20
-10.55473826760688
 30
0.0
 10
19.42689202489431
 20
-9.92092384350756
 30
0.0
 10
18.49730546687412
 20
-9.576291042055951
 30
0.0
 10
16.63876024968981
 20
-8.837760235198465
 30
0.0
 10
15.71412187677696
 20
-8.444515933443526
 30
0.0
 10
14.31923619231301
 20
-7.821283147892349
 30
0.0
 10
13.85411310424792
 20
-7.608140115313967
 30
0.0
 10
12.926337464482
 20
-7.172360938083211
 30
0.0
 10
12.46424067108076
 20
-6.949824280023006
 30
0.0
 10
11.99999999556454
 20
-6.722453319198228
 30
0.0
  0
LINE
  5
BB
330
1F
100
AcDbEntity
  8
외형선
  6
Continuous
370
    15
100
AcDbLine
 10
11.99999999556418
 20
-6.722453319198057
 30
0.0
 11
11.99999999556417
 21
-4.647995308357256
 31
0.0
  0
SPLINE
  5
BC
330
1F
100
AcDbEntity
  8
0
  6
Continuous
 62
     1
370
    15
100
AcDbSpline
210
0.0
220
0.0
230
1.0
 70
     8
 71
     3
 72
    13
 73
     9
 74
     0
 42
0.000000001
 43
0.00000001
 40
0.0
 40
0.0
 40
0.0
 40
0.0
 40
0.1952954102192448
 40
0.3905667554119296
 40
0.5858461322761235
 40
0.7811656112666016
 40
0.9765559352336082
 40
1.0
 40
1.0
 40
1.0
 40
1.0
 10
11.99999999556417
 20
-11.64330789902174
 30
0.0
 10
13.01922880999185
 20
-11.85662778512379
 30
0.0
 10
15.0575608456832
 20
-12.2832412712584
 30
0.0
 10
18.11491251830296
 20
-12.62445978954239
 30
0.0
 10
21.17243948803517
 20
-12.74437729543096
 30
0.0
 10
24.23066513922221
 20
-12.59078767369893
 30
0.0
 10
26.39237526331282
 20
-12.37266611044363
 30
0.0
 10
27.53453240852332
 20
-12.14011376498694
 30
0.0
 10
27.65689346082726
 20
-12.11520007441016
 30
0.0
  0
SPLINE
  5
BD
330
1F
100
AcDbEntity
  8
외형선
  6
Continuous
370
    15
100
AcDbSpline
210
0.0
220
0.0
230
1.0
 70
    24
 71
     3
 72
    15
 73
    11
 74
     0
 42
0.000000001
 43
0.00000001
 40
0.0
 40
0.0
 40
0.0
 40
0.0
 40
0.1122134299008715
 40
0.2315141605317475
 40
0.3542746204329247
 40
0.4735753510637981
 40
0.5963358109649776
 40
0.7156365415958554
 40
0.8383970014970339
 40
1.0
 40
1.0
 40
1.0
 40
1.0
 10
11.99999999556421
 20
-6.800135098450523
 30
0.0
 10
11.99999999556423
 20
-6.939162872328875
 30
0.0
 10
11.99999999556425
 20
-7.225999291004229
 30
0.0
 10
11.9999999955641
 20
-7.753061473563173
 30
0.0
 10
11.99999999556423
 20
-8.33662027056621
 30
0.0
 10
11.99999999556422
 20
-8.963780672769973
 30
0.0
 10
11.99999999556415
 20
-9.603527195995444
 30
0.0
 10
11.9999999955642
 20
-10.24837584089645
 30
0.0
 10
11.99999999556422
 20
-10.94723616484634
 30
0.0
 10
11.99999999556418
 20
-11.39107529795118
 30
0.0
 10
11.99999999556417
 20
-11.64330789902174
 30
0.0
  0
SPLINE
  5
BE
330
1F
100
AcDbEntity
  8
0
  6
Continuous
 62
     1
370
    15
100
AcDbSpline
210
0.0
220
0.0
230
1.0
 70
     8
 71
     3
 72
    14
 73
    10
 74
     0
 42
0.000000001
 43
0.00000001
 40
0.0
 40
0.0
 40
0.0
 40
0.0
 40
0.25
 40
0.25
 40
0.5
 40
0.5
 40
0.75
 40
0.75
 40
1.0
 40
1.0
 40
1.0
 40
1.0
 10
55.68799999556418
 20
8.939253674900812
 30
0.0
 10
55.78322446184914
 20
8.90019721672436
 30
0.0
 10
55.87424501531858
 20
8.848584980078536
 30
0.0
 10
56.04935167874992
 20
8.722542813846443
 30
0.0
 10
56.13165528131028
 20
8.648888823735698
 30
0.0
 10
56.27559725247047
 20
8.488965585633377
 30
0.0
 10
56.33769645067676
 20
8.402089017969157
 30
0.0
 10
56.42588122203239
 20
8.229044037661323
 30
0.0
 10
56.44999999556422
 20
8.146557191928368
 30
0.0
 10
56.44999999556421
 20
8.075679637983447
 30
0.0
  0
LINE
  5
BF
330
1F
100
AcDbEntity
  8
0
  6
Continuous
 62
     1
370
    15
100
AcDbLine
 10
56.44999999556418
 20
6.404299880635973
 30
0.0
 11
56.44999999556418
 21
8.075679637983447
 31
0.0
  0
SPLINE
  5
C0
330
1F
100
AcDbEntity
  8
0
  6
Continuous
 62
     1
370
    15
100
AcDbSpline
210
0.0
220
0.0
230
1.0
 70
     8
 71
     3
 72
    13
 73
     9
 74
     0
 42
0.000000001
 43
0.00000001
 40
0.0
 40
0.0
 40
0.0
 40
0.0
 40
0.0781970942478803
 40
0.2625175846592108
 40
0.4468617912314776
 40
0.6312417750085526
 40
0.8156402016877495
 40
1.0
 40
1.0
 40
1.0
 40
1.0
 10
38.30821982601367
 20
12.66805919773111
 30
0.0
 10
38.76121192070738
 20
12.67587936475097
 30
0.0
 10
40.28196396031318
 20
12.70213265942169
 30
0.0
 10
42.87064723743412
 20
12.46248157330488
 30
0.0
 10
46.07452549791629
 20
11.96293609447248
 30
0.0
 10
49.27899323506086
 20
11.19035430687297
 30
0.0
 10
52.48367058555338
 20
10.19878619565796
 30
0.0
 10
54.61996478632052
 20
9.359068527628931
 30
0.0
 10
55.68799999556417
 20
8.939253674900819
 30
0.0
  0
SPLINE
  5
C1
330
1F
100
AcDbEntity
  8
0
  6
Continuous
 62
     1
370
    15
100
AcDbSpline
210
0.0
220
0.0
230
1.0
 70
     8
 71
     3
 72
    11
 73
     7
 74
     0
 42
0.000000001
 43
0.00000001
 40
0.0
 40
0.0
 40
0.0
 40
0.0
 40
0.2843454939167161
 40
0.568754443000353
 40
0.8530636398954569
 40
1.0
 40
1.0
 40
1.0
 40
1.0
 10
55.6879999955642
 20
12.47767774550257
 30
0.0
 10
54.66840971429883
 20
12.56493006846919
 30
0.0
 10
52.62900161775446
 20
12.73945418582308
 30
0.0
 10
49.56984108687621
 20
12.67969001204345
 30
0.0
 10
47.0037362485626
 20
12.47616725055022
 30
0.0
 10
45.45749637567933
 20
12.19557424615322
 30
0.0
 10
44.93065301443824
 20
12.0999690530847
 30
0.0
  0
SPLINE
  5
C2
330
1F
100
AcDbEntity
  8
0
  6
Continuous
 62
     1
370
    15
100
AcDbSpline
210
0.0
220
0.0
230
1.0
 70
     8
 71
     3
 72
    14
 73
    10
 74
     0
 42
0.000000001
 43
0.00000001
 40
0.0
 40
0.0
 40
0.0
 40
0.0
 40
0.25
 40
0.25
 40
0.5
 40
0.5
 40
0.75
 40
0.75
 40
1.0
 40
1.0
 40
1.0
 40
1.0
 10
56.44999999556418
 20
11.65315399713685
 30
0.0
 10
56.44999999556418
 20
11.758700542778
 30
0.0
 10
56.42730242631442
 20
11.86377353325325
 30
0.0
 10
56.34352934646746
 20
12.05828371822473
 30
0.0
 10
56.28214150650656
 20
12.14761698844396
 30
0.0
 10
56.13646382372468
 20
12.29570597344229
 30
0.0
 10
56.0514564337647
 20
12.35557278742828
 30
0.0
 10
55.87343707380426
 20
12.44136745718566
 30
0.0
 10
55.78055063622558
 20
12.46770235960893
 30
0.0
 10
55.68799999556421
 20
12.47767774550256
 30
0.0
  0
LINE
  5
C3
330
1F
100
AcDbEntity
  8
0
  6
Continuous
 62
     1
370
    15
100
AcDbLine
 10
56.44999999556418
 20
8.059350413660344
 30
0.0
 11
56.44999999556418
 21
11.65315399713685
 31
0.0
  0
LINE
  5
C4
330
1F
100
AcDbEntity
  8
0
  6
Continuous
 62
     1
370
    15
100
AcDbLine
 10
56.44999999556418
 20
-10.07441674667496
 30
0.0
 11
56.44999999556418
 21
-8.791921951700404
 31
0.0
  0
SPLINE
  5
C5
330
1F
100
AcDbEntity
  8
0
  6
Continuous
 62
     1
370
    15
100
AcDbSpline
210
0.0
220
0.0
230
1.0
 70
     8
 71
     3
 72
     9
 73
     5
 74
     0
 42
0.000000001
 43
0.00000001
 40
0.0
 40
0.0
 40
0.0
 40
0.0
 40
0.3598371706576678
 40
0.9999999999999999
 40
0.9999999999999999
 40
0.9999999999999999
 40
0.9999999999999999
 10
17.00413692076354
 20
-12.66592300559556
 30
0.0
 10
16.40392076045654
 20
-12.67182607014499
 30
0.0
 10
14.73589919611963
 20
-12.68823089163311
 30
0.0
 10
13.06783359213803
 20
-12.49531098510129
 30
0.0
 10
11.99999999556454
 20
-12.37181083189941
 30
0.0
  0
LINE
  5
C6
330
1F
100
AcDbEntity
  8
외형선
  6
Continuous
370
    15
100
AcDbLine
 10
11.99999999556418
 20
-12.37181083189937
 30
0.0
 11
11.99999999556417
 21
-11.64330789902174
 31
0.0
  0
SPLINE
  5
C7
330
1F
100
AcDbEntity
  8
0
  6
Continuous
 62
     1
370
    15
100
AcDbSpline
210
0.0
220
0.0
230
1.0
 70
     8
 71
     3
 72
    14
 73
    10
 74
     0
 42
0.000000001
 43
0.00000001
 40
0.0
 40
0.0
 40
0.0
 40
0.0
 40
0.25
 40
0.25
 40
0.5
 40
0.5
 40
0.75
 40
0.75
 40
1.0
 40
1.0
 40
1.0
 40
1.0
 10
55.68799999556418
 20
12.70080383862294
 30
0.0
 10
55.78322446184914
 20
12.70054764654949
 30
0.0
 10
55.87424501531858
 20
12.68275179000565
 30
0.0
 10
56.04935167874996
 20
12.61339315588609
 30
0.0
 10
56.13165528131033
 20
12.56186570757572
 30
0.0
 10
56.2755972524705
 20
12.42677283393826
 30
0.0
 10
56.33769645067676
 20
12.34257813771402
 30
0.0
 10
56.42588122203235
 20
12.14635242599471
 30
0.0
 10
56.44999999556421
 20
12.03823980613002
 30
0.0
 10
56.44999999556421
 20
11.92813719113232
 30
0.0
  0
LINE
  5
C8
330
1F
100
AcDbEntity
  8
0
  6
Continuous
 62
     1
370
    15
100
AcDbLine
 10
56.44999999556418
 20
11.65315399713685
 30
0.0
 11
56.44999999556418
 21
11.92813719113232
 31
0.0
  0
LINE
  5
C9
330
1F
100
AcDbEntity
  8
0
  6
Continuous
 62
     1
370
    15
100
AcDbLine
 10
55.58565326998264
 20
12.69678289355328
 30
0.0
 11
55.6879999955642
 21
12.70080383862294
 31
0.0
  0
SPLINE
  5
CA
330
1F
100
AcDbEntity
  8
외형선
  6
Continuous
370
    15
100
AcDbSpline
210
0.0
220
0.0
230
1.0
 70
     8
 71
     3
 72
     8
 73
     4
 74
     0
 42
0.000000001
 43
0.00000001
 40
0.0
 40
0.0
 40
0.0
 40
0.0
 40
1.0
 40
1.0
 40
1.0
 40
1.0
 10
11.99999999556418
 20
12.37369428132699
 30
0.0
 10
11.83348006367529
 20
12.35201188274482
 30
0.0
 10
11.66682936755952
 20
12.32926027961656
 30
0.0
 10
11.50011228284463
 20
12.30544701635606
 30
0.0
  0
LINE
  5
CB
330
1F
100
AcDbEntity
  8
외형선
  6
Continuous
370
    15
100
AcDbLine
 10
11.5001122828446
 20
11.92199734048074
 30
0.0
 11
11.5001122828446
 21
12.70094172471382
 31
0.0
  0
SPLINE
  5
CC
330
1F
100
AcDbEntity
  8
외형선
  6
Continuous
370
    15
100
AcDbSpline
210
0.0
220
0.0
230
1.0
 70
     8
 71
     3
 72
     8
 73
     4
 74
     0
 42
0.000000001
 43
0.00000001
 40
0.0
 40
0.0
 40
0.0
 40
0.0
 40
1.0
 40
1.0
 40
1.0
 40
1.0
 10
11.99999999556417
 20
11.81946043318746
 30
0.0
 10
11.83348006367528
 20
11.8546506424308
 30
0.0
 10
11.66682936755951
 20
11.88883417060733
 30
0.0
 10
11.50011228284461
 20
11.92199658973924
 30
0.0
  0
SPLINE
  5
CD
330
1F
100
AcDbEntity
  8
외형선
  6
Continuous
370
    15
100
AcDbSpline
210
0.0
220
0.0
230
1.0
 70
     8
 71
     3
 72
     8
 73
     4
 74
     0
 42
0.000000001
 43
0.00000001
 40
0.0
 40
0.0
 40
0.0
 40
0.0
 40
1.0
 40
1.0
 40
1.0
 40
1.0
 10
11.99999999556418
 20
10.77526115025071
 30
0.0
 10
11.83348006367529
 20
10.82615400527065
 30
0.0
 10
11.66682936755952
 20
10.87613404516256
 30
0.0
 10
11.50011228284463
 20
10.92518083632625
 30
0.0
  0
LINE
  5
CE
330
1F
100
AcDbEntity
  8
외형선
  6
Continuous
370
    15
100
AcDbLine
 10
11.5001122828446
 20
5.333754980873262
 30
0.0
 11
11.50011228284461
 21
10.92520348387156
 31
0.0
  0
SPLINE
  5
CF
330
1F
100
AcDbEntity
  8
외형선
  6
Continuous
370
    15
100
AcDbSpline
210
0.0
220
0.0
230
1.0
 70
     8
 71
     3
 72
     8
 73
     4
 74
     0
 42
0.000000001
 43
0.00000001
 40
0.0
 40
0.0
 40
0.0
 40
0.0
 40
1.0
 40
1.0
 40
1.0
 40
1.0
 10
11.99999999556417
 20
5.070601545661854
 30
0.0
 10
11.83348006367528
 20
5.158742894496223
 30
0.0
 10
11.66682936755951
 20
5.246471533829894
 30
0.0
 10
11.50011228284461
 20
5.333753004966883
 30
0.0
  0
SPLINE
  5
D0
330
1F
100
AcDbEntity
  8
외형선
  6
Continuous
370
    15
100
AcDbSpline
210
0.0
220
0.0
230
1.0
 70
     8
 71
     3
 72
     8
 73
     4
 74
     0
 42
0.000000001
 43
0.00000001
 40
0.0
 40
0.0
 40
0.0
 40
0.0
 40
1.0
 40
1.0
 40
1.0
 40
1.0
 10
11.99999999556418
 20
2.865377825034706
 30
0.0
 10
11.83348006367529
 20
2.959033589413964
 30
0.0
 10
11.66682936755952
 20
3.052467642805313
 30
0.0
 10
11.50011228284463
 20
3.14564354332038
 30
0.0
  0
SPLINE
  5
D1
330
1F
100
AcDbEntity
  8
외형선
  6
Continuous
370
    15
100
AcDbSpline
210
0.0
220
0.0
230
1.0
 70
     8
 71
     3
 72
     8
 73
     4
 74
     0
 42
0.000000001
 43
0.00000001
 40
0.0
 40
0.0
 40
0.0
 40
0.0
 40
1.0
 40
1.0
 40
1.0
 40
1.0
 10
11.99999999556417
 20
-4.647995308357252
 30
0.0
 10
11.83348006367528
 20
-4.558534826673168
 30
0.0
 10
11.66682936755951
 20
-4.468651323295482
 30
0.0
 10
11.50011228284461
 20
-4.378379102201584
 30
0.0
  0
SPLINE
  5
D2
330
1F
100
AcDbEntity
  8
외형선
  6
Continuous
370
    15
100
AcDbSpline
210
0.0
220
0.0
230
1.0
 70
     8
 71
     3
 72
     8
 73
     4
 74
     0
 42
0.000000001
 43
0.00000001
 40
0.0
 40
0.0
 40
0.0
 40
0.0
 40
1.0
 40
1.0
 40
1.0
 40
1.0
 10
11.99999999556418
 20
-6.722453319198062
 30
0.0
 10
11.83348006367529
 20
-6.640896922038436
 30
0.0
 10
11.66682936755952
 20
-6.558741256436808
 30
0.0
 10
11.50011228284463
 20
-6.476017425405766
 30
0.0
  0
LINE
  5
D3
330
1F
100
AcDbEntity
  8
외형선
  6
Continuous
370
    15
100
AcDbLine
 10
11.5001122828446
 20
-11.52516354874827
 30
0.0
 11
11.50011228284461
 21
-6.47597922720494
 31
0.0
  0
SPLINE
  5
D4
330
1F
100
AcDbEntity
  8
외형선
  6
Continuous
370
    15
100
AcDbSpline
210
0.0
220
0.0
230
1.0
 70
     8
 71
     3
 72
     8
 73
     4
 74
     0
 42
0.000000001
 43
0.00000001
 40
0.0
 40
0.0
 40
0.0
 40
0.0
 40
1.0
 40
1.0
 40
1.0
 40
1.0
 10
11.99999999556417
 20
-11.64330789902173
 30
0.0
 10
11.83348006367528
 20
-11.60493302136204
 30
0.0
 10
11.66682936755951
 20
-11.56554719118538
 30
0.0
 10
11.50011228284461
 20
-11.52516446294583
 30
0.0
  0
SPLINE
  5
D5
330
1F
100
AcDbEntity
  8
외형선
  6
Continuous
370
    15
100
AcDbSpline
210
0.0
220
0.0
230
1.0
 70
     8
 71
     3
 72
     8
 73
     4
 74
     0
 42
0.000000001
 43
0.00000001
 40
0.0
 40
0.0
 40
0.0
 40
0.0
 40
1.0
 40
1.0
 40
1.0
 40
1.0
 10
11.99999999556418
 20
-12.37181083189937
 30
0.0
 10
11.83348006367529
 20
-12.3501284333172
 30
0.0
 10
11.66682936755952
 20
-12.32737683018894
 30
0.0
 10
11.50011228284463
 20
-12.30356356692844
 30
0.0
  0
LINE
  5
D6
330
1F
100
AcDbEntity
  8
외형선
  6
Continuous
370
    15
100
AcDbLine
 10
11.5001122828446
 20
-12.69905827528618
 30
0.0
 11
11.50011228284461
 21
-12.30355257095448
 31
0.0
  0
LINE
  5
D7
330
1F
100
AcDbEntity
  8
외형선
  6
Continuous
370
    15
100
AcDbLine
 10
-48.96000000443582
 20
0.00094172471382
 30
0.0
 11
-48.96000000443582
 21
12.70094172471383
 31
0.0
  0
LINE
  5
D8
330
1F
100
AcDbEntity
  8
외형선
  6
Continuous
370
    15
100
AcDbLine
 10
-48.96000000443582
 20
-12.69905827528619
 30
0.0
 11
-48.96000000443582
 21
0.00094172471382
 31
0.0
  0
LINE
  5
D9
330
1F
100
AcDbEntity
  8
외형선
  6
Continuous
370
    15
100
AcDbLine
 10
11.5001122828446
 20
-4.378377058589486
 30
0.0
 11
11.50011228284461
 21
3.14568656776008
 31
0.0
  0
LINE
  5
DA
330
1F
100
AcDbEntity
  8
외형선
  6
Continuous
370
    15
100
AcDbLine
 10
-51.50000000443583
 20
0.00094172471382
 30
0.0
 11
-51.50000000443583
 21
10.16094172471383
 31
0.0
  0
LINE
  5
DB
330
1F
100
AcDbEntity
  8
외형선
  6
Continuous
370
    15
100
AcDbLine
 10
-51.50000000443583
 20
-10.15905827528618
 30
0.0
 11
-51.50000000443583
 21
0.00094172471382
 31
0.0
  0
SPLINE
  5
DC
330
1F
100
AcDbEntity
  8
외형선
  6
Continuous
370
    15
100
AcDbSpline
210
0.0
220
0.0
230
1.0
 70
    24
 71
     3
 72
    30
 73
    26
 74
     0
 42
0.000000001
 43
0.00000001
 40
0.0
 40
0.0
 40
0.0
 40
0.0
 40
0.1249999999999999
 40
0.1249999999999999
 40
0.1875
 40
0.1875
 40
0.2500000000000002
 40
0.2500000000000002
 40
0.3125000000000003
 40
0.3125000000000003
 40
0.3750000000000004
 40
0.3750000000000004
 40
0.5000000000000007
 40
0.5000000000000007
 40
0.6250000000000009
 40
0.6250000000000009
 40
0.750000000000001
 40
0.750000000000001
 40
0.8125000000000013
 40
0.8125000000000013
 40
0.8437500000000011
 40
0.8437500000000011
 40
0.8750000000000009
 40
0.8750000000000009
 40
1.0
 40
1.0
 40
1.0
 40
1.0
 10
11.99999999556417
 20
-4.647995308356068
 30
0.0
 10
11.99999999556415
 20
-4.544893841548003
 30
0.0
 10
11.99999999556415
 20
-4.346858460124499
 30
0.0
 10
11.99999999556418
 20
-3.880305254017216
 30
0.0
 10
11.9999999955642
 20
-3.697211880121051
 30
0.0
 10
11.99999999556415
 20
-3.282392127893993
 30
0.0
 10
11.99999999556417
 20
-3.050710579689087
 30
0.0
 10
11.9999999955642
 20
-2.553590801172595
 30
0.0
 10
11.99999999556421
 20
-2.288295139480104
 30
0.0
 10
11.9999999955642
 20
-1.744404937896043
 30
0.0
 10
11.99999999556418
 20
-1.465984732469378
 30
0.0
 10
11.99999999556421
 20
-0.6422525907242008
 30
0.0
 10
11.99999999556418
 20
-0.1121839405344941
 30
0.0
 10
11.99999999556421
 20
0.8034069038058683
 30
0.0
 10
11.99999999556418
 20
1.189919052674534
 30
0.0
 10
11.99999999556417
 20
1.811475303238713
 30
0.0
 10
11.99999999556418
 20
2.048471731188287
 30
0.0
 10
11.99999999556418
 20
2.320763423781948
 30
0.0
 10
11.99999999556417
 20
2.397817446484998
 30
0.0
 10
11.99999999556415
 20
2.496700810126972
 30
0.0
 10
11.99999999556415
 20
2.526909435166218
 30
0.0
 10
11.99999999556412
 20
2.586307198010183
 30
0.0
 10
11.99999999556415
 20
2.61486829634498
 30
0.0
 10
11.99999999556418
 20
2.750156098742604
 30
0.0
 10
11.99999999556414
 20
2.835436515798373
 30
0.0
 10
11.99999999556415
 20
2.865377825033067
 30
0.0
  0
SPLINE
  5
DD
330
1F
100
AcDbEntity
  8
외형선
  6
Continuous
370
    15
100
AcDbSpline
210
0.0
220
0.0
230
1.0
 70
    24
 71
     3
 72
    18
 73
    14
 74
     0
 42
0.000000001
 43
0.00000001
 40
0.0
 40
0.0
 40
0.0
 40
0.0
 40
0.0777319055054287
 40
0.1778723857253556
 40
0.2780128659452825
 40
0.3781533461652093
 40
0.4782938263851332
 40
0.578434306605057
 40
0.6785747868249872
 40
0.7787152670449171
 40
0.8788557472648453
 40
0.9789962274847728
 40
0.9999999999999999
 40
0.9999999999999999
 40
0.9999999999999999
 40
0.9999999999999999
 10
11.99999999556421
 20
5.148283324914316
 30
0.0
 10
11.99999999556421
 20
5.243750019676265
 30
0.0
 10
11.99999999556418
 20
5.462204573751696
 30
0.0
 10
11.9999999955642
 20
5.901534042045903
 30
0.0
 10
11.99999999556417
 20
6.435117058882224
 30
0.0
 10
11.99999999556417
 20
7.023267213121165
 30
0.0
 10
11.99999999556415
 20
7.647537591683466
 30
0.0
 10
11.99999999556412
 20
8.29005636101697
 30
0.0
 10
11.99999999556418
 20
8.932658831436372
 30
0.0
 10
11.99999999556421
 20
9.557732661219632
 30
0.0
 10
11.99999999556414
 20
10.14568993941633
 30
0.0
 10
11.99999999556426
 20
10.54244630054821
 30
0.0
 10
11.99999999556414
 20
10.74086046030324
 30
0.0
 10
11.99999999556414
 20
10.77526115023449
 30
0.0
  0
SPLINE
  5
DE
330
1F
100
AcDbEntity
  8
외형선
  6
Continuous
370
    15
100
AcDbSpline
210
0.0
220
0.0
230
1.0
 70
    24
 71
     3
 72
    16
 73
    12
 74
     0
 42
0.000000001
 43
0.00000001
 40
0.0
 40
0.0
 40
0.0
 40
0.0
 40
0.07608699212028
 40
0.1968879661633765
 40
0.3176889402064726
 40
0.4384899142495676
 40
0.5592908882926619
 40
0.6800918623357571
 40
0.8008928363788521
 40
0.9216938104219472
 40
1.0
 40
1.0
 40
1.0
 40
1.0
 10
11.99999999556417
 20
-11.64330789902174
 30
0.0
 10
11.99999999556417
 20
-11.52691323097281
 30
0.0
 10
11.99999999556418
 20
-11.2257223332148
 30
0.0
 10
11.99999999556418
 20
-10.6961087387037
 30
0.0
 10
11.99999999556412
 20
-10.06521506288355
 30
0.0
 10
11.99999999556414
 20
-9.4203541616092
 30
0.0
 10
11.99999999556421
 20
-8.781388856322172
 30
0.0
 10
11.9999999955642
 20
-8.165668687058112
 30
0.0
 10
11.99999999556421
 20
-7.593491228294032
 30
0.0
 10
11.99999999556422
 20
-7.129532323990547
 30
0.0
 10
11.99999999556418
 20
-6.893107733763666
 30
0.0
 10
11.99999999556418
 20
-6.800125098450524
 30
0.0
  0
SPLINE
  5
DF
330
1F
100
AcDbEntity
  8
외형선
  6
Continuous
370
    15
100
AcDbSpline
210
0.0
220
0.0
230
1.0
 70
    24
 71
     3
 72
     9
 73
     5
 74
     0
 42
0.000000001
 43
0.00000001
 40
0.0
 40
0.0
 40
0.0
 40
0.0
 40
0.7218200677032875
 40
1.0
 40
1.0
 40
1.0
 40
1.0
 10
11.99999999556418
 20
11.89713221243992
 30
0.0
 10
11.99999999556421
 20
12.01067754991587
 30
0.0
 10
11.99999999556421
 20
12.16798176263639
 30
0.0
 10
11.99999999556415
 20
12.32892351541422
 30
0.0
 10
11.99999999556414
 20
12.37369428130568
 30
0.0
  0
LINE
  5
E0
330
1F
100
AcDbEntity
  8
중심선
100
AcDbLine
 10
-54.50000000443582
 20
0.0009417247138261
 30
0.0
 11
59.44999999556419
 21
0.0009417247138409
 31
0.0
  0
LINE
  5
E1
330
1F
100
AcDbEntity
  8
참조1
100
AcDbLine
 10
-2.700000000000057
 20
0.0010749287238892
 30
0.0
 11
-2.700000000000051
 21
-39.99892507127611
 31
0.0
  0
LINE
  5
E2
330
1F
100
AcDbEntity
  8
참조1
100
AcDbLine
 10
-2.700000000000051
 20
-39.99892507127611
 30
0.0
 11
-19.44635681430873
 21
-39.9989250712761
 31
0.0
  0
CIRCLE
  5
E3
330
1F
100
AcDbEntity
  8
해칭선
100
AcDbCircle
 10
0.0
 20
0.0
 30
0.0
 40
3.000000000000001
  0
INSERT
  5
E4
330
1F
100
AcDbEntity
  8
0
  6
Continuous
 62
     7
100
AcDbBlockReference
 66
     1
  2
블럭10
 10
-16.64027293212526
 20
-52.04609937292004
 30
0.0
  0
ATTRIB
  5
E5
330
E4
100
AcDbEntity
  8
FORMAT
 62
     2
100
AcDbText
 10
-27.34635375441394
 20
-49.97073246008785
 30
0.0
 40
4.233333333333333
  1
G8C51064 [ 8 FLUTE ]
 41
0.75
  7
SLDTEXTSTYLE0
 11
-27.34635375441394
 21
-52.08739912675452
 31
0.0
100
AcDbAttribute
  2
AUTOATTR0
 70
     0
 74
     1
  0
SEQEND
  5
E6
330
E4
100
AcDbEntity
  8
0
  6
Continuous
 62
     7
  0
HATCH
  5
E7
330
1F
100
AcDbEntity
  8
중심선
100
AcDbHatch
 10
0.0
 20
0.0
 30
0.0
210
0.0
220
0.0
230
1.0
  2
SOLID
 70
     1
 71
     0
 91
        1
 92
        0
 93
        4
 72
     1
 10
-10.9253636277444
 20
-35.7989250712761
 11
-14.37163887158169
 21
-35.7989250712761
 72
     1
 10
-14.37163887158169
 20
-35.7989250712761
 11
-16.49986873078571
 21
-38.3352506518487
 72
     1
 10
-16.49986873078571
 20
-38.3352506518487
 11
-13.05356040183528
 21
-38.33521122254621
 72
     1
 10
-13.05356040183528
 20
-38.33521122254621
 11
-10.9253636277444
 21
-35.7989250712761
 97
        0
 75
     0
 76
     1
 98
        1
 10
0.0
 20
0.0
  0
HATCH
  5
E8
330
1F
100
AcDbEntity
  8
중심선
100
AcDbHatch
 10
0.0
 20
0.0
 30
0.0
210
0.0
220
0.0
230
1.0
  2
SOLID
 70
     1
 71
     0
 91
        1
 92
        0
 93
        4
 72
     1
 10
-5.912599636708427
 20
-35.7989250712761
 11
-9.35887488054571
 21
-35.7989250712761
 72
     1
 10
-9.35887488054571
 20
-35.7989250712761
 11
-13.89001288890313
 21
-41.19892507127612
 72
     1
 10
-13.89001288890313
 20
-41.19892507127612
 11
-10.44373764506584
 21
-41.19892507127612
 72
     1
 10
-10.44373764506584
 20
-41.19892507127612
 11
-5.912599636708427
 21
-35.7989250712761
 97
        0
 75
     0
 76
     1
 98
        1
 10
0.0
 20
0.0
  0
HATCH
  5
E9
330
1F
100
AcDbEntity
  8
중심선
100
AcDbHatch
 10
0.0
 20
0.0
 30
0.0
210
0.0
220
0.0
230
1.0
  2
SOLID
 70
     1
 71
     0
 91
        1
 92
        0
 93
        4
 72
     1
 10
-0.8998356456725864
 20
-35.79892507127613
 11
-4.346110889509674
 21
-35.79892507127608
 72
     1
 10
-4.346110889509674
 20
-35.79892507127608
 11
-11.39454779139892
 21
-44.19892507127612
 72
     1
 10
-11.39454779139892
 20
-44.19892507127612
 11
-7.948272547561642
 21
-44.19892507127612
 72
     1
 10
-7.948272547561642
 20
-44.19892507127612
 11
-0.8998356456725869
 21
-35.79892507127613
 97
        0
 75
     0
 76
     1
 98
        1
 10
0.0
 20
0.0
  0
HATCH
  5
EA
330
1F
100
AcDbEntity
  8
중심선
100
AcDbHatch
 10
0.0
 20
0.0
 30
0.0
210
0.0
220
0.0
230
1.0
  2
SOLID
 70
     1
 71
     0
 91
        1
 92
        0
 93
        6
 72
     3
 10
3.90005478533964
 20
-39.99892507132738
 11
3.960054785062284
 21
1.540850780301639E-10
 40
0.3939339440162633
 50
17.09539180608433
 51
320.0019657685079
 73
     0
 72
     1
 10
5.583054441040236
 20
-38.58681907591441
 11
7.888356314741301
 21
-36.65249236586646
 72
     3
 10
3.900054785286794
 20
-39.99892507127625
 11
6.600054785286829
 21
-1.249000902703301E-13
 40
0.6363583540795982
 50
39.99873849337412
 51
368.4976242363725
 73
     1
 72
     1
 10
10.3253872771874
 20
-39.03892507120613
 11
2.580122092122744
 21
-39.03892507120613
 72
     1
 10
2.580122092122744
 20
-39.03892507120613
 11
2.580097047676783
 21
-40.95892507120602
 72
     1
 10
2.580097047676783
 20
-40.95892507120602
 11
7.02147681714882
 21
-40.95892507120599
 97
        0
 75
     0
 76
     1
 98
        1
 10
0.0
 20
0.0
  0
DIMENSION
  5
EB
330
1F
100
AcDbEntity
  8
치수문자_일반주서
100
AcDbDimension
  2
_D
 10
70.91430792190899
 20
-12.69905827528606
 30
0.0
 11
70.91430792190894
 21
-0.4893394339343152
 31
0.0
 70
   160
  1
%%c<>
 71
     2
 42
25.39999999999994
 52
-270.0
  3
SLDDIMSTYLE0
100
AcDbAlignedDimension
 13
56.44999999556419
 23
12.70094172471382
 33
0.0
 14
56.44999999556418
 24
-12.69905827528612
 34
0.0
 50
90.0000000000002
100
AcDbRotatedDimension
1001
ACAD
1000
DSTYLE
1002
{
1070
   171
1070
     6
1070
   273
1070
     7
1002
}
  0
DIMENSION
  5
100
330
1F
100
AcDbEntity
  8
치수문자_일반주서
100
AcDbDimension
  2
_D_1
 10
-57.86500000443577
 20
-12.6990582752862
 30
0.0
 11
-57.86500000443581
 21
0.0009417247138056
 31
0.0
 70
   160
  1
%%c<>
 71
     2
 42
25.39999999999998
 52
-270.0
  3
SLDDIMSTYLE0
100
AcDbAlignedDimension
 13
-48.96000000443581
 23
12.70094172471381
 33
0.0
 14
-48.96000000443581
 24
-12.69905827528617
 34
0.0
 50
90.0000000000002
100
AcDbRotatedDimension
1001
ACAD
1000
DSTYLE
1002
{
1070
   171
1070
     6
1070
   273
1070
     7
1002
}
  0
DIMENSION
  5
114
330
1F
100
AcDbEntity
  8
치수문자_일반주서
100
AcDbDimension
  2
_D_2
 10
11.99999999556414
 20
41.3988992798269
 30
0.0
 11
36.98701055117023
 21
41.3988992798269
 31
0.0
 70
   160
  1
<>
 71
     2
 42
44.45000000000005
  3
SLDDIMSTYLE0
100
AcDbAlignedDimension
 13
56.44999999556419
 23
12.70094172471382
 33
0.0
 14
11.99999999556414
 24
12.37369428130568
 34
0.0
100
AcDbRotatedDimension
1001
ACAD
1000
DSTYLE
1002
{
1070
   171
1070
     6
1070
   273
1070
     7
1002
}
  0
DIMENSION
  5
128
330
1F
100
AcDbEntity
  8
치수문자_일반주서
100
AcDbDimension
  2
_D_3
 10
56.44999999556419
 20
55.87562882529133
 30
0.0
 11
3.637758710154339
 21
55.87562882529133
 31
0.0
 70
   160
  1
<>
 71
     2
 42
107.95
  3
SLDDIMSTYLE0
100
AcDbAlignedDimension
 13
-51.50000000443583
 23
10.16094172471383
 33
0.0
 14
56.44999999556419
 24
12.70094172471382
 34
0.0
 50
-0.0000000000000038
100
AcDbRotatedDimension
1001
ACAD
1000
DSTYLE
1002
{
1070
   171
1070
     6
1070
   273
1070
     7
1002
}
  0
LINE
  5
13B
330
1F
100
AcDbEntity
  8
참조1
100
AcDbLine
 10
78.52598381534554
 20
7.441074928723896
 30
0.0
 11
78.52598381534554
 21
-7.438925071276109
 31
0.0
  0
LINE
  5
13C
330
1F
100
AcDbEntity
  8
참조1
100
AcDbLine
 10
91.22598381534554
 20
5.441074928723896
 30
0.0
 11
78.52598381534554
 21
5.441074928723896
 31
0.0
  0
SOLID
  5
13D
330
1F
100
AcDbEntity
  8
참조1
100
AcDbTrace
 10
78.52598381534554
 20
5.441074928723896
 30
0.0
 11
84.87598381534553
 21
4.425074928723896
 31
0.0
 12
84.87598381534553
 22
6.457074928723896
 32
0.0
 13
84.87598381534553
 23
6.457074928723896
 33
0.0
  0
LINE
  5
13E
330
1F
100
AcDbEntity
  8
참조1
100
AcDbLine
 10
91.22598381534554
 20
-5.438925071276109
 30
0.0
 11
78.52598381534554
 21
-5.438925071276109
 31
0.0
  0
SOLID
  5
13F
330
1F
100
AcDbEntity
  8
참조1
100
AcDbTrace
 10
78.52598381534554
 20
-5.438925071276109
 30
0.0
 11
84.87598381534553
 21
-6.454925071276109
 31
0.0
 12
84.87598381534553
 22
-4.422925071276109
 32
0.0
 13
84.87598381534553
 23
-4.422925071276109
 33
0.0
  0
MTEXT
  5
140
330
1F
100
AcDbEntity
  8
참조1
100
AcDbMText
 10
87.9234739078158
 20
10.98929157337383
 30
0.0
 40
3.5
 41
0.0
 71
     1
 72
     1
  1
A
  7
SLDTEXTSTYLE0
 73
     1
 44
1.0
  0
MTEXT
  5
141
330
1F
100
AcDbEntity
  8
참조1
100
AcDbMText
 10
87.9234739078158
 20
0.1092915733738259
 30
0.0
 40
3.5
 41
0.0
 71
     1
 72
     1
  1
A
  7
SLDTEXTSTYLE0
 73
     1
 44
1.0
  0
INSERT
  5
148
330
1F
100
AcDbEntity
  8
해칭선
100
AcDbBlockReference
  2
SW_DOWELSYMBOL_0
 10
0.0
 20
0.0
 30
0.0
  0
ARC
  5
19D
330
1F
100
AcDbEntity
  8
0
  6
Continuous
 62
     1
370
    15
100
AcDbCircle
 10
55.68799999556418
 20
11.93894172471382
 30
0.0
 40
0.7619999999999998
100
AcDbArc
 50
359.5927469357827
 51
94.7497129234551
  0
ARC
  5
19E
102
{ACAD_REACTORS
102
}
330
1F
100
AcDbEntity
  8
0
  6
Continuous
 62
     1
370
    15
100
AcDbCircle
 10
55.68799999556418
 20
-11.93705827528614
 30
0.0
 40
0.7619999999999998
100
AcDbArc
 50
265.2502870765449
 51
0.4072530642174743
  0
DIMENSION
  5
1A0
102
{ACAD_REACTORS
102
}
102
{ACAD_XDICTIONARY
360
1A1
102
}
330
1F
100
AcDbEntity
  8
치수문자_일반주서
100
AcDbDimension
  2
*D8
 10
55.68799999556418
 20
-11.93705827528614
 30
0.0
 11
68.05868036271855
 21
-34.51061245387534
 31
0.0
 70
   164
  1
<>
 71
     5
 42
0.7619999999999989
  3
SLDDIMSTYLE0
100
AcDbRadialDimension
 15
56.05420404512603
 25
-12.6052937084117
 35
0.0
 40
0.0
1001
ACAD
1000
DSTYLE
1002
{
1070
   171
1070
     3
1070
   273
1070
     2
1002
}
1001
ACAD_DSTYLE_DIMRADIAL_EXTENSION
1070
   387
1070
     1
1070
   388
1040
4.629490851345873
1070
   390
1040
0.0071079068594308
  0
ENDSEC
  0
SECTION
  2
OBJECTS
  0
DICTIONARY
  5
C
330
0
100
AcDbDictionary
281
     1
  3
ACAD_GROUP
350
D
  3
ACAD_IMAGE_VARS
350
16C
  3
ACAD_LAYOUT
350
1A
  3
ACAD_MLINESTYLE
350
17
  3
ACAD_PLOTSETTINGS
350
19
  3
ACAD_PLOTSTYLENAME
350
E
  3
ACAD_SCALELIST
350
47
  3
APPDATA
350
16A
  3
DWGPROPS
350
1AD
  0
DICTIONARY
  5
193
330
2
100
AcDbDictionary
280
     1
281
     1
  3
ACAD_LAYERSTATES
360
194
  0
DICTIONARY
  5
1A1
330
1A0
100
AcDbDictionary
280
     1
281
     1
  0
DICTIONARY
  5
D
102
{ACAD_REACTORS
330
C
102
}
330
C
100
AcDbDictionary
281
     1
  0
RASTERVARIABLES
  5
16C
102
{ACAD_REACTORS
330
C
102
}
330
C
100
AcDbRasterVariables
 90
        0
 70
     1
 71
     1
 72
     1
  0
DICTIONARY
  5
1A
102
{ACAD_REACTORS
330
C
102
}
330
C
100
AcDbDictionary
281
     1
  3
Layout1
350
1E
  3
Layout2
350
26
  3
Model
350
22
  0
DICTIONARY
  5
17
102
{ACAD_REACTORS
330
C
102
}
330
C
100
AcDbDictionary
281
     1
  3
Standard
350
18
  0
DICTIONARY
  5
19
102
{ACAD_REACTORS
330
C
102
}
330
C
100
AcDbDictionary
281
     1
  0
ACDBDICTIONARYWDFLT
  5
E
102
{ACAD_REACTORS
330
C
102
}
330
C
100
AcDbDictionary
281
     1
  3
Normal
350
F
100
AcDbDictionaryWithDefault
340
F
  0
DICTIONARY
  5
47
102
{ACAD_REACTORS
330
C
102
}
330
C
100
AcDbDictionary
281
     1
  3
A0
350
48
  3
A1
350
49
  3
A2
350
4A
  3
A3
350
4B
  3
A4
350
4C
  3
A5
350
4D
  3
A6
350
4E
  3
A7
350
4F
  3
A8
350
50
  3
A9
350
51
  3
B0
350
52
  3
B1
350
53
  3
B2
350
54
  3
B3
350
55
  3
B4
350
56
  3
B5
350
57
  3
B6
350
58
  3
B7
350
59
  3
B8
350
5A
  3
B9
350
5B
  3
C0
350
5C
  3
C1
350
5D
  3
C2
350
5E
  3
C3
350
5F
  3
C4
350
60
  3
C5
350
61
  3
C6
350
62
  3
C7
350
63
  3
C8
350
64
  3
C9
350
65
  3
D0
350
66
  3
D1
350
67
  3
D2
350
68
  0
DICTIONARY
  5
16A
102
{ACAD_REACTORS
330
C
102
}
330
C
100
AcDbDictionary
281
     1
  0
XRECORD
  5
1AD
102
{ACAD_REACTORS
330
C
102
}
330
C
100
AcDbXrecord
280
     1
  1
DWGPROPS COOKIE
  2

  3

  4

  6

  7

  8
12017012
  9

300
=
301
=
302
=
303
=
304
=
305
=
306
=
307
=
308
=
309
=
 40
0.0
 41
2458295.136224213
 42
2458295.489017732
  1

 90
        0
  0
DICTIONARY
  5
194
102
{ACAD_REACTORS
330
193
102
}
330
193
100
AcDbDictionary
281
     1
  0
LAYOUT
  5
1E
102
{ACAD_REACTORS
330
1A
102
}
330
1A
100
AcDbPlotSettings
  1

  2
none_device
  4

  6

 40
0.0
 41
0.0
 42
0.0
 43
0.0
 44
0.0
 45
0.0
 46
0.0
 47
0.0
 48
0.0
 49
0.0
140
0.0
141
0.0
142
1.0
143
1.0
 70
   688
 72
     1
 73
     0
 74
     5
  7

 75
    16
147
1.0
148
0.0
149
0.0
100
AcDbLayout
  1
Layout1
 70
     1
 71
     1
 10
0.0
 20
0.0
 11
420.0
 21
297.0
 12
0.0
 22
0.0
 32
0.0
 14
1.000000000000000E+20
 24
1.000000000000000E+20
 34
1.000000000000000E+20
 15
-1.000000000000000E+20
 25
-1.000000000000000E+20
 35
-1.000000000000000E+20
146
0.0
 13
0.0
 23
0.0
 33
0.0
 16
1.0
 26
0.0
 36
0.0
 17
0.0
 27
1.0
 37
0.0
 76
     0
330
1B
  0
LAYOUT
  5
26
102
{ACAD_REACTORS
330
1A
102
}
330
1A
100
AcDbPlotSettings
  1

  2
none_device
  4

  6

 40
0.0
 41
0.0
 42
0.0
 43
0.0
 44
0.0
 45
0.0
 46
0.0
 47
0.0
 48
0.0
 49
0.0
140
0.0
141
0.0
142
1.0
143
1.0
 70
   688
 72
     1
 73
     0
 74
     5
  7

 75
    16
147
1.0
148
0.0
149
0.0
100
AcDbLayout
  1
Layout2
 70
     1
 71
     2
 10
0.0
 20
0.0
 11
0.0
 21
0.0
 12
0.0
 22
0.0
 32
0.0
 14
0.0
 24
0.0
 34
0.0
 15
0.0
 25
0.0
 35
0.0
146
0.0
 13
0.0
 23
0.0
 33
0.0
 16
1.0
 26
0.0
 36
0.0
 17
0.0
 27
1.0
 37
0.0
 76
     0
330
23
  0
LAYOUT
  5
22
102
{ACAD_REACTORS
330
1A
102
}
330
1A
100
AcDbPlotSettings
  1

  2
none_device
  4
ANSI_A_(11.00_x_8.50_Inches)
  6

 40
6.35
 41
19.05
 42
6.35000508
 43
19.05000254
 44
279.4
 45
215.9
 46
118.776298604773
 47
75.5321706891608
 48
0.0
 49
0.0
140
0.0
141
0.0
142
0.0659764621848143
143
1.0
 70
  1696
 72
     0
 73
     0
 74
     0
  7

 75
     0
147
0.0235690232323232
148
0.0
149
0.0
100
AcDbLayout
  1
Model
 70
     1
 71
     0
 10
0.0
 20
0.0
 11
420.0
 21
297.0
 12
0.0
 22
0.0
 32
0.0
 14
1.000000000000000E+20
 24
1.000000000000000E+20
 34
1.000000000000000E+20
 15
-1.000000000000000E+20
 25
-1.000000000000000E+20
 35
-1.000000000000000E+20
146
0.0
 13
0.0
 23
0.0
 33
0.0
 16
1.0
 26
0.0
 36
0.0
 17
0.0
 27
1.0
 37
0.0
 76
     0
330
1F
331
29
  0
MLINESTYLE
  5
18
102
{ACAD_REACTORS
330
17
102
}
330
17
100
AcDbMlineStyle
  2
Standard
 70
     0
  3

 62
   256
 51
90.0
 52
90.0
 71
     2
 49
0.5
 62
   256
  6
BYLAYER
 49
-0.5
 62
   256
  6
BYLAYER
  0
ACDBPLACEHOLDER
  5
F
102
{ACAD_REACTORS
330
E
102
}
330
E
  0
SCALE
  5
48
102
{ACAD_REACTORS
330
47
102
}
330
47
100
AcDbScale
 70
     0
300
1:1
140
1.0
141
1.0
290
     1
  0
SCALE
  5
49
102
{ACAD_REACTORS
330
47
102
}
330
47
100
AcDbScale
 70
     0
300
1:2
140
1.0
141
2.0
290
     0
  0
SCALE
  5
4A
102
{ACAD_REACTORS
330
47
102
}
330
47
100
AcDbScale
 70
     0
300
1:4
140
1.0
141
4.0
290
     0
  0
SCALE
  5
4B
102
{ACAD_REACTORS
330
47
102
}
330
47
100
AcDbScale
 70
     0
300
1:5
140
1.0
141
5.0
290
     0
  0
SCALE
  5
4C
102
{ACAD_REACTORS
330
47
102
}
330
47
100
AcDbScale
 70
     0
300
1:8
140
1.0
141
8.0
290
     0
  0
SCALE
  5
4D
102
{ACAD_REACTORS
330
47
102
}
330
47
100
AcDbScale
 70
     0
300
1:10
140
1.0
141
10.0
290
     0
  0
SCALE
  5
4E
102
{ACAD_REACTORS
330
47
102
}
330
47
100
AcDbScale
 70
     0
300
1:16
140
1.0
141
16.0
290
     0
  0
SCALE
  5
4F
102
{ACAD_REACTORS
330
47
102
}
330
47
100
AcDbScale
 70
     0
300
1:20
140
1.0
141
20.0
290
     0
  0
SCALE
  5
50
102
{ACAD_REACTORS
330
47
102
}
330
47
100
AcDbScale
 70
     0
300
1:30
140
1.0
141
30.0
290
     0
  0
SCALE
  5
51
102
{ACAD_REACTORS
330
47
102
}
330
47
100
AcDbScale
 70
     0
300
1:40
140
1.0
141
40.0
290
     0
  0
SCALE
  5
52
102
{ACAD_REACTORS
330
47
102
}
330
47
100
AcDbScale
 70
     0
300
1:50
140
1.0
141
50.0
290
     0
  0
SCALE
  5
53
102
{ACAD_REACTORS
330
47
102
}
330
47
100
AcDbScale
 70
     0
300
1:100
140
1.0
141
100.0
290
     0
  0
SCALE
  5
54
102
{ACAD_REACTORS
330
47
102
}
330
47
100
AcDbScale
 70
     0
300
2:1
140
2.0
141
1.0
290
     0
  0
SCALE
  5
55
102
{ACAD_REACTORS
330
47
102
}
330
47
100
AcDbScale
 70
     0
300
4:1
140
4.0
141
1.0
290
     0
  0
SCALE
  5
56
102
{ACAD_REACTORS
330
47
102
}
330
47
100
AcDbScale
 70
     0
300
8:1
140
8.0
141
1.0
290
     0
  0
SCALE
  5
57
102
{ACAD_REACTORS
330
47
102
}
330
47
100
AcDbScale
 70
     0
300
10:1
140
10.0
141
1.0
290
     0
  0
SCALE
  5
58
102
{ACAD_REACTORS
330
47
102
}
330
47
100
AcDbScale
 70
     0
300
100:1
140
100.0
141
1.0
290
     0
  0
SCALE
  5
59
102
{ACAD_REACTORS
330
47
102
}
330
47
100
AcDbScale
 70
     0
300
1/128" = 1'-0"
140
0.0078125
141
12.0
290
     0
  0
SCALE
  5
5A
102
{ACAD_REACTORS
330
47
102
}
330
47
100
AcDbScale
 70
     0
300
1/64" = 1'-0"
140
0.015625
141
12.0
290
     0
  0
SCALE
  5
5B
102
{ACAD_REACTORS
330
47
102
}
330
47
100
AcDbScale
 70
     0
300
1/32" = 1'-0"
140
0.03125
141
12.0
290
     0
  0
SCALE
  5
5C
102
{ACAD_REACTORS
330
47
102
}
330
47
100
AcDbScale
 70
     0
300
1/16" = 1'-0"
140
0.0625
141
12.0
290
     0
  0
SCALE
  5
5D
102
{ACAD_REACTORS
330
47
102
}
330
47
100
AcDbScale
 70
     0
300
3/32" = 1'-0"
140
0.09375
141
12.0
290
     0
  0
SCALE
  5
5E
102
{ACAD_REACTORS
330
47
102
}
330
47
100
AcDbScale
 70
     0
300
1/8" = 1'-0"
140
0.125
141
12.0
290
     0
  0
SCALE
  5
5F
102
{ACAD_REACTORS
330
47
102
}
330
47
100
AcDbScale
 70
     0
300
3/16" = 1'-0"
140
0.1875
141
12.0
290
     0
  0
SCALE
  5
60
102
{ACAD_REACTORS
330
47
102
}
330
47
100
AcDbScale
 70
     0
300
1/4" = 1'-0"
140
0.25
141
12.0
290
     0
  0
SCALE
  5
61
102
{ACAD_REACTORS
330
47
102
}
330
47
100
AcDbScale
 70
     0
300
3/8" = 1'-0"
140
0.375
141
12.0
290
     0
  0
SCALE
  5
62
102
{ACAD_REACTORS
330
47
102
}
330
47
100
AcDbScale
 70
     0
300
1/2" = 1'-0"
140
0.5
141
12.0
290
     0
  0
SCALE
  5
63
102
{ACAD_REACTORS
330
47
102
}
330
47
100
AcDbScale
 70
     0
300
3/4" = 1'-0"
140
0.75
141
12.0
290
     0
  0
SCALE
  5
64
102
{ACAD_REACTORS
330
47
102
}
330
47
100
AcDbScale
 70
     0
300
1" = 1'-0"
140
1.0
141
12.0
290
     0
  0
SCALE
  5
65
102
{ACAD_REACTORS
330
47
102
}
330
47
100
AcDbScale
 70
     0
300
1-1/2" = 1'-0"
140
1.5
141
12.0
290
     0
  0
SCALE
  5
66
102
{ACAD_REACTORS
330
47
102
}
330
47
100
AcDbScale
 70
     0
300
3" = 1'-0"
140
3.0
141
12.0
290
     0
  0
SCALE
  5
67
102
{ACAD_REACTORS
330
47
102
}
330
47
100
AcDbScale
 70
     0
300
6" = 1'-0"
140
6.0
141
12.0
290
     0
  0
SCALE
  5
68
102
{ACAD_REACTORS
330
47
102
}
330
47
100
AcDbScale
 70
     0
300
1'-0" = 1'-0"
140
12.0
141
12.0
290
     0
  0
ENDSEC
  0
EOF
