  0
SECTION
  2
HEADER
  9
$ACADVER
  1
AC1015
  9
$ACADMAINTVER
 70
     6
  9
$DWGCODEPAGE
  3
ANSI_949
  9
$INSBASE
 10
0.0
 20
0.0
 30
0.0
  9
$EXTMIN
 10
-57.85750000000007
 20
-49.97073246008785
 30
0.0
  9
$EXTMAX
 10
89.6384838153456
 20
37.83632492872405
 30
0.0
  9
$LIMMIN
 10
0.0
 20
0.0
  9
$LIMMAX
 10
420.0
 20
297.0
  9
$ORTHOMODE
 70
     1
  9
$REGENMODE
 70
     1
  9
$FILLMODE
 70
     1
  9
$QTEXTMODE
 70
     0
  9
$MIRRTEXT
 70
     1
  9
$LTSCALE
 40
1.0
  9
$ATTMODE
 70
     1
  9
$TEXTSIZE
 40
3.5
  9
$TRACEWID
 40
1.0
  9
$TEXTSTYLE
  7
Standard
  9
$CLAYER
  8
0
  9
$CELTYPE
  6
ByLayer
  9
$CECOLOR
 62
   256
  9
$CELTSCALE
 40
1.0
  9
$DISPSILH
 70
     0
  9
$DIMSCALE
 40
1.0
  9
$DIMASZ
 40
3.302
  9
$DIMEXO
 40
1.0
  9
$DIMDLI
 40
3.75
  9
$DIMRND
 40
0.0
  9
$DIMDLE
 40
0.0
  9
$DIMEXE
 40
1.0
  9
$DIMTP
 40
0.0
  9
$DIMTM
 40
0.0
  9
$DIMTXT
 40
3.5
  9
$DIMCEN
 40
2.5
  9
$DIMTSZ
 40
0.0
  9
$DIMTOL
 70
     0
  9
$DIMLIM
 70
     0
  9
$DIMTIH
 70
     1
  9
$DIMTOH
 70
     1
  9
$DIMSE1
 70
     0
  9
$DIMSE2
 70
     0
  9
$DIMTAD
 70
     1
  9
$DIMZIN
 70
     0
  9
$DIMBLK
  1

  9
$DIMASO
 70
     1
  9
$DIMSHO
 70
     1
  9
$DIMPOST
  1

  9
$DIMAPOST
  1

  9
$DIMALT
 70
     0
  9
$DIMALTD
 70
     3
  9
$DIMALTF
 40
0.0393700787401575
  9
$DIMLFAC
 40
1.0
  9
$DIMTOFL
 70
     1
  9
$DIMTVP
 40
0.0
  9
$DIMTIX
 70
     0
  9
$DIMSOXD
 70
     0
  9
$DIMSAH
 70
     0
  9
$DIMBLK1
  1

  9
$DIMBLK2
  1

  9
$DIMSTYLE
  2
ISO-25
  9
$DIMCLRD
 70
     0
  9
$DIMCLRE
 70
     0
  9
$DIMCLRT
 70
     0
  9
$DIMTFAC
 40
1.0
  9
$DIMGAP
 40
1.524
  9
$DIMJUST
 70
     0
  9
$DIMSD1
 70
     0
  9
$DIMSD2
 70
     0
  9
$DIMTOLJ
 70
     0
  9
$DIMTZIN
 70
     0
  9
$DIMALTZ
 70
     0
  9
$DIMALTTZ
 70
     0
  9
$DIMUPT
 70
     0
  9
$DIMDEC
 70
     2
  9
$DIMTDEC
 70
     2
  9
$DIMALTU
 70
     2
  9
$DIMALTTD
 70
     3
  9
$DIMTXSTY
  7
Standard
  9
$DIMAUNIT
 70
     0
  9
$DIMADEC
 70
     2
  9
$DIMALTRND
 40
0.0
  9
$DIMAZIN
 70
     0
  9
$DIMDSEP
 70
    44
  9
$DIMATFIT
 70
     3
  9
$DIMFRAC
 70
     0
  9
$DIMLDRBLK
  1

  9
$DIMLUNIT
 70
     2
  9
$DIMLWD
 70
    -2
  9
$DIMLWE
 70
    -2
  9
$DIMTMOVE
 70
     0
  9
$LUNITS
 70
     2
  9
$LUPREC
 70
     2
  9
$SKETCHINC
 40
1.0
  9
$FILLETRAD
 40
10.0
  9
$AUNITS
 70
     0
  9
$AUPREC
 70
     2
  9
$MENU
  1
.
  9
$ELEVATION
 40
0.0
  9
$PELEVATION
 40
0.0
  9
$THICKNESS
 40
0.0
  9
$LIMCHECK
 70
     0
  9
$CHAMFERA
 40
0.0
  9
$CHAMFERB
 40
0.0
  9
$CHAMFERC
 40
0.0
  9
$CHAMFERD
 40
0.0
  9
$SKPOLY
 70
     0
  9
$TDCREATE
 40
2458295.501609259
  9
$TDUCREATE
 40
2458295.126609259
  9
$TDUPDATE
 40
2458295.943827303
  9
$TDUUPDATE
 40
2458295.568827303
  9
$TDINDWG
 40
0.0020591551
  9
$TDUSRTIMER
 40
0.0020591435
  9
$USRTIMER
 70
     1
  9
$ANGBASE
 50
0.0
  9
$ANGDIR
 70
     0
  9
$PDMODE
 70
     0
  9
$PDSIZE
 40
-1.0
  9
$PLINEWID
 40
0.0
  9
$SPLFRAME
 70
     0
  9
$SPLINETYPE
 70
     6
  9
$SPLINESEGS
 70
     8
  9
$HANDSEED
  5
22F
  9
$SURFTAB1
 70
     6
  9
$SURFTAB2
 70
     6
  9
$SURFTYPE
 70
     6
  9
$SURFU
 70
     6
  9
$SURFV
 70
     6
  9
$UCSBASE
  2

  9
$UCSNAME
  2

  9
$UCSORG
 10
0.0
 20
0.0
 30
0.0
  9
$UCSXDIR
 10
1.0
 20
0.0
 30
0.0
  9
$UCSYDIR
 10
0.0
 20
1.0
 30
0.0
  9
$UCSORTHOREF
  2

  9
$UCSORTHOVIEW
 70
     0
  9
$UCSORGTOP
 10
0.0
 20
0.0
 30
0.0
  9
$UCSORGBOTTOM
 10
0.0
 20
0.0
 30
0.0
  9
$UCSORGLEFT
 10
0.0
 20
0.0
 30
0.0
  9
$UCSORGRIGHT
 10
0.0
 20
0.0
 30
0.0
  9
$UCSORGFRONT
 10
0.0
 20
0.0
 30
0.0
  9
$UCSORGBACK
 10
0.0
 20
0.0
 30
0.0
  9
$PUCSBASE
  2

  9
$PUCSNAME
  2

  9
$PUCSORG
 10
0.0
 20
0.0
 30
0.0
  9
$PUCSXDIR
 10
1.0
 20
0.0
 30
0.0
  9
$PUCSYDIR
 10
0.0
 20
1.0
 30
0.0
  9
$PUCSORTHOREF
  2

  9
$PUCSORTHOVIEW
 70
     0
  9
$PUCSORGTOP
 10
0.0
 20
0.0
 30
0.0
  9
$PUCSORGBOTTOM
 10
0.0
 20
0.0
 30
0.0
  9
$PUCSORGLEFT
 10
0.0
 20
0.0
 30
0.0
  9
$PUCSORGRIGHT
 10
0.0
 20
0.0
 30
0.0
  9
$PUCSORGFRONT
 10
0.0
 20
0.0
 30
0.0
  9
$PUCSORGBACK
 10
0.0
 20
0.0
 30
0.0
  9
$USERI1
 70
     0
  9
$USERI2
 70
     0
  9
$USERI3
 70
     0
  9
$USERI4
 70
     0
  9
$USERI5
 70
     0
  9
$USERR1
 40
0.0
  9
$USERR2
 40
0.0
  9
$USERR3
 40
0.0
  9
$USERR4
 40
0.0
  9
$USERR5
 40
0.0
  9
$WORLDVIEW
 70
     1
  9
$SHADEDGE
 70
     3
  9
$SHADEDIF
 70
    70
  9
$TILEMODE
 70
     1
  9
$MAXACTVP
 70
    64
  9
$PINSBASE
 10
0.0
 20
0.0
 30
0.0
  9
$PLIMCHECK
 70
     0
  9
$PEXTMIN
 10
1.000000000000000E+20
 20
1.000000000000000E+20
 30
1.000000000000000E+20
  9
$PEXTMAX
 10
-1.000000000000000E+20
 20
-1.000000000000000E+20
 30
-1.000000000000000E+20
  9
$PLIMMIN
 10
0.0
 20
0.0
  9
$PLIMMAX
 10
0.0
 20
0.0
  9
$UNITMODE
 70
     0
  9
$VISRETAIN
 70
     1
  9
$PLINEGEN
 70
     0
  9
$PSLTSCALE
 70
     1
  9
$TREEDEPTH
 70
  3020
  9
$CMLSTYLE
  2
Standard
  9
$CMLJUST
 70
     0
  9
$CMLSCALE
 40
20.0
  9
$PROXYGRAPHICS
 70
     1
  9
$MEASUREMENT
 70
     1
  9
$CELWEIGHT
370
    -1
  9
$ENDCAPS
280
     0
  9
$JOINSTYLE
280
     0
  9
$LWDISPLAY
290
     1
  9
$INSUNITS
 70
     4
  9
$HYPERLINKBASE
  1

  9
$STYLESHEET
  1

  9
$XEDIT
290
     1
  9
$CEPSNTYPE
380
     0
  9
$PSTYLEMODE
290
     1
  9
$FINGERPRINTGUID
  2
{6F9A4C7C-DE6F-4C74-ABCF-088095D6DC3F}
  9
$VERSIONGUID
  2
{FAEB1C32-E019-11D5-929B-00C0DF256EC4}
  9
$EXTNAMES
290
     1
  9
$PSVPSCALE
 40
0.0
  9
$OLESTARTUP
290
     0
  0
ENDSEC
  0
SECTION
  2
CLASSES
  0
CLASS
  1
ACDBDICTIONARYWDFLT
  2
AcDbDictionaryWithDefault
  3
ObjectDBX Classes
 90
        0
280
     0
281
     0
  0
CLASS
  1
VISUALSTYLE
  2
AcDbVisualStyle
  3
ObjectDBX Classes
 90
     4095
280
     0
281
     0
  0
CLASS
  1
MATERIAL
  2
AcDbMaterial
  3
ObjectDBX Classes
 90
     1153
280
     0
281
     0
  0
CLASS
  1
SCALE
  2
AcDbScale
  3
ObjectDBX Classes
 90
     1153
280
     0
281
     0
  0
CLASS
  1
SUN
  2
AcDbSun
  3
SCENEOE
 90
     1153
280
     0
281
     0
  0
CLASS
  1
ACDBPLACEHOLDER
  2
AcDbPlaceHolder
  3
ObjectDBX Classes
 90
        0
280
     0
281
     0
  0
CLASS
  1
LAYOUT
  2
AcDbLayout
  3
ObjectDBX Classes
 90
        0
280
     0
281
     0
  0
CLASS
  1
TABLESTYLE
  2
AcDbTableStyle
  3
ObjectDBX Classes
 90
     4095
280
     0
281
     0
  0
CLASS
  1
MLEADERSTYLE
  2
AcDbMLeaderStyle
  3
ACDB_MLEADERSTYLE_CLASS
 90
     4095
280
     0
281
     0
  0
CLASS
  1
DIMASSOC
  2
AcDbDimAssoc
  3
"AcDbDimAssoc|Product Desc:     AcDim ARX App For Dimension|Company:          Autodesk, Inc.|WEB Address:      www.autodesk.com"
 90
        0
280
     0
281
     0
  0
ENDSEC
  0
SECTION
  2
TABLES
  0
TABLE
  2
VPORT
  5
8
330
0
100
AcDbSymbolTable
 70
     1
  0
VPORT
  5
29
330
8
100
AcDbSymbolTableRecord
100
AcDbViewportTableRecord
  2
*Active
 70
     0
 10
0.0
 20
0.0
 11
1.0
 21
1.0
 12
9.674074242312138
 22
0.620534465521045
 13
0.0
 23
0.0
 14
10.0
 24
10.0
 15
10.0
 25
10.0
 16
0.0
 26
0.0
 36
1.0
 17
0.0
 27
0.0
 37
0.0
 40
94.16425286686604
 41
2.959259259259259
 42
50.0
 43
0.0
 44
0.0
 50
0.0
 51
0.0
 71
    16
 72
  2000
 73
     1
 74
     3
 75
     0
 76
     0
 77
     0
 78
     0
281
     0
 65
     1
110
0.0
120
0.0
130
0.0
111
1.0
121
0.0
131
0.0
112
0.0
122
1.0
132
0.0
 79
     0
146
0.0
  0
ENDTAB
  0
TABLE
  2
LTYPE
  5
5
330
0
100
AcDbSymbolTable
 70
     6
  0
LTYPE
  5
14
330
5
100
AcDbSymbolTableRecord
100
AcDbLinetypeTableRecord
  2
ByBlock
 70
     0
  3

 72
    65
 73
     0
 40
0.0
  0
LTYPE
  5
15
330
5
100
AcDbSymbolTableRecord
100
AcDbLinetypeTableRecord
  2
ByLayer
 70
     0
  3

 72
    65
 73
     0
 40
0.0
  0
LTYPE
  5
16
330
5
100
AcDbSymbolTableRecord
100
AcDbLinetypeTableRecord
  2
Continuous
 70
     0
  3
Solid line
 72
    65
 73
     0
 40
0.0
  0
LTYPE
  5
6A
330
5
100
AcDbSymbolTableRecord
100
AcDbLinetypeTableRecord
  2
HIDDEN
 70
     0
  3
Hidden __ __ __ __ __ __ __ __ __ __ __ __ __ __
 72
    65
 73
     2
 40
1.905
 49
1.27
 74
     0
 49
-0.635
 74
     0
  0
LTYPE
  5
6B
330
5
100
AcDbSymbolTableRecord
100
AcDbLinetypeTableRecord
  2
PHANTOM
 70
     0
  3
Phantom ______  __  __  ______  __  __  ______
 72
    65
 73
     6
 40
12.7
 49
6.35
 74
     0
 49
-1.27
 74
     0
 49
1.27
 74
     0
 49
-1.27
 74
     0
 49
1.27
 74
     0
 49
-1.27
 74
     0
  0
LTYPE
  5
6C
330
5
100
AcDbSymbolTableRecord
100
AcDbLinetypeTableRecord
  2
CENTER
 70
     0
  3
Center ____ _ ____ _ ____ _ ____ _ ____ _ ____
 72
    65
 73
     4
 40
10.16
 49
6.35
 74
     0
 49
-1.27
 74
     0
 49
1.27
 74
     0
 49
-1.27
 74
     0
  0
LTYPE
  5
6D
330
5
100
AcDbSymbolTableRecord
100
AcDbLinetypeTableRecord
  2
CENTERX2
 70
     0
  3
Center (2x) ________  __  ________  __  _____
 72
    65
 73
     4
 40
20.32
 49
12.7
 74
     0
 49
-2.54
 74
     0
 49
2.54
 74
     0
 49
-2.54
 74
     0
  0
LTYPE
  5
6E
330
5
100
AcDbSymbolTableRecord
100
AcDbLinetypeTableRecord
  2
DOT2
 70
     0
  3
Dot (.5x) ........................................
 72
    65
 73
     2
 40
0.635
 49
0.0
 74
     0
 49
-0.635
 74
     0
  0
ENDTAB
  0
TABLE
  2
LAYER
  5
2
102
{ACAD_XDICTIONARY
360
1B7
102
}
330
0
100
AcDbSymbolTable
 70
    18
  0
LAYER
  5
10
330
2
100
AcDbSymbolTableRecord
100
AcDbLayerTableRecord
  2
0
 70
     0
 62
     7
  6
Continuous
370
    -3
390
F
  0
LAYER
  5
6F
330
2
100
AcDbSymbolTableRecord
100
AcDbLayerTableRecord
  2
FORMAT
 70
     0
 62
     2
  6
Continuous
370
    -3
390
F
  0
LAYER
  5
70
330
2
100
AcDbSymbolTableRecord
100
AcDbLayerTableRecord
  2
외형선
 70
     0
 62
     4
  6
Continuous
370
    30
390
F
  0
LAYER
  5
71
330
2
100
AcDbSymbolTableRecord
100
AcDbLayerTableRecord
  2
숨은선
 70
     0
 62
     2
  6
HIDDEN
370
    15
390
F
  0
LAYER
  5
72
330
2
100
AcDbSymbolTableRecord
100
AcDbLayerTableRecord
  2
중심선
 70
     0
 62
     1
  6
CENTERX2
370
    -3
390
F
  0
LAYER
  5
73
330
2
100
AcDbSymbolTableRecord
100
AcDbLayerTableRecord
  2
파단선
 70
     0
 62
     4
  6
Continuous
370
    -3
390
F
  0
LAYER
  5
74
330
2
100
AcDbSymbolTableRecord
100
AcDbLayerTableRecord
  2
해칭선
 70
     0
 62
   100
  6
Continuous
370
    -3
390
F
  0
LAYER
  5
75
330
2
100
AcDbSymbolTableRecord
100
AcDbLayerTableRecord
  2
가는실선
 70
     0
 62
     4
  6
Continuous
370
    -3
390
F
  0
LAYER
  5
76
330
2
100
AcDbSymbolTableRecord
100
AcDbLayerTableRecord
  2
치수_보조선
 70
     0
 62
     4
  6
Continuous
370
    -3
390
F
  0
LAYER
  5
77
330
2
100
AcDbSymbolTableRecord
100
AcDbLayerTableRecord
  2
치수문자_일반주서
 70
     0
 62
     7
  6
Continuous
370
    15
390
F
  0
LAYER
  5
78
330
2
100
AcDbSymbolTableRecord
100
AcDbLayerTableRecord
  2
개별주서
 70
     0
 62
   100
  6
Continuous
370
    30
390
F
  0
LAYER
  5
79
330
2
100
AcDbSymbolTableRecord
100
AcDbLayerTableRecord
  2
중간선
 70
     0
 62
     2
  6
Continuous
370
    15
390
F
  0
LAYER
  5
7A
330
2
100
AcDbSymbolTableRecord
100
AcDbLayerTableRecord
  2
윤곽선
 70
     0
 62
     3
  6
Continuous
370
    40
390
F
  0
LAYER
  5
7B
330
2
100
AcDbSymbolTableRecord
100
AcDbLayerTableRecord
  2
중심마크
 70
     0
 62
   100
  6
Continuous
370
    30
390
F
  0
LAYER
  5
7C
330
2
100
AcDbSymbolTableRecord
100
AcDbLayerTableRecord
  2
가상선
 70
     0
 62
     4
  6
PHANTOM
370
    -3
390
F
  0
LAYER
  5
7D
330
2
100
AcDbSymbolTableRecord
100
AcDbLayerTableRecord
  2
특수지정선
 70
     0
 62
     5
  6
CENTERX2
370
    60
390
F
  0
LAYER
  5
7E
330
2
100
AcDbSymbolTableRecord
100
AcDbLayerTableRecord
  2
참조1
 70
     0
 62
    -4
  6
Continuous
370
    -3
390
F
  0
LAYER
  5
161
330
2
100
AcDbSymbolTableRecord
100
AcDbLayerTableRecord
  2
Defpoints
 70
     0
 62
     7
  6
Continuous
290
     0
370
    -3
390
F
  0
ENDTAB
  0
TABLE
  2
STYLE
  5
3
330
0
100
AcDbSymbolTable
 70
     2
  0
STYLE
  5
11
330
3
100
AcDbSymbolTableRecord
100
AcDbTextStyleTableRecord
  2
Standard
 70
     0
 40
0.0
 41
1.0
 50
0.0
 71
     0
 42
3.5
  3
txt
  4

  0
STYLE
  5
94
330
3
100
AcDbSymbolTableRecord
100
AcDbTextStyleTableRecord
  2
SLDTEXTSTYLE0
 70
     0
 40
0.0
 41
0.75
 50
0.0
 71
     0
 42
3.5
  3
TXT
  4

  0
ENDTAB
  0
TABLE
  2
VIEW
  5
6
330
0
100
AcDbSymbolTable
 70
     0
  0
ENDTAB
  0
TABLE
  2
UCS
  5
7
330
0
100
AcDbSymbolTable
 70
     0
  0
ENDTAB
  0
TABLE
  2
APPID
  5
9
330
0
100
AcDbSymbolTable
 70
     3
  0
APPID
  5
12
330
9
100
AcDbSymbolTableRecord
100
AcDbRegAppTableRecord
  2
ACAD
 70
     0
  0
APPID
  5
21B
330
9
100
AcDbSymbolTableRecord
100
AcDbRegAppTableRecord
  2
PE_URL
 70
     0
  0
APPID
  5
220
330
9
100
AcDbSymbolTableRecord
100
AcDbRegAppTableRecord
  2
ACAD_DSTYLE_DIMRADIAL_EXTENSION
 70
     0
  0
ENDTAB
  0
TABLE
  2
DIMSTYLE
  5
A
330
0
100
AcDbSymbolTable
 70
     3
100
AcDbDimStyleTable
  0
DIMSTYLE
105
27
330
A
100
AcDbSymbolTableRecord
100
AcDbDimStyleTableRecord
  2
ISO-25
 70
     0
 41
2.5
 42
0.625
 43
3.75
 44
1.25
 73
     0
 74
     0
 77
     1
 78
     8
140
2.5
141
2.5
143
0.03937007874016
147
0.625
171
     3
172
     1
178
     0
271
     2
272
     2
274
     3
278
    44
283
     0
284
     8
340
11
  0
DIMSTYLE
105
E0
102
{ACAD_REACTORS
330
DF
330
109
330
1A3
330
F5
330
11D
330
221
102
}
330
A
100
AcDbSymbolTableRecord
100
AcDbDimStyleTableRecord
  2
SLDDIMSTYLE0
 70
     0
 41
3.302
 44
0.0
 45
0.000000001
 73
     0
 74
     0
 77
     1
 78
    12
 79
     3
140
3.5
143
0.0393700787401575
147
0.875
148
0.000000001
170
     1
172
     1
173
     1
178
     0
271
     2
272
     2
276
     2
284
    12
289
     0
340
94
  0
DIMSTYLE
105
F6
330
A
100
AcDbSymbolTableRecord
100
AcDbDimStyleTableRecord
  2
SLDDIMSTYLE1
 70
     0
 41
3.302
 44
0.0
 45
0.000000001
 73
     0
 74
     0
 77
     1
 78
    12
 79
     3
140
3.5
143
0.0393700787401575
147
0.875
148
0.000000001
170
     1
173
     1
178
     0
271
     2
272
     2
276
     2
284
    12
340
94
  0
ENDTAB
  0
TABLE
  2
BLOCK_RECORD
  5
1
330
0
100
AcDbSymbolTable
 70
    12
  0
BLOCK_RECORD
  5
1F
330
1
100
AcDbSymbolTableRecord
100
AcDbBlockTableRecord
  2
*Model_Space
340
22
  0
BLOCK_RECORD
  5
1B
330
1
100
AcDbSymbolTableRecord
100
AcDbBlockTableRecord
  2
*Paper_Space
340
1E
  0
BLOCK_RECORD
  5
23
330
1
100
AcDbSymbolTableRecord
100
AcDbBlockTableRecord
  2
*Paper_Space0
340
26
  0
BLOCK_RECORD
  5
7F
330
1
100
AcDbSymbolTableRecord
100
AcDbBlockTableRecord
  2
블럭10
340
0
102
{BLKREFS
331
D8
102
}
  0
BLOCK_RECORD
  5
E1
330
1
100
AcDbSymbolTableRecord
100
AcDbBlockTableRecord
  2
_D
340
0
  0
BLOCK_RECORD
  5
F7
330
1
100
AcDbSymbolTableRecord
100
AcDbBlockTableRecord
  2
_D_1
340
0
  0
BLOCK_RECORD
  5
10A
330
1
100
AcDbSymbolTableRecord
100
AcDbBlockTableRecord
  2
_D_2
340
0
  0
BLOCK_RECORD
  5
11E
330
1
100
AcDbSymbolTableRecord
100
AcDbBlockTableRecord
  2
_D_3
340
0
  0
BLOCK_RECORD
  5
137
330
1
100
AcDbSymbolTableRecord
100
AcDbBlockTableRecord
  2
SW_DOWELSYMBOL_0
340
0
102
{BLKREFS
331
13D
331
1B0
331
0
102
}
  0
BLOCK_RECORD
  5
1BB
330
1
100
AcDbSymbolTableRecord
100
AcDbBlockTableRecord
  2
*D8
340
0
  0
BLOCK_RECORD
  5
1E4
330
1
100
AcDbSymbolTableRecord
100
AcDbBlockTableRecord
  2
*D9
340
0
  0
BLOCK_RECORD
  5
224
330
1
100
AcDbSymbolTableRecord
100
AcDbBlockTableRecord
  2
*D11
340
0
  0
ENDTAB
  0
ENDSEC
  0
SECTION
  2
BLOCKS
  0
BLOCK
  5
20
330
1F
100
AcDbEntity
  8
0
100
AcDbBlockBegin
  2
*Model_Space
 70
     0
 10
0.0
 20
0.0
 30
0.0
  3
*Model_Space
  1

  0
ENDBLK
  5
21
330
1F
100
AcDbEntity
  8
0
100
AcDbBlockEnd
  0
BLOCK
  5
1C
330
1B
100
AcDbEntity
 67
     1
  8
0
100
AcDbBlockBegin
  2
*Paper_Space
 70
     0
 10
0.0
 20
0.0
 30
0.0
  3
*Paper_Space
  1

  0
ENDBLK
  5
1D
330
1B
100
AcDbEntity
 67
     1
  8
0
100
AcDbBlockEnd
  0
BLOCK
  5
24
330
23
100
AcDbEntity
  8
0
100
AcDbBlockBegin
  2
*Paper_Space0
 70
     0
 10
0.0
 20
0.0
 30
0.0
  3
*Paper_Space0
  1

  0
ENDBLK
  5
25
330
23
100
AcDbEntity
  8
0
100
AcDbBlockEnd
  0
BLOCK
  5
80
330
7F
100
AcDbEntity
  8
0
100
AcDbBlockBegin
  2
블럭10
 70
     2
 10
0.0
 20
0.0
 30
0.0
  3
블럭10
  1

  0
ELLIPSE
  5
82
330
7F
100
AcDbEntity
  8
중심선
100
AcDbEllipse
 10
20.54032771741204
 20
12.0471743016438
 30
0.0
 11
6.600054785286829
 21
-1.261213355974178E-13
 31
0.0
210
0.0
220
0.0
230
1.0
 40
0.636358354079598
 41
0.9219305317359503
 42
6.513795318482858
  0
ELLIPSE
  5
83
330
7F
100
AcDbEntity
  8
중심선
100
AcDbEllipse
 10
20.54032771746488
 20
12.04717430159265
 30
0.0
 11
3.960054785062283
 21
1.540847449632565E-10
 31
0.0
210
0.0
220
0.0
230
1.0
 40
0.3939339440162632
 41
1.131841032648279
 42
5.62031148352944
  0
LINE
  5
84
330
7F
100
AcDbEntity
  8
중심선
100
AcDbLine
 10
2.268634060543552
 20
16.24717430164393
 30
0.0
 11
5.714909304380834
 21
16.24717430164393
 31
0.0
  0
LINE
  5
85
330
7F
100
AcDbEntity
  8
중심선
100
AcDbLine
 10
5.245725140726316
 20
7.84717430164391
 30
0.0
 11
8.692000384563599
 21
7.84717430164391
 31
0.0
  0
LINE
  5
86
330
7F
100
AcDbEntity
  8
중심선
100
AcDbLine
 10
15.74043728645272
 20
16.24717430164393
 30
0.0
 11
8.692000384563599
 21
7.84717430164391
 31
0.0
  0
LINE
  5
87
330
7F
100
AcDbEntity
  8
중심선
100
AcDbLine
 10
0.1404042013395286
 20
13.71084872107135
 30
0.0
 11
3.58671253028996
 21
13.71088815037384
 31
0.0
  0
LINE
  5
88
330
7F
100
AcDbEntity
  8
중심선
100
AcDbLine
 10
2.750260043222114
 20
10.84717430164391
 30
0.0
 11
6.196535287059397
 21
10.84717430164391
 31
0.0
  0
LINE
  5
89
330
7F
100
AcDbEntity
  8
중심선
100
AcDbLine
 10
12.29416204261559
 20
16.24717430164393
 30
0.0
 11
5.245725140726316
 21
7.84717430164391
 31
0.0
  0
LINE
  5
8A
330
7F
100
AcDbEntity
  8
중심선
100
AcDbLine
 10
10.72767329541681
 20
16.24717430164393
 30
0.0
 11
6.196535287059397
 21
10.84717430164391
 31
0.0
  0
LINE
  5
8B
330
7F
100
AcDbEntity
  8
중심선
100
AcDbLine
 10
7.28139805157953
 20
16.24717430164393
 30
0.0
 11
2.750260043222114
 21
10.84717430164391
 31
0.0
  0
LINE
  5
8C
330
7F
100
AcDbEntity
  8
중심선
100
AcDbLine
 10
5.714909304380834
 20
16.24717430164393
 30
0.0
 11
3.58671253028996
 21
13.71088815037384
 31
0.0
  0
LINE
  5
8D
330
7F
100
AcDbEntity
  8
중심선
100
AcDbLine
 10
2.268634060543552
 20
16.24717430164393
 30
0.0
 11
0.1404042013395286
 21
13.71084872107135
 31
0.0
  0
LINE
  5
8E
330
7F
100
AcDbEntity
  8
중심선
100
AcDbLine
 10
7.28139805157953
 20
16.24717430164393
 30
0.0
 11
10.72767329541681
 21
16.24717430164393
 31
0.0
  0
LINE
  5
8F
330
7F
100
AcDbEntity
  8
중심선
100
AcDbLine
 10
12.29416204261559
 20
16.24717430164393
 30
0.0
 11
15.74043728645272
 21
16.24717430164393
 31
0.0
  0
LINE
  5
90
330
7F
100
AcDbEntity
  8
중심선
100
AcDbLine
 10
19.22036997980202
 20
11.08717430171403
 30
0.0
 11
23.66174974927406
 21
11.08717430171406
 31
0.0
  0
LINE
  5
91
330
7F
100
AcDbEntity
  8
중심선
100
AcDbLine
 10
19.22039502424796
 20
13.00717430171391
 30
0.0
 11
19.22036997980202
 21
11.08717430171403
 31
0.0
  0
LINE
  5
92
330
7F
100
AcDbEntity
  8
중심선
100
AcDbLine
 10
19.22039502424796
 20
13.00717430171391
 30
0.0
 11
26.96566020931264
 21
13.00717430171391
 31
0.0
  0
LINE
  5
93
330
7F
100
AcDbEntity
  8
중심선
100
AcDbLine
 10
22.22332737316547
 20
13.45928029700563
 30
0.0
 11
24.52862924686651
 21
15.39360700705356
 31
0.0
  0
ATTDEF
  5
95
330
7F
100
AcDbEntity
  8
FORMAT
 62
     2
100
AcDbText
 10
2.883703680694412
 20
2.075366912832191
 30
0.0
 40
4.233333333333333
  1
G8C51901
 41
0.75
  7
SLDTEXTSTYLE0
 11
2.883703680694412
 21
-0.0412997538344756
 31
0.0
100
AcDbAttributeDefinition
  3

  2
AUTOATTR0
 70
     0
 74
     1
  0
ENDBLK
  5
81
330
7F
100
AcDbEntity
  8
0
100
AcDbBlockEnd
  0
BLOCK
  5
E2
330
E1
100
AcDbEntity
  8
0
100
AcDbBlockBegin
  2
_D
 70
     0
 10
0.0
 20
0.0
 30
0.0
  3
_D
  1

  0
LINE
  5
E4
330
E1
100
AcDbEntity
  8
치수문자_일반주서
 62
     0
370
    -2
100
AcDbLine
 10
32.22499999999998
 20
4.826074928723898
 30
0.0
 11
32.22499999999998
 21
15.0241295924422
 31
0.0
  0
LINE
  5
E5
330
E1
100
AcDbEntity
  8
치수문자_일반주서
 62
     0
370
    -2
100
AcDbLine
 10
9.999999999999968
 20
4.574624688685359
 30
0.0
 11
9.999999999999968
 21
15.0241295924422
 31
0.0
  0
LINE
  5
E6
330
E1
100
AcDbEntity
  8
치수문자_일반주서
 62
     0
370
    -2
100
AcDbLine
 10
28.92299999999998
 20
15.0241295924422
 30
0.0
 11
13.30199999999997
 21
15.0241295924422
 31
0.0
  0
SOLID
  5
E7
330
E1
100
AcDbEntity
  8
치수문자_일반주서
 62
     0
100
AcDbTrace
 10
28.92299999999998
 20
14.47379625910887
 30
0.0
 11
28.92299999999998
 21
15.57446292577554
 31
0.0
 12
32.22499999999998
 22
15.0241295924422
 32
0.0
 13
32.22499999999998
 23
15.0241295924422
 33
0.0
  0
SOLID
  5
E8
330
E1
100
AcDbEntity
  8
치수문자_일반주서
 62
     0
100
AcDbTrace
 10
13.30199999999997
 20
15.57446292577554
 30
0.0
 11
13.30199999999997
 21
14.47379625910887
 31
0.0
 12
9.999999999999968
 22
15.0241295924422
 32
0.0
 13
9.999999999999968
 23
15.0241295924422
 33
0.0
  0
MTEXT
  5
E9
330
E1
100
AcDbEntity
  8
치수문자_일반주서
 62
     0
100
AcDbMText
 10
21.11249999999997
 20
19.3991295924422
 30
0.0
 40
3.5
 41
0.0
 71
     2
 72
     1
  1
\A1;22.23 [7/8]
  7
SLDTEXTSTYLE0
 73
     1
 44
1.0
  0
POINT
  5
EA
330
E1
100
AcDbEntity
  8
Defpoints
 62
     0
100
AcDbPoint
 10
32.22499999999998
 20
4.763574928723898
 30
0.0
  0
POINT
  5
EB
330
E1
100
AcDbEntity
  8
Defpoints
 62
     0
100
AcDbPoint
 10
9.999999999999968
 20
4.512124688685359
 30
0.0
  0
POINT
  5
EC
330
E1
100
AcDbEntity
  8
Defpoints
 62
     0
100
AcDbPoint
 10
9.999999999999968
 20
15.0241295924422
 30
0.0
  0
ENDBLK
  5
E3
330
E1
100
AcDbEntity
  8
0
100
AcDbBlockEnd
  0
BLOCK
  5
F8
330
F7
100
AcDbEntity
  8
0
100
AcDbBlockBegin
  2
_D_1
 70
     0
 10
0.0
 20
0.0
 30
0.0
  3
_D_1
  1

  0
LINE
  5
FA
330
F7
100
AcDbEntity
  8
치수문자_일반주서
 62
     0
370
    -2
100
AcDbLine
 10
32.22499999999998
 20
4.826074928723898
 30
0.0
 11
32.22499999999998
 21
29.43761412471862
 31
0.0
  0
LINE
  5
FB
330
F7
100
AcDbEntity
  8
치수문자_일반주서
 62
     0
370
    -2
100
AcDbLine
 10
-40.80000000000003
 20
3.873574928723897
 30
0.0
 11
-40.80000000000003
 21
29.43761412471862
 31
0.0
  0
LINE
  5
FC
330
F7
100
AcDbEntity
  8
치수문자_일반주서
 62
     0
370
    -2
100
AcDbLine
 10
28.92299999999998
 20
29.43761412471862
 30
0.0
 11
-37.49800000000003
 21
29.43761412471862
 31
0.0
  0
SOLID
  5
FD
330
F7
100
AcDbEntity
  8
치수문자_일반주서
 62
     0
100
AcDbTrace
 10
28.92299999999998
 20
28.88728079138528
 30
0.0
 11
28.92299999999998
 21
29.98794745805195
 31
0.0
 12
32.22499999999998
 22
29.43761412471862
 32
0.0
 13
32.22499999999998
 23
29.43761412471862
 33
0.0
  0
SOLID
  5
FE
330
F7
100
AcDbEntity
  8
치수문자_일반주서
 62
     0
100
AcDbTrace
 10
-37.49800000000003
 20
29.98794745805195
 30
0.0
 11
-37.49800000000003
 21
28.88728079138528
 31
0.0
 12
-40.80000000000003
 22
29.43761412471862
 32
0.0
 13
-40.80000000000003
 23
29.43761412471862
 33
0.0
  0
MTEXT
  5
FF
330
F7
100
AcDbEntity
  8
치수문자_일반주서
 62
     0
100
AcDbMText
 10
-4.287500000000022
 20
33.81261412471862
 30
0.0
 40
3.5
 41
0.0
 71
     2
 72
     1
  1
\A1;73.03 [2 7/8]
  7
SLDTEXTSTYLE0
 73
     1
 44
1.0
  0
POINT
  5
100
330
F7
100
AcDbEntity
  8
Defpoints
 62
     0
100
AcDbPoint
 10
32.22499999999998
 20
4.763574928723898
 30
0.0
  0
POINT
  5
101
330
F7
100
AcDbEntity
  8
Defpoints
 62
     0
100
AcDbPoint
 10
-40.80000000000003
 20
3.811074928723897
 30
0.0
  0
POINT
  5
102
330
F7
100
AcDbEntity
  8
Defpoints
 62
     0
100
AcDbPoint
 10
-40.80000000000003
 20
29.43761412471862
 30
0.0
  0
ENDBLK
  5
F9
330
F7
100
AcDbEntity
  8
0
100
AcDbBlockEnd
  0
BLOCK
  5
10B
330
10A
100
AcDbEntity
  8
0
100
AcDbBlockBegin
  2
_D_2
 70
     0
 10
0.0
 20
0.0
 30
0.0
  3
_D_2
  1

  0
LINE
  5
10D
330
10A
100
AcDbEntity
  8
치수문자_일반주서
 62
     0
370
    -2
100
AcDbLine
 10
-39.91000000000003
 20
4.763574928723896
 30
0.0
 11
-53.48250000000005
 21
4.763574928723844
 31
0.0
  0
LINE
  5
10E
330
10A
100
AcDbEntity
  8
치수문자_일반주서
 62
     0
370
    -2
100
AcDbLine
 10
-39.91000000000003
 20
-4.761425071276109
 30
0.0
 11
-53.48250000000002
 21
-4.761425071276162
 31
0.0
  0
LINE
  5
10F
330
10A
100
AcDbEntity
  8
치수문자_일반주서
 62
     0
370
    -2
100
AcDbLine
 10
-53.48250000000004
 20
1.461574928723844
 30
0.0
 11
-53.48250000000003
 21
-1.459425071276162
 31
0.0
  0
SOLID
  5
110
330
10A
100
AcDbEntity
  8
치수문자_일반주서
 62
     0
100
AcDbTrace
 10
-52.9321666666667
 20
1.461574928723846
 30
0.0
 11
-54.03283333333337
 21
1.461574928723842
 31
0.0
 12
-53.48250000000005
 22
4.763574928723844
 32
0.0
 13
-53.48250000000005
 23
4.763574928723844
 33
0.0
  0
SOLID
  5
111
330
10A
100
AcDbEntity
  8
치수문자_일반주서
 62
     0
100
AcDbTrace
 10
-54.03283333333336
 20
-1.459425071276164
 30
0.0
 11
-52.9321666666667
 21
-1.45942507127616
 31
0.0
 12
-53.48250000000002
 22
-4.761425071276162
 32
0.0
 13
-53.48250000000002
 23
-4.761425071276162
 33
0.0
  0
MTEXT
  5
112
330
10A
100
AcDbEntity
  8
치수문자_일반주서
 62
     0
100
AcDbMText
 10
-57.85750000000004
 20
0.0010749287238782
 30
0.0
 40
3.5
 41
0.0
 71
     2
 72
     1
  1
\A1;%%c9.53 [3/8]
  7
SLDTEXTSTYLE0
 11
-3.729883127349606E-15
 21
1.0
 31
0.0
 73
     1
 44
1.0
  0
POINT
  5
113
330
10A
100
AcDbEntity
  8
Defpoints
 62
     0
100
AcDbPoint
 10
-39.84750000000003
 20
4.763574928723896
 30
0.0
  0
POINT
  5
114
330
10A
100
AcDbEntity
  8
Defpoints
 62
     0
100
AcDbPoint
 10
-39.84750000000003
 20
-4.761425071276109
 30
0.0
  0
POINT
  5
115
330
10A
100
AcDbEntity
  8
Defpoints
 62
     0
100
AcDbPoint
 10
-53.48250000000002
 20
-4.76142507127616
 30
0.0
  0
ENDBLK
  5
10C
330
10A
100
AcDbEntity
  8
0
100
AcDbBlockEnd
  0
BLOCK
  5
11F
330
11E
100
AcDbEntity
  8
0
100
AcDbBlockBegin
  2
_D_3
 70
     0
 10
0.0
 20
0.0
 30
0.0
  3
_D_3
  1

  0
LINE
  5
121
330
11E
100
AcDbEntity
  8
치수문자_일반주서
 62
     0
370
    -2
100
AcDbLine
 10
32.28749999999998
 20
4.763574928723898
 30
0.0
 11
48.63175326153017
 21
4.763574928723958
 31
0.0
  0
LINE
  5
122
330
11E
100
AcDbEntity
  8
치수문자_일반주서
 62
     0
370
    -2
100
AcDbLine
 10
32.28749999999998
 20
-4.761425071276085
 30
0.0
 11
48.63175326153021
 21
-4.761425071276026
 31
0.0
  0
LINE
  5
123
330
11E
100
AcDbEntity
  8
치수문자_일반주서
 62
     0
370
    -2
100
AcDbLine
 10
48.63175326153017
 20
4.763574928723958
 30
0.0
 11
48.63175326153005
 21
37.83632492872405
 31
0.0
  0
LINE
  5
124
330
11E
100
AcDbEntity
  8
치수문자_일반주서
 62
     0
370
    -2
100
AcDbLine
 10
48.63175326153017
 20
4.763574928723958
 30
0.0
 11
48.63175326153021
 21
-4.761425071276026
 31
0.0
  0
LINE
  5
125
330
11E
100
AcDbEntity
  8
치수문자_일반주서
 62
     0
370
    -2
100
AcDbLine
 10
48.63175326153016
 20
8.065574928723958
 30
0.0
 11
48.63175326153014
 21
11.36757492872396
 31
0.0
  0
LINE
  5
126
330
11E
100
AcDbEntity
  8
치수문자_일반주서
 62
     0
370
    -2
100
AcDbLine
 10
48.63175326153022
 20
-8.063425071276026
 30
0.0
 11
48.63175326153024
 21
-11.36542507127603
 31
0.0
  0
SOLID
  5
127
330
11E
100
AcDbEntity
  8
치수문자_일반주서
 62
     0
100
AcDbTrace
 10
48.08141992819682
 20
8.065574928723956
 30
0.0
 11
49.18208659486349
 21
8.06557492872396
 31
0.0
 12
48.63175326153017
 22
4.763574928723958
 32
0.0
 13
48.63175326153017
 23
4.763574928723958
 33
0.0
  0
SOLID
  5
128
330
11E
100
AcDbEntity
  8
치수문자_일반주서
 62
     0
100
AcDbTrace
 10
49.18208659486356
 20
-8.063425071276024
 30
0.0
 11
48.08141992819689
 21
-8.063425071276027
 31
0.0
 12
48.63175326153021
 22
-4.761425071276026
 32
0.0
 13
48.63175326153021
 23
-4.761425071276026
 33
0.0
  0
MTEXT
  5
129
330
11E
100
AcDbEntity
  8
치수문자_일반주서
 62
     0
100
AcDbMText
 10
44.2567532615301
 20
24.71132492872404
 30
0.0
 40
3.5
 41
0.0
 71
     2
 72
     1
  1
\A1;%%c9.53 [3/8]
  7
SLDTEXTSTYLE0
 11
-3.729883127349614E-15
 21
1.0
 31
0.0
 73
     1
 44
1.0
  0
POINT
  5
12A
330
11E
100
AcDbEntity
  8
Defpoints
 62
     0
100
AcDbPoint
 10
32.22499999999998
 20
4.763574928723898
 30
0.0
  0
POINT
  5
21C
330
11E
100
AcDbEntity
  8
Defpoints
 62
     0
100
AcDbPoint
 10
32.22499999999998
 20
-4.761425071276085
 30
0.0
  0
POINT
  5
21D
330
11E
100
AcDbEntity
  8
Defpoints
 62
     0
100
AcDbPoint
 10
48.63175326153021
 20
-4.761425071276024
 30
0.0
  0
ENDBLK
  5
120
330
11E
100
AcDbEntity
  8
0
100
AcDbBlockEnd
  0
BLOCK
  5
138
330
137
100
AcDbEntity
  8
0
100
AcDbBlockBegin
  2
SW_DOWELSYMBOL_0
 70
     0
 10
0.0
 20
0.0
 30
0.0
  3
SW_DOWELSYMBOL_0
  1

  0
CIRCLE
  5
13A
330
137
100
AcDbEntity
  8
해칭선
 62
     0
100
AcDbCircle
 10
0.0
 20
0.0
 30
0.0
 40
3.000000000000001
  0
HATCH
  5
13B
330
137
100
AcDbEntity
  8
0
  6
Continuous
 62
     0
370
     0
100
AcDbHatch
 10
0.0
 20
0.0
 30
0.0
210
0.0
220
0.0
230
1.0
  2
SOLID
 70
     1
 71
     0
 91
        1
 92
        0
 93
        3
 72
     2
 10
0.0
 20
0.0
 40
3.000000000000001
 50
0.0
 51
90.0
 73
     1
 72
     1
 10
0.0
 20
3.000000000000001
 11
0.0
 21
0.0
 72
     1
 10
0.0
 20
0.0
 11
3.000000000000001
 21
0.0
 97
        0
 75
     0
 76
     1
 98
        1
 10
0.0
 20
0.0
  0
HATCH
  5
13C
330
137
100
AcDbEntity
  8
0
  6
Continuous
 62
     0
370
     0
100
AcDbHatch
 10
0.0
 20
0.0
 30
0.0
210
0.0
220
0.0
230
1.0
  2
SOLID
 70
     1
 71
     0
 91
        1
 92
        0
 93
        3
 72
     2
 10
0.0
 20
0.0
 40
3.000000000000001
 50
180.0
 51
270.0000000000008
 73
     1
 72
     1
 10
0.0
 20
-3.000000000000001
 11
0.0
 21
0.0
 72
     1
 10
0.0
 20
0.0
 11
-3.000000000000001
 21
0.0
 97
        0
 75
     0
 76
     1
 98
        1
 10
0.0
 20
0.0
  0
ENDBLK
  5
139
330
137
100
AcDbEntity
  8
0
100
AcDbBlockEnd
  0
BLOCK
  5
1BC
330
1BB
100
AcDbEntity
  8
0
100
AcDbBlockBegin
  2
*D8
 70
     1
 10
0.0
 20
0.0
 30
0.0
  3
*D8
  1

  0
LINE
  5
1BE
330
1BB
100
AcDbEntity
  8
치수문자_일반주서
 62
     0
370
    -2
100
AcDbLine
 10
64.00004186422878
 20
6.406559092676754
 30
0.0
 11
64.00004186422878
 21
39.68708616572358
 31
0.0
  0
LINE
  5
1BF
330
1BB
100
AcDbEntity
  8
치수문자_일반주서
 62
     0
370
    -2
100
AcDbLine
 10
90.00000000000001
 20
14.07010657646163
 30
0.0
 11
90.00000000000001
 21
39.68708616572358
 31
0.0
  0
LINE
  5
1C0
330
1BB
100
AcDbEntity
  8
치수문자_일반주서
 62
     0
370
    -2
100
AcDbLine
 10
67.30204186422878
 20
39.68708616572358
 30
0.0
 11
86.69800000000001
 21
39.68708616572358
 31
0.0
  0
SOLID
  5
1C1
330
1BB
100
AcDbEntity
  8
치수문자_일반주서
 62
     0
100
AcDbTrace
 10
67.30204186422878
 20
40.23741949905692
 30
0.0
 11
67.30204186422878
 21
39.13675283239025
 31
0.0
 12
64.00004186422878
 22
39.68708616572358
 32
0.0
 13
64.00004186422878
 23
39.68708616572358
 33
0.0
  0
SOLID
  5
1C2
330
1BB
100
AcDbEntity
  8
치수문자_일반주서
 62
     0
100
AcDbTrace
 10
86.69800000000001
 20
39.13675283239025
 30
0.0
 11
86.69800000000001
 21
40.23741949905692
 31
0.0
 12
90.00000000000001
 22
39.68708616572358
 32
0.0
 13
90.00000000000001
 23
39.68708616572358
 33
0.0
  0
MTEXT
  5
1C3
330
1BB
100
AcDbEntity
  8
치수문자_일반주서
 62
     0
100
AcDbMText
 10
77.04659572693204
 20
44.06208616572358
 30
0.0
 40
3.5
 41
0.0
 71
     2
 72
     1
  1
\A1;26 [1.02]
  7
SLDTEXTSTYLE0
 73
     1
 44
1.0
  0
POINT
  5
1C4
330
1BB
100
AcDbEntity
  8
Defpoints
 62
     0
100
AcDbPoint
 10
64.00004186422878
 20
6.344059092676754
 30
0.0
  0
POINT
  5
1C5
330
1BB
100
AcDbEntity
  8
Defpoints
 62
     0
100
AcDbPoint
 10
90.00000000000001
 20
14.00760657646163
 30
0.0
  0
POINT
  5
1C6
330
1BB
100
AcDbEntity
  8
Defpoints
 62
     0
100
AcDbPoint
 10
90.00000000000001
 20
39.68708616572358
 30
0.0
  0
ENDBLK
  5
1BD
330
1BB
100
AcDbEntity
  8
0
100
AcDbBlockEnd
  0
BLOCK
  5
1E5
330
1E4
100
AcDbEntity
  8
0
100
AcDbBlockBegin
  2
*D9
 70
     1
 10
0.0
 20
0.0
 30
0.0
  3
*D9
  1

  0
LINE
  5
1E7
330
1E4
100
AcDbEntity
  8
치수문자_일반주서
 62
     0
370
    -2
100
AcDbLine
 10
103.4300207330635
 20
-31.79330728246484
 30
0.0
 11
103.4300207330635
 21
1.487219790581989
 31
0.0
  0
LINE
  5
1E8
330
1E4
100
AcDbEntity
  8
치수문자_일반주서
 62
     0
370
    -2
100
AcDbLine
 10
129.4299788688348
 20
-24.12975979867997
 30
0.0
 11
129.4299788688348
 21
1.487219790581989
 31
0.0
  0
LINE
  5
1E9
330
1E4
100
AcDbEntity
  8
치수문자_일반주서
 62
     0
370
    -2
100
AcDbLine
 10
106.7320207330635
 20
1.487219790581989
 30
0.0
 11
126.1279788688348
 21
1.487219790581989
 31
0.0
  0
SOLID
  5
1EA
330
1E4
100
AcDbEntity
  8
치수문자_일반주서
 62
     0
100
AcDbTrace
 10
106.7320207330635
 20
2.037553123915322
 30
0.0
 11
106.7320207330635
 21
0.9368864572486556
 31
0.0
 12
103.4300207330635
 22
1.487219790581989
 32
0.0
 13
103.4300207330635
 23
1.487219790581989
 33
0.0
  0
SOLID
  5
1EB
330
1E4
100
AcDbEntity
  8
치수문자_일반주서
 62
     0
100
AcDbTrace
 10
126.1279788688348
 20
0.9368864572486556
 30
0.0
 11
126.1279788688348
 21
2.037553123915322
 31
0.0
 12
129.4299788688348
 22
1.487219790581989
 32
0.0
 13
129.4299788688348
 23
1.487219790581989
 33
0.0
  0
MTEXT
  5
1EC
330
1E4
100
AcDbEntity
  8
치수문자_일반주서
 62
     0
100
AcDbMText
 10
116.4765745957668
 20
5.862219790581989
 30
0.0
 40
3.5
 41
0.0
 71
     2
 72
     1
  1
\A1;26 [1.02]
  7
SLDTEXTSTYLE0
 73
     1
 44
1.0
  0
POINT
  5
1ED
330
1E4
100
AcDbEntity
  8
Defpoints
 62
     0
100
AcDbPoint
 10
103.4300207330635
 20
-31.85580728246484
 30
0.0
  0
POINT
  5
1EE
330
1E4
100
AcDbEntity
  8
Defpoints
 62
     0
100
AcDbPoint
 10
129.4299788688348
 20
-24.19225979867997
 30
0.0
  0
POINT
  5
1EF
330
1E4
100
AcDbEntity
  8
Defpoints
 62
     0
100
AcDbPoint
 10
129.4299788688348
 20
1.487219790581989
 30
0.0
  0
ENDBLK
  5
1E6
330
1E4
100
AcDbEntity
  8
0
100
AcDbBlockEnd
  0
BLOCK
  5
225
330
224
100
AcDbEntity
  8
0
100
AcDbBlockBegin
  2
*D11
 70
     1
 10
0.0
 20
0.0
 30
0.0
  3
*D11
  1

  0
LINE
  5
227
330
224
100
AcDbEntity
  8
치수문자_일반주서
 62
     0
370
    -2
100
AcDbLine
 10
33.57417760905568
 20
-7.472035775490151
 30
0.0
 11
50.06229811166961
 21
-34.59283485186845
 31
0.0
  0
MTEXT
  5
228
330
224
100
AcDbEntity
  8
치수문자_일반주서
 62
     0
100
AcDbMText
 10
44.91891633750654
 20
-21.07954137885799
 30
0.0
 40
3.5
 41
0.0
 71
     5
 72
     1
  1
\A1;R.76 [R0.030]
  7
SLDTEXTSTYLE0
 11
0.5194826793936239
 21
-0.8544809803676271
 31
0.0
 73
     1
 44
1.0
  0
LINE
  5
229
330
224
100
AcDbEntity
  8
치수문자_일반주서
 62
     0
370
    -2
100
AcDbLine
 10
31.46299999999999
 20
-3.999425071276109
 30
0.0
 11
31.85884580169793
 21
-4.650539578316247
 31
0.0
  0
SOLID
  5
22A
330
224
100
AcDbEntity
  8
치수문자_일반주서
 62
     0
100
AcDbTrace
 10
34.04442697525133
 20
-7.186147140930527
 30
0.0
 11
33.10392824286003
 21
-7.757924410049776
 31
0.0
 12
31.85884580169793
 22
-4.650539578316247
 32
0.0
 13
31.85884580169793
 23
-4.650539578316247
 33
0.0
  0
POINT
  5
22B
330
224
100
AcDbEntity
  8
Defpoints
 62
     0
100
AcDbPoint
 10
31.85884580169793
 20
-4.650539578316247
 30
0.0
  0
POINT
  5
22C
330
224
100
AcDbEntity
  8
Defpoints
 62
     0
100
AcDbPoint
 10
31.46299999999999
 20
-3.999425071276109
 30
0.0
  0
ENDBLK
  5
226
330
224
100
AcDbEntity
  8
0
100
AcDbBlockEnd
  0
ENDSEC
  0
SECTION
  2
ENTITIES
  0
LINE
  5
96
330
1F
100
AcDbEntity
  8
0
  6
Continuous
 62
     1
370
    15
100
AcDbLine
 10
16.66489777222514
 20
0.9227163931891139
 30
0.0
 11
16.60979129185515
 21
0.953571705606083
 31
0.0
1001
PE_URL
1000

  0
LINE
  5
97
330
1F
100
AcDbEntity
  8
0
  6
Continuous
 62
     1
370
    15
100
AcDbLine
 10
15.94514652935986
 20
4.763574928723898
 30
0.0
 11
13.95183648844731
 21
4.763574928723898
 31
0.0
1001
PE_URL
1000

  0
LINE
  5
98
330
1F
100
AcDbEntity
  8
0
  6
Continuous
 62
     1
370
    15
100
AcDbLine
 10
31.22862323153454
 20
-4.761425071276111
 30
0.0
 11
31.46299999999999
 21
-4.761425071276111
 31
0.0
1001
PE_URL
1000

  0
LINE
  5
99
330
1F
100
AcDbEntity
  8
0
  6
Continuous
 62
     1
370
    15
100
AcDbLine
 10
22.5899769988011
 20
-4.761425071276111
 30
0.0
 11
24.58354388714084
 21
-4.761425071276111
 31
0.0
1001
PE_URL
1000

  0
LINE
  5
9A
330
1F
100
AcDbEntity
  8
0
  6
Continuous
 62
     1
370
    15
100
AcDbLine
 10
24.58354388714085
 20
4.763574928723898
 30
0.0
 11
22.58997699880114
 21
4.763574928723898
 31
0.0
1001
PE_URL
1000

  0
LINE
  5
9B
330
1F
100
AcDbEntity
  8
0
  6
Continuous
 62
     1
370
    15
100
AcDbLine
 10
13.95183648844726
 20
-4.761425071276111
 30
0.0
 11
15.94514652935979
 21
-4.761425071276111
 31
0.0
1001
PE_URL
1000

  0
ARC
  5
9C
102
{ACAD_REACTORS
102
}
330
1F
100
AcDbEntity
  8
0
  6
Continuous
 62
     1
370
    15
100
AcDbCircle
 10
31.46299999999999
 20
-3.999425071276109
 30
0.0
 40
0.7620000000000058
100
AcDbArc
 50
270.0000000000011
 51
0.0
1001
PE_URL
1000

  0
ARC
  5
9D
330
1F
100
AcDbEntity
  8
0
  6
Continuous
 62
     1
370
    15
100
AcDbCircle
 10
31.46299999999999
 20
4.001574928723898
 30
0.0
 40
0.7620000000000058
100
AcDbArc
 50
0.0
 51
90.0
1001
PE_URL
1000

  0
LINE
  5
9E
330
1F
100
AcDbEntity
  8
0
  6
Continuous
 62
     1
370
    15
100
AcDbLine
 10
31.46299999999999
 20
4.763574928723898
 30
0.0
 11
31.22862323153452
 21
4.763574928723898
 31
0.0
1001
PE_URL
1000

  0
LINE
  5
9F
330
1F
100
AcDbEntity
  8
외형선
  6
Continuous
370
    15
100
AcDbLine
 10
-39.84750000000003
 20
-4.761425071276106
 30
0.0
 11
9.750137270308205
 21
-4.761425071276106
 31
0.0
  0
LINE
  5
A0
330
1F
100
AcDbEntity
  8
외형선
  6
Continuous
370
    15
100
AcDbLine
 10
9.750137270308205
 20
4.763574928723894
 30
0.0
 11
-39.84750000000003
 21
4.763574928723894
 31
0.0
  0
LINE
  5
A1
330
1F
100
AcDbEntity
  8
외형선
  6
Continuous
370
    15
100
AcDbLine
 10
-39.84750000000003
 20
4.763574928723894
 30
0.0
 11
-40.80000000000003
 21
3.811074928723897
 31
0.0
  0
LINE
  5
A2
330
1F
100
AcDbEntity
  8
외형선
  6
Continuous
370
    15
100
AcDbLine
 10
-40.80000000000003
 20
-3.80892507127611
 30
0.0
 11
-39.84750000000003
 21
-4.761425071276108
 31
0.0
  0
SPLINE
  5
A3
330
1F
100
AcDbEntity
  8
0
  6
Continuous
 62
     1
370
    15
100
AcDbSpline
210
0.0
220
0.0
230
1.0
 70
     8
 71
     3
 72
    19
 73
    15
 74
     0
 42
0.000000001
 43
0.00000001
 40
0.0
 40
0.0
 40
0.0
 40
0.0
 40
0.0839401861911319
 40
0.1678099450678898
 40
0.2516527040469404
 40
0.3355121169199236
 40
0.4194316977973456
 40
0.503393776641596
 40
0.587280677438962
 40
0.6711271210205778
 40
0.7589748908324673
 40
0.8468465690305715
 40
0.9347639363083329
 40
1.0
 40
1.0
 40
1.0
 40
1.0
 10
9.999999999999975
 20
0.9341485865932929
 30
0.0
 10
10.50116016544127
 20
0.6476024349005721
 30
0.0
 10
11.50306001400039
 20
0.0747505488506605
 30
0.0
 10
13.00517700252857
 20
-0.7956375919866843
 30
0.0
 10
14.5067455747334
 20
-1.637293660504042
 30
0.0
 10
16.00865700104641
 20
-2.425432943989114
 30
0.0
 10
17.51152356743046
 20
-3.133119763913461
 30
0.0
 10
19.01483001113759
 20
-3.736894328545361
 30
0.0
 10
20.51726501392177
 20
-4.217438114749618
 30
0.0
 10
22.04274316852339
 20
-4.563356140619729
 30
0.0
 10
23.5921754755567
 20
-4.756767090119034
 30
0.0
 10
25.16593966298437
 20
-4.775080547319085
 30
0.0
 10
26.60491866102434
 20
-4.651776825948015
 30
0.0
 10
27.51933309180369
 20
-4.450231232542233
 30
0.0
 10
27.90883006663027
 20
-4.364382413583559
 30
0.0
1001
PE_URL
1000

  0
SPLINE
  5
A4
330
1F
100
AcDbEntity
  8
외형선
  6
Continuous
370
    15
100
AcDbSpline
210
0.0
220
0.0
230
1.0
 70
    24
 71
     3
 72
    22
 73
    18
 74
     0
 42
0.000000001
 43
0.00000001
 40
0.0
 40
0.0
 40
0.0
 40
0.0
 40
0.0433544937722186
 40
0.1142104083711118
 40
0.1871211492934939
 40
0.2579770638923731
 40
0.3308878048147413
 40
0.4017437194136217
 40
0.4746544603359911
 40
0.5455103749349477
 40
0.6184211158572411
 40
0.6892770304560587
 40
0.7621877713783587
 40
0.8330436859773028
 40
0.9059544268997408
 40
0.9768103414984776
 40
1.0
 40
1.0
 40
1.0
 40
1.0
 10
10.00000000000002
 20
4.015329566595828
 30
0.0
 10
10.0
 20
3.967606383020173
 30
0.0
 10
9.999999999999961
 20
3.84188736728027
 30
0.0
 10
10.0
 20
3.607127775909146
 30
0.0
 10
9.999999999999982
 20
3.313957050230179
 30
0.0
 10
9.999999999999904
 20
2.999734783291298
 30
0.0
 10
10.00000000000001
 20
2.679744003279356
 30
0.0
 10
9.999999999999961
 20
2.357085375315351
 30
0.0
 10
10.00000000000003
 20
2.046753481231224
 30
0.0
 10
9.999999999999954
 20
1.75192583299429
 30
0.0
 10
10.00000000000001
 20
1.486283177606926
 30
0.0
 10
10.00000000000001
 20
1.25246693218181
 30
0.0
 10
9.999999999999982
 20
1.061659408896343
 30
0.0
 10
9.999999999999993
 20
0.9144971924955878
 30
0.0
 10
9.999999999999993
 20
0.8227483861816166
 30
0.0
 10
9.999999999999986
 20
0.7812039716666299
 30
0.0
 10
9.999999999999993
 20
0.7889977252136905
 30
0.0
 10
9.999999999999986
 20
0.7909195007661525
 30
0.0
  0
SPLINE
  5
A5
330
1F
100
AcDbEntity
  8
0
  6
Continuous
 62
     1
370
    15
100
AcDbSpline
210
0.0
220
0.0
230
1.0
 70
     8
 71
     3
 72
    21
 73
    17
 74
     0
 42
0.000000001
 43
0.00000001
 40
0.0
 40
0.0
 40
0.0
 40
0.0
 40
0.0597068359442016
 40
0.1305091499839217
 40
0.2013375662977169
 40
0.2721018484137219
 40
0.3428351634466373
 40
0.4135743227636541
 40
0.4843560887053087
 40
0.5551922397757116
 40
0.6293440517602732
 40
0.7034643892652569
 40
0.7775716799753782
 40
0.8516844211164833
 40
0.9258210808512171
 40
1.0
 40
1.0
 40
1.0
 40
1.0
 10
31.22862323153453
 20
-4.751041407795229
 30
0.0
 10
30.80617503741821
 20
-4.744387107042999
 30
0.0
 10
29.88277399205232
 20
-4.729841919357578
 30
0.0
 10
28.457956078535
 20
-4.517584574452293
 30
0.0
 10
26.95469308673617
 20
-4.160521550549089
 30
0.0
 10
25.45235125794778
 20
-3.661243232108035
 30
0.0
 10
23.95073467536136
 20
-3.042066926455987
 30
0.0
 10
22.44897644136821
 20
-2.321899774197627
 30
0.0
 10
20.94631951990134
 20
-1.524821548553764
 30
0.0
 10
19.41912458256408
 20
-0.6643404545623597
 30
0.0
 10
17.86864111889291
 20
0.2339993274057541
 30
0.0
 10
16.29510491120885
 20
1.137210897611834
 30
0.0
 10
14.72191231004462
 20
1.999909334222864
 30
0.0
 10
13.14857334687922
 20
2.787280869360061
 30
0.0
 10
11.57464487307305
 20
3.484090768343671
 30
0.0
 10
10.52498131756397
 20
3.838216333627148
 30
0.0
 10
10.00000000000001
 20
4.015329566595822
 30
0.0
1001
PE_URL
1000

  0
LINE
  5
A6
330
1F
100
AcDbEntity
  8
0
  6
Continuous
 62
     1
370
    15
100
AcDbLine
 10
32.22499999999998
 20
-3.97023162616891
 30
0.0
 11
32.22499999999998
 21
-2.40236223160823
 31
0.0
1001
PE_URL
1000

  0
SPLINE
  5
A7
330
1F
100
AcDbEntity
  8
0
  6
Continuous
 62
     1
370
    15
100
AcDbSpline
210
0.0
220
0.0
230
1.0
 70
     8
 71
     3
 72
    14
 73
    10
 74
     0
 42
0.000000001
 43
0.00000001
 40
0.0
 40
0.0
 40
0.0
 40
0.0
 40
0.25
 40
0.25
 40
0.5
 40
0.5
 40
0.75
 40
0.75
 40
1.0
 40
1.0
 40
1.0
 40
1.0
 10
31.46299999999999
 20
-4.65349649154525
 30
0.0
 10
31.55793564076716
 20
-4.665077149578763
 30
0.0
 10
31.64857799043543
 20
-4.659378695103763
 30
0.0
 10
31.82410746797352
 20
-4.612877535703653
 30
0.0
 10
31.90426482411248
 20
-4.573461259057414
 30
0.0
 10
32.05023592967637
 20
-4.454957329811715
 30
0.0
 10
32.11296252091518
 20
-4.376728489759691
 30
0.0
 10
32.20101363014476
 20
-4.188894623435324
 30
0.0
 10
32.22499999999998
 20
-4.079946024677811
 30
0.0
 10
32.22499999999998
 20
-3.97023162616891
 30
0.0
1001
PE_URL
1000

  0
SPLINE
  5
A8
330
1F
100
AcDbEntity
  8
0
  6
Continuous
 62
     1
370
    15
100
AcDbSpline
210
0.0
220
0.0
230
1.0
 70
     8
 71
     3
 72
    50
 73
    46
 74
     0
 42
0.000000001
 43
0.00000001
 40
0.0
 40
0.0
 40
0.0
 40
0.0
 40
0.0312499999999998
 40
0.0312499999999998
 40
0.0624999999999997
 40
0.0624999999999997
 40
0.1249999999999993
 40
0.1249999999999993
 40
0.1562499999999999
 40
0.1562499999999999
 40
0.1875000000000005
 40
0.1875000000000005
 40
0.2500000000000002
 40
0.2500000000000002
 40
0.3124999999999999
 40
0.3124999999999999
 40
0.3749999999999997
 40
0.3749999999999997
 40
0.4062499999999996
 40
0.4062499999999996
 40
0.4374999999999994
 40
0.4374999999999994
 40
0.4687499999999993
 40
0.4687499999999993
 40
0.4999999999999992
 40
0.4999999999999992
 40
0.5624999999999997
 40
0.5624999999999997
 40
0.6250000000000001
 40
0.6250000000000001
 40
0.6875000000000006
 40
0.6875000000000006
 40
0.7187500000000008
 40
0.7187500000000008
 40
0.7500000000000011
 40
0.7500000000000011
 40
0.8125000000000009
 40
0.8125000000000009
 40
0.8437500000000007
 40
0.8437500000000007
 40
0.8750000000000006
 40
0.8750000000000006
 40
0.9375000000000003
 40
0.9375000000000003
 40
1.0
 40
1.0
 40
1.0
 40
1.0
 10
31.46299999999999
 20
-4.653496491545247
 30
0.0
 10
31.2387922029106
 20
-4.6261466595374
 30
0.0
 10
31.01431411454384
 20
-4.593639021382307
 30
0.0
 10
30.56704179112837
 20
-4.5186563116322
 30
0.0
 10
30.3452457137647
 20
-4.476258633838161
 30
0.0
 10
29.67577812055693
 20
-4.334190685499099
 30
0.0
 10
29.22501077159553
 20
-4.219537023226023
 30
0.0
 10
28.55550440252541
 20
-4.021032390694814
 30
0.0
 10
28.33371960967752
 20
-3.950513324058996
 30
0.0
 10
27.88646697466162
 20
-3.800541820067021
 30
0.0
 10
27.66199227620091
 20
-3.721182126351613
 30
0.0
 10
26.98935952438676
 20
-3.471128898750793
 30
0.0
 10
26.54574258231791
 20
-3.28899135906116
 30
0.0
 10
25.64986461804457
 20
-2.896215109483174
 30
0.0
 10
25.20071279515818
 20
-2.685938407978882
 30
0.0
 10
24.3109163613329
 20
-2.245006480396858
 30
0.0
 10
23.86032969717818
 20
-2.012700638671219
 30
0.0
 10
23.18922757591393
 20
-1.653269896170701
 30
0.0
 10
22.96734089602285
 20
-1.531832803876699
 30
0.0
 10
22.5212077336313
 20
-1.285431020884574
 30
0.0
 10
22.29698461695977
 20
-1.160463917447023
 30
0.0
 10
21.84844136111193
 20
-0.908220273983826
 30
0.0
 10
21.6241236745136
 20
-0.7809451111144161
 30
0.0
 10
21.17761534199472
 20
-0.5253574324080138
 30
0.0
 10
20.95589243460278
 20
-0.3971371038609746
 30
0.0
 10
20.28521892078268
 20
-0.0105307527972697
 30
0.0
 10
19.83454020269967
 20
0.2490768640291657
 30
0.0
 10
18.9438159892193
 20
0.7618035982807404
 30
0.0
 10
18.49567709243681
 20
1.016472398551693
 30
0.0
 10
17.59943720765618
 20
1.514615738259067
 30
0.0
 10
17.15593893365668
 20
1.757264223640406
 30
0.0
 10
16.48346430262696
 20
2.10934617362897
 30
0.0
 10
16.25894786186968
 20
2.224567874489247
 30
0.0
 10
15.81142421802025
 20
2.449599349696874
 30
0.0
 10
15.58942192571255
 20
2.55925007138896
 30
0.0
 10
14.92050022602272
 20
2.87989146460006
 30
0.0
 10
14.46974798505034
 20
3.082610581276566
 30
0.0
 10
13.79973957960465
 20
3.364101164531013
 30
0.0
 10
13.57805353941959
 20
3.454111263714546
 30
0.0
 10
13.13108166912047
 20
3.62681949348414
 30
0.0
 10
12.90666023151183
 20
3.70938858380792
 30
0.0
 10
12.23392326828733
 20
3.944472165208756
 30
0.0
 10
11.79010590498878
 20
4.083960673273641
 30
0.0
 10
10.89462207337677
 20
4.326629338569862
 30
0.0
 10
10.4444383591633
 20
4.42951724850978
 30
0.0
 10
9.999999999999982
 20
4.512124688685367
 30
0.0
1001
PE_URL
1000

  0
SPLINE
  5
A9
330
1F
100
AcDbEntity
  8
0
  6
Continuous
 62
     1
370
    15
100
AcDbSpline
210
0.0
220
0.0
230
1.0
 70
     8
 71
     3
 72
    21
 73
    17
 74
     0
 42
0.000000001
 43
0.00000001
 40
0.0
 40
0.0
 40
0.0
 40
0.0
 40
0.0721033539229078
 40
0.1442616460353248
 40
0.2164465403223038
 40
0.2885660721385592
 40
0.3606540438023291
 40
0.4327479716776307
 40
0.504885322162889
 40
0.5770780993394927
 40
0.6526500376640687
 40
0.7281898987222123
 40
0.8037164631184096
 40
0.8792485823301013
 40
0.9548050782149199
 40
1.0
 40
1.0
 40
1.0
 40
1.0
 10
31.46300000000002
 20
-2.496603474749399
 30
0.0
 10
30.96242983771814
 20
-2.242438486394216
 30
0.0
 10
29.96090811039095
 20
-1.733914852058548
 30
0.0
 10
28.45795727288954
 20
-0.8918348376643171
 30
0.0
 10
26.95469276699679
 20
-0.0264424699264098
 30
0.0
 10
25.45235134347678
 20
0.8419157288572049
 30
0.0
 10
23.95073465270773
 20
1.681828171136589
 30
0.0
 10
22.44897644646734
 20
2.466296496845342
 30
0.0
 10
20.9463195221761
 20
3.169276627456654
 30
0.0
 10
19.41912456809067
 20
3.776551348254784
 30
0.0
 10
17.86864117741581
 20
4.262257471606724
 30
0.0
 10
16.29510469281204
 20
4.600064840230329
 30
0.0
 10
14.72191312501813
 20
4.77285436822856
 30
0.0
 10
13.14857030466422
 20
4.765449704812465
 30
0.0
 10
11.78575808839117
 20
4.631985192549887
 30
0.0
 10
10.9472368280097
 20
4.437074185408736
 30
0.0
 10
10.63339452694732
 20
4.364122762619838
 30
0.0
1001
PE_URL
1000

  0
SPLINE
  5
AA
330
1F
100
AcDbEntity
  8
0
  6
Continuous
 62
     1
370
    15
100
AcDbSpline
210
0.0
220
0.0
230
1.0
 70
     8
 71
     3
 72
    14
 73
    10
 74
     0
 42
0.000000001
 43
0.00000001
 40
0.0
 40
0.0
 40
0.0
 40
0.0
 40
0.25
 40
0.25
 40
0.5
 40
0.5
 40
0.75
 40
0.75
 40
1.0
 40
1.0
 40
1.0
 40
1.0
 10
32.22499999999998
 20
-2.402362231608233
 30
0.0
 10
32.22499999999998
 20
-2.44835082922831
 30
0.0
 10
32.20325049052862
 20
-2.492466222227939
 30
0.0
 10
32.12097932178268
 20
-2.56416828514821
 30
0.0
 10
32.06036087035999
 20
-2.591055844037037
 30
0.0
 10
31.91473153441404
 20
-2.615098574970258
 30
0.0
 10
31.82877561535069
 20
-2.612220827091296
 30
0.0
 10
31.64999000097276
 20
-2.57571601469191
 30
0.0
 10
31.55581498649743
 20
-2.542142794536605
 30
0.0
 10
31.46299999999999
 20
-2.496603474749385
 30
0.0
1001
PE_URL
1000

  0
LINE
  5
AB
330
1F
100
AcDbEntity
  8
0
  6
Continuous
 62
     1
370
    15
100
AcDbLine
 10
32.22499999999998
 20
-1.566794465836728
 30
0.0
 11
32.22499999999998
 21
1.56894432328459
 31
0.0
1001
PE_URL
1000

  0
SPLINE
  5
AC
330
1F
100
AcDbEntity
  8
0
  6
Continuous
 62
     1
370
    15
100
AcDbSpline
210
0.0
220
0.0
230
1.0
 70
     8
 71
     3
 72
    14
 73
    10
 74
     0
 42
0.000000001
 43
0.00000001
 40
0.0
 40
0.0
 40
0.0
 40
0.0
 40
0.2500000000000002
 40
0.2500000000000002
 40
0.5000000000000004
 40
0.5000000000000004
 40
0.7500000000000007
 40
0.7500000000000007
 40
1.0
 40
1.0
 40
1.0
 40
1.0
 10
31.46299999999999
 20
-1.453125242811887
 30
0.0
 10
31.55793564076716
 20
-1.505219454032334
 30
0.0
 10
31.64857799043542
 20
-1.5529991550006
 30
0.0
 10
31.82410746797358
 20
-1.635739651397589
 30
0.0
 10
31.90426482411241
 20
-1.668552665306589
 30
0.0
 10
32.0502359296763
 20
-1.706916508371249
 30
0.0
 10
32.11296252091516
 20
-1.710786999986276
 30
0.0
 10
32.20101363014476
 20
-1.672435199095063
 30
0.0
 10
32.22499999999998
 20
-1.629314582078523
 30
0.0
 10
32.22499999999998
 20
-1.566794465836728
 30
0.0
1001
PE_URL
1000

  0
SPLINE
  5
AD
330
1F
100
AcDbEntity
  8
0
  6
Continuous
 62
     1
370
    15
100
AcDbSpline
210
0.0
220
0.0
230
1.0
 70
     8
 71
     3
 72
    18
 73
    14
 74
     0
 42
0.000000001
 43
0.00000001
 40
0.0
 40
0.0
 40
0.0
 40
0.0
 40
0.004072665203952
 40
0.1009246043778974
 40
0.1978255906330532
 40
0.2946398135899649
 40
0.3914073447050208
 40
0.4927928231527218
 40
0.5942058943689189
 40
0.6956716955429812
 40
0.7971678061305953
 40
0.8986039603206879
 40
1.0
 40
1.0
 40
1.0
 40
1.0
 10
15.94514652935985
 20
4.760399548463283
 30
0.0
 10
15.96621040478825
 20
4.761451612016227
 30
0.0
 10
16.48819372230057
 20
4.787522769978867
 30
0.0
 10
17.51153613044768
 20
4.692589902416057
 30
0.0
 10
19.0148266606272
 20
4.465546118402214
 30
0.0
 10
20.5172658618234
 20
4.072579889769081
 30
0.0
 10
22.04274311012491
 20
3.541506291258708
 30
0.0
 10
23.5921747769813
 20
2.876859405032572
 30
0.0
 10
25.16594250734801
 20
2.097935478753187
 30
0.0
 10
26.74047771092699
 20
1.242509702005028
 30
0.0
 10
28.31529708759154
 20
0.3432828209566316
 30
0.0
 10
29.88946432988381
 20
-0.5724547800013557
 30
0.0
 10
30.93855727033346
 20
-1.159607129289283
 30
0.0
 10
31.46299999999999
 20
-1.453125242811894
 30
0.0
1001
PE_URL
1000

  0
SPLINE
  5
AE
330
1F
100
AcDbEntity
  8
0
  6
Continuous
 62
     1
370
    15
100
AcDbSpline
210
0.0
220
0.0
230
1.0
 70
     8
 71
     3
 72
    16
 73
    12
 74
     0
 42
0.000000001
 43
0.00000001
 40
0.0
 40
0.0
 40
0.0
 40
0.0
 40
0.1231094591150889
 40
0.2463127198417163
 40
0.3695614011922597
 40
0.4926984824856702
 40
0.6157816778904145
 40
0.7388750429466402
 40
0.8620425478831102
 40
0.9853046885004575
 40
0.9999999999999999
 40
0.9999999999999999
 40
0.9999999999999999
 40
0.9999999999999999
 10
31.46300000000002
 20
2.263967013990487
 30
0.0
 10
30.96242983950819
 20
2.51111941359292
 30
0.0
 10
29.96090811576244
 20
3.005612527274553
 30
0.0
 10
28.45795725138123
 20
3.627649152940713
 30
0.0
 10
26.95469284765322
 20
4.134888450050488
 30
0.0
 10
25.45235104272301
 20
4.504472051175826
 30
0.0
 10
23.95073577468883
 20
4.724282977459246
 30
0.0
 10
22.44897225764841
 20
4.791782229690057
 30
0.0
 10
20.94633517060152
 20
4.685806987956828
 30
0.0
 10
19.88415302831903
 20
4.541030792543538
 30
0.0
 10
19.32312211294905
 20
4.389956160874262
 30
0.0
 10
19.26336075946124
 20
4.373863599450486
 30
0.0
1001
PE_URL
1000

  0
SPLINE
  5
AF
330
1F
100
AcDbEntity
  8
0
  6
Continuous
 62
     1
370
    15
100
AcDbSpline
210
0.0
220
0.0
230
1.0
 70
     8
 71
     3
 72
    14
 73
    10
 74
     0
 42
0.000000001
 43
0.00000001
 40
0.0
 40
0.0
 40
0.0
 40
0.0
 40
0.2500000000000006
 40
0.2500000000000006
 40
0.5000000000000003
 40
0.5000000000000003
 40
0.7500000000000002
 40
0.7500000000000002
 40
1.0
 40
1.0
 40
1.0
 40
1.0
 10
32.22499999999998
 20
1.568944323284587
 30
0.0
 10
32.22499999999999
 20
1.629867221798682
 30
0.0
 10
32.20325049052862
 20
1.690680190592161
 30
0.0
 10
32.1209793217827
 20
1.812830920842936
 30
0.0
 10
32.06036087036001
 20
1.873911046612319
 30
0.0
 10
31.91473153441402
 20
1.993283708271307
 30
0.0
 10
31.82877561535069
 20
2.052547667581394
 30
0.0
 10
31.6499900009728
 20
2.163875718571009
 30
0.0
 10
31.55581498649745
 20
2.216905366844977
 30
0.0
 10
31.46299999999999
 20
2.263967013990507
 30
0.0
1001
PE_URL
1000

  0
LINE
  5
B0
330
1F
100
AcDbEntity
  8
외형선
  6
Continuous
370
    15
100
AcDbLine
 10
9.999999999999975
 20
4.015329566595833
 30
0.0
 11
9.999999999999982
 21
4.512124688685365
 31
0.0
  0
SPLINE
  5
B1
330
1F
100
AcDbEntity
  8
0
  6
Continuous
 62
     1
370
    15
100
AcDbSpline
210
0.0
220
0.0
230
1.0
 70
     8
 71
     3
 72
    16
 73
    12
 74
     0
 42
0.000000001
 43
0.00000001
 40
0.0
 40
0.0
 40
0.0
 40
0.0
 40
0.0111792221280675
 40
0.1305302048262
 40
0.2499728907825658
 40
0.3750063865065884
 40
0.4999868105105482
 40
0.6249452352359214
 40
0.7499128503832235
 40
0.8749207966471136
 40
0.9999999999999999
 40
0.9999999999999999
 40
0.9999999999999999
 40
0.9999999999999999
 10
22.5899769988011
 20
-4.754732036314593
 30
0.0
 10
22.54306796817327
 20
-4.756920774763095
 30
0.0
 10
21.99535138235845
 20
-4.782476799567061
 30
0.0
 10
20.94631189627593
 20
-4.682708437796026
 30
0.0
 10
19.41912673274282
 20
-4.442737674162535
 30
0.0
 10
17.86864053193105
 20
-4.026340137664763
 30
0.0
 10
16.29510506842138
 20
-3.462174773876334
 30
0.0
 10
14.72191226793431
 20
-2.77112991891307
 30
0.0
 10
13.14857335811282
 20
-1.979659500618356
 30
0.0
 10
11.5746448702624
 20
-1.116617910586337
 30
0.0
 10
10.52498131662693
 20
-0.5130074460795108
 30
0.0
 10
10.00000000000001
 20
-0.2111162207539742
 30
0.0
1001
PE_URL
1000

  0
LINE
  5
B2
330
1F
100
AcDbEntity
  8
외형선
  6
Continuous
370
    15
100
AcDbLine
 10
9.999999999999982
 20
-0.2111162207539543
 30
0.0
 11
9.999999999999975
 21
0.9341485865932828
 31
0.0
  0
SPLINE
  5
B3
330
1F
100
AcDbEntity
  8
0
  6
Continuous
 62
     1
370
    15
100
AcDbSpline
210
0.0
220
0.0
230
1.0
 70
     8
 71
     3
 72
    14
 73
    10
 74
     0
 42
0.000000001
 43
0.00000001
 40
0.0
 40
0.0
 40
0.0
 40
0.0
 40
0.1622814376413984
 40
0.3244267182602256
 40
0.4865198000168043
 40
0.6486450787218574
 40
0.8108866801407782
 40
0.9732104428160259
 40
1.0
 40
1.0
 40
1.0
 40
1.0
 10
9.999999999999968
 20
-3.576901173368157
 30
0.0
 10
10.50116013521541
 20
-3.75628130879666
 30
0.0
 10
11.50305992334817
 20
-4.114891076518478
 30
0.0
 10
13.00517736473387
 20
-4.485400726584194
 30
0.0
 10
14.50674421679998
 20
-4.714961748503501
 30
0.0
 10
16.00866207338807
 20
-4.789801036193698
 30
0.0
 10
17.51150461765793
 20
-4.693512275604401
 30
0.0
 10
18.59672777566147
 20
-4.547482261531628
 30
0.0
 10
19.18064392546248
 20
-4.393523367096861
 30
0.0
 10
19.26336075946119
 20
-4.371713742002702
 30
0.0
1001
PE_URL
1000

  0
SPLINE
  5
B4
330
1F
100
AcDbEntity
  8
외형선
  6
Continuous
370
    15
100
AcDbSpline
210
0.0
220
0.0
230
1.0
 70
    24
 71
     3
 72
    23
 73
    19
 74
     0
 42
0.000000001
 43
0.00000001
 40
0.0
 40
0.0
 40
0.0
 40
0.0
 40
0.0071044105767964
 40
0.0758524559732881
 40
0.1426629913186817
 40
0.21141103671516
 40
0.2782215720605553
 40
0.3469696174570342
 40
0.4137801528025008
 40
0.4825281981989086
 40
0.5493387335442442
 40
0.6180867789406582
 40
0.6848973142861131
 40
0.7536453596826572
 40
0.8204558950279168
 40
0.8892039404245319
 40
0.944074238552862
 40
1.0
 40
1.0
 40
1.0
 40
1.0
 10
9.999999999999982
 20
-0.1563149845734302
 30
0.0
 10
9.999999999999986
 20
-0.1555504673390244
 30
0.0
 10
10.00000000000001
 20
-0.1473878605700699
 30
0.0
 10
9.999999999999968
 20
-0.1831029731615482
 30
0.0
 10
9.999999999999947
 20
-0.2671692202041703
 30
0.0
 10
10.0
 20
-0.4064937218573151
 30
0.0
 10
9.99999999999994
 20
-0.5927285918117523
 30
0.0
 10
10.00000000000003
 20
-0.8190987639579838
 30
0.0
 10
10.00000000000002
 20
-1.082775031145709
 30
0.0
 10
10.00000000000001
 20
-1.371680701832812
 30
0.0
 10
9.999999999999904
 20
-1.682803728323365
 30
0.0
 10
10.00000000000001
 20
-2.001743070198985
 30
0.0
 10
9.999999999999975
 20
-2.325226150833013
 30
0.0
 10
10.00000000000001
 20
-2.638211332877644
 30
0.0
 10
9.999999999999918
 20
-2.937712102398107
 30
0.0
 10
9.999999999999982
 20
-3.192963753292703
 30
0.0
 10
9.999999999999993
 20
-3.409342781192073
 30
0.0
 10
9.999999999999986
 20
-3.520694789513734
 30
0.0
 10
9.999999999999982
 20
-3.576901173368163
 30
0.0
  0
LINE
  5
B5
330
1F
100
AcDbEntity
  8
0
  6
Continuous
 62
     1
370
    15
100
AcDbLine
 10
32.22499999999998
 20
-2.40236223160823
 30
0.0
 11
32.22499999999998
 21
-1.566794465836728
 31
0.0
1001
PE_URL
1000

  0
SPLINE
  5
B6
330
1F
100
AcDbEntity
  8
0
  6
Continuous
 62
     1
370
    15
100
AcDbSpline
210
0.0
220
0.0
230
1.0
 70
     8
 71
     3
 72
    14
 73
    10
 74
     0
 42
0.000000001
 43
0.00000001
 40
0.0
 40
0.0
 40
0.0
 40
0.0
 40
0.25
 40
0.25
 40
0.5
 40
0.5
 40
0.75
 40
0.75
 40
1.0
 40
1.0
 40
1.0
 40
1.0
 10
31.46299999999999
 20
3.201446177457214
 30
0.0
 10
31.55793564076716
 20
3.160932624270279
 30
0.0
 10
31.64857799043543
 20
3.10745446882702
 30
0.0
 10
31.82410746797353
 20
2.978212813029921
 30
0.0
 10
31.90426482411245
 20
2.905983522474656
 30
0.0
 10
32.05023592967637
 20
2.749115750164306
 30
0.0
 10
32.11296252091519
 20
2.667016418497256
 30
0.0
 10
32.20101363014476
 20
2.517534353064108
 30
0.0
 10
32.22499999999998
 20
2.451706371323142
 30
0.0
 10
32.22499999999998
 20
2.404512089056037
 30
0.0
1001
PE_URL
1000

  0
LINE
  5
B7
330
1F
100
AcDbEntity
  8
0
  6
Continuous
 62
     1
370
    15
100
AcDbLine
 10
32.22499999999998
 20
1.56894432328459
 30
0.0
 11
32.22499999999998
 21
2.404512089056037
 31
0.0
1001
PE_URL
1000

  0
SPLINE
  5
B8
330
1F
100
AcDbEntity
  8
0
  6
Continuous
 62
     1
370
    15
100
AcDbSpline
210
0.0
220
0.0
230
1.0
 70
     8
 71
     3
 72
    12
 73
     8
 74
     0
 42
0.000000001
 43
0.00000001
 40
0.0
 40
0.0
 40
0.0
 40
0.0
 40
0.084628145396995
 40
0.3135100766784739
 40
0.5424603785540727
 40
0.7712754335198919
 40
1.0
 40
1.0
 40
1.0
 40
1.0
 10
24.58354388714085
 20
4.743388975259818
 30
0.0
 10
24.77759433859779
 20
4.748675740856724
 30
0.0
 10
25.49646595784886
 20
4.768260883363294
 30
0.0
 10
26.7404827957799
 20
4.623006461836805
 30
0.0
 10
28.31529573233641
 20
4.311335615704038
 30
0.0
 10
29.88946466845787
 20
3.840212303199275
 30
0.0
 10
30.9385573831766
 20
3.41434014418752
 30
0.0
 10
31.46299999999999
 20
3.201446177457203
 30
0.0
1001
PE_URL
1000

  0
LINE
  5
B9
330
1F
100
AcDbEntity
  8
0
  6
Continuous
 62
     1
370
    15
100
AcDbLine
 10
32.22499999999998
 20
2.404512089056037
 30
0.0
 11
32.22499999999998
 21
3.972381483616699
 31
0.0
1001
PE_URL
1000

  0
SPLINE
  5
BA
330
1F
100
AcDbEntity
  8
0
  6
Continuous
 62
     1
370
    15
100
AcDbSpline
210
0.0
220
0.0
230
1.0
 70
     8
 71
     3
 72
    10
 73
     6
 74
     0
 42
0.000000001
 43
0.00000001
 40
0.0
 40
0.0
 40
0.0
 40
0.0
 40
0.4225764018630265
 40
0.8454747801832406
 40
1.0
 40
1.0
 40
1.0
 40
1.0
 10
31.46300000000002
 20
4.76164541746377
 30
0.0
 10
30.96243084123141
 20
4.752864492645848
 30
0.0
 10
29.96091112169536
 20
4.735295952501372
 30
0.0
 10
28.77610113436186
 20
4.58276536936039
 30
0.0
 10
28.09192381457375
 20
4.412182275828632
 30
0.0
 10
27.90883006663027
 20
4.366532271031346
 30
0.0
1001
PE_URL
1000

  0
SPLINE
  5
BC
330
1F
100
AcDbEntity
  8
0
  6
Continuous
 62
     1
370
    15
100
AcDbSpline
210
0.0
220
0.0
230
1.0
 70
     8
 71
     3
 72
    10
 73
     6
 74
     0
 42
0.000000001
 43
0.00000001
 40
0.0
 40
0.0
 40
0.0
 40
0.0
 40
0.2032435832072784
 40
0.6015082820870833
 40
0.9999999999999999
 40
0.9999999999999999
 40
0.9999999999999999
 40
0.9999999999999999
 10
13.95183648844726
 20
-4.739784444028479
 30
0.0
 10
13.68413571109105
 20
-4.743568747976074
 30
0.0
 10
12.89186354111712
 20
-4.754768561178008
 30
0.0
 10
11.57464319048621
 20
-4.594600032362143
 30
0.0
 10
10.52498075659518
 20
-4.348470626342313
 30
0.0
 10
10.00000000000001
 20
-4.225370858625921
 30
0.0
1001
PE_URL
1000

  0
LINE
  5
BD
330
1F
100
AcDbEntity
  8
외형선
  6
Continuous
370
    15
100
AcDbLine
 10
9.999999999999993
 20
-4.225370858625907
 30
0.0
 11
9.999999999999975
 21
-3.576901173368162
 31
0.0
  0
LINE
  5
BE
330
1F
100
AcDbEntity
  8
0
  6
Continuous
 62
     1
370
    15
100
AcDbLine
 10
9.999999999999975
 20
-4.50997483123757
 30
0.0
 11
10.63339452694726
 21
-4.361972905172054
 31
0.0
1001
PE_URL
1000

  0
LINE
  5
BF
330
1F
100
AcDbEntity
  8
외형선
  6
Continuous
370
    15
100
AcDbLine
 10
9.999999999999968
 20
-4.276523593047608
 30
0.0
 11
9.999999999999982
 21
-4.509974831237568
 31
0.0
  0
LINE
  5
C0
330
1F
100
AcDbEntity
  8
0
  6
Continuous
 62
     1
370
    15
100
AcDbLine
 10
32.22499999999998
 20
-3.999425071276111
 30
0.0
 11
32.22499999999998
 21
-3.97023162616891
 31
0.0
1001
PE_URL
1000

  0
LINE
  5
C1
330
1F
100
AcDbEntity
  8
0
  6
Continuous
 62
     1
370
    15
100
AcDbLine
 10
32.22499999999998
 20
3.972381483616699
 30
0.0
 11
32.22499999999998
 21
4.001574928723899
 31
0.0
1001
PE_URL
1000

  0
LINE
  5
C2
330
1F
100
AcDbEntity
  8
외형선
  6
Continuous
370
    15
100
AcDbLine
 10
9.750137270308205
 20
4.556403093810874
 30
0.0
 11
9.750137270308205
 21
4.763574928723894
 31
0.0
  0
SPLINE
  5
C3
330
1F
100
AcDbEntity
  8
외형선
  6
Continuous
370
    15
100
AcDbSpline
210
0.0
220
0.0
230
1.0
 70
     8
 71
     3
 72
     8
 73
     4
 74
     0
 42
0.000000001
 43
0.00000001
 40
0.0
 40
0.0
 40
0.0
 40
0.0
 40
1.0
 40
1.0
 40
1.0
 40
1.0
 10
9.999999999999975
 20
4.512124688685363
 30
0.0
 10
9.916903473234754
 20
4.527569780725757
 30
0.0
 10
9.833596916313589
 20
4.542335470679729
 30
0.0
 10
9.750137270308219
 20
4.556408540076891
 30
0.0
  0
SPLINE
  5
C4
330
1F
100
AcDbEntity
  8
외형선
  6
Continuous
370
    15
100
AcDbSpline
210
0.0
220
0.0
230
1.0
 70
     8
 71
     3
 72
     8
 73
     4
 74
     0
 42
0.000000001
 43
0.00000001
 40
0.0
 40
0.0
 40
0.0
 40
0.0
 40
1.0
 40
1.0
 40
1.0
 40
1.0
 10
9.999999999999982
 20
4.015329566595831
 30
0.0
 10
9.91690347323474
 20
4.04124929613933
 30
0.0
 10
9.833596916313567
 20
4.066574684517494
 30
0.0
 10
9.750137270308205
 20
4.09128555048136
 30
0.0
  0
LINE
  5
C5
330
1F
100
AcDbEntity
  8
외형선
  6
Continuous
370
    15
100
AcDbLine
 10
9.750137270308205
 20
1.075496031327726
 30
0.0
 11
9.750137270308205
 21
4.091296944801856
 31
0.0
  0
SPLINE
  5
C6
330
1F
100
AcDbEntity
  8
외형선
  6
Continuous
370
    15
100
AcDbSpline
210
0.0
220
0.0
230
1.0
 70
     8
 71
     3
 72
     8
 73
     4
 74
     0
 42
0.000000001
 43
0.00000001
 40
0.0
 40
0.0
 40
0.0
 40
0.0
 40
1.0
 40
1.0
 40
1.0
 40
1.0
 10
9.999999999999975
 20
0.9341485865932831
 30
0.0
 10
9.916903473234754
 20
0.9813850165150884
 30
0.0
 10
9.833596916313589
 20
1.028517955800644
 30
0.0
 10
9.750137270308219
 20
1.075514218733322
 30
0.0
  0
SPLINE
  5
C7
330
1F
100
AcDbEntity
  8
외형선
  6
Continuous
370
    15
100
AcDbSpline
210
0.0
220
0.0
230
1.0
 70
     8
 71
     3
 72
     8
 73
     4
 74
     0
 42
0.000000001
 43
0.00000001
 40
0.0
 40
0.0
 40
0.0
 40
0.0
 40
1.0
 40
1.0
 40
1.0
 40
1.0
 10
9.999999999999982
 20
-0.2111162207539499
 30
0.0
 10
9.91690347323474
 20
-0.1629940766563952
 30
0.0
 10
9.833596916313567
 20
-0.1147988941640126
 30
0.0
 10
9.750137270308205
 20
-0.0665638267117714
 30
0.0
  0
SPLINE
  5
C8
330
1F
100
AcDbEntity
  8
외형선
  6
Continuous
370
    15
100
AcDbSpline
210
0.0
220
0.0
230
1.0
 70
     8
 71
     3
 72
     8
 73
     4
 74
     0
 42
0.000000001
 43
0.00000001
 40
0.0
 40
0.0
 40
0.0
 40
0.0
 40
1.0
 40
1.0
 40
1.0
 40
1.0
 10
9.999999999999975
 20
-3.576901173368158
 30
0.0
 10
9.916903473234754
 20
-3.545109835486747
 30
0.0
 10
9.833596916313589
 20
-3.512742586155165
 30
0.0
 10
9.750137270308219
 20
-3.479819392619647
 30
0.0
  0
SPLINE
  5
C9
330
1F
100
AcDbEntity
  8
외형선
  6
Continuous
370
    15
100
AcDbSpline
210
0.0
220
0.0
230
1.0
 70
     8
 71
     3
 72
     8
 73
     4
 74
     0
 42
0.000000001
 43
0.00000001
 40
0.0
 40
0.0
 40
0.0
 40
0.0
 40
1.0
 40
1.0
 40
1.0
 40
1.0
 10
9.999999999999982
 20
-4.225370858625905
 30
0.0
 10
9.91690347323474
 20
-4.203168444071849
 30
0.0
 10
9.833596916313567
 20
-4.18029864995763
 30
0.0
 10
9.750137270308205
 20
-4.156774448469255
 30
0.0
  0
LINE
  5
CA
330
1F
100
AcDbEntity
  8
외형선
  6
Continuous
370
    15
100
AcDbLine
 10
9.750137270308205
 20
-4.761425071276106
 30
0.0
 11
9.750137270308205
 21
-4.156763601238662
 31
0.0
  0
SPLINE
  5
CB
330
1F
100
AcDbEntity
  8
외형선
  6
Continuous
370
    15
100
AcDbSpline
210
0.0
220
0.0
230
1.0
 70
     8
 71
     3
 72
     8
 73
     4
 74
     0
 42
0.000000001
 43
0.00000001
 40
0.0
 40
0.0
 40
0.0
 40
0.0
 40
1.0
 40
1.0
 40
1.0
 40
1.0
 10
9.999999999999975
 20
-4.509974831237565
 30
0.0
 10
9.916903473234754
 20
-4.525419923277958
 30
0.0
 10
9.833596916313589
 20
-4.540185613231933
 30
0.0
 10
9.750137270308219
 20
-4.554258682629095
 30
0.0
  0
LINE
  5
CC
330
1F
100
AcDbEntity
  8
외형선
  6
Continuous
370
    15
100
AcDbLine
 10
-39.84750000000003
 20
0.0010749287238936
 30
0.0
 11
-39.84750000000003
 21
4.763574928723894
 31
0.0
  0
LINE
  5
CD
330
1F
100
AcDbEntity
  8
외형선
  6
Continuous
370
    15
100
AcDbLine
 10
-39.84750000000003
 20
-4.761425071276104
 30
0.0
 11
-39.84750000000003
 21
0.0010749287238936
 31
0.0
  0
LINE
  5
CE
330
1F
100
AcDbEntity
  8
외형선
  6
Continuous
370
    15
100
AcDbLine
 10
9.750137270308205
 20
-3.479832133759228
 30
0.0
 11
9.750137270308205
 21
-0.0665415851606823
 31
0.0
  0
LINE
  5
CF
330
1F
100
AcDbEntity
  8
외형선
  6
Continuous
370
    15
100
AcDbLine
 10
-40.80000000000003
 20
0.0010749287238936
 30
0.0
 11
-40.80000000000003
 21
3.811074928723897
 31
0.0
  0
LINE
  5
D0
330
1F
100
AcDbEntity
  8
외형선
  6
Continuous
370
    15
100
AcDbLine
 10
-40.80000000000003
 20
-3.80892507127611
 30
0.0
 11
-40.80000000000003
 21
0.0010749287238936
 31
0.0
  0
SPLINE
  5
D1
330
1F
100
AcDbEntity
  8
외형선
  6
Continuous
370
    15
100
AcDbSpline
210
0.0
220
0.0
230
1.0
 70
    24
 71
     3
 72
    22
 73
    18
 74
     0
 42
0.000000001
 43
0.00000001
 40
0.0
 40
0.0
 40
0.0
 40
0.0
 40
0.1160129422272211
 40
0.1837919616401442
 40
0.2515709810530671
 40
0.3193500004659892
 40
0.3871290198789115
 40
0.4549080392918355
 40
0.5226870587047594
 40
0.590466078117682
 40
0.6582450975306046
 40
0.7260241169435278
 40
0.793803136356451
 40
0.8615821557693374
 40
0.9293611751822237
 40
0.9971401945951833
 40
1.0
 40
1.0
 40
1.0
 40
1.0
 10
9.999999999999975
 20
-3.57690117336816
 30
0.0
 10
9.999999999999954
 20
-3.45393673367921
 30
0.0
 10
9.999999999999925
 20
-3.259131954586982
 30
0.0
 10
9.999999999999986
 20
-2.914773881019268
 30
0.0
 10
10.00000000000006
 20
-2.616250651533595
 30
0.0
 10
9.999999999999993
 20
-2.300610267204003
 30
0.0
 10
9.999999999999986
 20
-1.978506234070271
 30
0.0
 10
9.999999999999986
 20
-1.65865838111352
 30
0.0
 10
10.00000000000001
 20
-1.349956218093978
 30
0.0
 10
10.00000000000001
 20
-1.061776910053127
 30
0.0
 10
9.999999999999954
 20
-0.8013501792135086
 30
0.0
 10
9.999999999999986
 20
-0.5772349128976674
 30
0.0
 10
10.00000000000001
 20
-0.3947531541343071
 30
0.0
 10
9.999999999999986
 20
-0.2588301537349924
 30
0.0
 10
9.999999999999982
 20
-0.1791146875614825
 30
0.0
 10
10.00000000000002
 20
-0.1462633426516469
 30
0.0
 10
9.999999999999993
 20
-0.1547442645235875
 30
0.0
 10
9.999999999999993
 20
-0.1550876137549737
 30
0.0
  0
SPLINE
  5
D2
330
1F
100
AcDbEntity
  8
외형선
  6
Continuous
370
    15
100
AcDbSpline
210
0.0
220
0.0
230
1.0
 70
    24
 71
     3
 72
    22
 73
    18
 74
     0
 42
0.000000001
 43
0.00000001
 40
0.0
 40
0.0
 40
0.0
 40
0.0
 40
0.026753855722598
 40
0.0987306904961779
 40
0.1707075252697569
 40
0.2426843600433361
 40
0.3146611948169171
 40
0.386638029590498
 40
0.4586148643640775
 40
0.5305916991376569
 40
0.6025685339112371
 40
0.6745453686848172
 40
0.7465222034583582
 40
0.8184990382318992
 40
0.8904758730055179
 40
0.9624527077791365
 40
1.0
 40
1.0
 40
1.0
 40
1.0
 10
9.999999999999975
 20
0.7912951333997525
 30
0.0
 10
9.999999999999968
 20
0.7895458574170113
 30
0.0
 10
10.00000000000001
 20
0.7830904430111342
 30
0.0
 10
10.00000000000006
 20
0.8274190273056871
 30
0.0
 10
10.0
 20
0.9243208874074051
 30
0.0
 10
9.999999999999993
 20
1.073826389784576
 30
0.0
 10
9.999999999999975
 20
1.269207998469765
 30
0.0
 10
10.00000000000004
 20
1.504339056008434
 30
0.0
 10
9.999999999999982
 20
1.77374821324709
 30
0.0
 10
9.999999999999947
 20
2.068645651964371
 30
0.0
 10
9.999999999999975
 20
2.381532648291726
 30
0.0
 10
10.00000000000001
 20
2.703002432522966
 30
0.0
 10
9.999999999999982
 20
3.024053849128721
 30
0.0
 10
10.00000000000001
 20
3.335950419603708
 30
0.0
 10
9.999999999999986
 20
3.628617046907078
 30
0.0
 10
9.999999999999986
 20
3.854283630591641
 30
0.0
 10
9.999999999999986
 20
3.974214584144538
 30
0.0
 10
9.999999999999986
 20
4.015329566595888
 30
0.0
  0
LINE
  5
D3
330
1F
100
AcDbEntity
  8
외형선
  6
Continuous
370
    15
100
AcDbLine
 10
9.999999999999968
 20
-4.509974831237563
 30
0.0
 11
9.999999999999982
 21
-4.27652359304761
 31
0.0
  0
LINE
  5
D4
330
1F
100
AcDbEntity
  8
중심선
 48
0.8
100
AcDbLine
 10
-43.80000000000004
 20
0.0010749287238931
 30
0.0
 11
35.22499999999997
 21
0.0010749287238989
 31
0.0
1001
PE_URL
1000

  0
LINE
  5
D5
330
1F
100
AcDbEntity
  8
참조1
100
AcDbLine
 10
2.062499999999995
 20
0.0010749287238892
 30
0.0
 11
2.0625
 21
-39.99892507127611
 31
0.0
  0
LINE
  5
D6
330
1F
100
AcDbEntity
  8
참조1
100
AcDbLine
 10
2.0625
 20
-39.99892507127611
 30
0.0
 11
-21.03385681430867
 21
-39.9989250712761
 31
0.0
  0
CIRCLE
  5
D7
330
1F
100
AcDbEntity
  8
해칭선
100
AcDbCircle
 10
0.0
 20
0.0
 30
0.0
 40
3.000000000000002
  0
INSERT
  5
D8
330
1F
100
AcDbEntity
  8
0
  6
Continuous
 62
     7
100
AcDbBlockReference
 66
     1
  2
블럭10
 10
-11.87777293212521
 20
-52.04609937292004
 30
0.0
  0
ATTRIB
  5
D9
330
D8
100
AcDbEntity
  8
FORMAT
 62
     2
100
AcDbText
 10
-22.58385375441389
 20
-49.97073246008785
 30
0.0
 40
4.233333333333333
  1
G8C51901 [ 6 FLUTE ]
 41
0.75
  7
SLDTEXTSTYLE0
 11
-22.58385375441389
 21
-52.08739912675452
 31
0.0
100
AcDbAttribute
  2
AUTOATTR0
 70
     0
 74
     1
  0
SEQEND
  5
DA
330
D8
100
AcDbEntity
  8
0
  6
Continuous
 62
     7
  0
HATCH
  5
DB
330
1F
100
AcDbEntity
  8
중심선
100
AcDbHatch
 10
0.0
 20
0.0
 30
0.0
210
0.0
220
0.0
230
1.0
  2
SOLID
 70
     1
 71
     0
 91
        1
 92
        0
 93
        4
 72
     1
 10
-6.162863627744375
 20
-35.7989250712761
 11
-9.609138871581656
 21
-35.7989250712761
 72
     1
 10
-9.609138871581656
 20
-35.7989250712761
 11
-11.73736873078571
 21
-38.3352506518487
 72
     1
 10
-11.73736873078571
 20
-38.3352506518487
 11
-8.29106040183525
 21
-38.33521122254621
 72
     1
 10
-8.29106040183525
 20
-38.33521122254621
 11
-6.162863627744375
 21
-35.7989250712761
 97
        0
 75
     0
 76
     1
 98
        1
 10
0.0
 20
0.0
  0
HATCH
  5
DC
330
1F
100
AcDbEntity
  8
중심선
100
AcDbHatch
 10
0.0
 20
0.0
 30
0.0
210
0.0
220
0.0
230
1.0
  2
SOLID
 70
     1
 71
     0
 91
        1
 92
        0
 93
        4
 72
     1
 10
-1.150099636708396
 20
-35.7989250712761
 11
-4.596374880545678
 21
-35.7989250712761
 72
     1
 10
-4.596374880545678
 20
-35.7989250712761
 11
-9.127512888903095
 21
-41.19892507127612
 72
     1
 10
-9.127512888903095
 20
-41.19892507127612
 11
-5.681237645065812
 21
-41.19892507127612
 72
     1
 10
-5.681237645065812
 20
-41.19892507127612
 11
-1.150099636708396
 21
-35.7989250712761
 97
        0
 75
     0
 76
     1
 98
        1
 10
0.0
 20
0.0
  0
HATCH
  5
DD
330
1F
100
AcDbEntity
  8
중심선
100
AcDbHatch
 10
0.0
 20
0.0
 30
0.0
210
0.0
220
0.0
230
1.0
  2
SOLID
 70
     1
 71
     0
 91
        1
 92
        0
 93
        4
 72
     1
 10
3.862664354327472
 20
-35.79892507127608
 11
0.4163891104903561
 21
-35.79892507127613
 72
     1
 10
0.4163891104903561
 20
-35.79892507127613
 11
-6.632047791398893
 21
-44.19892507127612
 72
     1
 10
-6.632047791398893
 20
-44.19892507127612
 11
-3.18577254756161
 21
-44.19892507127612
 72
     1
 10
-3.18577254756161
 20
-44.19892507127612
 11
3.862664354327472
 21
-35.79892507127608
 97
        0
 75
     0
 76
     1
 98
        1
 10
0.0
 20
0.0
  0
HATCH
  5
DE
330
1F
100
AcDbEntity
  8
중심선
100
AcDbHatch
 10
0.0
 20
0.0
 30
0.0
210
0.0
220
0.0
230
1.0
  2
SOLID
 70
     1
 71
     0
 91
        1
 92
        0
 93
        6
 72
     3
 10
8.66255478533967
 20
-39.99892507132738
 11
3.960054785062284
 21
1.540850780301639E-10
 40
0.3939339440162633
 50
17.09539180608433
 51
320.0019657685074
 73
     0
 72
     1
 10
10.34555444104027
 20
-38.58681907591438
 11
12.6508563147413
 21
-36.65249236586646
 72
     3
 10
8.662554785286824
 20
-39.99892507127625
 11
6.600054785286829
 21
-1.249000902703301E-13
 40
0.6363583540795982
 50
39.99873849337431
 51
368.4976242363725
 73
     1
 72
     1
 10
15.08788727718743
 20
-39.03892507120613
 11
7.342622092122747
 21
-39.03892507120613
 72
     1
 10
7.342622092122747
 20
-39.03892507120613
 11
7.342597047676813
 21
-40.95892507120602
 72
     1
 10
7.342597047676813
 20
-40.95892507120602
 11
11.78397681714885
 21
-40.95892507120599
 97
        0
 75
     0
 76
     1
 98
        1
 10
0.0
 20
0.0
  0
DIMENSION
  5
DF
330
1F
100
AcDbEntity
  8
치수문자_일반주서
100
AcDbDimension
  2
_D
 10
9.999999999999968
 20
15.0241295924422
 30
0.0
 11
21.11249999999997
 21
15.0241295924422
 31
0.0
 70
   160
  1
<>
 71
     2
 42
22.22500000000001
  3
SLDDIMSTYLE0
100
AcDbAlignedDimension
 13
32.22499999999998
 23
4.763574928723898
 33
0.0
 14
9.999999999999968
 24
4.512124688685359
 34
0.0
100
AcDbRotatedDimension
1001
PE_URL
1000

1001
ACAD
1000
DSTYLE
1002
{
1070
   171
1070
     6
1070
   273
1070
     7
1002
}
  0
DIMENSION
  5
F5
330
1F
100
AcDbEntity
  8
치수문자_일반주서
100
AcDbDimension
  2
_D_1
 10
-40.80000000000003
 20
29.43761412471862
 30
0.0
 11
-4.287500000000022
 21
29.43761412471862
 31
0.0
 70
   160
  1
<>
 71
     2
 42
73.025
  3
SLDDIMSTYLE0
100
AcDbAlignedDimension
 13
32.22499999999998
 23
4.763574928723898
 33
0.0
 14
-40.80000000000003
 24
3.811074928723897
 34
0.0
 50
0.0000000000000056
100
AcDbRotatedDimension
1001
PE_URL
1000

1001
ACAD
1000
DSTYLE
1002
{
1070
   171
1070
     6
1070
   273
1070
     7
1002
}
  0
DIMENSION
  5
109
330
1F
100
AcDbEntity
  8
치수문자_일반주서
100
AcDbDimension
  2
_D_2
 10
-53.48250000000002
 20
-4.761425071276162
 30
0.0
 11
-53.48250000000004
 21
0.0010749287238945
 31
0.0
 70
   160
  1
%%c<>
 71
     2
 42
9.525000000000006
 52
-270.0
  3
SLDDIMSTYLE0
100
AcDbAlignedDimension
 13
-39.84750000000003
 23
4.763574928723896
 33
0.0
 14
-39.84750000000003
 24
-4.761425071276109
 34
0.0
 50
90.0000000000002
100
AcDbRotatedDimension
1001
ACAD
1000
DSTYLE
1002
{
1070
   171
1070
     6
1070
   273
1070
     7
1002
}
  0
DIMENSION
  5
11D
330
1F
100
AcDbEntity
  8
치수문자_일반주서
100
AcDbDimension
  2
_D_3
 10
48.63175326153021
 20
-4.761425071276026
 30
0.0
 11
48.6317532615301
 21
24.71132492872406
 31
0.0
 70
   160
  1
%%c<>
 71
     2
 42
9.524999999999984
 52
-270.0
  3
SLDDIMSTYLE0
100
AcDbAlignedDimension
 13
32.22499999999998
 23
4.763574928723898
 33
0.0
 14
32.22499999999998
 24
-4.761425071276085
 34
0.0
 50
90.0000000000002
100
AcDbRotatedDimension
1001
PE_URL
1000

1001
ACAD
1000
DSTYLE
1002
{
1070
   171
1070
     6
1070
   273
1070
     7
1002
}
  0
LINE
  5
130
330
1F
100
AcDbEntity
  8
참조1
100
AcDbLine
 10
76.93848381534559
 20
7.441074928723896
 30
0.0
 11
76.93848381534559
 21
-7.438925071276109
 31
0.0
  0
LINE
  5
131
330
1F
100
AcDbEntity
  8
참조1
100
AcDbLine
 10
89.6384838153456
 20
5.441074928723896
 30
0.0
 11
76.93848381534559
 21
5.441074928723896
 31
0.0
  0
SOLID
  5
132
330
1F
100
AcDbEntity
  8
참조1
100
AcDbTrace
 10
76.93848381534559
 20
5.441074928723896
 30
0.0
 11
83.28848381534559
 21
4.425074928723896
 31
0.0
 12
83.28848381534559
 22
6.457074928723896
 32
0.0
 13
83.28848381534559
 23
6.457074928723896
 33
0.0
  0
LINE
  5
133
330
1F
100
AcDbEntity
  8
참조1
100
AcDbLine
 10
89.6384838153456
 20
-5.438925071276109
 30
0.0
 11
76.93848381534559
 21
-5.438925071276109
 31
0.0
  0
SOLID
  5
134
330
1F
100
AcDbEntity
  8
참조1
100
AcDbTrace
 10
76.93848381534559
 20
-5.438925071276109
 30
0.0
 11
83.28848381534559
 21
-6.454925071276109
 31
0.0
 12
83.28848381534559
 22
-4.422925071276109
 32
0.0
 13
83.28848381534559
 23
-4.422925071276109
 33
0.0
  0
MTEXT
  5
135
330
1F
100
AcDbEntity
  8
참조1
100
AcDbMText
 10
86.33597390781587
 20
10.98929157337383
 30
0.0
 40
3.5
 41
0.0
 71
     1
 72
     1
  1
A
  7
SLDTEXTSTYLE0
 73
     1
 44
1.0
  0
MTEXT
  5
136
330
1F
100
AcDbEntity
  8
참조1
100
AcDbMText
 10
86.33597390781587
 20
0.1092915733738259
 30
0.0
 40
3.5
 41
0.0
 71
     1
 72
     1
  1
A
  7
SLDTEXTSTYLE0
 73
     1
 44
1.0
  0
INSERT
  5
13D
330
1F
100
AcDbEntity
  8
해칭선
100
AcDbBlockReference
  2
SW_DOWELSYMBOL_0
 10
0.0
 20
0.0
 30
0.0
  0
DIMENSION
  5
221
102
{ACAD_REACTORS
102
}
102
{ACAD_XDICTIONARY
360
222
102
}
330
1F
100
AcDbEntity
  8
치수문자_일반주서
100
AcDbDimension
  2
*D11
 10
31.46299999999999
 20
-3.999425071276109
 30
0.0
 11
42.67590376404151
 21
-22.44318341226625
 31
0.0
 70
   164
 71
     5
 42
0.7620000000000067
  3
SLDDIMSTYLE0
100
AcDbRadialDimension
 15
31.85884580169793
 25
-4.650539578316247
 35
0.0
 40
0.0
1001
ACAD_DSTYLE_DIMRADIAL_EXTENSION
1070
   387
1070
     1
1070
   388
1040
4.712388980384708
1070
   390
1040
0.0
1001
PE_URL
1000

1001
ACAD
1000
DSTYLE
1002
{
1070
   171
1070
     3
1002
}
  0
ENDSEC
  0
SECTION
  2
OBJECTS
  0
DICTIONARY
  5
C
330
0
100
AcDbDictionary
281
     1
  3
ACAD_GROUP
350
D
  3
ACAD_LAYOUT
350
1A
  3
ACAD_MLINESTYLE
350
17
  3
ACAD_PLOTSETTINGS
350
19
  3
ACAD_PLOTSTYLENAME
350
E
  3
ACAD_SCALELIST
350
47
  3
APPDATA
350
15F
  3
DWGPROPS
350
22E
  0
DICTIONARY
  5
1B7
330
2
100
AcDbDictionary
280
     1
281
     1
  3
ACAD_LAYERSTATES
360
1B8
  0
DICTIONARY
  5
222
330
221
100
AcDbDictionary
280
     1
281
     1
  0
DICTIONARY
  5
D
102
{ACAD_REACTORS
330
C
102
}
330
C
100
AcDbDictionary
281
     1
  0
DICTIONARY
  5
1A
102
{ACAD_REACTORS
330
C
102
}
330
C
100
AcDbDictionary
281
     1
  3
Layout1
350
1E
  3
Layout2
350
26
  3
Model
350
22
  0
DICTIONARY
  5
17
102
{ACAD_REACTORS
330
C
102
}
330
C
100
AcDbDictionary
281
     1
  3
Standard
350
18
  0
DICTIONARY
  5
19
102
{ACAD_REACTORS
330
C
102
}
330
C
100
AcDbDictionary
281
     1
  0
ACDBDICTIONARYWDFLT
  5
E
102
{ACAD_REACTORS
330
C
102
}
330
C
100
AcDbDictionary
281
     1
  3
Normal
350
F
100
AcDbDictionaryWithDefault
340
F
  0
DICTIONARY
  5
47
102
{ACAD_REACTORS
330
C
102
}
330
C
100
AcDbDictionary
281
     1
  3
A0
350
48
  3
A1
350
49
  3
A2
350
4A
  3
A3
350
4B
  3
A4
350
4C
  3
A5
350
4D
  3
A6
350
4E
  3
A7
350
4F
  3
A8
350
50
  3
A9
350
51
  3
B0
350
52
  3
B1
350
53
  3
B2
350
54
  3
B3
350
55
  3
B4
350
56
  3
B5
350
57
  3
B6
350
58
  3
B7
350
59
  3
B8
350
5A
  3
B9
350
5B
  3
C0
350
5C
  3
C1
350
5D
  3
C2
350
5E
  3
C3
350
5F
  3
C4
350
60
  3
C5
350
61
  3
C6
350
62
  3
C7
350
63
  3
C8
350
64
  3
C9
350
65
  3
D0
350
66
  3
D1
350
67
  3
D2
350
68
  0
DICTIONARY
  5
15F
102
{ACAD_REACTORS
330
C
102
}
330
C
100
AcDbDictionary
281
     1
  0
XRECORD
  5
22E
102
{ACAD_REACTORS
330
C
102
}
330
C
100
AcDbXrecord
280
     1
  1
DWGPROPS COOKIE
  2

  3

  4

  6

  7

  8
박수민
  9

300
=
301
=
302
=
303
=
304
=
305
=
306
=
307
=
308
=
309
=
 40
0.0
 41
2458295.126609259
 42
2458295.568827303
  1

 90
        0
  0
DICTIONARY
  5
1B8
102
{ACAD_REACTORS
330
1B7
102
}
330
1B7
100
AcDbDictionary
281
     1
  0
LAYOUT
  5
1E
102
{ACAD_REACTORS
330
1A
102
}
330
1A
100
AcDbPlotSettings
  1

  2
none_device
  4

  6

 40
0.0
 41
0.0
 42
0.0
 43
0.0
 44
0.0
 45
0.0
 46
0.0
 47
0.0
 48
0.0
 49
0.0
140
0.0
141
0.0
142
1.0
143
1.0
 70
   688
 72
     1
 73
     0
 74
     5
  7

 75
    16
147
1.0
148
0.0
149
0.0
100
AcDbLayout
  1
Layout1
 70
     1
 71
     1
 10
0.0
 20
0.0
 11
420.0
 21
297.0
 12
0.0
 22
0.0
 32
0.0
 14
1.000000000000000E+20
 24
1.000000000000000E+20
 34
1.000000000000000E+20
 15
-1.000000000000000E+20
 25
-1.000000000000000E+20
 35
-1.000000000000000E+20
146
0.0
 13
0.0
 23
0.0
 33
0.0
 16
1.0
 26
0.0
 36
0.0
 17
0.0
 27
1.0
 37
0.0
 76
     0
330
1B
  0
LAYOUT
  5
26
102
{ACAD_REACTORS
330
1A
102
}
330
1A
100
AcDbPlotSettings
  1

  2
none_device
  4

  6

 40
0.0
 41
0.0
 42
0.0
 43
0.0
 44
0.0
 45
0.0
 46
0.0
 47
0.0
 48
0.0
 49
0.0
140
0.0
141
0.0
142
1.0
143
1.0
 70
   688
 72
     1
 73
     0
 74
     5
  7

 75
    16
147
1.0
148
0.0
149
0.0
100
AcDbLayout
  1
Layout2
 70
     1
 71
     2
 10
0.0
 20
0.0
 11
0.0
 21
0.0
 12
0.0
 22
0.0
 32
0.0
 14
0.0
 24
0.0
 34
0.0
 15
0.0
 25
0.0
 35
0.0
146
0.0
 13
0.0
 23
0.0
 33
0.0
 16
1.0
 26
0.0
 36
0.0
 17
0.0
 27
1.0
 37
0.0
 76
     0
330
23
  0
LAYOUT
  5
22
102
{ACAD_REACTORS
330
1A
102
}
330
1A
100
AcDbPlotSettings
  1

  2
none_device
  4
ANSI_A_(11.00_x_8.50_Inches)
  6

 40
6.35
 41
19.05
 42
6.35000508
 43
19.05000254
 44
279.4
 45
215.9
 46
103.6271574961274
 47
98.72622978857495
 48
0.0
 49
0.0
140
0.0
141
0.0
142
0.0737985546853514
143
1.0
 70
  1696
 72
     0
 73
     0
 74
     0
  7

 75
     0
147
0.0235690232323232
148
0.0
149
0.0
100
AcDbLayout
  1
Model
 70
     1
 71
     0
 10
0.0
 20
0.0
 11
420.0
 21
297.0
 12
0.0
 22
0.0
 32
0.0
 14
-57.85750000000007
 24
-49.97073246008785
 34
0.0
 15
89.6384838153456
 25
37.83632492872405
 35
0.0
146
0.0
 13
0.0
 23
0.0
 33
0.0
 16
1.0
 26
0.0
 36
0.0
 17
0.0
 27
1.0
 37
0.0
 76
     0
330
1F
331
29
  0
MLINESTYLE
  5
18
102
{ACAD_REACTORS
330
17
102
}
330
17
100
AcDbMlineStyle
  2
Standard
 70
     0
  3

 62
   256
 51
90.0
 52
90.0
 71
     2
 49
0.5
 62
   256
  6
BYLAYER
 49
-0.5
 62
   256
  6
BYLAYER
  0
ACDBPLACEHOLDER
  5
F
102
{ACAD_REACTORS
330
E
102
}
330
E
  0
SCALE
  5
48
102
{ACAD_REACTORS
330
47
102
}
330
47
100
AcDbScale
 70
     0
300
1:1
140
1.0
141
1.0
290
     1
  0
SCALE
  5
49
102
{ACAD_REACTORS
330
47
102
}
330
47
100
AcDbScale
 70
     0
300
1:2
140
1.0
141
2.0
290
     0
  0
SCALE
  5
4A
102
{ACAD_REACTORS
330
47
102
}
330
47
100
AcDbScale
 70
     0
300
1:4
140
1.0
141
4.0
290
     0
  0
SCALE
  5
4B
102
{ACAD_REACTORS
330
47
102
}
330
47
100
AcDbScale
 70
     0
300
1:5
140
1.0
141
5.0
290
     0
  0
SCALE
  5
4C
102
{ACAD_REACTORS
330
47
102
}
330
47
100
AcDbScale
 70
     0
300
1:8
140
1.0
141
8.0
290
     0
  0
SCALE
  5
4D
102
{ACAD_REACTORS
330
47
102
}
330
47
100
AcDbScale
 70
     0
300
1:10
140
1.0
141
10.0
290
     0
  0
SCALE
  5
4E
102
{ACAD_REACTORS
330
47
102
}
330
47
100
AcDbScale
 70
     0
300
1:16
140
1.0
141
16.0
290
     0
  0
SCALE
  5
4F
102
{ACAD_REACTORS
330
47
102
}
330
47
100
AcDbScale
 70
     0
300
1:20
140
1.0
141
20.0
290
     0
  0
SCALE
  5
50
102
{ACAD_REACTORS
330
47
102
}
330
47
100
AcDbScale
 70
     0
300
1:30
140
1.0
141
30.0
290
     0
  0
SCALE
  5
51
102
{ACAD_REACTORS
330
47
102
}
330
47
100
AcDbScale
 70
     0
300
1:40
140
1.0
141
40.0
290
     0
  0
SCALE
  5
52
102
{ACAD_REACTORS
330
47
102
}
330
47
100
AcDbScale
 70
     0
300
1:50
140
1.0
141
50.0
290
     0
  0
SCALE
  5
53
102
{ACAD_REACTORS
330
47
102
}
330
47
100
AcDbScale
 70
     0
300
1:100
140
1.0
141
100.0
290
     0
  0
SCALE
  5
54
102
{ACAD_REACTORS
330
47
102
}
330
47
100
AcDbScale
 70
     0
300
2:1
140
2.0
141
1.0
290
     0
  0
SCALE
  5
55
102
{ACAD_REACTORS
330
47
102
}
330
47
100
AcDbScale
 70
     0
300
4:1
140
4.0
141
1.0
290
     0
  0
SCALE
  5
56
102
{ACAD_REACTORS
330
47
102
}
330
47
100
AcDbScale
 70
     0
300
8:1
140
8.0
141
1.0
290
     0
  0
SCALE
  5
57
102
{ACAD_REACTORS
330
47
102
}
330
47
100
AcDbScale
 70
     0
300
10:1
140
10.0
141
1.0
290
     0
  0
SCALE
  5
58
102
{ACAD_REACTORS
330
47
102
}
330
47
100
AcDbScale
 70
     0
300
100:1
140
100.0
141
1.0
290
     0
  0
SCALE
  5
59
102
{ACAD_REACTORS
330
47
102
}
330
47
100
AcDbScale
 70
     0
300
1/128" = 1'-0"
140
0.0078125
141
12.0
290
     0
  0
SCALE
  5
5A
102
{ACAD_REACTORS
330
47
102
}
330
47
100
AcDbScale
 70
     0
300
1/64" = 1'-0"
140
0.015625
141
12.0
290
     0
  0
SCALE
  5
5B
102
{ACAD_REACTORS
330
47
102
}
330
47
100
AcDbScale
 70
     0
300
1/32" = 1'-0"
140
0.03125
141
12.0
290
     0
  0
SCALE
  5
5C
102
{ACAD_REACTORS
330
47
102
}
330
47
100
AcDbScale
 70
     0
300
1/16" = 1'-0"
140
0.0625
141
12.0
290
     0
  0
SCALE
  5
5D
102
{ACAD_REACTORS
330
47
102
}
330
47
100
AcDbScale
 70
     0
300
3/32" = 1'-0"
140
0.09375
141
12.0
290
     0
  0
SCALE
  5
5E
102
{ACAD_REACTORS
330
47
102
}
330
47
100
AcDbScale
 70
     0
300
1/8" = 1'-0"
140
0.125
141
12.0
290
     0
  0
SCALE
  5
5F
102
{ACAD_REACTORS
330
47
102
}
330
47
100
AcDbScale
 70
     0
300
3/16" = 1'-0"
140
0.1875
141
12.0
290
     0
  0
SCALE
  5
60
102
{ACAD_REACTORS
330
47
102
}
330
47
100
AcDbScale
 70
     0
300
1/4" = 1'-0"
140
0.25
141
12.0
290
     0
  0
SCALE
  5
61
102
{ACAD_REACTORS
330
47
102
}
330
47
100
AcDbScale
 70
     0
300
3/8" = 1'-0"
140
0.375
141
12.0
290
     0
  0
SCALE
  5
62
102
{ACAD_REACTORS
330
47
102
}
330
47
100
AcDbScale
 70
     0
300
1/2" = 1'-0"
140
0.5
141
12.0
290
     0
  0
SCALE
  5
63
102
{ACAD_REACTORS
330
47
102
}
330
47
100
AcDbScale
 70
     0
300
3/4" = 1'-0"
140
0.75
141
12.0
290
     0
  0
SCALE
  5
64
102
{ACAD_REACTORS
330
47
102
}
330
47
100
AcDbScale
 70
     0
300
1" = 1'-0"
140
1.0
141
12.0
290
     0
  0
SCALE
  5
65
102
{ACAD_REACTORS
330
47
102
}
330
47
100
AcDbScale
 70
     0
300
1-1/2" = 1'-0"
140
1.5
141
12.0
290
     0
  0
SCALE
  5
66
102
{ACAD_REACTORS
330
47
102
}
330
47
100
AcDbScale
 70
     0
300
3" = 1'-0"
140
3.0
141
12.0
290
     0
  0
SCALE
  5
67
102
{ACAD_REACTORS
330
47
102
}
330
47
100
AcDbScale
 70
     0
300
6" = 1'-0"
140
6.0
141
12.0
290
     0
  0
SCALE
  5
68
102
{ACAD_REACTORS
330
47
102
}
330
47
100
AcDbScale
 70
     0
300
1'-0" = 1'-0"
140
12.0
141
12.0
290
     0
  0
ENDSEC
  0
EOF
