  0
SECTION
  2
HEADER
  9
$ACADVER
  1
AC1015
  9
$ACADMAINTVER
 70
     6
  9
$DWGCODEPAGE
  3
ANSI_949
  9
$INSBASE
 10
0.0
 20
0.0
 30
0.0
  9
$EXTMIN
 10
-61.89000000000004
 20
-49.97073246008785
 30
0.0
  9
$EXTMAX
 10
89.6384838153456
 20
40.08007492872393
 30
0.0
  9
$LIMMIN
 10
0.0
 20
0.0
  9
$LIMMAX
 10
420.0
 20
297.0
  9
$ORTHOMODE
 70
     1
  9
$REGENMODE
 70
     1
  9
$FILLMODE
 70
     1
  9
$QTEXTMODE
 70
     0
  9
$MIRRTEXT
 70
     1
  9
$LTSCALE
 40
1.0
  9
$ATTMODE
 70
     1
  9
$TEXTSIZE
 40
3.5
  9
$TRACEWID
 40
1.0
  9
$TEXTSTYLE
  7
Standard
  9
$CLAYER
  8
0
  9
$CELTYPE
  6
ByLayer
  9
$CECOLOR
 62
   256
  9
$CELTSCALE
 40
1.0
  9
$DISPSILH
 70
     0
  9
$DIMSCALE
 40
1.0
  9
$DIMASZ
 40
3.302
  9
$DIMEXO
 40
1.0
  9
$DIMDLI
 40
3.75
  9
$DIMRND
 40
0.0
  9
$DIMDLE
 40
0.0
  9
$DIMEXE
 40
1.0
  9
$DIMTP
 40
0.0
  9
$DIMTM
 40
0.0
  9
$DIMTXT
 40
3.5
  9
$DIMCEN
 40
2.5
  9
$DIMTSZ
 40
0.0
  9
$DIMTOL
 70
     0
  9
$DIMLIM
 70
     0
  9
$DIMTIH
 70
     1
  9
$DIMTOH
 70
     1
  9
$DIMSE1
 70
     0
  9
$DIMSE2
 70
     0
  9
$DIMTAD
 70
     1
  9
$DIMZIN
 70
     0
  9
$DIMBLK
  1

  9
$DIMASO
 70
     1
  9
$DIMSHO
 70
     1
  9
$DIMPOST
  1

  9
$DIMAPOST
  1

  9
$DIMALT
 70
     0
  9
$DIMALTD
 70
     3
  9
$DIMALTF
 40
0.0393700787401575
  9
$DIMLFAC
 40
1.0
  9
$DIMTOFL
 70
     1
  9
$DIMTVP
 40
0.0
  9
$DIMTIX
 70
     0
  9
$DIMSOXD
 70
     0
  9
$DIMSAH
 70
     0
  9
$DIMBLK1
  1

  9
$DIMBLK2
  1

  9
$DIMSTYLE
  2
ISO-25
  9
$DIMCLRD
 70
     0
  9
$DIMCLRE
 70
     0
  9
$DIMCLRT
 70
     0
  9
$DIMTFAC
 40
1.0
  9
$DIMGAP
 40
1.524
  9
$DIMJUST
 70
     0
  9
$DIMSD1
 70
     0
  9
$DIMSD2
 70
     0
  9
$DIMTOLJ
 70
     0
  9
$DIMTZIN
 70
     0
  9
$DIMALTZ
 70
     0
  9
$DIMALTTZ
 70
     0
  9
$DIMUPT
 70
     0
  9
$DIMDEC
 70
     2
  9
$DIMTDEC
 70
     2
  9
$DIMALTU
 70
     2
  9
$DIMALTTD
 70
     3
  9
$DIMTXSTY
  7
Standard
  9
$DIMAUNIT
 70
     0
  9
$DIMADEC
 70
     2
  9
$DIMALTRND
 40
0.0
  9
$DIMAZIN
 70
     0
  9
$DIMDSEP
 70
    44
  9
$DIMATFIT
 70
     3
  9
$DIMFRAC
 70
     0
  9
$DIMLDRBLK
  1

  9
$DIMLUNIT
 70
     2
  9
$DIMLWD
 70
    -2
  9
$DIMLWE
 70
    -2
  9
$DIMTMOVE
 70
     0
  9
$LUNITS
 70
     2
  9
$LUPREC
 70
     2
  9
$SKETCHINC
 40
1.0
  9
$FILLETRAD
 40
10.0
  9
$AUNITS
 70
     0
  9
$AUPREC
 70
     2
  9
$MENU
  1
.
  9
$ELEVATION
 40
0.0
  9
$PELEVATION
 40
0.0
  9
$THICKNESS
 40
0.0
  9
$LIMCHECK
 70
     0
  9
$CHAMFERA
 40
0.0
  9
$CHAMFERB
 40
0.0
  9
$CHAMFERC
 40
0.0
  9
$CHAMFERD
 40
0.0
  9
$SKPOLY
 70
     0
  9
$TDCREATE
 40
2458295.501798113
  9
$TDUCREATE
 40
2458295.126798113
  9
$TDUPDATE
 40
2458295.945490995
  9
$TDUUPDATE
 40
2458295.570490995
  9
$TDINDWG
 40
0.0010090972
  9
$TDUSRTIMER
 40
0.0016609606
  9
$USRTIMER
 70
     1
  9
$ANGBASE
 50
0.0
  9
$ANGDIR
 70
     0
  9
$PDMODE
 70
     0
  9
$PDSIZE
 40
-1.0
  9
$PLINEWID
 40
0.0
  9
$SPLFRAME
 70
     0
  9
$SPLINETYPE
 70
     6
  9
$SPLINESEGS
 70
     8
  9
$HANDSEED
  5
1AB
  9
$SURFTAB1
 70
     6
  9
$SURFTAB2
 70
     6
  9
$SURFTYPE
 70
     6
  9
$SURFU
 70
     6
  9
$SURFV
 70
     6
  9
$UCSBASE
  2

  9
$UCSNAME
  2

  9
$UCSORG
 10
0.0
 20
0.0
 30
0.0
  9
$UCSXDIR
 10
1.0
 20
0.0
 30
0.0
  9
$UCSYDIR
 10
0.0
 20
1.0
 30
0.0
  9
$UCSORTHOREF
  2

  9
$UCSORTHOVIEW
 70
     0
  9
$UCSORGTOP
 10
0.0
 20
0.0
 30
0.0
  9
$UCSORGBOTTOM
 10
0.0
 20
0.0
 30
0.0
  9
$UCSORGLEFT
 10
0.0
 20
0.0
 30
0.0
  9
$UCSORGRIGHT
 10
0.0
 20
0.0
 30
0.0
  9
$UCSORGFRONT
 10
0.0
 20
0.0
 30
0.0
  9
$UCSORGBACK
 10
0.0
 20
0.0
 30
0.0
  9
$PUCSBASE
  2

  9
$PUCSNAME
  2

  9
$PUCSORG
 10
0.0
 20
0.0
 30
0.0
  9
$PUCSXDIR
 10
1.0
 20
0.0
 30
0.0
  9
$PUCSYDIR
 10
0.0
 20
1.0
 30
0.0
  9
$PUCSORTHOREF
  2

  9
$PUCSORTHOVIEW
 70
     0
  9
$PUCSORGTOP
 10
0.0
 20
0.0
 30
0.0
  9
$PUCSORGBOTTOM
 10
0.0
 20
0.0
 30
0.0
  9
$PUCSORGLEFT
 10
0.0
 20
0.0
 30
0.0
  9
$PUCSORGRIGHT
 10
0.0
 20
0.0
 30
0.0
  9
$PUCSORGFRONT
 10
0.0
 20
0.0
 30
0.0
  9
$PUCSORGBACK
 10
0.0
 20
0.0
 30
0.0
  9
$USERI1
 70
     0
  9
$USERI2
 70
     0
  9
$USERI3
 70
     0
  9
$USERI4
 70
     0
  9
$USERI5
 70
     0
  9
$USERR1
 40
0.0
  9
$USERR2
 40
0.0
  9
$USERR3
 40
0.0
  9
$USERR4
 40
0.0
  9
$USERR5
 40
0.0
  9
$WORLDVIEW
 70
     1
  9
$SHADEDGE
 70
     3
  9
$SHADEDIF
 70
    70
  9
$TILEMODE
 70
     1
  9
$MAXACTVP
 70
    64
  9
$PINSBASE
 10
0.0
 20
0.0
 30
0.0
  9
$PLIMCHECK
 70
     0
  9
$PEXTMIN
 10
1.000000000000000E+20
 20
1.000000000000000E+20
 30
1.000000000000000E+20
  9
$PEXTMAX
 10
-1.000000000000000E+20
 20
-1.000000000000000E+20
 30
-1.000000000000000E+20
  9
$PLIMMIN
 10
0.0
 20
0.0
  9
$PLIMMAX
 10
0.0
 20
0.0
  9
$UNITMODE
 70
     0
  9
$VISRETAIN
 70
     1
  9
$PLINEGEN
 70
     0
  9
$PSLTSCALE
 70
     1
  9
$TREEDEPTH
 70
  3020
  9
$CMLSTYLE
  2
Standard
  9
$CMLJUST
 70
     0
  9
$CMLSCALE
 40
20.0
  9
$PROXYGRAPHICS
 70
     1
  9
$MEASUREMENT
 70
     1
  9
$CELWEIGHT
370
    -1
  9
$ENDCAPS
280
     0
  9
$JOINSTYLE
280
     0
  9
$LWDISPLAY
290
     1
  9
$INSUNITS
 70
     4
  9
$HYPERLINKBASE
  1

  9
$STYLESHEET
  1

  9
$XEDIT
290
     1
  9
$CEPSNTYPE
380
     0
  9
$PSTYLEMODE
290
     1
  9
$FINGERPRINTGUID
  2
{E1CCFA06-6F87-46FC-9331-71277FCCE6AB}
  9
$VERSIONGUID
  2
{FAEB1C32-E019-11D5-929B-00C0DF256EC4}
  9
$EXTNAMES
290
     1
  9
$PSVPSCALE
 40
0.0
  9
$OLESTARTUP
290
     0
  0
ENDSEC
  0
SECTION
  2
CLASSES
  0
CLASS
  1
ACDBDICTIONARYWDFLT
  2
AcDbDictionaryWithDefault
  3
ObjectDBX Classes
 90
        0
280
     0
281
     0
  0
CLASS
  1
VISUALSTYLE
  2
AcDbVisualStyle
  3
ObjectDBX Classes
 90
     4095
280
     0
281
     0
  0
CLASS
  1
MATERIAL
  2
AcDbMaterial
  3
ObjectDBX Classes
 90
     1153
280
     0
281
     0
  0
CLASS
  1
SCALE
  2
AcDbScale
  3
ObjectDBX Classes
 90
     1153
280
     0
281
     0
  0
CLASS
  1
SUN
  2
AcDbSun
  3
SCENEOE
 90
     1153
280
     0
281
     0
  0
CLASS
  1
ACDBPLACEHOLDER
  2
AcDbPlaceHolder
  3
ObjectDBX Classes
 90
        0
280
     0
281
     0
  0
CLASS
  1
LAYOUT
  2
AcDbLayout
  3
ObjectDBX Classes
 90
        0
280
     0
281
     0
  0
CLASS
  1
TABLESTYLE
  2
AcDbTableStyle
  3
ObjectDBX Classes
 90
     4095
280
     0
281
     0
  0
CLASS
  1
MLEADERSTYLE
  2
AcDbMLeaderStyle
  3
ACDB_MLEADERSTYLE_CLASS
 90
     4095
280
     0
281
     0
  0
CLASS
  1
DICTIONARYVAR
  2
AcDbDictionaryVar
  3
ObjectDBX Classes
 90
        0
280
     0
281
     0
  0
CLASS
  1
DIMASSOC
  2
AcDbDimAssoc
  3
"AcDbDimAssoc|Product Desc:     AcDim ARX App For Dimension|Company:          Autodesk, Inc.|WEB Address:      www.autodesk.com"
 90
        0
280
     0
281
     0
  0
ENDSEC
  0
SECTION
  2
TABLES
  0
TABLE
  2
VPORT
  5
8
330
0
100
AcDbSymbolTable
 70
     1
  0
VPORT
  5
29
330
8
100
AcDbSymbolTableRecord
100
AcDbViewportTableRecord
  2
*Active
 70
     0
 10
0.0
 20
0.0
 11
1.0
 21
1.0
 12
-26.78313660882175
 22
4.687855793705786
 13
0.0
 23
0.0
 14
10.0
 24
10.0
 15
10.0
 25
10.0
 16
0.0
 26
0.0
 36
1.0
 17
0.0
 27
0.0
 37
0.0
 40
119.7203702270107
 41
2.959259259259259
 42
50.0
 43
0.0
 44
0.0
 50
0.0
 51
0.0
 71
    16
 72
  2000
 73
     1
 74
     3
 75
     0
 76
     0
 77
     0
 78
     0
281
     0
 65
     1
110
0.0
120
0.0
130
0.0
111
1.0
121
0.0
131
0.0
112
0.0
122
1.0
132
0.0
 79
     0
146
0.0
  0
ENDTAB
  0
TABLE
  2
LTYPE
  5
5
330
0
100
AcDbSymbolTable
 70
     6
  0
LTYPE
  5
14
330
5
100
AcDbSymbolTableRecord
100
AcDbLinetypeTableRecord
  2
ByBlock
 70
     0
  3

 72
    65
 73
     0
 40
0.0
  0
LTYPE
  5
15
330
5
100
AcDbSymbolTableRecord
100
AcDbLinetypeTableRecord
  2
ByLayer
 70
     0
  3

 72
    65
 73
     0
 40
0.0
  0
LTYPE
  5
16
330
5
100
AcDbSymbolTableRecord
100
AcDbLinetypeTableRecord
  2
Continuous
 70
     0
  3
Solid line
 72
    65
 73
     0
 40
0.0
  0
LTYPE
  5
6A
330
5
100
AcDbSymbolTableRecord
100
AcDbLinetypeTableRecord
  2
HIDDEN
 70
     0
  3
Hidden __ __ __ __ __ __ __ __ __ __ __ __ __ __
 72
    65
 73
     2
 40
1.905
 49
1.27
 74
     0
 49
-0.635
 74
     0
  0
LTYPE
  5
6B
330
5
100
AcDbSymbolTableRecord
100
AcDbLinetypeTableRecord
  2
PHANTOM
 70
     0
  3
Phantom ______  __  __  ______  __  __  ______
 72
    65
 73
     6
 40
12.7
 49
6.35
 74
     0
 49
-1.27
 74
     0
 49
1.27
 74
     0
 49
-1.27
 74
     0
 49
1.27
 74
     0
 49
-1.27
 74
     0
  0
LTYPE
  5
6C
330
5
100
AcDbSymbolTableRecord
100
AcDbLinetypeTableRecord
  2
CENTER
 70
     0
  3
Center ____ _ ____ _ ____ _ ____ _ ____ _ ____
 72
    65
 73
     4
 40
10.16
 49
6.35
 74
     0
 49
-1.27
 74
     0
 49
1.27
 74
     0
 49
-1.27
 74
     0
  0
LTYPE
  5
6D
330
5
100
AcDbSymbolTableRecord
100
AcDbLinetypeTableRecord
  2
CENTERX2
 70
     0
  3
Center (2x) ________  __  ________  __  _____
 72
    65
 73
     4
 40
20.32
 49
12.7
 74
     0
 49
-2.54
 74
     0
 49
2.54
 74
     0
 49
-2.54
 74
     0
  0
LTYPE
  5
6E
330
5
100
AcDbSymbolTableRecord
100
AcDbLinetypeTableRecord
  2
DOT2
 70
     0
  3
Dot (.5x) ........................................
 72
    65
 73
     2
 40
0.635
 49
0.0
 74
     0
 49
-0.635
 74
     0
  0
ENDTAB
  0
TABLE
  2
LAYER
  5
2
102
{ACAD_XDICTIONARY
360
187
102
}
330
0
100
AcDbSymbolTable
 70
    18
  0
LAYER
  5
10
330
2
100
AcDbSymbolTableRecord
100
AcDbLayerTableRecord
  2
0
 70
     0
 62
     7
  6
Continuous
370
    -3
390
F
  0
LAYER
  5
6F
330
2
100
AcDbSymbolTableRecord
100
AcDbLayerTableRecord
  2
FORMAT
 70
     0
 62
     2
  6
Continuous
370
    -3
390
F
  0
LAYER
  5
70
330
2
100
AcDbSymbolTableRecord
100
AcDbLayerTableRecord
  2
외형선
 70
     0
 62
     4
  6
Continuous
370
    30
390
F
  0
LAYER
  5
71
330
2
100
AcDbSymbolTableRecord
100
AcDbLayerTableRecord
  2
숨은선
 70
     0
 62
     2
  6
HIDDEN
370
    15
390
F
  0
LAYER
  5
72
330
2
100
AcDbSymbolTableRecord
100
AcDbLayerTableRecord
  2
중심선
 70
     0
 62
     1
  6
CENTERX2
370
    -3
390
F
  0
LAYER
  5
73
330
2
100
AcDbSymbolTableRecord
100
AcDbLayerTableRecord
  2
파단선
 70
     0
 62
     4
  6
Continuous
370
    -3
390
F
  0
LAYER
  5
74
330
2
100
AcDbSymbolTableRecord
100
AcDbLayerTableRecord
  2
해칭선
 70
     0
 62
   100
  6
Continuous
370
    -3
390
F
  0
LAYER
  5
75
330
2
100
AcDbSymbolTableRecord
100
AcDbLayerTableRecord
  2
가는실선
 70
     0
 62
     4
  6
Continuous
370
    -3
390
F
  0
LAYER
  5
76
330
2
100
AcDbSymbolTableRecord
100
AcDbLayerTableRecord
  2
치수_보조선
 70
     0
 62
     4
  6
Continuous
370
    -3
390
F
  0
LAYER
  5
77
330
2
100
AcDbSymbolTableRecord
100
AcDbLayerTableRecord
  2
치수문자_일반주서
 70
     0
 62
     7
  6
Continuous
370
    15
390
F
  0
LAYER
  5
78
330
2
100
AcDbSymbolTableRecord
100
AcDbLayerTableRecord
  2
개별주서
 70
     0
 62
   100
  6
Continuous
370
    30
390
F
  0
LAYER
  5
79
330
2
100
AcDbSymbolTableRecord
100
AcDbLayerTableRecord
  2
중간선
 70
     0
 62
     2
  6
Continuous
370
    15
390
F
  0
LAYER
  5
7A
330
2
100
AcDbSymbolTableRecord
100
AcDbLayerTableRecord
  2
윤곽선
 70
     0
 62
     3
  6
Continuous
370
    40
390
F
  0
LAYER
  5
7B
330
2
100
AcDbSymbolTableRecord
100
AcDbLayerTableRecord
  2
중심마크
 70
     0
 62
   100
  6
Continuous
370
    30
390
F
  0
LAYER
  5
7C
330
2
100
AcDbSymbolTableRecord
100
AcDbLayerTableRecord
  2
가상선
 70
     0
 62
     4
  6
PHANTOM
370
    -3
390
F
  0
LAYER
  5
7D
330
2
100
AcDbSymbolTableRecord
100
AcDbLayerTableRecord
  2
특수지정선
 70
     0
 62
     5
  6
CENTERX2
370
    60
390
F
  0
LAYER
  5
7E
330
2
100
AcDbSymbolTableRecord
100
AcDbLayerTableRecord
  2
참조1
 70
     0
 62
    -4
  6
Continuous
370
    -3
390
F
  0
LAYER
  5
18F
330
2
100
AcDbSymbolTableRecord
100
AcDbLayerTableRecord
  2
Defpoints
 70
     0
 62
     7
  6
Continuous
290
     0
370
    -3
390
F
  0
ENDTAB
  0
TABLE
  2
STYLE
  5
3
330
0
100
AcDbSymbolTable
 70
     2
  0
STYLE
  5
11
330
3
100
AcDbSymbolTableRecord
100
AcDbTextStyleTableRecord
  2
Standard
 70
     0
 40
0.0
 41
1.0
 50
0.0
 71
     0
 42
3.5
  3
txt
  4

  0
STYLE
  5
94
330
3
100
AcDbSymbolTableRecord
100
AcDbTextStyleTableRecord
  2
SLDTEXTSTYLE0
 70
     0
 40
0.0
 41
0.75
 50
0.0
 71
     0
 42
3.5
  3
TXT
  4

  0
ENDTAB
  0
TABLE
  2
VIEW
  5
6
330
0
100
AcDbSymbolTable
 70
     0
  0
ENDTAB
  0
TABLE
  2
UCS
  5
7
330
0
100
AcDbSymbolTable
 70
     0
  0
ENDTAB
  0
TABLE
  2
APPID
  5
9
330
0
100
AcDbSymbolTable
 70
     3
  0
APPID
  5
12
330
9
100
AcDbSymbolTableRecord
100
AcDbRegAppTableRecord
  2
ACAD
 70
     0
  0
APPID
  5
18E
330
9
100
AcDbSymbolTableRecord
100
AcDbRegAppTableRecord
  2
PE_URL
 70
     0
  0
APPID
  5
19C
330
9
100
AcDbSymbolTableRecord
100
AcDbRegAppTableRecord
  2
ACAD_DSTYLE_DIMRADIAL_EXTENSION
 70
     0
  0
ENDTAB
  0
TABLE
  2
DIMSTYLE
  5
A
330
0
100
AcDbSymbolTable
 70
     4
100
AcDbDimStyleTable
  0
DIMSTYLE
105
27
330
A
100
AcDbSymbolTableRecord
100
AcDbDimStyleTableRecord
  2
ISO-25
 70
     0
 41
2.5
 42
0.625
 43
3.75
 44
1.25
 73
     0
 74
     0
 77
     1
 78
     8
140
2.5
141
2.5
143
0.03937007874016
147
0.625
171
     3
172
     1
178
     0
271
     2
272
     2
274
     3
278
    44
283
     0
284
     8
340
11
  0
DIMSTYLE
105
E0
102
{ACAD_REACTORS
330
DF
330
109
330
F5
330
11D
330
19D
102
}
330
A
100
AcDbSymbolTableRecord
100
AcDbDimStyleTableRecord
  2
SLDDIMSTYLE0
 70
     0
 41
3.302
 44
0.0
 45
0.000000001
 73
     0
 74
     0
 77
     1
 78
     4
 79
     1
140
3.5
143
0.0393700787401575
147
0.875
148
0.000000001
170
     1
172
     1
173
     1
178
     0
271
     2
272
     2
276
     2
284
    12
289
     0
340
94
  0
DIMSTYLE
105
F6
330
A
100
AcDbSymbolTableRecord
100
AcDbDimStyleTableRecord
  2
SLDDIMSTYLE1
 70
     0
 41
3.302
 44
0.0
 45
0.000000001
 73
     0
 74
     0
 77
     1
 78
    12
 79
     3
140
3.5
143
0.0393700787401575
147
0.875
148
0.000000001
170
     1
173
     1
178
     0
271
     2
272
     2
276
     2
284
    12
340
94
  0
DIMSTYLE
105
11E
330
A
100
AcDbSymbolTableRecord
100
AcDbDimStyleTableRecord
  2
SLDDIMSTYLE2
 70
     0
 41
3.302
 44
0.0
 45
0.000000001
 73
     0
 74
     0
 77
     1
 78
     4
 79
     1
140
3.5
143
0.0393700787401575
147
0.875
148
0.000000001
170
     1
173
     1
178
     0
271
     2
272
     2
276
     2
284
    12
340
94
  0
ENDTAB
  0
TABLE
  2
BLOCK_RECORD
  5
1
330
0
100
AcDbSymbolTable
 70
     9
  0
BLOCK_RECORD
  5
1F
330
1
100
AcDbSymbolTableRecord
100
AcDbBlockTableRecord
  2
*Model_Space
340
22
  0
BLOCK_RECORD
  5
1B
330
1
100
AcDbSymbolTableRecord
100
AcDbBlockTableRecord
  2
*Paper_Space
340
1E
  0
BLOCK_RECORD
  5
23
330
1
100
AcDbSymbolTableRecord
100
AcDbBlockTableRecord
  2
*Paper_Space0
340
26
  0
BLOCK_RECORD
  5
7F
330
1
100
AcDbSymbolTableRecord
100
AcDbBlockTableRecord
  2
블럭10
340
0
102
{BLKREFS
331
D8
102
}
  0
BLOCK_RECORD
  5
E1
330
1
100
AcDbSymbolTableRecord
100
AcDbBlockTableRecord
  2
_D
340
0
  0
BLOCK_RECORD
  5
F7
330
1
100
AcDbSymbolTableRecord
100
AcDbBlockTableRecord
  2
_D_1
340
0
  0
BLOCK_RECORD
  5
10A
330
1
100
AcDbSymbolTableRecord
100
AcDbBlockTableRecord
  2
_D_2
340
0
  0
BLOCK_RECORD
  5
11F
330
1
100
AcDbSymbolTableRecord
100
AcDbBlockTableRecord
  2
_D_3
340
0
  0
BLOCK_RECORD
  5
138
330
1
100
AcDbSymbolTableRecord
100
AcDbBlockTableRecord
  2
SW_DOWELSYMBOL_0
340
0
102
{BLKREFS
331
13E
102
}
  0
BLOCK_RECORD
  5
1A0
330
1
100
AcDbSymbolTableRecord
100
AcDbBlockTableRecord
  2
*D8
340
0
  0
ENDTAB
  0
ENDSEC
  0
SECTION
  2
BLOCKS
  0
BLOCK
  5
20
330
1F
100
AcDbEntity
  8
0
100
AcDbBlockBegin
  2
*Model_Space
 70
     0
 10
0.0
 20
0.0
 30
0.0
  3
*Model_Space
  1

  0
ENDBLK
  5
21
330
1F
100
AcDbEntity
  8
0
100
AcDbBlockEnd
  0
BLOCK
  5
1C
330
1B
100
AcDbEntity
 67
     1
  8
0
100
AcDbBlockBegin
  2
*Paper_Space
 70
     0
 10
0.0
 20
0.0
 30
0.0
  3
*Paper_Space
  1

  0
ENDBLK
  5
1D
330
1B
100
AcDbEntity
 67
     1
  8
0
100
AcDbBlockEnd
  0
BLOCK
  5
24
330
23
100
AcDbEntity
  8
0
100
AcDbBlockBegin
  2
*Paper_Space0
 70
     0
 10
0.0
 20
0.0
 30
0.0
  3
*Paper_Space0
  1

  0
ENDBLK
  5
25
330
23
100
AcDbEntity
  8
0
100
AcDbBlockEnd
  0
BLOCK
  5
80
330
7F
100
AcDbEntity
  8
0
100
AcDbBlockBegin
  2
블럭10
 70
     2
 10
0.0
 20
0.0
 30
0.0
  3
블럭10
  1

  0
ELLIPSE
  5
82
330
7F
100
AcDbEntity
  8
중심선
100
AcDbEllipse
 10
20.54032771741204
 20
12.0471743016438
 30
0.0
 11
6.600054785286829
 21
-1.261213355974178E-13
 31
0.0
210
0.0
220
0.0
230
1.0
 40
0.636358354079598
 41
0.9219305317359503
 42
6.513795318482858
  0
ELLIPSE
  5
83
330
7F
100
AcDbEntity
  8
중심선
100
AcDbEllipse
 10
20.54032771746488
 20
12.04717430159265
 30
0.0
 11
3.960054785062283
 21
1.540847449632565E-10
 31
0.0
210
0.0
220
0.0
230
1.0
 40
0.3939339440162632
 41
1.131841032648279
 42
5.62031148352944
  0
LINE
  5
84
330
7F
100
AcDbEntity
  8
중심선
100
AcDbLine
 10
2.268634060543552
 20
16.24717430164393
 30
0.0
 11
5.714909304380834
 21
16.24717430164393
 31
0.0
  0
LINE
  5
85
330
7F
100
AcDbEntity
  8
중심선
100
AcDbLine
 10
5.245725140726316
 20
7.84717430164391
 30
0.0
 11
8.692000384563599
 21
7.84717430164391
 31
0.0
  0
LINE
  5
86
330
7F
100
AcDbEntity
  8
중심선
100
AcDbLine
 10
15.74043728645272
 20
16.24717430164393
 30
0.0
 11
8.692000384563599
 21
7.84717430164391
 31
0.0
  0
LINE
  5
87
330
7F
100
AcDbEntity
  8
중심선
100
AcDbLine
 10
0.1404042013395286
 20
13.71084872107135
 30
0.0
 11
3.58671253028996
 21
13.71088815037384
 31
0.0
  0
LINE
  5
88
330
7F
100
AcDbEntity
  8
중심선
100
AcDbLine
 10
2.750260043222114
 20
10.84717430164391
 30
0.0
 11
6.196535287059397
 21
10.84717430164391
 31
0.0
  0
LINE
  5
89
330
7F
100
AcDbEntity
  8
중심선
100
AcDbLine
 10
12.29416204261559
 20
16.24717430164393
 30
0.0
 11
5.245725140726316
 21
7.84717430164391
 31
0.0
  0
LINE
  5
8A
330
7F
100
AcDbEntity
  8
중심선
100
AcDbLine
 10
10.72767329541681
 20
16.24717430164393
 30
0.0
 11
6.196535287059397
 21
10.84717430164391
 31
0.0
  0
LINE
  5
8B
330
7F
100
AcDbEntity
  8
중심선
100
AcDbLine
 10
7.28139805157953
 20
16.24717430164393
 30
0.0
 11
2.750260043222114
 21
10.84717430164391
 31
0.0
  0
LINE
  5
8C
330
7F
100
AcDbEntity
  8
중심선
100
AcDbLine
 10
5.714909304380834
 20
16.24717430164393
 30
0.0
 11
3.58671253028996
 21
13.71088815037384
 31
0.0
  0
LINE
  5
8D
330
7F
100
AcDbEntity
  8
중심선
100
AcDbLine
 10
2.268634060543552
 20
16.24717430164393
 30
0.0
 11
0.1404042013395286
 21
13.71084872107135
 31
0.0
  0
LINE
  5
8E
330
7F
100
AcDbEntity
  8
중심선
100
AcDbLine
 10
7.28139805157953
 20
16.24717430164393
 30
0.0
 11
10.72767329541681
 21
16.24717430164393
 31
0.0
  0
LINE
  5
8F
330
7F
100
AcDbEntity
  8
중심선
100
AcDbLine
 10
12.29416204261559
 20
16.24717430164393
 30
0.0
 11
15.74043728645272
 21
16.24717430164393
 31
0.0
  0
LINE
  5
90
330
7F
100
AcDbEntity
  8
중심선
100
AcDbLine
 10
19.22036997980202
 20
11.08717430171403
 30
0.0
 11
23.66174974927406
 21
11.08717430171406
 31
0.0
  0
LINE
  5
91
330
7F
100
AcDbEntity
  8
중심선
100
AcDbLine
 10
19.22039502424796
 20
13.00717430171391
 30
0.0
 11
19.22036997980202
 21
11.08717430171403
 31
0.0
  0
LINE
  5
92
330
7F
100
AcDbEntity
  8
중심선
100
AcDbLine
 10
19.22039502424796
 20
13.00717430171391
 30
0.0
 11
26.96566020931264
 21
13.00717430171391
 31
0.0
  0
LINE
  5
93
330
7F
100
AcDbEntity
  8
중심선
100
AcDbLine
 10
22.22332737316547
 20
13.45928029700563
 30
0.0
 11
24.52862924686651
 21
15.39360700705356
 31
0.0
  0
ATTDEF
  5
95
330
7F
100
AcDbEntity
  8
FORMAT
 62
     2
100
AcDbText
 10
2.883703680694412
 20
2.075366912832191
 30
0.0
 40
4.233333333333333
  1
G8C51902
 41
0.75
  7
SLDTEXTSTYLE0
 11
2.883703680694412
 21
-0.0412997538344756
 31
0.0
100
AcDbAttributeDefinition
  3

  2
AUTOATTR0
 70
     0
 74
     1
  0
ENDBLK
  5
81
330
7F
100
AcDbEntity
  8
0
100
AcDbBlockEnd
  0
BLOCK
  5
E2
330
E1
100
AcDbEntity
  8
0
100
AcDbBlockBegin
  2
_D
 70
     0
 10
0.0
 20
0.0
 30
0.0
  3
_D
  1

  0
LINE
  5
E4
330
E1
100
AcDbEntity
  8
치수문자_일반주서
 62
     0
370
    -2
100
AcDbLine
 10
37.40000000000004
 20
6.413574928723893
 30
0.0
 11
37.40000000000004
 21
16.60456421473879
 31
0.0
  0
LINE
  5
E5
330
E1
100
AcDbEntity
  8
치수문자_일반주서
 62
     0
370
    -2
100
AcDbLine
 10
12.00000000000002
 20
6.385456660362771
 30
0.0
 11
12.00000000000002
 21
16.60456421473879
 31
0.0
  0
LINE
  5
E6
330
E1
100
AcDbEntity
  8
치수문자_일반주서
 62
     0
370
    -2
100
AcDbLine
 10
34.09800000000004
 20
16.60456421473879
 30
0.0
 11
15.30200000000002
 21
16.60456421473879
 31
0.0
  0
SOLID
  5
E7
330
E1
100
AcDbEntity
  8
치수문자_일반주서
 62
     0
100
AcDbTrace
 10
34.09800000000004
 20
16.05423088140546
 30
0.0
 11
34.09800000000004
 21
17.15489754807212
 31
0.0
 12
37.40000000000004
 22
16.60456421473879
 32
0.0
 13
37.40000000000004
 23
16.60456421473879
 33
0.0
  0
SOLID
  5
E8
330
E1
100
AcDbEntity
  8
치수문자_일반주서
 62
     0
100
AcDbTrace
 10
15.30200000000002
 20
17.15489754807212
 30
0.0
 11
15.30200000000002
 21
16.05423088140546
 31
0.0
 12
12.00000000000002
 22
16.60456421473879
 32
0.0
 13
12.00000000000002
 23
16.60456421473879
 33
0.0
  0
MTEXT
  5
E9
330
E1
100
AcDbEntity
  8
치수문자_일반주서
 62
     0
100
AcDbMText
 10
24.70000000000002
 20
20.97956421473879
 30
0.0
 40
3.5
 41
0.0
 71
     2
 72
     1
  1
\A1;25.40 [1]
  7
SLDTEXTSTYLE0
 73
     1
 44
1.0
  0
POINT
  5
EA
330
E1
100
AcDbEntity
  8
Defpoints
 62
     0
100
AcDbPoint
 10
37.40000000000004
 20
6.351074928723893
 30
0.0
  0
POINT
  5
EB
330
E1
100
AcDbEntity
  8
Defpoints
 62
     0
100
AcDbPoint
 10
12.00000000000002
 20
6.322956660362771
 30
0.0
  0
POINT
  5
EC
330
E1
100
AcDbEntity
  8
Defpoints
 62
     0
100
AcDbPoint
 10
12.00000000000002
 20
16.60456421473879
 30
0.0
  0
ENDBLK
  5
E3
330
E1
100
AcDbEntity
  8
0
100
AcDbBlockEnd
  0
BLOCK
  5
F8
330
F7
100
AcDbEntity
  8
0
100
AcDbBlockBegin
  2
_D_1
 70
     0
 10
0.0
 20
0.0
 30
0.0
  3
_D_1
  1

  0
LINE
  5
FA
330
F7
100
AcDbEntity
  8
치수문자_일반주서
 62
     0
370
    -2
100
AcDbLine
 10
37.40000000000004
 20
6.413574928723893
 30
0.0
 11
37.40000000000003
 21
31.01804874701521
 31
0.0
  0
LINE
  5
FB
330
F7
100
AcDbEntity
  8
치수문자_일반주서
 62
     0
370
    -2
100
AcDbLine
 10
-45.14999999999998
 20
5.143574928723896
 30
0.0
 11
-45.14999999999998
 21
31.01804874701521
 31
0.0
  0
LINE
  5
FC
330
F7
100
AcDbEntity
  8
치수문자_일반주서
 62
     0
370
    -2
100
AcDbLine
 10
34.09800000000003
 20
31.01804874701521
 30
0.0
 11
-41.84799999999998
 21
31.01804874701521
 31
0.0
  0
SOLID
  5
FD
330
F7
100
AcDbEntity
  8
치수문자_일반주서
 62
     0
100
AcDbTrace
 10
34.09800000000003
 20
30.46771541368187
 30
0.0
 11
34.09800000000003
 21
31.56838208034854
 31
0.0
 12
37.40000000000003
 22
31.01804874701521
 32
0.0
 13
37.40000000000003
 23
31.01804874701521
 33
0.0
  0
SOLID
  5
FE
330
F7
100
AcDbEntity
  8
치수문자_일반주서
 62
     0
100
AcDbTrace
 10
-41.84799999999998
 20
31.56838208034854
 30
0.0
 11
-41.84799999999998
 21
30.46771541368187
 31
0.0
 12
-45.14999999999998
 22
31.01804874701521
 32
0.0
 13
-45.14999999999998
 23
31.01804874701521
 33
0.0
  0
MTEXT
  5
FF
330
F7
100
AcDbEntity
  8
치수문자_일반주서
 62
     0
100
AcDbMText
 10
-3.87499999999997
 20
35.39304874701521
 30
0.0
 40
3.5
 41
0.0
 71
     2
 72
     1
  1
\A1;82.55 [3 1/4]
  7
SLDTEXTSTYLE0
 73
     1
 44
1.0
  0
POINT
  5
100
330
F7
100
AcDbEntity
  8
Defpoints
 62
     0
100
AcDbPoint
 10
37.40000000000004
 20
6.351074928723893
 30
0.0
  0
POINT
  5
101
330
F7
100
AcDbEntity
  8
Defpoints
 62
     0
100
AcDbPoint
 10
-45.14999999999998
 20
5.081074928723896
 30
0.0
  0
POINT
  5
102
330
F7
100
AcDbEntity
  8
Defpoints
 62
     0
100
AcDbPoint
 10
-45.14999999999998
 20
31.01804874701521
 30
0.0
  0
ENDBLK
  5
F9
330
F7
100
AcDbEntity
  8
0
100
AcDbBlockEnd
  0
BLOCK
  5
10B
330
10A
100
AcDbEntity
  8
0
100
AcDbBlockBegin
  2
_D_2
 70
     0
 10
0.0
 20
0.0
 30
0.0
  3
_D_2
  1

  0
LINE
  5
10D
330
10A
100
AcDbEntity
  8
치수문자_일반주서
 62
     0
370
    -2
100
AcDbLine
 10
-43.94249999999998
 20
6.351074928723888
 30
0.0
 11
-57.51500000000001
 21
6.351074928723835
 31
0.0
  0
LINE
  5
10E
330
10A
100
AcDbEntity
  8
치수문자_일반주서
 62
     0
370
    -2
100
AcDbLine
 10
-43.94249999999998
 20
-6.348925071276101
 30
0.0
 11
-57.51499999999997
 21
-6.348925071276153
 31
0.0
  0
LINE
  5
10F
330
10A
100
AcDbEntity
  8
치수문자_일반주서
 62
     0
370
    -2
100
AcDbLine
 10
-57.515
 20
3.049074928723836
 30
0.0
 11
-57.51499999999999
 21
-3.046925071276154
 31
0.0
  0
SOLID
  5
110
330
10A
100
AcDbEntity
  8
치수문자_일반주서
 62
     0
100
AcDbTrace
 10
-56.96466666666667
 20
3.049074928723837
 30
0.0
 11
-58.06533333333334
 21
3.049074928723834
 31
0.0
 12
-57.51500000000001
 22
6.351074928723835
 32
0.0
 13
-57.51500000000001
 23
6.351074928723835
 33
0.0
  0
SOLID
  5
111
330
10A
100
AcDbEntity
  8
치수문자_일반주서
 62
     0
100
AcDbTrace
 10
-58.06533333333332
 20
-3.046925071276156
 30
0.0
 11
-56.96466666666665
 21
-3.046925071276152
 31
0.0
 12
-57.51499999999997
 22
-6.348925071276153
 32
0.0
 13
-57.51499999999997
 23
-6.348925071276153
 33
0.0
  0
MTEXT
  5
112
330
10A
100
AcDbEntity
  8
치수문자_일반주서
 62
     0
100
AcDbMText
 10
-61.88999999999999
 20
0.0010749287238739
 30
0.0
 40
3.5
 41
0.0
 71
     2
 72
     1
  1
\A1;%%c12.70 [1/2]
  7
SLDTEXTSTYLE0
 11
-3.356894814614650E-15
 21
1.0
 31
0.0
 73
     1
 44
1.0
  0
POINT
  5
113
330
10A
100
AcDbEntity
  8
Defpoints
 62
     0
100
AcDbPoint
 10
-43.87999999999998
 20
6.351074928723888
 30
0.0
  0
POINT
  5
114
330
10A
100
AcDbEntity
  8
Defpoints
 62
     0
100
AcDbPoint
 10
-43.87999999999998
 20
-6.348925071276101
 30
0.0
  0
POINT
  5
115
330
10A
100
AcDbEntity
  8
Defpoints
 62
     0
100
AcDbPoint
 10
-57.51499999999997
 20
-6.348925071276152
 30
0.0
  0
ENDBLK
  5
10C
330
10A
100
AcDbEntity
  8
0
100
AcDbBlockEnd
  0
BLOCK
  5
120
330
11F
100
AcDbEntity
  8
0
100
AcDbBlockBegin
  2
_D_3
 70
     0
 10
0.0
 20
0.0
 30
0.0
  3
_D_3
  1

  0
LINE
  5
122
330
11F
100
AcDbEntity
  8
치수문자_일반주서
 62
     0
370
    -2
100
AcDbLine
 10
37.46250000000004
 20
6.351074928723893
 30
0.0
 11
48.32019967372899
 21
6.351074928723932
 31
0.0
  0
LINE
  5
123
330
11F
100
AcDbEntity
  8
치수문자_일반주서
 62
     0
370
    -2
100
AcDbLine
 10
37.46250000000004
 20
-6.348925071276105
 30
0.0
 11
48.32019967372904
 21
-6.34892507127606
 31
0.0
  0
LINE
  5
124
330
11F
100
AcDbEntity
  8
치수문자_일반주서
 62
     0
370
    -2
100
AcDbLine
 10
48.32019967372899
 20
6.351074928723932
 30
0.0
 11
48.32019967372888
 21
40.08007492872393
 31
0.0
  0
LINE
  5
125
330
11F
100
AcDbEntity
  8
치수문자_일반주서
 62
     0
370
    -2
100
AcDbLine
 10
48.32019967372899
 20
6.351074928723932
 30
0.0
 11
48.32019967372904
 21
-6.34892507127606
 31
0.0
  0
LINE
  5
126
330
11F
100
AcDbEntity
  8
치수문자_일반주서
 62
     0
370
    -2
100
AcDbLine
 10
48.32019967372898
 20
9.653074928723932
 30
0.0
 11
48.32019967372896
 21
12.95507492872393
 31
0.0
  0
LINE
  5
127
330
11F
100
AcDbEntity
  8
치수문자_일반주서
 62
     0
370
    -2
100
AcDbLine
 10
48.32019967372905
 20
-9.65092507127606
 30
0.0
 11
48.32019967372906
 21
-12.95292507127606
 31
0.0
  0
SOLID
  5
128
330
11F
100
AcDbEntity
  8
치수문자_일반주서
 62
     0
100
AcDbTrace
 10
47.76986634039564
 20
9.65307492872393
 30
0.0
 11
48.87053300706231
 21
9.653074928723933
 31
0.0
 12
48.32019967372899
 22
6.351074928723932
 32
0.0
 13
48.32019967372899
 23
6.351074928723932
 33
0.0
  0
SOLID
  5
129
330
11F
100
AcDbEntity
  8
치수문자_일반주서
 62
     0
100
AcDbTrace
 10
48.87053300706238
 20
-9.650925071276058
 30
0.0
 11
47.76986634039572
 21
-9.650925071276061
 31
0.0
 12
48.32019967372904
 22
-6.34892507127606
 32
0.0
 13
48.32019967372904
 23
-6.34892507127606
 33
0.0
  0
MTEXT
  5
12A
330
11F
100
AcDbEntity
  8
치수문자_일반주서
 62
     0
100
AcDbMText
 10
43.94519967372892
 20
26.73632492872392
 30
0.0
 40
3.5
 41
0.0
 71
     2
 72
     1
  1
\A1;%%c12.70 [1/2]
  7
SLDTEXTSTYLE0
 11
-3.356894814614647E-15
 21
1.0
 31
0.0
 73
     1
 44
1.0
  0
POINT
  5
12B
330
11F
100
AcDbEntity
  8
Defpoints
 62
     0
100
AcDbPoint
 10
37.40000000000004
 20
6.351074928723893
 30
0.0
  0
POINT
  5
190
330
11F
100
AcDbEntity
  8
Defpoints
 62
     0
100
AcDbPoint
 10
37.40000000000004
 20
-6.348925071276105
 30
0.0
  0
POINT
  5
191
330
11F
100
AcDbEntity
  8
Defpoints
 62
     0
100
AcDbPoint
 10
48.32019967372904
 20
-6.348925071276065
 30
0.0
  0
ENDBLK
  5
121
330
11F
100
AcDbEntity
  8
0
100
AcDbBlockEnd
  0
BLOCK
  5
139
330
138
100
AcDbEntity
  8
0
100
AcDbBlockBegin
  2
SW_DOWELSYMBOL_0
 70
     0
 10
0.0
 20
0.0
 30
0.0
  3
SW_DOWELSYMBOL_0
  1

  0
CIRCLE
  5
13B
330
138
100
AcDbEntity
  8
해칭선
 62
     0
100
AcDbCircle
 10
0.0
 20
0.0
 30
0.0
 40
3.000000000000001
  0
HATCH
  5
13C
330
138
100
AcDbEntity
  8
0
  6
Continuous
 62
     0
370
     0
100
AcDbHatch
 10
0.0
 20
0.0
 30
0.0
210
0.0
220
0.0
230
1.0
  2
SOLID
 70
     1
 71
     0
 91
        1
 92
        0
 93
        3
 72
     2
 10
0.0
 20
0.0
 40
3.000000000000001
 50
0.0
 51
90.0
 73
     1
 72
     1
 10
0.0
 20
3.000000000000001
 11
0.0
 21
0.0
 72
     1
 10
0.0
 20
0.0
 11
3.000000000000003
 21
0.0
 97
        0
 75
     0
 76
     1
 98
        1
 10
0.0
 20
0.0
  0
HATCH
  5
13D
330
138
100
AcDbEntity
  8
0
  6
Continuous
 62
     0
370
     0
100
AcDbHatch
 10
0.0
 20
0.0
 30
0.0
210
0.0
220
0.0
230
1.0
  2
SOLID
 70
     1
 71
     0
 91
        1
 92
        0
 93
        3
 72
     2
 10
0.0
 20
0.0
 40
3.000000000000001
 50
180.0
 51
270.0000000000008
 73
     1
 72
     1
 10
0.0
 20
-3.000000000000001
 11
0.0
 21
0.0
 72
     1
 10
0.0
 20
0.0
 11
-3.000000000000001
 21
0.0
 97
        0
 75
     0
 76
     1
 98
        1
 10
0.0
 20
0.0
  0
ENDBLK
  5
13A
330
138
100
AcDbEntity
  8
0
100
AcDbBlockEnd
  0
BLOCK
  5
1A1
330
1A0
100
AcDbEntity
  8
0
100
AcDbBlockBegin
  2
*D8
 70
     1
 10
0.0
 20
0.0
 30
0.0
  3
*D8
  1

  0
LINE
  5
1A3
330
1A0
100
AcDbEntity
  8
치수문자_일반주서
 62
     0
370
    -2
100
AcDbLine
 10
38.88328772487152
 20
-8.974369392964874
 30
0.0
 11
56.4187970121644
 21
-35.43002614696108
 31
0.0
  0
MTEXT
  5
1A4
330
1A0
100
AcDbEntity
  8
치수문자_일반주서
 62
     0
100
AcDbMText
 10
50.75119280606614
 20
-22.12808120926429
 30
0.0
 40
3.5
 41
0.0
 71
     5
 72
     1
  1
\A1;R.76 [R0.030]
  7
SLDTEXTSTYLE0
 11
0.5524822157656195
 21
-0.833524685454913
 31
0.0
 73
     1
 44
1.0
  0
LINE
  5
1A5
330
1A0
100
AcDbEntity
  8
치수문자_일반주서
 62
     0
370
    -2
100
AcDbLine
 10
36.63800000000004
 20
-5.586925071276108
 30
0.0
 11
37.05899144841344
 21
-6.222070881592753
 31
0.0
  0
SOLID
  5
1A6
330
1A0
100
AcDbEntity
  8
치수문자_일반주서
 62
     0
100
AcDbTrace
 10
39.34200414343354
 20
-8.670320013555196
 30
0.0
 11
38.4245713063095
 21
-9.278418772374556
 31
0.0
 12
37.05899144841344
 22
-6.222070881592753
 32
0.0
 13
37.05899144841344
 23
-6.222070881592753
 33
0.0
  0
POINT
  5
1A7
330
1A0
100
AcDbEntity
  8
Defpoints
 62
     0
100
AcDbPoint
 10
37.05899144841344
 20
-6.222070881592753
 30
0.0
  0
POINT
  5
1A8
330
1A0
100
AcDbEntity
  8
Defpoints
 62
     0
100
AcDbPoint
 10
36.63800000000004
 20
-5.586925071276108
 30
0.0
  0
ENDBLK
  5
1A2
330
1A0
100
AcDbEntity
  8
0
100
AcDbBlockEnd
  0
ENDSEC
  0
SECTION
  2
ENTITIES
  0
SPLINE
  5
96
330
1F
100
AcDbEntity
  8
외형선
  6
Continuous
370
    15
100
AcDbSpline
210
0.0
220
0.0
230
1.0
 70
     8
 71
     3
 72
     9
 73
     5
 74
     0
 42
0.000000001
 43
0.00000001
 40
0.0
 40
0.0
 40
0.0
 40
0.0
 40
0.5913934049719447
 40
0.9999999999999999
 40
0.9999999999999999
 40
0.9999999999999999
 40
0.9999999999999999
 10
12.00000000000002
 20
-1.143704518672746
 30
0.0
 10
12.04294848806387
 20
-1.179646043331668
 30
0.0
 10
12.11557102274682
 20
-1.240420350851425
 30
0.0
 10
12.19362953472847
 20
-1.288968746772041
 30
0.0
 10
12.22552475752224
 20
-1.308805941523238
 30
0.0
  0
LINE
  5
97
330
1F
100
AcDbEntity
  8
0
  6
Continuous
 62
     1
370
    15
100
AcDbLine
 10
16.64734355717933
 20
1.233216630490438
 30
0.0
 11
16.57977787023262
 21
1.271017265624073
 31
0.0
1001
PE_URL
1000

  0
LINE
  5
98
330
1F
100
AcDbEntity
  8
0
  6
Continuous
 62
     1
370
    15
100
AcDbLine
 10
15.69540259230733
 20
6.351074928723893
 30
0.0
 11
13.03590526702602
 21
6.351074928723893
 31
0.0
1001
PE_URL
1000

  0
LINE
  5
99
330
1F
100
AcDbEntity
  8
0
  6
Continuous
 62
     1
370
    15
100
AcDbLine
 10
36.07160570093011
 20
-6.348925071276106
 30
0.0
 11
36.63800000000004
 21
-6.348925071276106
 31
0.0
1001
PE_URL
1000

  0
LINE
  5
9A
330
1F
100
AcDbEntity
  8
0
  6
Continuous
 62
     1
370
    15
100
AcDbLine
 10
24.55349758760948
 20
-6.348925071276106
 30
0.0
 11
27.21297615528983
 21
-6.348925071276106
 31
0.0
1001
PE_URL
1000

  0
LINE
  5
9B
330
1F
100
AcDbEntity
  8
0
  6
Continuous
 62
     1
370
    15
100
AcDbLine
 10
27.21297615528983
 20
6.351074928723893
 30
0.0
 11
24.55349758760957
 21
6.351074928723893
 31
0.0
1001
PE_URL
1000

  0
LINE
  5
9C
330
1F
100
AcDbEntity
  8
0
  6
Continuous
 62
     1
370
    15
100
AcDbLine
 10
13.03590526702594
 20
-6.348925071276106
 30
0.0
 11
15.69540259230728
 21
-6.348925071276106
 31
0.0
1001
PE_URL
1000

  0
ARC
  5
9D
102
{ACAD_REACTORS
102
}
330
1F
100
AcDbEntity
  8
0
  6
Continuous
 62
     1
370
    15
100
AcDbCircle
 10
36.63800000000004
 20
-5.586925071276108
 30
0.0
 40
0.7620000000000005
100
AcDbArc
 50
270.0000000000011
 51
0.0000000000006678
1001
PE_URL
1000

  0
ARC
  5
9E
330
1F
100
AcDbEntity
  8
0
  6
Continuous
 62
     1
370
    15
100
AcDbCircle
 10
36.63800000000004
 20
5.589074928723896
 30
0.0
 40
0.7619999999999987
100
AcDbArc
 50
0.0
 51
90.0
1001
PE_URL
1000

  0
LINE
  5
9F
330
1F
100
AcDbEntity
  8
0
  6
Continuous
 62
     1
370
    15
100
AcDbLine
 10
36.63800000000004
 20
6.351074928723893
 30
0.0
 11
36.07160570093014
 21
6.351074928723893
 31
0.0
1001
PE_URL
1000

  0
LINE
  5
A0
330
1F
100
AcDbEntity
  8
외형선
  6
Continuous
370
    15
100
AcDbLine
 10
-43.87999999999997
 20
-6.348925071276105
 30
0.0
 11
11.75014553794757
 21
-6.348925071276105
 31
0.0
  0
LINE
  5
A1
330
1F
100
AcDbEntity
  8
외형선
  6
Continuous
370
    15
100
AcDbLine
 10
11.75014553794757
 20
6.351074928723891
 30
0.0
 11
-43.87999999999997
 21
6.351074928723891
 31
0.0
  0
LINE
  5
A2
330
1F
100
AcDbEntity
  8
외형선
  6
Continuous
370
    15
100
AcDbLine
 10
-43.87999999999997
 20
6.351074928723893
 30
0.0
 11
-45.14999999999998
 21
5.081074928723896
 31
0.0
  0
LINE
  5
A3
330
1F
100
AcDbEntity
  8
외형선
  6
Continuous
370
    15
100
AcDbLine
 10
-45.14999999999998
 20
-5.078925071276108
 30
0.0
 11
-43.87999999999997
 21
-6.348925071276105
 31
0.0
  0
LINE
  5
A4
330
1F
100
AcDbEntity
  8
0
  6
Continuous
 62
     1
370
    15
100
AcDbLine
 10
37.40000000000003
 20
-2.224399960282621
 30
0.0
 11
37.40000000000003
 21
2.226549817730785
 31
0.0
1001
PE_URL
1000

  0
SPLINE
  5
A5
330
1F
100
AcDbEntity
  8
0
  6
Continuous
 62
     1
370
    15
100
AcDbSpline
210
0.0
220
0.0
230
1.0
 70
     8
 71
     3
 72
    14
 73
    10
 74
     0
 42
0.000000001
 43
0.00000001
 40
0.0
 40
0.0
 40
0.0
 40
0.0
 40
0.25
 40
0.25
 40
0.5
 40
0.5
 40
0.75
 40
0.75
 40
1.0
 40
1.0
 40
1.0
 40
1.0
 10
36.63800000000004
 20
-2.07687015046386
 30
0.0
 10
36.73347055627366
 20
-2.128892766237709
 30
0.0
 10
36.82417587910613
 20
-2.175930806687993
 30
0.0
 10
36.99856342926716
 20
-2.257399042338831
 30
0.0
 10
37.08044280066211
 20
-2.290818052983339
 30
0.0
 10
37.22433060606654
 20
-2.331556448318728
 30
0.0
 10
37.28697579072771
 20
-2.33875442618107
 30
0.0
 10
37.37554488192341
 20
-2.31198245457999
 30
0.0
 10
37.40000000000012
 20
-2.277806056850454
 30
0.0
 10
37.40000000000003
 20
-2.224399960282612
 30
0.0
1001
PE_URL
1000

  0
SPLINE
  5
A6
330
1F
100
AcDbEntity
  8
0
  6
Continuous
 62
     1
370
    15
100
AcDbSpline
210
0.0
220
0.0
230
1.0
 70
     8
 71
     3
 72
    19
 73
    15
 74
     0
 42
0.000000001
 43
0.00000001
 40
0.0
 40
0.0
 40
0.0
 40
0.0
 40
0.011807032234399
 40
0.1058881898286074
 40
0.199964273448029
 40
0.2940534959192212
 40
0.3881740133047183
 40
0.4823396846729139
 40
0.5686432281762193
 40
0.6548773487434276
 40
0.7411026171803381
 40
0.8273796886904151
 40
0.9137286411060237
 40
1.0
 40
1.0
 40
1.0
 40
1.0
 10
15.69540259230734
 20
6.339907674907603
 30
0.0
 10
15.77782727962121
 20
6.343518843563541
 30
0.0
 10
16.51703089688814
 20
6.375904637432128
 30
0.0
 10
17.91287043584156
 20
6.243128610178802
 30
0.0
 10
19.88309891632723
 20
5.930992563103589
 30
0.0
 10
21.85365371246616
 20
5.408787471328381
 30
0.0
 10
23.82493547141083
 20
4.718674315899554
 30
0.0
 10
25.7421844952301
 20
3.899536668997087
 30
0.0
 10
27.60411219313097
 20
2.991960728680531
 30
0.0
 10
29.41023165196522
 20
2.030229418166987
 30
0.0
 10
31.21615720207981
 20
1.01369374476281
 30
0.0
 10
33.02307217405644
 20
-0.029180049957619
 30
0.0
 10
34.83086946939997
 20
-1.074486077142492
 30
0.0
 10
36.03580369738791
 20
-1.742842268952193
 30
0.0
 10
36.63800000000004
 20
-2.076870150463866
 30
0.0
1001
PE_URL
1000

  0
SPLINE
  5
A7
330
1F
100
AcDbEntity
  8
0
  6
Continuous
 62
     1
370
    15
100
AcDbSpline
210
0.0
220
0.0
230
1.0
 70
     8
 71
     3
 72
    16
 73
    12
 74
     0
 42
0.000000001
 43
0.00000001
 40
0.0
 40
0.0
 40
0.0
 40
0.0
 40
0.1194816186284879
 40
0.2390132458841669
 40
0.3585780940419197
 40
0.4780863786754301
 40
0.5975540905010001
 40
0.7170042780705301
 40
0.8364600656430344
 40
0.9460051635069706
 40
1.0
 40
1.0
 40
1.0
 40
1.0
 10
36.63799999999998
 20
2.888532342635293
 30
0.0
 10
35.98110033993648
 20
3.217417214108672
 30
0.0
 10
34.66702607667942
 20
3.875324610705547
 30
0.0
 10
32.69539454954918
 20
4.713155545269841
 30
0.0
 10
30.72342725074363
 20
5.40651642267528
 30
0.0
 10
28.75211182792354
 20
5.92531402239231
 30
0.0
 10
26.78153175147958
 20
6.254065275972811
 30
0.0
 10
24.81132311003325
 20
6.38496963989332
 30
0.0
 10
22.8955787936541
 20
6.304286112165439
 30
0.0
 10
21.33982359020742
 20
6.112853878598003
 30
0.0
 10
20.4405233195351
 20
5.898620720767129
 30
0.0
 10
20.14360763796768
 20
5.827888857177072
 30
0.0
1001
PE_URL
1000

  0
SPLINE
  5
A8
330
1F
100
AcDbEntity
  8
0
  6
Continuous
 62
     1
370
    15
100
AcDbSpline
210
0.0
220
0.0
230
1.0
 70
     8
 71
     3
 72
    14
 73
    10
 74
     0
 42
0.000000001
 43
0.00000001
 40
0.0
 40
0.0
 40
0.0
 40
0.0
 40
0.25
 40
0.25
 40
0.5
 40
0.5
 40
0.75
 40
0.75
 40
1.0
 40
1.0
 40
1.0
 40
1.0
 10
37.40000000000003
 20
2.226549817730785
 30
0.0
 10
37.40000000000005
 20
2.27798185228613
 30
0.0
 10
37.37771312762022
 20
2.332434710529886
 30
0.0
 10
37.29456501643519
 20
2.445315285073419
 30
0.0
 10
37.23339688805122
 20
2.50384593605145
 30
0.0
 10
37.0875372938474
 20
2.619711278919525
 30
0.0
 10
37.00189930335716
 20
2.678016317903521
 30
0.0
 10
36.8235768337012
 20
2.788476859145012
 30
0.0
 10
36.73026495614211
 20
2.841145907699525
 30
0.0
 10
36.63800000000006
 20
2.888532342635259
 30
0.0
1001
PE_URL
1000

  0
LINE
  5
A9
330
1F
100
AcDbEntity
  8
0
  6
Continuous
 62
     1
370
    15
100
AcDbLine
 10
37.40000000000003
 20
-5.550666248464932
 30
0.0
 11
37.40000000000003
 21
-3.325191359458628
 31
0.0
1001
PE_URL
1000

  0
SPLINE
  5
AA
330
1F
100
AcDbEntity
  8
0
  6
Continuous
 62
     1
370
    15
100
AcDbSpline
210
0.0
220
0.0
230
1.0
 70
     8
 71
     3
 72
    14
 73
    10
 74
     0
 42
0.000000001
 43
0.00000001
 40
0.0
 40
0.0
 40
0.0
 40
0.0
 40
0.25
 40
0.25
 40
0.5
 40
0.5
 40
0.75
 40
0.75
 40
1.0
 40
1.0
 40
1.0
 40
1.0
 10
36.63800000000004
 20
-6.234385192487935
 30
0.0
 10
36.73347055627365
 20
-6.244794595710042
 30
0.0
 10
36.82417587910614
 20
-6.237767220003517
 30
0.0
 10
36.99856342926718
 20
-6.189948435650805
 30
0.0
 10
37.08044280066216
 20
-6.148998891498406
 30
0.0
 10
37.22433060606657
 20
-6.032010204980506
 30
0.0
 10
37.28697579072772
 20
-5.954923019424734
 30
0.0
 10
37.37554488192341
 20
-5.768551866158501
 30
0.0
 10
37.40000000000012
 20
-5.661443626130643
 30
0.0
 10
37.40000000000003
 20
-5.550666248464913
 30
0.0
1001
PE_URL
1000

  0
SPLINE
  5
AB
330
1F
100
AcDbEntity
  8
0
  6
Continuous
 62
     1
370
    15
100
AcDbSpline
210
0.0
220
0.0
230
1.0
 70
     8
 71
     3
 72
    38
 73
    34
 74
     0
 42
0.000000001
 43
0.00000001
 40
0.0
 40
0.0
 40
0.0
 40
0.0
 40
0.0625
 40
0.0625
 40
0.125
 40
0.125
 40
0.1875
 40
0.1875
 40
0.25
 40
0.25
 40
0.3125
 40
0.3125
 40
0.375
 40
0.375
 40
0.4375
 40
0.4375
 40
0.5
 40
0.5
 40
0.5625
 40
0.5625
 40
0.625
 40
0.625
 40
0.6875
 40
0.6875
 40
0.75
 40
0.75
 40
0.8125
 40
0.8125
 40
0.875
 40
0.875
 40
0.9375
 40
0.9375
 40
1.0
 40
1.0
 40
1.0
 40
1.0
 10
36.63800000000003
 20
-6.234385192487932
 30
0.0
 10
36.12379486274413
 20
-6.178320068103031
 30
0.0
 10
35.6076867834215
 20
-6.101692845769802
 30
0.0
 10
34.58674265125121
 20
-5.909845568924686
 30
0.0
 10
34.07064909529584
 20
-5.793923495015658
 30
0.0
 10
33.04223144437552
 20
-5.525191566304597
 30
0.0
 10
32.53270682955861
 20
-5.372763637937537
 30
0.0
 10
31.50423567908336
 20
-5.03290993737829
 30
0.0
 10
30.98832776061267
 20
-4.845702113837333
 30
0.0
 10
29.96722441496879
 20
-4.442307687570903
 30
0.0
 10
29.45108970060937
 20
-4.224682926464603
 30
0.0
 10
28.4227346670839
 20
-3.763745235558078
 30
0.0
 10
27.91320680620706
 20
-3.520935185649481
 30
0.0
 10
26.88467675782609
 20
-3.012428001125341
 30
0.0
 10
26.3689764545045
 20
-2.747207496695907
 30
0.0
 10
25.34769411062108
 20
-2.202366067000308
 30
0.0
 10
24.83153008901697
 20
-1.920867123535017
 30
0.0
 10
23.80323965019905
 20
-1.347855955069415
 30
0.0
 10
23.29370509101499
 20
-1.056870465878212
 30
0.0
 10
22.26511812316406
 20
-0.4681002815770487
 30
0.0
 10
21.74962202221987
 20
-0.1709841533505077
 30
0.0
 10
20.72816261221922
 20
0.4206051554301838
 30
0.0
 10
20.21197028471464
 20
0.7170450881310861
 30
0.0
 10
19.18374641750243
 20
1.302519064522311
 30
0.0
 10
18.67420170780688
 20
1.591098885509057
 30
0.0
 10
17.64555979928706
 20
2.157785623001582
 30
0.0
 10
17.13026448664519
 20
2.435149030926276
 30
0.0
 10
16.1086299437764
 20
2.970649389394206
 30
0.0
 10
15.59241031189967
 20
3.230497969214411
 30
0.0
 10
14.5642549927643
 20
3.726661988454177
 30
0.0
 10
14.05469668041788
 20
3.962672533322033
 30
0.0
 10
13.02600181038291
 20
4.408764640074591
 30
0.0
 10
12.51090387068658
 20
4.618173403215184
 30
0.0
 10
12.00000000000002
 20
4.811330103156058
 30
0.0
1001
PE_URL
1000

  0
SPLINE
  5
AC
330
1F
100
AcDbEntity
  8
외형선
  6
Continuous
370
    15
100
AcDbSpline
210
0.0
220
0.0
230
1.0
 70
    24
 71
     3
 72
    11
 73
     7
 74
     0
 42
0.000000001
 43
0.00000001
 40
0.0
 40
0.0
 40
0.0
 40
0.0
 40
0.3535134941502195
 40
0.6340927929723074
 40
0.9228089104680346
 40
1.0
 40
1.0
 40
1.0
 40
1.0
 10
12.00000000000002
 20
6.322956660362688
 30
0.0
 10
12.00000000000002
 20
6.145133273929242
 30
0.0
 10
12.00000000000003
 20
5.826173659585739
 30
0.0
 10
12.00000000000003
 20
5.371281848465243
 30
0.0
 10
12.00000000000003
 20
5.060015509731993
 30
0.0
 10
12.00000000000004
 20
4.902456310545062
 30
0.0
 10
12.00000000000005
 20
4.869217921091578
 30
0.0
  0
SPLINE
  5
AD
330
1F
100
AcDbEntity
  8
0
  6
Continuous
 62
     1
370
    15
100
AcDbSpline
210
0.0
220
0.0
230
1.0
 70
     8
 71
     3
 72
    38
 73
    34
 74
     0
 42
0.000000001
 43
0.00000001
 40
0.0
 40
0.0
 40
0.0
 40
0.0
 40
0.0625
 40
0.0625
 40
0.125
 40
0.125
 40
0.1875
 40
0.1875
 40
0.25
 40
0.25
 40
0.3125
 40
0.3125
 40
0.375
 40
0.375
 40
0.4375
 40
0.4375
 40
0.5
 40
0.5
 40
0.5625
 40
0.5625
 40
0.625
 40
0.625
 40
0.6875
 40
0.6875
 40
0.75
 40
0.75
 40
0.8125
 40
0.8125
 40
0.875
 40
0.875
 40
0.9375
 40
0.9375
 40
1.0
 40
1.0
 40
1.0
 40
1.0
 10
36.63800000000001
 20
-3.453034383501553
 30
0.0
 10
36.12379486274413
 20
-3.204220255768456
 30
0.0
 10
35.60768678342149
 20
-2.943752469885033
 30
0.0
 10
34.58674265125123
 20
-2.407273407038797
 30
0.0
 10
34.07064909529586
 20
-2.129298359885186
 30
0.0
 10
33.04223144437553
 20
-1.561888918267821
 30
0.0
 10
32.53270682955861
 20
-1.273019917703113
 30
0.0
 10
31.50423567908334
 20
-0.687090439844361
 30
0.0
 10
30.98832776061267
 20
-0.3905909106185496
 30
0.0
 10
29.96722441496878
 20
0.2009746536690234
 30
0.0
 10
29.45108970060937
 20
0.4981448505905743
 30
0.0
 10
28.4227346670839
 20
1.08655152583097
 30
0.0
 10
27.91320680620706
 20
1.37728678471521
 30
0.0
 10
26.88467675782611
 20
1.949665263105989
 30
0.0
 10
26.36897645450451
 20
2.230652306391708
 30
0.0
 10
25.34769411062105
 20
2.774476498297521
 30
0.0
 10
24.83153008901697
 20
3.039180803703009
 30
0.0
 10
23.80323965019905
 20
3.546301685253013
 30
0.0
 10
23.29370509101499
 20
3.78836519105335
 30
0.0
 10
22.26511812316406
 20
4.247692213147261
 30
0.0
 10
21.74962202221987
 20
4.464334319309276
 30
0.0
 10
20.72816261221922
 20
4.865872874765357
 30
0.0
 10
20.21197028471467
 20
5.052094066662993
 30
0.0
 10
19.18374641750246
 20
5.389780350618141
 30
0.0
 10
18.67420170780686
 20
5.541093984124002
 30
0.0
 10
17.64555979928711
 20
5.807517948578472
 30
0.0
 10
17.13026448664522
 20
5.922178675515312
 30
0.0
 10
16.1086299437764
 20
6.111611571553861
 30
0.0
 10
15.59241031189966
 20
6.186974278836263
 30
0.0
 10
14.56425499276428
 20
6.296533804542074
 30
0.0
 10
14.05469668041787
 20
6.330793456289053
 30
0.0
 10
13.02600181038289
 20
6.357993602259175
 30
0.0
 10
12.51090387068664
 20
6.350770642997737
 30
0.0
 10
12.00000000000002
 20
6.322956660362691
 30
0.0
1001
PE_URL
1000

  0
SPLINE
  5
AE
330
1F
100
AcDbEntity
  8
0
  6
Continuous
 62
     1
370
    15
100
AcDbSpline
210
0.0
220
0.0
230
1.0
 70
     8
 71
     3
 72
    14
 73
    10
 74
     0
 42
0.000000001
 43
0.00000001
 40
0.0
 40
0.0
 40
0.0
 40
0.0
 40
0.25
 40
0.25
 40
0.5
 40
0.5
 40
0.75
 40
0.75
 40
1.0
 40
1.0
 40
1.0
 40
1.0
 10
37.40000000000003
 20
-3.325191359458626
 30
0.0
 10
37.40000000000005
 20
-3.380442012502867
 30
0.0
 10
37.37771312762022
 20
-3.430981503528542
 30
0.0
 10
37.29456501643519
 20
-3.511290857527502
 30
0.0
 10
37.23339688805128
 20
-3.540542628733487
 30
0.0
 10
37.08753729384747
 20
-3.567488854425263
 30
0.0
 10
37.00189930335711
 20
-3.565341715631094
 30
0.0
 10
36.82357683370118
 20
-3.530311357961545
 30
0.0
 10
36.7302649561421
 20
-3.497679648434794
 30
0.0
 10
36.63800000000006
 20
-3.453034383501574
 30
0.0
1001
PE_URL
1000

  0
SPLINE
  5
AF
330
1F
100
AcDbEntity
  8
0
  6
Continuous
 62
     1
370
    15
100
AcDbSpline
210
0.0
220
0.0
230
1.0
 70
     8
 71
     3
 72
    18
 73
    14
 74
     0
 42
0.000000001
 43
0.00000001
 40
0.0
 40
0.0
 40
0.0
 40
0.0
 40
0.1002844441556929
 40
0.2005248364364044
 40
0.3007404468856368
 40
0.4009506525174376
 40
0.5011748537046116
 40
0.601432390354712
 40
0.7017380252006263
 40
0.7936688912452428
 40
0.8855258077116664
 40
0.9773732948548934
 40
1.0
 40
1.0
 40
1.0
 40
1.0
 10
12.00000000000002
 20
-1.183777827688218
 30
0.0
 10
12.65729918190028
 20
-1.552792452612282
 30
0.0
 10
13.97160881436639
 20
-2.290659605674009
 30
0.0
 10
15.9425267369547
 20
-3.314113852631708
 30
0.0
 10
17.91287895755984
 20
-4.233979329304657
 30
0.0
 10
19.88309660792672
 20
-5.01750095132867
 30
0.0
 10
21.85365442360671
 20
-5.640458701713726
 30
0.0
 10
23.82493493587832
 20
-6.08300356024025
 30
0.0
 10
25.74218587173781
 20
-6.322722874121464
 30
0.0
 10
27.60410765780163
 20
-6.375603648063138
 30
0.0
 10
29.41024857554691
 20
-6.242758563806593
 30
0.0
 10
30.76218084769485
 20
-6.052394513125961
 30
0.0
 10
31.51239067943113
 20
-5.8599634292519
 30
0.0
 10
31.6606754265897
 20
-5.821927944497356
 30
0.0
1001
PE_URL
1000

  0
SPLINE
  5
B0
330
1F
100
AcDbEntity
  8
외형선
  6
Continuous
370
    15
100
AcDbSpline
210
0.0
220
0.0
230
1.0
 70
    24
 71
     3
 72
    22
 73
    18
 74
     0
 42
0.000000001
 43
0.00000001
 40
0.0
 40
0.0
 40
0.0
 40
0.0
 40
0.0851018234746541
 40
0.1526460908198007
 40
0.2221491464937325
 40
0.2896934138388469
 40
0.3591964695127435
 40
0.4267407368578572
 40
0.4962437925317525
 40
0.5637880598768727
 40
0.6332911155507618
 40
0.7008353828958768
 40
0.7703384385697741
 40
0.8378827059148861
 40
0.9073857615887838
 40
0.9749300289338988
 40
1.0
 40
1.0
 40
1.0
 40
1.0
 10
12.00000000000002
 20
3.678962144156744
 30
0.0
 10
12.00000000000002
 20
3.597451316110296
 30
0.0
 10
12.00000000000003
 20
3.451246349486038
 30
0.0
 10
12.00000000000004
 20
3.144336442645032
 30
0.0
 10
12.00000000000004
 20
2.816141355433354
 30
0.0
 10
12.00000000000004
 20
2.441917893134229
 30
0.0
 10
11.99999999999999
 20
2.04075213143999
 30
0.0
 10
12.00000000000008
 20
1.616306174061559
 30
0.0
 10
11.99999999999992
 20
1.188361605580115
 30
0.0
 10
12.00000000000006
 20
0.7612870082344344
 30
0.0
 10
12.00000000000004
 20
0.3548969975131405
 30
0.0
 10
12.0
 20
-0.0267370140285346
 30
0.0
 10
12.00000000000001
 20
-0.365516286448076
 30
0.0
 10
11.99999999999998
 20
-0.6595470976827205
 30
0.0
 10
12.00000000000004
 20
-0.8892630594439149
 30
0.0
 10
12.0
 20
-1.034695030074509
 30
0.0
 10
12.00000000000002
 20
-1.076736395264496
 30
0.0
 10
12.00000000000001
 20
-1.088116673577778
 30
0.0
  0
SPLINE
  5
B1
330
1F
100
AcDbEntity
  8
0
  6
Continuous
 62
     1
370
    15
100
AcDbSpline
210
0.0
220
0.0
230
1.0
 70
     8
 71
     3
 72
    20
 73
    16
 74
     0
 42
0.000000001
 43
0.00000001
 40
0.0
 40
0.0
 40
0.0
 40
0.0
 40
0.0583401715228331
 40
0.1402442301693542
 40
0.2221710520524697
 40
0.3040591161414079
 40
0.3859193794071057
 40
0.4677676349077671
 40
0.5496197275767378
 40
0.6246809337685949
 40
0.6998063948274786
 40
0.7748657944143357
 40
0.8498826918875771
 40
0.9249098666194815
 40
1.0
 40
1.0
 40
1.0
 40
1.0
 10
36.07160570093011
 20
-6.328066073116714
 30
0.0
 10
35.60349970088915
 20
-6.326380797536648
 30
0.0
 10
34.47821734569921
 20
-6.322329555139171
 30
0.0
 10
32.69539292129561
 20
-6.080154961353687
 30
0.0
 10
30.72342769197002
 20
-5.644743853336152
 30
0.0
 10
28.75211169070598
 20
-5.021098357226391
 30
0.0
 10
26.78153185933483
 20
-4.238622466394771
 30
0.0
 10
24.81132281582261
 20
-3.319892674433963
 30
0.0
 10
22.89557982501161
 20
-2.323368424202444
 30
0.0
 10
21.03391972342816
 20
-1.288389040983643
 30
0.0
 10
19.22611212109033
 20
-0.250133575988674
 30
0.0
 10
17.41925828471768
 20
0.7961871388933347
 30
0.0
 10
15.61335070448068
 20
1.819023173312499
 30
0.0
 10
13.80719637083424
 20
2.8001312524482
 30
0.0
 10
12.60256719596448
 20
3.385936618712982
 30
0.0
 10
12.00000000000002
 20
3.678962144156745
 30
0.0
1001
PE_URL
1000

  0
LINE
  5
B2
330
1F
100
AcDbEntity
  8
외형선
  6
Continuous
370
    15
100
AcDbLine
 10
12.00000000000003
 20
3.678962144156741
 30
0.0
 11
12.00000000000002
 21
4.81133010315606
 31
0.0
  0
SPLINE
  5
B3
330
1F
100
AcDbEntity
  8
0
  6
Continuous
 62
     1
370
    15
100
AcDbSpline
210
0.0
220
0.0
230
1.0
 70
     8
 71
     3
 72
    14
 73
    10
 74
     0
 42
0.000000001
 43
0.00000001
 40
0.0
 40
0.0
 40
0.0
 40
0.0
 40
0.1364091616506109
 40
0.2803368022507808
 40
0.4243876496561366
 40
0.5683118261447062
 40
0.7121545060887416
 40
0.8560168923719933
 40
1.0
 40
1.0
 40
1.0
 40
1.0
 10
24.55349758760948
 20
-6.337350922519217
 30
0.0
 10
23.98269843936404
 20
-6.327324120337685
 30
0.0
 10
22.80963934267039
 20
-6.306717867602464
 30
0.0
 10
21.03391919862959
 20
-6.05076967206947
 30
0.0
 10
19.22611226162196
 20
-5.64496688732908
 30
0.0
 10
17.41925824711324
 20
-5.082553528990656
 30
0.0
 10
15.61335071450738
 20
-4.383194208321938
 30
0.0
 10
13.80719636832497
 20
-3.570444339769256
 30
0.0
 10
12.60256719512783
 20
-2.952180937379136
 30
0.0
 10
12.00000000000002
 20
-2.642919587482032
 30
0.0
1001
PE_URL
1000

  0
LINE
  5
B4
330
1F
100
AcDbEntity
  8
외형선
  6
Continuous
370
    15
100
AcDbLine
 10
12.00000000000001
 20
-2.642919587482025
 30
0.0
 11
12.00000000000002
 21
-1.183777827688218
 31
0.0
  0
LINE
  5
B5
330
1F
100
AcDbEntity
  8
0
  6
Continuous
 62
     1
370
    15
100
AcDbLine
 10
37.40000000000003
 20
-3.325191359458627
 30
0.0
 11
37.40000000000003
 21
-2.224399960282621
 31
0.0
1001
PE_URL
1000

  0
SPLINE
  5
B6
330
1F
100
AcDbEntity
  8
0
  6
Continuous
 62
     1
370
    15
100
AcDbSpline
210
0.0
220
0.0
230
1.0
 70
     8
 71
     3
 72
    12
 73
     8
 74
     0
 42
0.000000001
 43
0.00000001
 40
0.0
 40
0.0
 40
0.0
 40
0.0
 40
0.2421128442014401
 40
0.4841193356695742
 40
0.7260659973230789
 40
0.9679996103354733
 40
1.0
 40
1.0
 40
1.0
 40
1.0
 10
12.00000000000004
 20
-5.994033002120341
 30
0.0
 10
12.65729928672968
 20
-6.100251897974734
 30
0.0
 10
13.97160912880843
 20
-6.31264303098625
 30
0.0
 10
15.94252547996078
 20
-6.382065994076545
 30
0.0
 10
17.91288366994765
 20
-6.24299230696612
 30
0.0
 10
19.31315774418847
 20
-6.046918442575041
 30
0.0
 10
20.05674352310164
 20
-5.848874118022716
 30
0.0
 10
20.14360763796762
 20
-5.825738999729289
 30
0.0
1001
PE_URL
1000

  0
SPLINE
  5
B7
330
1F
100
AcDbEntity
  8
외형선
  6
Continuous
370
    15
100
AcDbSpline
210
0.0
220
0.0
230
1.0
 70
    24
 71
     3
 72
    16
 73
    12
 74
     0
 42
0.000000001
 43
0.00000001
 40
0.0
 40
0.0
 40
0.0
 40
0.0
 40
0.0644163709384093
 40
0.1829135720977403
 40
0.2980711944087352
 40
0.4165683955680807
 40
0.5317260178790704
 40
0.6502232190384164
 40
0.7653808413494115
 40
0.8838780425087558
 40
1.0
 40
1.0
 40
1.0
 40
1.0
 10
12.0
 20
-2.700817405417541
 30
0.0
 10
12.00000000000001
 20
-2.748399016684777
 30
0.0
 10
12.00000000000006
 20
-2.88350942970972
 30
0.0
 10
12.00000000000004
 20
-3.163259660228499
 30
0.0
 10
12.0
 20
-3.527288578668989
 30
0.0
 10
12.00000000000002
 20
-3.923634369419273
 30
0.0
 10
11.99999999999998
 20
-4.344792228821729
 30
0.0
 10
12.00000000000002
 20
-4.772398048356323
 30
0.0
 10
12.00000000000001
 20
-5.200907782015158
 30
0.0
 10
12.00000000000003
 20
-5.615023701468668
 30
0.0
 10
12.00000000000002
 20
-5.868552127841367
 30
0.0
 10
12.00000000000002
 20
-5.994033002120338
 30
0.0
  0
SPLINE
  5
B8
330
1F
100
AcDbEntity
  8
0
  6
Continuous
 62
     1
370
    15
100
AcDbSpline
210
0.0
220
0.0
230
1.0
 70
     8
 71
     3
 72
    14
 73
    10
 74
     0
 42
0.000000001
 43
0.00000001
 40
0.0
 40
0.0
 40
0.0
 40
0.0
 40
0.25
 40
0.25
 40
0.5
 40
0.5
 40
0.75
 40
0.75
 40
1.0
 40
1.0
 40
1.0
 40
1.0
 10
36.63800000000004
 20
4.15858997074791
 30
0.0
 10
36.73347055627366
 20
4.116976758196168
 30
0.0
 10
36.82417587910613
 20
4.062911342039341
 30
0.0
 10
36.99856342926716
 20
3.933624322035796
 30
0.0
 10
37.08044280066213
 20
3.859255767238899
 30
0.0
 10
37.22433060606658
 20
3.701528685385614
 30
0.0
 10
37.28697579072772
 20
3.617243521967502
 30
0.0
 10
37.37554488192341
 20
3.457644340302349
 30
0.0
 10
37.40000000000012
 20
3.384712498004027
 30
0.0
 10
37.40000000000003
 20
3.32734121690614
 30
0.0
1001
PE_URL
1000

  0
LINE
  5
B9
330
1F
100
AcDbEntity
  8
0
  6
Continuous
 62
     1
370
    15
100
AcDbLine
 10
37.40000000000003
 20
2.226549817730785
 30
0.0
 11
37.40000000000003
 21
3.32734121690615
 31
0.0
1001
PE_URL
1000

  0
SPLINE
  5
BA
330
1F
100
AcDbEntity
  8
0
  6
Continuous
 62
     1
370
    15
100
AcDbSpline
210
0.0
220
0.0
230
1.0
 70
     8
 71
     3
 72
    13
 73
     9
 74
     0
 42
0.000000001
 43
0.00000001
 40
0.0
 40
0.0
 40
0.0
 40
0.0
 40
0.041541569964423
 40
0.2331505238818336
 40
0.4247398087005704
 40
0.6164441979883243
 40
0.8083083039291282
 40
1.0
 40
1.0
 40
1.0
 40
1.0
 10
27.21297615528984
 20
6.336547316504689
 30
0.0
 10
27.34349755205653
 20
6.341024688008196
 30
0.0
 10
28.07604406052995
 20
6.366153769854412
 30
0.0
 10
29.41021465409444
 20
6.243569761860541
 30
0.0
 10
31.21616175781255
 20
5.96423915391965
 30
0.0
 10
33.02307095771931
 20
5.507595778181617
 30
0.0
 10
34.83086977327087
 20
4.915066526213057
 30
0.0
 10
36.03580379864788
 20
4.41067324696957
 30
0.0
 10
36.63800000000005
 20
4.158589970747901
 30
0.0
1001
PE_URL
1000

  0
SPLINE
  5
BB
330
1F
100
AcDbEntity
  8
0
  6
Continuous
 62
     1
370
    15
100
AcDbSpline
210
0.0
220
0.0
230
1.0
 70
     8
 71
     3
 72
    10
 73
     6
 74
     0
 42
0.000000001
 43
0.00000001
 40
0.0
 40
0.0
 40
0.0
 40
0.0
 40
0.3959666559129534
 40
0.7920990423299268
 40
1.0
 40
1.0
 40
1.0
 40
1.0
 10
36.638
 20
6.342641654860712
 30
0.0
 10
35.98110093830101
 20
6.340765679284408
 30
0.0
 10
34.66702787202349
 20
6.337012942948577
 30
0.0
 10
33.00787478494833
 20
6.142287282013853
 30
0.0
 10
32.00563441670644
 20
5.905557369322469
 30
0.0
 10
31.66067542658971
 20
5.824077801945144
 30
0.0
1001
PE_URL
1000

  0
LINE
  5
BD
330
1F
100
AcDbEntity
  8
0
  6
Continuous
 62
     1
370
    15
100
AcDbLine
 10
37.40000000000003
 20
3.327341216906151
 30
0.0
 11
37.40000000000003
 21
5.552816105913287
 31
0.0
1001
PE_URL
1000

  0
LINE
  5
BE
330
1F
100
AcDbEntity
  8
0
  6
Continuous
 62
     1
370
    15
100
AcDbLine
 10
13.03590526702594
 20
-6.327968925936236
 30
0.0
 11
12.00000000000002
 21
-6.320806802914908
 31
0.0
1001
PE_URL
1000

  0
LINE
  5
BF
330
1F
100
AcDbEntity
  8
외형선
  6
Continuous
370
    15
100
AcDbLine
 10
12.00000000000003
 20
-6.320806802914908
 30
0.0
 11
12.00000000000002
 21
-5.994033002120338
 31
0.0
  0
LINE
  5
C0
330
1F
100
AcDbEntity
  8
0
  6
Continuous
 62
     1
370
    15
100
AcDbLine
 10
37.40000000000003
 20
-5.586925071276111
 30
0.0
 11
37.40000000000003
 21
-5.550666248464932
 31
0.0
1001
PE_URL
1000

  0
LINE
  5
C1
330
1F
100
AcDbEntity
  8
0
  6
Continuous
 62
     1
370
    15
100
AcDbLine
 10
37.40000000000003
 20
5.552816105913287
 30
0.0
 11
37.40000000000003
 21
5.589074928723898
 31
0.0
1001
PE_URL
1000

  0
SPLINE
  5
C2
330
1F
100
AcDbEntity
  8
외형선
  6
Continuous
370
    15
100
AcDbSpline
210
0.0
220
0.0
230
1.0
 70
     8
 71
     3
 72
     8
 73
     4
 74
     0
 42
0.000000001
 43
0.00000001
 40
0.0
 40
0.0
 40
0.0
 40
0.0
 40
1.0
 40
1.0
 40
1.0
 40
1.0
 10
12.00000000000004
 20
6.322956660362691
 30
0.0
 10
11.91684553424443
 20
6.318429670063234
 30
0.0
 10
11.83355002858823
 20
6.313354638841775
 30
0.0
 10
11.75014553794757
 20
6.307731900089491
 30
0.0
  0
LINE
  5
C3
330
1F
100
AcDbEntity
  8
외형선
  6
Continuous
370
    15
100
AcDbLine
 10
11.75014553794757
 20
4.904425488651641
 30
0.0
 11
11.75014553794757
 21
6.351074928723891
 31
0.0
  0
SPLINE
  5
C4
330
1F
100
AcDbEntity
  8
외형선
  6
Continuous
370
    15
100
AcDbSpline
210
0.0
220
0.0
230
1.0
 70
     8
 71
     3
 72
     8
 73
     4
 74
     0
 42
0.000000001
 43
0.00000001
 40
0.0
 40
0.0
 40
0.0
 40
0.0
 40
1.0
 40
1.0
 40
1.0
 40
1.0
 10
12.00000000000002
 20
4.81133010315606
 30
0.0
 10
11.91684553424442
 20
4.842768193787689
 30
0.0
 10
11.83355002858823
 20
4.873808977634404
 30
0.0
 10
11.75014553794758
 20
4.904439158466025
 30
0.0
  0
SPLINE
  5
C5
330
1F
100
AcDbEntity
  8
외형선
  6
Continuous
370
    15
100
AcDbSpline
210
0.0
220
0.0
230
1.0
 70
     8
 71
     3
 72
     8
 73
     4
 74
     0
 42
0.000000001
 43
0.00000001
 40
0.0
 40
0.0
 40
0.0
 40
0.0
 40
1.0
 40
1.0
 40
1.0
 40
1.0
 10
12.00000000000004
 20
3.678962144156733
 30
0.0
 10
11.91684553424443
 20
3.71822002346129
 30
0.0
 10
11.83355002858823
 20
3.757182717097539
 30
0.0
 10
11.75014553794757
 20
3.795834146554912
 30
0.0
  0
LINE
  5
C6
330
1F
100
AcDbEntity
  8
외형선
  6
Continuous
370
    15
100
AcDbLine
 10
11.75014553794757
 20
-1.041493624367188
 30
0.0
 11
11.75014553794757
 21
3.795855196563845
 31
0.0
  0
SPLINE
  5
C7
330
1F
100
AcDbEntity
  8
외형선
  6
Continuous
370
    15
100
AcDbSpline
210
0.0
220
0.0
230
1.0
 70
     8
 71
     3
 72
     8
 73
     4
 74
     0
 42
0.000000001
 43
0.00000001
 40
0.0
 40
0.0
 40
0.0
 40
0.0
 40
1.0
 40
1.0
 40
1.0
 40
1.0
 10
12.00000000000002
 20
-1.183777827688216
 30
0.0
 10
11.91684553424442
 20
-1.136465593066334
 30
0.0
 10
11.83355002858823
 20
-1.089024414379445
 30
0.0
 10
11.75014553794758
 20
-1.041472402629827
 30
0.0
  0
SPLINE
  5
C8
330
1F
100
AcDbEntity
  8
외형선
  6
Continuous
370
    15
100
AcDbSpline
210
0.0
220
0.0
230
1.0
 70
     8
 71
     3
 72
     8
 73
     4
 74
     0
 42
0.000000001
 43
0.00000001
 40
0.0
 40
0.0
 40
0.0
 40
0.0
 40
1.0
 40
1.0
 40
1.0
 40
1.0
 10
12.00000000000004
 20
-2.642919587482041
 30
0.0
 10
11.91684553424443
 20
-2.59913471787803
 30
0.0
 10
11.83355002858823
 20
-2.555096993020322
 30
0.0
 10
11.75014553794757
 20
-2.510822824810665
 30
0.0
  0
SPLINE
  5
C9
330
1F
100
AcDbEntity
  8
외형선
  6
Continuous
370
    15
100
AcDbSpline
210
0.0
220
0.0
230
1.0
 70
     8
 71
     3
 72
     8
 73
     4
 74
     0
 42
0.000000001
 43
0.00000001
 40
0.0
 40
0.0
 40
0.0
 40
0.0
 40
1.0
 40
1.0
 40
1.0
 40
1.0
 10
12.00000000000002
 20
-5.994033002120336
 30
0.0
 10
11.91684553424442
 20
-5.978158858130083
 30
0.0
 10
11.83355002858823
 20
-5.961758463289909
 30
0.0
 10
11.75014553794758
 20
-5.944836632371912
 30
0.0
  0
SPLINE
  5
CA
330
1F
100
AcDbEntity
  8
외형선
  6
Continuous
370
    15
100
AcDbSpline
210
0.0
220
0.0
230
1.0
 70
     8
 71
     3
 72
     8
 73
     4
 74
     0
 42
0.000000001
 43
0.00000001
 40
0.0
 40
0.0
 40
0.0
 40
0.0
 40
1.0
 40
1.0
 40
1.0
 40
1.0
 10
12.00000000000004
 20
-6.320806802914904
 30
0.0
 10
11.91684553424443
 20
-6.31627981261545
 30
0.0
 10
11.83355002858823
 20
-6.311204781393992
 30
0.0
 10
11.75014553794757
 20
-6.305582042641708
 30
0.0
  0
LINE
  5
CB
330
1F
100
AcDbEntity
  8
외형선
  6
Continuous
370
    15
100
AcDbLine
 10
11.75014553794757
 20
-6.348925071276105
 30
0.0
 11
11.75014553794757
 21
-6.305578980375492
 31
0.0
  0
LINE
  5
CC
330
1F
100
AcDbEntity
  8
외형선
  6
Continuous
370
    15
100
AcDbLine
 10
-43.87999999999997
 20
0.0010749287238936
 30
0.0
 11
-43.87999999999997
 21
6.351074928723891
 31
0.0
  0
LINE
  5
CD
330
1F
100
AcDbEntity
  8
외형선
  6
Continuous
370
    15
100
AcDbLine
 10
-43.87999999999997
 20
-6.348925071276105
 30
0.0
 11
-43.87999999999997
 21
0.0010749287238936
 31
0.0
  0
LINE
  5
CE
330
1F
100
AcDbEntity
  8
외형선
  6
Continuous
370
    15
100
AcDbLine
 10
11.75014553794757
 20
-5.944844184294888
 30
0.0
 11
11.75014553794757
 21
-2.510798712535515
 31
0.0
  0
LINE
  5
CF
330
1F
100
AcDbEntity
  8
외형선
  6
Continuous
370
    15
100
AcDbLine
 10
-45.14999999999998
 20
0.0010749287238936
 30
0.0
 11
-45.14999999999998
 21
5.081074928723896
 31
0.0
  0
LINE
  5
D0
330
1F
100
AcDbEntity
  8
외형선
  6
Continuous
370
    15
100
AcDbLine
 10
-45.14999999999998
 20
-5.078925071276108
 30
0.0
 11
-45.14999999999998
 21
0.0010749287238936
 31
0.0
  0
SPLINE
  5
D1
330
1F
100
AcDbEntity
  8
외형선
  6
Continuous
370
    15
100
AcDbSpline
210
0.0
220
0.0
230
1.0
 70
    24
 71
     3
 72
    24
 73
    20
 74
     0
 42
0.000000001
 43
0.00000001
 40
0.0
 40
0.0
 40
0.0
 40
0.0
 40
0.0498080209819928
 40
0.1059207914186704
 40
0.1669318027104983
 40
0.2297121374629686
 40
0.290723148754797
 40
0.3535034835072673
 40
0.4145144947990708
 40
0.4772948295515663
 40
0.5383058408433933
 40
0.6010861755958631
 40
0.6620971868876898
 40
0.7248775216401592
 40
0.7858885329319512
 40
0.8486688676843824
 40
0.9096798789762477
 40
0.9724602137287589
 40
1.0
 40
1.0
 40
1.0
 40
1.0
 10
12.00000000000003
 20
-1.181655168158149
 30
0.0
 10
12.00000000000004
 20
-1.178086634854437
 30
0.0
 10
12.00000000000007
 20
-1.170497859707765
 30
0.0
 10
12.00000000000002
 20
-1.08510649320507
 30
0.0
 10
12.00000000000002
 20
-0.9350264016528
 30
0.0
 10
12.00000000000004
 20
-0.7144498450676753
 30
0.0
 10
11.99999999999998
 20
-0.4332625771847096
 30
0.0
 10
12.00000000000002
 20
-0.1039362511272535
 30
0.0
 10
11.99999999999997
 20
0.2699876718773263
 30
0.0
 10
12.00000000000006
 20
0.671234802210391
 30
0.0
 10
11.99999999999997
 20
1.095658653635279
 30
0.0
 10
12.00000000000007
 20
1.52361134372268
 30
0.0
 10
12.00000000000004
 20
1.950675942810732
 30
0.0
 10
11.99999999999998
 20
2.357098307290166
 30
0.0
 10
12.00000000000004
 20
2.738614424663702
 30
0.0
 10
12.00000000000004
 20
3.077838607420786
 30
0.0
 10
12.00000000000001
 20
3.370228609495634
 30
0.0
 10
12.00000000000006
 20
3.563413637350299
 30
0.0
 10
12.00000000000002
 20
3.651962452281519
 30
0.0
 10
12.00000000000002
 20
3.678962144156778
 30
0.0
  0
SPLINE
  5
D2
330
1F
100
AcDbEntity
  8
외형선
  6
Continuous
370
    15
100
AcDbSpline
210
0.0
220
0.0
230
1.0
 70
    24
 71
     3
 72
    16
 73
    12
 74
     0
 42
0.000000001
 43
0.00000001
 40
0.0
 40
0.0
 40
0.0
 40
0.0
 40
0.1047805069646402
 40
0.2095610139292811
 40
0.3264632994722004
 40
0.4433655850151196
 40
0.5602678705580395
 40
0.6771701561009592
 40
0.7940724416438795
 40
0.9109747271867995
 40
1.0
 40
1.0
 40
1.0
 40
1.0
 10
12.00000000000002
 20
-5.994033002120336
 30
0.0
 10
12.00000000000004
 20
-5.881185105369389
 30
0.0
 10
12.00000000000003
 20
-5.655489311867496
 30
0.0
 10
12.00000000000004
 20
-5.273178111221721
 30
0.0
 10
12.00000000000002
 20
-4.863174931293889
 30
0.0
 10
12.00000000000004
 20
-4.433101079513561
 30
0.0
 10
12.00000000000002
 20
-4.010893966561688
 30
0.0
 10
12.0
 20
-3.607150199300289
 30
0.0
 10
12.00000000000003
 20
-3.236715157949758
 30
0.0
 10
12.00000000000003
 20
-2.926815420415133
 30
0.0
 10
12.00000000000003
 20
-2.769023143891263
 30
0.0
 10
12.00000000000004
 20
-2.700807405417541
 30
0.0
  0
SPLINE
  5
D3
330
1F
100
AcDbEntity
  8
외형선
  6
Continuous
370
    15
100
AcDbSpline
210
0.0
220
0.0
230
1.0
 70
    24
 71
     3
 72
    12
 73
     8
 74
     0
 42
0.000000001
 43
0.00000001
 40
0.0
 40
0.0
 40
0.0
 40
0.0
 40
0.013753860683211
 40
0.3029343684928305
 40
0.5839649698257875
 40
0.8731454776357738
 40
1.0
 40
1.0
 40
1.0
 40
1.0
 10
12.00000000000002
 20
4.869217921091576
 30
0.0
 10
12.00000000000002
 20
4.875039051928879
 30
0.0
 10
12.00000000000006
 20
5.003251823217522
 30
0.0
 10
12.00000000000002
 20
5.283127977626905
 30
0.0
 10
12.0
 20
5.701111256928852
 30
0.0
 10
12.00000000000005
 20
6.052271601367322
 30
0.0
 10
12.00000000000002
 20
6.259706918846388
 30
0.0
 10
12.00000000000002
 20
6.322956660362771
 30
0.0
  0
LINE
  5
D4
330
1F
100
AcDbEntity
  8
중심선
 48
0.8
100
AcDbLine
 10
-48.14999999999999
 20
0.0010749287238931
 30
0.0
 11
40.40000000000003
 21
0.0010749287238997
 31
0.0
1001
PE_URL
1000

  0
LINE
  5
D5
330
1F
100
AcDbEntity
  8
참조1
100
AcDbLine
 10
6.824999999999998
 20
0.0010749287238892
 30
0.0
 11
6.825000000000003
 21
-39.99892507127611
 31
0.0
  0
LINE
  5
D6
330
1F
100
AcDbEntity
  8
참조1
100
AcDbLine
 10
6.825000000000003
 20
-39.99892507127611
 30
0.0
 11
-21.03385681430867
 21
-39.9989250712761
 31
0.0
  0
CIRCLE
  5
D7
330
1F
100
AcDbEntity
  8
해칭선
100
AcDbCircle
 10
0.0
 20
0.0
 30
0.0
 40
3.000000000000001
  0
INSERT
  5
D8
330
1F
100
AcDbEntity
  8
0
  6
Continuous
 62
     7
100
AcDbBlockReference
 66
     1
  2
블럭10
 10
-7.115272932125207
 20
-52.04609937292004
 30
0.0
  0
ATTRIB
  5
D9
330
D8
100
AcDbEntity
  8
FORMAT
 62
     2
100
AcDbText
 10
-17.82135375441389
 20
-49.97073246008785
 30
0.0
 40
4.233333333333333
  1
G8C51902 [ 6 FLUTE ]
 41
0.75
  7
SLDTEXTSTYLE0
 11
-17.82135375441389
 21
-52.08739912675452
 31
0.0
100
AcDbAttribute
  2
AUTOATTR0
 70
     0
 74
     1
  0
SEQEND
  5
DA
330
D8
100
AcDbEntity
  8
0
  6
Continuous
 62
     7
  0
HATCH
  5
DB
330
1F
100
AcDbEntity
  8
중심선
100
AcDbHatch
 10
0.0
 20
0.0
 30
0.0
210
0.0
220
0.0
230
1.0
  2
SOLID
 70
     1
 71
     0
 91
        1
 92
        0
 93
        4
 72
     1
 10
-1.400363627744372
 20
-35.7989250712761
 11
-4.846638871581654
 21
-35.7989250712761
 72
     1
 10
-4.846638871581654
 20
-35.7989250712761
 11
-6.974868730785677
 21
-38.3352506518487
 72
     1
 10
-6.974868730785677
 20
-38.3352506518487
 11
-3.528560401835246
 21
-38.33521122254621
 72
     1
 10
-3.528560401835246
 20
-38.33521122254621
 11
-1.400363627744372
 21
-35.7989250712761
 97
        0
 75
     0
 76
     1
 98
        1
 10
0.0
 20
0.0
  0
HATCH
  5
DC
330
1F
100
AcDbEntity
  8
중심선
100
AcDbHatch
 10
0.0
 20
0.0
 30
0.0
210
0.0
220
0.0
230
1.0
  2
SOLID
 70
     1
 71
     0
 91
        1
 92
        0
 93
        4
 72
     1
 10
3.612400363291607
 20
-35.7989250712761
 11
0.1661251194543247
 21
-35.7989250712761
 72
     1
 10
0.1661251194543245
 20
-35.7989250712761
 11
-4.365012888903092
 21
-41.19892507127612
 72
     1
 10
-4.365012888903092
 20
-41.19892507127612
 11
-0.9187376450658089
 21
-41.19892507127612
 72
     1
 10
-0.9187376450658091
 20
-41.19892507127612
 11
3.612400363291607
 21
-35.7989250712761
 97
        0
 75
     0
 76
     1
 98
        1
 10
0.0
 20
0.0
  0
HATCH
  5
DD
330
1F
100
AcDbEntity
  8
중심선
100
AcDbHatch
 10
0.0
 20
0.0
 30
0.0
210
0.0
220
0.0
230
1.0
  2
SOLID
 70
     1
 71
     0
 91
        1
 92
        0
 93
        4
 72
     1
 10
8.62516435432753
 20
-35.79892507127608
 11
5.178889110490386
 21
-35.7989250712761
 72
     1
 10
5.178889110490386
 20
-35.7989250712761
 11
-1.86954779139889
 21
-44.19892507127612
 72
     1
 10
-1.86954779139889
 20
-44.19892507127612
 11
1.576727452438392
 21
-44.19892507127612
 72
     1
 10
1.576727452438392
 20
-44.19892507127612
 11
8.62516435432753
 21
-35.79892507127608
 97
        0
 75
     0
 76
     1
 98
        1
 10
0.0
 20
0.0
  0
HATCH
  5
DE
330
1F
100
AcDbEntity
  8
중심선
100
AcDbHatch
 10
0.0
 20
0.0
 30
0.0
210
0.0
220
0.0
230
1.0
  2
SOLID
 70
     1
 71
     0
 91
        1
 92
        0
 93
        6
 72
     3
 10
13.42505478533967
 20
-39.99892507132738
 11
3.960054785062284
 21
1.540850780301639E-10
 40
0.3939339440162633
 50
17.09539180608433
 51
320.0019657685081
 73
     0
 72
     1
 10
15.10805444104024
 20
-38.58681907591443
 11
17.41335631474131
 21
-36.65249236586649
 72
     3
 10
13.42505478528683
 20
-39.99892507127625
 11
6.600054785286829
 21
-1.249000902703301E-13
 40
0.6363583540795982
 50
39.99873849337408
 51
368.4976242363725
 73
     1
 72
     1
 10
19.85038727718744
 20
-39.03892507120613
 11
12.10512209212275
 21
-39.03892507120613
 72
     1
 10
12.10512209212275
 20
-39.03892507120613
 11
12.10509704767682
 21
-40.95892507120602
 72
     1
 10
12.10509704767682
 20
-40.95892507120602
 11
16.54647681714885
 21
-40.95892507120599
 97
        0
 75
     0
 76
     1
 98
        1
 10
0.0
 20
0.0
  0
DIMENSION
  5
DF
330
1F
100
AcDbEntity
  8
치수문자_일반주서
100
AcDbDimension
  2
_D
 10
12.00000000000002
 20
16.60456421473879
 30
0.0
 11
24.70000000000002
 21
16.60456421473879
 31
0.0
 70
   160
  1
<>
 71
     2
 42
25.40000000000002
  3
SLDDIMSTYLE0
100
AcDbAlignedDimension
 13
37.40000000000004
 23
6.351074928723893
 33
0.0
 14
12.00000000000002
 24
6.322956660362771
 34
0.0
100
AcDbRotatedDimension
1001
PE_URL
1000

1001
ACAD
1000
DSTYLE
1002
{
1070
   171
1070
     6
1070
   273
1070
     7
1002
}
  0
DIMENSION
  5
F5
330
1F
100
AcDbEntity
  8
치수문자_일반주서
100
AcDbDimension
  2
_D_1
 10
-45.14999999999998
 20
31.01804874701521
 30
0.0
 11
-3.87499999999997
 21
31.01804874701521
 31
0.0
 70
   160
  1
<>
 71
     2
 42
82.55000000000001
  3
SLDDIMSTYLE0
100
AcDbAlignedDimension
 13
37.40000000000004
 23
6.351074928723893
 33
0.0
 14
-45.14999999999998
 24
5.081074928723896
 34
0.0
 50
0.0000000000000049
100
AcDbRotatedDimension
1001
PE_URL
1000

1001
ACAD
1000
DSTYLE
1002
{
1070
   171
1070
     6
1070
   273
1070
     7
1002
}
  0
DIMENSION
  5
109
330
1F
100
AcDbEntity
  8
치수문자_일반주서
100
AcDbDimension
  2
_D_2
 10
-57.51499999999997
 20
-6.348925071276153
 30
0.0
 11
-57.51499999999999
 21
0.0010749287238884
 31
0.0
 70
   160
  1
%%c<>
 71
     2
 42
12.69999999999999
 52
-270.0
  3
SLDDIMSTYLE0
100
AcDbAlignedDimension
 13
-43.87999999999998
 23
6.351074928723888
 33
0.0
 14
-43.87999999999998
 24
-6.348925071276101
 34
0.0
 50
90.0000000000002
100
AcDbRotatedDimension
1001
ACAD
1000
DSTYLE
1002
{
1070
   171
1070
     6
1070
   273
1070
     7
1002
}
  0
DIMENSION
  5
11D
330
1F
100
AcDbEntity
  8
치수문자_일반주서
100
AcDbDimension
  2
_D_3
 10
48.32019967372904
 20
-6.34892507127606
 30
0.0
 11
48.32019967372892
 21
26.73632492872393
 31
0.0
 70
   160
  1
%%c<>
 71
     2
 42
12.7
 52
-270.0
  3
SLDDIMSTYLE0
100
AcDbAlignedDimension
 13
37.40000000000004
 23
6.351074928723893
 33
0.0
 14
37.40000000000004
 24
-6.348925071276105
 34
0.0
 50
90.0000000000002
100
AcDbRotatedDimension
1001
PE_URL
1000

1001
ACAD
1000
DSTYLE
1002
{
1070
   171
1070
     6
1070
   273
1070
     7
1002
}
  0
LINE
  5
131
330
1F
100
AcDbEntity
  8
참조1
100
AcDbLine
 10
76.93848381534559
 20
7.441074928723896
 30
0.0
 11
76.93848381534559
 21
-7.438925071276109
 31
0.0
  0
LINE
  5
132
330
1F
100
AcDbEntity
  8
참조1
100
AcDbLine
 10
89.6384838153456
 20
5.441074928723896
 30
0.0
 11
76.93848381534559
 21
5.441074928723896
 31
0.0
  0
SOLID
  5
133
330
1F
100
AcDbEntity
  8
참조1
100
AcDbTrace
 10
76.93848381534559
 20
5.441074928723896
 30
0.0
 11
83.28848381534559
 21
4.425074928723896
 31
0.0
 12
83.28848381534559
 22
6.457074928723896
 32
0.0
 13
83.28848381534559
 23
6.457074928723896
 33
0.0
  0
LINE
  5
134
330
1F
100
AcDbEntity
  8
참조1
100
AcDbLine
 10
89.6384838153456
 20
-5.438925071276109
 30
0.0
 11
76.93848381534559
 21
-5.438925071276109
 31
0.0
  0
SOLID
  5
135
330
1F
100
AcDbEntity
  8
참조1
100
AcDbTrace
 10
76.93848381534559
 20
-5.438925071276109
 30
0.0
 11
83.28848381534559
 21
-6.454925071276109
 31
0.0
 12
83.28848381534559
 22
-4.422925071276109
 32
0.0
 13
83.28848381534559
 23
-4.422925071276109
 33
0.0
  0
MTEXT
  5
136
330
1F
100
AcDbEntity
  8
참조1
100
AcDbMText
 10
86.33597390781587
 20
10.98929157337383
 30
0.0
 40
3.5
 41
0.0
 71
     1
 72
     1
  1
A
  7
SLDTEXTSTYLE0
 73
     1
 44
1.0
  0
MTEXT
  5
137
330
1F
100
AcDbEntity
  8
참조1
100
AcDbMText
 10
86.33597390781587
 20
0.1092915733738259
 30
0.0
 40
3.5
 41
0.0
 71
     1
 72
     1
  1
A
  7
SLDTEXTSTYLE0
 73
     1
 44
1.0
  0
INSERT
  5
13E
330
1F
100
AcDbEntity
  8
해칭선
100
AcDbBlockReference
  2
SW_DOWELSYMBOL_0
 10
0.0
 20
0.0
 30
0.0
  0
DIMENSION
  5
19D
102
{ACAD_REACTORS
102
}
102
{ACAD_XDICTIONARY
360
19E
102
}
330
1F
100
AcDbEntity
  8
치수문자_일반주서
100
AcDbDimension
  2
*D8
 10
36.63800000000004
 20
-5.586925071276108
 30
0.0
 11
48.563190506747
 21
-23.57834702564904
 31
0.0
 70
   164
 71
     5
 42
0.7620000000000021
  3
SLDDIMSTYLE0
100
AcDbRadialDimension
 15
37.05899144841344
 25
-6.222070881592753
 35
0.0
 40
0.0
1001
ACAD_DSTYLE_DIMRADIAL_EXTENSION
1070
   387
1070
     1
1070
   388
1040
4.712388980384708
1070
   390
1040
0.0000000000000117
1001
PE_URL
1000

1001
ACAD
1000
DSTYLE
1002
{
1070
   171
1070
     3
1002
}
  0
ENDSEC
  0
SECTION
  2
OBJECTS
  0
DICTIONARY
  5
C
330
0
100
AcDbDictionary
281
     1
  3
ACAD_DETAILVIEWSTYLE
350
19A
  3
ACAD_GROUP
350
D
  3
ACAD_LAYOUT
350
1A
  3
ACAD_MLINESTYLE
350
17
  3
ACAD_PLOTSETTINGS
350
19
  3
ACAD_PLOTSTYLENAME
350
E
  3
ACAD_SCALELIST
350
47
  3
ACAD_SECTIONVIEWSTYLE
350
19B
  3
AcDbVariableDictionary
350
195
  3
APPDATA
350
160
  3
DWGPROPS
350
1AA
  0
DICTIONARY
  5
187
330
2
100
AcDbDictionary
280
     1
281
     1
  3
ACAD_LAYERSTATES
360
188
  0
DICTIONARY
  5
19E
330
19D
100
AcDbDictionary
280
     1
281
     1
  0
DICTIONARY
  5
19A
102
{ACAD_REACTORS
330
C
102
}
330
C
100
AcDbDictionary
281
     1
  0
DICTIONARY
  5
D
102
{ACAD_REACTORS
330
C
102
}
330
C
100
AcDbDictionary
281
     1
  0
DICTIONARY
  5
1A
102
{ACAD_REACTORS
330
C
102
}
330
C
100
AcDbDictionary
281
     1
  3
Layout1
350
1E
  3
Layout2
350
26
  3
Model
350
22
  0
DICTIONARY
  5
17
102
{ACAD_REACTORS
330
C
102
}
330
C
100
AcDbDictionary
281
     1
  3
Standard
350
18
  0
DICTIONARY
  5
19
102
{ACAD_REACTORS
330
C
102
}
330
C
100
AcDbDictionary
281
     1
  0
ACDBDICTIONARYWDFLT
  5
E
102
{ACAD_REACTORS
330
C
102
}
330
C
100
AcDbDictionary
281
     1
  3
Normal
350
F
100
AcDbDictionaryWithDefault
340
F
  0
DICTIONARY
  5
47
102
{ACAD_REACTORS
330
C
102
}
330
C
100
AcDbDictionary
281
     1
  3
A0
350
48
  3
A1
350
49
  3
A2
350
4A
  3
A3
350
4B
  3
A4
350
4C
  3
A5
350
4D
  3
A6
350
4E
  3
A7
350
4F
  3
A8
350
50
  3
A9
350
51
  3
B0
350
52
  3
B1
350
53
  3
B2
350
54
  3
B3
350
55
  3
B4
350
56
  3
B5
350
57
  3
B6
350
58
  3
B7
350
59
  3
B8
350
5A
  3
B9
350
5B
  3
C0
350
5C
  3
C1
350
5D
  3
C2
350
5E
  3
C3
350
5F
  3
C4
350
60
  3
C5
350
61
  3
C6
350
62
  3
C7
350
63
  3
C8
350
64
  3
C9
350
65
  3
D0
350
66
  3
D1
350
67
  3
D2
350
68
  0
DICTIONARY
  5
19B
102
{ACAD_REACTORS
330
C
102
}
330
C
100
AcDbDictionary
281
     1
  0
DICTIONARY
  5
195
102
{ACAD_REACTORS
330
C
102
}
330
C
100
AcDbDictionary
281
     1
  0
DICTIONARY
  5
160
102
{ACAD_REACTORS
330
C
102
}
330
C
100
AcDbDictionary
281
     1
  0
XRECORD
  5
1AA
102
{ACAD_REACTORS
330
C
102
}
330
C
100
AcDbXrecord
280
     1
  1
DWGPROPS COOKIE
  2

  3

  4

  6

  7

  8
박수민
  9

300
=
301
=
302
=
303
=
304
=
305
=
306
=
307
=
308
=
309
=
 40
0.0
 41
2458295.126798113
 42
2458295.570490995
  1

 90
        0
  0
DICTIONARY
  5
188
102
{ACAD_REACTORS
330
187
102
}
330
187
100
AcDbDictionary
281
     1
  0
LAYOUT
  5
1E
102
{ACAD_REACTORS
330
1A
102
}
330
1A
100
AcDbPlotSettings
  1

  2
none_device
  4

  6

 40
0.0
 41
0.0
 42
0.0
 43
0.0
 44
0.0
 45
0.0
 46
0.0
 47
0.0
 48
0.0
 49
0.0
140
0.0
141
0.0
142
1.0
143
1.0
 70
   688
 72
     1
 73
     0
 74
     5
  7

 75
    16
147
1.0
148
0.0
149
0.0
100
AcDbLayout
  1
Layout1
 70
     1
 71
     1
 10
0.0
 20
0.0
 11
420.0
 21
297.0
 12
0.0
 22
0.0
 32
0.0
 14
1.000000000000000E+20
 24
1.000000000000000E+20
 34
1.000000000000000E+20
 15
-1.000000000000000E+20
 25
-1.000000000000000E+20
 35
-1.000000000000000E+20
146
0.0
 13
0.0
 23
0.0
 33
0.0
 16
1.0
 26
0.0
 36
0.0
 17
0.0
 27
1.0
 37
0.0
 76
     0
330
1B
  0
LAYOUT
  5
26
102
{ACAD_REACTORS
330
1A
102
}
330
1A
100
AcDbPlotSettings
  1

  2
none_device
  4

  6

 40
0.0
 41
0.0
 42
0.0
 43
0.0
 44
0.0
 45
0.0
 46
0.0
 47
0.0
 48
0.0
 49
0.0
140
0.0
141
0.0
142
1.0
143
1.0
 70
   688
 72
     1
 73
     0
 74
     5
  7

 75
    16
147
1.0
148
0.0
149
0.0
100
AcDbLayout
  1
Layout2
 70
     1
 71
     2
 10
0.0
 20
0.0
 11
0.0
 21
0.0
 12
0.0
 22
0.0
 32
0.0
 14
0.0
 24
0.0
 34
0.0
 15
0.0
 25
0.0
 35
0.0
146
0.0
 13
0.0
 23
0.0
 33
0.0
 16
1.0
 26
0.0
 36
0.0
 17
0.0
 27
1.0
 37
0.0
 76
     0
330
23
  0
LAYOUT
  5
22
102
{ACAD_REACTORS
330
1A
102
}
330
1A
100
AcDbPlotSettings
  1

  2
none_device
  4
ANSI_A_(11.00_x_8.50_Inches)
  6

 40
6.35
 41
19.05
 42
6.35000508
 43
19.05000254
 44
279.4
 45
215.9
 46
103.2648517509499
 47
97.26297451277357
 48
0.0
 49
0.0
140
0.0
141
0.0
142
0.0739576828310821
143
1.0
 70
  1696
 72
     0
 73
     0
 74
     0
  7

 75
     0
147
0.0235690232323232
148
0.0
149
0.0
100
AcDbLayout
  1
Model
 70
     1
 71
     0
 10
0.0
 20
0.0
 11
420.0
 21
297.0
 12
0.0
 22
0.0
 32
0.0
 14
-61.89000000000004
 24
-49.97073246008785
 34
0.0
 15
89.6384838153456
 25
40.08007492872393
 35
0.0
146
0.0
 13
0.0
 23
0.0
 33
0.0
 16
1.0
 26
0.0
 36
0.0
 17
0.0
 27
1.0
 37
0.0
 76
     0
330
1F
331
29
  0
MLINESTYLE
  5
18
102
{ACAD_REACTORS
330
17
102
}
330
17
100
AcDbMlineStyle
  2
Standard
 70
     0
  3

 62
   256
 51
90.0
 52
90.0
 71
     2
 49
0.5
 62
   256
  6
BYLAYER
 49
-0.5
 62
   256
  6
BYLAYER
  0
ACDBPLACEHOLDER
  5
F
102
{ACAD_REACTORS
330
E
102
}
330
E
  0
SCALE
  5
48
102
{ACAD_REACTORS
330
47
102
}
330
47
100
AcDbScale
 70
     0
300
1:1
140
1.0
141
1.0
290
     1
  0
SCALE
  5
49
102
{ACAD_REACTORS
330
47
102
}
330
47
100
AcDbScale
 70
     0
300
1:2
140
1.0
141
2.0
290
     0
  0
SCALE
  5
4A
102
{ACAD_REACTORS
330
47
102
}
330
47
100
AcDbScale
 70
     0
300
1:4
140
1.0
141
4.0
290
     0
  0
SCALE
  5
4B
102
{ACAD_REACTORS
330
47
102
}
330
47
100
AcDbScale
 70
     0
300
1:5
140
1.0
141
5.0
290
     0
  0
SCALE
  5
4C
102
{ACAD_REACTORS
330
47
102
}
330
47
100
AcDbScale
 70
     0
300
1:8
140
1.0
141
8.0
290
     0
  0
SCALE
  5
4D
102
{ACAD_REACTORS
330
47
102
}
330
47
100
AcDbScale
 70
     0
300
1:10
140
1.0
141
10.0
290
     0
  0
SCALE
  5
4E
102
{ACAD_REACTORS
330
47
102
}
330
47
100
AcDbScale
 70
     0
300
1:16
140
1.0
141
16.0
290
     0
  0
SCALE
  5
4F
102
{ACAD_REACTORS
330
47
102
}
330
47
100
AcDbScale
 70
     0
300
1:20
140
1.0
141
20.0
290
     0
  0
SCALE
  5
50
102
{ACAD_REACTORS
330
47
102
}
330
47
100
AcDbScale
 70
     0
300
1:30
140
1.0
141
30.0
290
     0
  0
SCALE
  5
51
102
{ACAD_REACTORS
330
47
102
}
330
47
100
AcDbScale
 70
     0
300
1:40
140
1.0
141
40.0
290
     0
  0
SCALE
  5
52
102
{ACAD_REACTORS
330
47
102
}
330
47
100
AcDbScale
 70
     0
300
1:50
140
1.0
141
50.0
290
     0
  0
SCALE
  5
53
102
{ACAD_REACTORS
330
47
102
}
330
47
100
AcDbScale
 70
     0
300
1:100
140
1.0
141
100.0
290
     0
  0
SCALE
  5
54
102
{ACAD_REACTORS
330
47
102
}
330
47
100
AcDbScale
 70
     0
300
2:1
140
2.0
141
1.0
290
     0
  0
SCALE
  5
55
102
{ACAD_REACTORS
330
47
102
}
330
47
100
AcDbScale
 70
     0
300
4:1
140
4.0
141
1.0
290
     0
  0
SCALE
  5
56
102
{ACAD_REACTORS
330
47
102
}
330
47
100
AcDbScale
 70
     0
300
8:1
140
8.0
141
1.0
290
     0
  0
SCALE
  5
57
102
{ACAD_REACTORS
330
47
102
}
330
47
100
AcDbScale
 70
     0
300
10:1
140
10.0
141
1.0
290
     0
  0
SCALE
  5
58
102
{ACAD_REACTORS
330
47
102
}
330
47
100
AcDbScale
 70
     0
300
100:1
140
100.0
141
1.0
290
     0
  0
SCALE
  5
59
102
{ACAD_REACTORS
330
47
102
}
330
47
100
AcDbScale
 70
     0
300
1/128" = 1'-0"
140
0.0078125
141
12.0
290
     0
  0
SCALE
  5
5A
102
{ACAD_REACTORS
330
47
102
}
330
47
100
AcDbScale
 70
     0
300
1/64" = 1'-0"
140
0.015625
141
12.0
290
     0
  0
SCALE
  5
5B
102
{ACAD_REACTORS
330
47
102
}
330
47
100
AcDbScale
 70
     0
300
1/32" = 1'-0"
140
0.03125
141
12.0
290
     0
  0
SCALE
  5
5C
102
{ACAD_REACTORS
330
47
102
}
330
47
100
AcDbScale
 70
     0
300
1/16" = 1'-0"
140
0.0625
141
12.0
290
     0
  0
SCALE
  5
5D
102
{ACAD_REACTORS
330
47
102
}
330
47
100
AcDbScale
 70
     0
300
3/32" = 1'-0"
140
0.09375
141
12.0
290
     0
  0
SCALE
  5
5E
102
{ACAD_REACTORS
330
47
102
}
330
47
100
AcDbScale
 70
     0
300
1/8" = 1'-0"
140
0.125
141
12.0
290
     0
  0
SCALE
  5
5F
102
{ACAD_REACTORS
330
47
102
}
330
47
100
AcDbScale
 70
     0
300
3/16" = 1'-0"
140
0.1875
141
12.0
290
     0
  0
SCALE
  5
60
102
{ACAD_REACTORS
330
47
102
}
330
47
100
AcDbScale
 70
     0
300
1/4" = 1'-0"
140
0.25
141
12.0
290
     0
  0
SCALE
  5
61
102
{ACAD_REACTORS
330
47
102
}
330
47
100
AcDbScale
 70
     0
300
3/8" = 1'-0"
140
0.375
141
12.0
290
     0
  0
SCALE
  5
62
102
{ACAD_REACTORS
330
47
102
}
330
47
100
AcDbScale
 70
     0
300
1/2" = 1'-0"
140
0.5
141
12.0
290
     0
  0
SCALE
  5
63
102
{ACAD_REACTORS
330
47
102
}
330
47
100
AcDbScale
 70
     0
300
3/4" = 1'-0"
140
0.75
141
12.0
290
     0
  0
SCALE
  5
64
102
{ACAD_REACTORS
330
47
102
}
330
47
100
AcDbScale
 70
     0
300
1" = 1'-0"
140
1.0
141
12.0
290
     0
  0
SCALE
  5
65
102
{ACAD_REACTORS
330
47
102
}
330
47
100
AcDbScale
 70
     0
300
1-1/2" = 1'-0"
140
1.5
141
12.0
290
     0
  0
SCALE
  5
66
102
{ACAD_REACTORS
330
47
102
}
330
47
100
AcDbScale
 70
     0
300
3" = 1'-0"
140
3.0
141
12.0
290
     0
  0
SCALE
  5
67
102
{ACAD_REACTORS
330
47
102
}
330
47
100
AcDbScale
 70
     0
300
6" = 1'-0"
140
6.0
141
12.0
290
     0
  0
SCALE
  5
68
102
{ACAD_REACTORS
330
47
102
}
330
47
100
AcDbScale
 70
     0
300
1'-0" = 1'-0"
140
12.0
141
12.0
290
     0
  0
ENDSEC
  0
EOF
