  0
SECTION
  2
HEADER
  9
$ACADVER
  1
AC1015
  9
$ACADMAINTVER
 70
     6
  9
$DWGCODEPAGE
  3
ANSI_949
  9
$INSBASE
 10
0.0
 20
0.0
 30
0.0
  9
$EXTMIN
 10
-64.74750006285667
 20
-49.97073246008785
 30
0.0
  9
$EXTMAX
 10
89.6384838153456
 20
42.76082350426225
 30
0.0
  9
$LIMMIN
 10
0.0
 20
0.0
  9
$LIMMAX
 10
420.0
 20
297.0
  9
$ORTHOMODE
 70
     0
  9
$REGENMODE
 70
     1
  9
$FILLMODE
 70
     1
  9
$QTEXTMODE
 70
     0
  9
$MIRRTEXT
 70
     1
  9
$LTSCALE
 40
1.0
  9
$ATTMODE
 70
     1
  9
$TEXTSIZE
 40
3.5
  9
$TRACEWID
 40
1.0
  9
$TEXTSTYLE
  7
Standard
  9
$CLAYER
  8
0
  9
$CELTYPE
  6
ByLayer
  9
$CECOLOR
 62
   256
  9
$CELTSCALE
 40
1.0
  9
$DISPSILH
 70
     0
  9
$DIMSCALE
 40
1.0
  9
$DIMASZ
 40
3.302
  9
$DIMEXO
 40
1.0
  9
$DIMDLI
 40
3.75
  9
$DIMRND
 40
0.0
  9
$DIMDLE
 40
0.0
  9
$DIMEXE
 40
1.0
  9
$DIMTP
 40
0.0
  9
$DIMTM
 40
0.0
  9
$DIMTXT
 40
3.5
  9
$DIMCEN
 40
2.5
  9
$DIMTSZ
 40
0.0
  9
$DIMTOL
 70
     0
  9
$DIMLIM
 70
     0
  9
$DIMTIH
 70
     1
  9
$DIMTOH
 70
     1
  9
$DIMSE1
 70
     0
  9
$DIMSE2
 70
     0
  9
$DIMTAD
 70
     1
  9
$DIMZIN
 70
     0
  9
$DIMBLK
  1

  9
$DIMASO
 70
     1
  9
$DIMSHO
 70
     1
  9
$DIMPOST
  1

  9
$DIMAPOST
  1

  9
$DIMALT
 70
     0
  9
$DIMALTD
 70
     3
  9
$DIMALTF
 40
0.0393700787401575
  9
$DIMLFAC
 40
1.0
  9
$DIMTOFL
 70
     1
  9
$DIMTVP
 40
0.0
  9
$DIMTIX
 70
     0
  9
$DIMSOXD
 70
     0
  9
$DIMSAH
 70
     0
  9
$DIMBLK1
  1

  9
$DIMBLK2
  1

  9
$DIMSTYLE
  2
ISO-25
  9
$DIMCLRD
 70
     0
  9
$DIMCLRE
 70
     0
  9
$DIMCLRT
 70
     0
  9
$DIMTFAC
 40
1.0
  9
$DIMGAP
 40
1.524
  9
$DIMJUST
 70
     0
  9
$DIMSD1
 70
     0
  9
$DIMSD2
 70
     0
  9
$DIMTOLJ
 70
     0
  9
$DIMTZIN
 70
     0
  9
$DIMALTZ
 70
     0
  9
$DIMALTTZ
 70
     0
  9
$DIMUPT
 70
     0
  9
$DIMDEC
 70
     2
  9
$DIMTDEC
 70
     2
  9
$DIMALTU
 70
     2
  9
$DIMALTTD
 70
     3
  9
$DIMTXSTY
  7
Standard
  9
$DIMAUNIT
 70
     0
  9
$DIMADEC
 70
     2
  9
$DIMALTRND
 40
0.0
  9
$DIMAZIN
 70
     0
  9
$DIMDSEP
 70
    44
  9
$DIMATFIT
 70
     3
  9
$DIMFRAC
 70
     0
  9
$DIMLDRBLK
  1

  9
$DIMLUNIT
 70
     2
  9
$DIMLWD
 70
    -2
  9
$DIMLWE
 70
    -2
  9
$DIMTMOVE
 70
     0
  9
$LUNITS
 70
     2
  9
$LUPREC
 70
     2
  9
$SKETCHINC
 40
1.0
  9
$FILLETRAD
 40
10.0
  9
$AUNITS
 70
     0
  9
$AUPREC
 70
     2
  9
$MENU
  1
.
  9
$ELEVATION
 40
0.0
  9
$PELEVATION
 40
0.0
  9
$THICKNESS
 40
0.0
  9
$LIMCHECK
 70
     0
  9
$CHAMFERA
 40
0.0
  9
$CHAMFERB
 40
0.0
  9
$CHAMFERC
 40
0.0
  9
$CHAMFERD
 40
0.0
  9
$SKPOLY
 70
     0
  9
$TDCREATE
 40
2458295.501987164
  9
$TDUCREATE
 40
2458295.126987164
  9
$TDUPDATE
 40
2458295.953055706
  9
$TDUUPDATE
 40
2458295.578055706
  9
$TDINDWG
 40
0.0002364005
  9
$TDUSRTIMER
 40
0.0002363889
  9
$USRTIMER
 70
     1
  9
$ANGBASE
 50
0.0
  9
$ANGDIR
 70
     0
  9
$PDMODE
 70
     0
  9
$PDSIZE
 40
-1.0
  9
$PLINEWID
 40
0.0
  9
$SPLFRAME
 70
     0
  9
$SPLINETYPE
 70
     6
  9
$SPLINESEGS
 70
     8
  9
$HANDSEED
  5
291
  9
$SURFTAB1
 70
     6
  9
$SURFTAB2
 70
     6
  9
$SURFTYPE
 70
     6
  9
$SURFU
 70
     6
  9
$SURFV
 70
     6
  9
$UCSBASE
  2

  9
$UCSNAME
  2

  9
$UCSORG
 10
0.0
 20
0.0
 30
0.0
  9
$UCSXDIR
 10
1.0
 20
0.0
 30
0.0
  9
$UCSYDIR
 10
0.0
 20
1.0
 30
0.0
  9
$UCSORTHOREF
  2

  9
$UCSORTHOVIEW
 70
     0
  9
$UCSORGTOP
 10
0.0
 20
0.0
 30
0.0
  9
$UCSORGBOTTOM
 10
0.0
 20
0.0
 30
0.0
  9
$UCSORGLEFT
 10
0.0
 20
0.0
 30
0.0
  9
$UCSORGRIGHT
 10
0.0
 20
0.0
 30
0.0
  9
$UCSORGFRONT
 10
0.0
 20
0.0
 30
0.0
  9
$UCSORGBACK
 10
0.0
 20
0.0
 30
0.0
  9
$PUCSBASE
  2

  9
$PUCSNAME
  2

  9
$PUCSORG
 10
0.0
 20
0.0
 30
0.0
  9
$PUCSXDIR
 10
1.0
 20
0.0
 30
0.0
  9
$PUCSYDIR
 10
0.0
 20
1.0
 30
0.0
  9
$PUCSORTHOREF
  2

  9
$PUCSORTHOVIEW
 70
     0
  9
$PUCSORGTOP
 10
0.0
 20
0.0
 30
0.0
  9
$PUCSORGBOTTOM
 10
0.0
 20
0.0
 30
0.0
  9
$PUCSORGLEFT
 10
0.0
 20
0.0
 30
0.0
  9
$PUCSORGRIGHT
 10
0.0
 20
0.0
 30
0.0
  9
$PUCSORGFRONT
 10
0.0
 20
0.0
 30
0.0
  9
$PUCSORGBACK
 10
0.0
 20
0.0
 30
0.0
  9
$USERI1
 70
     0
  9
$USERI2
 70
     0
  9
$USERI3
 70
     0
  9
$USERI4
 70
     0
  9
$USERI5
 70
     0
  9
$USERR1
 40
0.0
  9
$USERR2
 40
0.0
  9
$USERR3
 40
0.0
  9
$USERR4
 40
0.0
  9
$USERR5
 40
0.0
  9
$WORLDVIEW
 70
     1
  9
$SHADEDGE
 70
     3
  9
$SHADEDIF
 70
    70
  9
$TILEMODE
 70
     1
  9
$MAXACTVP
 70
    64
  9
$PINSBASE
 10
0.0
 20
0.0
 30
0.0
  9
$PLIMCHECK
 70
     0
  9
$PEXTMIN
 10
1.000000000000000E+20
 20
1.000000000000000E+20
 30
1.000000000000000E+20
  9
$PEXTMAX
 10
-1.000000000000000E+20
 20
-1.000000000000000E+20
 30
-1.000000000000000E+20
  9
$PLIMMIN
 10
0.0
 20
0.0
  9
$PLIMMAX
 10
0.0
 20
0.0
  9
$UNITMODE
 70
     0
  9
$VISRETAIN
 70
     1
  9
$PLINEGEN
 70
     0
  9
$PSLTSCALE
 70
     1
  9
$TREEDEPTH
 70
  3020
  9
$CMLSTYLE
  2
Standard
  9
$CMLJUST
 70
     0
  9
$CMLSCALE
 40
20.0
  9
$PROXYGRAPHICS
 70
     1
  9
$MEASUREMENT
 70
     1
  9
$CELWEIGHT
370
    -1
  9
$ENDCAPS
280
     0
  9
$JOINSTYLE
280
     0
  9
$LWDISPLAY
290
     1
  9
$INSUNITS
 70
     4
  9
$HYPERLINKBASE
  1

  9
$STYLESHEET
  1

  9
$XEDIT
290
     1
  9
$CEPSNTYPE
380
     0
  9
$PSTYLEMODE
290
     1
  9
$FINGERPRINTGUID
  2
{D9845CFC-D64E-4E18-99EF-2A64FD77F384}
  9
$VERSIONGUID
  2
{FAEB1C32-E019-11D5-929B-00C0DF256EC4}
  9
$EXTNAMES
290
     1
  9
$PSVPSCALE
 40
0.0
  9
$OLESTARTUP
290
     0
  0
ENDSEC
  0
SECTION
  2
CLASSES
  0
CLASS
  1
ACDBDICTIONARYWDFLT
  2
AcDbDictionaryWithDefault
  3
ObjectDBX Classes
 90
        0
280
     0
281
     0
  0
CLASS
  1
VISUALSTYLE
  2
AcDbVisualStyle
  3
ObjectDBX Classes
 90
     4095
280
     0
281
     0
  0
CLASS
  1
MATERIAL
  2
AcDbMaterial
  3
ObjectDBX Classes
 90
     1153
280
     0
281
     0
  0
CLASS
  1
SCALE
  2
AcDbScale
  3
ObjectDBX Classes
 90
     1153
280
     0
281
     0
  0
CLASS
  1
SUN
  2
AcDbSun
  3
SCENEOE
 90
     1153
280
     0
281
     0
  0
CLASS
  1
ACDBPLACEHOLDER
  2
AcDbPlaceHolder
  3
ObjectDBX Classes
 90
        0
280
     0
281
     0
  0
CLASS
  1
LAYOUT
  2
AcDbLayout
  3
ObjectDBX Classes
 90
        0
280
     0
281
     0
  0
CLASS
  1
TABLESTYLE
  2
AcDbTableStyle
  3
ObjectDBX Classes
 90
     4095
280
     0
281
     0
  0
CLASS
  1
MLEADERSTYLE
  2
AcDbMLeaderStyle
  3
ACDB_MLEADERSTYLE_CLASS
 90
     4095
280
     0
281
     0
  0
ENDSEC
  0
SECTION
  2
TABLES
  0
TABLE
  2
VPORT
  5
8
330
0
100
AcDbSymbolTable
 70
     1
  0
VPORT
  5
29
330
8
100
AcDbSymbolTableRecord
100
AcDbViewportTableRecord
  2
*Active
 70
     0
 10
0.0
 20
0.0
 11
1.0
 21
1.0
 12
2.691498105435443
 22
-13.4114013079234
 13
0.0
 23
0.0
 14
10.0
 24
10.0
 15
10.0
 25
10.0
 16
0.0
 26
0.0
 36
1.0
 17
0.0
 27
0.0
 37
0.0
 40
188.6708931579071
 41
2.959259259259259
 42
50.0
 43
0.0
 44
0.0
 50
0.0
 51
0.0
 71
    16
 72
  2000
 73
     1
 74
     3
 75
     0
 76
     0
 77
     0
 78
     0
281
     0
 65
     1
110
0.0
120
0.0
130
0.0
111
1.0
121
0.0
131
0.0
112
0.0
122
1.0
132
0.0
 79
     0
146
0.0
  0
ENDTAB
  0
TABLE
  2
LTYPE
  5
5
330
0
100
AcDbSymbolTable
 70
     6
  0
LTYPE
  5
14
330
5
100
AcDbSymbolTableRecord
100
AcDbLinetypeTableRecord
  2
ByBlock
 70
     0
  3

 72
    65
 73
     0
 40
0.0
  0
LTYPE
  5
15
330
5
100
AcDbSymbolTableRecord
100
AcDbLinetypeTableRecord
  2
ByLayer
 70
     0
  3

 72
    65
 73
     0
 40
0.0
  0
LTYPE
  5
16
330
5
100
AcDbSymbolTableRecord
100
AcDbLinetypeTableRecord
  2
Continuous
 70
     0
  3
Solid line
 72
    65
 73
     0
 40
0.0
  0
LTYPE
  5
6A
330
5
100
AcDbSymbolTableRecord
100
AcDbLinetypeTableRecord
  2
HIDDEN
 70
     0
  3
Hidden __ __ __ __ __ __ __ __ __ __ __ __ __ __
 72
    65
 73
     2
 40
1.905
 49
1.27
 74
     0
 49
-0.635
 74
     0
  0
LTYPE
  5
6B
330
5
100
AcDbSymbolTableRecord
100
AcDbLinetypeTableRecord
  2
PHANTOM
 70
     0
  3
Phantom ______  __  __  ______  __  __  ______
 72
    65
 73
     6
 40
12.7
 49
6.35
 74
     0
 49
-1.27
 74
     0
 49
1.27
 74
     0
 49
-1.27
 74
     0
 49
1.27
 74
     0
 49
-1.27
 74
     0
  0
LTYPE
  5
6C
330
5
100
AcDbSymbolTableRecord
100
AcDbLinetypeTableRecord
  2
CENTER
 70
     0
  3
Center ____ _ ____ _ ____ _ ____ _ ____ _ ____
 72
    65
 73
     4
 40
10.16
 49
6.35
 74
     0
 49
-1.27
 74
     0
 49
1.27
 74
     0
 49
-1.27
 74
     0
  0
LTYPE
  5
6D
330
5
100
AcDbSymbolTableRecord
100
AcDbLinetypeTableRecord
  2
CENTERX2
 70
     0
  3
Center (2x) ________  __  ________  __  _____
 72
    65
 73
     4
 40
20.32
 49
12.7
 74
     0
 49
-2.54
 74
     0
 49
2.54
 74
     0
 49
-2.54
 74
     0
  0
LTYPE
  5
6E
330
5
100
AcDbSymbolTableRecord
100
AcDbLinetypeTableRecord
  2
DOT2
 70
     0
  3
Dot (.5x) ........................................
 72
    65
 73
     2
 40
0.635
 49
0.0
 74
     0
 49
-0.635
 74
     0
  0
ENDTAB
  0
TABLE
  2
LAYER
  5
2
102
{ACAD_XDICTIONARY
360
20C
102
}
330
0
100
AcDbSymbolTable
 70
    18
  0
LAYER
  5
10
330
2
100
AcDbSymbolTableRecord
100
AcDbLayerTableRecord
  2
0
 70
     0
 62
     7
  6
Continuous
370
    -3
390
F
  0
LAYER
  5
6F
330
2
100
AcDbSymbolTableRecord
100
AcDbLayerTableRecord
  2
FORMAT
 70
     0
 62
     2
  6
Continuous
370
    -3
390
F
  0
LAYER
  5
70
330
2
100
AcDbSymbolTableRecord
100
AcDbLayerTableRecord
  2
외형선
 70
     0
 62
     4
  6
Continuous
370
    30
390
F
  0
LAYER
  5
71
330
2
100
AcDbSymbolTableRecord
100
AcDbLayerTableRecord
  2
숨은선
 70
     0
 62
     2
  6
HIDDEN
370
    15
390
F
  0
LAYER
  5
72
330
2
100
AcDbSymbolTableRecord
100
AcDbLayerTableRecord
  2
중심선
 70
     0
 62
     1
  6
CENTERX2
370
    -3
390
F
  0
LAYER
  5
73
330
2
100
AcDbSymbolTableRecord
100
AcDbLayerTableRecord
  2
파단선
 70
     0
 62
     4
  6
Continuous
370
    -3
390
F
  0
LAYER
  5
74
330
2
100
AcDbSymbolTableRecord
100
AcDbLayerTableRecord
  2
해칭선
 70
     0
 62
   100
  6
Continuous
370
    -3
390
F
  0
LAYER
  5
75
330
2
100
AcDbSymbolTableRecord
100
AcDbLayerTableRecord
  2
가는실선
 70
     0
 62
     4
  6
Continuous
370
    -3
390
F
  0
LAYER
  5
76
330
2
100
AcDbSymbolTableRecord
100
AcDbLayerTableRecord
  2
치수_보조선
 70
     0
 62
     4
  6
Continuous
370
    -3
390
F
  0
LAYER
  5
77
330
2
100
AcDbSymbolTableRecord
100
AcDbLayerTableRecord
  2
치수문자_일반주서
 70
     0
 62
     7
  6
Continuous
370
    15
390
F
  0
LAYER
  5
78
330
2
100
AcDbSymbolTableRecord
100
AcDbLayerTableRecord
  2
개별주서
 70
     0
 62
   100
  6
Continuous
370
    30
390
F
  0
LAYER
  5
79
330
2
100
AcDbSymbolTableRecord
100
AcDbLayerTableRecord
  2
중간선
 70
     0
 62
     2
  6
Continuous
370
    15
390
F
  0
LAYER
  5
7A
330
2
100
AcDbSymbolTableRecord
100
AcDbLayerTableRecord
  2
윤곽선
 70
     0
 62
     3
  6
Continuous
370
    40
390
F
  0
LAYER
  5
7B
330
2
100
AcDbSymbolTableRecord
100
AcDbLayerTableRecord
  2
중심마크
 70
     0
 62
   100
  6
Continuous
370
    30
390
F
  0
LAYER
  5
7C
330
2
100
AcDbSymbolTableRecord
100
AcDbLayerTableRecord
  2
가상선
 70
     0
 62
     4
  6
PHANTOM
370
    -3
390
F
  0
LAYER
  5
7D
330
2
100
AcDbSymbolTableRecord
100
AcDbLayerTableRecord
  2
특수지정선
 70
     0
 62
     5
  6
CENTERX2
370
    60
390
F
  0
LAYER
  5
7E
330
2
100
AcDbSymbolTableRecord
100
AcDbLayerTableRecord
  2
참조1
 70
     0
 62
    -4
  6
Continuous
370
    -3
390
F
  0
LAYER
  5
15F
330
2
100
AcDbSymbolTableRecord
100
AcDbLayerTableRecord
  2
Defpoints
 70
     0
 62
     7
  6
Continuous
290
     0
370
    -3
390
F
  0
ENDTAB
  0
TABLE
  2
STYLE
  5
3
330
0
100
AcDbSymbolTable
 70
     2
  0
STYLE
  5
11
330
3
100
AcDbSymbolTableRecord
100
AcDbTextStyleTableRecord
  2
Standard
 70
     0
 40
0.0
 41
1.0
 50
0.0
 71
     0
 42
3.5
  3
txt
  4

  0
STYLE
  5
94
330
3
100
AcDbSymbolTableRecord
100
AcDbTextStyleTableRecord
  2
SLDTEXTSTYLE0
 70
     0
 40
0.0
 41
0.75
 50
0.0
 71
     0
 42
3.5
  3
TXT
  4

  0
ENDTAB
  0
TABLE
  2
VIEW
  5
6
330
0
100
AcDbSymbolTable
 70
     0
  0
ENDTAB
  0
TABLE
  2
UCS
  5
7
330
0
100
AcDbSymbolTable
 70
     0
  0
ENDTAB
  0
TABLE
  2
APPID
  5
9
330
0
100
AcDbSymbolTable
 70
     3
  0
APPID
  5
12
330
9
100
AcDbSymbolTableRecord
100
AcDbRegAppTableRecord
  2
ACAD
 70
     0
  0
APPID
  5
16A
330
9
100
AcDbSymbolTableRecord
100
AcDbRegAppTableRecord
  2
PE_URL
 70
     0
  0
APPID
  5
16B
330
9
100
AcDbSymbolTableRecord
100
AcDbRegAppTableRecord
  2
ACAD_DSTYLE_DIMRADIAL_EXTENSION
 70
     0
  0
ENDTAB
  0
TABLE
  2
DIMSTYLE
  5
A
330
0
100
AcDbSymbolTable
 70
     3
100
AcDbDimStyleTable
  0
DIMSTYLE
105
27
330
A
100
AcDbSymbolTableRecord
100
AcDbDimStyleTableRecord
  2
ISO-25
 70
     0
 41
2.5
 42
0.625
 43
3.75
 44
1.25
 73
     0
 74
     0
 77
     1
 78
     8
140
2.5
141
2.5
143
0.03937007874016
147
0.625
171
     3
172
     1
178
     0
271
     2
272
     2
274
     3
278
    44
283
     0
284
     8
340
11
  0
DIMSTYLE
105
E0
330
A
100
AcDbSymbolTableRecord
100
AcDbDimStyleTableRecord
  2
SLDDIMSTYLE0
 70
     0
 41
3.302
 44
0.0
 45
0.000000001
 73
     0
 74
     0
 77
     1
 78
    12
 79
     3
140
3.5
143
0.0393700787401575
147
0.875
148
0.000000001
170
     1
173
     1
178
     0
271
     2
272
     2
276
     2
284
    12
340
94
  0
DIMSTYLE
105
107
102
{ACAD_REACTORS
330
1C3
330
1D0
330
1DD
330
1EA
330
201
330
24C
330
24D
330
24E
330
24F
330
253
102
}
330
A
100
AcDbSymbolTableRecord
100
AcDbDimStyleTableRecord
  2
SLDDIMSTYLE1
 70
     0
 41
3.302
 44
0.0
 45
0.000000001
 73
     0
 74
     0
 77
     1
 78
    12
 79
     3
140
3.5
143
0.0393700787401575
147
0.875
148
0.000000001
170
     1
172
     1
173
     1
178
     0
271
     2
272
     2
276
     2
284
    12
289
     0
340
94
  0
ENDTAB
  0
TABLE
  2
BLOCK_RECORD
  5
1
330
0
100
AcDbSymbolTable
 70
    18
  0
BLOCK_RECORD
  5
1F
330
1
100
AcDbSymbolTableRecord
100
AcDbBlockTableRecord
  2
*Model_Space
340
22
  0
BLOCK_RECORD
  5
1B
330
1
100
AcDbSymbolTableRecord
100
AcDbBlockTableRecord
  2
*Paper_Space
340
1E
  0
BLOCK_RECORD
  5
23
330
1
100
AcDbSymbolTableRecord
100
AcDbBlockTableRecord
  2
*Paper_Space0
340
26
  0
BLOCK_RECORD
  5
7F
330
1
100
AcDbSymbolTableRecord
100
AcDbBlockTableRecord
  2
블럭10
340
0
102
{BLKREFS
331
D8
102
}
  0
BLOCK_RECORD
  5
E1
330
1
100
AcDbSymbolTableRecord
100
AcDbBlockTableRecord
  2
_D
340
0
  0
BLOCK_RECORD
  5
F4
330
1
100
AcDbSymbolTableRecord
100
AcDbBlockTableRecord
  2
_D_1
340
0
  0
BLOCK_RECORD
  5
108
330
1
100
AcDbSymbolTableRecord
100
AcDbBlockTableRecord
  2
_D_2
340
0
  0
BLOCK_RECORD
  5
11C
330
1
100
AcDbSymbolTableRecord
100
AcDbBlockTableRecord
  2
_D_3
340
0
  0
BLOCK_RECORD
  5
135
330
1
100
AcDbSymbolTableRecord
100
AcDbBlockTableRecord
  2
SW_DOWELSYMBOL_0
340
0
102
{BLKREFS
331
0
331
1F8
331
250
102
}
  0
BLOCK_RECORD
  5
1C4
330
1
100
AcDbSymbolTableRecord
100
AcDbBlockTableRecord
  2
*D8
340
0
  0
BLOCK_RECORD
  5
1D1
330
1
100
AcDbSymbolTableRecord
100
AcDbBlockTableRecord
  2
*D9
340
0
  0
BLOCK_RECORD
  5
1DE
330
1
100
AcDbSymbolTableRecord
100
AcDbBlockTableRecord
  2
*D10
340
0
  0
BLOCK_RECORD
  5
1EB
330
1
100
AcDbSymbolTableRecord
100
AcDbBlockTableRecord
  2
*D11
340
0
  0
BLOCK_RECORD
  5
202
330
1
100
AcDbSymbolTableRecord
100
AcDbBlockTableRecord
  2
*D12
340
0
  0
BLOCK_RECORD
  5
254
330
1
100
AcDbSymbolTableRecord
100
AcDbBlockTableRecord
  2
*D13
340
0
  0
BLOCK_RECORD
  5
260
330
1
100
AcDbSymbolTableRecord
100
AcDbBlockTableRecord
  2
*D14
340
0
  0
BLOCK_RECORD
  5
26C
330
1
100
AcDbSymbolTableRecord
100
AcDbBlockTableRecord
  2
*D15
340
0
  0
BLOCK_RECORD
  5
278
330
1
100
AcDbSymbolTableRecord
100
AcDbBlockTableRecord
  2
*D16
340
0
  0
BLOCK_RECORD
  5
287
330
1
100
AcDbSymbolTableRecord
100
AcDbBlockTableRecord
  2
*D17
340
0
  0
ENDTAB
  0
ENDSEC
  0
SECTION
  2
BLOCKS
  0
BLOCK
  5
20
330
1F
100
AcDbEntity
  8
0
100
AcDbBlockBegin
  2
*Model_Space
 70
     0
 10
0.0
 20
0.0
 30
0.0
  3
*Model_Space
  1

  0
ENDBLK
  5
21
330
1F
100
AcDbEntity
  8
0
100
AcDbBlockEnd
  0
BLOCK
  5
1C
330
1B
100
AcDbEntity
 67
     1
  8
0
100
AcDbBlockBegin
  2
*Paper_Space
 70
     0
 10
0.0
 20
0.0
 30
0.0
  3
*Paper_Space
  1

  0
ENDBLK
  5
1D
330
1B
100
AcDbEntity
 67
     1
  8
0
100
AcDbBlockEnd
  0
BLOCK
  5
24
330
23
100
AcDbEntity
  8
0
100
AcDbBlockBegin
  2
*Paper_Space0
 70
     0
 10
0.0
 20
0.0
 30
0.0
  3
*Paper_Space0
  1

  0
ENDBLK
  5
25
330
23
100
AcDbEntity
  8
0
100
AcDbBlockEnd
  0
BLOCK
  5
80
330
7F
100
AcDbEntity
  8
0
100
AcDbBlockBegin
  2
블럭10
 70
     2
 10
0.0
 20
0.0
 30
0.0
  3
블럭10
  1

  0
ELLIPSE
  5
82
330
7F
100
AcDbEntity
  8
중심선
100
AcDbEllipse
 10
20.54032771741204
 20
12.0471743016438
 30
0.0
 11
6.600054785286829
 21
-1.261213355974178E-13
 31
0.0
210
0.0
220
0.0
230
1.0
 40
0.636358354079598
 41
0.9219305317359503
 42
6.513795318482858
  0
ELLIPSE
  5
83
330
7F
100
AcDbEntity
  8
중심선
100
AcDbEllipse
 10
20.54032771746488
 20
12.04717430159265
 30
0.0
 11
3.960054785062283
 21
1.540847449632565E-10
 31
0.0
210
0.0
220
0.0
230
1.0
 40
0.3939339440162632
 41
1.131841032648279
 42
5.62031148352944
  0
LINE
  5
84
330
7F
100
AcDbEntity
  8
중심선
100
AcDbLine
 10
2.268634060543552
 20
16.24717430164393
 30
0.0
 11
5.714909304380834
 21
16.24717430164393
 31
0.0
  0
LINE
  5
85
330
7F
100
AcDbEntity
  8
중심선
100
AcDbLine
 10
5.245725140726316
 20
7.84717430164391
 30
0.0
 11
8.692000384563599
 21
7.84717430164391
 31
0.0
  0
LINE
  5
86
330
7F
100
AcDbEntity
  8
중심선
100
AcDbLine
 10
15.74043728645272
 20
16.24717430164393
 30
0.0
 11
8.692000384563599
 21
7.84717430164391
 31
0.0
  0
LINE
  5
87
330
7F
100
AcDbEntity
  8
중심선
100
AcDbLine
 10
0.1404042013395286
 20
13.71084872107135
 30
0.0
 11
3.58671253028996
 21
13.71088815037384
 31
0.0
  0
LINE
  5
88
330
7F
100
AcDbEntity
  8
중심선
100
AcDbLine
 10
2.750260043222114
 20
10.84717430164391
 30
0.0
 11
6.196535287059397
 21
10.84717430164391
 31
0.0
  0
LINE
  5
89
330
7F
100
AcDbEntity
  8
중심선
100
AcDbLine
 10
12.29416204261559
 20
16.24717430164393
 30
0.0
 11
5.245725140726316
 21
7.84717430164391
 31
0.0
  0
LINE
  5
8A
330
7F
100
AcDbEntity
  8
중심선
100
AcDbLine
 10
10.72767329541681
 20
16.24717430164393
 30
0.0
 11
6.196535287059397
 21
10.84717430164391
 31
0.0
  0
LINE
  5
8B
330
7F
100
AcDbEntity
  8
중심선
100
AcDbLine
 10
7.28139805157953
 20
16.24717430164393
 30
0.0
 11
2.750260043222114
 21
10.84717430164391
 31
0.0
  0
LINE
  5
8C
330
7F
100
AcDbEntity
  8
중심선
100
AcDbLine
 10
5.714909304380834
 20
16.24717430164393
 30
0.0
 11
3.58671253028996
 21
13.71088815037384
 31
0.0
  0
LINE
  5
8D
330
7F
100
AcDbEntity
  8
중심선
100
AcDbLine
 10
2.268634060543552
 20
16.24717430164393
 30
0.0
 11
0.1404042013395286
 21
13.71084872107135
 31
0.0
  0
LINE
  5
8E
330
7F
100
AcDbEntity
  8
중심선
100
AcDbLine
 10
7.28139805157953
 20
16.24717430164393
 30
0.0
 11
10.72767329541681
 21
16.24717430164393
 31
0.0
  0
LINE
  5
8F
330
7F
100
AcDbEntity
  8
중심선
100
AcDbLine
 10
12.29416204261559
 20
16.24717430164393
 30
0.0
 11
15.74043728645272
 21
16.24717430164393
 31
0.0
  0
LINE
  5
90
330
7F
100
AcDbEntity
  8
중심선
100
AcDbLine
 10
19.22036997980202
 20
11.08717430171403
 30
0.0
 11
23.66174974927406
 21
11.08717430171406
 31
0.0
  0
LINE
  5
91
330
7F
100
AcDbEntity
  8
중심선
100
AcDbLine
 10
19.22039502424796
 20
13.00717430171391
 30
0.0
 11
19.22036997980202
 21
11.08717430171403
 31
0.0
  0
LINE
  5
92
330
7F
100
AcDbEntity
  8
중심선
100
AcDbLine
 10
19.22039502424796
 20
13.00717430171391
 30
0.0
 11
26.96566020931264
 21
13.00717430171391
 31
0.0
  0
LINE
  5
93
330
7F
100
AcDbEntity
  8
중심선
100
AcDbLine
 10
22.22332737316547
 20
13.45928029700563
 30
0.0
 11
24.52862924686651
 21
15.39360700705356
 31
0.0
  0
ATTDEF
  5
95
330
7F
100
AcDbEntity
  8
FORMAT
 62
     2
100
AcDbText
 10
2.883703680694412
 20
2.075366912832191
 30
0.0
 40
4.233333333333333
  1
G8C51903
 41
0.75
  7
SLDTEXTSTYLE0
 11
2.883703680694412
 21
-0.0412997538344756
 31
0.0
100
AcDbAttributeDefinition
  3

  2
AUTOATTR0
 70
     0
 74
     1
  0
ENDBLK
  5
81
330
7F
100
AcDbEntity
  8
0
100
AcDbBlockEnd
  0
BLOCK
  5
E2
330
E1
100
AcDbEntity
  8
0
100
AcDbBlockBegin
  2
_D
 70
     0
 10
0.0
 20
0.0
 30
0.0
  3
_D
  1

  0
SOLID
  5
E4
330
E1
100
AcDbEntity
  8
치수문자_일반주서
100
AcDbTrace
 10
57.62500000000002
 20
17.41162413164046
 30
0.0
 11
54.32300000000002
 21
17.91962413164046
 31
0.0
 12
54.32300000000002
 22
16.90362413164046
 32
0.0
 13
54.32300000000002
 23
16.90362413164046
 33
0.0
  0
SOLID
  5
E5
330
E1
100
AcDbEntity
  8
치수문자_일반주서
100
AcDbTrace
 10
25.87500000000002
 20
17.41162413164046
 30
0.0
 11
29.17700000000002
 21
16.90362413164046
 31
0.0
 12
29.17700000000002
 22
17.91962413164046
 32
0.0
 13
29.17700000000002
 23
17.91962413164046
 33
0.0
  0
LINE
  5
E6
330
E1
100
AcDbEntity
  8
치수문자_일반주서
100
AcDbLine
 10
36.33563391817736
 20
28.2045058476832
 30
0.0
 11
35.62469643261286
 21
28.2045058476832
 31
0.0
  0
LINE
  5
E7
330
E1
100
AcDbEntity
  8
치수문자_일반주서
100
AcDbLine
 10
35.62469643261286
 20
28.2045058476832
 30
0.0
 11
35.62469643261282
 21
22.6482558566239
 31
0.0
  0
LINE
  5
E8
330
E1
100
AcDbEntity
  8
치수문자_일반주서
100
AcDbLine
 10
35.62469643261282
 20
22.6482558566239
 30
0.0
 11
36.33563391817732
 21
22.6482558566239
 31
0.0
  0
LINE
  5
E9
330
E1
100
AcDbEntity
  8
치수문자_일반주서
100
AcDbLine
 10
47.16436678031462
 20
28.20450584768312
 30
0.0
 11
47.87530426587912
 21
28.20450584768312
 31
0.0
  0
LINE
  5
EA
330
E1
100
AcDbEntity
  8
치수문자_일반주서
100
AcDbLine
 10
47.87530426587912
 20
28.20450584768312
 30
0.0
 11
47.87530426587907
 21
22.64825585662382
 31
0.0
  0
LINE
  5
EB
330
E1
100
AcDbEntity
  8
치수문자_일반주서
100
AcDbLine
 10
47.87530426587907
 20
22.64825585662382
 30
0.0
 11
47.16436678031457
 21
22.64825585662382
 31
0.0
  0
LINE
  5
EC
330
E1
100
AcDbEntity
  8
치수문자_일반주서
100
AcDbLine
 10
57.62500000000002
 20
7.359876022814955
 30
0.0
 11
57.62500000000002
 21
18.41162413164047
 31
0.0
  0
LINE
  5
ED
330
E1
100
AcDbEntity
  8
치수문자_일반주서
100
AcDbLine
 10
25.87500000000002
 20
8.903485864543836
 30
0.0
 11
25.87500000000002
 21
18.41162413164047
 31
0.0
  0
LINE
  5
EE
330
E1
100
AcDbEntity
  8
치수문자_일반주서
100
AcDbLine
 10
57.62500000000002
 20
17.41162413164046
 30
0.0
 11
25.87500000000002
 21
17.41162413164046
 31
0.0
  0
MTEXT
  5
EF
330
E1
100
AcDbEntity
  8
치수문자_일반주서
100
AcDbMText
 10
35.11093770712612
 20
21.97683339750218
 30
0.0
 40
3.5
 41
0.0
 71
     1
 72
     1
  1

  7
SLDTEXTSTYLE0
 73
     1
 44
1.0
  0
MTEXT
  5
F0
330
E1
100
AcDbEntity
  8
치수문자_일반주서
100
AcDbMText
 10
37.22430581878872
 20
27.15999277120279
 30
0.0
 40
3.5
 41
0.0
 71
     1
 72
     1
  1
1.25
  7
SLDTEXTSTYLE0
 73
     1
 44
1.0
  0
MTEXT
  5
F1
330
E1
100
AcDbEntity
  8
치수문자_일반주서
100
AcDbMText
 10
35.93125010561195
 20
21.92336122084232
 30
0.0
 40
3.5
 41
0.0
 71
     1
 72
     1
  1
31.75
  7
SLDTEXTSTYLE0
 73
     1
 44
1.0
  0
MTEXT
  5
F2
330
E1
100
AcDbEntity
  8
치수문자_일반주서
100
AcDbMText
 10
49.72100751101969
 20
21.97683339750208
 30
0.0
 40
3.5
 41
0.0
 71
     1
 72
     1
  1

  7
SLDTEXTSTYLE0
 73
     1
 44
1.0
  0
ENDBLK
  5
E3
330
E1
100
AcDbEntity
  8
0
100
AcDbBlockEnd
  0
BLOCK
  5
F5
330
F4
100
AcDbEntity
  8
0
100
AcDbBlockBegin
  2
_D_1
 70
     0
 10
0.0
 20
0.0
 30
0.0
  3
_D_1
  1

  0
SOLID
  5
F7
330
F4
100
AcDbEntity
  8
치수문자_일반주서
100
AcDbTrace
 10
57.62500000000002
 20
31.82510866391687
 30
0.0
 11
54.32300000000002
 21
32.33310866391687
 31
0.0
 12
54.32300000000002
 22
31.31710866391687
 32
0.0
 13
54.32300000000002
 23
31.31710866391687
 33
0.0
  0
SOLID
  5
F8
330
F4
100
AcDbEntity
  8
치수문자_일반주서
100
AcDbTrace
 10
-34.45
 20
31.82510866391687
 30
0.0
 11
-31.148
 21
31.31710866391687
 31
0.0
 12
-31.148
 22
32.33310866391687
 32
0.0
 13
-31.148
 23
32.33310866391687
 33
0.0
  0
LINE
  5
F9
330
F4
100
AcDbEntity
  8
치수문자_일반주서
100
AcDbLine
 10
6.173133918177347
 20
42.61799037995961
 30
0.0
 11
5.462196432612846
 21
42.61799037995961
 31
0.0
  0
LINE
  5
FA
330
F4
100
AcDbEntity
  8
치수문자_일반주서
100
AcDbLine
 10
5.462196432612846
 20
42.61799037995961
 30
0.0
 11
5.462196432612807
 21
37.06174038890031
 31
0.0
  0
LINE
  5
FB
330
F4
100
AcDbEntity
  8
치수문자_일반주서
100
AcDbLine
 10
5.462196432612807
 20
37.06174038890031
 30
0.0
 11
6.173133918177307
 21
37.0617403889003
 31
0.0
  0
LINE
  5
FC
330
F4
100
AcDbEntity
  8
치수문자_일반주서
100
AcDbLine
 10
17.0018667803146
 20
42.61799037995953
 30
0.0
 11
17.7128042658791
 21
42.61799037995952
 31
0.0
  0
LINE
  5
FD
330
F4
100
AcDbEntity
  8
치수문자_일반주서
100
AcDbLine
 10
17.7128042658791
 20
42.61799037995952
 30
0.0
 11
17.71280426587907
 21
37.06174038890022
 31
0.0
  0
LINE
  5
FE
330
F4
100
AcDbEntity
  8
치수문자_일반주서
100
AcDbLine
 10
17.71280426587907
 20
37.06174038890022
 30
0.0
 11
17.00186678031457
 21
37.06174038890023
 31
0.0
  0
LINE
  5
FF
330
F4
100
AcDbEntity
  8
치수문자_일반주서
100
AcDbLine
 10
57.62500000000002
 20
7.359876022814955
 30
0.0
 11
57.62500000000002
 21
32.82510866391687
 31
0.0
  0
LINE
  5
100
330
F4
100
AcDbEntity
  8
치수문자_일반주서
100
AcDbLine
 10
-34.45
 20
7.351074928723895
 30
0.0
 11
-34.45
 21
32.82510866391687
 31
0.0
  0
LINE
  5
101
330
F4
100
AcDbEntity
  8
치수문자_일반주서
100
AcDbLine
 10
57.62500000000002
 20
31.82510866391687
 30
0.0
 11
-34.45
 21
31.82510866391687
 31
0.0
  0
MTEXT
  5
102
330
F4
100
AcDbEntity
  8
치수문자_일반주서
100
AcDbMText
 10
4.948437707126106
 20
36.39031792977859
 30
0.0
 40
3.5
 41
0.0
 71
     1
 72
     1
  1

  7
SLDTEXTSTYLE0
 73
     1
 44
1.0
  0
MTEXT
  5
103
330
F4
100
AcDbEntity
  8
치수문자_일반주서
100
AcDbMText
 10
7.061805818788709
 20
41.57347730347919
 30
0.0
 40
3.5
 41
0.0
 71
     1
 72
     1
  1
3.63
  7
SLDTEXTSTYLE0
 73
     1
 44
1.0
  0
MTEXT
  5
104
330
F4
100
AcDbEntity
  8
치수문자_일반주서
100
AcDbMText
 10
5.768750105611944
 20
36.33684575311873
 30
0.0
 40
3.5
 41
0.0
 71
     1
 72
     1
  1
92.08
  7
SLDTEXTSTYLE0
 73
     1
 44
1.0
  0
MTEXT
  5
105
330
F4
100
AcDbEntity
  8
치수문자_일반주서
100
AcDbMText
 10
19.55850751101967
 20
36.39031792977849
 30
0.0
 40
3.5
 41
0.0
 71
     1
 72
     1
  1

  7
SLDTEXTSTYLE0
 73
     1
 44
1.0
  0
ENDBLK
  5
F6
330
F4
100
AcDbEntity
  8
0
100
AcDbBlockEnd
  0
BLOCK
  5
109
330
108
100
AcDbEntity
  8
0
100
AcDbBlockBegin
  2
_D_2
 70
     0
 10
0.0
 20
0.0
 30
0.0
  3
_D_2
  1

  0
SOLID
  5
10B
330
108
100
AcDbEntity
  8
치수문자_일반주서
100
AcDbTrace
 10
-46.49750000000001
 20
7.938574928723908
 30
0.0
 11
-45.98950000000001
 21
11.24057492872391
 31
0.0
 12
-47.00550000000001
 22
11.24057492872391
 32
0.0
 13
-47.00550000000001
 23
11.24057492872391
 33
0.0
  0
SOLID
  5
10C
330
108
100
AcDbEntity
  8
치수문자_일반주서
100
AcDbTrace
 10
-46.49750000000001
 20
-7.936425071276121
 30
0.0
 11
-47.00550000000001
 21
-11.23842507127612
 31
0.0
 12
-45.98950000000001
 22
-11.23842507127612
 32
0.0
 13
-45.98950000000001
 23
-11.23842507127612
 33
0.0
  0
LINE
  5
10D
330
108
100
AcDbEntity
  8
치수문자_일반주서
100
AcDbLine
 10
-57.29038171604274
 20
-5.4132915023448
 30
0.0
 11
-57.29038171604273
 21
-6.124228987909301
 31
0.0
  0
LINE
  5
10E
330
108
100
AcDbEntity
  8
치수문자_일반주서
100
AcDbLine
 10
-57.29038171604273
 20
-6.124228987909301
 30
0.0
 11
-51.73413172498343
 21
-6.124228987909262
 31
0.0
  0
LINE
  5
10F
330
108
100
AcDbEntity
  8
치수문자_일반주서
100
AcDbLine
 10
-51.73413172498343
 20
-6.124228987909262
 30
0.0
 11
-51.73413172498343
 21
-5.413291502344761
 31
0.0
  0
LINE
  5
110
330
108
100
AcDbEntity
  8
치수문자_일반주서
100
AcDbLine
 10
-57.29038171604281
 20
5.415441359792458
 30
0.0
 11
-57.29038171604282
 21
6.126378845356958
 31
0.0
  0
LINE
  5
111
330
108
100
AcDbEntity
  8
치수문자_일반주서
100
AcDbLine
 10
-57.29038171604282
 20
6.126378845356958
 30
0.0
 11
-51.73413172498351
 21
6.126378845356997
 31
0.0
  0
LINE
  5
112
330
108
100
AcDbEntity
  8
치수문자_일반주서
100
AcDbLine
 10
-51.73413172498351
 20
6.126378845356997
 30
0.0
 11
-51.73413172498351
 21
5.415441359792497
 31
0.0
  0
LINE
  5
113
330
108
100
AcDbEntity
  8
치수문자_일반주서
100
AcDbLine
 10
-33.8625
 20
7.938574928723908
 30
0.0
 11
-47.49750000000001
 21
7.938574928723908
 31
0.0
  0
LINE
  5
114
330
108
100
AcDbEntity
  8
치수문자_일반주서
100
AcDbLine
 10
-33.8625
 20
-7.936425071276121
 30
0.0
 11
-47.49750000000001
 21
-7.936425071276121
 31
0.0
  0
LINE
  5
115
330
108
100
AcDbEntity
  8
치수문자_일반주서
100
AcDbLine
 10
-46.49750000000001
 20
7.938574928723908
 30
0.0
 11
-46.49750000000001
 21
14.28857492872391
 31
0.0
  0
LINE
  5
116
330
108
100
AcDbEntity
  8
치수문자_일반주서
100
AcDbLine
 10
-46.49750000000001
 20
7.938574928723908
 30
0.0
 11
-46.49750000000001
 21
-7.936425071276121
 31
0.0
  0
LINE
  5
117
330
108
100
AcDbEntity
  8
치수문자_일반주서
100
AcDbLine
 10
-46.49750000000001
 20
-7.936425071276121
 30
0.0
 11
-46.49750000000001
 21
-14.28642507127612
 31
0.0
  0
MTEXT
  5
118
330
108
100
AcDbEntity
  8
치수문자_일반주서
100
AcDbMText
 10
-56.24586863956233
 20
-4.524619601733423
 30
0.0
 40
3.5
 41
0.0
 71
     1
 72
     1
  1
0.63
  7
SLDTEXTSTYLE0
 11
-7.044195017643634E-15
 21
1.0
 31
0.0
 73
     1
 44
1.0
  0
MTEXT
  5
119
330
108
100
AcDbEntity
  8
치수문자_일반주서
100
AcDbMText
 10
-51.00923708920183
 20
-8.456894014097154
 30
0.0
 40
3.5
 41
0.0
 71
     1
 72
     1
  1
%%c
  7
SLDTEXTSTYLE0
 11
-7.044195017643634E-15
 21
1.0
 31
0.0
 73
     1
 44
1.0
  0
MTEXT
  5
11A
330
108
100
AcDbEntity
  8
치수문자_일반주서
100
AcDbMText
 10
-51.00923708920187
 20
-3.178456615723073
 30
0.0
 40
3.5
 41
0.0
 71
     1
 72
     1
  1
15.88
  7
SLDTEXTSTYLE0
 11
-7.044195017643634E-15
 21
1.0
 31
0.0
 73
     1
 44
1.0
  0
ENDBLK
  5
10A
330
108
100
AcDbEntity
  8
0
100
AcDbBlockEnd
  0
BLOCK
  5
11D
330
11C
100
AcDbEntity
  8
0
100
AcDbBlockBegin
  2
_D_3
 70
     0
 10
0.0
 20
0.0
 30
0.0
  3
_D_3
  1

  0
SOLID
  5
11F
330
11C
100
AcDbEntity
  8
치수문자_일반주서
100
AcDbTrace
 10
37.38205369349784
 20
7.938574928723893
 30
0.0
 11
36.87405369349784
 21
4.636574928723894
 31
0.0
 12
37.89005369349784
 22
4.636574928723894
 32
0.0
 13
37.89005369349784
 23
4.636574928723894
 33
0.0
  0
SOLID
  5
120
330
11C
100
AcDbEntity
  8
치수문자_일반주서
100
AcDbTrace
 10
37.38205369349784
 20
-7.936425071276107
 30
0.0
 11
37.89005369349784
 21
-4.634425071276107
 31
0.0
 12
36.87405369349784
 22
-4.634425071276107
 32
0.0
 13
36.87405369349784
 23
-4.634425071276107
 33
0.0
  0
LINE
  5
121
330
11C
100
AcDbEntity
  8
치수문자_일반주서
100
AcDbLine
 10
26.58917197745512
 20
16.43652681902468
 30
0.0
 11
26.58917197745513
 21
15.72558933346018
 31
0.0
  0
LINE
  5
122
330
11C
100
AcDbEntity
  8
치수문자_일반주서
100
AcDbLine
 10
26.58917197745513
 20
15.72558933346018
 30
0.0
 11
32.14542196851443
 21
15.72558933346022
 31
0.0
  0
LINE
  5
123
330
11C
100
AcDbEntity
  8
치수문자_일반주서
100
AcDbLine
 10
32.14542196851443
 20
15.72558933346022
 30
0.0
 11
32.14542196851443
 21
16.43652681902472
 31
0.0
  0
LINE
  5
124
330
11C
100
AcDbEntity
  8
치수문자_일반주서
100
AcDbLine
 10
26.58917197745504
 20
27.26525968116194
 30
0.0
 11
26.58917197745504
 21
27.97619716672644
 31
0.0
  0
LINE
  5
125
330
11C
100
AcDbEntity
  8
치수문자_일반주서
100
AcDbLine
 10
26.58917197745504
 20
27.97619716672644
 30
0.0
 11
32.14542196851435
 21
27.97619716672648
 31
0.0
  0
LINE
  5
126
330
11C
100
AcDbEntity
  8
치수문자_일반주서
100
AcDbLine
 10
32.14542196851435
 20
27.97619716672648
 30
0.0
 11
32.14542196851436
 21
27.26525968116198
 31
0.0
  0
LINE
  5
127
330
11C
100
AcDbEntity
  8
치수문자_일반주서
100
AcDbLine
 10
40.56567313615795
 20
7.938574928723893
 30
0.0
 11
36.38205369349784
 21
7.938574928723893
 31
0.0
  0
LINE
  5
128
330
11C
100
AcDbEntity
  8
치수문자_일반주서
100
AcDbLine
 10
40.56567313615786
 20
-7.936425071276107
 30
0.0
 11
36.38205369349784
 21
-7.936425071276107
 31
0.0
  0
LINE
  5
129
330
11C
100
AcDbEntity
  8
치수문자_일반주서
100
AcDbLine
 10
37.38205369349784
 20
7.938574928723893
 30
0.0
 11
37.38205369349784
 21
30.30886219291441
 31
0.0
  0
LINE
  5
12A
330
11C
100
AcDbEntity
  8
치수문자_일반주서
100
AcDbLine
 10
37.38205369349784
 20
7.938574928723893
 30
0.0
 11
37.38205369349784
 21
-7.936425071276107
 31
0.0
  0
MTEXT
  5
12B
330
11C
100
AcDbEntity
  8
치수문자_일반주서
100
AcDbMText
 10
27.63368505393552
 20
17.32519871963606
 30
0.0
 40
3.5
 41
0.0
 71
     1
 72
     1
  1
0.63
  7
SLDTEXTSTYLE0
 11
-7.044195017643634E-15
 21
1.0
 31
0.0
 73
     1
 44
1.0
  0
MTEXT
  5
12C
330
11C
100
AcDbEntity
  8
치수문자_일반주서
100
AcDbMText
 10
32.87031660429603
 20
13.39292430727233
 30
0.0
 40
3.5
 41
0.0
 71
     1
 72
     1
  1
%%c
  7
SLDTEXTSTYLE0
 11
-7.044195017643634E-15
 21
1.0
 31
0.0
 73
     1
 44
1.0
  0
MTEXT
  5
12D
330
11C
100
AcDbEntity
  8
치수문자_일반주서
100
AcDbMText
 10
32.87031660429599
 20
18.67136170564641
 30
0.0
 40
3.5
 41
0.0
 71
     1
 72
     1
  1
15.88
  7
SLDTEXTSTYLE0
 11
-7.044195017643634E-15
 21
1.0
 31
0.0
 73
     1
 44
1.0
  0
ENDBLK
  5
11E
330
11C
100
AcDbEntity
  8
0
100
AcDbBlockEnd
  0
BLOCK
  5
136
330
135
100
AcDbEntity
  8
0
100
AcDbBlockBegin
  2
SW_DOWELSYMBOL_0
 70
     0
 10
0.0
 20
0.0
 30
0.0
  3
SW_DOWELSYMBOL_0
  1

  0
CIRCLE
  5
138
330
135
100
AcDbEntity
  8
해칭선
 62
     0
100
AcDbCircle
 10
0.0
 20
0.0
 30
0.0
 40
3.000000000000001
  0
HATCH
  5
139
330
135
100
AcDbEntity
  8
0
  6
Continuous
 62
     0
370
     0
100
AcDbHatch
 10
0.0
 20
0.0
 30
0.0
210
0.0
220
0.0
230
1.0
  2
SOLID
 70
     1
 71
     0
 91
        1
 92
        0
 93
        3
 72
     2
 10
0.0
 20
0.0
 40
3.000000000000001
 50
0.0
 51
90.0
 73
     1
 72
     1
 10
0.0
 20
3.000000000000001
 11
0.0
 21
0.0
 72
     1
 10
0.0
 20
0.0
 11
3.000000000000003
 21
0.0
 97
        0
 75
     0
 76
     1
 98
        1
 10
0.0
 20
0.0
  0
HATCH
  5
13A
330
135
100
AcDbEntity
  8
0
  6
Continuous
 62
     0
370
     0
100
AcDbHatch
 10
0.0
 20
0.0
 30
0.0
210
0.0
220
0.0
230
1.0
  2
SOLID
 70
     1
 71
     0
 91
        1
 92
        0
 93
        3
 72
     2
 10
0.0
 20
0.0
 40
3.000000000000001
 50
180.0
 51
270.0000000000008
 73
     1
 72
     1
 10
0.0
 20
-3.000000000000001
 11
0.0
 21
0.0
 72
     1
 10
0.0
 20
0.0
 11
-3.000000000000001
 21
0.0
 97
        0
 75
     0
 76
     1
 98
        1
 10
0.0
 20
0.0
  0
ENDBLK
  5
137
330
135
100
AcDbEntity
  8
0
100
AcDbBlockEnd
  0
BLOCK
  5
1C5
330
1C4
100
AcDbEntity
  8
0
100
AcDbBlockBegin
  2
*D8
 70
     1
 10
0.0
 20
0.0
 30
0.0
  3
*D8
  1

  0
LINE
  5
1C6
330
1C4
100
AcDbEntity
  8
치수문자_일반주서
 62
     0
370
    -2
100
AcDbLine
 10
108.4975
 20
43.8977049546915
 30
0.0
 11
108.4975
 21
54.07975559630662
 31
0.0
  0
LINE
  5
1C7
330
1C4
100
AcDbEntity
  8
치수문자_일반주서
 62
     0
370
    -2
100
AcDbLine
 10
76.74750000000002
 20
43.86261589048261
 30
0.0
 11
76.74750000000002
 21
54.07975559630662
 31
0.0
  0
LINE
  5
1C8
330
1C4
100
AcDbEntity
  8
치수문자_일반주서
 62
     0
370
    -2
100
AcDbLine
 10
105.1955
 20
54.07975559630662
 30
0.0
 11
80.04950000000002
 21
54.07975559630662
 31
0.0
  0
SOLID
  5
1C9
330
1C4
100
AcDbEntity
  8
치수문자_일반주서
 62
     0
100
AcDbTrace
 10
105.1955
 20
53.52942226297328
 30
0.0
 11
105.1955
 21
54.63008892963995
 31
0.0
 12
108.4975
 22
54.07975559630662
 32
0.0
 13
108.4975
 23
54.07975559630662
 33
0.0
  0
SOLID
  5
1CA
330
1C4
100
AcDbEntity
  8
치수문자_일반주서
 62
     0
100
AcDbTrace
 10
80.04950000000002
 20
54.63008892963995
 30
0.0
 11
80.04950000000002
 21
53.52942226297328
 31
0.0
 12
76.74750000000002
 22
54.07975559630662
 32
0.0
 13
76.74750000000002
 23
54.07975559630662
 33
0.0
  0
MTEXT
  5
1CB
330
1C4
100
AcDbEntity
  8
치수문자_일반주서
 62
     0
100
AcDbMText
 10
92.62250000000002
 20
58.45475559630662
 30
0.0
 40
3.5
 41
0.0
 71
     2
 72
     1
  1
\A1;31.75 [1 1/4]
  7
SLDTEXTSTYLE0
 73
     1
 44
1.0
  0
POINT
  5
1CC
330
1C4
100
AcDbEntity
  8
Defpoints
 62
     0
100
AcDbPoint
 10
108.4975
 20
43.8352049546915
 30
0.0
  0
POINT
  5
1CD
330
1C4
100
AcDbEntity
  8
Defpoints
 62
     0
100
AcDbPoint
 10
76.74750000000002
 20
43.80011589048261
 30
0.0
  0
POINT
  5
1CE
330
1C4
100
AcDbEntity
  8
Defpoints
 62
     0
100
AcDbPoint
 10
76.74750000000002
 20
54.07975559630662
 30
0.0
  0
ENDBLK
  5
1CF
330
1C4
100
AcDbEntity
  8
0
100
AcDbBlockEnd
  0
BLOCK
  5
1D2
330
1D1
100
AcDbEntity
  8
0
100
AcDbBlockBegin
  2
*D9
 70
     1
 10
0.0
 20
0.0
 30
0.0
  3
*D9
  1

  0
LINE
  5
1D3
330
1D1
100
AcDbEntity
  8
치수문자_일반주서
 62
     0
370
    -2
100
AcDbLine
 10
108.4975
 20
43.8977049546915
 30
0.0
 11
108.4975
 21
68.49324012858304
 31
0.0
  0
LINE
  5
1D4
330
1D1
100
AcDbEntity
  8
치수문자_일반주서
 62
     0
370
    -2
100
AcDbLine
 10
16.42250000000004
 20
42.3102049546915
 30
0.0
 11
16.42250000000004
 21
68.49324012858304
 31
0.0
  0
LINE
  5
1D5
330
1D1
100
AcDbEntity
  8
치수문자_일반주서
 62
     0
370
    -2
100
AcDbLine
 10
105.1955
 20
68.49324012858304
 30
0.0
 11
19.72450000000004
 21
68.49324012858304
 31
0.0
  0
SOLID
  5
1D6
330
1D1
100
AcDbEntity
  8
치수문자_일반주서
 62
     0
100
AcDbTrace
 10
105.1955
 20
67.94290679524971
 30
0.0
 11
105.1955
 21
69.04357346191637
 31
0.0
 12
108.4975
 22
68.49324012858304
 32
0.0
 13
108.4975
 23
68.49324012858304
 33
0.0
  0
SOLID
  5
1D7
330
1D1
100
AcDbEntity
  8
치수문자_일반주서
 62
     0
100
AcDbTrace
 10
19.72450000000004
 20
69.04357346191637
 30
0.0
 11
19.72450000000004
 21
67.94290679524971
 31
0.0
 12
16.42250000000004
 22
68.49324012858304
 32
0.0
 13
16.42250000000004
 23
68.49324012858304
 33
0.0
  0
MTEXT
  5
1D8
330
1D1
100
AcDbEntity
  8
치수문자_일반주서
 62
     0
100
AcDbMText
 10
62.46000000000005
 20
72.86824012858304
 30
0.0
 40
3.5
 41
0.0
 71
     2
 72
     1
  1
\A1;92.08 [3 5/8]
  7
SLDTEXTSTYLE0
 73
     1
 44
1.0
  0
POINT
  5
1D9
330
1D1
100
AcDbEntity
  8
Defpoints
 62
     0
100
AcDbPoint
 10
108.4975
 20
43.8352049546915
 30
0.0
  0
POINT
  5
1DA
330
1D1
100
AcDbEntity
  8
Defpoints
 62
     0
100
AcDbPoint
 10
16.42250000000004
 20
42.2477049546915
 30
0.0
  0
POINT
  5
1DB
330
1D1
100
AcDbEntity
  8
Defpoints
 62
     0
100
AcDbPoint
 10
16.42250000000004
 20
68.49324012858304
 30
0.0
  0
ENDBLK
  5
1DC
330
1D1
100
AcDbEntity
  8
0
100
AcDbBlockEnd
  0
BLOCK
  5
1DF
330
1DE
100
AcDbEntity
  8
0
100
AcDbBlockBegin
  2
*D10
 70
     1
 10
0.0
 20
0.0
 30
0.0
  3
*D10
  1

  0
LINE
  5
1E0
330
1DE
100
AcDbEntity
  8
치수문자_일반주서
 62
     0
370
    -2
100
AcDbLine
 10
17.94750000000003
 20
43.83520495469151
 30
0.0
 11
4.375000000000015
 21
43.83520495469146
 31
0.0
  0
LINE
  5
1E1
330
1DE
100
AcDbEntity
  8
치수문자_일반주서
 62
     0
370
    -2
100
AcDbLine
 10
17.94750000000003
 20
27.96020495469149
 30
0.0
 11
4.37500000000007
 21
27.96020495469144
 31
0.0
  0
LINE
  5
1E2
330
1DE
100
AcDbEntity
  8
치수문자_일반주서
 62
     0
370
    -2
100
AcDbLine
 10
4.375000000000027
 20
40.53320495469146
 30
0.0
 11
4.375000000000059
 21
31.26220495469144
 31
0.0
  0
SOLID
  5
1E3
330
1DE
100
AcDbEntity
  8
치수문자_일반주서
 62
     0
100
AcDbTrace
 10
4.92533333333336
 20
40.53320495469146
 30
0.0
 11
3.824666666666694
 21
40.53320495469146
 31
0.0
 12
4.375000000000015
 22
43.83520495469146
 32
0.0
 13
4.375000000000015
 23
43.83520495469146
 33
0.0
  0
SOLID
  5
1E4
330
1DE
100
AcDbEntity
  8
치수문자_일반주서
 62
     0
100
AcDbTrace
 10
3.824666666666726
 20
31.26220495469143
 30
0.0
 11
4.925333333333392
 21
31.26220495469144
 31
0.0
 12
4.37500000000007
 22
27.96020495469144
 32
0.0
 13
4.37500000000007
 23
27.96020495469144
 33
0.0
  0
MTEXT
  5
1E5
330
1DE
100
AcDbEntity
  8
치수문자_일반주서
 62
     0
100
AcDbMText
 10
0.0000000000000426
 20
35.89770495469151
 30
0.0
 40
3.5
 41
0.0
 71
     2
 72
     1
  1
\A1;%%c15.88 [5/8]
  7
SLDTEXTSTYLE0
 11
-3.468791308435129E-15
 21
1.0
 31
0.0
 73
     1
 44
1.0
  0
POINT
  5
1E6
330
1DE
100
AcDbEntity
  8
Defpoints
 62
     0
100
AcDbPoint
 10
18.01000000000003
 20
43.83520495469151
 30
0.0
  0
POINT
  5
1E7
330
1DE
100
AcDbEntity
  8
Defpoints
 62
     0
100
AcDbPoint
 10
18.01000000000003
 20
27.96020495469149
 30
0.0
  0
POINT
  5
1E8
330
1DE
100
AcDbEntity
  8
Defpoints
 62
     0
100
AcDbPoint
 10
4.375000000000071
 20
27.96020495469144
 30
0.0
  0
ENDBLK
  5
1E9
330
1DE
100
AcDbEntity
  8
0
100
AcDbBlockEnd
  0
BLOCK
  5
1EC
330
1EB
100
AcDbEntity
  8
0
100
AcDbBlockBegin
  2
*D11
 70
     1
 10
0.0
 20
0.0
 30
0.0
  3
*D11
  1

  0
LINE
  5
1ED
330
1EB
100
AcDbEntity
  8
치수문자_일반주서
 62
     0
370
    -2
100
AcDbLine
 10
108.56
 20
43.8352049546915
 30
0.0
 11
123.3759474142518
 21
43.83520495469156
 31
0.0
  0
LINE
  5
1EE
330
1EB
100
AcDbEntity
  8
치수문자_일반주서
 62
     0
370
    -2
100
AcDbLine
 10
108.56
 20
27.96020495469156
 30
0.0
 11
123.3759474142519
 21
27.96020495469162
 31
0.0
  0
LINE
  5
1EF
330
1EB
100
AcDbEntity
  8
치수문자_일반주서
 62
     0
370
    -2
100
AcDbLine
 10
123.3759474142518
 20
43.83520495469156
 30
0.0
 11
123.3759474142517
 21
78.65795495469172
 31
0.0
  0
LINE
  5
1F0
330
1EB
100
AcDbEntity
  8
치수문자_일반주서
 62
     0
370
    -2
100
AcDbLine
 10
123.3759474142518
 20
43.83520495469156
 30
0.0
 11
123.3759474142519
 21
27.96020495469162
 31
0.0
  0
LINE
  5
1F1
330
1EB
100
AcDbEntity
  8
치수문자_일반주서
 62
     0
370
    -2
100
AcDbLine
 10
123.3759474142518
 20
47.13720495469155
 30
0.0
 11
123.3759474142518
 21
50.43920495469155
 31
0.0
  0
LINE
  5
1F2
330
1EB
100
AcDbEntity
  8
치수문자_일반주서
 62
     0
370
    -2
100
AcDbLine
 10
123.3759474142519
 20
24.65820495469162
 30
0.0
 11
123.3759474142519
 21
21.35620495469162
 31
0.0
  0
SOLID
  5
1F3
330
1EB
100
AcDbEntity
  8
치수문자_일반주서
 62
     0
100
AcDbTrace
 10
122.8256140809185
 20
47.13720495469155
 30
0.0
 11
123.9262807475851
 21
47.13720495469155
 31
0.0
 12
123.3759474142518
 22
43.83520495469156
 32
0.0
 13
123.3759474142518
 23
43.83520495469156
 33
0.0
  0
SOLID
  5
1F4
330
1EB
100
AcDbEntity
  8
치수문자_일반주서
 62
     0
100
AcDbTrace
 10
123.9262807475852
 20
24.65820495469162
 30
0.0
 11
122.8256140809186
 21
24.65820495469162
 31
0.0
 12
123.3759474142519
 22
27.96020495469162
 32
0.0
 13
123.3759474142519
 23
27.96020495469162
 33
0.0
  0
MTEXT
  5
1F5
330
1EB
100
AcDbEntity
  8
치수문자_일반주서
 62
     0
100
AcDbMText
 10
119.0009474142517
 20
64.6579549546917
 30
0.0
 40
3.5
 41
0.0
 71
     2
 72
     1
  1
\A1;%%c15.88 [5/8]
  7
SLDTEXTSTYLE0
 11
-3.580687802255636E-15
 21
1.0
 31
0.0
 73
     1
 44
1.0
  0
POINT
  5
1F6
330
1EB
100
AcDbEntity
  8
Defpoints
 62
     0
100
AcDbPoint
 10
108.4975
 20
43.8352049546915
 30
0.0
  0
POINT
  5
210
330
1EB
100
AcDbEntity
  8
Defpoints
 62
     0
100
AcDbPoint
 10
108.4975
 20
27.96020495469156
 30
0.0
  0
POINT
  5
211
330
1EB
100
AcDbEntity
  8
Defpoints
 62
     0
100
AcDbPoint
 10
123.3759474142519
 20
27.96020495469162
 30
0.0
  0
ENDBLK
  5
1F7
330
1EB
100
AcDbEntity
  8
0
100
AcDbBlockEnd
  0
BLOCK
  5
203
330
202
100
AcDbEntity
  8
0
100
AcDbBlockBegin
  2
*D12
 70
     1
 10
0.0
 20
0.0
 30
0.0
  3
*D12
  1

  0
LINE
  5
204
330
202
100
AcDbEntity
  8
치수문자_일반주서
 62
     0
370
    -2
100
AcDbLine
 10
110.055718804118
 20
25.77044706950684
 30
0.0
 11
131.4433476602523
 21
0.000000000000016
 31
0.0
  0
MTEXT
  5
205
330
202
100
AcDbEntity
  8
치수문자_일반주서
 62
     0
100
AcDbMText
 10
123.823881872772
 20
13.29118712440382
 30
0.0
 40
3.5
 41
0.0
 71
     5
 72
     1
  1
\A1;R1.52 [R0.060]
  7
SLDTEXTSTYLE0
 11
0.6386368520322568
 21
-0.7695082658596523
 31
0.0
 73
     1
 44
1.0
  0
LINE
  5
206
330
202
100
AcDbEntity
  8
치수문자_일반주서
 62
     0
370
    -2
100
AcDbLine
 10
106.9736573562104
 20
29.48409396054553
 30
0.0
 11
107.9469399187075
 21
28.31136336337541
 31
0.0
  0
SOLID
  5
207
330
202
100
AcDbEntity
  8
치수문자_일반주서
 62
     0
100
AcDbTrace
 10
110.4792048530961
 20
26.12191021707526
 30
0.0
 11
109.6322327551399
 21
25.41898392193842
 31
0.0
 12
107.9469399187075
 22
28.31136336337541
 32
0.0
 13
107.9469399187075
 23
28.31136336337541
 33
0.0
  0
POINT
  5
208
330
202
100
AcDbEntity
  8
Defpoints
 62
     0
100
AcDbPoint
 10
107.9469399187075
 20
28.31136336337541
 30
0.0
  0
POINT
  5
209
330
202
100
AcDbEntity
  8
Defpoints
 62
     0
100
AcDbPoint
 10
106.9736573562104
 20
29.48409396054553
 30
0.0
  0
ENDBLK
  5
20B
330
202
100
AcDbEntity
  8
0
100
AcDbBlockEnd
  0
BLOCK
  5
255
330
254
100
AcDbEntity
  8
0
100
AcDbBlockBegin
  2
*D13
 70
     1
 10
0.0
 20
0.0
 30
0.0
  3
*D13
  1

  0
LINE
  5
257
330
254
100
AcDbEntity
  8
치수문자_일반주서
 62
     0
370
    -2
100
AcDbLine
 10
43.74999993714334
 20
8.000573504262029
 30
0.0
 11
43.74999993714334
 21
18.18262414587715
 31
0.0
  0
LINE
  5
258
330
254
100
AcDbEntity
  8
치수문자_일반주서
 62
     0
370
    -2
100
AcDbLine
 10
11.99999993714334
 20
7.965484440053139
 30
0.0
 11
11.99999993714334
 21
18.18262414587715
 31
0.0
  0
LINE
  5
259
330
254
100
AcDbEntity
  8
치수문자_일반주서
 62
     0
370
    -2
100
AcDbLine
 10
40.44799993714334
 20
18.18262414587715
 30
0.0
 11
15.30199993714334
 21
18.18262414587715
 31
0.0
  0
SOLID
  5
25A
330
254
100
AcDbEntity
  8
치수문자_일반주서
 62
     0
100
AcDbTrace
 10
40.44799993714334
 20
17.63229081254381
 30
0.0
 11
40.44799993714334
 21
18.73295747921048
 31
0.0
 12
43.74999993714334
 22
18.18262414587715
 32
0.0
 13
43.74999993714334
 23
18.18262414587715
 33
0.0
  0
SOLID
  5
25B
330
254
100
AcDbEntity
  8
치수문자_일반주서
 62
     0
100
AcDbTrace
 10
15.30199993714334
 20
18.73295747921048
 30
0.0
 11
15.30199993714334
 21
17.63229081254381
 31
0.0
 12
11.99999993714334
 22
18.18262414587715
 32
0.0
 13
11.99999993714334
 23
18.18262414587715
 33
0.0
  0
MTEXT
  5
25C
330
254
100
AcDbEntity
  8
치수문자_일반주서
 62
     0
100
AcDbMText
 10
27.87499993714334
 20
22.55762414587715
 30
0.0
 40
3.5
 41
0.0
 71
     2
 72
     1
  1
\A1;31.75 [1 1/4]
  7
SLDTEXTSTYLE0
 73
     1
 44
1.0
  0
POINT
  5
25D
330
254
100
AcDbEntity
  8
Defpoints
 62
     0
100
AcDbPoint
 10
43.74999993714334
 20
7.938073504262029
 30
0.0
  0
POINT
  5
25E
330
254
100
AcDbEntity
  8
Defpoints
 62
     0
100
AcDbPoint
 10
11.99999993714334
 20
7.902984440053139
 30
0.0
  0
POINT
  5
25F
330
254
100
AcDbEntity
  8
Defpoints
 62
     0
100
AcDbPoint
 10
11.99999993714334
 20
18.18262414587715
 30
0.0
  0
ENDBLK
  5
256
330
254
100
AcDbEntity
  8
0
100
AcDbBlockEnd
  0
BLOCK
  5
261
330
260
100
AcDbEntity
  8
0
100
AcDbBlockBegin
  2
*D14
 70
     1
 10
0.0
 20
0.0
 30
0.0
  3
*D14
  1

  0
LINE
  5
263
330
260
100
AcDbEntity
  8
치수문자_일반주서
 62
     0
370
    -2
100
AcDbLine
 10
43.74999993714334
 20
8.000573504262029
 30
0.0
 11
43.74999993714334
 21
32.59610867815357
 31
0.0
  0
LINE
  5
264
330
260
100
AcDbEntity
  8
치수문자_일반주서
 62
     0
370
    -2
100
AcDbLine
 10
-48.32500006285663
 20
6.41307350426203
 30
0.0
 11
-48.32500006285663
 21
32.59610867815357
 31
0.0
  0
LINE
  5
265
330
260
100
AcDbEntity
  8
치수문자_일반주서
 62
     0
370
    -2
100
AcDbLine
 10
40.44799993714334
 20
32.59610867815357
 30
0.0
 11
-45.02300006285663
 21
32.59610867815357
 31
0.0
  0
SOLID
  5
266
330
260
100
AcDbEntity
  8
치수문자_일반주서
 62
     0
100
AcDbTrace
 10
40.44799993714334
 20
32.04577534482024
 30
0.0
 11
40.44799993714334
 21
33.1464420114869
 31
0.0
 12
43.74999993714334
 22
32.59610867815357
 32
0.0
 13
43.74999993714334
 23
32.59610867815357
 33
0.0
  0
SOLID
  5
267
330
260
100
AcDbEntity
  8
치수문자_일반주서
 62
     0
100
AcDbTrace
 10
-45.02300006285663
 20
33.1464420114869
 30
0.0
 11
-45.02300006285663
 21
32.04577534482024
 31
0.0
 12
-48.32500006285663
 22
32.59610867815357
 32
0.0
 13
-48.32500006285663
 23
32.59610867815357
 33
0.0
  0
MTEXT
  5
268
330
260
100
AcDbEntity
  8
치수문자_일반주서
 62
     0
100
AcDbMText
 10
-2.287500062856623
 20
36.97110867815357
 30
0.0
 40
3.5
 41
0.0
 71
     2
 72
     1
  1
\A1;92.08 [3 5/8]
  7
SLDTEXTSTYLE0
 73
     1
 44
1.0
  0
POINT
  5
269
330
260
100
AcDbEntity
  8
Defpoints
 62
     0
100
AcDbPoint
 10
43.74999993714334
 20
7.938073504262029
 30
0.0
  0
POINT
  5
26A
330
260
100
AcDbEntity
  8
Defpoints
 62
     0
100
AcDbPoint
 10
-48.32500006285663
 20
6.35057350426203
 30
0.0
  0
POINT
  5
26B
330
260
100
AcDbEntity
  8
Defpoints
 62
     0
100
AcDbPoint
 10
-48.32500006285663
 20
32.59610867815357
 30
0.0
  0
ENDBLK
  5
262
330
260
100
AcDbEntity
  8
0
100
AcDbBlockEnd
  0
BLOCK
  5
26D
330
26C
100
AcDbEntity
  8
0
100
AcDbBlockBegin
  2
*D15
 70
     1
 10
0.0
 20
0.0
 30
0.0
  3
*D15
  1

  0
LINE
  5
26F
330
26C
100
AcDbEntity
  8
치수문자_일반주서
 62
     0
370
    -2
100
AcDbLine
 10
-46.80000006285664
 20
7.938073504262043
 30
0.0
 11
-60.37250006285666
 21
7.938073504261991
 31
0.0
  0
LINE
  5
270
330
26C
100
AcDbEntity
  8
치수문자_일반주서
 62
     0
370
    -2
100
AcDbLine
 10
-46.80000006285664
 20
-7.936926495737982
 30
0.0
 11
-60.3725000628566
 21
-7.936926495738034
 31
0.0
  0
LINE
  5
271
330
26C
100
AcDbEntity
  8
치수문자_일반주서
 62
     0
370
    -2
100
AcDbLine
 10
-60.37250006285664
 20
4.636073504261991
 30
0.0
 11
-60.37250006285662
 21
-4.634926495738035
 31
0.0
  0
SOLID
  5
272
330
26C
100
AcDbEntity
  8
치수문자_일반주서
 62
     0
100
AcDbTrace
 10
-59.82216672952331
 20
4.636073504261993
 30
0.0
 11
-60.92283339618998
 21
4.636073504261989
 31
0.0
 12
-60.37250006285666
 22
7.938073504261991
 32
0.0
 13
-60.37250006285666
 23
7.938073504261991
 33
0.0
  0
SOLID
  5
273
330
26C
100
AcDbEntity
  8
치수문자_일반주서
 62
     0
100
AcDbTrace
 10
-60.92283339618995
 20
-4.634926495738037
 30
0.0
 11
-59.82216672952328
 21
-4.634926495738033
 31
0.0
 12
-60.3725000628566
 22
-7.936926495738034
 32
0.0
 13
-60.3725000628566
 23
-7.936926495738034
 33
0.0
  0
MTEXT
  5
274
330
26C
100
AcDbEntity
  8
치수문자_일반주서
 62
     0
100
AcDbMText
 10
-64.74750006285663
 20
0.0005735042620345
 30
0.0
 40
3.5
 41
0.0
 71
     2
 72
     1
  1
\A1;%%c15.88 [5/8]
  7
SLDTEXTSTYLE0
 11
-3.580687802255617E-15
 21
1.0
 31
0.0
 73
     1
 44
1.0
  0
POINT
  5
275
330
26C
100
AcDbEntity
  8
Defpoints
 62
     0
100
AcDbPoint
 10
-46.73750006285664
 20
7.938073504262043
 30
0.0
  0
POINT
  5
276
330
26C
100
AcDbEntity
  8
Defpoints
 62
     0
100
AcDbPoint
 10
-46.73750006285664
 20
-7.936926495737982
 30
0.0
  0
POINT
  5
277
330
26C
100
AcDbEntity
  8
Defpoints
 62
     0
100
AcDbPoint
 10
-60.3725000628566
 20
-7.936926495738033
 30
0.0
  0
ENDBLK
  5
26E
330
26C
100
AcDbEntity
  8
0
100
AcDbBlockEnd
  0
BLOCK
  5
279
330
278
100
AcDbEntity
  8
0
100
AcDbBlockBegin
  2
*D16
 70
     1
 10
0.0
 20
0.0
 30
0.0
  3
*D16
  1

  0
LINE
  5
27B
330
278
100
AcDbEntity
  8
치수문자_일반주서
 62
     0
370
    -2
100
AcDbLine
 10
43.81249993714334
 20
7.938073504262029
 30
0.0
 11
58.62844735139514
 21
7.938073504262082
 31
0.0
  0
LINE
  5
27C
330
278
100
AcDbEntity
  8
치수문자_일반주서
 62
     0
370
    -2
100
AcDbLine
 10
43.81249993714334
 20
-7.936926495737911
 30
0.0
 11
58.6284473513952
 21
-7.93692649573785
 31
0.0
  0
LINE
  5
27D
330
278
100
AcDbEntity
  8
치수문자_일반주서
 62
     0
370
    -2
100
AcDbLine
 10
58.62844735139514
 20
7.938073504262082
 30
0.0
 11
58.62844735139502
 21
42.76082350426225
 31
0.0
  0
LINE
  5
27E
330
278
100
AcDbEntity
  8
치수문자_일반주서
 62
     0
370
    -2
100
AcDbLine
 10
58.62844735139514
 20
7.938073504262082
 30
0.0
 11
58.6284473513952
 21
-7.93692649573785
 31
0.0
  0
LINE
  5
27F
330
278
100
AcDbEntity
  8
치수문자_일반주서
 62
     0
370
    -2
100
AcDbLine
 10
58.62844735139512
 20
11.24007350426208
 30
0.0
 11
58.62844735139511
 21
14.54207350426208
 31
0.0
  0
LINE
  5
280
330
278
100
AcDbEntity
  8
치수문자_일반주서
 62
     0
370
    -2
100
AcDbLine
 10
58.62844735139521
 20
-11.23892649573785
 30
0.0
 11
58.62844735139522
 21
-14.54092649573785
 31
0.0
  0
SOLID
  5
281
330
278
100
AcDbEntity
  8
치수문자_일반주서
 62
     0
100
AcDbTrace
 10
58.07811401806179
 20
11.24007350426208
 30
0.0
 11
59.17878068472846
 21
11.24007350426208
 31
0.0
 12
58.62844735139514
 22
7.938073504262082
 32
0.0
 13
58.62844735139514
 23
7.938073504262082
 33
0.0
  0
SOLID
  5
282
330
278
100
AcDbEntity
  8
치수문자_일반주서
 62
     0
100
AcDbTrace
 10
59.17878068472854
 20
-11.23892649573785
 30
0.0
 11
58.07811401806187
 21
-11.23892649573785
 31
0.0
 12
58.6284473513952
 22
-7.93692649573785
 32
0.0
 13
58.6284473513952
 23
-7.93692649573785
 33
0.0
  0
MTEXT
  5
283
330
278
100
AcDbEntity
  8
치수문자_일반주서
 62
     0
100
AcDbMText
 10
54.25344735139507
 20
28.76082350426223
 30
0.0
 40
3.5
 41
0.0
 71
     2
 72
     1
  1
\A1;%%c15.88 [5/8]
  7
SLDTEXTSTYLE0
 11
-3.580687802255637E-15
 21
1.0
 31
0.0
 73
     1
 44
1.0
  0
POINT
  5
284
330
278
100
AcDbEntity
  8
Defpoints
 62
     0
100
AcDbPoint
 10
43.74999993714334
 20
7.938073504262029
 30
0.0
  0
POINT
  5
285
330
278
100
AcDbEntity
  8
Defpoints
 62
     0
100
AcDbPoint
 10
43.74999993714334
 20
-7.936926495737911
 30
0.0
  0
POINT
  5
286
330
278
100
AcDbEntity
  8
Defpoints
 62
     0
100
AcDbPoint
 10
58.62844735139521
 20
-7.936926495737855
 30
0.0
  0
ENDBLK
  5
27A
330
278
100
AcDbEntity
  8
0
100
AcDbBlockEnd
  0
BLOCK
  5
288
330
287
100
AcDbEntity
  8
0
100
AcDbBlockBegin
  2
*D17
 70
     1
 10
0.0
 20
0.0
 30
0.0
  3
*D17
  1

  0
LINE
  5
28A
330
287
100
AcDbEntity
  8
치수문자_일반주서
 62
     0
370
    -2
100
AcDbLine
 10
45.30821874126135
 20
-10.12668438092263
 30
0.0
 11
66.69584759739561
 21
-35.89713145042946
 31
0.0
  0
MTEXT
  5
28B
330
287
100
AcDbEntity
  8
치수문자_일반주서
 62
     0
100
AcDbMText
 10
59.07638180991533
 20
-22.60594432602565
 30
0.0
 40
3.5
 41
0.0
 71
     5
 72
     1
  1
\A1;R1.52 [R0.060]
  7
SLDTEXTSTYLE0
 11
0.6386368520322568
 21
-0.7695082658596523
 31
0.0
 73
     1
 44
1.0
  0
LINE
  5
28C
330
287
100
AcDbEntity
  8
치수문자_일반주서
 62
     0
370
    -2
100
AcDbLine
 10
42.22615729335368
 20
-6.413037489883944
 30
0.0
 11
43.19943985585084
 21
-7.585768087054056
 31
0.0
  0
SOLID
  5
28D
330
287
100
AcDbEntity
  8
치수문자_일반주서
 62
     0
100
AcDbTrace
 10
45.73170479023945
 20
-9.775221233354209
 30
0.0
 11
44.88473269228325
 21
-10.47814752849105
 31
0.0
 12
43.19943985585084
 22
-7.585768087054056
 32
0.0
 13
43.19943985585084
 23
-7.585768087054056
 33
0.0
  0
POINT
  5
28E
330
287
100
AcDbEntity
  8
Defpoints
 62
     0
100
AcDbPoint
 10
43.19943985585084
 20
-7.585768087054056
 30
0.0
  0
POINT
  5
28F
330
287
100
AcDbEntity
  8
Defpoints
 62
     0
100
AcDbPoint
 10
42.22615729335368
 20
-6.413037489883944
 30
0.0
  0
ENDBLK
  5
289
330
287
100
AcDbEntity
  8
0
100
AcDbBlockEnd
  0
ENDSEC
  0
SECTION
  2
ENTITIES
  0
LINE
  5
D5
330
1F
100
AcDbEntity
  8
참조1
100
AcDbLine
 10
11.5875
 20
0.0010749287238892
 30
0.0
 11
11.58750000000001
 21
-39.99892507127611
 31
0.0
  0
LINE
  5
D6
330
1F
100
AcDbEntity
  8
참조1
100
AcDbLine
 10
11.58750000000001
 20
-39.99892507127611
 30
0.0
 11
-21.03385681430867
 21
-39.9989250712761
 31
0.0
  0
INSERT
  5
D8
330
1F
100
AcDbEntity
  8
0
  6
Continuous
 62
     7
100
AcDbBlockReference
 66
     1
  2
블럭10
 10
-2.352772932125203
 20
-52.04609937292004
 30
0.0
  0
ATTRIB
  5
D9
330
D8
100
AcDbEntity
  8
FORMAT
 62
     2
100
AcDbText
 10
-13.05885375441388
 20
-49.97073246008785
 30
0.0
 40
4.233333333333333
  1
G8C51903 [ 6 FLUTE ]
 41
0.75
  7
SLDTEXTSTYLE0
 11
-13.05885375441388
 21
-52.08739912675452
 31
0.0
100
AcDbAttribute
  2
AUTOATTR0
 70
     0
 74
     1
  0
SEQEND
  5
DA
330
D8
100
AcDbEntity
  8
0
  6
Continuous
 62
     7
  0
HATCH
  5
DB
330
1F
100
AcDbEntity
  8
중심선
100
AcDbHatch
 10
0.0
 20
0.0
 30
0.0
210
0.0
220
0.0
230
1.0
  2
SOLID
 70
     1
 71
     0
 91
        1
 92
        0
 93
        4
 72
     1
 10
3.362136372255631
 20
-35.7989250712761
 11
-0.0841388715816516
 21
-35.7989250712761
 72
     1
 10
-0.0841388715816516
 20
-35.7989250712761
 11
-2.212368730785674
 21
-38.33525065184867
 72
     1
 10
-2.212368730785674
 20
-38.33525065184867
 11
1.233939598164757
 21
-38.33521122254619
 72
     1
 10
1.233939598164757
 20
-38.33521122254619
 11
3.362136372255631
 21
-35.7989250712761
 97
        0
 75
     0
 76
     1
 98
        1
 10
0.0
 20
0.0
  0
HATCH
  5
DC
330
1F
100
AcDbEntity
  8
중심선
100
AcDbHatch
 10
0.0
 20
0.0
 30
0.0
210
0.0
220
0.0
230
1.0
  2
SOLID
 70
     1
 71
     0
 91
        1
 92
        0
 93
        4
 72
     1
 10
8.37490036329161
 20
-35.7989250712761
 11
4.928625119454299
 21
-35.7989250712761
 72
     1
 10
4.928625119454299
 20
-35.7989250712761
 11
0.3974871110969111
 21
-41.19892507127612
 72
     1
 10
0.3974871110969114
 20
-41.19892507127612
 11
3.843762354934194
 21
-41.19892507127612
 72
     1
 10
3.843762354934194
 20
-41.19892507127612
 11
8.37490036329161
 21
-35.7989250712761
 97
        0
 75
     0
 76
     1
 98
        1
 10
0.0
 20
0.0
  0
HATCH
  5
DD
330
1F
100
AcDbEntity
  8
중심선
100
AcDbHatch
 10
0.0
 20
0.0
 30
0.0
210
0.0
220
0.0
230
1.0
  2
SOLID
 70
     1
 71
     0
 91
        1
 92
        0
 93
        4
 72
     1
 10
13.38766435432751
 20
-35.79892507127608
 11
9.941389110490418
 21
-35.79892507127608
 72
     1
 10
9.941389110490418
 20
-35.79892507127608
 11
2.892952208601113
 21
-44.19892507127612
 72
     1
 10
2.892952208601113
 20
-44.19892507127612
 11
6.339227452438395
 21
-44.19892507127612
 72
     1
 10
6.339227452438395
 20
-44.19892507127612
 11
13.38766435432751
 21
-35.79892507127608
 97
        0
 75
     0
 76
     1
 98
        1
 10
0.0
 20
0.0
  0
HATCH
  5
DE
330
1F
100
AcDbEntity
  8
중심선
100
AcDbHatch
 10
0.0
 20
0.0
 30
0.0
210
0.0
220
0.0
230
1.0
  2
SOLID
 70
     1
 71
     0
 91
        1
 92
        0
 93
        6
 72
     3
 10
18.18755478533968
 20
-39.99892507132738
 11
3.960054785062284
 21
1.540850780301639E-10
 40
0.3939339440162633
 50
17.09539180608434
 51
320.0019657685079
 73
     0
 72
     1
 10
19.87055444104027
 20
-38.58681907591441
 11
22.17585631474134
 21
-36.65249236586649
 72
     3
 10
18.18755478528683
 20
-39.99892507127625
 11
6.600054785286829
 21
-1.249000902703301E-13
 40
0.6363583540795982
 50
39.99873849337388
 51
368.4976242363725
 73
     1
 72
     1
 10
24.61288727718744
 20
-39.03892507120613
 11
16.86762209212275
 21
-39.03892507120613
 72
     1
 10
16.86762209212275
 20
-39.03892507120613
 11
16.86759704767682
 21
-40.95892507120602
 72
     1
 10
16.86759704767682
 20
-40.95892507120602
 11
21.30897681714886
 21
-40.95892507120599
 97
        0
 75
     0
 76
     1
 98
        1
 10
0.0
 20
0.0
  0
LINE
  5
12E
330
1F
100
AcDbEntity
  8
참조1
100
AcDbLine
 10
76.93848381534559
 20
7.441074928723896
 30
0.0
 11
76.93848381534559
 21
-7.438925071276109
 31
0.0
  0
LINE
  5
12F
330
1F
100
AcDbEntity
  8
참조1
100
AcDbLine
 10
89.6384838153456
 20
5.441074928723896
 30
0.0
 11
76.93848381534559
 21
5.441074928723896
 31
0.0
  0
SOLID
  5
130
330
1F
100
AcDbEntity
  8
참조1
100
AcDbTrace
 10
76.93848381534559
 20
5.441074928723896
 30
0.0
 11
83.28848381534559
 21
4.425074928723896
 31
0.0
 12
83.28848381534559
 22
6.457074928723896
 32
0.0
 13
83.28848381534559
 23
6.457074928723896
 33
0.0
  0
LINE
  5
131
330
1F
100
AcDbEntity
  8
참조1
100
AcDbLine
 10
89.6384838153456
 20
-5.438925071276109
 30
0.0
 11
76.93848381534559
 21
-5.438925071276109
 31
0.0
  0
SOLID
  5
132
330
1F
100
AcDbEntity
  8
참조1
100
AcDbTrace
 10
76.93848381534559
 20
-5.438925071276109
 30
0.0
 11
83.28848381534559
 21
-6.454925071276109
 31
0.0
 12
83.28848381534559
 22
-4.422925071276109
 32
0.0
 13
83.28848381534559
 23
-4.422925071276109
 33
0.0
  0
MTEXT
  5
133
330
1F
100
AcDbEntity
  8
참조1
100
AcDbMText
 10
86.33597390781587
 20
10.98929157337383
 30
0.0
 40
3.5
 41
0.0
 71
     1
 72
     1
  1
A
  7
SLDTEXTSTYLE0
 73
     1
 44
1.0
  0
MTEXT
  5
134
330
1F
100
AcDbEntity
  8
참조1
100
AcDbMText
 10
86.33597390781587
 20
0.1092915733738259
 30
0.0
 40
3.5
 41
0.0
 71
     1
 72
     1
  1
A
  7
SLDTEXTSTYLE0
 73
     1
 44
1.0
  0
SPLINE
  5
213
330
1F
100
AcDbEntity
  8
외형선
  6
Continuous
370
    15
100
AcDbSpline
210
0.0
220
0.0
230
1.0
 70
     8
 71
     3
 72
     9
 73
     5
 74
     0
 42
0.000000001
 43
0.00000001
 40
0.0
 40
0.0
 40
0.0
 40
0.0
 40
0.5674546957827485
 40
1.0
 40
1.0
 40
1.0
 40
1.0
 10
11.99999993714334
 20
-1.430984420462252
 30
0.0
 10
12.05393445169182
 20
-1.475840911259333
 30
0.0
 10
12.14898083151618
 20
-1.554889496336592
 30
0.0
 10
12.25104823596809
 20
-1.618005945885344
 30
0.0
 10
12.29519701247742
 20
-1.645306669756515
 30
0.0
  0
LINE
  5
214
330
1F
100
AcDbEntity
  8
0
  6
Continuous
 62
     1
370
    15
100
AcDbLine
 10
17.81059030437277
 20
1.539509122055236
 30
0.0
 11
17.72359577880135
 21
1.588115807089451
 31
0.0
1001
PE_URL
1000

  0
LINE
  5
215
330
1F
100
AcDbEntity
  8
0
  6
Continuous
 62
     1
370
    15
100
AcDbLine
 10
16.61823609704325
 20
7.938073504262029
 30
0.0
 11
13.29353151826857
 21
7.938073504262029
 31
0.0
1001
PE_URL
1000

  0
LINE
  5
216
330
1F
100
AcDbEntity
  8
0
  6
Continuous
 62
     1
370
    15
100
AcDbLine
 10
42.08895209799977
 20
-7.936926495737964
 30
0.0
 11
42.24455016798615
 21
-7.936926495737964
 31
0.0
1001
PE_URL
1000

  0
LINE
  5
217
330
1F
100
AcDbEntity
  8
0
  6
Continuous
 62
     1
370
    15
100
AcDbLine
 10
27.69064597248547
 20
-7.936926495737964
 30
0.0
 11
31.01555477050857
 21
-7.936926495737964
 31
0.0
1001
PE_URL
1000

  0
LINE
  5
218
330
1F
100
AcDbEntity
  8
0
  6
Continuous
 62
     1
370
    15
100
AcDbLine
 10
31.01555477050857
 20
7.938073504262029
 30
0.0
 11
27.69064597248558
 21
7.938073504262029
 31
0.0
1001
PE_URL
1000

  0
LINE
  5
219
330
1F
100
AcDbEntity
  8
0
  6
Continuous
 62
     1
370
    15
100
AcDbLine
 10
13.29353151826848
 20
-7.936926495737964
 30
0.0
 11
16.61823609704314
 21
-7.936926495737964
 31
0.0
1001
PE_URL
1000

  0
LINE
  5
21A
330
1F
100
AcDbEntity
  8
외형선
  6
Continuous
370
    15
100
AcDbLine
 10
-46.73750006285664
 20
-7.936926495737968
 30
0.0
 11
11.74984498174672
 21
-7.936926495737968
 31
0.0
  0
LINE
  5
21B
330
1F
100
AcDbEntity
  8
외형선
  6
Continuous
370
    15
100
AcDbLine
 10
11.74984498174672
 20
7.938073504262036
 30
0.0
 11
-46.73750006285664
 21
7.938073504262036
 31
0.0
  0
LINE
  5
21C
330
1F
100
AcDbEntity
  8
외형선
  6
Continuous
370
    15
100
AcDbLine
 10
-46.73750006285664
 20
7.938073504262029
 30
0.0
 11
-48.32500006285663
 21
6.35057350426203
 31
0.0
  0
LINE
  5
21D
330
1F
100
AcDbEntity
  8
외형선
  6
Continuous
370
    15
100
AcDbLine
 10
-48.32500006285663
 20
-6.349426495737969
 30
0.0
 11
-46.73750006285664
 21
-7.936926495737964
 31
0.0
  0
SPLINE
  5
21E
330
1F
100
AcDbEntity
  8
0
  6
Continuous
 62
     1
370
    15
100
AcDbSpline
210
0.0
220
0.0
230
1.0
 70
     8
 71
     3
 72
    19
 73
    15
 74
     0
 42
0.000000001
 43
0.00000001
 40
0.0
 40
0.0
 40
0.0
 40
0.0
 40
0.0884613789176106
 40
0.176953390843605
 40
0.2653793273591485
 40
0.3537746119279508
 40
0.4421796031962855
 40
0.5306345920554073
 40
0.6191301199875018
 40
0.7075607333262532
 40
0.800174442875424
 40
0.8927870189682087
 40
0.9854195394840042
 40
1.0
 40
1.0
 40
1.0
 40
1.0
 10
11.99999993714337
 20
-1.481106920177197
 30
0.0
 10
12.72322899077784
 20
-1.887713013487094
 30
0.0
 10
14.16993754272605
 20
-2.701066002432349
 30
0.0
 10
16.33994859116939
 20
-3.843313576263476
 30
0.0
 10
18.50886657390816
 20
-4.893304490824669
 30
0.0
 10
20.67697842875396
 20
-5.820798561615767
 30
0.0
 10
22.84535639312287
 20
-6.603979720035632
 30
0.0
 10
25.0148202374715
 20
-7.222934400168715
 30
0.0
 10
27.18487099824051
 20
-7.662655324702669
 30
0.0
 10
29.38833381958676
 20
-7.91495859255857
 30
0.0
 10
31.62551089346172
 20
-7.968359885740448
 30
0.0
 10
33.89700886444848
 20
-7.787003622558458
 30
0.0
 10
35.53060405782787
 20
-7.553337093869665
 30
0.0
 10
36.40719503565788
 20
-7.325411467789998
 30
0.0
 10
36.52640728046185
 20
-7.294414656026568
 30
0.0
1001
PE_URL
1000

  0
SPLINE
  5
21F
330
1F
100
AcDbEntity
  8
외형선
  6
Continuous
370
    15
100
AcDbSpline
210
0.0
220
0.0
230
1.0
 70
    24
 71
     3
 72
    22
 73
    18
 74
     0
 42
0.000000001
 43
0.00000001
 40
0.0
 40
0.0
 40
0.0
 40
0.0
 40
0.0848956343010512
 40
0.1522026611440379
 40
0.2214615963251756
 40
0.2887686231681291
 40
0.3580275583492302
 40
0.4253345851921849
 40
0.4945935203732872
 40
0.5619005472162473
 40
0.6311594823973418
 40
0.6984665092402974
 40
0.7677254444214004
 40
0.8350324712643528
 40
0.904291406445455
 40
0.9715984332884093
 40
1.0
 40
1.0
 40
1.0
 40
1.0
 10
11.9999999371434
 20
4.597422634399834
 30
0.0
 10
11.99999993714337
 20
4.495425185157451
 30
0.0
 10
11.99999993714334
 20
4.312562034037761
 30
0.0
 10
11.99999993714334
 20
3.928694742901413
 30
0.0
 10
11.99999993714334
 20
3.518399834494218
 30
0.0
 10
11.9999999371434
 20
3.050579465253207
 30
0.0
 10
11.9999999371434
 20
2.549094132314679
 30
0.0
 10
11.9999999371434
 20
2.018521541218256
 30
0.0
 10
11.99999993714334
 20
1.483589226255674
 30
0.0
 10
11.99999993714331
 20
0.9497587376788417
 30
0.0
 10
11.99999993714349
 20
0.4417946842381184
 30
0.0
 10
11.99999993714331
 20
-0.0352024113075586
 30
0.0
 10
11.9999999371434
 20
-0.458654065111233
 30
0.0
 10
11.99999993714337
 20
-0.8260331495303532
 30
0.0
 10
11.9999999371434
 20
-1.113485829091182
 30
0.0
 10
11.99999993714331
 20
-1.29795369033954
 30
0.0
 10
11.99999993714337
 20
-1.351973568746438
 30
0.0
 10
11.99999993714337
 20
-1.368003991129058
 30
0.0
  0
SPLINE
  5
220
330
1F
100
AcDbEntity
  8
0
  6
Continuous
 62
     1
370
    15
100
AcDbSpline
210
0.0
220
0.0
230
1.0
 70
     8
 71
     3
 72
    21
 73
    17
 74
     0
 42
0.000000001
 43
0.00000001
 40
0.0
 40
0.0
 40
0.0
 40
0.0
 40
0.0422163639817192
 40
0.1143551766217372
 40
0.186445014420929
 40
0.2585025275117848
 40
0.3305605948724702
 40
0.4026520916119366
 40
0.4747911050236949
 40
0.5468854053571741
 40
0.6223821089159967
 40
0.6978731160789946
 40
0.7733756150129582
 40
0.8489067415634879
 40
0.9244695339247669
 40
1.0
 40
1.0
 40
1.0
 40
1.0
 10
42.08895209799977
 20
-7.936926495737964
 30
0.0
 10
41.66554977770383
 20
-7.915791151315879
 30
0.0
 10
40.51864268877341
 20
-7.92344605003273
 30
0.0
 10
38.64826693917797
 20
-7.71633124386927
 30
0.0
 10
36.47910184641393
 20
-7.317416378623399
 30
0.0
 10
34.31089561096388
 20
-6.727862101583902
 30
0.0
 10
32.14267368482038
 20
-5.973576079260216
 30
0.0
 10
29.97346149524631
 20
-5.070107499293321
 30
0.0
 10
27.80336889228272
 20
-4.04140165911204
 30
0.0
 10
25.59965273648424
 20
-2.893766384731705
 30
0.0
 10
23.36233694349636
 20
-1.651920359885004
 30
0.0
 10
21.09090730271757
 20
-0.3461890715257212
 30
0.0
 10
18.81904986504279
 20
0.9697138930107343
 30
0.0
 10
16.54632007797861
 20
2.256929129234578
 30
0.0
 10
14.27296835239125
 20
3.491254184433465
 30
0.0
 10
12.7575480012211
 20
4.22875241347004
 30
0.0
 10
11.9999999371434
 20
4.597422634399834
 30
0.0
1001
PE_URL
1000

  0
LINE
  5
221
330
1F
100
AcDbEntity
  8
0
  6
Continuous
 62
     1
370
    15
100
AcDbLine
 10
43.74999993714334
 20
-6.434937192350581
 30
0.0
 11
43.74999993714334
 21
-4.260953760190194
 31
0.0
1001
PE_URL
1000

  0
SPLINE
  5
222
330
1F
100
AcDbEntity
  8
0
  6
Continuous
 62
     1
370
    15
100
AcDbSpline
210
0.0
220
0.0
230
1.0
 70
     8
 71
     3
 72
    48
 73
    44
 74
     0
 42
0.000000001
 43
0.00000001
 40
0.0042132929636569
 40
0.0042132929636569
 40
0.0042132929636569
 40
0.0042132929636569
 40
0.0625000000000007
 40
0.0625000000000007
 40
0.1250000000000014
 40
0.1250000000000014
 40
0.1875000000000022
 40
0.1875000000000022
 40
0.218750000000003
 40
0.218750000000003
 40
0.2500000000000039
 40
0.2500000000000039
 40
0.3125000000000046
 40
0.3125000000000046
 40
0.343750000000005
 40
0.343750000000005
 40
0.3750000000000053
 40
0.3750000000000053
 40
0.437500000000005
 40
0.437500000000005
 40
0.5000000000000047
 40
0.5000000000000047
 40
0.5625000000000042
 40
0.5625000000000042
 40
0.5937500000000037
 40
0.5937500000000037
 40
0.625000000000003
 40
0.625000000000003
 40
0.6562500000000023
 40
0.6562500000000023
 40
0.6875000000000017
 40
0.6875000000000017
 40
0.7500000000000013
 40
0.7500000000000013
 40
0.7812500000000011
 40
0.7812500000000011
 40
0.8125000000000009
 40
0.8125000000000009
 40
0.8750000000000007
 40
0.8750000000000007
 40
0.9375000000000003
 40
0.9375000000000003
 40
1.0
 40
1.0
 40
1.0
 40
1.0
 10
42.85727553252468
 20
-7.800216558420416
 30
0.0
 10
42.25430605990002
 20
-7.735939504038804
 30
0.0
 10
41.64937224265756
 20
-7.649064161529562
 30
0.0
 10
40.40782531432797
 20
-7.424728639423286
 30
0.0
 10
39.75870737844065
 20
-7.283263722035208
 30
0.0
 10
38.46629622015439
 20
-6.953470717594161
 30
0.0
 10
37.82447824002978
 20
-6.765426589144202
 30
0.0
 10
36.85395983109316
 20
-6.449999020205205
 30
0.0
 10
36.53023555107728
 20
-6.339398024888247
 30
0.0
 10
35.88475750188482
 20
-6.108126870871853
 30
0.0
 10
35.56403221370903
 20
-5.987597005981019
 30
0.0
 10
34.59678597670091
 20
-5.610850638986669
 30
0.0
 10
33.94729231182799
 20
-5.339615800130847
 30
0.0
 10
32.98048948926998
 20
-4.908696956894758
 30
0.0
 10
32.65964885238546
 20
-4.761103874183831
 30
0.0
 10
32.01393755144625
 20
-4.457677136169611
 30
0.0
 10
31.69017043672963
 20
-4.302004362697545
 30
0.0
 10
30.71974648579521
 20
-3.824824214890626
 30
0.0
 10
30.07809986248975
 20
-3.493875779275413
 30
0.0
 10
28.78534743667748
 20
-2.809481193033577
 30
0.0
 10
28.1371361057482
 20
-2.456490513795252
 30
0.0
 10
26.85148659120046
 20
-1.73861038991005
 30
0.0
 10
26.20226071103201
 20
-1.371531013648912
 30
0.0
 10
25.23323253476718
 20
-0.8168183742169006
 30
0.0
 10
24.91210394024026
 20
-0.6314455133990933
 30
0.0
 10
24.26803187935428
 20
-0.2596162677797196
 30
0.0
 10
23.94465012608816
 20
-0.0730741787988194
 30
0.0
 10
23.29759350954296
 20
0.2998800798936756
 30
0.0
 10
22.97392063736166
 20
0.4862911015224967
 30
0.0
 10
22.32869129263079
 20
0.8575963703005627
 30
0.0
 10
22.00801427745174
 20
1.042323871398331
 30
0.0
 10
21.04035583895097
 20
1.594543690389294
 30
0.0
 10
20.39088038655458
 20
1.959442162750484
 30
0.0
 10
19.42454306912893
 20
2.493821746721267
 30
0.0
 10
19.10352238085744
 20
2.669839307456925
 30
0.0
 10
18.45759807956392
 20
3.017876815536539
 30
0.0
 10
18.13379758453988
 20
3.189691383168331
 30
0.0
 10
17.16349409042579
 20
3.696593783244552
 30
0.0
 10
16.52195992723205
 20
4.022499771141696
 30
0.0
 10
15.22890557722343
 20
4.647276601333111
 30
0.0
 10
14.58153919276191
 20
4.945397546525314
 30
0.0
 10
13.29512985789253
 20
5.50584259176479
 30
0.0
 10
12.64581412717416
 20
5.769624417582719
 30
0.0
 10
11.9999999371434
 20
6.012984140883709
 30
0.0
1001
PE_URL
1000

  0
SPLINE
  5
223
330
1F
100
AcDbEntity
  8
외형선
  6
Continuous
370
    15
100
AcDbSpline
210
0.0
220
0.0
230
1.0
 70
    24
 71
     3
 72
    11
 73
     7
 74
     0
 42
0.000000001
 43
0.00000001
 40
0.0
 40
0.0
 40
0.0
 40
0.0
 40
0.3522137449418593
 40
0.6314561368557284
 40
0.9187965770523316
 40
1.0
 40
1.0
 40
1.0
 40
1.0
 10
11.9999999371434
 20
7.902984440081973
 30
0.0
 10
11.9999999371434
 20
7.680465937227915
 30
0.0
 10
11.99999993714334
 20
7.281530131317382
 30
0.0
 10
11.99999993714334
 20
6.712628359190454
 30
0.0
 10
11.99999993714334
 20
6.321099538627287
 30
0.0
 10
11.99999993714337
 20
6.12187086412338
 30
0.0
 10
11.99999993714337
 20
6.077973646079869
 30
0.0
  0
SPLINE
  5
224
330
1F
100
AcDbEntity
  8
0
  6
Continuous
 62
     1
370
    15
100
AcDbSpline
210
0.0
220
0.0
230
1.0
 70
     8
 71
     3
 72
    48
 73
    44
 74
     0
 42
0.000000001
 43
0.00000001
 40
0.0
 40
0.0
 40
0.0
 40
0.0
 40
0.0625000000000009
 40
0.0625000000000009
 40
0.1250000000000017
 40
0.1250000000000017
 40
0.1875000000000026
 40
0.1875000000000026
 40
0.218750000000003
 40
0.218750000000003
 40
0.2500000000000034
 40
0.2500000000000034
 40
0.3125000000000043
 40
0.3125000000000043
 40
0.3437500000000047
 40
0.3437500000000047
 40
0.3750000000000052
 40
0.3750000000000052
 40
0.437500000000005
 40
0.437500000000005
 40
0.5000000000000049
 40
0.5000000000000049
 40
0.5625000000000048
 40
0.5625000000000048
 40
0.5937500000000042
 40
0.5937500000000042
 40
0.6250000000000036
 40
0.6250000000000036
 40
0.656250000000003
 40
0.656250000000003
 40
0.6875000000000024
 40
0.6875000000000024
 40
0.7500000000000013
 40
0.7500000000000013
 40
0.7812500000000008
 40
0.7812500000000008
 40
0.8125000000000002
 40
0.8125000000000002
 40
0.8749999999999999
 40
0.8749999999999999
 40
0.9374999999999997
 40
0.9374999999999997
 40
1.0
 40
1.0
 40
1.0
 40
1.0
 10
42.9879999371434
 20
-4.408947049352932
 30
0.0
 10
42.34179251841266
 20
-4.098941307583384
 30
0.0
 10
41.69267999618046
 20
-3.773813516097988
 30
0.0
 10
40.40782531432797
 20
-3.103088330750751
 30
0.0
 10
39.7587073784407
 20
-2.755173827041254
 30
0.0
 10
38.46629622015442
 20
-2.044430148177213
 30
0.0
 10
37.82447824002983
 20
-1.681930977804356
 30
0.0
 10
36.85395983109322
 20
-1.130183149252183
 30
0.0
 10
36.53023555107731
 20
-0.945136248322406
 30
0.0
 10
35.88475750188482
 20
-0.5741610664467345
 30
0.0
 10
35.56403221370903
 20
-0.3884320565666499
 30
0.0
 10
34.59678597670094
 20
0.170231449264783
 30
0.0
 10
33.94729231182799
 20
0.5442379632969363
 30
0.0
 10
32.98048948926993
 20
1.099284234149131
 30
0.0
 10
32.65964885238543
 20
1.283273936187008
 30
0.0
 10
32.01393755144622
 20
1.649596085998844
 30
0.0
 10
31.6901704367296
 20
1.831715703060176
 30
0.0
 10
30.71974648579518
 20
2.37290961848246
 30
0.0
 10
30.07809986248981
 20
2.726069012437925
 30
0.0
 10
28.78534743667748
 20
3.413781451450966
 30
0.0
 10
28.1371361057482
 20
3.747754631880795
 30
0.0
 10
26.85148659120054
 20
4.386988486589495
 30
0.0
 10
26.20226071103201
 20
4.694183079334188
 30
0.0
 10
25.23323253476718
 20
5.129407493000599
 30
0.0
 10
24.91210394024023
 20
5.270084253346468
 30
0.0
 10
24.26803187935428
 20
5.542781289816745
 30
0.0
 10
23.94465012608816
 20
5.674851410795419
 30
0.0
 10
23.29759350954293
 20
5.929410704797561
 30
0.0
 10
22.97392063736169
 20
6.051899080152822
 30
0.0
 10
22.32869129263082
 20
6.286410284567431
 30
0.0
 10
22.00801427745176
 20
6.398344202718491
 30
0.0
 10
21.04035583895097
 20
6.718676100745498
 30
0.0
 10
20.39088038655461
 20
6.911100762538268
 30
0.0
 10
19.42454306912896
 20
7.163813053065084
 30
0.0
 10
19.10352238085744
 20
7.242120621371257
 30
0.0
 10
18.45759807956401
 20
7.386947729227344
 30
0.0
 10
18.13379758453988
 20
7.453367009784657
 30
0.0
 10
17.16349409042573
 20
7.63387389787124
 30
0.0
 10
16.52195992723205
 20
7.729048103320558
 30
0.0
 10
15.22890557722343
 20
7.868222471409915
 30
0.0
 10
14.58153919276194
 20
7.911936686446666
 30
0.0
 10
13.29512985789256
 20
7.946797569675837
 30
0.0
 10
12.64581412717416
 20
7.937995060226363
 30
0.0
 10
11.9999999371434
 20
7.902984440081973
 30
0.0
1001
PE_URL
1000

  0
SPLINE
  5
225
330
1F
100
AcDbEntity
  8
0
  6
Continuous
 62
     1
370
    15
100
AcDbSpline
210
0.0
220
0.0
230
1.0
 70
     8
 71
     3
 72
    14
 73
    10
 74
     0
 42
0.000000001
 43
0.00000001
 40
0.0
 40
0.0
 40
0.0
 40
0.0
 40
0.25
 40
0.25
 40
0.5
 40
0.5
 40
0.75
 40
0.75
 40
1.0
 40
1.0
 40
1.0
 40
1.0
 10
43.74999993714334
 20
-4.260953760190198
 30
0.0
 10
43.74999993714337
 20
-4.321457508349773
 30
0.0
 10
43.72756586710852
 20
-4.375866460990871
 30
0.0
 10
43.64406140108321
 20
-4.461424792893929
 30
0.0
 10
43.58262906191624
 20
-4.4921745031608
 30
0.0
 10
43.43650230588315
 20
-4.520981020680068
 30
0.0
 10
43.35106925259103
 20
-4.519306228385538
 30
0.0
 10
43.17270171884689
 20
-4.485127643149692
 30
0.0
 10
43.08002038411115
 20
-4.453092111903032
 30
0.0
 10
42.98799993714334
 20
-4.408947049352921
 30
0.0
1001
PE_URL
1000

  0
LINE
  5
226
330
1F
100
AcDbEntity
  8
0
  6
Continuous
 62
     1
370
    15
100
AcDbLine
 10
43.74999993714334
 20
-2.868201764075245
 30
0.0
 11
43.74999993714334
 21
2.869348772599444
 31
0.0
1001
PE_URL
1000

  0
SPLINE
  5
227
330
1F
100
AcDbEntity
  8
0
  6
Continuous
 62
     1
370
    15
100
AcDbSpline
210
0.0
220
0.0
230
1.0
 70
     8
 71
     3
 72
    14
 73
    10
 74
     0
 42
0.000000001
 43
0.00000001
 40
0.0
 40
0.0
 40
0.0
 40
0.0
 40
0.25
 40
0.25
 40
0.5
 40
0.5
 40
0.75
 40
0.75
 40
1.0
 40
1.0
 40
1.0
 40
1.0
 10
42.98799993714334
 20
-2.700547487115564
 30
0.0
 10
43.08383808452191
 20
-2.752541136886798
 30
0.0
 10
43.17493591274769
 20
-2.799322203268602
 30
0.0
 10
43.34980824873358
 20
-2.880488778526399
 30
0.0
 10
43.4317102495022
 20
-2.913839951765382
 30
0.0
 10
43.57523661508839
 20
-2.956054990377979
 30
0.0
 10
43.63723846025226
 20
-2.964867511596658
 30
0.0
 10
43.72551043780913
 20
-2.94478319004704
 30
0.0
 10
43.74999993714334
 20
-2.915855056993053
 30
0.0
 10
43.74999993714334
 20
-2.868201764075245
 30
0.0
1001
PE_URL
1000

  0
SPLINE
  5
228
330
1F
100
AcDbEntity
  8
0
  6
Continuous
 62
     1
370
    15
100
AcDbSpline
210
0.0
220
0.0
230
1.0
 70
     8
 71
     3
 72
    19
 73
    15
 74
     0
 42
0.000000001
 43
0.00000001
 40
0.0
 40
0.0
 40
0.0
 40
0.0
 40
0.071708337823781
 40
0.153924824750733
 40
0.2361503398825159
 40
0.3184223577920136
 40
0.4007320811083036
 40
0.4829814273372738
 40
0.5691214729013492
 40
0.6552604642372171
 40
0.7414180058883191
 40
0.8276136179714214
 40
0.913828585200778
 40
1.0
 40
1.0
 40
1.0
 40
1.0
 10
16.61823609704325
 20
7.927055623957244
 30
0.0
 10
17.24853552674853
 20
7.917049986385749
 30
0.0
 10
18.60149854614369
 20
7.895572483818377
 30
0.0
 10
20.67697101908141
 20
7.622954487880968
 30
0.0
 10
22.84535839486631
 20
7.167864390187844
 30
0.0
 10
25.01481964461703
 20
6.529597948023095
 30
0.0
 10
27.18487136631703
 20
5.730873683099247
 30
0.0
 10
29.38833292086736
 20
4.774039417387321
 30
0.0
 10
31.62551427794423
 20
3.676905159441986
 30
0.0
 10
33.89699628973082
 20
2.462796538212999
 30
0.0
 10
36.16906950779574
 20
1.181090589705832
 30
0.0
 10
38.44203725547192
 20
-0.1313674616863452
 30
0.0
 10
40.71532127674038
 20
-1.445259548807726
 30
0.0
 10
42.23056798980451
 20
-2.282188656124973
 30
0.0
 10
42.98799993714337
 20
-2.700547487115585
 30
0.0
1001
PE_URL
1000

  0
SPLINE
  5
229
330
1F
100
AcDbEntity
  8
0
  6
Continuous
 62
     1
370
    15
100
AcDbSpline
210
0.0
220
0.0
230
1.0
 70
     8
 71
     3
 72
    17
 73
    13
 74
     0
 42
0.000000001
 43
0.00000001
 40
0.0
 40
0.0
 40
0.0
 40
0.0
 40
0.1041799527208801
 40
0.2084216878756121
 40
0.3125926536040138
 40
0.4167169096131657
 40
0.5208419665510667
 40
0.6250153294746316
 40
0.7292573547477309
 40
0.8334347689093726
 40
0.9425287100129762
 40
1.0
 40
1.0
 40
1.0
 40
1.0
 10
42.98799993714343
 20
3.511583171472196
 30
0.0
 10
42.26493109354641
 20
3.877575189938192
 30
0.0
 10
40.81836460069604
 20
4.609776273212404
 30
0.0
 10
38.64827354273987
 20
5.56934826816294
 30
0.0
 10
36.47910007874879
 20
6.397411064435424
 30
0.0
 10
34.31089608316989
 20
7.064696132119764
 30
0.0
 10
32.1426735632497
 20
7.557167896744033
 30
0.0
 10
29.9734615091032
 20
7.861151688146499
 30
0.0
 10
27.80336895858034
 20
7.972355430689831
 30
0.0
 10
25.59965245223208
 20
7.874774142798977
 30
0.0
 10
23.72056717689867
 20
7.648716247994905
 30
0.0
 10
22.56454723822702
 20
7.375106783048381
 30
0.0
 10
22.16567673751592
 20
7.280701193117189
 30
0.0
1001
PE_URL
1000

  0
SPLINE
  5
22A
330
1F
100
AcDbEntity
  8
0
  6
Continuous
 62
     1
370
    15
100
AcDbSpline
210
0.0
220
0.0
230
1.0
 70
     8
 71
     3
 72
    14
 73
    10
 74
     0
 42
0.000000001
 43
0.00000001
 40
0.0
 40
0.0
 40
0.0
 40
0.0
 40
0.25
 40
0.25
 40
0.5
 40
0.5
 40
0.75
 40
0.75
 40
1.0
 40
1.0
 40
1.0
 40
1.0
 10
43.74999993714334
 20
2.869348772599437
 30
0.0
 10
43.74999993714334
 20
2.914970004610424
 30
0.0
 10
43.72756586710847
 20
2.965481787752978
 30
0.0
 10
43.64406140108312
 20
3.072770984970269
 30
0.0
 10
43.58262906191624
 20
3.129775490115748
 30
0.0
 10
43.4365023058831
 20
3.243706448488481
 30
0.0
 10
43.35106925259106
 20
3.301443554245182
 30
0.0
 10
43.17270171884689
 20
3.411587862692805
 30
0.0
 10
43.08002038411115
 20
3.463968338473776
 30
0.0
 10
42.98799993714334
 20
3.511583171472211
 30
0.0
1001
PE_URL
1000

  0
LINE
  5
22B
330
1F
100
AcDbEntity
  8
외형선
  6
Continuous
370
    15
100
AcDbLine
 10
11.99999993714337
 20
4.597422634399841
 30
0.0
 11
11.9999999371434
 21
6.012984140883717
 31
0.0
  0
SPLINE
  5
22C
330
1F
100
AcDbEntity
  8
0
  6
Continuous
 62
     1
370
    15
100
AcDbSpline
210
0.0
220
0.0
230
1.0
 70
     8
 71
     3
 72
    14
 73
    10
 74
     0
 42
0.000000001
 43
0.00000001
 40
0.0
 40
0.0
 40
0.0
 40
0.0
 40
0.1310896944338518
 40
0.2758651321136801
 40
0.4206296461616182
 40
0.5654161972799545
 40
0.7102576458378187
 40
0.8551598179954507
 40
1.0
 40
1.0
 40
1.0
 40
1.0
 10
27.69064597248547
 20
-7.932082973269942
 30
0.0
 10
27.00501565577642
 20
-7.916873943396826
 30
0.0
 10
25.56217532635964
 20
-7.884868063351202
 30
0.0
 10
23.3623439315308
 20
-7.578343536320727
 30
0.0
 10
21.09090543009336
 20
-7.072357868435923
 30
0.0
 10
18.81905036687613
 20
-6.369439355862262
 30
0.0
 10
16.5463199440704
 20
-5.492283907852656
 30
0.0
 10
14.27296838585738
 20
-4.471889783950637
 30
0.0
 10
12.75754801237491
 20
-3.693899978824113
 30
0.0
 10
11.9999999371434
 20
-3.304988301420074
 30
0.0
1001
PE_URL
1000

  0
LINE
  5
22D
330
1F
100
AcDbEntity
  8
외형선
  6
Continuous
370
    15
100
AcDbLine
 10
11.9999999371434
 20
-3.304988301420067
 30
0.0
 11
11.99999993714337
 21
-1.481106920177204
 31
0.0
  0
LINE
  5
22E
330
1F
100
AcDbEntity
  8
0
  6
Continuous
 62
     1
370
    15
100
AcDbLine
 10
43.74999993714334
 20
-4.260953760190194
 30
0.0
 11
43.74999993714334
 21
-2.868201764075245
 31
0.0
1001
PE_URL
1000

  0
SPLINE
  5
22F
330
1F
100
AcDbEntity
  8
0
  6
Continuous
 62
     1
370
    15
100
AcDbSpline
210
0.0
220
0.0
230
1.0
 70
     8
 71
     3
 72
    12
 73
     8
 74
     0
 42
0.000000001
 43
0.00000001
 40
0.0
 40
0.0
 40
0.0
 40
0.0
 40
0.2134273005512845
 40
0.4269285081608481
 40
0.640270298218279
 40
0.853538135525598
 40
1.0
 40
1.0
 40
1.0
 40
1.0
 10
11.99999993714337
 20
-7.493517556798832
 30
0.0
 10
12.72322908163522
 20
-7.613011738941665
 30
0.0
 10
14.1699378153296
 20
-7.85204148248604
 30
0.0
 10
16.33994750065398
 20
-7.967177485110994
 30
0.0
 10
18.50887065928629
 20
-7.8910427668634
 30
0.0
 10
20.45053388854333
 20
-7.666862527561587
 30
0.0
 10
21.66941596146535
 20
-7.391618284074681
 30
0.0
 10
22.16567673751581
 20
-7.27955418459312
 30
0.0
1001
PE_URL
1000

  0
SPLINE
  5
230
330
1F
100
AcDbEntity
  8
외형선
  6
Continuous
370
    15
100
AcDbSpline
210
0.0
220
0.0
230
1.0
 70
    24
 71
     3
 72
    16
 73
    12
 74
     0
 42
0.000000001
 43
0.00000001
 40
0.0
 40
0.0
 40
0.0
 40
0.0
 40
0.0668818795392864
 40
0.1850868923177624
 40
0.2999605609245611
 40
0.4181655737030516
 40
0.5330392423098442
 40
0.651244255088334
 40
0.76611792369513
 40
0.8843229364736176
 40
1.0
 40
1.0
 40
1.0
 40
1.0
 10
11.99999993714334
 20
-3.369987806616223
 30
0.0
 10
11.99999993714334
 20
-3.43185774592834
 30
0.0
 10
11.99999993714334
 20
-3.603074746318434
 30
0.0
 10
11.99999993714346
 20
-3.955574218589955
 30
0.0
 10
11.99999993714331
 20
-4.410752324546753
 30
0.0
 10
11.9999999371434
 20
-4.906188624753888
 30
0.0
 10
11.9999999371434
 20
-5.432661033220782
 30
0.0
 10
11.9999999371434
 20
-5.967170582449391
 30
0.0
 10
11.99999993714329
 20
-6.502799264131482
 30
0.0
 10
11.99999993714343
 20
-7.020184484912154
 30
0.0
 10
11.9999999371434
 20
-7.336880886242298
 30
0.0
 10
11.99999993714337
 20
-7.493517556798832
 30
0.0
  0
SPLINE
  5
231
330
1F
100
AcDbEntity
  8
0
  6
Continuous
 62
     1
370
    15
100
AcDbSpline
210
0.0
220
0.0
230
1.0
 70
     8
 71
     3
 72
    14
 73
    10
 74
     0
 42
0.000000001
 43
0.00000001
 40
0.0
 40
0.0
 40
0.0
 40
0.0
 40
0.25
 40
0.25
 40
0.5
 40
0.5
 40
0.75
 40
0.75
 40
1.0
 40
1.0
 40
1.0
 40
1.0
 10
42.98799993714334
 20
5.113826799977929
 30
0.0
 10
43.08383808452189
 20
5.071534509673484
 30
0.0
 10
43.17493591274769
 20
5.016952579389852
 30
0.0
 10
43.34980824873364
 20
4.886574484797869
 30
0.0
 10
43.4317102495022
 20
4.811698963648496
 30
0.0
 10
43.57523661508839
 20
4.65219857807574
 30
0.0
 10
43.63723846025226
 20
4.567051042176885
 30
0.0
 10
43.72551043780919
 20
4.40203459456994
 30
0.0
 10
43.74999993714334
 20
4.325299474811921
 30
0.0
 10
43.74999993714334
 20
4.262100768714298
 30
0.0
1001
PE_URL
1000

  0
LINE
  5
232
330
1F
100
AcDbEntity
  8
0
  6
Continuous
 62
     1
370
    15
100
AcDbLine
 10
43.74999993714334
 20
2.869348772599444
 30
0.0
 11
43.74999993714334
 21
4.262100768714291
 31
0.0
1001
PE_URL
1000

  0
SPLINE
  5
233
330
1F
100
AcDbEntity
  8
0
  6
Continuous
 62
     1
370
    15
100
AcDbSpline
210
0.0
220
0.0
230
1.0
 70
     8
 71
     3
 72
    13
 73
     9
 74
     0
 42
0.000000001
 43
0.00000001
 40
0.0
 40
0.0
 40
0.0
 40
0.0
 40
0.0509510179732001
 40
0.2406799482835404
 40
0.4304497373433419
 40
0.620303379977791
 40
0.8101996540749246
 40
1.0
 40
1.0
 40
1.0
 40
1.0
 10
31.01555477050857
 20
7.916803405360284
 30
0.0
 10
31.21887510658775
 20
7.923096704989142
 30
0.0
 10
32.17930985193999
 20
7.952824688638103
 30
0.0
 10
33.89699613097221
 20
7.789020250738169
 30
0.0
 10
36.16906955034489
 20
7.423532953085605
 30
0.0
 10
38.44203724412037
 20
6.836218847346316
 30
0.0
 10
40.71532127957693
 20
6.077261674493698
 30
0.0
 10
42.23056799074988
 20
5.434917663307125
 30
0.0
 10
42.9879999371434
 20
5.113826799977915
 30
0.0
1001
PE_URL
1000

  0
SPLINE
  5
234
330
1F
100
AcDbEntity
  8
0
  6
Continuous
 62
     1
370
    15
100
AcDbSpline
210
0.0
220
0.0
230
1.0
 70
     8
 71
     3
 72
    10
 73
     6
 74
     0
 42
0.000000001
 43
0.00000001
 40
0.0
 40
0.0
 40
0.0
 40
0.0
 40
0.335732527154868
 40
0.6716641556925774
 40
1.0
 40
1.0
 40
1.0
 40
1.0
 10
42.22599993714334
 20
7.938073504262029
 30
0.0
 10
41.90338665491402
 20
7.927470708100913
 30
0.0
 10
40.81836665928779
 20
7.9437100388812
 30
0.0
 10
38.66413706798161
 20
7.730943945223046
 30
0.0
 10
37.23353096477507
 20
7.439578520278204
 30
0.0
 10
36.52640728046185
 20
7.295561664550632
 30
0.0
1001
PE_URL
1000

  0
LINE
  5
235
330
1F
100
AcDbEntity
  8
0
  6
Continuous
 62
     1
370
    15
100
AcDbLine
 10
43.74999993714334
 20
4.246242660606036
 30
0.0
 11
43.74999993714334
 21
6.414073504262028
 31
0.0
1001
PE_URL
1000

  0
LINE
  5
236
330
1F
100
AcDbEntity
  8
0
  6
Continuous
 62
     1
370
    15
100
AcDbLine
 10
13.29353151826848
 20
-7.910354024061306
 30
0.0
 11
11.9999999371434
 21
-7.901837431557915
 31
0.0
1001
PE_URL
1000

  0
LINE
  5
237
330
1F
100
AcDbEntity
  8
외형선
  6
Continuous
370
    15
100
AcDbLine
 10
11.9999999371434
 20
-7.901837431557915
 30
0.0
 11
11.99999993714337
 21
-7.493517556798832
 31
0.0
  0
SPLINE
  5
238
330
1F
100
AcDbEntity
  8
외형선
  6
Continuous
370
    15
100
AcDbSpline
210
0.0
220
0.0
230
1.0
 70
     8
 71
     3
 72
     8
 73
     4
 74
     0
 42
0.000000001
 43
0.00000001
 40
0.0
 40
0.0
 40
0.0
 40
0.0
 40
1.0
 40
1.0
 40
1.0
 40
1.0
 10
11.9999999371434
 20
7.902984440081973
 30
0.0
 10
11.91654955629303
 20
7.898460461467138
 30
0.0
 10
11.83315769781797
 20
7.893501020959903
 30
0.0
 10
11.74984498174669
 20
7.888108068459943
 30
0.0
  0
LINE
  5
239
330
1F
100
AcDbEntity
  8
외형선
  6
Continuous
370
    15
100
AcDbLine
 10
11.74984498174672
 20
6.106283880620524
 30
0.0
 11
11.74984498174672
 21
7.938073504262036
 31
0.0
  0
SPLINE
  5
23A
330
1F
100
AcDbEntity
  8
외형선
  6
Continuous
370
    15
100
AcDbSpline
210
0.0
220
0.0
230
1.0
 70
     8
 71
     3
 72
     8
 73
     4
 74
     0
 42
0.000000001
 43
0.00000001
 40
0.0
 40
0.0
 40
0.0
 40
0.0
 40
1.0
 40
1.0
 40
1.0
 40
1.0
 10
11.99999993714337
 20
6.012984140883724
 30
0.0
 10
11.91654955629303
 20
6.044430432876979
 30
0.0
 10
11.833157697818
 20
6.07553725817116
 30
0.0
 10
11.74984498174672
 20
6.106297448707906
 30
0.0
  0
SPLINE
  5
23B
330
1F
100
AcDbEntity
  8
외형선
  6
Continuous
370
    15
100
AcDbSpline
210
0.0
220
0.0
230
1.0
 70
     8
 71
     3
 72
     8
 73
     4
 74
     0
 42
0.000000001
 43
0.00000001
 40
0.0
 40
0.0
 40
0.0
 40
0.0
 40
1.0
 40
1.0
 40
1.0
 40
1.0
 10
11.9999999371434
 20
4.597422634399834
 30
0.0
 10
11.91654955629303
 20
4.636689363065017
 30
0.0
 10
11.83315769781797
 20
4.675692991261293
 30
0.0
 10
11.74984498174669
 20
4.714424263288855
 30
0.0
  0
LINE
  5
23C
330
1F
100
AcDbEntity
  8
외형선
  6
Continuous
370
    15
100
AcDbLine
 10
11.74984498174672
 20
-1.338968749448732
 30
0.0
 11
11.74984498174672
 21
4.714446447926136
 31
0.0
  0
SPLINE
  5
23D
330
1F
100
AcDbEntity
  8
외형선
  6
Continuous
370
    15
100
AcDbSpline
210
0.0
220
0.0
230
1.0
 70
     8
 71
     3
 72
     8
 73
     4
 74
     0
 42
0.000000001
 43
0.00000001
 40
0.0
 40
0.0
 40
0.0
 40
0.0
 40
1.0
 40
1.0
 40
1.0
 40
1.0
 10
11.99999993714337
 20
-1.481106920177197
 30
0.0
 10
11.91654955629303
 20
-1.433787378132386
 30
0.0
 10
11.833157697818
 20
-1.386397048214441
 30
0.0
 10
11.74984498174672
 20
-1.338947819991546
 30
0.0
  0
SPLINE
  5
23E
330
1F
100
AcDbEntity
  8
외형선
  6
Continuous
370
    15
100
AcDbSpline
210
0.0
220
0.0
230
1.0
 70
     8
 71
     3
 72
     8
 73
     4
 74
     0
 42
0.000000001
 43
0.00000001
 40
0.0
 40
0.0
 40
0.0
 40
0.0
 40
1.0
 40
1.0
 40
1.0
 40
1.0
 10
11.9999999371434
 20
-3.304988301420082
 30
0.0
 10
11.91654955629303
 20
-3.261197594140071
 30
0.0
 10
11.83315769781797
 20
-3.217234525436552
 30
0.0
 10
11.74984498174669
 20
-3.17311030090903
 30
0.0
  0
SPLINE
  5
23F
330
1F
100
AcDbEntity
  8
외형선
  6
Continuous
370
    15
100
AcDbSpline
210
0.0
220
0.0
230
1.0
 70
     8
 71
     3
 72
     8
 73
     4
 74
     0
 42
0.000000001
 43
0.00000001
 40
0.0
 40
0.0
 40
0.0
 40
0.0
 40
1.0
 40
1.0
 40
1.0
 40
1.0
 10
11.99999993714337
 20
-7.493517556798832
 30
0.0
 10
11.91654955629303
 20
-7.477644306747276
 30
0.0
 10
11.833157697818
 20
-7.461360802123512
 30
0.0
 10
11.74984498174672
 20
-7.444671764437363
 30
0.0
  0
SPLINE
  5
240
330
1F
100
AcDbEntity
  8
외형선
  6
Continuous
370
    15
100
AcDbSpline
210
0.0
220
0.0
230
1.0
 70
     8
 71
     3
 72
     8
 73
     4
 74
     0
 42
0.000000001
 43
0.00000001
 40
0.0
 40
0.0
 40
0.0
 40
0.0
 40
1.0
 40
1.0
 40
1.0
 40
1.0
 10
11.9999999371434
 20
-7.901837431557915
 30
0.0
 10
11.91654955629303
 20
-7.897313452943084
 30
0.0
 10
11.83315769781797
 20
-7.892354012435845
 30
0.0
 10
11.74984498174669
 20
-7.886961059935889
 30
0.0
  0
LINE
  5
241
330
1F
100
AcDbEntity
  8
외형선
  6
Continuous
370
    15
100
AcDbLine
 10
11.74984498174672
 20
-7.936926495737968
 30
0.0
 11
11.74984498174672
 21
-7.886957970889611
 31
0.0
  0
LINE
  5
242
330
1F
100
AcDbEntity
  8
외형선
  6
Continuous
370
    15
100
AcDbLine
 10
-46.73750006285664
 20
0.0005735042620358
 30
0.0
 11
-46.73750006285664
 21
7.938073504262036
 31
0.0
  0
LINE
  5
243
330
1F
100
AcDbEntity
  8
외형선
  6
Continuous
370
    15
100
AcDbLine
 10
-46.73750006285664
 20
-7.936926495737968
 30
0.0
 11
-46.73750006285664
 21
0.0005735042620358
 31
0.0
  0
LINE
  5
244
330
1F
100
AcDbEntity
  8
외형선
  6
Continuous
370
    15
100
AcDbLine
 10
11.74984498174672
 20
-7.444679125807159
 30
0.0
 11
11.74984498174672
 21
-3.173085027225476
 31
0.0
  0
LINE
  5
245
330
1F
100
AcDbEntity
  8
외형선
  6
Continuous
370
    15
100
AcDbLine
 10
-48.32500006285663
 20
0.0005735042620358
 30
0.0
 11
-48.32500006285663
 21
6.35057350426203
 31
0.0
  0
LINE
  5
246
330
1F
100
AcDbEntity
  8
외형선
  6
Continuous
370
    15
100
AcDbLine
 10
-48.32500006285663
 20
-6.349426495737969
 30
0.0
 11
-48.32500006285663
 21
0.0005735042620358
 31
0.0
  0
SPLINE
  5
247
330
1F
100
AcDbEntity
  8
외형선
  6
Continuous
370
    15
100
AcDbSpline
210
0.0
220
0.0
230
1.0
 70
    24
 71
     3
 72
    24
 73
    20
 74
     0
 42
0.000000001
 43
0.00000001
 40
0.0
 40
0.0
 40
0.0
 40
0.0
 40
0.0498485679718641
 40
0.1059734310005854
 40
0.1669826650515151
 40
0.2297611710229804
 40
0.2907704050739106
 40
0.3535489110453776
 40
0.4145581450962834
 40
0.4773366510677749
 40
0.5383458851187044
 40
0.60112439109017
 40
0.6621336251410995
 40
0.7249121311125649
 40
0.785921365163496
 40
0.8486998711349634
 40
0.9097091051858933
 40
0.9724876111573586
 40
1.0
 40
1.0
 40
1.0
 40
1.0
 10
11.99999993714337
 20
-1.478464829089013
 30
0.0
 10
11.99999993714337
 20
-1.473988861933471
 30
0.0
 10
11.9999999371434
 20
-1.464473371001283
 30
0.0
 10
11.9999999371434
 20
-1.357640632606987
 30
0.0
 10
11.99999993714334
 20
-1.169951126861434
 30
0.0
 10
11.9999999371434
 20
-0.8941615271164594
 30
0.0
 10
11.9999999371434
 20
-0.5426153435893113
 30
0.0
 10
11.99999993714329
 20
-0.130905781160557
 30
0.0
 10
11.99999993714334
 20
0.3365400061257517
 30
0.0
 10
11.9999999371434
 20
0.8381270833589127
 30
0.0
 10
11.99999993714343
 20
1.368672067441942
 30
0.0
 10
11.99999993714334
 20
1.903614397975019
 30
0.0
 10
11.99999993714337
 20
2.437432902628174
 30
0.0
 10
11.99999993714334
 20
2.945435454318797
 30
0.0
 10
11.99999993714331
 20
3.42229235256309
 30
0.0
 10
11.9999999371434
 20
3.846273060688958
 30
0.0
 10
11.9999999371434
 20
4.211701023061458
 30
0.0
 10
11.99999993714334
 20
4.453082912449425
 30
0.0
 10
11.99999993714334
 20
4.563712788345228
 30
0.0
 10
11.99999993714334
 20
4.597422634388117
 30
0.0
  0
SPLINE
  5
248
330
1F
100
AcDbEntity
  8
외형선
  6
Continuous
370
    15
100
AcDbSpline
210
0.0
220
0.0
230
1.0
 70
    24
 71
     3
 72
    16
 73
    12
 74
     0
 42
0.000000001
 43
0.00000001
 40
0.0
 40
0.0
 40
0.0
 40
0.0
 40
0.104557080884534
 40
0.2091141617690681
 40
0.3257392819940743
 40
0.4423644022190806
 40
0.5589895224440884
 40
0.6756146426690964
 40
0.7922397628941047
 40
0.9088648831191131
 40
1.0
 40
1.0
 40
1.0
 40
1.0
 10
11.99999993714337
 20
-7.493517556798832
 30
0.0
 10
11.99999993714337
 20
-7.352417029401234
 30
0.0
 10
11.99999993714334
 20
-7.070215974606036
 30
0.0
 10
11.99999993714343
 20
-6.592232139810612
 30
0.0
 10
11.9999999371434
 20
-6.079678317662314
 30
0.0
 10
11.9999999371434
 20
-5.542088587601576
 30
0.0
 10
11.99999993714334
 20
-5.014340219375804
 30
0.0
 10
11.99999993714334
 20
-4.509706283198788
 30
0.0
 10
11.99999993714334
 20
-4.046637558197158
 30
0.0
 10
11.9999999371434
 20
-3.656746807529842
 30
0.0
 10
11.9999999371434
 20
-3.45741552040964
 30
0.0
 10
11.9999999371434
 20
-3.36997780661622
 30
0.0
  0
SPLINE
  5
249
330
1F
100
AcDbEntity
  8
외형선
  6
Continuous
370
    15
100
AcDbSpline
210
0.0
220
0.0
230
1.0
 70
    24
 71
     3
 72
    12
 73
     8
 74
     0
 42
0.000000001
 43
0.00000001
 40
0.0
 40
0.0
 40
0.0
 40
0.0
 40
0.0187002912736129
 40
0.3064661847320009
 40
0.5861220394580918
 40
0.8738879329164724
 40
1.0
 40
1.0
 40
1.0
 40
1.0
 10
11.99999993714334
 20
6.077973646079869
 30
0.0
 10
11.99999993714334
 20
6.087909742467247
 30
0.0
 10
11.99999993714334
 20
6.250745577824866
 30
0.0
 10
11.99999993714337
 20
6.603314892455295
 30
0.0
 10
11.9999999371434
 20
7.125933317330201
 30
0.0
 10
11.99999993714337
 20
7.564781363106157
 30
0.0
 10
11.99999993714334
 20
7.823998742270255
 30
0.0
 10
11.99999993714334
 20
7.902984440053139
 30
0.0
  0
LINE
  5
24A
330
1F
100
AcDbEntity
  8
중심선
 48
0.8
100
AcDbLine
 10
-51.32500006285665
 20
0.0005735042620358
 30
0.0
 11
46.74999993714334
 21
0.0005735042620429
 31
0.0
1001
PE_URL
1000

  0
CIRCLE
  5
24B
330
1F
100
AcDbEntity
  8
해칭선
100
AcDbCircle
 10
0.0
 20
0.0
 30
0.0
 40
3.000000000000001
  0
DIMENSION
  5
24C
330
1F
100
AcDbEntity
  8
치수문자_일반주서
100
AcDbDimension
  2
*D13
 10
11.99999993714334
 20
18.18262414587715
 30
0.0
 11
27.87499993714334
 21
18.18262414587715
 31
0.0
 70
   160
  1
<>
 71
     2
 42
31.75
  3
SLDDIMSTYLE1
100
AcDbAlignedDimension
 13
43.74999993714334
 23
7.938073504262029
 33
0.0
 14
11.99999993714334
 24
7.902984440053139
 34
0.0
 50
0.0000000000000128
100
AcDbRotatedDimension
1001
PE_URL
1000

1001
ACAD
1000
DSTYLE
1002
{
1070
   171
1070
     6
1070
   273
1070
     7
1002
}
  0
DIMENSION
  5
24D
330
1F
100
AcDbEntity
  8
치수문자_일반주서
100
AcDbDimension
  2
*D14
 10
-48.32500006285663
 20
32.59610867815357
 30
0.0
 11
-2.287500062856623
 21
32.59610867815357
 31
0.0
 70
   160
  1
<>
 71
     2
 42
92.07499999999997
  3
SLDDIMSTYLE1
100
AcDbAlignedDimension
 13
43.74999993714334
 23
7.938073504262029
 33
0.0
 14
-48.32500006285663
 24
6.35057350426203
 34
0.0
 50
0.0000000000000044
100
AcDbRotatedDimension
1001
PE_URL
1000

1001
ACAD
1000
DSTYLE
1002
{
1070
   171
1070
     6
1070
   273
1070
     7
1002
}
  0
DIMENSION
  5
24E
330
1F
100
AcDbEntity
  8
치수문자_일반주서
100
AcDbDimension
  2
*D15
 10
-60.3725000628566
 20
-7.936926495738034
 30
0.0
 11
-60.37250006285663
 21
0.0005735042620501
 31
0.0
 70
   160
  1
%%c<>
 71
     2
 42
15.87500000000002
 52
-270.0
  3
SLDDIMSTYLE1
100
AcDbAlignedDimension
 13
-46.73750006285664
 23
7.938073504262043
 33
0.0
 14
-46.73750006285664
 24
-7.936926495737982
 34
0.0
 50
90.0000000000002
100
AcDbRotatedDimension
1001
ACAD
1000
DSTYLE
1002
{
1070
   171
1070
     6
1070
   273
1070
     7
1002
}
  0
DIMENSION
  5
24F
330
1F
100
AcDbEntity
  8
치수문자_일반주서
100
AcDbDimension
  2
*D16
 10
58.6284473513952
 20
-7.93692649573785
 30
0.0
 11
58.62844735139507
 21
28.76082350426225
 31
0.0
 70
   160
  1
%%c<>
 71
     2
 42
15.87499999999994
 52
-270.0
  3
SLDDIMSTYLE1
100
AcDbAlignedDimension
 13
43.74999993714334
 23
7.938073504262029
 33
0.0
 14
43.74999993714334
 24
-7.936926495737911
 34
0.0
 50
90.0000000000002
100
AcDbRotatedDimension
1001
PE_URL
1000

1001
ACAD
1000
DSTYLE
1002
{
1070
   171
1070
     6
1070
   273
1070
     7
1002
}
  0
INSERT
  5
250
330
1F
100
AcDbEntity
  8
해칭선
100
AcDbBlockReference
  2
SW_DOWELSYMBOL_0
 10
0.0
 20
0.0
 30
0.0
  0
ARC
  5
251
330
1F
100
AcDbEntity
  8
0
  6
Continuous
 62
     1
370
    15
100
AcDbCircle
 10
42.22599993714334
 20
6.414073504262028
 30
0.0
 40
1.524
100
AcDbArc
 50
0.0
 51
93.1044108525526
1001
PE_URL
1000

  0
ARC
  5
252
330
1F
100
AcDbEntity
  8
0
  6
Continuous
 62
     1
370
    15
100
AcDbCircle
 10
42.22615729335368
 20
-6.413037489883944
 30
0.0
 40
1.524
100
AcDbArc
 50
266.8969948960587
 51
0.0014057486113722
1001
PE_URL
1000

  0
DIMENSION
  5
253
330
1F
100
AcDbEntity
  8
치수문자_일반주서
100
AcDbDimension
  2
*D17
 10
42.22615729335368
 20
-6.413037489883944
 30
0.0
 11
57.05642261203374
 21
-24.28236606261033
 31
0.0
 70
   164
 71
     5
 42
1.524000000000002
  3
SLDDIMSTYLE1
100
AcDbRadialDimension
 15
43.19943985585084
 25
-7.585768087054056
 35
0.0
 40
0.0
1001
ACAD
1000
DSTYLE
1002
{
1070
   171
1070
     3
1002
}
1001
ACAD_DSTYLE_DIMRADIAL_EXTENSION
1070
   387
1070
     1
1070
   388
1040
4.658231324614725
1070
   390
1040
0.0000245349417238
1001
PE_URL
1000

  0
ENDSEC
  0
SECTION
  2
OBJECTS
  0
DICTIONARY
  5
C
330
0
100
AcDbDictionary
281
     1
  3
ACAD_GROUP
350
D
  3
ACAD_LAYOUT
350
1A
  3
ACAD_MLINESTYLE
350
17
  3
ACAD_PLOTSETTINGS
350
19
  3
ACAD_PLOTSTYLENAME
350
E
  3
ACAD_SCALELIST
350
47
  3
APPDATA
350
15D
  3
DWGPROPS
350
290
  0
DICTIONARY
  5
20C
330
2
100
AcDbDictionary
280
     1
281
     1
  3
ACAD_LAYERSTATES
360
20D
  0
DICTIONARY
  5
D
102
{ACAD_REACTORS
330
C
102
}
330
C
100
AcDbDictionary
281
     1
  0
DICTIONARY
  5
1A
102
{ACAD_REACTORS
330
C
102
}
330
C
100
AcDbDictionary
281
     1
  3
Layout1
350
1E
  3
Layout2
350
26
  3
Model
350
22
  0
DICTIONARY
  5
17
102
{ACAD_REACTORS
330
C
102
}
330
C
100
AcDbDictionary
281
     1
  3
Standard
350
18
  0
DICTIONARY
  5
19
102
{ACAD_REACTORS
330
C
102
}
330
C
100
AcDbDictionary
281
     1
  0
ACDBDICTIONARYWDFLT
  5
E
102
{ACAD_REACTORS
330
C
102
}
330
C
100
AcDbDictionary
281
     1
  3
Normal
350
F
100
AcDbDictionaryWithDefault
340
F
  0
DICTIONARY
  5
47
102
{ACAD_REACTORS
330
C
102
}
330
C
100
AcDbDictionary
281
     1
  3
A0
350
48
  3
A1
350
49
  3
A2
350
4A
  3
A3
350
4B
  3
A4
350
4C
  3
A5
350
4D
  3
A6
350
4E
  3
A7
350
4F
  3
A8
350
50
  3
A9
350
51
  3
B0
350
52
  3
B1
350
53
  3
B2
350
54
  3
B3
350
55
  3
B4
350
56
  3
B5
350
57
  3
B6
350
58
  3
B7
350
59
  3
B8
350
5A
  3
B9
350
5B
  3
C0
350
5C
  3
C1
350
5D
  3
C2
350
5E
  3
C3
350
5F
  3
C4
350
60
  3
C5
350
61
  3
C6
350
62
  3
C7
350
63
  3
C8
350
64
  3
C9
350
65
  3
D0
350
66
  3
D1
350
67
  3
D2
350
68
  0
DICTIONARY
  5
15D
102
{ACAD_REACTORS
330
C
102
}
330
C
100
AcDbDictionary
281
     1
  0
XRECORD
  5
290
102
{ACAD_REACTORS
330
C
102
}
330
C
100
AcDbXrecord
280
     1
  1
DWGPROPS COOKIE
  2

  3

  4

  6

  7

  8
박수민
  9

300
=
301
=
302
=
303
=
304
=
305
=
306
=
307
=
308
=
309
=
 40
0.0
 41
2458295.126987164
 42
2458295.578055706
  1

 90
        0
  0
DICTIONARY
  5
20D
102
{ACAD_REACTORS
330
20C
102
}
330
20C
100
AcDbDictionary
281
     1
  0
LAYOUT
  5
1E
102
{ACAD_REACTORS
330
1A
102
}
330
1A
100
AcDbPlotSettings
  1

  2
none_device
  4

  6

 40
0.0
 41
0.0
 42
0.0
 43
0.0
 44
0.0
 45
0.0
 46
0.0
 47
0.0
 48
0.0
 49
0.0
140
0.0
141
0.0
142
1.0
143
1.0
 70
   688
 72
     1
 73
     0
 74
     5
  7

 75
    16
147
1.0
148
0.0
149
0.0
100
AcDbLayout
  1
Layout1
 70
     1
 71
     1
 10
0.0
 20
0.0
 11
420.0
 21
297.0
 12
0.0
 22
0.0
 32
0.0
 14
1.000000000000000E+20
 24
1.000000000000000E+20
 34
1.000000000000000E+20
 15
-1.000000000000000E+20
 25
-1.000000000000000E+20
 35
-1.000000000000000E+20
146
0.0
 13
0.0
 23
0.0
 33
0.0
 16
1.0
 26
0.0
 36
0.0
 17
0.0
 27
1.0
 37
0.0
 76
     0
330
1B
  0
LAYOUT
  5
26
102
{ACAD_REACTORS
330
1A
102
}
330
1A
100
AcDbPlotSettings
  1

  2
none_device
  4

  6

 40
0.0
 41
0.0
 42
0.0
 43
0.0
 44
0.0
 45
0.0
 46
0.0
 47
0.0
 48
0.0
 49
0.0
140
0.0
141
0.0
142
1.0
143
1.0
 70
   688
 72
     1
 73
     0
 74
     5
  7

 75
    16
147
1.0
148
0.0
149
0.0
100
AcDbLayout
  1
Layout2
 70
     1
 71
     2
 10
0.0
 20
0.0
 11
0.0
 21
0.0
 12
0.0
 22
0.0
 32
0.0
 14
0.0
 24
0.0
 34
0.0
 15
0.0
 25
0.0
 35
0.0
146
0.0
 13
0.0
 23
0.0
 33
0.0
 16
1.0
 26
0.0
 36
0.0
 17
0.0
 27
1.0
 37
0.0
 76
     0
330
23
  0
LAYOUT
  5
22
102
{ACAD_REACTORS
330
1A
102
}
330
1A
100
AcDbPlotSettings
  1

  2
none_device
  4
ANSI_A_(11.00_x_8.50_Inches)
  6

 40
6.35
 41
19.05
 42
6.35000508
 43
19.05000254
 44
279.4
 45
215.9
 46
102.9009801858271
 47
96.52136691591274
 48
0.0
 49
0.0
140
0.0
141
0.0
142
0.0741174986998969
143
1.0
 70
  1696
 72
     0
 73
     0
 74
     0
  7

 75
     0
147
0.0235690232323232
148
0.0
149
0.0
100
AcDbLayout
  1
Model
 70
     1
 71
     0
 10
0.0
 20
0.0
 11
420.0
 21
297.0
 12
0.0
 22
0.0
 32
0.0
 14
-64.74750006285667
 24
-49.97073246008785
 34
0.0
 15
89.6384838153456
 25
42.76082350426225
 35
0.0
146
0.0
 13
0.0
 23
0.0
 33
0.0
 16
1.0
 26
0.0
 36
0.0
 17
0.0
 27
1.0
 37
0.0
 76
     0
330
1F
331
29
  0
MLINESTYLE
  5
18
102
{ACAD_REACTORS
330
17
102
}
330
17
100
AcDbMlineStyle
  2
Standard
 70
     0
  3

 62
   256
 51
90.0
 52
90.0
 71
     2
 49
0.5
 62
   256
  6
BYLAYER
 49
-0.5
 62
   256
  6
BYLAYER
  0
ACDBPLACEHOLDER
  5
F
102
{ACAD_REACTORS
330
E
102
}
330
E
  0
SCALE
  5
48
102
{ACAD_REACTORS
330
47
102
}
330
47
100
AcDbScale
 70
     0
300
1:1
140
1.0
141
1.0
290
     1
  0
SCALE
  5
49
102
{ACAD_REACTORS
330
47
102
}
330
47
100
AcDbScale
 70
     0
300
1:2
140
1.0
141
2.0
290
     0
  0
SCALE
  5
4A
102
{ACAD_REACTORS
330
47
102
}
330
47
100
AcDbScale
 70
     0
300
1:4
140
1.0
141
4.0
290
     0
  0
SCALE
  5
4B
102
{ACAD_REACTORS
330
47
102
}
330
47
100
AcDbScale
 70
     0
300
1:5
140
1.0
141
5.0
290
     0
  0
SCALE
  5
4C
102
{ACAD_REACTORS
330
47
102
}
330
47
100
AcDbScale
 70
     0
300
1:8
140
1.0
141
8.0
290
     0
  0
SCALE
  5
4D
102
{ACAD_REACTORS
330
47
102
}
330
47
100
AcDbScale
 70
     0
300
1:10
140
1.0
141
10.0
290
     0
  0
SCALE
  5
4E
102
{ACAD_REACTORS
330
47
102
}
330
47
100
AcDbScale
 70
     0
300
1:16
140
1.0
141
16.0
290
     0
  0
SCALE
  5
4F
102
{ACAD_REACTORS
330
47
102
}
330
47
100
AcDbScale
 70
     0
300
1:20
140
1.0
141
20.0
290
     0
  0
SCALE
  5
50
102
{ACAD_REACTORS
330
47
102
}
330
47
100
AcDbScale
 70
     0
300
1:30
140
1.0
141
30.0
290
     0
  0
SCALE
  5
51
102
{ACAD_REACTORS
330
47
102
}
330
47
100
AcDbScale
 70
     0
300
1:40
140
1.0
141
40.0
290
     0
  0
SCALE
  5
52
102
{ACAD_REACTORS
330
47
102
}
330
47
100
AcDbScale
 70
     0
300
1:50
140
1.0
141
50.0
290
     0
  0
SCALE
  5
53
102
{ACAD_REACTORS
330
47
102
}
330
47
100
AcDbScale
 70
     0
300
1:100
140
1.0
141
100.0
290
     0
  0
SCALE
  5
54
102
{ACAD_REACTORS
330
47
102
}
330
47
100
AcDbScale
 70
     0
300
2:1
140
2.0
141
1.0
290
     0
  0
SCALE
  5
55
102
{ACAD_REACTORS
330
47
102
}
330
47
100
AcDbScale
 70
     0
300
4:1
140
4.0
141
1.0
290
     0
  0
SCALE
  5
56
102
{ACAD_REACTORS
330
47
102
}
330
47
100
AcDbScale
 70
     0
300
8:1
140
8.0
141
1.0
290
     0
  0
SCALE
  5
57
102
{ACAD_REACTORS
330
47
102
}
330
47
100
AcDbScale
 70
     0
300
10:1
140
10.0
141
1.0
290
     0
  0
SCALE
  5
58
102
{ACAD_REACTORS
330
47
102
}
330
47
100
AcDbScale
 70
     0
300
100:1
140
100.0
141
1.0
290
     0
  0
SCALE
  5
59
102
{ACAD_REACTORS
330
47
102
}
330
47
100
AcDbScale
 70
     0
300
1/128" = 1'-0"
140
0.0078125
141
12.0
290
     0
  0
SCALE
  5
5A
102
{ACAD_REACTORS
330
47
102
}
330
47
100
AcDbScale
 70
     0
300
1/64" = 1'-0"
140
0.015625
141
12.0
290
     0
  0
SCALE
  5
5B
102
{ACAD_REACTORS
330
47
102
}
330
47
100
AcDbScale
 70
     0
300
1/32" = 1'-0"
140
0.03125
141
12.0
290
     0
  0
SCALE
  5
5C
102
{ACAD_REACTORS
330
47
102
}
330
47
100
AcDbScale
 70
     0
300
1/16" = 1'-0"
140
0.0625
141
12.0
290
     0
  0
SCALE
  5
5D
102
{ACAD_REACTORS
330
47
102
}
330
47
100
AcDbScale
 70
     0
300
3/32" = 1'-0"
140
0.09375
141
12.0
290
     0
  0
SCALE
  5
5E
102
{ACAD_REACTORS
330
47
102
}
330
47
100
AcDbScale
 70
     0
300
1/8" = 1'-0"
140
0.125
141
12.0
290
     0
  0
SCALE
  5
5F
102
{ACAD_REACTORS
330
47
102
}
330
47
100
AcDbScale
 70
     0
300
3/16" = 1'-0"
140
0.1875
141
12.0
290
     0
  0
SCALE
  5
60
102
{ACAD_REACTORS
330
47
102
}
330
47
100
AcDbScale
 70
     0
300
1/4" = 1'-0"
140
0.25
141
12.0
290
     0
  0
SCALE
  5
61
102
{ACAD_REACTORS
330
47
102
}
330
47
100
AcDbScale
 70
     0
300
3/8" = 1'-0"
140
0.375
141
12.0
290
     0
  0
SCALE
  5
62
102
{ACAD_REACTORS
330
47
102
}
330
47
100
AcDbScale
 70
     0
300
1/2" = 1'-0"
140
0.5
141
12.0
290
     0
  0
SCALE
  5
63
102
{ACAD_REACTORS
330
47
102
}
330
47
100
AcDbScale
 70
     0
300
3/4" = 1'-0"
140
0.75
141
12.0
290
     0
  0
SCALE
  5
64
102
{ACAD_REACTORS
330
47
102
}
330
47
100
AcDbScale
 70
     0
300
1" = 1'-0"
140
1.0
141
12.0
290
     0
  0
SCALE
  5
65
102
{ACAD_REACTORS
330
47
102
}
330
47
100
AcDbScale
 70
     0
300
1-1/2" = 1'-0"
140
1.5
141
12.0
290
     0
  0
SCALE
  5
66
102
{ACAD_REACTORS
330
47
102
}
330
47
100
AcDbScale
 70
     0
300
3" = 1'-0"
140
3.0
141
12.0
290
     0
  0
SCALE
  5
67
102
{ACAD_REACTORS
330
47
102
}
330
47
100
AcDbScale
 70
     0
300
6" = 1'-0"
140
6.0
141
12.0
290
     0
  0
SCALE
  5
68
102
{ACAD_REACTORS
330
47
102
}
330
47
100
AcDbScale
 70
     0
300
1'-0" = 1'-0"
140
12.0
141
12.0
290
     0
  0
ENDSEC
  0
EOF
