  0
SECTION
  2
HEADER
  9
$ACADVER
  1
AC1015
  9
$ACADMAINTVER
 70
     6
  9
$DWGCODEPAGE
  3
ANSI_949
  9
$INSBASE
 10
0.0
 20
0.0
 30
0.0
  9
$EXTMIN
 10
-66.05000006285672
 20
-49.97073246008785
 30
0.0
  9
$EXTMAX
 10
91.22598381534554
 20
57.71026060483953
 30
0.0
  9
$LIMMIN
 10
0.0
 20
0.0
  9
$LIMMAX
 10
420.0
 20
297.0
  9
$ORTHOMODE
 70
     1
  9
$REGENMODE
 70
     1
  9
$FILLMODE
 70
     1
  9
$QTEXTMODE
 70
     0
  9
$MIRRTEXT
 70
     1
  9
$LTSCALE
 40
1.0
  9
$ATTMODE
 70
     1
  9
$TEXTSIZE
 40
3.5
  9
$TRACEWID
 40
1.0
  9
$TEXTSTYLE
  7
Standard
  9
$CLAYER
  8
0
  9
$CELTYPE
  6
ByLayer
  9
$CECOLOR
 62
   256
  9
$CELTSCALE
 40
1.0
  9
$DISPSILH
 70
     0
  9
$DIMSCALE
 40
1.0
  9
$DIMASZ
 40
3.302
  9
$DIMEXO
 40
1.0
  9
$DIMDLI
 40
3.75
  9
$DIMRND
 40
0.0
  9
$DIMDLE
 40
0.0
  9
$DIMEXE
 40
1.0
  9
$DIMTP
 40
0.0
  9
$DIMTM
 40
0.0
  9
$DIMTXT
 40
3.5
  9
$DIMCEN
 40
2.5
  9
$DIMTSZ
 40
0.0
  9
$DIMTOL
 70
     0
  9
$DIMLIM
 70
     0
  9
$DIMTIH
 70
     1
  9
$DIMTOH
 70
     1
  9
$DIMSE1
 70
     0
  9
$DIMSE2
 70
     0
  9
$DIMTAD
 70
     1
  9
$DIMZIN
 70
     0
  9
$DIMBLK
  1

  9
$DIMASO
 70
     1
  9
$DIMSHO
 70
     1
  9
$DIMPOST
  1

  9
$DIMAPOST
  1

  9
$DIMALT
 70
     0
  9
$DIMALTD
 70
     3
  9
$DIMALTF
 40
0.0393700787401575
  9
$DIMLFAC
 40
1.0
  9
$DIMTOFL
 70
     1
  9
$DIMTVP
 40
0.0
  9
$DIMTIX
 70
     0
  9
$DIMSOXD
 70
     0
  9
$DIMSAH
 70
     0
  9
$DIMBLK1
  1

  9
$DIMBLK2
  1

  9
$DIMSTYLE
  2
ISO-25
  9
$DIMCLRD
 70
     0
  9
$DIMCLRE
 70
     0
  9
$DIMCLRT
 70
     0
  9
$DIMTFAC
 40
1.0
  9
$DIMGAP
 40
1.524
  9
$DIMJUST
 70
     0
  9
$DIMSD1
 70
     0
  9
$DIMSD2
 70
     0
  9
$DIMTOLJ
 70
     0
  9
$DIMTZIN
 70
     0
  9
$DIMALTZ
 70
     0
  9
$DIMALTTZ
 70
     0
  9
$DIMUPT
 70
     0
  9
$DIMDEC
 70
     2
  9
$DIMTDEC
 70
     2
  9
$DIMALTU
 70
     2
  9
$DIMALTTD
 70
     3
  9
$DIMTXSTY
  7
Standard
  9
$DIMAUNIT
 70
     0
  9
$DIMADEC
 70
     2
  9
$DIMALTRND
 40
0.0
  9
$DIMAZIN
 70
     0
  9
$DIMDSEP
 70
    44
  9
$DIMATFIT
 70
     3
  9
$DIMFRAC
 70
     0
  9
$DIMLDRBLK
  1

  9
$DIMLUNIT
 70
     2
  9
$DIMLWD
 70
    -2
  9
$DIMLWE
 70
    -2
  9
$DIMTMOVE
 70
     0
  9
$LUNITS
 70
     2
  9
$LUPREC
 70
     2
  9
$SKETCHINC
 40
1.0
  9
$FILLETRAD
 40
10.0
  9
$AUNITS
 70
     0
  9
$AUPREC
 70
     2
  9
$MENU
  1
.
  9
$ELEVATION
 40
0.0
  9
$PELEVATION
 40
0.0
  9
$THICKNESS
 40
0.0
  9
$LIMCHECK
 70
     0
  9
$CHAMFERA
 40
0.0
  9
$CHAMFERB
 40
0.0
  9
$CHAMFERC
 40
0.0
  9
$CHAMFERD
 40
0.0
  9
$SKPOLY
 70
     0
  9
$TDCREATE
 40
2458295.511413252
  9
$TDUCREATE
 40
2458295.136413252
  9
$TDUPDATE
 40
2458295.956271597
  9
$TDUUPDATE
 40
2458295.581271597
  9
$TDINDWG
 40
0.0025916898
  9
$TDUSRTIMER
 40
0.0025916782
  9
$USRTIMER
 70
     1
  9
$ANGBASE
 50
0.0
  9
$ANGDIR
 70
     0
  9
$PDMODE
 70
     0
  9
$PDSIZE
 40
-1.0
  9
$PLINEWID
 40
0.0
  9
$SPLFRAME
 70
     0
  9
$SPLINETYPE
 70
     6
  9
$SPLINESEGS
 70
     8
  9
$HANDSEED
  5
1C0
  9
$SURFTAB1
 70
     6
  9
$SURFTAB2
 70
     6
  9
$SURFTYPE
 70
     6
  9
$SURFU
 70
     6
  9
$SURFV
 70
     6
  9
$UCSBASE
  2

  9
$UCSNAME
  2

  9
$UCSORG
 10
0.0
 20
0.0
 30
0.0
  9
$UCSXDIR
 10
1.0
 20
0.0
 30
0.0
  9
$UCSYDIR
 10
0.0
 20
1.0
 30
0.0
  9
$UCSORTHOREF
  2

  9
$UCSORTHOVIEW
 70
     0
  9
$UCSORGTOP
 10
0.0
 20
0.0
 30
0.0
  9
$UCSORGBOTTOM
 10
0.0
 20
0.0
 30
0.0
  9
$UCSORGLEFT
 10
0.0
 20
0.0
 30
0.0
  9
$UCSORGRIGHT
 10
0.0
 20
0.0
 30
0.0
  9
$UCSORGFRONT
 10
0.0
 20
0.0
 30
0.0
  9
$UCSORGBACK
 10
0.0
 20
0.0
 30
0.0
  9
$PUCSBASE
  2

  9
$PUCSNAME
  2

  9
$PUCSORG
 10
0.0
 20
0.0
 30
0.0
  9
$PUCSXDIR
 10
1.0
 20
0.0
 30
0.0
  9
$PUCSYDIR
 10
0.0
 20
1.0
 30
0.0
  9
$PUCSORTHOREF
  2

  9
$PUCSORTHOVIEW
 70
     0
  9
$PUCSORGTOP
 10
0.0
 20
0.0
 30
0.0
  9
$PUCSORGBOTTOM
 10
0.0
 20
0.0
 30
0.0
  9
$PUCSORGLEFT
 10
0.0
 20
0.0
 30
0.0
  9
$PUCSORGRIGHT
 10
0.0
 20
0.0
 30
0.0
  9
$PUCSORGFRONT
 10
0.0
 20
0.0
 30
0.0
  9
$PUCSORGBACK
 10
0.0
 20
0.0
 30
0.0
  9
$USERI1
 70
     0
  9
$USERI2
 70
     0
  9
$USERI3
 70
     0
  9
$USERI4
 70
     0
  9
$USERI5
 70
     0
  9
$USERR1
 40
0.0
  9
$USERR2
 40
0.0
  9
$USERR3
 40
0.0
  9
$USERR4
 40
0.0
  9
$USERR5
 40
0.0
  9
$WORLDVIEW
 70
     1
  9
$SHADEDGE
 70
     3
  9
$SHADEDIF
 70
    70
  9
$TILEMODE
 70
     1
  9
$MAXACTVP
 70
    64
  9
$PINSBASE
 10
0.0
 20
0.0
 30
0.0
  9
$PLIMCHECK
 70
     0
  9
$PEXTMIN
 10
1.000000000000000E+20
 20
1.000000000000000E+20
 30
1.000000000000000E+20
  9
$PEXTMAX
 10
-1.000000000000000E+20
 20
-1.000000000000000E+20
 30
-1.000000000000000E+20
  9
$PLIMMIN
 10
0.0
 20
0.0
  9
$PLIMMAX
 10
0.0
 20
0.0
  9
$UNITMODE
 70
     0
  9
$VISRETAIN
 70
     1
  9
$PLINEGEN
 70
     0
  9
$PSLTSCALE
 70
     1
  9
$TREEDEPTH
 70
  3020
  9
$CMLSTYLE
  2
Standard
  9
$CMLJUST
 70
     0
  9
$CMLSCALE
 40
20.0
  9
$PROXYGRAPHICS
 70
     1
  9
$MEASUREMENT
 70
     1
  9
$CELWEIGHT
370
    -1
  9
$ENDCAPS
280
     0
  9
$JOINSTYLE
280
     0
  9
$LWDISPLAY
290
     1
  9
$INSUNITS
 70
     4
  9
$HYPERLINKBASE
  1

  9
$STYLESHEET
  1

  9
$XEDIT
290
     1
  9
$CEPSNTYPE
380
     0
  9
$PSTYLEMODE
290
     1
  9
$FINGERPRINTGUID
  2
{C9411177-043E-4E37-849E-51777A5B9842}
  9
$VERSIONGUID
  2
{FAEB1C32-E019-11D5-929B-00C0DF256EC4}
  9
$EXTNAMES
290
     1
  9
$PSVPSCALE
 40
0.0
  9
$OLESTARTUP
290
     0
  0
ENDSEC
  0
SECTION
  2
CLASSES
  0
CLASS
  1
ACDBDICTIONARYWDFLT
  2
AcDbDictionaryWithDefault
  3
ObjectDBX Classes
 90
        0
280
     0
281
     0
  0
CLASS
  1
VISUALSTYLE
  2
AcDbVisualStyle
  3
ObjectDBX Classes
 90
     4095
280
     0
281
     0
  0
CLASS
  1
MATERIAL
  2
AcDbMaterial
  3
ObjectDBX Classes
 90
     1153
280
     0
281
     0
  0
CLASS
  1
SCALE
  2
AcDbScale
  3
ObjectDBX Classes
 90
     1153
280
     0
281
     0
  0
CLASS
  1
SUN
  2
AcDbSun
  3
SCENEOE
 90
     1153
280
     0
281
     0
  0
CLASS
  1
ACDBPLACEHOLDER
  2
AcDbPlaceHolder
  3
ObjectDBX Classes
 90
        0
280
     0
281
     0
  0
CLASS
  1
LAYOUT
  2
AcDbLayout
  3
ObjectDBX Classes
 90
        0
280
     0
281
     0
  0
CLASS
  1
TABLESTYLE
  2
AcDbTableStyle
  3
ObjectDBX Classes
 90
     4095
280
     0
281
     0
  0
CLASS
  1
MLEADERSTYLE
  2
AcDbMLeaderStyle
  3
ACDB_MLEADERSTYLE_CLASS
 90
     4095
280
     0
281
     0
  0
CLASS
  1
DIMASSOC
  2
AcDbDimAssoc
  3
"AcDbDimAssoc|Product Desc:     AcDim ARX App For Dimension|Company:          Autodesk, Inc.|WEB Address:      www.autodesk.com"
 90
        0
280
     0
281
     0
  0
ENDSEC
  0
SECTION
  2
TABLES
  0
TABLE
  2
VPORT
  5
8
330
0
100
AcDbSymbolTable
 70
     1
  0
VPORT
  5
29
330
8
100
AcDbSymbolTableRecord
100
AcDbViewportTableRecord
  2
*Active
 70
     0
 10
0.0
 20
0.0
 11
1.0
 21
1.0
 12
-120.1151387172644
 22
35.39766797933682
 13
0.0
 23
0.0
 14
10.0
 24
10.0
 15
10.0
 25
10.0
 16
0.0
 26
0.0
 36
1.0
 17
0.0
 27
0.0
 37
0.0
 40
231.5241479092585
 41
2.959259259259259
 42
50.0
 43
0.0
 44
0.0
 50
0.0
 51
0.0
 71
    16
 72
  2000
 73
     1
 74
     3
 75
     0
 76
     0
 77
     0
 78
     0
281
     0
 65
     1
110
0.0
120
0.0
130
0.0
111
1.0
121
0.0
131
0.0
112
0.0
122
1.0
132
0.0
 79
     0
146
0.0
  0
ENDTAB
  0
TABLE
  2
LTYPE
  5
5
330
0
100
AcDbSymbolTable
 70
     6
  0
LTYPE
  5
14
330
5
100
AcDbSymbolTableRecord
100
AcDbLinetypeTableRecord
  2
ByBlock
 70
     0
  3

 72
    65
 73
     0
 40
0.0
  0
LTYPE
  5
15
330
5
100
AcDbSymbolTableRecord
100
AcDbLinetypeTableRecord
  2
ByLayer
 70
     0
  3

 72
    65
 73
     0
 40
0.0
  0
LTYPE
  5
16
330
5
100
AcDbSymbolTableRecord
100
AcDbLinetypeTableRecord
  2
Continuous
 70
     0
  3
Solid line
 72
    65
 73
     0
 40
0.0
  0
LTYPE
  5
6A
330
5
100
AcDbSymbolTableRecord
100
AcDbLinetypeTableRecord
  2
HIDDEN
 70
     0
  3
Hidden __ __ __ __ __ __ __ __ __ __ __ __ __ __
 72
    65
 73
     2
 40
1.905
 49
1.27
 74
     0
 49
-0.635
 74
     0
  0
LTYPE
  5
6B
330
5
100
AcDbSymbolTableRecord
100
AcDbLinetypeTableRecord
  2
PHANTOM
 70
     0
  3
Phantom ______  __  __  ______  __  __  ______
 72
    65
 73
     6
 40
12.7
 49
6.35
 74
     0
 49
-1.27
 74
     0
 49
1.27
 74
     0
 49
-1.27
 74
     0
 49
1.27
 74
     0
 49
-1.27
 74
     0
  0
LTYPE
  5
6C
330
5
100
AcDbSymbolTableRecord
100
AcDbLinetypeTableRecord
  2
CENTER
 70
     0
  3
Center ____ _ ____ _ ____ _ ____ _ ____ _ ____
 72
    65
 73
     4
 40
10.16
 49
6.35
 74
     0
 49
-1.27
 74
     0
 49
1.27
 74
     0
 49
-1.27
 74
     0
  0
LTYPE
  5
6D
330
5
100
AcDbSymbolTableRecord
100
AcDbLinetypeTableRecord
  2
CENTERX2
 70
     0
  3
Center (2x) ________  __  ________  __  _____
 72
    65
 73
     4
 40
20.32
 49
12.7
 74
     0
 49
-2.54
 74
     0
 49
2.54
 74
     0
 49
-2.54
 74
     0
  0
LTYPE
  5
6E
330
5
100
AcDbSymbolTableRecord
100
AcDbLinetypeTableRecord
  2
DOT2
 70
     0
  3
Dot (.5x) ........................................
 72
    65
 73
     2
 40
0.635
 49
0.0
 74
     0
 49
-0.635
 74
     0
  0
ENDTAB
  0
TABLE
  2
LAYER
  5
2
102
{ACAD_XDICTIONARY
360
197
102
}
330
0
100
AcDbSymbolTable
 70
    18
  0
LAYER
  5
10
330
2
100
AcDbSymbolTableRecord
100
AcDbLayerTableRecord
  2
0
 70
     0
 62
     7
  6
Continuous
370
    -3
390
F
  0
LAYER
  5
6F
330
2
100
AcDbSymbolTableRecord
100
AcDbLayerTableRecord
  2
FORMAT
 70
     0
 62
     2
  6
Continuous
370
    -3
390
F
  0
LAYER
  5
70
330
2
100
AcDbSymbolTableRecord
100
AcDbLayerTableRecord
  2
외형선
 70
     0
 62
     4
  6
Continuous
370
    30
390
F
  0
LAYER
  5
71
330
2
100
AcDbSymbolTableRecord
100
AcDbLayerTableRecord
  2
숨은선
 70
     0
 62
     2
  6
HIDDEN
370
    15
390
F
  0
LAYER
  5
72
330
2
100
AcDbSymbolTableRecord
100
AcDbLayerTableRecord
  2
중심선
 70
     0
 62
     1
  6
CENTERX2
370
    -3
390
F
  0
LAYER
  5
73
330
2
100
AcDbSymbolTableRecord
100
AcDbLayerTableRecord
  2
파단선
 70
     0
 62
     4
  6
Continuous
370
    -3
390
F
  0
LAYER
  5
74
330
2
100
AcDbSymbolTableRecord
100
AcDbLayerTableRecord
  2
해칭선
 70
     0
 62
   100
  6
Continuous
370
    -3
390
F
  0
LAYER
  5
75
330
2
100
AcDbSymbolTableRecord
100
AcDbLayerTableRecord
  2
가는실선
 70
     0
 62
     4
  6
Continuous
370
    -3
390
F
  0
LAYER
  5
76
330
2
100
AcDbSymbolTableRecord
100
AcDbLayerTableRecord
  2
치수_보조선
 70
     0
 62
     4
  6
Continuous
370
    -3
390
F
  0
LAYER
  5
77
330
2
100
AcDbSymbolTableRecord
100
AcDbLayerTableRecord
  2
치수문자_일반주서
 70
     0
 62
     7
  6
Continuous
370
    15
390
F
  0
LAYER
  5
78
330
2
100
AcDbSymbolTableRecord
100
AcDbLayerTableRecord
  2
개별주서
 70
     0
 62
   100
  6
Continuous
370
    30
390
F
  0
LAYER
  5
79
330
2
100
AcDbSymbolTableRecord
100
AcDbLayerTableRecord
  2
중간선
 70
     0
 62
     2
  6
Continuous
370
    15
390
F
  0
LAYER
  5
7A
330
2
100
AcDbSymbolTableRecord
100
AcDbLayerTableRecord
  2
윤곽선
 70
     0
 62
     3
  6
Continuous
370
    40
390
F
  0
LAYER
  5
7B
330
2
100
AcDbSymbolTableRecord
100
AcDbLayerTableRecord
  2
중심마크
 70
     0
 62
   100
  6
Continuous
370
    30
390
F
  0
LAYER
  5
7C
330
2
100
AcDbSymbolTableRecord
100
AcDbLayerTableRecord
  2
가상선
 70
     0
 62
     4
  6
PHANTOM
370
    -3
390
F
  0
LAYER
  5
7D
330
2
100
AcDbSymbolTableRecord
100
AcDbLayerTableRecord
  2
특수지정선
 70
     0
 62
     5
  6
CENTERX2
370
    60
390
F
  0
LAYER
  5
7E
330
2
100
AcDbSymbolTableRecord
100
AcDbLayerTableRecord
  2
참조1
 70
     0
 62
    -4
  6
Continuous
370
    -3
390
F
  0
LAYER
  5
170
330
2
100
AcDbSymbolTableRecord
100
AcDbLayerTableRecord
  2
Defpoints
 70
     0
 62
     7
  6
Continuous
290
     0
370
    -3
390
F
  0
ENDTAB
  0
TABLE
  2
STYLE
  5
3
330
0
100
AcDbSymbolTable
 70
     2
  0
STYLE
  5
11
330
3
100
AcDbSymbolTableRecord
100
AcDbTextStyleTableRecord
  2
Standard
 70
     0
 40
0.0
 41
1.0
 50
0.0
 71
     0
 42
3.5
  3
txt
  4

  0
STYLE
  5
94
330
3
100
AcDbSymbolTableRecord
100
AcDbTextStyleTableRecord
  2
SLDTEXTSTYLE0
 70
     0
 40
0.0
 41
0.75
 50
0.0
 71
     0
 42
3.5
  3
TXT
  4

  0
ENDTAB
  0
TABLE
  2
VIEW
  5
6
330
0
100
AcDbSymbolTable
 70
     0
  0
ENDTAB
  0
TABLE
  2
UCS
  5
7
330
0
100
AcDbSymbolTable
 70
     0
  0
ENDTAB
  0
TABLE
  2
APPID
  5
9
330
0
100
AcDbSymbolTable
 70
     3
  0
APPID
  5
12
330
9
100
AcDbSymbolTableRecord
100
AcDbRegAppTableRecord
  2
ACAD
 70
     0
  0
APPID
  5
19E
330
9
100
AcDbSymbolTableRecord
100
AcDbRegAppTableRecord
  2
PE_URL
 70
     0
  0
APPID
  5
19F
330
9
100
AcDbSymbolTableRecord
100
AcDbRegAppTableRecord
  2
ACAD_DSTYLE_DIMRADIAL_EXTENSION
 70
     0
  0
ENDTAB
  0
TABLE
  2
DIMSTYLE
  5
A
330
0
100
AcDbSymbolTable
 70
     4
100
AcDbDimStyleTable
  0
DIMSTYLE
105
27
330
A
100
AcDbSymbolTableRecord
100
AcDbDimStyleTableRecord
  2
ISO-25
 70
     0
 41
2.5
 42
0.625
 43
3.75
 44
1.25
 73
     0
 74
     0
 77
     1
 78
     8
140
2.5
141
2.5
143
0.03937007874016
147
0.625
171
     3
172
     1
178
     0
271
     2
272
     2
274
     3
278
    44
283
     0
284
     8
340
11
  0
DIMSTYLE
105
F0
102
{ACAD_REACTORS
330
EF
330
104
330
118
330
12C
330
1AF
102
}
330
A
100
AcDbSymbolTableRecord
100
AcDbDimStyleTableRecord
  2
SLDDIMSTYLE0
 70
     0
 41
3.302
 44
0.0
 45
0.000000001
 73
     0
 74
     0
 77
     1
 78
    12
 79
     3
140
3.5
143
0.0393700787401575
147
0.875
148
0.000000001
170
     1
172
     1
173
     1
178
     0
271
     2
272
     2
276
     2
284
    12
289
     0
340
94
  0
DIMSTYLE
105
119
330
A
100
AcDbSymbolTableRecord
100
AcDbDimStyleTableRecord
  2
SLDDIMSTYLE1
 70
     0
 41
3.302
 44
0.0
 45
0.000000001
 73
     0
 74
     0
 77
     1
 78
     4
 79
     1
140
3.5
143
0.0393700787401575
147
0.875
148
0.000000001
170
     1
173
     1
178
     0
271
     2
272
     2
276
     2
284
    12
340
94
  0
DIMSTYLE
105
12D
330
A
100
AcDbSymbolTableRecord
100
AcDbDimStyleTableRecord
  2
SLDDIMSTYLE2
 70
     0
 41
3.302
 44
0.0
 45
0.000000001
 73
     0
 74
     0
 77
     1
 78
    12
 79
     3
140
3.5
143
0.0393700787401575
147
0.875
148
0.000000001
170
     1
173
     1
178
     0
271
     2
272
     2
276
     2
284
    12
340
94
  0
ENDTAB
  0
TABLE
  2
BLOCK_RECORD
  5
1
330
0
100
AcDbSymbolTable
 70
    10
  0
BLOCK_RECORD
  5
1F
330
1
100
AcDbSymbolTableRecord
100
AcDbBlockTableRecord
  2
*Model_Space
340
22
  0
BLOCK_RECORD
  5
1B
330
1
100
AcDbSymbolTableRecord
100
AcDbBlockTableRecord
  2
*Paper_Space
340
1E
  0
BLOCK_RECORD
  5
23
330
1
100
AcDbSymbolTableRecord
100
AcDbBlockTableRecord
  2
*Paper_Space0
340
26
  0
BLOCK_RECORD
  5
7F
330
1
100
AcDbSymbolTableRecord
100
AcDbBlockTableRecord
  2
블럭10
340
0
102
{BLKREFS
331
E8
102
}
  0
BLOCK_RECORD
  5
F1
330
1
100
AcDbSymbolTableRecord
100
AcDbBlockTableRecord
  2
_D
340
0
  0
BLOCK_RECORD
  5
105
330
1
100
AcDbSymbolTableRecord
100
AcDbBlockTableRecord
  2
_D_1
340
0
  0
BLOCK_RECORD
  5
11A
330
1
100
AcDbSymbolTableRecord
100
AcDbBlockTableRecord
  2
_D_2
340
0
  0
BLOCK_RECORD
  5
12E
330
1
100
AcDbSymbolTableRecord
100
AcDbBlockTableRecord
  2
_D_3
340
0
  0
BLOCK_RECORD
  5
147
330
1
100
AcDbSymbolTableRecord
100
AcDbBlockTableRecord
  2
SW_DOWELSYMBOL_0
340
0
102
{BLKREFS
331
14D
102
}
  0
BLOCK_RECORD
  5
1A3
330
1
100
AcDbSymbolTableRecord
100
AcDbBlockTableRecord
  2
*D8
340
0
  0
BLOCK_RECORD
  5
1B2
330
1
100
AcDbSymbolTableRecord
100
AcDbBlockTableRecord
  2
*D9
340
0
  0
ENDTAB
  0
ENDSEC
  0
SECTION
  2
BLOCKS
  0
BLOCK
  5
20
330
1F
100
AcDbEntity
  8
0
100
AcDbBlockBegin
  2
*Model_Space
 70
     0
 10
0.0
 20
0.0
 30
0.0
  3
*Model_Space
  1

  0
ENDBLK
  5
21
330
1F
100
AcDbEntity
  8
0
100
AcDbBlockEnd
  0
BLOCK
  5
1C
330
1B
100
AcDbEntity
 67
     1
  8
0
100
AcDbBlockBegin
  2
*Paper_Space
 70
     0
 10
0.0
 20
0.0
 30
0.0
  3
*Paper_Space
  1

  0
ENDBLK
  5
1D
330
1B
100
AcDbEntity
 67
     1
  8
0
100
AcDbBlockEnd
  0
BLOCK
  5
24
330
23
100
AcDbEntity
  8
0
100
AcDbBlockBegin
  2
*Paper_Space0
 70
     0
 10
0.0
 20
0.0
 30
0.0
  3
*Paper_Space0
  1

  0
ENDBLK
  5
25
330
23
100
AcDbEntity
  8
0
100
AcDbBlockEnd
  0
BLOCK
  5
80
330
7F
100
AcDbEntity
  8
0
100
AcDbBlockBegin
  2
블럭10
 70
     2
 10
0.0
 20
0.0
 30
0.0
  3
블럭10
  1

  0
ELLIPSE
  5
82
330
7F
100
AcDbEntity
  8
중심선
100
AcDbEllipse
 10
20.54032771741204
 20
12.0471743016438
 30
0.0
 11
6.600054785286829
 21
-1.261213355974178E-13
 31
0.0
210
0.0
220
0.0
230
1.0
 40
0.636358354079598
 41
0.9219305317359503
 42
6.513795318482858
  0
ELLIPSE
  5
83
330
7F
100
AcDbEntity
  8
중심선
100
AcDbEllipse
 10
20.54032771746488
 20
12.04717430159265
 30
0.0
 11
3.960054785062283
 21
1.540847449632565E-10
 31
0.0
210
0.0
220
0.0
230
1.0
 40
0.3939339440162632
 41
1.131841032648279
 42
5.62031148352944
  0
LINE
  5
84
330
7F
100
AcDbEntity
  8
중심선
100
AcDbLine
 10
2.268634060543552
 20
16.24717430164393
 30
0.0
 11
5.714909304380834
 21
16.24717430164393
 31
0.0
  0
LINE
  5
85
330
7F
100
AcDbEntity
  8
중심선
100
AcDbLine
 10
5.245725140726316
 20
7.84717430164391
 30
0.0
 11
8.692000384563599
 21
7.84717430164391
 31
0.0
  0
LINE
  5
86
330
7F
100
AcDbEntity
  8
중심선
100
AcDbLine
 10
15.74043728645272
 20
16.24717430164393
 30
0.0
 11
8.692000384563599
 21
7.84717430164391
 31
0.0
  0
LINE
  5
87
330
7F
100
AcDbEntity
  8
중심선
100
AcDbLine
 10
0.1404042013395286
 20
13.71084872107135
 30
0.0
 11
3.58671253028996
 21
13.71088815037384
 31
0.0
  0
LINE
  5
88
330
7F
100
AcDbEntity
  8
중심선
100
AcDbLine
 10
2.750260043222114
 20
10.84717430164391
 30
0.0
 11
6.196535287059397
 21
10.84717430164391
 31
0.0
  0
LINE
  5
89
330
7F
100
AcDbEntity
  8
중심선
100
AcDbLine
 10
12.29416204261559
 20
16.24717430164393
 30
0.0
 11
5.245725140726316
 21
7.84717430164391
 31
0.0
  0
LINE
  5
8A
330
7F
100
AcDbEntity
  8
중심선
100
AcDbLine
 10
10.72767329541681
 20
16.24717430164393
 30
0.0
 11
6.196535287059397
 21
10.84717430164391
 31
0.0
  0
LINE
  5
8B
330
7F
100
AcDbEntity
  8
중심선
100
AcDbLine
 10
7.28139805157953
 20
16.24717430164393
 30
0.0
 11
2.750260043222114
 21
10.84717430164391
 31
0.0
  0
LINE
  5
8C
330
7F
100
AcDbEntity
  8
중심선
100
AcDbLine
 10
5.714909304380834
 20
16.24717430164393
 30
0.0
 11
3.58671253028996
 21
13.71088815037384
 31
0.0
  0
LINE
  5
8D
330
7F
100
AcDbEntity
  8
중심선
100
AcDbLine
 10
2.268634060543552
 20
16.24717430164393
 30
0.0
 11
0.1404042013395286
 21
13.71084872107135
 31
0.0
  0
LINE
  5
8E
330
7F
100
AcDbEntity
  8
중심선
100
AcDbLine
 10
7.28139805157953
 20
16.24717430164393
 30
0.0
 11
10.72767329541681
 21
16.24717430164393
 31
0.0
  0
LINE
  5
8F
330
7F
100
AcDbEntity
  8
중심선
100
AcDbLine
 10
12.29416204261559
 20
16.24717430164393
 30
0.0
 11
15.74043728645272
 21
16.24717430164393
 31
0.0
  0
LINE
  5
90
330
7F
100
AcDbEntity
  8
중심선
100
AcDbLine
 10
19.22036997980202
 20
11.08717430171403
 30
0.0
 11
23.66174974927406
 21
11.08717430171406
 31
0.0
  0
LINE
  5
91
330
7F
100
AcDbEntity
  8
중심선
100
AcDbLine
 10
19.22039502424796
 20
13.00717430171391
 30
0.0
 11
19.22036997980202
 21
11.08717430171403
 31
0.0
  0
LINE
  5
92
330
7F
100
AcDbEntity
  8
중심선
100
AcDbLine
 10
19.22039502424796
 20
13.00717430171391
 30
0.0
 11
26.96566020931264
 21
13.00717430171391
 31
0.0
  0
LINE
  5
93
330
7F
100
AcDbEntity
  8
중심선
100
AcDbLine
 10
22.22332737316547
 20
13.45928029700563
 30
0.0
 11
24.52862924686651
 21
15.39360700705356
 31
0.0
  0
ATTDEF
  5
95
330
7F
100
AcDbEntity
  8
FORMAT
 62
     2
100
AcDbText
 10
2.883703680694412
 20
2.075366912832191
 30
0.0
 40
4.233333333333333
  1
G8C51904
 41
0.75
  7
SLDTEXTSTYLE0
 11
2.883703680694412
 21
-0.0412997538344756
 31
0.0
100
AcDbAttributeDefinition
  3

  2
AUTOATTR0
 70
     0
 74
     1
  0
ENDBLK
  5
81
330
7F
100
AcDbEntity
  8
0
100
AcDbBlockEnd
  0
BLOCK
  5
F2
330
F1
100
AcDbEntity
  8
0
100
AcDbBlockBegin
  2
_D
 70
     0
 10
0.0
 20
0.0
 30
0.0
  3
_D
  1

  0
LINE
  5
F4
330
F1
100
AcDbEntity
  8
치수문자_일반주서
 62
     0
370
    -2
100
AcDbLine
 10
50.1624999371433
 20
9.525573504262077
 30
0.0
 11
69.09999993714342
 21
9.525573504262148
 31
0.0
  0
LINE
  5
F5
330
F1
100
AcDbEntity
  8
치수문자_일반주서
 62
     0
370
    -2
100
AcDbLine
 10
50.1624999371433
 20
-9.52442649573793
 30
0.0
 11
69.0999999371435
 21
-9.524426495737856
 31
0.0
  0
LINE
  5
F6
330
F1
100
AcDbEntity
  8
치수문자_일반주서
 62
     0
370
    -2
100
AcDbLine
 10
69.09999993714342
 20
9.525573504262148
 30
0.0
 11
69.0999999371433
 21
43.69207350426215
 31
0.0
  0
LINE
  5
F7
330
F1
100
AcDbEntity
  8
치수문자_일반주서
 62
     0
370
    -2
100
AcDbLine
 10
69.09999993714342
 20
9.525573504262148
 30
0.0
 11
69.0999999371435
 21
-9.524426495737856
 31
0.0
  0
LINE
  5
F8
330
F1
100
AcDbEntity
  8
치수문자_일반주서
 62
     0
370
    -2
100
AcDbLine
 10
69.09999993714341
 20
12.82757350426215
 30
0.0
 11
69.0999999371434
 21
16.12957350426215
 31
0.0
  0
LINE
  5
F9
330
F1
100
AcDbEntity
  8
치수문자_일반주서
 62
     0
370
    -2
100
AcDbLine
 10
69.09999993714351
 20
-12.82642649573786
 30
0.0
 11
69.09999993714352
 21
-16.12842649573786
 31
0.0
  0
SOLID
  5
FA
330
F1
100
AcDbEntity
  8
치수문자_일반주서
 62
     0
100
AcDbTrace
 10
68.54966660381008
 20
12.82757350426215
 30
0.0
 11
69.65033327047674
 21
12.82757350426215
 31
0.0
 12
69.09999993714342
 22
9.525573504262148
 32
0.0
 13
69.09999993714342
 23
9.525573504262148
 33
0.0
  0
SOLID
  5
FB
330
F1
100
AcDbEntity
  8
치수문자_일반주서
 62
     0
100
AcDbTrace
 10
69.65033327047684
 20
-12.82642649573785
 30
0.0
 11
68.54966660381018
 21
-12.82642649573786
 31
0.0
 12
69.0999999371435
 22
-9.524426495737856
 32
0.0
 13
69.0999999371435
 23
-9.524426495737856
 33
0.0
  0
MTEXT
  5
FC
330
F1
100
AcDbEntity
  8
치수문자_일반주서
 62
     0
100
AcDbMText
 10
64.72499993714335
 20
29.91082350426213
 30
0.0
 40
3.5
 41
0.0
 71
     2
 72
     1
  1
\A1;%%c19.05 [3/4]
  7
SLDTEXTSTYLE0
 11
-3.729883127349606E-15
 21
1.0
 31
0.0
 73
     1
 44
1.0
  0
POINT
  5
1BC
330
F1
100
AcDbEntity
  8
Defpoints
 62
     0
100
AcDbPoint
 10
50.0999999371433
 20
9.525573504262077
 30
0.0
  0
POINT
  5
1BD
330
F1
100
AcDbEntity
  8
Defpoints
 62
     0
100
AcDbPoint
 10
50.0999999371433
 20
-9.52442649573793
 30
0.0
  0
POINT
  5
1BE
330
F1
100
AcDbEntity
  8
Defpoints
 62
     0
100
AcDbPoint
 10
69.0999999371435
 20
-9.52442649573786
 30
0.0
  0
ENDBLK
  5
F3
330
F1
100
AcDbEntity
  8
0
100
AcDbBlockEnd
  0
BLOCK
  5
106
330
105
100
AcDbEntity
  8
0
100
AcDbBlockBegin
  2
_D_1
 70
     0
 10
0.0
 20
0.0
 30
0.0
  3
_D_1
  1

  0
LINE
  5
108
330
105
100
AcDbEntity
  8
치수문자_일반주서
 62
     0
370
    -2
100
AcDbLine
 10
-52.8325000628567
 20
9.525573504262029
 30
0.0
 11
-61.67500006285672
 21
9.525573504261999
 31
0.0
  0
LINE
  5
109
330
105
100
AcDbEntity
  8
치수문자_일반주서
 62
     0
370
    -2
100
AcDbLine
 10
-52.8325000628567
 20
-9.524426495737982
 30
0.0
 11
-61.67500006285666
 21
-9.524426495738012
 31
0.0
  0
LINE
  5
10A
330
105
100
AcDbEntity
  8
치수문자_일반주서
 62
     0
370
    -2
100
AcDbLine
 10
-61.67500006285671
 20
6.223573504261999
 30
0.0
 11
-61.67500006285668
 21
-6.222426495738013
 31
0.0
  0
SOLID
  5
10B
330
105
100
AcDbEntity
  8
치수문자_일반주서
 62
     0
100
AcDbTrace
 10
-61.12466672952338
 20
6.223573504262001
 30
0.0
 11
-62.22533339619005
 21
6.223573504261998
 31
0.0
 12
-61.67500006285672
 22
9.525573504261999
 32
0.0
 13
-61.67500006285672
 23
9.525573504261999
 33
0.0
  0
SOLID
  5
10C
330
105
100
AcDbEntity
  8
치수문자_일반주서
 62
     0
100
AcDbTrace
 10
-62.22533339619001
 20
-6.222426495738015
 30
0.0
 11
-61.12466672952334
 21
-6.222426495738011
 31
0.0
 12
-61.67500006285666
 22
-9.524426495738012
 32
0.0
 13
-61.67500006285666
 23
-9.524426495738012
 33
0.0
  0
MTEXT
  5
10D
330
105
100
AcDbEntity
  8
치수문자_일반주서
 62
     0
100
AcDbMText
 10
-66.0500000628567
 20
0.0005735042620129
 30
0.0
 40
3.5
 41
0.0
 71
     2
 72
     1
  1
\A1;%%c19.05 [3/4]
  7
SLDTEXTSTYLE0
 11
-3.356894814614644E-15
 21
1.0
 31
0.0
 73
     1
 44
1.0
  0
POINT
  5
10E
330
105
100
AcDbEntity
  8
Defpoints
 62
     0
100
AcDbPoint
 10
-52.7700000628567
 20
9.525573504262029
 30
0.0
  0
POINT
  5
10F
330
105
100
AcDbEntity
  8
Defpoints
 62
     0
100
AcDbPoint
 10
-52.7700000628567
 20
-9.524426495737982
 30
0.0
  0
POINT
  5
110
330
105
100
AcDbEntity
  8
Defpoints
 62
     0
100
AcDbPoint
 10
-61.67500006285666
 20
-9.524426495738016
 30
0.0
  0
ENDBLK
  5
107
330
105
100
AcDbEntity
  8
0
100
AcDbBlockEnd
  0
BLOCK
  5
11B
330
11A
100
AcDbEntity
  8
0
100
AcDbBlockBegin
  2
_D_2
 70
     0
 10
0.0
 20
0.0
 30
0.0
  3
_D_2
  1

  0
LINE
  5
11D
330
11A
100
AcDbEntity
  8
치수문자_일반주서
 62
     0
370
    -2
100
AcDbLine
 10
50.0999999371433
 20
9.588073504262077
 30
0.0
 11
50.0999999371433
 21
37.47131400796412
 31
0.0
  0
LINE
  5
11E
330
11A
100
AcDbEntity
  8
치수문자_일반주서
 62
     0
370
    -2
100
AcDbLine
 10
11.99999993714334
 20
9.552765543490386
 30
0.0
 11
11.99999993714334
 21
37.47131400796412
 31
0.0
  0
LINE
  5
11F
330
11A
100
AcDbEntity
  8
치수문자_일반주서
 62
     0
370
    -2
100
AcDbLine
 10
46.7979999371433
 20
37.47131400796412
 30
0.0
 11
15.30199993714334
 21
37.47131400796412
 31
0.0
  0
SOLID
  5
120
330
11A
100
AcDbEntity
  8
치수문자_일반주서
 62
     0
100
AcDbTrace
 10
46.7979999371433
 20
36.92098067463078
 30
0.0
 11
46.7979999371433
 21
38.02164734129745
 31
0.0
 12
50.0999999371433
 22
37.47131400796412
 32
0.0
 13
50.0999999371433
 23
37.47131400796412
 33
0.0
  0
SOLID
  5
121
330
11A
100
AcDbEntity
  8
치수문자_일반주서
 62
     0
100
AcDbTrace
 10
15.30199993714334
 20
38.02164734129745
 30
0.0
 11
15.30199993714334
 21
36.92098067463078
 31
0.0
 12
11.99999993714334
 22
37.47131400796412
 32
0.0
 13
11.99999993714334
 23
37.47131400796412
 33
0.0
  0
MTEXT
  5
122
330
11A
100
AcDbEntity
  8
치수문자_일반주서
 62
     0
100
AcDbMText
 10
33.41743755623424
 20
41.84631400796412
 30
0.0
 40
3.5
 41
0.0
 71
     2
 72
     1
  1
\A1;38.1 [1 1/2]
  7
SLDTEXTSTYLE0
 73
     1
 44
1.0
  0
POINT
  5
123
330
11A
100
AcDbEntity
  8
Defpoints
 62
     0
100
AcDbPoint
 10
50.0999999371433
 20
9.525573504262077
 30
0.0
  0
POINT
  5
124
330
11A
100
AcDbEntity
  8
Defpoints
 62
     0
100
AcDbPoint
 10
11.99999993714334
 20
9.490265543490386
 30
0.0
  0
POINT
  5
125
330
11A
100
AcDbEntity
  8
Defpoints
 62
     0
100
AcDbPoint
 10
11.99999993714334
 20
37.47131400796412
 30
0.0
  0
ENDBLK
  5
11C
330
11A
100
AcDbEntity
  8
0
100
AcDbBlockEnd
  0
BLOCK
  5
12F
330
12E
100
AcDbEntity
  8
0
100
AcDbBlockBegin
  2
_D_3
 70
     0
 10
0.0
 20
0.0
 30
0.0
  3
_D_3
  1

  0
LINE
  5
131
330
12E
100
AcDbEntity
  8
치수문자_일반주서
 62
     0
370
    -2
100
AcDbLine
 10
-54.67500006285669
 20
7.683073504262026
 30
0.0
 11
-54.67500006285669
 21
53.33526060483953
 31
0.0
  0
LINE
  5
132
330
12E
100
AcDbEntity
  8
치수문자_일반주서
 62
     0
370
    -2
100
AcDbLine
 10
50.0999999371433
 20
9.588073504262077
 30
0.0
 11
50.0999999371433
 21
53.33526060483953
 31
0.0
  0
LINE
  5
133
330
12E
100
AcDbEntity
  8
치수문자_일반주서
 62
     0
370
    -2
100
AcDbLine
 10
-51.37300006285669
 20
53.33526060483953
 30
0.0
 11
46.7979999371433
 21
53.33526060483953
 31
0.0
  0
SOLID
  5
134
330
12E
100
AcDbEntity
  8
치수문자_일반주서
 62
     0
100
AcDbTrace
 10
-51.37300006285669
 20
53.88559393817287
 30
0.0
 11
-51.37300006285669
 21
52.7849272715062
 31
0.0
 12
-54.67500006285669
 22
53.33526060483953
 32
0.0
 13
-54.67500006285669
 23
53.33526060483953
 33
0.0
  0
SOLID
  5
135
330
12E
100
AcDbEntity
  8
치수문자_일반주서
 62
     0
100
AcDbTrace
 10
46.7979999371433
 20
52.7849272715062
 30
0.0
 11
46.7979999371433
 21
53.88559393817287
 31
0.0
 12
50.0999999371433
 22
53.33526060483953
 32
0.0
 13
50.0999999371433
 23
53.33526060483953
 33
0.0
  0
MTEXT
  5
136
330
12E
100
AcDbEntity
  8
치수문자_일반주서
 62
     0
100
AcDbMText
 10
-1.158940133989765
 20
57.71026060483953
 30
0.0
 40
3.5
 41
0.0
 71
     2
 72
     1
  1
\A1;104.78 [4 1/8]
  7
SLDTEXTSTYLE0
 73
     1
 44
1.0
  0
POINT
  5
137
330
12E
100
AcDbEntity
  8
Defpoints
 62
     0
100
AcDbPoint
 10
-54.67500006285669
 20
7.620573504262026
 30
0.0
  0
POINT
  5
138
330
12E
100
AcDbEntity
  8
Defpoints
 62
     0
100
AcDbPoint
 10
50.0999999371433
 20
9.525573504262077
 30
0.0
  0
POINT
  5
139
330
12E
100
AcDbEntity
  8
Defpoints
 62
     0
100
AcDbPoint
 10
50.0999999371433
 20
53.33526060483953
 30
0.0
  0
ENDBLK
  5
130
330
12E
100
AcDbEntity
  8
0
100
AcDbBlockEnd
  0
BLOCK
  5
148
330
147
100
AcDbEntity
  8
0
100
AcDbBlockBegin
  2
SW_DOWELSYMBOL_0
 70
     0
 10
0.0
 20
0.0
 30
0.0
  3
SW_DOWELSYMBOL_0
  1

  0
CIRCLE
  5
14A
330
147
100
AcDbEntity
  8
해칭선
 62
     0
100
AcDbCircle
 10
0.0
 20
0.0
 30
0.0
 40
3.000000000000001
  0
HATCH
  5
14B
330
147
100
AcDbEntity
  8
0
  6
Continuous
 62
     0
370
     0
100
AcDbHatch
 10
0.0
 20
0.0
 30
0.0
210
0.0
220
0.0
230
1.0
  2
SOLID
 70
     1
 71
     0
 91
        1
 92
        0
 93
        3
 72
     2
 10
-0.0000000000000052
 20
0.0
 40
3.000000000000001
 50
0.0
 51
90.0
 73
     1
 72
     1
 10
-0.0000000000000052
 20
3.000000000000001
 11
-0.0000000000000052
 21
0.0
 72
     1
 10
-0.0000000000000052
 20
0.0
 11
2.999999999999996
 21
0.0
 97
        0
 75
     0
 76
     1
 98
        1
 10
0.0
 20
0.0
  0
HATCH
  5
14C
330
147
100
AcDbEntity
  8
0
  6
Continuous
 62
     0
370
     0
100
AcDbHatch
 10
0.0
 20
0.0
 30
0.0
210
0.0
220
0.0
230
1.0
  2
SOLID
 70
     1
 71
     0
 91
        1
 92
        0
 93
        3
 72
     2
 10
-0.0000000000000052
 20
0.0
 40
3.000000000000001
 50
180.0
 51
270.0000000000008
 73
     1
 72
     1
 10
-0.0000000000000052
 20
-3.000000000000001
 11
-0.0000000000000052
 21
0.0
 72
     1
 10
-0.0000000000000052
 20
0.0
 11
-3.000000000000007
 21
0.0
 97
        0
 75
     0
 76
     1
 98
        1
 10
0.0
 20
0.0
  0
ENDBLK
  5
149
330
147
100
AcDbEntity
  8
0
100
AcDbBlockEnd
  0
BLOCK
  5
1A4
330
1A3
100
AcDbEntity
  8
0
100
AcDbBlockBegin
  2
*D8
 70
     1
 10
0.0
 20
0.0
 30
0.0
  3
*D8
  1

  0
LINE
  5
1A6
330
1A3
100
AcDbEntity
  8
0
 62
     0
370
    -2
100
AcDbLine
 10
69.87483608094136
 20
14.01945153943538
 30
0.0
 11
54.93416941427469
 21
14.01945153943538
 31
0.0
  0
LINE
  5
1A7
330
1A3
100
AcDbEntity
  8
0
 62
     0
370
    -2
100
AcDbLine
 10
54.93416941427469
 20
14.01945153943538
 30
0.0
 11
50.49431463371637
 21
10.82034274997808
 31
0.0
  0
MTEXT
  5
1A8
330
1A3
100
AcDbEntity
  8
0
 62
     0
100
AcDbMText
 10
63.16650274760803
 20
17.58511820610205
 30
0.0
 40
3.5
 41
0.0
 71
     5
 72
     1
  1
R1,53
 73
     1
 44
1.0
  0
LINE
  5
1A9
330
1A3
100
AcDbEntity
  8
0
 62
     0
370
    -2
100
AcDbLine
 10
46.57301729056972
 20
7.99487718487272
 30
0.0
 11
47.81531891896246
 21
8.890009628382177
 31
0.0
  0
SOLID
  5
1AA
330
1A3
100
AcDbEntity
  8
0
 62
     0
100
AcDbTrace
 10
50.17259244678372
 20
11.2668420357704
 30
0.0
 11
50.81603682064902
 21
10.37384346418577
 31
0.0
 12
47.81531891896246
 22
8.890009628382177
 32
0.0
 13
47.81531891896246
 23
8.890009628382177
 33
0.0
  0
POINT
  5
1AB
330
1A3
100
AcDbEntity
  8
Defpoints
 62
     0
100
AcDbPoint
 10
47.81531891896246
 20
8.890009628382177
 30
0.0
  0
POINT
  5
1AC
330
1A3
100
AcDbEntity
  8
Defpoints
 62
     0
100
AcDbPoint
 10
46.57301729056972
 20
7.99487718487272
 30
0.0
  0
ENDBLK
  5
1A5
330
1A3
100
AcDbEntity
  8
0
100
AcDbBlockEnd
  0
BLOCK
  5
1B3
330
1B2
100
AcDbEntity
  8
0
100
AcDbBlockBegin
  2
*D9
 70
     1
 10
0.0
 20
0.0
 30
0.0
  3
*D9
  1

  0
LINE
  5
1B5
330
1B2
100
AcDbEntity
  8
치수문자_일반주서
 62
     0
370
    -2
100
AcDbLine
 10
50.86647410086129
 20
-12.24799634004032
 30
0.0
 11
66.75562633796726
 21
-41.72818377899787
 31
0.0
  0
MTEXT
  5
1B6
330
1B2
100
AcDbEntity
  8
치수문자_일반주서
 62
     0
100
AcDbMText
 10
61.90510902503172
 20
-27.19599895153945
 30
0.0
 40
3.5
 41
0.0
 71
     5
 72
     1
  1
\A1;R1.53 [R0.060]
  7
SLDTEXTSTYLE0
 11
0.4744517606146992
 21
-0.8802815043209827
 31
0.0
 73
     1
 44
1.0
  0
LINE
  5
1B7
330
1B2
100
AcDbEntity
  8
치수문자_일반주서
 62
     0
370
    -2
100
AcDbLine
 10
48.5733535435651
 20
-7.993419202101617
 30
0.0
 11
49.29983438731156
 21
-9.341306812772434
 31
0.0
  0
SOLID
  5
1B8
330
1B2
100
AcDbEntity
  8
치수문자_일반주서
 62
     0
100
AcDbTrace
 10
51.35092235540593
 20
-11.98688972111536
 30
0.0
 11
50.38202584631664
 21
-12.50910295896527
 31
0.0
 12
49.29983438731156
 22
-9.341306812772434
 32
0.0
 13
49.29983438731156
 23
-9.341306812772434
 33
0.0
  0
POINT
  5
1B9
330
1B2
100
AcDbEntity
  8
Defpoints
 62
     0
100
AcDbPoint
 10
49.29983438731156
 20
-9.341306812772434
 30
0.0
  0
POINT
  5
1BA
330
1B2
100
AcDbEntity
  8
Defpoints
 62
     0
100
AcDbPoint
 10
48.5733535435651
 20
-7.993419202101617
 30
0.0
  0
ENDBLK
  5
1B4
330
1B2
100
AcDbEntity
  8
0
100
AcDbBlockEnd
  0
ENDSEC
  0
SECTION
  2
ENTITIES
  0
LINE
  5
96
330
1F
100
AcDbEntity
  8
0
  6
Continuous
 62
     1
370
    15
100
AcDbLine
 10
38.8850299191705
 20
-1.37556359563447
 30
0.0
 11
38.97716251800372
 21
-1.428183095039614
 31
0.0
1001
PE_URL
1000

  0
LINE
  5
97
330
1F
100
AcDbEntity
  8
0
  6
Continuous
 62
     1
370
    15
100
AcDbLine
 10
44.01926295674897
 20
1.388248506365543
 30
0.0
 11
43.94610549897448
 21
1.429249185656529
 31
0.0
1001
PE_URL
1000

  0
LINE
  5
98
330
1F
100
AcDbEntity
  8
0
  6
Continuous
 62
     1
370
    15
100
AcDbLine
 10
50.09999993714334
 20
-1.908828256540505
 30
0.0
 11
50.00954322784019
 21
-1.862432140579836
 31
0.0
1001
PE_URL
1000

  0
LINE
  5
99
330
1F
100
AcDbEntity
  8
0
  6
Continuous
 62
     1
370
    15
100
AcDbLine
 10
25.9393077453606
 20
-1.382117477566798
 30
0.0
 11
26.01956662044554
 21
-1.428056973141598
 31
0.0
1001
PE_URL
1000

  0
LINE
  5
9A
330
1F
100
AcDbEntity
  8
0
  6
Continuous
 62
     1
370
    15
100
AcDbLine
 10
31.05489850647487
 20
1.392114317125246
 30
0.0
 11
30.98927232315239
 21
1.42933000434576
 31
0.0
1001
PE_URL
1000

  0
LINE
  5
9B
330
1F
100
AcDbEntity
  8
0
  6
Continuous
 62
     1
370
    15
100
AcDbLine
 10
46.4299189155443
 20
-9.524426495737979
 30
0.0
 11
48.57599993714332
 21
-9.524426495737979
 31
0.0
1001
PE_URL
1000

  0
LINE
  5
9C
330
1F
100
AcDbEntity
  8
0
  6
Continuous
 62
     1
370
    15
100
AcDbLine
 10
23.53712075460993
 20
9.525573504262026
 30
0.0
 11
20.51399534292666
 21
9.525573504262026
 31
0.0
1001
PE_URL
1000

  0
LINE
  5
9D
330
1F
100
AcDbEntity
  8
0
  6
Continuous
 62
     1
370
    15
100
AcDbLine
 10
33.4719413627503
 20
-9.524426495737979
 30
0.0
 11
36.4934406639092
 21
-9.524426495737979
 31
0.0
1001
PE_URL
1000

  0
LINE
  5
9E
330
1F
100
AcDbEntity
  8
0
  6
Continuous
 62
     1
370
    15
100
AcDbLine
 10
36.4934406639092
 20
9.525573504262026
 30
0.0
 11
33.47194136275048
 21
9.525573504262026
 31
0.0
1001
PE_URL
1000

  0
LINE
  5
9F
330
1F
100
AcDbEntity
  8
0
  6
Continuous
 62
     1
370
    15
100
AcDbLine
 10
20.51399534292658
 20
-9.524426495737979
 30
0.0
 11
23.53712075460984
 21
-9.524426495737979
 31
0.0
1001
PE_URL
1000

  0
ARC
  5
A0
102
{ACAD_REACTORS
102
}
330
1F
100
AcDbEntity
  8
0
  6
Continuous
 62
     1
370
    15
100
AcDbCircle
 10
48.5730172277131
 20
7.994375760410859
 30
0.0
 40
1.531200648945282
100
AcDbArc
 50
355.7462545579189
 51
89.8883903490623
1001
PE_URL
1000

  0
LINE
  5
A1
330
1F
100
AcDbEntity
  8
0
  6
Continuous
 62
     1
370
    15
100
AcDbLine
 10
48.57599993714332
 20
9.525573504262026
 30
0.0
 11
46.42991891554428
 21
9.525573504262026
 31
0.0
1001
PE_URL
1000

  0
ARC
  5
A2
330
1F
100
AcDbEntity
  8
0
  6
Continuous
 62
     1
370
    15
100
AcDbCircle
 10
48.57599993714332
 20
-8.000426495737978
 30
0.0
 40
1.524000000000004
100
AcDbArc
 50
270.0000000000008
 51
282.9398467417944
1001
PE_URL
1000

  0
LINE
  5
A3
330
1F
100
AcDbEntity
  8
외형선
  6
Continuous
370
    15
100
AcDbLine
 10
-52.77000006285669
 20
-9.524426495737973
 30
0.0
 11
11.49986965338313
 21
-9.524426495737973
 31
0.0
  0
LINE
  5
A4
330
1F
100
AcDbEntity
  8
외형선
  6
Continuous
370
    15
100
AcDbLine
 10
11.49986965338313
 20
9.52557350426202
 30
0.0
 11
-52.77000006285669
 21
9.52557350426202
 31
0.0
  0
LINE
  5
A5
330
1F
100
AcDbEntity
  8
외형선
  6
Continuous
370
    15
100
AcDbLine
 10
-52.77000006285669
 20
9.525573504262022
 30
0.0
 11
-54.67500006285669
 21
7.620573504262026
 31
0.0
  0
LINE
  5
A6
330
1F
100
AcDbEntity
  8
외형선
  6
Continuous
370
    15
100
AcDbLine
 10
-54.67500006285669
 20
-7.619426495737981
 30
0.0
 11
-52.77000006285669
 21
-9.524426495737975
 31
0.0
  0
LINE
  5
A7
330
1F
100
AcDbEntity
  8
0
  6
Continuous
 62
     1
370
    15
100
AcDbLine
 10
50.09999993714332
 20
-5.746671122132065
 30
0.0
 11
50.09999993714332
 21
-1.946476869343774
 31
0.0
1001
PE_URL
1000

  0
SPLINE
  5
A8
330
1F
100
AcDbEntity
  8
0
  6
Continuous
 62
     1
370
    15
100
AcDbSpline
210
0.0
220
0.0
230
1.0
 70
     8
 71
     3
 72
    18
 73
    14
 74
     0
 42
0.000000001
 43
0.00000001
 40
0.0
 40
0.0
 40
0.0
 40
0.0
 40
0.25
 40
0.25
 40
0.5
 40
0.5
 40
0.625
 40
0.625
 40
0.75
 40
0.75
 40
0.875
 40
0.875
 40
1.0
 40
1.0
 40
1.0
 40
1.0
 10
48.57599993714335
 20
-6.368087487774615
 30
0.0
 10
48.76454617852276
 20
-6.448918479072745
 30
0.0
 10
48.94541663462374
 20
-6.50702686953083
 30
0.0
 10
49.29772836434162
 20
-6.569470298333174
 30
0.0
 10
49.45916972058598
 20
-6.572539707151867
 30
0.0
 10
49.68153065791221
 20
-6.5138193779653
 30
0.0
 10
49.74965817660173
 20
-6.483861530762637
 30
0.0
 10
49.87240547154104
 20
-6.398594790764714
 30
0.0
 10
49.92670600076
 20
-6.342748489187904
 30
0.0
 10
50.01334406230883
 20
-6.207980405336158
 30
0.0
 10
50.04702523727095
 20
-6.126445597321436
 30
0.0
 10
50.08998614228683
 20
-5.94775518879583
 30
0.0
 10
50.09999993714334
 20
-5.849427073218162
 30
0.0
 10
50.09999993714332
 20
-5.746671122132065
 30
0.0
1001
PE_URL
1000

  0
SPLINE
  5
A9
330
1F
100
AcDbEntity
  8
0
  6
Continuous
 62
     1
370
    15
100
AcDbSpline
210
0.0
220
0.0
230
1.0
 70
     8
 71
     3
 72
    54
 73
    50
 74
     0
 42
0.000000001
 43
0.00000001
 40
0.0
 40
0.0
 40
0.0
 40
0.0
 40
0.0312500000000008
 40
0.0312500000000008
 40
0.0625000000000016
 40
0.0625000000000016
 40
0.1250000000000022
 40
0.1250000000000022
 40
0.1875000000000029
 40
0.1875000000000029
 40
0.2187500000000029
 40
0.2187500000000029
 40
0.2500000000000028
 40
0.2500000000000028
 40
0.2812500000000027
 40
0.2812500000000027
 40
0.3125000000000027
 40
0.3125000000000027
 40
0.3750000000000034
 40
0.3750000000000034
 40
0.4375000000000041
 40
0.4375000000000041
 40
0.4687500000000044
 40
0.4687500000000044
 40
0.5000000000000048
 40
0.5000000000000048
 40
0.5312500000000051
 40
0.5312500000000051
 40
0.5625000000000054
 40
0.5625000000000054
 40
0.6250000000000053
 40
0.6250000000000053
 40
0.6875000000000052
 40
0.6875000000000052
 40
0.7187500000000048
 40
0.7187500000000048
 40
0.7500000000000042
 40
0.7500000000000042
 40
0.7812500000000037
 40
0.7812500000000037
 40
0.8125000000000031
 40
0.8125000000000031
 40
0.8750000000000021
 40
0.8750000000000021
 40
0.9375000000000011
 40
0.9375000000000011
 40
0.9687500000000006
 40
0.9687500000000006
 40
1.0
 40
1.0
 40
1.0
 40
1.0
 10
48.57599993714332
 20
-6.368087487774594
 30
0.0
 10
48.19418535160771
 20
-6.204401109222908
 30
0.0
 10
47.81237139457637
 20
-6.035606832466246
 30
0.0
 10
47.05148782832547
 20
-5.689051836189162
 30
0.0
 10
46.6724210675545
 20
-5.511304646534325
 30
0.0
 10
45.52881664339358
 20
-4.964267174814082
 30
0.0
 10
44.76274976254057
 20
-4.581856788431876
 30
0.0
 10
43.24523011130021
 20
-3.792702679308736
 30
0.0
 10
42.47918823827176
 20
-3.38344195339631
 30
0.0
 10
41.33556878694665
 20
-2.756223594333989
 30
0.0
 10
40.95649324107767
 20
-2.545170883137295
 30
0.0
 10
40.19562469154442
 20
-2.118836612127625
 30
0.0
 10
39.81381451514985
 20
-1.903546240273785
 30
0.0
 10
39.05018535952907
 20
-1.470255951070919
 30
0.0
 10
38.668368580539
 20
-1.252257282081938
 30
0.0
 10
37.90747377846454
 20
-0.815128773050376
 30
0.0
 10
37.52841351229947
 20
-0.5960043769965924
 30
0.0
 10
36.38482039885273
 20
0.063504992694018
 30
0.0
 10
35.61874973274607
 20
0.5050869486697527
 30
0.0
 10
34.101200217166
 20
1.379422825895796
 30
0.0
 10
33.33519199389518
 20
1.814954355210549
 30
0.0
 10
32.19156131253882
 20
2.456442010068729
 30
0.0
 10
31.81247908362955
 20
2.668081786991355
 30
0.0
 10
31.05162182334804
 20
3.087263550545068
 30
0.0
 10
30.6698144959497
 20
3.294805274396978
 30
0.0
 10
29.90618537895509
 20
3.704279052864896
 30
0.0
 10
29.5243657895942
 20
3.906209927381932
 30
0.0
 10
28.76345977459578
 20
4.303028851657626
 30
0.0
 10
28.3844059222781
 20
4.49792092970559
 30
0.0
 10
27.24082415412208
 20
5.072434401180323
 30
0.0
 10
26.47474972618313
 20
5.440971431713988
 30
0.0
 10
24.95717039163644
 20
6.138698056670719
 30
0.0
 10
24.19119574946948
 20
6.47009624942869
 30
0.0
 10
23.0475538726622
 20
6.933780952501997
 30
0.0
 10
22.66846487995612
 20
7.082639018604511
 30
0.0
 10
21.90761893182233
 20
7.369159166606106
 30
0.0
 10
21.52581446500713
 20
7.506811143222943
 30
0.0
 10
20.76218540981436
 20
7.769865417013484
 30
0.0
 10
20.38036302167094
 20
7.895266955336893
 30
0.0
 10
19.61944581664941
 20
8.132961314482284
 30
0.0
 10
19.2403982974197
 20
8.245267795867475
 30
0.0
 10
18.09682790912976
 20
8.56276793358067
 30
0.0
 10
17.33074974278052
 20
8.74791392846606
 30
0.0
 10
15.81314063464306
 20
9.06011689708343
 30
0.0
 10
15.04719950492296
 20
9.188160192664354
 30
0.0
 10
13.90354646724621
 20
9.335205681911832
 30
0.0
 10
13.52445062998754
 20
9.376710483642972
 30
0.0
 10
12.76361601689621
 20
9.444781989758317
 30
0.0
 10
12.38181442225096
 20
9.471329481181886
 30
0.0
 10
11.99999993714333
 20
9.490265543490395
 30
0.0
1001
PE_URL
1000

  0
SPLINE
  5
AA
330
1F
100
AcDbEntity
  8
0
  6
Continuous
 62
     1
370
    15
100
AcDbSpline
210
0.0
220
0.0
230
1.0
 70
     8
 71
     3
 72
    20
 73
    16
 74
     0
 42
0.000000001
 43
0.00000001
 40
0.0
 40
0.0
 40
0.0
 40
0.0
 40
0.0774975396929596
 40
0.1550113379990633
 40
0.2325575733561198
 40
0.310113261512945
 40
0.3876333731326601
 40
0.4651333346941501
 40
0.5426293817911965
 40
0.6201377662005705
 40
0.7013567019903995
 40
0.7825975378020914
 40
0.8638300719651527
 40
0.9450422485665386
 40
1.0
 40
1.0
 40
1.0
 40
1.0
 10
48.57599993714337
 20
-1.235005384514066
 30
0.0
 10
47.72287682417881
 20
-0.743617929120816
 30
0.0
 10
46.01645161710123
 20
0.2392600724034377
 30
0.0
 10
43.45627326409158
 20
1.715892943246008
 30
0.0
 10
40.89518583180111
 20
3.149064132300372
 30
0.0
 10
38.33391385525755
 20
4.506992412343868
 30
0.0
 10
35.77350637645682
 20
5.756724749148911
 30
0.0
 10
33.21385870742654
 20
6.867977311319951
 30
0.0
 10
30.65437106630804
 20
7.814118189250296
 30
0.0
 10
28.0538708634
 20
8.58467756477403
 30
0.0
 10
25.41189892980777
 20
9.149024912953143
 30
0.0
 10
22.72875066706381
 20
9.483168327858404
 30
0.0
 10
20.04576491206939
 20
9.558029100359493
 30
0.0
 10
17.65229125035489
 20
9.430495200331745
 30
0.0
 10
16.15319407596808
 20
9.174225831271182
 30
0.0
 10
15.54816320701243
 20
9.070796326033902
 30
0.0
1001
PE_URL
1000

  0
SPLINE
  5
AB
330
1F
100
AcDbEntity
  8
0
  6
Continuous
 62
     1
370
    15
100
AcDbSpline
210
0.0
220
0.0
230
1.0
 70
     8
 71
     3
 72
    18
 73
    14
 74
     0
 42
0.000000001
 43
0.00000001
 40
0.0
 40
0.0
 40
0.0
 40
0.0
 40
0.249999999999998
 40
0.249999999999998
 40
0.3749999999999961
 40
0.3749999999999961
 40
0.4999999999999942
 40
0.4999999999999942
 40
0.6249999999999923
 40
0.6249999999999923
 40
0.7499999999999905
 40
0.7499999999999905
 40
1.0
 40
1.0
 40
1.0
 40
1.0
 10
50.09999993714332
 20
-1.946476869343777
 30
0.0
 10
50.09999993714329
 20
-1.908926121365992
 30
0.0
 10
50.06022007800361
 20
-1.879821148503193
 30
0.0
 10
49.94095727906424
 20
-1.82991091177434
 30
0.0
 10
49.89216726738959
 20
-1.812534673973058
 30
0.0
 10
49.77752181497053
 20
-1.772918251539587
 30
0.0
 10
49.7107912617565
 20
-1.750377891979936
 30
0.0
 10
49.56556764945504
 20
-1.698875762993119
 30
0.0
 10
49.48706807161329
 20
-1.669921457011948
 30
0.0
 10
49.31948499270607
 20
-1.603452057305047
 30
0.0
 10
49.23005421501265
 20
-1.565723560925871
 30
0.0
 10
48.95809187075887
 20
-1.442411335211656
 30
0.0
 10
48.766271083924
 20
-1.343775374029896
 30
0.0
 10
48.57599993714334
 20
-1.235005384514062
 30
0.0
1001
PE_URL
1000

  0
LINE
  5
AC
330
1F
100
AcDbEntity
  8
0
  6
Continuous
 62
     1
370
    15
100
AcDbLine
 10
50.09999993714332
 20
-7.99940491074549
 30
0.0
 11
50.09999993714332
 21
-6.863684591904134
 31
0.0
1001
PE_URL
1000

  0
SPLINE
  5
AE
330
1F
100
AcDbEntity
  8
0
  6
Continuous
 62
     1
370
    15
100
AcDbSpline
210
0.0
220
0.0
230
1.0
 70
     8
 71
     3
 72
    54
 73
    50
 74
     0
 42
0.000000001
 43
0.00000001
 40
0.0
 40
0.0
 40
0.0
 40
0.0
 40
0.0312500000000006
 40
0.0312500000000006
 40
0.0625000000000012
 40
0.0625000000000012
 40
0.1250000000000015
 40
0.1250000000000015
 40
0.1875000000000018
 40
0.1875000000000018
 40
0.218750000000002
 40
0.218750000000002
 40
0.2500000000000022
 40
0.2500000000000022
 40
0.2812500000000024
 40
0.2812500000000024
 40
0.3125000000000026
 40
0.3125000000000026
 40
0.3750000000000028
 40
0.3750000000000028
 40
0.4375000000000032
 40
0.4375000000000032
 40
0.4687500000000033
 40
0.4687500000000033
 40
0.5000000000000034
 40
0.5000000000000034
 40
0.5312500000000036
 40
0.5312500000000036
 40
0.5625000000000038
 40
0.5625000000000038
 40
0.6250000000000032
 40
0.6250000000000032
 40
0.6875000000000028
 40
0.6875000000000028
 40
0.7187500000000024
 40
0.7187500000000024
 40
0.7500000000000021
 40
0.7500000000000021
 40
0.7812500000000019
 40
0.7812500000000019
 40
0.8125000000000016
 40
0.8125000000000016
 40
0.8750000000000011
 40
0.8750000000000011
 40
0.9375000000000006
 40
0.9375000000000006
 40
0.9687500000000003
 40
0.9687500000000003
 40
1.0
 40
1.0
 40
1.0
 40
1.0
 10
48.57599993714335
 20
-9.511032119146254
 30
0.0
 10
48.19418535160774
 20
-9.499362283077335
 30
0.0
 10
47.81237139457637
 20
-9.48006321792125
 30
0.0
 10
47.05148782832548
 20
-9.426400054961642
 30
0.0
 10
46.67242106755456
 20
-9.392057513790125
 30
0.0
 10
45.52881664339361
 20
-9.26638246447865
 30
0.0
 10
44.7627497625406
 20
-9.152390425025075
 30
0.0
 10
43.24523011130021
 20
-8.86753589330199
 30
0.0
 10
42.47918823827175
 20
-8.69576527834445
 30
0.0
 10
41.33556878694663
 20
-8.397578605435811
 30
0.0
 10
40.95649324107769
 20
-8.291578959548104
 30
0.0
 10
40.19562469154437
 20
-8.066259107433336
 30
0.0
 10
39.81381451514982
 20
-7.946918489560938
 30
0.0
 10
39.05018535952905
 20
-7.695687952244111
 30
0.0
 10
38.668368580539
 20
-7.563798756322145
 30
0.0
 10
37.90747377846449
 20
-7.288464919849296
 30
0.0
 10
37.52841351229947
 20
-7.145039184506509
 30
0.0
 10
36.3848203988528
 20
-6.697155324317838
 30
0.0
 10
35.61874973274612
 20
-6.375589363519407
 30
0.0
 10
34.10120021716605
 20
-5.695916949763107
 30
0.0
 10
33.33519199389517
 20
-5.335652245099149
 30
0.0
 10
32.19156131253883
 20
-4.772194669916169
 30
0.0
 10
31.81247908362952
 20
-4.580761648092674
 30
0.0
 10
31.05162182334807
 20
-4.190436621081779
 30
0.0
 10
30.6698144959497
 20
-3.99152888786178
 30
0.0
 10
29.9061853789551
 20
-3.587629930466357
 30
0.0
 10
29.52436578959419
 20
-3.382639869729611
 30
0.0
 10
28.76345977459583
 20
-2.968072989817333
 30
0.0
 10
28.38440592227811
 20
-2.758509061732998
 30
0.0
 10
27.24082415412208
 20
-2.122521701383774
 30
0.0
 10
26.47474972618316
 20
-1.689663120279663
 30
0.0
 10
24.95717039163644
 20
-0.8186739944834237
 30
0.0
 10
24.19119574946945
 20
-0.3777882965157759
 30
0.0
 10
23.04755387266219
 20
0.2822331094485882
 30
0.0
 10
22.66846487995613
 20
0.5017819988423633
 30
0.0
 10
21.90761893182233
 20
0.9402415204770175
 30
0.0
 10
21.52581446500716
 20
1.159159982112444
 30
0.0
 10
20.76218540981439
 20
1.594793548454523
 30
0.0
 10
20.38036302167094
 20
1.811507397810584
 30
0.0
 10
19.61944581664942
 20
2.241180050292978
 30
0.0
 10
19.24039829741969
 20
2.454134915874404
 30
0.0
 10
18.09682790912978
 20
3.087800323213453
 30
0.0
 10
17.33074974278052
 20
3.502347118015891
 30
0.0
 10
15.81314063464307
 20
4.303865402888293
 30
0.0
 10
15.04719950492297
 20
4.693363262318949
 30
0.0
 10
13.90354646724618
 20
5.252327468437877
 30
0.0
 10
13.52445062998752
 20
5.434255640926206
 30
0.0
 10
12.76361601689619
 20
5.789567958179403
 30
0.0
 10
12.38181442225094
 20
5.962949543032297
 30
0.0
 10
11.99999993714333
 20
6.131415803490134
 30
0.0
1001
PE_URL
1000

  0
SPLINE
  5
AF
330
1F
100
AcDbEntity
  8
외형선
  6
Continuous
370
    15
100
AcDbSpline
210
0.0
220
0.0
230
1.0
 70
    24
 71
     3
 72
    14
 73
    10
 74
     0
 42
0.000000001
 43
0.00000001
 40
0.0
 40
0.0
 40
0.0
 40
0.0
 40
0.2109289387380632
 40
0.3609340460685092
 40
0.5152893116736081
 40
0.6652944190040011
 40
0.8196496846090433
 40
0.9696547919394383
 40
1.0
 40
1.0
 40
1.0
 40
1.0
 10
11.99999993714337
 20
9.18238201252693
 30
0.0
 10
11.99999993714337
 20
8.972708329332015
 30
0.0
 10
11.99999993714333
 20
8.613922231595055
 30
0.0
 10
11.99999993714333
 20
8.068565062306053
 30
0.0
 10
11.99999993714333
 20
7.588911785887567
 30
0.0
 10
11.99999993714333
 20
7.115145568245306
 30
0.0
 10
11.99999993714334
 20
6.676117651380483
 30
0.0
 10
11.9999999371433
 20
6.367768836248684
 30
0.0
 10
11.99999993714331
 20
6.228955900286469
 30
0.0
 10
11.9999999371433
 20
6.205599648238116
 30
0.0
  0
SPLINE
  5
B0
330
1F
100
AcDbEntity
  8
0
  6
Continuous
 62
     1
370
    15
100
AcDbSpline
210
0.0
220
0.0
230
1.0
 70
     8
 71
     3
 72
    54
 73
    50
 74
     0
 42
0.000000001
 43
0.00000001
 40
0.0
 40
0.0
 40
0.0
 40
0.0
 40
0.0312500000000003
 40
0.0312500000000003
 40
0.0625000000000006
 40
0.0625000000000006
 40
0.1250000000000012
 40
0.1250000000000012
 40
0.1875000000000018
 40
0.1875000000000018
 40
0.2187500000000017
 40
0.2187500000000017
 40
0.2500000000000016
 40
0.2500000000000016
 40
0.2812500000000016
 40
0.2812500000000016
 40
0.3125000000000014
 40
0.3125000000000014
 40
0.3750000000000012
 40
0.3750000000000012
 40
0.437500000000001
 40
0.437500000000001
 40
0.4687500000000013
 40
0.4687500000000013
 40
0.5000000000000016
 40
0.5000000000000016
 40
0.531250000000002
 40
0.531250000000002
 40
0.5625000000000023
 40
0.5625000000000023
 40
0.6250000000000029
 40
0.6250000000000029
 40
0.6875000000000036
 40
0.6875000000000036
 40
0.7187500000000034
 40
0.7187500000000034
 40
0.7500000000000032
 40
0.7500000000000032
 40
0.7812500000000031
 40
0.7812500000000031
 40
0.812500000000003
 40
0.812500000000003
 40
0.875000000000002
 40
0.875000000000002
 40
0.9375000000000009
 40
0.9375000000000009
 40
0.9687500000000004
 40
0.9687500000000004
 40
1.0
 40
1.0
 40
1.0
 40
1.0
 10
48.57599993714335
 20
-7.551397284686449
 30
0.0
 10
48.19418535160771
 20
-7.417250298000469
 30
0.0
 10
47.81237139457641
 20
-7.277046207512335
 30
0.0
 10
47.0514878283255
 20
-6.985574584695407
 30
0.0
 10
46.67242106755459
 20
-6.834323443714464
 30
0.0
 10
45.5288166433937
 20
-6.36368461497538
 30
0.0
 10
44.76274976254066
 20
-6.027949837431412
 30
0.0
 10
43.24523011130027
 20
-5.322338980035281
 30
0.0
 10
42.47918823827182
 20
-4.950212465826016
 30
0.0
 10
41.33556878694669
 20
-4.370907201046508
 30
0.0
 10
40.9564932410778
 20
-4.17451840743516
 30
0.0
 10
40.19562469154451
 20
-3.77492228478157
 30
0.0
 10
39.81381451514989
 20
-3.571702639071805
 30
0.0
 10
39.05018535952912
 20
-3.159860666145204
 30
0.0
 10
38.66836858053909
 20
-2.9512395254155
 30
0.0
 10
37.90747377846463
 20
-2.53011506926399
 30
0.0
 10
37.52841351229968
 20
-2.317620984149592
 30
0.0
 10
36.3848203988529
 20
-1.673892978024651
 30
0.0
 10
35.6187497327462
 20
-1.237294232318714
 30
0.0
 10
34.10120021716611
 20
-0.3617591718371601
 30
0.0
 10
33.33519199389534
 20
0.0799583170970311
 30
0.0
 10
32.19156131253893
 20
0.7390117921845253
 30
0.0
 10
31.81247908362967
 20
0.9578728359479566
 30
0.0
 10
31.05162182334822
 20
1.394232805493101
 30
0.0
 10
30.66981449594982
 20
1.611735571228629
 30
0.0
 10
29.90618537895521
 20
2.043813468811005
 30
0.0
 10
29.52436578959434
 20
2.258387355566962
 30
0.0
 10
28.76345977459596
 20
2.683073827290359
 30
0.0
 10
28.38440592227824
 20
2.893186319746641
 30
0.0
 10
27.24082415412224
 20
3.517260485270191
 30
0.0
 10
26.47474972618331
 20
3.9239988940419
 30
0.0
 10
24.95717039163662
 20
4.707309189103078
 30
0.0
 10
24.19119574946966
 20
5.086360094343224
 30
0.0
 10
23.04755387266238
 20
5.627830453889773
 30
0.0
 10
22.66846487995635
 20
5.803633050981564
 30
0.0
 10
21.90761893182255
 20
6.146103917612728
 30
0.0
 10
21.52581446500737
 20
6.31276610736803
 30
0.0
 10
20.76218540981461
 20
6.635708899127931
 30
0.0
 10
20.3803630216712
 20
6.791988569865677
 30
0.0
 10
19.61944581664969
 20
7.093078471718727
 30
0.0
 10
19.24039829741995
 20
7.237898633303773
 30
0.0
 10
18.09682790913001
 20
7.655461870781576
 30
0.0
 10
17.33074974278073
 20
7.910555871042045
 30
0.0
 10
15.81314063464335
 20
8.367102785409518
 30
0.0
 10
15.04719950492321
 20
8.569996540329013
 30
0.0
 10
13.90354646724646
 20
8.831757563043103
 30
0.0
 10
13.52445062998776
 20
8.911862713769558
 30
0.0
 10
12.7636160168965
 20
9.05790459972423
 30
0.0
 10
12.38181442225125
 20
9.123825282725338
 30
0.0
 10
11.99999993714362
 20
9.182382012523174
 30
0.0
1001
PE_URL
1000

  0
SPLINE
  5
B1
330
1F
100
AcDbEntity
  8
0
  6
Continuous
 62
     1
370
    15
100
AcDbSpline
210
0.0
220
0.0
230
1.0
 70
     8
 71
     3
 72
    18
 73
    14
 74
     0
 42
0.000000001
 43
0.00000001
 40
0.0
 40
0.0
 40
0.0
 40
0.0
 40
0.2499999999999972
 40
0.2499999999999972
 40
0.3749999999999954
 40
0.3749999999999954
 40
0.4999999999999937
 40
0.4999999999999937
 40
0.624999999999992
 40
0.624999999999992
 40
0.7499999999999902
 40
0.7499999999999902
 40
1.0
 40
1.0
 40
1.0
 40
1.0
 10
50.09999993714332
 20
-6.863684591904136
 30
0.0
 10
50.09999993714334
 20
-6.9901922928191
 30
0.0
 10
50.06022007800364
 20
-7.1205303057967
 30
0.0
 10
49.94095727906424
 20
-7.298224828767361
 30
0.0
 10
49.89216726738963
 20
-7.353233490042578
 30
0.0
 10
49.77752181497059
 20
-7.452321899056593
 30
0.0
 10
49.71079126175654
 20
-7.496750435948797
 30
0.0
 10
49.5655676494551
 20
-7.569020917737205
 30
0.0
 10
49.48706807161324
 20
-7.597202195953182
 30
0.0
 10
49.31948499270609
 20
-7.636437300212247
 30
0.0
 10
49.23005421501264
 20
-7.647283546798729
 30
0.0
 10
48.95809187075886
 20
-7.651936719562228
 30
0.0
 10
48.76627108392404
 20
-7.618247274081467
 30
0.0
 10
48.57599993714334
 20
-7.551397284686455
 30
0.0
1001
PE_URL
1000

  0
SPLINE
  5
B2
330
1F
100
AcDbEntity
  8
0
  6
Continuous
 62
     1
370
    15
100
AcDbSpline
210
0.0
220
0.0
230
1.0
 70
     8
 71
     3
 72
    19
 73
    15
 74
     0
 42
0.000000001
 43
0.00000001
 40
0.0
 40
0.0
 40
0.0
 40
0.0
 40
0.0869478067223115
 40
0.1739134760453089
 40
0.2609151616210499
 40
0.3479291256184899
 40
0.4349031060737219
 40
0.521854101053536
 40
0.6088003248265719
 40
0.6957600113862017
 40
0.7868826036486514
 40
0.8780298586912496
 40
0.9691690523608192
 40
1.0
 40
1.0
 40
1.0
 40
1.0
 10
11.99999993714334
 20
-0.8187982066273954
 30
0.0
 10
12.85312094226531
 20
-1.307750423828485
 30
0.0
 10
14.5595382181132
 20
-2.285755308817512
 30
0.0
 10
17.11969762170151
 20
-3.692621475532432
 30
0.0
 10
19.68076774023563
 20
-5.012050396227417
 30
0.0
 10
22.24205219834096
 20
-6.210473033501402
 30
0.0
 10
24.80247957527823
 20
-7.25997882759375
 30
0.0
 10
27.3621373636516
 20
-8.13470915407841
 30
0.0
 10
29.92162192076089
 20
-8.814213694918163
 30
0.0
 10
32.52210672727144
 20
-9.288166563541708
 30
0.0
 10
35.16406208771524
 20
-9.538234262253894
 30
0.0
 10
37.84719355776083
 20
-9.524005472061898
 30
0.0
 10
39.93861524516223
 20
-9.365092998449475
 30
0.0
 10
41.13547951788587
 20
-9.132119687760346
 30
0.0
 10
41.43801634638834
 20
-9.073229963881113
 30
0.0
1001
PE_URL
1000

  0
SPLINE
  5
B3
330
1F
100
AcDbEntity
  8
외형선
  6
Continuous
370
    15
100
AcDbSpline
210
0.0
220
0.0
230
1.0
 70
    24
 71
     3
 72
    23
 73
    19
 74
     0
 42
0.000000001
 43
0.00000001
 40
0.0
 40
0.0
 40
0.0
 40
0.0
 40
0.0890367618029246
 40
0.1523565181649894
 40
0.2175125517511401
 40
0.2808323081131824
 40
0.3459883416993093
 40
0.409308098061352
 40
0.4744641316474794
 40
0.5377838880095337
 40
0.6029399215956484
 40
0.6662596779576905
 40
0.7314157115438178
 40
0.7947354679058598
 40
0.8598915014919877
 40
0.9232112578540309
 40
0.988367291440158
 40
1.0
 40
1.0
 40
1.0
 40
1.0
 10
11.99999993714335
 20
4.701442832950158
 30
0.0
 10
11.99999993714334
 20
4.607891437734418
 30
0.0
 10
11.99999993714334
 20
4.447809640553887
 30
0.0
 10
11.99999993714327
 20
4.097895223748353
 30
0.0
 10
11.99999993714333
 20
3.73699973382723
 30
0.0
 10
11.99999993714333
 20
3.322538383218216
 30
0.0
 10
11.99999993714334
 20
2.875810956055717
 30
0.0
 10
11.99999993714333
 20
2.400855925438838
 30
0.0
 10
11.99999993714333
 20
1.919815210163872
 30
0.0
 10
11.99999993714326
 20
1.437611255677612
 30
0.0
 10
11.9999999371433
 20
0.9765633146768797
 30
0.0
 10
11.99999993714342
 20
0.5414920176390222
 30
0.0
 10
11.99999993714329
 20
0.1522763570043149
 30
0.0
 10
11.99999993714338
 20
-0.186074025811249
 30
0.0
 10
11.9999999371433
 20
-0.461611133278618
 30
0.0
 10
11.99999993714333
 20
-0.6575878315471358
 30
0.0
 10
11.99999993714335
 20
-0.7738458419985006
 30
0.0
 10
11.99999993714331
 20
-0.7821622893663016
 30
0.0
 10
11.99999993714333
 20
-0.7834221460299126
 30
0.0
  0
SPLINE
  5
B4
330
1F
100
AcDbEntity
  8
0
  6
Continuous
 62
     1
370
    15
100
AcDbSpline
210
0.0
220
0.0
230
1.0
 70
     8
 71
     3
 72
    21
 73
    17
 74
     0
 42
0.000000001
 43
0.00000001
 40
0.0
 40
0.0
 40
0.0
 40
0.0
 40
0.0120051232718255
 40
0.0863624497456677
 40
0.16075089238773
 40
0.2351484028981456
 40
0.3095117855985116
 40
0.3838558387796098
 40
0.4581961368988108
 40
0.5325482699374786
 40
0.6104598554404004
 40
0.6883924491652279
 40
0.7663170792963339
 40
0.8442221808545565
 40
0.9221142966888497
 40
1.0
 40
1.0
 40
1.0
 40
1.0
 10
46.4299189155443
 20
-9.508917115815233
 30
0.0
 10
46.29215117157116
 20
-9.513852869930801
 30
0.0
 10
45.30107764437314
 20
-9.54935969540115
 30
0.0
 10
43.45626983837553
 20
-9.394382713816325
 30
0.0
 10
40.89518674998742
 20
-9.03313457183956
 30
0.0
 10
38.33391360946436
 20
-8.433480091978982
 30
0.0
 10
35.77350644182515
 20
-7.636669407719695
 30
0.0
 10
33.2138586916304
 20
-6.654859188788091
 30
0.0
 10
30.65437106413594
 20
-5.513504088730691
 30
0.0
 10
28.05387088831742
 20
-4.219313597937592
 30
0.0
 10
25.41189882695863
 20
-2.797062917610453
 30
0.0
 10
22.72875105166341
 20
-1.27945757981973
 30
0.0
 10
20.04576347687495
 20
0.2726663769858841
 30
0.0
 10
17.3633998087926
 20
1.815230618987665
 30
0.0
 10
14.68156579334051
 20
3.318722793168419
 30
0.0
 10
12.89383069210821
 20
4.24054880187145
 30
0.0
 10
11.99999993714362
 20
4.70144283294857
 30
0.0
1001
PE_URL
1000

  0
LINE
  5
B5
330
1F
100
AcDbEntity
  8
0
  6
Continuous
 62
     1
370
    15
100
AcDbLine
 10
50.09999993714332
 20
-0.1272793776528616
 30
0.0
 11
50.09999993714332
 21
4.111286555451264
 31
0.0
1001
PE_URL
1000

  0
SPLINE
  5
B6
330
1F
100
AcDbEntity
  8
0
  6
Continuous
 62
     1
370
    15
100
AcDbSpline
210
0.0
220
0.0
230
1.0
 70
     8
 71
     3
 72
    18
 73
    14
 74
     0
 42
0.000000001
 43
0.00000001
 40
0.0
 40
0.0
 40
0.0
 40
0.0
 40
0.25
 40
0.25
 40
0.5
 40
0.5
 40
0.625
 40
0.625
 40
0.75
 40
0.75
 40
0.875
 40
0.875
 40
1.0
 40
1.0
 40
1.0
 40
1.0
 10
48.57599993714335
 20
0.5055323785756206
 30
0.0
 10
48.76454617852276
 20
0.3969828489409846
 30
0.0
 10
48.9454166346238
 20
0.285320855429253
 30
0.0
 10
49.29772836434164
 20
0.0659896935096216
 30
0.0
 10
49.45916972058598
 20
-0.0356778587482727
 30
0.0
 10
49.68153065791222
 20
-0.1586631000593965
 30
0.0
 10
49.74965817660166
 20
-0.1930578673089424
 30
0.0
 10
49.87240547154099
 20
-0.2435469157619406
 30
0.0
 10
49.92670600075997
 20
-0.2592038993589977
 30
0.0
 10
50.01334406230883
 20
-0.2649931881723481
 30
0.0
 10
50.04702523727095
 20
-0.2549587547479212
 30
0.0
 10
50.08998614228683
 20
-0.2090770557904564
 30
0.0
 10
50.09999993714334
 20
-0.1732651497974106
 30
0.0
 10
50.09999993714332
 20
-0.1272793776528615
 30
0.0
1001
PE_URL
1000

  0
SPLINE
  5
B7
330
1F
100
AcDbEntity
  8
0
  6
Continuous
 62
     1
370
    15
100
AcDbSpline
210
0.0
220
0.0
230
1.0
 70
     8
 71
     3
 72
    17
 73
    13
 74
     0
 42
0.000000001
 43
0.00000001
 40
0.0
 40
0.0
 40
0.0
 40
0.0
 40
0.0505445507825184
 40
0.1527715987269258
 40
0.2549930372313917
 40
0.3572303037425524
 40
0.4643618392723604
 40
0.571522370481967
 40
0.6786734240499748
 40
0.7857973762515165
 40
0.8929032223683557
 40
1.0
 40
1.0
 40
1.0
 40
1.0
 10
23.53712075460993
 20
9.496916139645048
 30
0.0
 10
23.95898012645501
 20
9.50254324793409
 30
0.0
 10
25.2340558700701
 20
9.519551259999037
 30
0.0
 10
27.36212975192846
 20
9.300357447022893
 30
0.0
 10
29.92162386470646
 20
8.858397108798878
 30
0.0
 10
32.52210653076236
 20
8.180879695397481
 30
0.0
 10
35.16406074957683
 20
7.288048159883978
 30
0.0
 10
37.84719909077195
 20
6.188406817150635
 30
0.0
 10
40.53020154847129
 20
4.925801509543123
 30
0.0
 10
43.2125831035896
 20
3.53294123845941
 30
0.0
 10
45.89442861704418
 20
2.047996425749661
 30
0.0
 10
47.68216805903074
 20
1.019672549255767
 30
0.0
 10
48.57599993714334
 20
0.5055323785756367
 30
0.0
1001
PE_URL
1000

  0
SPLINE
  5
B8
330
1F
100
AcDbEntity
  8
0
  6
Continuous
 62
     1
370
    15
100
AcDbSpline
210
0.0
220
0.0
230
1.0
 70
     8
 71
     3
 72
    15
 73
    11
 74
     0
 42
0.000000001
 43
0.00000001
 40
0.0
 40
0.0
 40
0.0
 40
0.0
 40
0.127279594782663
 40
0.2545858922155135
 40
0.3819454632712096
 40
0.5093205593168476
 40
0.6366372255433561
 40
0.7639207979290035
 40
0.8911979413176785
 40
0.9999999999999999
 40
0.9999999999999999
 40
0.9999999999999999
 40
0.9999999999999999
 10
48.57599993714335
 20
5.805171871321481
 30
0.0
 10
47.72287682558851
 20
6.182322706180092
 30
0.0
 10
46.01645162133066
 20
6.936703500338498
 30
0.0
 10
43.45627324716671
 20
7.864204414673607
 30
0.0
 10
40.89518589530179
 20
8.612749836018985
 30
0.0
 10
38.33391361820548
 20
9.15114296145548
 30
0.0
 10
35.77350726061542
 20
9.471976478251761
 30
0.0
 10
33.21385540867185
 20
9.559017903607975
 30
0.0
 10
30.77835173402199
 20
9.444206903432525
 30
0.0
 10
29.19590541106534
 20
9.192555841562333
 30
0.0
 10
28.46660178676653
 20
9.076577164233381
 30
0.0
1001
PE_URL
1000

  0
SPLINE
  5
B9
330
1F
100
AcDbEntity
  8
0
  6
Continuous
 62
     1
370
    15
100
AcDbSpline
210
0.0
220
0.0
230
1.0
 70
     8
 71
     3
 72
    18
 73
    14
 74
     0
 42
0.000000001
 43
0.00000001
 40
0.0
 40
0.0
 40
0.0
 40
0.0
 40
0.2499999999999977
 40
0.2499999999999977
 40
0.3749999999999958
 40
0.3749999999999958
 40
0.499999999999994
 40
0.499999999999994
 40
0.6249999999999922
 40
0.6249999999999922
 40
0.7499999999999903
 40
0.7499999999999903
 40
1.0
 40
1.0
 40
1.0
 40
1.0
 10
50.09999993714332
 20
4.111286555451263
 30
0.0
 10
50.09999993714332
 20
4.29089903343366
 30
0.0
 10
50.06022007800362
 20
4.462397693766325
 30
0.0
 10
49.94095727906427
 20
4.710675950420184
 30
0.0
 10
49.89216726738965
 20
4.79025832285698
 30
0.0
 10
49.7775218149706
 20
4.945372813769109
 30
0.0
 10
49.71079126175658
 20
5.021678232851353
 30
0.0
 10
49.5655676494552
 20
5.166783723944005
 30
0.0
 10
49.48706807161326
 20
5.235912574367664
 30
0.0
 10
49.31948499270604
 20
5.369149605175025
 30
0.0
 10
49.23005421501268
 20
5.433352003028881
 30
0.0
 10
48.95809187075891
 20
5.612394997803841
 30
0.0
 10
48.76627108392405
 20
5.718197866364028
 30
0.0
 10
48.57599993714334
 20
5.805171871321486
 30
0.0
1001
PE_URL
1000

  0
LINE
  5
BA
330
1F
100
AcDbEntity
  8
외형선
  6
Continuous
370
    15
100
AcDbLine
 10
11.99999993714331
 20
9.182382012523219
 30
0.0
 11
11.99999993714333
 21
9.490265543490398
 31
0.0
  0
LINE
  5
BB
330
1F
100
AcDbEntity
  8
0
  6
Continuous
 62
     1
370
    15
100
AcDbLine
 10
50.09999993714332
 20
-1.946476869343774
 30
0.0
 11
50.09999993714332
 21
-0.1272793776528616
 31
0.0
1001
PE_URL
1000

  0
LINE
  5
BC
330
1F
100
AcDbEntity
  8
외형선
  6
Continuous
370
    15
100
AcDbLine
 10
11.99999993714334
 20
4.701442832948704
 30
0.0
 11
11.99999993714333
 21
6.131415803490133
 31
0.0
  0
SPLINE
  5
BD
330
1F
100
AcDbEntity
  8
0
  6
Continuous
 62
     1
370
    15
100
AcDbSpline
210
0.0
220
0.0
230
1.0
 70
     8
 71
     3
 72
    16
 73
    12
 74
     0
 42
0.000000001
 43
0.00000001
 40
0.0
 40
0.0
 40
0.0
 40
0.0
 40
0.0120221420482771
 40
0.1312256874487976
 40
0.2504482099639604
 40
0.3753782607532697
 40
0.500341997909153
 40
0.6252929655627641
 40
0.7502126194446633
 40
0.8751114509143428
 40
1.0
 40
1.0
 40
1.0
 40
1.0
 10
33.47194136275031
 20
-9.514042911961583
 30
0.0
 10
33.3859011013184
 20
-9.517431278937163
 30
0.0
 10
32.44674297048474
 20
-9.554416433821688
 30
0.0
 10
30.6543747208697
 20
-9.408713083998327
 30
0.0
 10
28.05386985608606
 20
-9.057306274530415
 30
0.0
 10
25.41189910907511
 20
-8.445773374945212
 30
0.0
 10
22.72875097607168
 20
-7.608835375839724
 30
0.0
 10
20.04576349711633
 20
-6.56964871684773
 30
0.0
 10
17.36339980339647
 20
-5.356352314694794
 30
0.0
 10
14.68156579468932
 20
-4.006528202856769
 30
0.0
 10
12.89383069255779
 20
-3.024297152871859
 30
0.0
 10
11.99999993714362
 20
-2.533201844426836
 30
0.0
1001
PE_URL
1000

  0
LINE
  5
BE
330
1F
100
AcDbEntity
  8
외형선
  6
Continuous
370
    15
100
AcDbLine
 10
11.99999993714334
 20
-2.533201844426686
 30
0.0
 11
11.99999993714333
 21
-0.8187982066273921
 31
0.0
  0
SPLINE
  5
BF
330
1F
100
AcDbEntity
  8
0
  6
Continuous
 62
     1
370
    15
100
AcDbSpline
210
0.0
220
0.0
230
1.0
 70
     8
 71
     3
 72
    14
 73
    10
 74
     0
 42
0.000000001
 43
0.00000001
 40
0.0
 40
0.0
 40
0.0
 40
0.0
 40
0.155437708913369
 40
0.3109073510270121
 40
0.4664413798574862
 40
0.6219973589798624
 40
0.7774818590111691
 40
0.9329252676133545
 40
1.0
 40
1.0
 40
1.0
 40
1.0
 10
11.99999993714335
 20
-7.289035381130655
 30
0.0
 10
12.85312094310629
 20
-7.589215583630299
 30
0.0
 10
14.55953822063615
 20
-8.189637657799771
 30
0.0
 10
17.11969761160565
 20
-8.846735582030544
 30
0.0
 10
19.6807677781145
 20
-9.302785396000322
 30
0.0
 10
22.24205205693377
 20
-9.53528402639292
 30
0.0
 10
24.80248010269808
 20
-9.526627901691004
 30
0.0
 10
26.87716634797629
 20
-9.372728025729439
 30
0.0
 10
28.09846097079932
 20
-9.144289498960033
 30
0.0
 10
28.46660178676641
 20
-9.075430155709334
 30
0.0
1001
PE_URL
1000

  0
SPLINE
  5
C0
330
1F
100
AcDbEntity
  8
외형선
  6
Continuous
370
    15
100
AcDbSpline
210
0.0
220
0.0
230
1.0
 70
    24
 71
     3
 72
    21
 73
    17
 74
     0
 42
0.000000001
 43
0.00000001
 40
0.0
 40
0.0
 40
0.0
 40
0.0
 40
0.0491504366043749
 40
0.1188382752486514
 40
0.1905470659346012
 40
0.2602349045788778
 40
0.3319436952648285
 40
0.4016315339091182
 40
0.4733403245950544
 40
0.5430281632393306
 40
0.6147369539252812
 40
0.6844247925695568
 40
0.7561335832555078
 40
0.8258214218997851
 40
0.8975302125857356
 40
1.0
 40
1.0
 40
1.0
 40
1.0
 10
11.99999993714333
 20
-2.295742707234881
 30
0.0
 10
11.99999993714333
 20
-2.299783519157283
 30
0.0
 10
11.99999993714333
 20
-2.309553587393457
 30
0.0
 10
11.99999993714333
 20
-2.418683823017199
 30
0.0
 10
11.99999993714334
 20
-2.605270244070208
 30
0.0
 10
11.99999993714333
 20
-2.869010298030846
 30
0.0
 10
11.9999999371433
 20
-3.19380418143797
 30
0.0
 10
11.9999999371433
 20
-3.577347467602666
 30
0.0
 10
11.99999993714331
 20
-4.001604151273903
 30
0.0
 10
11.99999993714342
 20
-4.462267715612161
 30
0.0
 10
11.99999993714329
 20
-4.938020574365026
 30
0.0
 10
11.99999993714338
 20
-5.423842713422536
 30
0.0
 10
11.99999993714333
 20
-5.897691872447339
 30
0.0
 10
11.99999993714335
 20
-6.352985786310424
 30
0.0
 10
11.99999993714331
 20
-6.840506304345869
 30
0.0
 10
11.99999993714333
 20
-7.122901454903475
 30
0.0
 10
11.99999993714334
 20
-7.289035381130661
 30
0.0
  0
SPLINE
  5
C1
330
1F
100
AcDbEntity
  8
0
  6
Continuous
 62
     1
370
    15
100
AcDbSpline
210
0.0
220
0.0
230
1.0
 70
     8
 71
     3
 72
    18
 73
    14
 74
     0
 42
0.000000001
 43
0.00000001
 40
0.0
 40
0.0
 40
0.0
 40
0.0
 40
0.2499999999999946
 40
0.2499999999999946
 40
0.4999999999999891
 40
0.4999999999999891
 40
0.6249999999999918
 40
0.6249999999999918
 40
0.7499999999999946
 40
0.7499999999999946
 40
0.8749999999999972
 40
0.8749999999999972
 40
1.0
 40
1.0
 40
1.0
 40
1.0
 10
48.57599993714335
 20
7.083354184793512
 30
0.0
 10
48.76454617852279
 20
7.01067295909312
 30
0.0
 10
48.94541663462375
 20
6.910867443925305
 30
0.0
 10
49.29772836434164
 20
6.663129768889857
 30
0.0
 10
49.459169720586
 20
6.522419546452156
 30
0.0
 10
49.68153065791218
 20
6.289771821031667
 30
0.0
 10
49.74965817660168
 20
6.211172427510012
 30
0.0
 10
49.87240547154097
 20
6.054503390438553
 30
0.0
 10
49.9267060007599
 20
5.976514770312944
 30
0.0
 10
50.01334406230873
 20
5.833559395704864
 30
0.0
 10
50.04702523727093
 20
5.766215419529694
 30
0.0
 10
50.08998614228679
 20
5.652411531934455
 30
0.0
 10
50.09999993714334
 20
5.604729099506594
 30
0.0
 10
50.09999993714332
 20
5.567006851063516
 30
0.0
1001
PE_URL
1000

  0
LINE
  5
C2
330
1F
100
AcDbEntity
  8
0
  6
Continuous
 62
     1
370
    15
100
AcDbLine
 10
50.09999993714332
 20
4.111286555451264
 30
0.0
 11
50.09999993714332
 21
5.567006851063516
 31
0.0
1001
PE_URL
1000

  0
SPLINE
  5
C3
330
1F
100
AcDbEntity
  8
0
  6
Continuous
 62
     1
370
    15
100
AcDbSpline
210
0.0
220
0.0
230
1.0
 70
     8
 71
     3
 72
    12
 73
     8
 74
     0
 42
0.000000001
 43
0.00000001
 40
0.0
 40
0.0
 40
0.0
 40
0.0
 40
0.1120402737217943
 40
0.3340957875736909
 40
0.556095137648786
 40
0.7780569654055413
 40
1.0
 40
1.0
 40
1.0
 40
1.0
 10
36.4934406639092
 20
9.494112549555137
 30
0.0
 10
36.94471632780441
 20
9.500045546355148
 30
0.0
 10
38.29038689191147
 20
9.517737302834547
 30
0.0
 10
40.53020315440261
 20
9.27528151120729
 30
0.0
 10
43.21258267546656
 20
8.785256887217043
 30
0.0
 10
45.89442872405685
 20
8.064021571656056
 30
0.0
 10
47.68216809470061
 20
7.410234087495756
 30
0.0
 10
48.57599993714334
 20
7.083354184793524
 30
0.0
1001
PE_URL
1000

  0
LINE
  5
C4
330
1F
100
AcDbEntity
  8
0
  6
Continuous
 62
     1
370
    15
100
AcDbLine
 10
50.09999993714332
 20
-6.863684591904134
 30
0.0
 11
50.09999993714332
 21
-5.746671122132065
 31
0.0
1001
PE_URL
1000

  0
SPLINE
  5
C5
330
1F
100
AcDbEntity
  8
0
  6
Continuous
 62
     1
370
    15
100
AcDbSpline
210
0.0
220
0.0
230
1.0
 70
     8
 71
     3
 72
    10
 73
     6
 74
     0
 42
0.000000001
 43
0.00000001
 40
0.0
 40
0.0
 40
0.0
 40
0.0
 40
0.3585766738381731
 40
0.7172285753473859
 40
1.0
 40
1.0
 40
1.0
 40
1.0
 10
48.57599993714337
 20
9.445094127862285
 30
0.0
 10
47.72287586865362
 20
9.485781931717616
 30
0.0
 10
46.01644875032516
 20
9.567166075534908
 30
0.0
 10
43.63718174196853
 20
9.431954191672887
 30
0.0
 10
42.11088440953947
 20
9.183783155059357
 30
0.0
 10
41.43801634638835
 20
9.07437697240516
 30
0.0
1001
PE_URL
1000

  0
SPLINE
  5
C6
330
1F
100
AcDbEntity
  8
0
  6
Continuous
 62
     1
370
    15
100
AcDbSpline
210
0.0
220
0.0
230
1.0
 70
     8
 71
     3
 72
    18
 73
    14
 74
     0
 42
0.000000001
 43
0.00000001
 40
0.0
 40
0.0
 40
0.0
 40
0.0
 40
0.2499999999999982
 40
0.2499999999999982
 40
0.3749999999999964
 40
0.3749999999999964
 40
0.4999999999999947
 40
0.4999999999999947
 40
0.6249999999999929
 40
0.6249999999999929
 40
0.7499999999999911
 40
0.7499999999999911
 40
1.0
 40
1.0
 40
1.0
 40
1.0
 10
50.09999993714332
 20
7.761050025883695
 30
0.0
 10
50.09999993714332
 20
7.977509680240062
 30
0.0
 10
50.06022007800361
 20
8.190940438748521
 30
0.0
 10
49.94095727906424
 20
8.492148679821904
 30
0.0
 10
49.89216726738959
 20
8.587318912446586
 30
0.0
 10
49.77752181497053
 20
8.767067506781647
 30
0.0
 10
49.71079126175654
 20
8.852439305770666
 30
0.0
 10
49.5655676494551
 20
9.006147330261886
 30
0.0
 10
49.48706807161324
 20
9.074955982101097
 30
0.0
 10
49.31948499270606
 20
9.196912198372292
 30
0.0
 10
49.23005421501265
 20
9.249979603774916
 30
0.0
 10
48.95809187075884
 20
9.37987240951934
 30
0.0
 10
48.76627108392402
 20
9.430864299993381
 30
0.0
 10
48.57599993714334
 20
9.44509412786229
 30
0.0
1001
PE_URL
1000

  0
LINE
  5
C7
330
1F
100
AcDbEntity
  8
0
  6
Continuous
 62
     1
370
    15
100
AcDbLine
 10
50.09999993714332
 20
5.567006851063516
 30
0.0
 11
50.09999993714332
 21
7.761050025883694
 31
0.0
1001
PE_URL
1000

  0
SPLINE
  5
C8
330
1F
100
AcDbEntity
  8
0
  6
Continuous
 62
     1
370
    15
100
AcDbSpline
210
0.0
220
0.0
230
1.0
 70
     8
 71
     3
 72
    11
 73
     7
 74
     0
 42
0.000000001
 43
0.00000001
 40
0.0
 40
0.0
 40
0.0
 40
0.0
 40
0.0550147122162238
 40
0.3700534604231495
 40
0.6850396959431084
 40
1.0
 40
1.0
 40
1.0
 40
1.0
 10
20.51399534292659
 20
-9.506304374352851
 30
0.0
 10
20.35785164256259
 20
-9.512044183341297
 30
0.0
 10
19.30755956040329
 20
-9.55065269536976
 30
0.0
 10
17.36340725126736
 20
-9.375545597122994
 30
0.0
 10
14.68156393302974
 20
-8.988066559674062
 30
0.0
 10
12.89383007202164
 20
-8.518412599892056
 30
0.0
 10
11.99999993714362
 20
-8.283595286546976
 30
0.0
1001
PE_URL
1000

  0
LINE
  5
C9
330
1F
100
AcDbEntity
  8
외형선
  6
Continuous
370
    15
100
AcDbLine
 10
11.99999993714334
 20
-8.283595286546898
 30
0.0
 11
11.99999993714334
 21
-7.289035381130661
 31
0.0
  0
SPLINE
  5
CA
330
1F
100
AcDbEntity
  8
0
  6
Continuous
 62
     1
370
    15
100
AcDbSpline
210
0.0
220
0.0
230
1.0
 70
     8
 71
     3
 72
     9
 73
     5
 74
     0
 42
0.000000001
 43
0.00000001
 40
0.0
 40
0.0
 40
0.0
 40
0.0
 40
0.7213331349268955
 40
1.0
 40
1.0
 40
1.0
 40
1.0
 10
11.99999993714333
 20
-9.489118534966343
 30
0.0
 10
12.85311343116273
 20
-9.435614751828046
 30
0.0
 10
14.03580344318593
 20
-9.361441279755786
 30
0.0
 10
15.2185663700566
 20
-9.133241136140391
 30
0.0
 10
15.54816320701232
 20
-9.069649317509855
 30
0.0
1001
PE_URL
1000

  0
SPLINE
  5
CB
330
1F
100
AcDbEntity
  8
외형선
  6
Continuous
370
    15
100
AcDbSpline
210
0.0
220
0.0
230
1.0
 70
    24
 71
     3
 72
     9
 73
     5
 74
     0
 42
0.000000001
 43
0.00000001
 40
0.0
 40
0.0
 40
0.0
 40
0.0
 40
0.392336290346457
 40
1.0
 40
1.0
 40
1.0
 40
1.0
 10
11.9999999371433
 20
-8.357789131294881
 30
0.0
 10
11.99999993714331
 20
-8.501702540744953
 30
0.0
 10
11.99999993714333
 20
-8.868513903830914
 30
0.0
 10
11.99999993714334
 20
-9.254542789977243
 30
0.0
 10
11.99999993714333
 20
-9.489118534966344
 30
0.0
  0
LINE
  5
CD
330
1F
100
AcDbEntity
  8
0
  6
Continuous
 62
     1
370
    15
100
AcDbLine
 10
50.09999993714332
 20
7.761050025883694
 30
0.0
 11
50.09999993714332
 21
8.000551919269535
 31
0.0
1001
PE_URL
1000

  0
LINE
  5
CE
330
1F
100
AcDbEntity
  8
외형선
  6
Continuous
370
    15
100
AcDbLine
 10
11.49986965338313
 20
9.510718287720769
 30
0.0
 11
11.49986965338313
 21
9.52557350426202
 31
0.0
  0
SPLINE
  5
CF
330
1F
100
AcDbEntity
  8
외형선
  6
Continuous
370
    15
100
AcDbSpline
210
0.0
220
0.0
230
1.0
 70
     8
 71
     3
 72
     8
 73
     4
 74
     0
 42
0.000000001
 43
0.00000001
 40
0.0
 40
0.0
 40
0.0
 40
0.0
 40
1.0
 40
1.0
 40
1.0
 40
1.0
 10
11.99999993714331
 20
9.490265543490386
 30
0.0
 10
11.83325387724368
 20
9.498535302504553
 30
0.0
 10
11.66650558976312
 20
9.505354768489658
 30
0.0
 10
11.49986965338313
 20
9.51072021313042
 30
0.0
  0
SPLINE
  5
D0
330
1F
100
AcDbEntity
  8
외형선
  6
Continuous
370
    15
100
AcDbSpline
210
0.0
220
0.0
230
1.0
 70
     8
 71
     3
 72
     8
 73
     4
 74
     0
 42
0.000000001
 43
0.00000001
 40
0.0
 40
0.0
 40
0.0
 40
0.0
 40
1.0
 40
1.0
 40
1.0
 40
1.0
 10
11.99999993714333
 20
9.182382012523213
 30
0.0
 10
11.83325387724369
 20
9.207954913382762
 30
0.0
 10
11.66650558976313
 20
9.232124651554809
 30
0.0
 10
11.49986965338314
 20
9.254875545771004
 30
0.0
  0
LINE
  5
D1
330
1F
100
AcDbEntity
  8
외형선
  6
Continuous
370
    15
100
AcDbLine
 10
11.49986965338313
 20
6.349248606531715
 30
0.0
 11
11.49986965338312
 21
9.254875972901514
 31
0.0
  0
SPLINE
  5
D2
330
1F
100
AcDbEntity
  8
외형선
  6
Continuous
370
    15
100
AcDbSpline
210
0.0
220
0.0
230
1.0
 70
     8
 71
     3
 72
     8
 73
     4
 74
     0
 42
0.000000001
 43
0.00000001
 40
0.0
 40
0.0
 40
0.0
 40
0.0
 40
1.0
 40
1.0
 40
1.0
 40
1.0
 10
11.99999993714331
 20
6.131415803490116
 30
0.0
 10
11.83325387724368
 20
6.204988405507701
 30
0.0
 10
11.66650558976312
 20
6.277624340771822
 30
0.0
 10
11.49986965338313
 20
6.349274317599959
 30
0.0
  0
SPLINE
  5
D3
330
1F
100
AcDbEntity
  8
외형선
  6
Continuous
370
    15
100
AcDbSpline
210
0.0
220
0.0
230
1.0
 70
     8
 71
     3
 72
     8
 73
     4
 74
     0
 42
0.000000001
 43
0.00000001
 40
0.0
 40
0.0
 40
0.0
 40
0.0
 40
1.0
 40
1.0
 40
1.0
 40
1.0
 10
11.99999993714333
 20
4.701442832948705
 30
0.0
 10
11.83325387724369
 20
4.785053334290418
 30
0.0
 10
11.66650558976313
 20
4.867945758619324
 30
0.0
 10
11.49986965338314
 20
4.950063622425986
 30
0.0
  0
SPLINE
  5
D4
330
1F
100
AcDbEntity
  8
외형선
  6
Continuous
370
    15
100
AcDbSpline
210
0.0
220
0.0
230
1.0
 70
     8
 71
     3
 72
     8
 73
     4
 74
     0
 42
0.000000001
 43
0.00000001
 40
0.0
 40
0.0
 40
0.0
 40
0.0
 40
1.0
 40
1.0
 40
1.0
 40
1.0
 10
11.99999993714331
 20
-0.8187982066274027
 30
0.0
 10
11.83325387724368
 20
-0.7230205940492217
 30
0.0
 10
11.66650558976312
 20
-0.6271173352681548
 30
0.0
 10
11.49986965338313
 20
-0.5311544109348451
 30
0.0
  0
SPLINE
  5
D5
330
1F
100
AcDbEntity
  8
외형선
  6
Continuous
370
    15
100
AcDbSpline
210
0.0
220
0.0
230
1.0
 70
     8
 71
     3
 72
     8
 73
     4
 74
     0
 42
0.000000001
 43
0.00000001
 40
0.0
 40
0.0
 40
0.0
 40
0.0
 40
1.0
 40
1.0
 40
1.0
 40
1.0
 10
11.99999993714333
 20
-2.533201844426684
 30
0.0
 10
11.83325387724369
 20
-2.44053164033197
 30
0.0
 10
11.66650558976313
 20
-2.347473787800091
 30
0.0
 10
11.49986965338314
 20
-2.2540924853078
 30
0.0
  0
SPLINE
  5
D6
330
1F
100
AcDbEntity
  8
외형선
  6
Continuous
370
    15
100
AcDbSpline
210
0.0
220
0.0
230
1.0
 70
     8
 71
     3
 72
     8
 73
     4
 74
     0
 42
0.000000001
 43
0.00000001
 40
0.0
 40
0.0
 40
0.0
 40
0.0
 40
1.0
 40
1.0
 40
1.0
 40
1.0
 10
11.99999993714331
 20
-7.289035381130647
 30
0.0
 10
11.83325387724368
 20
-7.227157984468454
 30
0.0
 10
11.66650558976312
 20
-7.164166230488614
 30
0.0
 10
11.49986965338313
 20
-7.100104138239602
 30
0.0
  0
SPLINE
  5
D7
330
1F
100
AcDbEntity
  8
외형선
  6
Continuous
370
    15
100
AcDbSpline
210
0.0
220
0.0
230
1.0
 70
     8
 71
     3
 72
     8
 73
     4
 74
     0
 42
0.000000001
 43
0.00000001
 40
0.0
 40
0.0
 40
0.0
 40
0.0
 40
1.0
 40
1.0
 40
1.0
 40
1.0
 10
11.99999993714333
 20
-8.283595286546896
 30
0.0
 10
11.83325387724369
 20
-8.236150328429982
 30
0.0
 10
11.66650558976313
 20
-8.187439075622988
 30
0.0
 10
11.49986965338314
 20
-8.137495834972988
 30
0.0
  0
LINE
  5
D8
330
1F
100
AcDbEntity
  8
외형선
  6
Continuous
370
    15
100
AcDbLine
 10
11.49986965338313
 20
-9.524426495737973
 30
0.0
 11
11.49986965338312
 21
-8.137494897326606
 31
0.0
  0
SPLINE
  5
D9
330
1F
100
AcDbEntity
  8
외형선
  6
Continuous
370
    15
100
AcDbSpline
210
0.0
220
0.0
230
1.0
 70
     8
 71
     3
 72
     8
 73
     4
 74
     0
 42
0.000000001
 43
0.00000001
 40
0.0
 40
0.0
 40
0.0
 40
0.0
 40
1.0
 40
1.0
 40
1.0
 40
1.0
 10
11.99999993714331
 20
-9.489118534966332
 30
0.0
 10
11.83325387724368
 20
-9.4973882939805
 30
0.0
 10
11.66650558976312
 20
-9.504207759965608
 30
0.0
 10
11.49986965338313
 20
-9.509573204606369
 30
0.0
  0
LINE
  5
DA
330
1F
100
AcDbEntity
  8
외형선
  6
Continuous
370
    15
100
AcDbLine
 10
-52.77000006285669
 20
0.0005735042620227
 30
0.0
 11
-52.77000006285669
 21
9.52557350426202
 31
0.0
  0
LINE
  5
DB
330
1F
100
AcDbEntity
  8
외형선
  6
Continuous
370
    15
100
AcDbLine
 10
-52.77000006285669
 20
-9.524426495737973
 30
0.0
 11
-52.77000006285669
 21
0.0005735042620227
 31
0.0
  0
LINE
  5
DC
330
1F
100
AcDbEntity
  8
외형선
  6
Continuous
370
    15
100
AcDbLine
 10
11.49986965338313
 20
-0.5311888464666106
 30
0.0
 11
11.49986965338312
 21
4.950065164126128
 31
0.0
  0
LINE
  5
DD
330
1F
100
AcDbEntity
  8
외형선
  6
Continuous
370
    15
100
AcDbLine
 10
11.49986965338313
 20
-7.100127126367405
 30
0.0
 11
11.49986965338312
 21
-2.25409073214506
 31
0.0
  0
LINE
  5
DE
330
1F
100
AcDbEntity
  8
외형선
  6
Continuous
370
    15
100
AcDbLine
 10
-54.67500006285669
 20
0.0005735042620227
 30
0.0
 11
-54.67500006285669
 21
7.620573504262026
 31
0.0
  0
LINE
  5
DF
330
1F
100
AcDbEntity
  8
외형선
  6
Continuous
370
    15
100
AcDbLine
 10
-54.67500006285669
 20
-7.619426495737981
 30
0.0
 11
-54.67500006285669
 21
0.0005735042620227
 31
0.0
  0
SPLINE
  5
E0
330
1F
100
AcDbEntity
  8
외형선
  6
Continuous
370
    15
100
AcDbSpline
210
0.0
220
0.0
230
1.0
 70
    24
 71
     3
 72
    23
 73
    19
 74
     0
 42
0.000000001
 43
0.00000001
 40
0.0
 40
0.0
 40
0.0
 40
0.0
 40
0.0416254994432518
 40
0.105016919379218
 40
0.1702466947877676
 40
0.2336381147237342
 40
0.2988678901322837
 40
0.3622593100682354
 40
0.4274890854768015
 40
0.4908805054127687
 40
0.5561102808213187
 40
0.6195017007572846
 40
0.6847314761658339
 40
0.7481228961017703
 40
0.8133526715102879
 40
0.8767440914462842
 40
0.941973866854866
 40
1.0
 40
1.0
 40
1.0
 40
1.0
 10
11.99999993714335
 20
-0.7826491603317417
 30
0.0
 10
11.99999993714335
 20
-0.7669599577922643
 30
0.0
 10
11.99999993714331
 20
-0.727377688744448
 30
0.0
 10
11.99999993714338
 20
-0.5748189255087086
 30
0.0
 10
11.99999993714335
 20
-0.3405239192585054
 30
0.0
 10
11.99999993714335
 20
-0.0332625434592655
 30
0.0
 10
11.99999993714331
 20
0.3287814537882076
 30
0.0
 10
11.99999993714334
 20
0.7429387219549722
 30
0.0
 10
11.99999993714331
 20
1.189748641036149
 30
0.0
 10
11.99999993714333
 20
1.664681668590721
 30
0.0
 10
11.99999993714333
 20
2.145728965663118
 30
0.0
 10
11.9999999371433
 20
2.62792890576928
 30
0.0
 10
11.99999993714344
 20
3.088986516153676
 30
0.0
 10
11.99999993714334
 20
3.524023605089545
 30
0.0
 10
11.99999993714334
 20
3.913368079007512
 30
0.0
 10
11.99999993714344
 20
4.251243478901858
 30
0.0
 10
11.99999993714335
 20
4.520825330549815
 30
0.0
 10
11.99999993714333
 20
4.643629410591356
 30
0.0
 10
11.99999993714333
 20
4.701442832948716
 30
0.0
  0
SPLINE
  5
E1
330
1F
100
AcDbEntity
  8
외형선
  6
Continuous
370
    15
100
AcDbSpline
210
0.0
220
0.0
230
1.0
 70
    24
 71
     3
 72
    22
 73
    18
 74
     0
 42
0.000000001
 43
0.00000001
 40
0.0
 40
0.0
 40
0.0
 40
0.0
 40
0.068416551637847
 40
0.1368331032756938
 40
0.2074770020626402
 40
0.2781209008495867
 40
0.3487647996365335
 40
0.4194086984234802
 40
0.4900525972104279
 40
0.5606964959973754
 40
0.6313403947843228
 40
0.7019842935712702
 40
0.7726281923582163
 40
0.8432720911451624
 40
0.9139159899320748
 40
0.9845598887189873
 40
0.9999999999999999
 40
0.9999999999999999
 40
0.9999999999999999
 40
0.9999999999999999
 10
11.99999993714334
 20
-7.289035381130651
 30
0.0
 10
11.99999993714334
 20
-7.180712402723711
 30
0.0
 10
11.99999993714334
 20
-6.96406644590983
 30
0.0
 10
11.99999993714333
 20
-6.571748653655904
 30
0.0
 10
11.99999993714334
 20
-6.139028146802946
 30
0.0
 10
11.99999993714335
 20
-5.672834138599938
 30
0.0
 10
11.99999993714333
 20
-5.191591689397081
 30
0.0
 10
11.99999993714334
 20
-4.708901115918439
 30
0.0
 10
11.99999993714333
 20
-4.238799471826637
 30
0.0
 10
11.99999993714333
 20
-3.793808847574657
 30
0.0
 10
11.99999993714334
 20
-3.387930919235449
 30
0.0
 10
11.9999999371433
 20
-3.03070268219281
 30
0.0
 10
11.99999993714337
 20
-2.735153128025524
 30
0.0
 10
11.99999993714338
 20
-2.504688927815584
 30
0.0
 10
11.9999999371434
 20
-2.357536214216396
 30
0.0
 10
11.99999993714331
 20
-2.286960830449171
 30
0.0
 10
11.99999993714335
 20
-2.292592228276688
 30
0.0
 10
11.99999993714335
 20
-2.293602281236069
 30
0.0
  0
SPLINE
  5
E2
330
1F
100
AcDbEntity
  8
외형선
  6
Continuous
370
    15
100
AcDbSpline
210
0.0
220
0.0
230
1.0
 70
    24
 71
     3
 72
    14
 73
    10
 74
     0
 42
0.000000001
 43
0.00000001
 40
0.0
 40
0.0
 40
0.0
 40
0.0
 40
0.1024703742713031
 40
0.2545341390528945
 40
0.4065979038344139
 40
0.5586616686159328
 40
0.7107254333975989
 40
0.8627891981792649
 40
1.0
 40
1.0
 40
1.0
 40
1.0
 10
11.99999993714335
 20
6.205599648238117
 30
0.0
 10
11.99999993714337
 20
6.289269243288943
 30
0.0
 10
11.99999993714335
 20
6.497102663363899
 30
0.0
 10
11.9999999371434
 20
6.882040368879212
 30
0.0
 10
11.99999993714335
 20
7.339453388141378
 30
0.0
 10
11.99999993714337
 20
7.817846653426415
 30
0.0
 10
11.99999993714334
 20
8.300910593885181
 30
0.0
 10
11.99999993714335
 20
8.762902212368134
 30
0.0
 10
11.99999993714334
 20
9.047425073813486
 30
0.0
 10
11.99999993714334
 20
9.182382012523224
 30
0.0
  0
SPLINE
  5
E3
330
1F
100
AcDbEntity
  8
외형선
  6
Continuous
370
    15
100
AcDbSpline
210
0.0
220
0.0
230
1.0
 70
    24
 71
     3
 72
    10
 73
     6
 74
     0
 42
0.000000001
 43
0.00000001
 40
0.0
 40
0.0
 40
0.0
 40
0.0
 40
0.3993352471159255
 40
0.8095179186119107
 40
1.0
 40
1.0
 40
1.0
 40
1.0
 10
11.99999993714335
 20
-9.489118534966336
 30
0.0
 10
11.99999993714334
 20
-9.335748452892538
 30
0.0
 10
11.99999993714331
 20
-9.024842189259678
 30
0.0
 10
11.99999993714333
 20
-8.641570342217166
 30
0.0
 10
11.99999993714333
 20
-8.426106701088992
 30
0.0
 10
11.99999993714334
 20
-8.357779131294881
 30
0.0
  0
LINE
  5
E4
330
1F
100
AcDbEntity
  8
중심선
100
AcDbLine
 10
-57.67500006285668
 20
0.0005735042620288
 30
0.0
 11
53.09999993714333
 21
0.0005735042620424
 31
0.0
1001
PE_URL
1000

  0
LINE
  5
E5
330
1F
100
AcDbEntity
  8
참조1
100
AcDbLine
 10
-4.287500000000055
 20
0.0010749287238892
 30
0.0
 11
-4.28750000000005
 21
-39.99892507127611
 31
0.0
  0
LINE
  5
E6
330
1F
100
AcDbEntity
  8
참조1
100
AcDbLine
 10
-4.28750000000005
 20
-39.99892507127611
 30
0.0
 11
-19.44635681430873
 21
-39.9989250712761
 31
0.0
  0
CIRCLE
  5
E7
330
1F
100
AcDbEntity
  8
해칭선
100
AcDbCircle
 10
0.0
 20
0.0
 30
0.0
 40
3.000000000000001
  0
INSERT
  5
E8
330
1F
100
AcDbEntity
  8
0
  6
Continuous
 62
     7
100
AcDbBlockReference
 66
     1
  2
블럭10
 10
-18.22777293212526
 20
-52.04609937292004
 30
0.0
  0
ATTRIB
  5
E9
330
E8
100
AcDbEntity
  8
FORMAT
 62
     2
100
AcDbText
 10
-28.93385375441394
 20
-49.97073246008785
 30
0.0
 40
4.233333333333333
  1
G8C51904 [ 8 FLUTE ]
 41
0.75
  7
SLDTEXTSTYLE0
 11
-28.93385375441394
 21
-52.08739912675452
 31
0.0
100
AcDbAttribute
  2
AUTOATTR0
 70
     0
 74
     1
  0
SEQEND
  5
EA
330
E8
100
AcDbEntity
  8
0
  6
Continuous
 62
     7
  0
HATCH
  5
EB
330
1F
100
AcDbEntity
  8
중심선
100
AcDbHatch
 10
0.0
 20
0.0
 30
0.0
210
0.0
220
0.0
230
1.0
  2
SOLID
 70
     1
 71
     0
 91
        1
 92
        0
 93
        4
 72
     1
 10
-12.51286362774442
 20
-35.7989250712761
 11
-15.95913887158171
 21
-35.7989250712761
 72
     1
 10
-15.95913887158171
 20
-35.7989250712761
 11
-18.08736873078573
 21
-38.3352506518487
 72
     1
 10
-18.08736873078573
 20
-38.3352506518487
 11
-14.6410604018353
 21
-38.33521122254621
 72
     1
 10
-14.6410604018353
 20
-38.33521122254621
 11
-12.51286362774442
 21
-35.7989250712761
 97
        0
 75
     0
 76
     1
 98
        1
 10
0.0
 20
0.0
  0
HATCH
  5
EC
330
1F
100
AcDbEntity
  8
중심선
100
AcDbHatch
 10
0.0
 20
0.0
 30
0.0
210
0.0
220
0.0
230
1.0
  2
SOLID
 70
     1
 71
     0
 91
        1
 92
        0
 93
        4
 72
     1
 10
-7.500099636708446
 20
-35.7989250712761
 11
-10.94637488054573
 21
-35.7989250712761
 72
     1
 10
-10.94637488054573
 20
-35.7989250712761
 11
-15.47751288890314
 21
-41.19892507127612
 72
     1
 10
-15.47751288890314
 20
-41.19892507127612
 11
-12.03123764506586
 21
-41.19892507127612
 72
     1
 10
-12.03123764506586
 20
-41.19892507127612
 11
-7.500099636708446
 21
-35.7989250712761
 97
        0
 75
     0
 76
     1
 98
        1
 10
0.0
 20
0.0
  0
HATCH
  5
ED
330
1F
100
AcDbEntity
  8
중심선
100
AcDbHatch
 10
0.0
 20
0.0
 30
0.0
210
0.0
220
0.0
230
1.0
  2
SOLID
 70
     1
 71
     0
 91
        1
 92
        0
 93
        4
 72
     1
 10
-2.487335645672578
 20
-35.7989250712761
 11
-5.933610889509694
 21
-35.7989250712761
 72
     1
 10
-5.933610889509694
 20
-35.7989250712761
 11
-12.98204779139894
 21
-44.19892507127612
 72
     1
 10
-12.98204779139894
 20
-44.19892507127612
 11
-9.53577254756166
 21
-44.19892507127612
 72
     1
 10
-9.53577254756166
 20
-44.19892507127612
 11
-2.487335645672578
 21
-35.7989250712761
 97
        0
 75
     0
 76
     1
 98
        1
 10
0.0
 20
0.0
  0
HATCH
  5
EE
330
1F
100
AcDbEntity
  8
중심선
100
AcDbHatch
 10
0.0
 20
0.0
 30
0.0
210
0.0
220
0.0
230
1.0
  2
SOLID
 70
     1
 71
     0
 91
        1
 92
        0
 93
        6
 72
     3
 10
2.312554785339621
 20
-39.99892507132738
 11
3.960054785062284
 21
1.540850780301639E-10
 40
0.3939339440162633
 50
17.09539180608434
 51
320.0019657685074
 73
     0
 72
     1
 10
3.995554441040217
 20
-38.58681907591438
 11
6.300856314741255
 21
-36.65249236586649
 72
     3
 10
2.312554785286775
 20
-39.99892507127625
 11
6.600054785286829
 21
-1.249000902703301E-13
 40
0.6363583540795982
 50
39.99873849337408
 51
368.4976242363725
 73
     1
 72
     1
 10
8.737887277187383
 20
-39.03892507120613
 11
0.9926220921226969
 21
-39.0389250712061
 72
     1
 10
0.9926220921226969
 20
-39.0389250712061
 11
0.9925970476767632
 21
-40.95892507120602
 72
     1
 10
0.9925970476767632
 20
-40.95892507120602
 11
5.4339768171488
 21
-40.95892507120599
 97
        0
 75
     0
 76
     1
 98
        1
 10
0.0
 20
0.0
  0
DIMENSION
  5
EF
330
1F
100
AcDbEntity
  8
치수문자_일반주서
100
AcDbDimension
  2
_D
 10
69.0999999371435
 20
-9.524426495737856
 30
0.0
 11
69.09999993714335
 21
29.91082350426215
 31
0.0
 70
   160
  1
%%c<>
 71
     2
 42
19.05000000000001
 52
-270.0
  3
SLDDIMSTYLE0
100
AcDbAlignedDimension
 13
50.0999999371433
 23
9.525573504262077
 33
0.0
 14
50.0999999371433
 24
-9.52442649573793
 34
0.0
 50
90.0000000000002
100
AcDbRotatedDimension
1001
PE_URL
1000

1001
ACAD
1000
DSTYLE
1002
{
1070
   171
1070
     6
1070
   273
1070
     7
1002
}
  0
DIMENSION
  5
104
330
1F
100
AcDbEntity
  8
치수문자_일반주서
100
AcDbDimension
  2
_D_1
 10
-61.67500006285666
 20
-9.524426495738012
 30
0.0
 11
-61.6750000628567
 21
0.0005735042620274
 31
0.0
 70
   160
  1
%%c<>
 71
     2
 42
19.05000000000001
 52
-270.0
  3
SLDDIMSTYLE0
100
AcDbAlignedDimension
 13
-52.7700000628567
 23
9.525573504262029
 33
0.0
 14
-52.7700000628567
 24
-9.524426495737982
 34
0.0
 50
90.0000000000002
100
AcDbRotatedDimension
1001
ACAD
1000
DSTYLE
1002
{
1070
   171
1070
     6
1070
   273
1070
     7
1002
}
  0
DIMENSION
  5
118
330
1F
100
AcDbEntity
  8
치수문자_일반주서
100
AcDbDimension
  2
_D_2
 10
11.99999993714334
 20
37.47131400796412
 30
0.0
 11
33.41743755623424
 21
37.47131400796412
 31
0.0
 70
   160
  1
<>
 71
     2
 42
38.09999999999996
  3
SLDDIMSTYLE0
100
AcDbAlignedDimension
 13
50.0999999371433
 23
9.525573504262077
 33
0.0
 14
11.99999993714334
 24
9.490265543490386
 34
0.0
100
AcDbRotatedDimension
1001
PE_URL
1000

1001
ACAD
1000
DSTYLE
1002
{
1070
   171
1070
     6
1070
   273
1070
     7
1002
}
  0
DIMENSION
  5
12C
330
1F
100
AcDbEntity
  8
치수문자_일반주서
100
AcDbDimension
  2
_D_3
 10
50.0999999371433
 20
53.33526060483953
 30
0.0
 11
-1.158940133989765
 21
53.33526060483953
 31
0.0
 70
   160
  1
<>
 71
     2
 42
104.775
  3
SLDDIMSTYLE0
100
AcDbAlignedDimension
 13
-54.67500006285669
 23
7.620573504262026
 33
0.0
 14
50.0999999371433
 24
9.525573504262077
 34
0.0
100
AcDbRotatedDimension
1001
PE_URL
1000

1001
ACAD
1000
DSTYLE
1002
{
1070
   171
1070
     6
1070
   273
1070
     7
1002
}
  0
LINE
  5
140
330
1F
100
AcDbEntity
  8
참조1
100
AcDbLine
 10
78.52598381534554
 20
7.441074928723896
 30
0.0
 11
78.52598381534554
 21
-7.438925071276109
 31
0.0
  0
LINE
  5
141
330
1F
100
AcDbEntity
  8
참조1
100
AcDbLine
 10
91.22598381534554
 20
5.441074928723896
 30
0.0
 11
78.52598381534554
 21
5.441074928723896
 31
0.0
  0
SOLID
  5
142
330
1F
100
AcDbEntity
  8
참조1
100
AcDbTrace
 10
78.52598381534554
 20
5.441074928723896
 30
0.0
 11
84.87598381534553
 21
4.425074928723896
 31
0.0
 12
84.87598381534553
 22
6.457074928723896
 32
0.0
 13
84.87598381534553
 23
6.457074928723896
 33
0.0
  0
LINE
  5
143
330
1F
100
AcDbEntity
  8
참조1
100
AcDbLine
 10
91.22598381534554
 20
-5.438925071276109
 30
0.0
 11
78.52598381534554
 21
-5.438925071276109
 31
0.0
  0
SOLID
  5
144
330
1F
100
AcDbEntity
  8
참조1
100
AcDbTrace
 10
78.52598381534554
 20
-5.438925071276109
 30
0.0
 11
84.87598381534553
 21
-6.454925071276109
 31
0.0
 12
84.87598381534553
 22
-4.422925071276109
 32
0.0
 13
84.87598381534553
 23
-4.422925071276109
 33
0.0
  0
MTEXT
  5
145
330
1F
100
AcDbEntity
  8
참조1
100
AcDbMText
 10
87.9234739078158
 20
10.98929157337383
 30
0.0
 40
3.5
 41
0.0
 71
     1
 72
     1
  1
A
  7
SLDTEXTSTYLE0
 73
     1
 44
1.0
  0
MTEXT
  5
146
330
1F
100
AcDbEntity
  8
참조1
100
AcDbMText
 10
87.9234739078158
 20
0.1092915733738259
 30
0.0
 40
3.5
 41
0.0
 71
     1
 72
     1
  1
A
  7
SLDTEXTSTYLE0
 73
     1
 44
1.0
  0
INSERT
  5
14D
330
1F
100
AcDbEntity
  8
해칭선
100
AcDbBlockReference
  2
SW_DOWELSYMBOL_0
 10
0.0
 20
0.0
 30
0.0
  0
ARC
  5
1AD
102
{ACAD_REACTORS
102
}
330
1F
100
AcDbEntity
  8
0
  6
Continuous
 62
     1
370
    15
100
AcDbCircle
 10
48.5733535435651
 20
-7.993419202101617
 30
0.0
 40
1.531200648945282
100
AcDbArc
 50
270.1140201745835
 51
4.256155965726895
1001
PE_URL
1000

  0
DIMENSION
  5
1AF
102
{ACAD_REACTORS
102
}
102
{ACAD_XDICTIONARY
360
1B0
102
}
330
1F
100
AcDbEntity
  8
치수문자_일반주서
100
AcDbDimension
  2
*D9
 10
48.5733535435651
 20
-7.993419202101617
 30
0.0
 11
59.59437007618914
 21
-28.44143482315304
 31
0.0
 70
   164
 71
     5
 42
1.53120064894528
  3
SLDDIMSTYLE0
100
AcDbRadialDimension
 15
49.29983438731156
 25
-9.341306812772434
 35
0.0
 40
0.0
1001
ACAD_DSTYLE_DIMRADIAL_EXTENSION
1070
   387
1070
     1
1070
   388
1040
4.714379007844871
1070
   390
1040
0.0742839350803332
1001
PE_URL
1000

1001
ACAD
1000
DSTYLE
1002
{
1070
   171
1070
     3
1002
}
  0
ENDSEC
  0
SECTION
  2
OBJECTS
  0
DICTIONARY
  5
C
330
0
100
AcDbDictionary
281
     1
  3
ACAD_GROUP
350
D
  3
ACAD_LAYOUT
350
1A
  3
ACAD_MLINESTYLE
350
17
  3
ACAD_PLOTSETTINGS
350
19
  3
ACAD_PLOTSTYLENAME
350
E
  3
ACAD_SCALELIST
350
47
  3
APPDATA
350
16F
  3
DWGPROPS
350
1BF
  0
DICTIONARY
  5
197
330
2
100
AcDbDictionary
280
     1
281
     1
  3
ACAD_LAYERSTATES
360
198
  0
DICTIONARY
  5
1B0
330
1AF
100
AcDbDictionary
280
     1
281
     1
  0
DICTIONARY
  5
D
102
{ACAD_REACTORS
330
C
102
}
330
C
100
AcDbDictionary
281
     1
  0
DICTIONARY
  5
1A
102
{ACAD_REACTORS
330
C
102
}
330
C
100
AcDbDictionary
281
     1
  3
Layout1
350
1E
  3
Layout2
350
26
  3
Model
350
22
  0
DICTIONARY
  5
17
102
{ACAD_REACTORS
330
C
102
}
330
C
100
AcDbDictionary
281
     1
  3
Standard
350
18
  0
DICTIONARY
  5
19
102
{ACAD_REACTORS
330
C
102
}
330
C
100
AcDbDictionary
281
     1
  0
ACDBDICTIONARYWDFLT
  5
E
102
{ACAD_REACTORS
330
C
102
}
330
C
100
AcDbDictionary
281
     1
  3
Normal
350
F
100
AcDbDictionaryWithDefault
340
F
  0
DICTIONARY
  5
47
102
{ACAD_REACTORS
330
C
102
}
330
C
100
AcDbDictionary
281
     1
  3
A0
350
48
  3
A1
350
49
  3
A2
350
4A
  3
A3
350
4B
  3
A4
350
4C
  3
A5
350
4D
  3
A6
350
4E
  3
A7
350
4F
  3
A8
350
50
  3
A9
350
51
  3
B0
350
52
  3
B1
350
53
  3
B2
350
54
  3
B3
350
55
  3
B4
350
56
  3
B5
350
57
  3
B6
350
58
  3
B7
350
59
  3
B8
350
5A
  3
B9
350
5B
  3
C0
350
5C
  3
C1
350
5D
  3
C2
350
5E
  3
C3
350
5F
  3
C4
350
60
  3
C5
350
61
  3
C6
350
62
  3
C7
350
63
  3
C8
350
64
  3
C9
350
65
  3
D0
350
66
  3
D1
350
67
  3
D2
350
68
  0
DICTIONARY
  5
16F
102
{ACAD_REACTORS
330
C
102
}
330
C
100
AcDbDictionary
281
     1
  0
XRECORD
  5
1BF
102
{ACAD_REACTORS
330
C
102
}
330
C
100
AcDbXrecord
280
     1
  1
DWGPROPS COOKIE
  2

  3

  4

  6

  7

  8
박수민
  9

300
=
301
=
302
=
303
=
304
=
305
=
306
=
307
=
308
=
309
=
 40
0.0
 41
2458295.136413252
 42
2458295.581271597
  1

 90
        0
  0
DICTIONARY
  5
198
102
{ACAD_REACTORS
330
197
102
}
330
197
100
AcDbDictionary
281
     1
  0
LAYOUT
  5
1E
102
{ACAD_REACTORS
330
1A
102
}
330
1A
100
AcDbPlotSettings
  1

  2
none_device
  4

  6

 40
0.0
 41
0.0
 42
0.0
 43
0.0
 44
0.0
 45
0.0
 46
0.0
 47
0.0
 48
0.0
 49
0.0
140
0.0
141
0.0
142
1.0
143
1.0
 70
   688
 72
     1
 73
     0
 74
     5
  7

 75
    16
147
1.0
148
0.0
149
0.0
100
AcDbLayout
  1
Layout1
 70
     1
 71
     1
 10
0.0
 20
0.0
 11
420.0
 21
297.0
 12
0.0
 22
0.0
 32
0.0
 14
1.000000000000000E+20
 24
1.000000000000000E+20
 34
1.000000000000000E+20
 15
-1.000000000000000E+20
 25
-1.000000000000000E+20
 35
-1.000000000000000E+20
146
0.0
 13
0.0
 23
0.0
 33
0.0
 16
1.0
 26
0.0
 36
0.0
 17
0.0
 27
1.0
 37
0.0
 76
     0
330
1B
  0
LAYOUT
  5
26
102
{ACAD_REACTORS
330
1A
102
}
330
1A
100
AcDbPlotSettings
  1

  2
none_device
  4

  6

 40
0.0
 41
0.0
 42
0.0
 43
0.0
 44
0.0
 45
0.0
 46
0.0
 47
0.0
 48
0.0
 49
0.0
140
0.0
141
0.0
142
1.0
143
1.0
 70
   688
 72
     1
 73
     0
 74
     5
  7

 75
    16
147
1.0
148
0.0
149
0.0
100
AcDbLayout
  1
Layout2
 70
     1
 71
     2
 10
0.0
 20
0.0
 11
0.0
 21
0.0
 12
0.0
 22
0.0
 32
0.0
 14
0.0
 24
0.0
 34
0.0
 15
0.0
 25
0.0
 35
0.0
146
0.0
 13
0.0
 23
0.0
 33
0.0
 16
1.0
 26
0.0
 36
0.0
 17
0.0
 27
1.0
 37
0.0
 76
     0
330
23
  0
LAYOUT
  5
22
102
{ACAD_REACTORS
330
1A
102
}
330
1A
100
AcDbPlotSettings
  1

  2
none_device
  4
ANSI_A_(11.00_x_8.50_Inches)
  6

 40
6.35
 41
19.05
 42
6.35000508
 43
19.05000254
 44
279.4
 45
215.9
 46
119.3621784951464
 47
77.70351354275472
 48
0.0
 49
0.0
140
0.0
141
0.0
142
0.0657236160498473
143
1.0
 70
  1696
 72
     0
 73
     0
 74
     0
  7

 75
     0
147
0.0235690232323232
148
0.0
149
0.0
100
AcDbLayout
  1
Model
 70
     1
 71
     0
 10
0.0
 20
0.0
 11
420.0
 21
297.0
 12
0.0
 22
0.0
 32
0.0
 14
-66.05000006285672
 24
-49.97073246008785
 34
0.0
 15
91.22598381534554
 25
57.71026060483953
 35
0.0
146
0.0
 13
0.0
 23
0.0
 33
0.0
 16
1.0
 26
0.0
 36
0.0
 17
0.0
 27
1.0
 37
0.0
 76
     0
330
1F
331
29
  0
MLINESTYLE
  5
18
102
{ACAD_REACTORS
330
17
102
}
330
17
100
AcDbMlineStyle
  2
Standard
 70
     0
  3

 62
   256
 51
90.0
 52
90.0
 71
     2
 49
0.5
 62
   256
  6
BYLAYER
 49
-0.5
 62
   256
  6
BYLAYER
  0
ACDBPLACEHOLDER
  5
F
102
{ACAD_REACTORS
330
E
102
}
330
E
  0
SCALE
  5
48
102
{ACAD_REACTORS
330
47
102
}
330
47
100
AcDbScale
 70
     0
300
1:1
140
1.0
141
1.0
290
     1
  0
SCALE
  5
49
102
{ACAD_REACTORS
330
47
102
}
330
47
100
AcDbScale
 70
     0
300
1:2
140
1.0
141
2.0
290
     0
  0
SCALE
  5
4A
102
{ACAD_REACTORS
330
47
102
}
330
47
100
AcDbScale
 70
     0
300
1:4
140
1.0
141
4.0
290
     0
  0
SCALE
  5
4B
102
{ACAD_REACTORS
330
47
102
}
330
47
100
AcDbScale
 70
     0
300
1:5
140
1.0
141
5.0
290
     0
  0
SCALE
  5
4C
102
{ACAD_REACTORS
330
47
102
}
330
47
100
AcDbScale
 70
     0
300
1:8
140
1.0
141
8.0
290
     0
  0
SCALE
  5
4D
102
{ACAD_REACTORS
330
47
102
}
330
47
100
AcDbScale
 70
     0
300
1:10
140
1.0
141
10.0
290
     0
  0
SCALE
  5
4E
102
{ACAD_REACTORS
330
47
102
}
330
47
100
AcDbScale
 70
     0
300
1:16
140
1.0
141
16.0
290
     0
  0
SCALE
  5
4F
102
{ACAD_REACTORS
330
47
102
}
330
47
100
AcDbScale
 70
     0
300
1:20
140
1.0
141
20.0
290
     0
  0
SCALE
  5
50
102
{ACAD_REACTORS
330
47
102
}
330
47
100
AcDbScale
 70
     0
300
1:30
140
1.0
141
30.0
290
     0
  0
SCALE
  5
51
102
{ACAD_REACTORS
330
47
102
}
330
47
100
AcDbScale
 70
     0
300
1:40
140
1.0
141
40.0
290
     0
  0
SCALE
  5
52
102
{ACAD_REACTORS
330
47
102
}
330
47
100
AcDbScale
 70
     0
300
1:50
140
1.0
141
50.0
290
     0
  0
SCALE
  5
53
102
{ACAD_REACTORS
330
47
102
}
330
47
100
AcDbScale
 70
     0
300
1:100
140
1.0
141
100.0
290
     0
  0
SCALE
  5
54
102
{ACAD_REACTORS
330
47
102
}
330
47
100
AcDbScale
 70
     0
300
2:1
140
2.0
141
1.0
290
     0
  0
SCALE
  5
55
102
{ACAD_REACTORS
330
47
102
}
330
47
100
AcDbScale
 70
     0
300
4:1
140
4.0
141
1.0
290
     0
  0
SCALE
  5
56
102
{ACAD_REACTORS
330
47
102
}
330
47
100
AcDbScale
 70
     0
300
8:1
140
8.0
141
1.0
290
     0
  0
SCALE
  5
57
102
{ACAD_REACTORS
330
47
102
}
330
47
100
AcDbScale
 70
     0
300
10:1
140
10.0
141
1.0
290
     0
  0
SCALE
  5
58
102
{ACAD_REACTORS
330
47
102
}
330
47
100
AcDbScale
 70
     0
300
100:1
140
100.0
141
1.0
290
     0
  0
SCALE
  5
59
102
{ACAD_REACTORS
330
47
102
}
330
47
100
AcDbScale
 70
     0
300
1/128" = 1'-0"
140
0.0078125
141
12.0
290
     0
  0
SCALE
  5
5A
102
{ACAD_REACTORS
330
47
102
}
330
47
100
AcDbScale
 70
     0
300
1/64" = 1'-0"
140
0.015625
141
12.0
290
     0
  0
SCALE
  5
5B
102
{ACAD_REACTORS
330
47
102
}
330
47
100
AcDbScale
 70
     0
300
1/32" = 1'-0"
140
0.03125
141
12.0
290
     0
  0
SCALE
  5
5C
102
{ACAD_REACTORS
330
47
102
}
330
47
100
AcDbScale
 70
     0
300
1/16" = 1'-0"
140
0.0625
141
12.0
290
     0
  0
SCALE
  5
5D
102
{ACAD_REACTORS
330
47
102
}
330
47
100
AcDbScale
 70
     0
300
3/32" = 1'-0"
140
0.09375
141
12.0
290
     0
  0
SCALE
  5
5E
102
{ACAD_REACTORS
330
47
102
}
330
47
100
AcDbScale
 70
     0
300
1/8" = 1'-0"
140
0.125
141
12.0
290
     0
  0
SCALE
  5
5F
102
{ACAD_REACTORS
330
47
102
}
330
47
100
AcDbScale
 70
     0
300
3/16" = 1'-0"
140
0.1875
141
12.0
290
     0
  0
SCALE
  5
60
102
{ACAD_REACTORS
330
47
102
}
330
47
100
AcDbScale
 70
     0
300
1/4" = 1'-0"
140
0.25
141
12.0
290
     0
  0
SCALE
  5
61
102
{ACAD_REACTORS
330
47
102
}
330
47
100
AcDbScale
 70
     0
300
3/8" = 1'-0"
140
0.375
141
12.0
290
     0
  0
SCALE
  5
62
102
{ACAD_REACTORS
330
47
102
}
330
47
100
AcDbScale
 70
     0
300
1/2" = 1'-0"
140
0.5
141
12.0
290
     0
  0
SCALE
  5
63
102
{ACAD_REACTORS
330
47
102
}
330
47
100
AcDbScale
 70
     0
300
3/4" = 1'-0"
140
0.75
141
12.0
290
     0
  0
SCALE
  5
64
102
{ACAD_REACTORS
330
47
102
}
330
47
100
AcDbScale
 70
     0
300
1" = 1'-0"
140
1.0
141
12.0
290
     0
  0
SCALE
  5
65
102
{ACAD_REACTORS
330
47
102
}
330
47
100
AcDbScale
 70
     0
300
1-1/2" = 1'-0"
140
1.5
141
12.0
290
     0
  0
SCALE
  5
66
102
{ACAD_REACTORS
330
47
102
}
330
47
100
AcDbScale
 70
     0
300
3" = 1'-0"
140
3.0
141
12.0
290
     0
  0
SCALE
  5
67
102
{ACAD_REACTORS
330
47
102
}
330
47
100
AcDbScale
 70
     0
300
6" = 1'-0"
140
6.0
141
12.0
290
     0
  0
SCALE
  5
68
102
{ACAD_REACTORS
330
47
102
}
330
47
100
AcDbScale
 70
     0
300
1'-0" = 1'-0"
140
12.0
141
12.0
290
     0
  0
ENDSEC
  0
EOF
