  0
SECTION
  2
HEADER
  9
$ACADVER
  1
AC1015
  9
$ACADMAINTVER
 70
     6
  9
$DWGCODEPAGE
  3
ANSI_949
  9
$INSBASE
 10
0.0
 20
0.0
 30
0.0
  9
$EXTMIN
 10
1.000000000000000E+20
 20
1.000000000000000E+20
 30
1.000000000000000E+20
  9
$EXTMAX
 10
-1.000000000000000E+20
 20
-1.000000000000000E+20
 30
-1.000000000000000E+20
  9
$LIMMIN
 10
0.0
 20
0.0
  9
$LIMMAX
 10
420.0
 20
297.0
  9
$ORTHOMODE
 70
     1
  9
$REGENMODE
 70
     1
  9
$FILLMODE
 70
     1
  9
$QTEXTMODE
 70
     0
  9
$MIRRTEXT
 70
     1
  9
$LTSCALE
 40
1.0
  9
$ATTMODE
 70
     1
  9
$TEXTSIZE
 40
3.5
  9
$TRACEWID
 40
1.0
  9
$TEXTSTYLE
  7
Standard
  9
$CLAYER
  8
0
  9
$CELTYPE
  6
ByLayer
  9
$CECOLOR
 62
   256
  9
$CELTSCALE
 40
1.0
  9
$DISPSILH
 70
     0
  9
$DIMSCALE
 40
1.0
  9
$DIMASZ
 40
3.302
  9
$DIMEXO
 40
1.0
  9
$DIMDLI
 40
3.75
  9
$DIMRND
 40
0.0
  9
$DIMDLE
 40
0.0
  9
$DIMEXE
 40
1.0
  9
$DIMTP
 40
0.0
  9
$DIMTM
 40
0.0
  9
$DIMTXT
 40
3.5
  9
$DIMCEN
 40
2.5
  9
$DIMTSZ
 40
0.0
  9
$DIMTOL
 70
     0
  9
$DIMLIM
 70
     0
  9
$DIMTIH
 70
     1
  9
$DIMTOH
 70
     1
  9
$DIMSE1
 70
     0
  9
$DIMSE2
 70
     0
  9
$DIMTAD
 70
     1
  9
$DIMZIN
 70
     0
  9
$DIMBLK
  1

  9
$DIMASO
 70
     1
  9
$DIMSHO
 70
     1
  9
$DIMPOST
  1

  9
$DIMAPOST
  1

  9
$DIMALT
 70
     0
  9
$DIMALTD
 70
     3
  9
$DIMALTF
 40
0.0393700787401575
  9
$DIMLFAC
 40
1.0
  9
$DIMTOFL
 70
     1
  9
$DIMTVP
 40
0.0
  9
$DIMTIX
 70
     0
  9
$DIMSOXD
 70
     0
  9
$DIMSAH
 70
     0
  9
$DIMBLK1
  1

  9
$DIMBLK2
  1

  9
$DIMSTYLE
  2
ISO-25
  9
$DIMCLRD
 70
     0
  9
$DIMCLRE
 70
     0
  9
$DIMCLRT
 70
     0
  9
$DIMTFAC
 40
1.0
  9
$DIMGAP
 40
1.524
  9
$DIMJUST
 70
     0
  9
$DIMSD1
 70
     0
  9
$DIMSD2
 70
     0
  9
$DIMTOLJ
 70
     0
  9
$DIMTZIN
 70
     0
  9
$DIMALTZ
 70
     0
  9
$DIMALTTZ
 70
     0
  9
$DIMUPT
 70
     0
  9
$DIMDEC
 70
     2
  9
$DIMTDEC
 70
     2
  9
$DIMALTU
 70
     2
  9
$DIMALTTD
 70
     3
  9
$DIMTXSTY
  7
Standard
  9
$DIMAUNIT
 70
     0
  9
$DIMADEC
 70
     2
  9
$DIMALTRND
 40
0.0
  9
$DIMAZIN
 70
     0
  9
$DIMDSEP
 70
    44
  9
$DIMATFIT
 70
     3
  9
$DIMFRAC
 70
     0
  9
$DIMLDRBLK
  1

  9
$DIMLUNIT
 70
     2
  9
$DIMLWD
 70
    -2
  9
$DIMLWE
 70
    -2
  9
$DIMTMOVE
 70
     0
  9
$LUNITS
 70
     2
  9
$LUPREC
 70
     2
  9
$SKETCHINC
 40
1.0
  9
$FILLETRAD
 40
10.0
  9
$AUNITS
 70
     0
  9
$AUPREC
 70
     2
  9
$MENU
  1
.
  9
$ELEVATION
 40
0.0
  9
$PELEVATION
 40
0.0
  9
$THICKNESS
 40
0.0
  9
$LIMCHECK
 70
     0
  9
$CHAMFERA
 40
0.0
  9
$CHAMFERB
 40
0.0
  9
$CHAMFERC
 40
0.0
  9
$CHAMFERD
 40
0.0
  9
$SKPOLY
 70
     0
  9
$TDCREATE
 40
2458295.511791516
  9
$TDUCREATE
 40
2458295.136791516
  9
$TDUPDATE
 40
2458295.870583403
  9
$TDUUPDATE
 40
2458295.495583403
  9
$TDINDWG
 40
0.000180625
  9
$TDUSRTIMER
 40
2458295.495403403
  9
$USRTIMER
 70
     1
  9
$ANGBASE
 50
0.0
  9
$ANGDIR
 70
     0
  9
$PDMODE
 70
     0
  9
$PDSIZE
 40
-1.0
  9
$PLINEWID
 40
0.0
  9
$SPLFRAME
 70
     0
  9
$SPLINETYPE
 70
     6
  9
$SPLINESEGS
 70
     8
  9
$HANDSEED
  5
335
  9
$SURFTAB1
 70
     6
  9
$SURFTAB2
 70
     6
  9
$SURFTYPE
 70
     6
  9
$SURFU
 70
     6
  9
$SURFV
 70
     6
  9
$UCSBASE
  2

  9
$UCSNAME
  2

  9
$UCSORG
 10
0.0
 20
0.0
 30
0.0
  9
$UCSXDIR
 10
1.0
 20
0.0
 30
0.0
  9
$UCSYDIR
 10
0.0
 20
1.0
 30
0.0
  9
$UCSORTHOREF
  2

  9
$UCSORTHOVIEW
 70
     0
  9
$UCSORGTOP
 10
0.0
 20
0.0
 30
0.0
  9
$UCSORGBOTTOM
 10
0.0
 20
0.0
 30
0.0
  9
$UCSORGLEFT
 10
0.0
 20
0.0
 30
0.0
  9
$UCSORGRIGHT
 10
0.0
 20
0.0
 30
0.0
  9
$UCSORGFRONT
 10
0.0
 20
0.0
 30
0.0
  9
$UCSORGBACK
 10
0.0
 20
0.0
 30
0.0
  9
$PUCSBASE
  2

  9
$PUCSNAME
  2

  9
$PUCSORG
 10
0.0
 20
0.0
 30
0.0
  9
$PUCSXDIR
 10
1.0
 20
0.0
 30
0.0
  9
$PUCSYDIR
 10
0.0
 20
1.0
 30
0.0
  9
$PUCSORTHOREF
  2

  9
$PUCSORTHOVIEW
 70
     0
  9
$PUCSORGTOP
 10
0.0
 20
0.0
 30
0.0
  9
$PUCSORGBOTTOM
 10
0.0
 20
0.0
 30
0.0
  9
$PUCSORGLEFT
 10
0.0
 20
0.0
 30
0.0
  9
$PUCSORGRIGHT
 10
0.0
 20
0.0
 30
0.0
  9
$PUCSORGFRONT
 10
0.0
 20
0.0
 30
0.0
  9
$PUCSORGBACK
 10
0.0
 20
0.0
 30
0.0
  9
$USERI1
 70
     0
  9
$USERI2
 70
     0
  9
$USERI3
 70
     0
  9
$USERI4
 70
     0
  9
$USERI5
 70
     0
  9
$USERR1
 40
0.0
  9
$USERR2
 40
0.0
  9
$USERR3
 40
0.0
  9
$USERR4
 40
0.0
  9
$USERR5
 40
0.0
  9
$WORLDVIEW
 70
     1
  9
$SHADEDGE
 70
     3
  9
$SHADEDIF
 70
    70
  9
$TILEMODE
 70
     1
  9
$MAXACTVP
 70
    64
  9
$PINSBASE
 10
0.0
 20
0.0
 30
0.0
  9
$PLIMCHECK
 70
     0
  9
$PEXTMIN
 10
1.000000000000000E+20
 20
1.000000000000000E+20
 30
1.000000000000000E+20
  9
$PEXTMAX
 10
-1.000000000000000E+20
 20
-1.000000000000000E+20
 30
-1.000000000000000E+20
  9
$PLIMMIN
 10
0.0
 20
0.0
  9
$PLIMMAX
 10
0.0
 20
0.0
  9
$UNITMODE
 70
     0
  9
$VISRETAIN
 70
     1
  9
$PLINEGEN
 70
     0
  9
$PSLTSCALE
 70
     1
  9
$TREEDEPTH
 70
  3020
  9
$CMLSTYLE
  2
Standard
  9
$CMLJUST
 70
     0
  9
$CMLSCALE
 40
20.0
  9
$PROXYGRAPHICS
 70
     1
  9
$MEASUREMENT
 70
     1
  9
$CELWEIGHT
370
    -1
  9
$ENDCAPS
280
     0
  9
$JOINSTYLE
280
     0
  9
$LWDISPLAY
290
     1
  9
$INSUNITS
 70
     4
  9
$HYPERLINKBASE
  1

  9
$STYLESHEET
  1

  9
$XEDIT
290
     1
  9
$CEPSNTYPE
380
     0
  9
$PSTYLEMODE
290
     1
  9
$FINGERPRINTGUID
  2
{9E3BCCD3-9B7B-406D-99DE-591CB6C17692}
  9
$VERSIONGUID
  2
{FAEB1C32-E019-11D5-929B-00C0DF256EC4}
  9
$EXTNAMES
290
     1
  9
$PSVPSCALE
 40
0.0
  9
$OLESTARTUP
290
     0
  0
ENDSEC
  0
SECTION
  2
CLASSES
  0
CLASS
  1
ACDBDICTIONARYWDFLT
  2
AcDbDictionaryWithDefault
  3
ObjectDBX Classes
 90
        0
280
     0
281
     0
  0
CLASS
  1
VISUALSTYLE
  2
AcDbVisualStyle
  3
ObjectDBX Classes
 90
     4095
280
     0
281
     0
  0
CLASS
  1
MATERIAL
  2
AcDbMaterial
  3
ObjectDBX Classes
 90
     1153
280
     0
281
     0
  0
CLASS
  1
SCALE
  2
AcDbScale
  3
ObjectDBX Classes
 90
     1153
280
     0
281
     0
  0
CLASS
  1
SUN
  2
AcDbSun
  3
SCENEOE
 90
     1153
280
     0
281
     0
  0
CLASS
  1
ACDBPLACEHOLDER
  2
AcDbPlaceHolder
  3
ObjectDBX Classes
 90
        0
280
     0
281
     0
  0
CLASS
  1
LAYOUT
  2
AcDbLayout
  3
ObjectDBX Classes
 90
        0
280
     0
281
     0
  0
CLASS
  1
TABLESTYLE
  2
AcDbTableStyle
  3
ObjectDBX Classes
 90
     4095
280
     0
281
     0
  0
CLASS
  1
MLEADERSTYLE
  2
AcDbMLeaderStyle
  3
ACDB_MLEADERSTYLE_CLASS
 90
     4095
280
     0
281
     0
  0
CLASS
  1
RASTERVARIABLES
  2
AcDbRasterVariables
  3
ISM
 90
        0
280
     0
281
     0
  0
CLASS
  1
DIMASSOC
  2
AcDbDimAssoc
  3
"AcDbDimAssoc|Product Desc:     AcDim ARX App For Dimension|Company:          Autodesk, Inc.|WEB Address:      www.autodesk.com"
 90
        0
280
     0
281
     0
  0
ENDSEC
  0
SECTION
  2
TABLES
  0
TABLE
  2
VPORT
  5
8
330
0
100
AcDbSymbolTable
 70
     1
  0
VPORT
  5
29
330
8
100
AcDbSymbolTableRecord
100
AcDbViewportTableRecord
  2
*Active
 70
     0
 10
0.0
 20
0.0
 11
1.0
 21
1.0
 12
29.69266302281937
 22
-6.699608217397662
 13
0.0
 23
0.0
 14
10.0
 24
10.0
 15
10.0
 25
10.0
 16
0.0
 26
0.0
 36
1.0
 17
0.0
 27
0.0
 37
0.0
 40
189.2674433274069
 41
1.798434442270059
 42
50.0
 43
0.0
 44
0.0
 50
0.0
 51
0.0
 71
    16
 72
  2000
 73
     1
 74
     3
 75
     0
 76
     0
 77
     0
 78
     0
281
     0
 65
     1
110
0.0
120
0.0
130
0.0
111
1.0
121
0.0
131
0.0
112
0.0
122
1.0
132
0.0
 79
     0
146
0.0
  0
ENDTAB
  0
TABLE
  2
LTYPE
  5
5
330
0
100
AcDbSymbolTable
 70
     6
  0
LTYPE
  5
14
330
5
100
AcDbSymbolTableRecord
100
AcDbLinetypeTableRecord
  2
ByBlock
 70
     0
  3

 72
    65
 73
     0
 40
0.0
  0
LTYPE
  5
15
330
5
100
AcDbSymbolTableRecord
100
AcDbLinetypeTableRecord
  2
ByLayer
 70
     0
  3

 72
    65
 73
     0
 40
0.0
  0
LTYPE
  5
16
330
5
100
AcDbSymbolTableRecord
100
AcDbLinetypeTableRecord
  2
Continuous
 70
     0
  3
Solid line
 72
    65
 73
     0
 40
0.0
  0
LTYPE
  5
6A
330
5
100
AcDbSymbolTableRecord
100
AcDbLinetypeTableRecord
  2
HIDDEN
 70
     0
  3
Hidden __ __ __ __ __ __ __ __ __ __ __ __ __ __
 72
    65
 73
     2
 40
1.905
 49
1.27
 74
     0
 49
-0.635
 74
     0
  0
LTYPE
  5
6B
330
5
100
AcDbSymbolTableRecord
100
AcDbLinetypeTableRecord
  2
PHANTOM
 70
     0
  3
Phantom ______  __  __  ______  __  __  ______
 72
    65
 73
     6
 40
12.7
 49
6.35
 74
     0
 49
-1.27
 74
     0
 49
1.27
 74
     0
 49
-1.27
 74
     0
 49
1.27
 74
     0
 49
-1.27
 74
     0
  0
LTYPE
  5
6C
330
5
100
AcDbSymbolTableRecord
100
AcDbLinetypeTableRecord
  2
CENTER
 70
     0
  3
Center ____ _ ____ _ ____ _ ____ _ ____ _ ____
 72
    65
 73
     4
 40
10.16
 49
6.35
 74
     0
 49
-1.27
 74
     0
 49
1.27
 74
     0
 49
-1.27
 74
     0
  0
LTYPE
  5
6D
330
5
100
AcDbSymbolTableRecord
100
AcDbLinetypeTableRecord
  2
CENTERX2
 70
     0
  3
Center (2x) ________  __  ________  __  _____
 72
    65
 73
     4
 40
20.32
 49
12.7
 74
     0
 49
-2.54
 74
     0
 49
2.54
 74
     0
 49
-2.54
 74
     0
  0
LTYPE
  5
6E
330
5
100
AcDbSymbolTableRecord
100
AcDbLinetypeTableRecord
  2
DOT2
 70
     0
  3
Dot (.5x) ........................................
 72
    65
 73
     2
 40
0.635
 49
0.0
 74
     0
 49
-0.635
 74
     0
  0
ENDTAB
  0
TABLE
  2
LAYER
  5
2
102
{ACAD_XDICTIONARY
360
24F
102
}
330
0
100
AcDbSymbolTable
 70
    18
  0
LAYER
  5
10
330
2
100
AcDbSymbolTableRecord
100
AcDbLayerTableRecord
  2
0
 70
     0
 62
     7
  6
Continuous
370
    -3
390
F
  0
LAYER
  5
6F
330
2
100
AcDbSymbolTableRecord
100
AcDbLayerTableRecord
  2
FORMAT
 70
     0
 62
     2
  6
Continuous
370
    -3
390
F
  0
LAYER
  5
70
330
2
100
AcDbSymbolTableRecord
100
AcDbLayerTableRecord
  2
외형선
 70
     0
 62
     4
  6
Continuous
370
    30
390
F
  0
LAYER
  5
71
330
2
100
AcDbSymbolTableRecord
100
AcDbLayerTableRecord
  2
숨은선
 70
     0
 62
     2
  6
HIDDEN
370
    15
390
F
  0
LAYER
  5
72
330
2
100
AcDbSymbolTableRecord
100
AcDbLayerTableRecord
  2
중심선
 70
     0
 62
     1
  6
CENTERX2
370
    -3
390
F
  0
LAYER
  5
73
330
2
100
AcDbSymbolTableRecord
100
AcDbLayerTableRecord
  2
파단선
 70
     0
 62
     4
  6
Continuous
370
    -3
390
F
  0
LAYER
  5
74
330
2
100
AcDbSymbolTableRecord
100
AcDbLayerTableRecord
  2
해칭선
 70
     0
 62
   100
  6
Continuous
370
    -3
390
F
  0
LAYER
  5
75
330
2
100
AcDbSymbolTableRecord
100
AcDbLayerTableRecord
  2
가는실선
 70
     0
 62
     4
  6
Continuous
370
    -3
390
F
  0
LAYER
  5
76
330
2
100
AcDbSymbolTableRecord
100
AcDbLayerTableRecord
  2
치수_보조선
 70
     0
 62
     4
  6
Continuous
370
    -3
390
F
  0
LAYER
  5
77
330
2
100
AcDbSymbolTableRecord
100
AcDbLayerTableRecord
  2
치수문자_일반주서
 70
     0
 62
     7
  6
Continuous
370
    15
390
F
  0
LAYER
  5
78
330
2
100
AcDbSymbolTableRecord
100
AcDbLayerTableRecord
  2
개별주서
 70
     0
 62
   100
  6
Continuous
370
    30
390
F
  0
LAYER
  5
79
330
2
100
AcDbSymbolTableRecord
100
AcDbLayerTableRecord
  2
중간선
 70
     0
 62
     2
  6
Continuous
370
    15
390
F
  0
LAYER
  5
7A
330
2
100
AcDbSymbolTableRecord
100
AcDbLayerTableRecord
  2
윤곽선
 70
     0
 62
     3
  6
Continuous
370
    40
390
F
  0
LAYER
  5
7B
330
2
100
AcDbSymbolTableRecord
100
AcDbLayerTableRecord
  2
중심마크
 70
     0
 62
   100
  6
Continuous
370
    30
390
F
  0
LAYER
  5
7C
330
2
100
AcDbSymbolTableRecord
100
AcDbLayerTableRecord
  2
가상선
 70
     0
 62
     4
  6
PHANTOM
370
    -3
390
F
  0
LAYER
  5
7D
330
2
100
AcDbSymbolTableRecord
100
AcDbLayerTableRecord
  2
특수지정선
 70
     0
 62
     5
  6
CENTERX2
370
    60
390
F
  0
LAYER
  5
7E
330
2
100
AcDbSymbolTableRecord
100
AcDbLayerTableRecord
  2
참조1
 70
     0
 62
    -4
  6
Continuous
370
    -3
390
F
  0
LAYER
  5
182
330
2
100
AcDbSymbolTableRecord
100
AcDbLayerTableRecord
  2
Defpoints
 70
     0
 62
     7
  6
Continuous
290
     0
370
    -3
390
F
  0
ENDTAB
  0
TABLE
  2
STYLE
  5
3
330
0
100
AcDbSymbolTable
 70
     2
  0
STYLE
  5
11
330
3
100
AcDbSymbolTableRecord
100
AcDbTextStyleTableRecord
  2
Standard
 70
     0
 40
0.0
 41
1.0
 50
0.0
 71
     0
 42
3.5
  3
txt
  4

  0
STYLE
  5
94
330
3
100
AcDbSymbolTableRecord
100
AcDbTextStyleTableRecord
  2
SLDTEXTSTYLE0
 70
     0
 40
0.0
 41
0.75
 50
0.0
 71
     0
 42
3.5
  3
TXT
  4

  0
ENDTAB
  0
TABLE
  2
VIEW
  5
6
330
0
100
AcDbSymbolTable
 70
     0
  0
ENDTAB
  0
TABLE
  2
UCS
  5
7
330
0
100
AcDbSymbolTable
 70
     0
  0
ENDTAB
  0
TABLE
  2
APPID
  5
9
330
0
100
AcDbSymbolTable
 70
     2
  0
APPID
  5
12
330
9
100
AcDbSymbolTableRecord
100
AcDbRegAppTableRecord
  2
ACAD
 70
     0
  0
APPID
  5
326
330
9
100
AcDbSymbolTableRecord
100
AcDbRegAppTableRecord
  2
ACAD_DSTYLE_DIMRADIAL_EXTENSION
 70
     0
  0
ENDTAB
  0
TABLE
  2
DIMSTYLE
  5
A
330
0
100
AcDbSymbolTable
 70
     4
100
AcDbDimStyleTable
  0
DIMSTYLE
105
27
330
A
100
AcDbSymbolTableRecord
100
AcDbDimStyleTableRecord
  2
ISO-25
 70
     0
 41
2.5
 42
0.625
 43
3.75
 44
1.25
 73
     0
 74
     0
 77
     1
 78
     8
140
2.5
141
2.5
143
0.03937007874016
147
0.625
171
     3
172
     1
178
     0
271
     2
272
     2
274
     3
278
    44
283
     0
284
     8
340
11
  0
DIMSTYLE
105
FF
102
{ACAD_REACTORS
330
20D
330
21A
330
2E4
330
2E5
330
2E6
330
2E7
330
327
102
}
330
A
100
AcDbSymbolTableRecord
100
AcDbDimStyleTableRecord
  2
SLDDIMSTYLE0
 70
     0
 41
3.302
 44
0.0
 45
0.000000001
 73
     0
 74
     0
 77
     1
 78
     4
 79
     1
140
3.5
143
0.0393700787401575
147
0.875
148
0.000000001
170
     1
172
     1
173
     1
178
     0
271
     2
272
     2
276
     2
284
    12
289
     0
340
94
  0
DIMSTYLE
105
128
102
{ACAD_REACTORS
330
22E
102
}
330
A
100
AcDbSymbolTableRecord
100
AcDbDimStyleTableRecord
  2
SLDDIMSTYLE1
 70
     0
 41
3.302
 44
0.0
 45
0.000000001
 73
     0
 74
     0
 77
     1
 78
    12
 79
     3
140
3.5
143
0.0393700787401575
147
0.875
148
0.000000001
170
     1
173
     1
178
     0
271
     2
272
     2
276
     2
284
    12
340
94
  0
DIMSTYLE
105
13C
102
{ACAD_REACTORS
330
23B
102
}
330
A
100
AcDbSymbolTableRecord
100
AcDbDimStyleTableRecord
  2
SLDDIMSTYLE2
 70
     0
 41
3.302
 44
0.0
 45
0.000000001
 73
     0
 74
     0
 77
     1
 78
     4
 79
     1
140
3.5
143
0.0393700787401575
147
0.875
148
0.000000001
170
     1
173
     1
178
     0
271
     2
272
     2
276
     2
284
    12
340
94
  0
ENDTAB
  0
TABLE
  2
BLOCK_RECORD
  5
1
330
0
100
AcDbSymbolTable
 70
    17
  0
BLOCK_RECORD
  5
1F
330
1
100
AcDbSymbolTableRecord
100
AcDbBlockTableRecord
  2
*Model_Space
340
22
  0
BLOCK_RECORD
  5
1B
330
1
100
AcDbSymbolTableRecord
100
AcDbBlockTableRecord
  2
*Paper_Space
340
1E
  0
BLOCK_RECORD
  5
23
330
1
100
AcDbSymbolTableRecord
100
AcDbBlockTableRecord
  2
*Paper_Space0
340
26
  0
BLOCK_RECORD
  5
7F
330
1
100
AcDbSymbolTableRecord
100
AcDbBlockTableRecord
  2
블럭10
340
0
102
{BLKREFS
331
F7
102
}
  0
BLOCK_RECORD
  5
100
330
1
100
AcDbSymbolTableRecord
100
AcDbBlockTableRecord
  2
_D
340
0
  0
BLOCK_RECORD
  5
114
330
1
100
AcDbSymbolTableRecord
100
AcDbBlockTableRecord
  2
_D_1
340
0
  0
BLOCK_RECORD
  5
129
330
1
100
AcDbSymbolTableRecord
100
AcDbBlockTableRecord
  2
_D_2
340
0
  0
BLOCK_RECORD
  5
13D
330
1
100
AcDbSymbolTableRecord
100
AcDbBlockTableRecord
  2
_D_3
340
0
  0
BLOCK_RECORD
  5
156
330
1
100
AcDbSymbolTableRecord
100
AcDbBlockTableRecord
  2
SW_DOWELSYMBOL_0
340
0
102
{BLKREFS
331
0
331
248
331
2E8
102
}
  0
BLOCK_RECORD
  5
253
330
1
100
AcDbSymbolTableRecord
100
AcDbBlockTableRecord
  2
*D8
340
0
  0
BLOCK_RECORD
  5
25F
330
1
100
AcDbSymbolTableRecord
100
AcDbBlockTableRecord
  2
*D9
340
0
  0
BLOCK_RECORD
  5
26B
330
1
100
AcDbSymbolTableRecord
100
AcDbBlockTableRecord
  2
*D10
340
0
  0
BLOCK_RECORD
  5
277
330
1
100
AcDbSymbolTableRecord
100
AcDbBlockTableRecord
  2
*D11
340
0
  0
BLOCK_RECORD
  5
2E9
330
1
100
AcDbSymbolTableRecord
100
AcDbBlockTableRecord
  2
*D12
340
0
  0
BLOCK_RECORD
  5
2F5
330
1
100
AcDbSymbolTableRecord
100
AcDbBlockTableRecord
  2
*D13
340
0
  0
BLOCK_RECORD
  5
301
330
1
100
AcDbSymbolTableRecord
100
AcDbBlockTableRecord
  2
*D14
340
0
  0
BLOCK_RECORD
  5
30D
330
1
100
AcDbSymbolTableRecord
100
AcDbBlockTableRecord
  2
*D15
340
0
  0
BLOCK_RECORD
  5
32A
330
1
100
AcDbSymbolTableRecord
100
AcDbBlockTableRecord
  2
*D16
340
0
  0
ENDTAB
  0
ENDSEC
  0
SECTION
  2
BLOCKS
  0
BLOCK
  5
20
330
1F
100
AcDbEntity
  8
0
100
AcDbBlockBegin
  2
*Model_Space
 70
     0
 10
0.0
 20
0.0
 30
0.0
  3
*Model_Space
  1
*Model_Space
  0
ENDBLK
  5
21
330
1F
100
AcDbEntity
  8
0
100
AcDbBlockEnd
  0
BLOCK
  5
1C
330
1B
100
AcDbEntity
 67
     1
  8
0
100
AcDbBlockBegin
  2
*Paper_Space
 70
     0
 10
0.0
 20
0.0
 30
0.0
  3
*Paper_Space
  1
*Paper_Space
  0
ENDBLK
  5
1D
330
1B
100
AcDbEntity
 67
     1
  8
0
100
AcDbBlockEnd
  0
BLOCK
  5
24
330
23
100
AcDbEntity
  8
0
100
AcDbBlockBegin
  2
*Paper_Space0
 70
     0
 10
0.0
 20
0.0
 30
0.0
  3
*Paper_Space0
  1
*Paper_Space0
  0
ENDBLK
  5
25
330
23
100
AcDbEntity
  8
0
100
AcDbBlockEnd
  0
BLOCK
  5
80
330
7F
100
AcDbEntity
  8
0
100
AcDbBlockBegin
  2
블럭10
 70
     2
 10
0.0
 20
0.0
 30
0.0
  3
블럭10
  1
블럭10
  0
ELLIPSE
  5
82
330
7F
100
AcDbEntity
  8
중심선
100
AcDbEllipse
 10
20.54032771741204
 20
12.0471743016438
 30
0.0
 11
6.600054785286829
 21
-1.261213355974178E-13
 31
0.0
210
0.0
220
0.0
230
1.0
 40
0.636358354079598
 41
0.9219305317359503
 42
6.513795318482858
  0
ELLIPSE
  5
83
330
7F
100
AcDbEntity
  8
중심선
100
AcDbEllipse
 10
20.54032771746488
 20
12.04717430159265
 30
0.0
 11
3.960054785062283
 21
1.540847449632565E-10
 31
0.0
210
0.0
220
0.0
230
1.0
 40
0.3939339440162632
 41
1.131841032648279
 42
5.62031148352944
  0
LINE
  5
84
330
7F
100
AcDbEntity
  8
중심선
100
AcDbLine
 10
2.268634060543552
 20
16.24717430164393
 30
0.0
 11
5.714909304380834
 21
16.24717430164393
 31
0.0
  0
LINE
  5
85
330
7F
100
AcDbEntity
  8
중심선
100
AcDbLine
 10
5.245725140726316
 20
7.84717430164391
 30
0.0
 11
8.692000384563599
 21
7.84717430164391
 31
0.0
  0
LINE
  5
86
330
7F
100
AcDbEntity
  8
중심선
100
AcDbLine
 10
15.74043728645272
 20
16.24717430164393
 30
0.0
 11
8.692000384563599
 21
7.84717430164391
 31
0.0
  0
LINE
  5
87
330
7F
100
AcDbEntity
  8
중심선
100
AcDbLine
 10
0.1404042013395286
 20
13.71084872107135
 30
0.0
 11
3.58671253028996
 21
13.71088815037384
 31
0.0
  0
LINE
  5
88
330
7F
100
AcDbEntity
  8
중심선
100
AcDbLine
 10
2.750260043222114
 20
10.84717430164391
 30
0.0
 11
6.196535287059397
 21
10.84717430164391
 31
0.0
  0
LINE
  5
89
330
7F
100
AcDbEntity
  8
중심선
100
AcDbLine
 10
12.29416204261559
 20
16.24717430164393
 30
0.0
 11
5.245725140726316
 21
7.84717430164391
 31
0.0
  0
LINE
  5
8A
330
7F
100
AcDbEntity
  8
중심선
100
AcDbLine
 10
10.72767329541681
 20
16.24717430164393
 30
0.0
 11
6.196535287059397
 21
10.84717430164391
 31
0.0
  0
LINE
  5
8B
330
7F
100
AcDbEntity
  8
중심선
100
AcDbLine
 10
7.28139805157953
 20
16.24717430164393
 30
0.0
 11
2.750260043222114
 21
10.84717430164391
 31
0.0
  0
LINE
  5
8C
330
7F
100
AcDbEntity
  8
중심선
100
AcDbLine
 10
5.714909304380834
 20
16.24717430164393
 30
0.0
 11
3.58671253028996
 21
13.71088815037384
 31
0.0
  0
LINE
  5
8D
330
7F
100
AcDbEntity
  8
중심선
100
AcDbLine
 10
2.268634060543552
 20
16.24717430164393
 30
0.0
 11
0.1404042013395286
 21
13.71084872107135
 31
0.0
  0
LINE
  5
8E
330
7F
100
AcDbEntity
  8
중심선
100
AcDbLine
 10
7.28139805157953
 20
16.24717430164393
 30
0.0
 11
10.72767329541681
 21
16.24717430164393
 31
0.0
  0
LINE
  5
8F
330
7F
100
AcDbEntity
  8
중심선
100
AcDbLine
 10
12.29416204261559
 20
16.24717430164393
 30
0.0
 11
15.74043728645272
 21
16.24717430164393
 31
0.0
  0
LINE
  5
90
330
7F
100
AcDbEntity
  8
중심선
100
AcDbLine
 10
19.22036997980202
 20
11.08717430171403
 30
0.0
 11
23.66174974927406
 21
11.08717430171406
 31
0.0
  0
LINE
  5
91
330
7F
100
AcDbEntity
  8
중심선
100
AcDbLine
 10
19.22039502424796
 20
13.00717430171391
 30
0.0
 11
19.22036997980202
 21
11.08717430171403
 31
0.0
  0
LINE
  5
92
330
7F
100
AcDbEntity
  8
중심선
100
AcDbLine
 10
19.22039502424796
 20
13.00717430171391
 30
0.0
 11
26.96566020931264
 21
13.00717430171391
 31
0.0
  0
LINE
  5
93
330
7F
100
AcDbEntity
  8
중심선
100
AcDbLine
 10
22.22332737316547
 20
13.45928029700563
 30
0.0
 11
24.52862924686651
 21
15.39360700705356
 31
0.0
  0
ATTDEF
  5
95
330
7F
100
AcDbEntity
  8
FORMAT
 62
     2
100
AcDbText
 10
2.883703680694412
 20
2.075366912832191
 30
0.0
 40
4.233333333333333
  1
G8C51908
 41
0.75
  7
SLDTEXTSTYLE0
 11
2.883703680694412
 21
-0.0412997538344756
 31
0.0
100
AcDbAttributeDefinition
  3

  2
AUTOATTR0
 70
     0
 74
     1
  0
ENDBLK
  5
81
330
7F
100
AcDbEntity
  8
0
100
AcDbBlockEnd
  0
BLOCK
  5
101
330
100
100
AcDbEntity
  8
0
100
AcDbBlockBegin
  2
_D
 70
     0
 10
0.0
 20
0.0
 30
0.0
  3
_D
  1
_D
  0
SOLID
  5
103
330
100
100
AcDbEntity
  8
치수문자_일반주서
100
AcDbTrace
 10
65.73930792634472
 20
12.70107492872389
 30
0.0
 11
66.24730792634472
 21
16.00307492872388
 31
0.0
 12
65.23130792634473
 22
16.00307492872388
 32
0.0
 13
65.23130792634473
 23
16.00307492872388
 33
0.0
  0
SOLID
  5
104
330
100
100
AcDbEntity
  8
치수문자_일반주서
100
AcDbTrace
 10
65.73930792634472
 20
-12.69892507127612
 30
0.0
 11
65.23130792634473
 21
-16.00092507127612
 31
0.0
 12
66.24730792634472
 22
-16.00092507127612
 32
0.0
 13
66.24730792634472
 23
-16.00092507127612
 33
0.0
  0
LINE
  5
105
330
100
100
AcDbEntity
  8
치수문자_일반주서
100
AcDbLine
 10
54.94642621030199
 20
-5.903572660992987
 30
0.0
 11
54.946426210302
 21
-6.614510146557487
 31
0.0
  0
LINE
  5
106
330
100
100
AcDbEntity
  8
치수문자_일반주서
100
AcDbLine
 10
54.946426210302
 20
-6.614510146557487
 30
0.0
 11
60.5026762013613
 21
-6.614510146557448
 31
0.0
  0
LINE
  5
107
330
100
100
AcDbEntity
  8
치수문자_일반주서
100
AcDbLine
 10
60.5026762013613
 20
-6.614510146557448
 30
0.0
 11
60.5026762013613
 21
-5.903572660992948
 31
0.0
  0
LINE
  5
108
330
100
100
AcDbEntity
  8
치수문자_일반주서
100
AcDbLine
 10
54.94642621030192
 20
4.925160201144271
 30
0.0
 11
54.94642621030192
 21
5.636097686708771
 31
0.0
  0
LINE
  5
109
330
100
100
AcDbEntity
  8
치수문자_일반주서
100
AcDbLine
 10
54.94642621030192
 20
5.636097686708771
 30
0.0
 11
60.50267620136122
 21
5.63609768670881
 31
0.0
  0
LINE
  5
10A
330
100
100
AcDbEntity
  8
치수문자_일반주서
100
AcDbLine
 10
60.50267620136122
 20
5.63609768670881
 30
0.0
 11
60.50267620136123
 21
4.92516020114431
 31
0.0
  0
LINE
  5
10B
330
100
100
AcDbEntity
  8
치수문자_일반주서
100
AcDbLine
 10
34.13316316584757
 20
12.70107492872389
 30
0.0
 11
66.73930792634472
 21
12.70107492872389
 31
0.0
  0
LINE
  5
10C
330
100
100
AcDbEntity
  8
치수문자_일반주서
100
AcDbLine
 10
34.13316316584757
 20
-12.69892507127612
 30
0.0
 11
66.73930792634472
 21
-12.69892507127612
 31
0.0
  0
LINE
  5
10D
330
100
100
AcDbEntity
  8
치수문자_일반주서
100
AcDbLine
 10
65.73930792634472
 20
12.70107492872389
 30
0.0
 11
65.73930792634472
 21
19.05107492872389
 31
0.0
  0
LINE
  5
10E
330
100
100
AcDbEntity
  8
치수문자_일반주서
100
AcDbLine
 10
65.73930792634472
 20
12.70107492872389
 30
0.0
 11
65.73930792634472
 21
-12.69892507127612
 31
0.0
  0
LINE
  5
10F
330
100
100
AcDbEntity
  8
치수문자_일반주서
100
AcDbLine
 10
65.73930792634472
 20
-12.69892507127612
 30
0.0
 11
65.73930792634472
 21
-19.04892507127613
 31
0.0
  0
MTEXT
  5
110
330
100
100
AcDbEntity
  8
치수문자_일반주서
100
AcDbMText
 10
55.9909392867824
 20
-5.014900760381609
 30
0.0
 40
3.5
 41
0.0
 71
     1
 72
     1
  1
1.00
  7
SLDTEXTSTYLE0
 11
-7.044195017643634E-15
 21
1.0
 31
0.0
 73
     1
 44
1.0
  0
MTEXT
  5
111
330
100
100
AcDbEntity
  8
치수문자_일반주서
100
AcDbMText
 10
61.2275708371429
 20
-8.947175172745341
 30
0.0
 40
3.5
 41
0.0
 71
     1
 72
     1
  1
%%c
  7
SLDTEXTSTYLE0
 11
-7.044195017643634E-15
 21
1.0
 31
0.0
 73
     1
 44
1.0
  0
MTEXT
  5
112
330
100
100
AcDbEntity
  8
치수문자_일반주서
100
AcDbMText
 10
61.22757083714286
 20
-3.66873777437126
 30
0.0
 40
3.5
 41
0.0
 71
     1
 72
     1
  1
25.40
  7
SLDTEXTSTYLE0
 11
-7.044195017643634E-15
 21
1.0
 31
0.0
 73
     1
 44
1.0
  0
ENDBLK
  5
102
330
100
100
AcDbEntity
  8
0
100
AcDbBlockEnd
  0
BLOCK
  5
115
330
114
100
AcDbEntity
  8
0
100
AcDbBlockBegin
  2
_D_1
 70
     0
 10
0.0
 20
0.0
 30
0.0
  3
_D_1
  1
_D_1
  0
SOLID
  5
117
330
114
100
AcDbEntity
  8
치수문자_일반주서
100
AcDbTrace
 10
-63.04000000000006
 20
12.70107492872387
 30
0.0
 11
-62.53200000000005
 21
16.00307492872387
 31
0.0
 12
-63.54800000000006
 22
16.00307492872387
 32
0.0
 13
-63.54800000000006
 23
16.00307492872387
 33
0.0
  0
SOLID
  5
118
330
114
100
AcDbEntity
  8
치수문자_일반주서
100
AcDbTrace
 10
-63.04000000000006
 20
-12.69892507127611
 30
0.0
 11
-63.54800000000006
 21
-16.00092507127611
 31
0.0
 12
-62.53200000000005
 22
-16.00092507127611
 32
0.0
 13
-62.53200000000005
 23
-16.00092507127611
 33
0.0
  0
LINE
  5
119
330
114
100
AcDbEntity
  8
치수문자_일반주서
100
AcDbLine
 10
-73.83288171604275
 20
-5.413291502344828
 30
0.0
 11
-73.83288171604275
 21
-6.124228987909328
 31
0.0
  0
LINE
  5
11A
330
114
100
AcDbEntity
  8
치수문자_일반주서
100
AcDbLine
 10
-73.83288171604275
 20
-6.124228987909328
 30
0.0
 11
-68.27663172498345
 21
-6.124228987909289
 31
0.0
  0
LINE
  5
11B
330
114
100
AcDbEntity
  8
치수문자_일반주서
100
AcDbLine
 10
-68.27663172498345
 20
-6.124228987909289
 30
0.0
 11
-68.27663172498345
 21
-5.413291502344789
 31
0.0
  0
LINE
  5
11C
330
114
100
AcDbEntity
  8
치수문자_일반주서
100
AcDbLine
 10
-73.83288171604283
 20
5.41544135979243
 30
0.0
 11
-73.83288171604283
 21
6.12637884535693
 31
0.0
  0
LINE
  5
11D
330
114
100
AcDbEntity
  8
치수문자_일반주서
100
AcDbLine
 10
-73.83288171604283
 20
6.12637884535693
 30
0.0
 11
-68.27663172498353
 21
6.126378845356969
 31
0.0
  0
LINE
  5
11E
330
114
100
AcDbEntity
  8
치수문자_일반주서
100
AcDbLine
 10
-68.27663172498353
 20
6.126378845356969
 30
0.0
 11
-68.27663172498353
 21
5.415441359792469
 31
0.0
  0
LINE
  5
11F
330
114
100
AcDbEntity
  8
치수문자_일반주서
100
AcDbLine
 10
-55.13500000000005
 20
12.70107492872387
 30
0.0
 11
-64.04000000000005
 21
12.70107492872387
 31
0.0
  0
LINE
  5
120
330
114
100
AcDbEntity
  8
치수문자_일반주서
100
AcDbLine
 10
-55.13500000000005
 20
-12.69892507127611
 30
0.0
 11
-64.04000000000005
 21
-12.69892507127611
 31
0.0
  0
LINE
  5
121
330
114
100
AcDbEntity
  8
치수문자_일반주서
100
AcDbLine
 10
-63.04000000000006
 20
12.70107492872387
 30
0.0
 11
-63.04000000000006
 21
19.05107492872387
 31
0.0
  0
LINE
  5
122
330
114
100
AcDbEntity
  8
치수문자_일반주서
100
AcDbLine
 10
-63.04000000000006
 20
12.70107492872387
 30
0.0
 11
-63.04000000000006
 21
-12.69892507127611
 31
0.0
  0
LINE
  5
123
330
114
100
AcDbEntity
  8
치수문자_일반주서
100
AcDbLine
 10
-63.04000000000006
 20
-12.69892507127611
 30
0.0
 11
-63.04000000000006
 21
-19.04892507127611
 31
0.0
  0
MTEXT
  5
124
330
114
100
AcDbEntity
  8
치수문자_일반주서
100
AcDbMText
 10
-72.78836863956236
 20
-4.52461960173345
 30
0.0
 40
3.5
 41
0.0
 71
     1
 72
     1
  1
1.00
  7
SLDTEXTSTYLE0
 11
-7.044195017643634E-15
 21
1.0
 31
0.0
 73
     1
 44
1.0
  0
MTEXT
  5
125
330
114
100
AcDbEntity
  8
치수문자_일반주서
100
AcDbMText
 10
-67.55173708920186
 20
-8.45689401409718
 30
0.0
 40
3.5
 41
0.0
 71
     1
 72
     1
  1
%%c
  7
SLDTEXTSTYLE0
 11
-7.044195017643634E-15
 21
1.0
 31
0.0
 73
     1
 44
1.0
  0
MTEXT
  5
126
330
114
100
AcDbEntity
  8
치수문자_일반주서
100
AcDbMText
 10
-67.55173708920191
 20
-3.178456615723101
 30
0.0
 40
3.5
 41
0.0
 71
     1
 72
     1
  1
25.40
  7
SLDTEXTSTYLE0
 11
-7.044195017643634E-15
 21
1.0
 31
0.0
 73
     1
 44
1.0
  0
ENDBLK
  5
116
330
114
100
AcDbEntity
  8
0
100
AcDbBlockEnd
  0
BLOCK
  5
12A
330
129
100
AcDbEntity
  8
0
100
AcDbBlockBegin
  2
_D_2
 70
     0
 10
0.0
 20
0.0
 30
0.0
  3
_D_2
  1
_D_2
  0
SOLID
  5
12C
330
129
100
AcDbEntity
  8
치수문자_일반주서
100
AcDbTrace
 10
121.125
 20
41.39903248383694
 30
0.0
 11
117.823
 21
41.90703248383694
 31
0.0
 12
117.823
 22
40.89103248383694
 32
0.0
 13
117.823
 23
40.89103248383694
 33
0.0
  0
SOLID
  5
12D
330
129
100
AcDbEntity
  8
치수문자_일반주서
100
AcDbTrace
 10
16.34999999999996
 20
41.39903248383699
 30
0.0
 11
19.65199999999995
 21
40.89103248383699
 31
0.0
 12
19.65199999999995
 22
41.90703248383699
 32
0.0
 13
19.65199999999995
 23
41.90703248383699
 33
0.0
  0
LINE
  5
12E
330
129
100
AcDbEntity
  8
치수문자_일반주서
100
AcDbLine
 10
69.83358737067728
 20
52.19191419987969
 30
0.0
 11
69.12264988511278
 21
52.1919141998797
 31
0.0
  0
LINE
  5
12F
330
129
100
AcDbEntity
  8
치수문자_일반주서
100
AcDbLine
 10
69.12264988511278
 20
52.1919141998797
 30
0.0
 11
69.12264988511274
 21
46.63566420882039
 31
0.0
  0
LINE
  5
130
330
129
100
AcDbEntity
  8
치수문자_일반주서
100
AcDbLine
 10
69.12264988511274
 20
46.63566420882039
 30
0.0
 11
69.83358737067724
 21
46.63566420882039
 31
0.0
  0
LINE
  5
131
330
129
100
AcDbEntity
  8
치수문자_일반주서
100
AcDbLine
 10
80.66232023281454
 20
52.19191419987961
 30
0.0
 11
81.37325771837904
 21
52.19191419987961
 31
0.0
  0
LINE
  5
132
330
129
100
AcDbEntity
  8
치수문자_일반주서
100
AcDbLine
 10
81.37325771837904
 20
52.19191419987961
 30
0.0
 11
81.373257718379
 21
46.6356642088203
 31
0.0
  0
LINE
  5
133
330
129
100
AcDbEntity
  8
치수문자_일반주서
100
AcDbLine
 10
81.373257718379
 20
46.6356642088203
 30
0.0
 11
80.6623202328145
 21
46.63566420882031
 31
0.0
  0
LINE
  5
134
330
129
100
AcDbEntity
  8
치수문자_일반주서
100
AcDbLine
 10
121.125
 20
12.92827039514236
 30
0.0
 11
121.125
 21
42.39903248383694
 31
0.0
  0
LINE
  5
135
330
129
100
AcDbEntity
  8
치수문자_일반주서
100
AcDbLine
 10
16.34999999999994
 20
13.70107492872388
 30
0.0
 11
16.34999999999996
 21
42.39903248383699
 31
0.0
  0
LINE
  5
136
330
129
100
AcDbEntity
  8
치수문자_일반주서
100
AcDbLine
 10
121.125
 20
41.39903248383694
 30
0.0
 11
16.34999999999996
 21
41.39903248383699
 31
0.0
  0
MTEXT
  5
137
330
129
100
AcDbEntity
  8
치수문자_일반주서
100
AcDbMText
 10
68.15559224817375
 20
45.96424174969868
 30
0.0
 40
3.5
 41
0.0
 71
     1
 72
     1
  1

  7
SLDTEXTSTYLE0
 73
     1
 44
1.0
  0
MTEXT
  5
138
330
129
100
AcDbEntity
  8
치수문자_일반주서
100
AcDbMText
 10
70.72225927128864
 20
51.14740112339928
 30
0.0
 40
3.5
 41
0.0
 71
     1
 72
     1
  1
4.13
  7
SLDTEXTSTYLE0
 73
     1
 44
1.0
  0
MTEXT
  5
139
330
129
100
AcDbEntity
  8
치수문자_일반주서
100
AcDbMText
 10
68.13614784493514
 20
45.91076957303883
 30
0.0
 40
3.5
 41
0.0
 71
     1
 72
     1
  1
104.78
  7
SLDTEXTSTYLE0
 73
     1
 44
1.0
  0
MTEXT
  5
13A
330
129
100
AcDbEntity
  8
치수문자_일반주서
100
AcDbMText
 10
83.6722598749719
 20
45.96424174969857
 30
0.0
 40
3.5
 41
0.0
 71
     1
 72
     1
  1

  7
SLDTEXTSTYLE0
 73
     1
 44
1.0
  0
ENDBLK
  5
12B
330
129
100
AcDbEntity
  8
0
100
AcDbBlockEnd
  0
BLOCK
  5
13E
330
13D
100
AcDbEntity
  8
0
100
AcDbBlockBegin
  2
_D_3
 70
     0
 10
0.0
 20
0.0
 30
0.0
  3
_D_3
  1
_D_3
  0
SOLID
  5
140
330
13D
100
AcDbEntity
  8
치수문자_일반주서
100
AcDbTrace
 10
-56.67500000000007
 20
55.87576202930141
 30
0.0
 11
-53.37300000000007
 21
55.3677620293014
 31
0.0
 12
-53.37300000000007
 22
56.38376202930141
 32
0.0
 13
-53.37300000000007
 23
56.38376202930141
 33
0.0
  0
SOLID
  5
141
330
13D
100
AcDbEntity
  8
치수문자_일반주서
100
AcDbTrace
 10
121.125
 20
55.87576202930139
 30
0.0
 11
117.823
 21
56.38376202930139
 31
0.0
 12
117.823
 22
55.36776202930139
 32
0.0
 13
117.823
 23
55.36776202930139
 33
0.0
  0
LINE
  5
142
330
13D
100
AcDbEntity
  8
치수문자_일반주서
100
AcDbLine
 10
28.7257659186787
 20
66.66864374534414
 30
0.0
 11
28.0148284331142
 21
66.66864374534414
 31
0.0
  0
LINE
  5
143
330
13D
100
AcDbEntity
  8
치수문자_일반주서
100
AcDbLine
 10
28.0148284331142
 20
66.66864374534414
 30
0.0
 11
28.0148284331142
 21
61.11239375428485
 31
0.0
  0
LINE
  5
144
330
13D
100
AcDbEntity
  8
치수문자_일반주서
100
AcDbLine
 10
28.0148284331142
 20
61.11239375428485
 30
0.0
 11
28.7257659186787
 21
61.11239375428485
 31
0.0
  0
LINE
  5
145
330
13D
100
AcDbEntity
  8
치수문자_일반주서
100
AcDbLine
 10
39.55449878081596
 20
66.66864374534414
 30
0.0
 11
40.26543626638046
 21
66.66864374534414
 31
0.0
  0
LINE
  5
146
330
13D
100
AcDbEntity
  8
치수문자_일반주서
100
AcDbLine
 10
40.26543626638046
 20
66.66864374534414
 30
0.0
 11
40.26543626638046
 21
61.11239375428485
 31
0.0
  0
LINE
  5
147
330
13D
100
AcDbEntity
  8
치수문자_일반주서
100
AcDbLine
 10
40.26543626638046
 20
61.11239375428485
 30
0.0
 11
39.55449878081596
 21
61.11239375428485
 31
0.0
  0
LINE
  5
148
330
13D
100
AcDbEntity
  8
치수문자_일반주서
100
AcDbLine
 10
-56.67500000000007
 20
11.16107492872389
 30
0.0
 11
-56.67500000000007
 21
56.87576202930141
 31
0.0
  0
LINE
  5
149
330
13D
100
AcDbEntity
  8
치수문자_일반주서
100
AcDbLine
 10
121.125
 20
12.92827039514236
 30
0.0
 11
121.125
 21
56.87576202930139
 31
0.0
  0
LINE
  5
14A
330
13D
100
AcDbEntity
  8
치수문자_일반주서
100
AcDbLine
 10
-56.67500000000007
 20
55.87576202930141
 30
0.0
 11
121.125
 21
55.87576202930139
 31
0.0
  0
MTEXT
  5
14B
330
13D
100
AcDbEntity
  8
치수문자_일반주서
100
AcDbMText
 10
27.04777079617521
 20
60.44097129516312
 30
0.0
 40
3.5
 41
0.0
 71
     1
 72
     1
  1

  7
SLDTEXTSTYLE0
 73
     1
 44
1.0
  0
MTEXT
  5
14C
330
13D
100
AcDbEntity
  8
치수문자_일반주서
100
AcDbMText
 10
29.61443781929007
 20
65.62413066886374
 30
0.0
 40
3.5
 41
0.0
 71
     1
 72
     1
  1
7.00
  7
SLDTEXTSTYLE0
 73
     1
 44
1.0
  0
MTEXT
  5
14D
330
13D
100
AcDbEntity
  8
치수문자_일반주서
100
AcDbMText
 10
27.02832639293662
 20
60.38749911850326
 30
0.0
 40
3.5
 41
0.0
 71
     1
 72
     1
  1
177.80
  7
SLDTEXTSTYLE0
 73
     1
 44
1.0
  0
MTEXT
  5
14E
330
13D
100
AcDbEntity
  8
치수문자_일반주서
100
AcDbMText
 10
42.56443842297337
 20
60.44097129516312
 30
0.0
 40
3.5
 41
0.0
 71
     1
 72
     1
  1

  7
SLDTEXTSTYLE0
 73
     1
 44
1.0
  0
ENDBLK
  5
13F
330
13D
100
AcDbEntity
  8
0
100
AcDbBlockEnd
  0
BLOCK
  5
157
330
156
100
AcDbEntity
  8
0
100
AcDbBlockBegin
  2
SW_DOWELSYMBOL_0
 70
     0
 10
0.0
 20
0.0
 30
0.0
  3
SW_DOWELSYMBOL_0
  1
SW_DOWELSYMBOL_0
  0
CIRCLE
  5
159
330
156
100
AcDbEntity
  8
해칭선
 62
     0
100
AcDbCircle
 10
0.0
 20
0.0
 30
0.0
 40
3.000000000000001
  0
HATCH
  5
15A
330
156
100
AcDbEntity
  8
0
  6
Continuous
 62
     0
370
     0
100
AcDbHatch
 10
0.0
 20
0.0
 30
0.0
210
0.0
220
0.0
230
1.0
  2
SOLID
 70
     1
 71
     0
 91
        1
 92
        0
 93
        3
 72
     2
 10
0.0
 20
0.0
 40
3.000000000000001
 50
0.0
 51
90.0
 73
     1
 72
     1
 10
0.0
 20
3.000000000000001
 11
0.0
 21
0.0
 72
     1
 10
0.0
 20
0.0
 11
3.000000000000001
 21
0.0
 97
        0
 75
     0
 76
     1
 98
        1
 10
0.0
 20
0.0
  0
HATCH
  5
15B
330
156
100
AcDbEntity
  8
0
  6
Continuous
 62
     0
370
     0
100
AcDbHatch
 10
0.0
 20
0.0
 30
0.0
210
0.0
220
0.0
230
1.0
  2
SOLID
 70
     1
 71
     0
 91
        1
 92
        0
 93
        3
 72
     2
 10
0.0
 20
0.0
 40
3.000000000000001
 50
180.0
 51
270.0000000000008
 73
     1
 72
     1
 10
0.0
 20
-3.000000000000001
 11
0.0
 21
0.0
 72
     1
 10
0.0
 20
0.0
 11
-3.000000000000001
 21
0.0
 97
        0
 75
     0
 76
     1
 98
        1
 10
0.0
 20
0.0
  0
ENDBLK
  5
158
330
156
100
AcDbEntity
  8
0
100
AcDbBlockEnd
  0
BLOCK
  5
254
330
253
100
AcDbEntity
  8
0
100
AcDbBlockBegin
  2
*D8
 70
     1
 10
0.0
 20
0.0
 30
0.0
  3
*D8
  1
*D8
  0
LINE
  5
256
330
253
100
AcDbEntity
  8
0
  6
Continuous
 62
     0
370
    -2
100
AcDbLine
 10
100.6106631658477
 20
26.09653115864815
 30
0.0
 11
133.1543079263448
 21
26.09653115864827
 31
0.0
  0
LINE
  5
257
330
253
100
AcDbEntity
  8
0
  6
Continuous
 62
     0
370
    -2
100
AcDbLine
 10
100.6106631658477
 20
0.6965311586481404
 30
0.0
 11
133.1543079263448
 21
0.696531158648261
 31
0.0
  0
LINE
  5
258
330
253
100
AcDbEntity
  8
0
  6
Continuous
 62
     0
370
    -2
100
AcDbLine
 10
133.1543079263448
 20
22.79453115864827
 30
0.0
 11
133.1543079263448
 21
3.998531158648261
 31
0.0
  0
SOLID
  5
259
330
253
100
AcDbEntity
  8
0
 62
     0
100
AcDbTrace
 10
133.7046412596781
 20
22.79453115864827
 30
0.0
 11
132.6039745930114
 21
22.79453115864827
 31
0.0
 12
133.1543079263448
 22
26.09653115864827
 32
0.0
 13
133.1543079263448
 23
26.09653115864827
 33
0.0
  0
SOLID
  5
25A
330
253
100
AcDbEntity
  8
0
 62
     0
100
AcDbTrace
 10
132.6039745930115
 20
3.998531158648259
 30
0.0
 11
133.7046412596782
 21
3.998531158648262
 31
0.0
 12
133.1543079263448
 22
0.696531158648261
 32
0.0
 13
133.1543079263448
 23
0.696531158648261
 33
0.0
  0
MTEXT
  5
25B
330
253
100
AcDbEntity
  8
0
 62
     0
370
    15
100
AcDbMText
 10
128.7793079263448
 20
12.90624999999999
 30
0.0
 40
3.5
 41
0.0
 71
     2
 72
     1
  1
\A1;%%c25.40 [1.00]
  7
SLDTEXTSTYLE0
 11
-3.356894814614646E-15
 21
1.0
 31
0.0
 73
     1
 44
1.0
  0
POINT
  5
25C
330
253
100
AcDbEntity
  8
Defpoints
 62
     0
100
AcDbPoint
 10
100.5481631658477
 20
26.09653115864815
 30
0.0
  0
POINT
  5
25D
330
253
100
AcDbEntity
  8
Defpoints
 62
     0
100
AcDbPoint
 10
100.5481631658477
 20
0.6965311586481402
 30
0.0
  0
POINT
  5
25E
330
253
100
AcDbEntity
  8
Defpoints
 62
     0
100
AcDbPoint
 10
133.1543079263449
 20
0.696531158648262
 30
0.0
  0
ENDBLK
  5
255
330
253
100
AcDbEntity
  8
0
100
AcDbBlockEnd
  0
BLOCK
  5
260
330
25F
100
AcDbEntity
  8
0
100
AcDbBlockBegin
  2
*D9
 70
     1
 10
0.0
 20
0.0
 30
0.0
  3
*D9
  1
*D9
  0
LINE
  5
262
330
25F
100
AcDbEntity
  8
치수문자_일반주서
 62
     0
370
    -2
100
AcDbLine
 10
13.21750000000004
 20
26.09653115864813
 30
0.0
 11
4.374999999999991
 21
26.0965311586481
 31
0.0
  0
LINE
  5
263
330
25F
100
AcDbEntity
  8
치수문자_일반주서
 62
     0
370
    -2
100
AcDbLine
 10
13.21750000000004
 20
0.696531158648156
 30
0.0
 11
4.37500000000008
 21
0.6965311586481242
 31
0.0
  0
LINE
  5
264
330
25F
100
AcDbEntity
  8
치수문자_일반주서
 62
     0
370
    -2
100
AcDbLine
 10
4.375000000000003
 20
22.7945311586481
 30
0.0
 11
4.375000000000068
 21
3.998531158648124
 31
0.0
  0
SOLID
  5
265
330
25F
100
AcDbEntity
  8
치수문자_일반주서
 62
     0
100
AcDbTrace
 10
4.925333333333336
 20
22.79453115864811
 30
0.0
 11
3.82466666666667
 21
22.7945311586481
 31
0.0
 12
4.374999999999991
 22
26.0965311586481
 32
0.0
 13
4.374999999999991
 23
26.0965311586481
 33
0.0
  0
SOLID
  5
266
330
25F
100
AcDbEntity
  8
치수문자_일반주서
 62
     0
100
AcDbTrace
 10
3.824666666666735
 20
3.998531158648122
 30
0.0
 11
4.925333333333402
 21
3.998531158648126
 31
0.0
 12
4.37500000000008
 22
0.6965311586481242
 32
0.0
 13
4.37500000000008
 23
0.6965311586481242
 33
0.0
  0
MTEXT
  5
267
330
25F
100
AcDbEntity
  8
치수문자_일반주서
 62
     0
100
AcDbMText
 10
0.0000000000000355
 20
13.39653115864812
 30
0.0
 40
3.5
 41
0.0
 71
     2
 72
     1
  1
\A1;%%c25.40 [1.00]
  7
SLDTEXTSTYLE0
 11
-3.496765431890260E-15
 21
1.0
 31
0.0
 73
     1
 44
1.0
  0
POINT
  5
268
330
25F
100
AcDbEntity
  8
Defpoints
 62
     0
100
AcDbPoint
 10
13.28000000000004
 20
26.09653115864813
 30
0.0
  0
POINT
  5
269
330
25F
100
AcDbEntity
  8
Defpoints
 62
     0
100
AcDbPoint
 10
13.28000000000004
 20
0.6965311586481562
 30
0.0
  0
POINT
  5
26A
330
25F
100
AcDbEntity
  8
Defpoints
 62
     0
100
AcDbPoint
 10
4.375000000000036
 20
0.6965311586481229
 30
0.0
  0
ENDBLK
  5
261
330
25F
100
AcDbEntity
  8
0
100
AcDbBlockEnd
  0
BLOCK
  5
26C
330
26B
100
AcDbEntity
  8
0
100
AcDbBlockBegin
  2
*D10
 70
     1
 10
0.0
 20
0.0
 30
0.0
  3
*D10
  1
*D10
  0
LINE
  5
26E
330
26B
100
AcDbEntity
  8
0
  6
Continuous
 62
     0
370
    -2
100
AcDbLine
 10
188.54
 20
24.62917915119257
 30
0.0
 11
188.54
 21
54.03744123988714
 31
0.0
  0
LINE
  5
26F
330
26B
100
AcDbEntity
  8
0
  6
Continuous
 62
     0
370
    -2
100
AcDbLine
 10
83.76500000000003
 20
26.15903115864814
 30
0.0
 11
83.76500000000003
 21
54.03744123988714
 31
0.0
  0
LINE
  5
270
330
26B
100
AcDbEntity
  8
0
  6
Continuous
 62
     0
370
    -2
100
AcDbLine
 10
185.2380000000001
 20
54.03744123988714
 30
0.0
 11
87.06700000000004
 21
54.03744123988714
 31
0.0
  0
SOLID
  5
271
330
26B
100
AcDbEntity
  8
0
 62
     0
100
AcDbTrace
 10
185.2380000000001
 20
53.48710790655381
 30
0.0
 11
185.2380000000001
 21
54.58777457322048
 31
0.0
 12
188.54
 22
54.03744123988714
 32
0.0
 13
188.54
 23
54.03744123988714
 33
0.0
  0
SOLID
  5
272
330
26B
100
AcDbEntity
  8
0
 62
     0
100
AcDbTrace
 10
87.06700000000004
 20
54.58777457322048
 30
0.0
 11
87.06700000000004
 21
53.48710790655381
 31
0.0
 12
83.76500000000003
 22
54.03744123988714
 32
0.0
 13
83.76500000000003
 23
54.03744123988714
 33
0.0
  0
MTEXT
  5
273
330
26B
100
AcDbEntity
  8
0
 62
     0
370
    15
100
AcDbMText
 10
142.6629534525001
 20
58.41244123988714
 30
0.0
 40
3.5
 41
0.0
 71
     2
 72
     1
  1
\A1;104.78 [4.13]
  7
SLDTEXTSTYLE0
 73
     1
 44
1.0
  0
POINT
  5
274
330
26B
100
AcDbEntity
  8
Defpoints
 62
     0
100
AcDbPoint
 10
188.54
 20
24.56667915119257
 30
0.0
  0
POINT
  5
275
330
26B
100
AcDbEntity
  8
Defpoints
 62
     0
100
AcDbPoint
 10
83.76500000000003
 20
26.09653115864814
 30
0.0
  0
POINT
  5
276
330
26B
100
AcDbEntity
  8
Defpoints
 62
     0
100
AcDbPoint
 10
83.76500000000003
 20
54.03744123988714
 30
0.0
  0
ENDBLK
  5
26D
330
26B
100
AcDbEntity
  8
0
100
AcDbBlockEnd
  0
BLOCK
  5
278
330
277
100
AcDbEntity
  8
0
100
AcDbBlockBegin
  2
*D11
 70
     1
 10
0.0
 20
0.0
 30
0.0
  3
*D11
  1
*D11
  0
LINE
  5
27A
330
277
100
AcDbEntity
  8
0
  6
Continuous
 62
     0
370
    -2
100
AcDbLine
 10
10.74000000000002
 20
23.61903115864815
 30
0.0
 11
10.74000000000004
 21
69.27121825922565
 31
0.0
  0
LINE
  5
27B
330
277
100
AcDbEntity
  8
0
  6
Continuous
 62
     0
370
    -2
100
AcDbLine
 10
188.54
 20
24.62917915119257
 30
0.0
 11
188.5400000000001
 21
69.27121825922565
 31
0.0
  0
LINE
  5
27C
330
277
100
AcDbEntity
  8
0
  6
Continuous
 62
     0
370
    -2
100
AcDbLine
 10
14.04200000000004
 20
69.27121825922565
 30
0.0
 11
185.2380000000001
 21
69.27121825922565
 31
0.0
  0
SOLID
  5
27D
330
277
100
AcDbEntity
  8
0
 62
     0
100
AcDbTrace
 10
14.04200000000004
 20
69.82155159255898
 30
0.0
 11
14.04200000000004
 21
68.72088492589232
 31
0.0
 12
10.74000000000004
 22
69.27121825922565
 32
0.0
 13
10.74000000000004
 23
69.27121825922565
 33
0.0
  0
SOLID
  5
27E
330
277
100
AcDbEntity
  8
0
 62
     0
100
AcDbTrace
 10
185.2380000000001
 20
68.72088492589232
 30
0.0
 11
185.2380000000001
 21
69.82155159255898
 31
0.0
 12
188.5400000000001
 22
69.27121825922565
 32
0.0
 13
188.5400000000001
 23
69.27121825922565
 33
0.0
  0
MTEXT
  5
27F
330
277
100
AcDbEntity
  8
0
 62
     0
370
    15
100
AcDbMText
 10
101.5551320005015
 20
73.64621825922565
 30
0.0
 40
3.5
 41
0.0
 71
     2
 72
     1
  1
\A1;177.80 [7.00]
  7
SLDTEXTSTYLE0
 73
     1
 44
1.0
  0
POINT
  5
280
330
277
100
AcDbEntity
  8
Defpoints
 62
     0
100
AcDbPoint
 10
10.74000000000002
 20
23.55653115864815
 30
0.0
  0
POINT
  5
281
330
277
100
AcDbEntity
  8
Defpoints
 62
     0
100
AcDbPoint
 10
188.54
 20
24.56667915119257
 30
0.0
  0
POINT
  5
282
330
277
100
AcDbEntity
  8
Defpoints
 62
     0
100
AcDbPoint
 10
188.54
 20
69.27121825922565
 30
0.0
  0
ENDBLK
  5
279
330
277
100
AcDbEntity
  8
0
100
AcDbBlockEnd
  0
BLOCK
  5
2EA
330
2E9
100
AcDbEntity
  8
0
100
AcDbBlockBegin
  2
*D12
 70
     1
 10
0.0
 20
0.0
 30
0.0
  3
*D12
  1
*D12
  0
LINE
  5
2EC
330
2E9
100
AcDbEntity
  8
치수문자_일반주서
 62
     0
370
    -2
100
AcDbLine
 10
116.8374999999999
 20
12.70107492872391
 30
0.0
 11
131.4456355631022
 21
12.70107492872396
 31
0.0
  0
LINE
  5
2ED
330
2E9
100
AcDbEntity
  8
치수문자_일반주서
 62
     0
370
    -2
100
AcDbLine
 10
116.8374999999999
 20
-12.69892507127609
 30
0.0
 11
131.4456355631023
 21
-12.69892507127604
 31
0.0
  0
LINE
  5
2EE
330
2E9
100
AcDbEntity
  8
치수문자_일반주서
 62
     0
370
    -2
100
AcDbLine
 10
131.4456355631022
 20
12.70107492872396
 30
0.0
 11
131.4456355631021
 21
45.34421562434829
 31
0.0
  0
LINE
  5
2EF
330
2E9
100
AcDbEntity
  8
치수문자_일반주서
 62
     0
370
    -2
100
AcDbLine
 10
131.4456355631022
 20
12.70107492872396
 30
0.0
 11
131.4456355631023
 21
-12.69892507127604
 31
0.0
  0
LINE
  5
2F0
330
2E9
100
AcDbEntity
  8
치수문자_일반주서
 62
     0
370
    -2
100
AcDbLine
 10
131.4456355631022
 20
16.00307492872396
 30
0.0
 11
131.4456355631022
 21
19.30507492872396
 31
0.0
  0
LINE
  5
2F1
330
2E9
100
AcDbEntity
  8
치수문자_일반주서
 62
     0
370
    -2
100
AcDbLine
 10
131.4456355631023
 20
-16.00092507127604
 30
0.0
 11
131.4456355631023
 21
-19.30292507127604
 31
0.0
  0
SOLID
  5
2F2
330
2E9
100
AcDbEntity
  8
치수문자_일반주서
 62
     0
100
AcDbTrace
 10
130.8953022297689
 20
16.00307492872396
 30
0.0
 11
131.9959688964355
 21
16.00307492872397
 31
0.0
 12
131.4456355631022
 22
12.70107492872396
 32
0.0
 13
131.4456355631022
 23
12.70107492872396
 33
0.0
  0
SOLID
  5
2F3
330
2E9
100
AcDbEntity
  8
치수문자_일반주서
 62
     0
100
AcDbTrace
 10
131.9959688964356
 20
-16.00092507127603
 30
0.0
 11
130.895302229769
 21
-16.00092507127604
 31
0.0
 12
131.4456355631023
 22
-12.69892507127604
 32
0.0
 13
131.4456355631023
 23
-12.69892507127604
 33
0.0
  0
MTEXT
  5
2F4
330
2E9
100
AcDbEntity
  8
치수문자_일반주서
 62
     0
100
AcDbMText
 10
127.0706355631021
 20
34.18796562434828
 30
0.0
 40
3.5
 41
0.0
 71
     2
 72
     1
  1
\A1;%%c25.40 [1]
  7
SLDTEXTSTYLE0
 11
-3.356894814614646E-15
 21
1.0
 31
0.0
 73
     1
 44
1.0
  0
POINT
  5
323
330
2E9
100
AcDbEntity
  8
Defpoints
 62
     0
100
AcDbPoint
 10
116.7749999999999
 20
12.70107492872391
 30
0.0
  0
POINT
  5
324
330
2E9
100
AcDbEntity
  8
Defpoints
 62
     0
100
AcDbPoint
 10
116.7749999999999
 20
-12.69892507127609
 30
0.0
  0
POINT
  5
325
330
2E9
100
AcDbEntity
  8
Defpoints
 62
     0
100
AcDbPoint
 10
131.4456355631023
 20
-12.69892507127604
 30
0.0
  0
ENDBLK
  5
2EB
330
2E9
100
AcDbEntity
  8
0
100
AcDbBlockEnd
  0
BLOCK
  5
2F6
330
2F5
100
AcDbEntity
  8
0
100
AcDbBlockBegin
  2
*D13
 70
     1
 10
0.0
 20
0.0
 30
0.0
  3
*D13
  1
*D13
  0
LINE
  5
2F8
330
2F5
100
AcDbEntity
  8
치수문자_일반주서
 62
     0
370
    -2
100
AcDbLine
 10
-58.54750000000004
 20
12.70107492872387
 30
0.0
 11
-67.39000000000009
 21
12.70107492872384
 31
0.0
  0
LINE
  5
2F9
330
2F5
100
AcDbEntity
  8
치수문자_일반주서
 62
     0
370
    -2
100
AcDbLine
 10
-58.54750000000004
 20
-12.69892507127611
 30
0.0
 11
-67.39
 21
-12.69892507127614
 31
0.0
  0
LINE
  5
2FA
330
2F5
100
AcDbEntity
  8
치수문자_일반주서
 62
     0
370
    -2
100
AcDbLine
 10
-67.39000000000007
 20
9.39907492872384
 30
0.0
 11
-67.39000000000001
 21
-9.396925071276138
 31
0.0
  0
SOLID
  5
2FB
330
2F5
100
AcDbEntity
  8
치수문자_일반주서
 62
     0
100
AcDbTrace
 10
-66.83966666666674
 20
9.399074928723842
 30
0.0
 11
-67.9403333333334
 21
9.399074928723838
 31
0.0
 12
-67.39000000000009
 22
12.70107492872384
 32
0.0
 13
-67.39000000000009
 23
12.70107492872384
 33
0.0
  0
SOLID
  5
2FC
330
2F5
100
AcDbEntity
  8
치수문자_일반주서
 62
     0
100
AcDbTrace
 10
-67.94033333333334
 20
-9.39692507127614
 30
0.0
 11
-66.83966666666669
 21
-9.396925071276137
 31
0.0
 12
-67.39
 22
-12.69892507127614
 32
0.0
 13
-67.39
 23
-12.69892507127614
 33
0.0
  0
MTEXT
  5
2FD
330
2F5
100
AcDbEntity
  8
치수문자_일반주서
 62
     0
100
AcDbMText
 10
-71.76500000000004
 20
0.0010749287238522
 30
0.0
 40
3.5
 41
0.0
 71
     2
 72
     1
  1
\A1;%%c25.40 [1]
  7
SLDTEXTSTYLE0
 11
-3.356894814614649E-15
 21
1.0
 31
0.0
 73
     1
 44
1.0
  0
POINT
  5
2FE
330
2F5
100
AcDbEntity
  8
Defpoints
 62
     0
100
AcDbPoint
 10
-58.48500000000004
 20
12.70107492872387
 30
0.0
  0
POINT
  5
2FF
330
2F5
100
AcDbEntity
  8
Defpoints
 62
     0
100
AcDbPoint
 10
-58.48500000000004
 20
-12.69892507127611
 30
0.0
  0
POINT
  5
300
330
2F5
100
AcDbEntity
  8
Defpoints
 62
     0
100
AcDbPoint
 10
-67.38999999999999
 20
-12.69892507127614
 30
0.0
  0
ENDBLK
  5
2F7
330
2F5
100
AcDbEntity
  8
0
100
AcDbBlockEnd
  0
BLOCK
  5
302
330
301
100
AcDbEntity
  8
0
100
AcDbBlockBegin
  2
*D14
 70
     1
 10
0.0
 20
0.0
 30
0.0
  3
*D14
  1
*D14
  0
LINE
  5
304
330
301
100
AcDbEntity
  8
치수문자_일반주서
 62
     0
370
    -2
100
AcDbLine
 10
116.7749999999999
 20
12.76357492872391
 30
0.0
 11
116.7749999999999
 21
40.64198500996288
 31
0.0
  0
LINE
  5
305
330
301
100
AcDbEntity
  8
치수문자_일반주서
 62
     0
370
    -2
100
AcDbLine
 10
11.99999999999997
 20
12.76357492872388
 30
0.0
 11
11.99999999999997
 21
40.64198500996288
 31
0.0
  0
LINE
  5
306
330
301
100
AcDbEntity
  8
치수문자_일반주서
 62
     0
370
    -2
100
AcDbLine
 10
113.4729999999999
 20
40.64198500996288
 30
0.0
 11
15.30199999999997
 21
40.64198500996288
 31
0.0
  0
SOLID
  5
307
330
301
100
AcDbEntity
  8
치수문자_일반주서
 62
     0
100
AcDbTrace
 10
113.4729999999999
 20
40.09165167662955
 30
0.0
 11
113.4729999999999
 21
41.19231834329621
 31
0.0
 12
116.7749999999999
 22
40.64198500996288
 32
0.0
 13
116.7749999999999
 23
40.64198500996288
 33
0.0
  0
SOLID
  5
308
330
301
100
AcDbEntity
  8
치수문자_일반주서
 62
     0
100
AcDbTrace
 10
15.30199999999997
 20
41.19231834329621
 30
0.0
 11
15.30199999999997
 21
40.09165167662955
 31
0.0
 12
11.99999999999997
 22
40.64198500996288
 32
0.0
 13
11.99999999999997
 23
40.64198500996288
 33
0.0
  0
MTEXT
  5
309
330
301
100
AcDbEntity
  8
치수문자_일반주서
 62
     0
100
AcDbMText
 10
70.89795345249999
 20
45.01698500996288
 30
0.0
 40
3.5
 41
0.0
 71
     2
 72
     1
  1
\A1;104.78 [4 1/8]
  7
SLDTEXTSTYLE0
 73
     1
 44
1.0
  0
POINT
  5
30A
330
301
100
AcDbEntity
  8
Defpoints
 62
     0
100
AcDbPoint
 10
116.7749999999999
 20
12.70107492872391
 30
0.0
  0
POINT
  5
30B
330
301
100
AcDbEntity
  8
Defpoints
 62
     0
100
AcDbPoint
 10
11.99999999999997
 20
12.70107492872388
 30
0.0
  0
POINT
  5
30C
330
301
100
AcDbEntity
  8
Defpoints
 62
     0
100
AcDbPoint
 10
11.99999999999997
 20
40.64198500996288
 30
0.0
  0
ENDBLK
  5
303
330
301
100
AcDbEntity
  8
0
100
AcDbBlockEnd
  0
BLOCK
  5
30E
330
30D
100
AcDbEntity
  8
0
100
AcDbBlockBegin
  2
*D15
 70
     1
 10
0.0
 20
0.0
 30
0.0
  3
*D15
  1
*D15
  0
LINE
  5
310
330
30D
100
AcDbEntity
  8
치수문자_일반주서
 62
     0
370
    -2
100
AcDbLine
 10
-61.02500000000006
 20
10.22357492872388
 30
0.0
 11
-61.02500000000006
 21
55.87576202930138
 31
0.0
  0
LINE
  5
311
330
30D
100
AcDbEntity
  8
치수문자_일반주서
 62
     0
370
    -2
100
AcDbLine
 10
116.7749999999999
 20
12.76357492872391
 30
0.0
 11
116.7749999999999
 21
55.87576202930138
 31
0.0
  0
LINE
  5
312
330
30D
100
AcDbEntity
  8
치수문자_일반주서
 62
     0
370
    -2
100
AcDbLine
 10
-57.72300000000006
 20
55.87576202930138
 30
0.0
 11
113.4729999999999
 21
55.87576202930138
 31
0.0
  0
SOLID
  5
313
330
30D
100
AcDbEntity
  8
치수문자_일반주서
 62
     0
100
AcDbTrace
 10
-57.72300000000006
 20
56.42609536263472
 30
0.0
 11
-57.72300000000006
 21
55.32542869596805
 31
0.0
 12
-61.02500000000006
 22
55.87576202930138
 32
0.0
 13
-61.02500000000006
 23
55.87576202930138
 33
0.0
  0
SOLID
  5
314
330
30D
100
AcDbEntity
  8
치수문자_일반주서
 62
     0
100
AcDbTrace
 10
113.4729999999999
 20
55.32542869596805
 30
0.0
 11
113.4729999999999
 21
56.42609536263472
 31
0.0
 12
116.7749999999999
 22
55.87576202930138
 32
0.0
 13
116.7749999999999
 23
55.87576202930138
 33
0.0
  0
MTEXT
  5
315
330
30D
100
AcDbEntity
  8
치수문자_일반주서
 62
     0
100
AcDbMText
 10
29.79013200050136
 20
60.25076202930138
 30
0.0
 40
3.5
 41
0.0
 71
     2
 72
     1
  1
\A1;177.80 [7]
  7
SLDTEXTSTYLE0
 73
     1
 44
1.0
  0
POINT
  5
316
330
30D
100
AcDbEntity
  8
Defpoints
 62
     0
100
AcDbPoint
 10
-61.02500000000006
 20
10.16107492872388
 30
0.0
  0
POINT
  5
317
330
30D
100
AcDbEntity
  8
Defpoints
 62
     0
100
AcDbPoint
 10
116.7749999999999
 20
12.70107492872391
 30
0.0
  0
POINT
  5
318
330
30D
100
AcDbEntity
  8
Defpoints
 62
     0
100
AcDbPoint
 10
116.7749999999999
 20
55.87576202930138
 30
0.0
  0
ENDBLK
  5
30F
330
30D
100
AcDbEntity
  8
0
100
AcDbBlockEnd
  0
BLOCK
  5
32B
330
32A
100
AcDbEntity
  8
0
100
AcDbBlockBegin
  2
*D16
 70
     1
 10
0.0
 20
0.0
 30
0.0
  3
*D16
  1
*D16
  0
LINE
  5
32D
330
32A
100
AcDbEntity
  8
치수문자_일반주서
 62
     0
370
    -2
100
AcDbLine
 10
117.2057545857095
 20
-15.8219517762382
 30
0.0
 11
127.4840912386349
 21
-49.30043331605162
 31
0.0
  0
MTEXT
  5
32E
330
32A
100
AcDbEntity
  8
치수문자_일반주서
 62
     0
100
AcDbMText
 10
125.820389426373
 20
-34.9374401446275
 30
0.0
 40
3.5
 41
0.0
 71
     5
 72
     1
  1
\A1;R.76 [R0.030]
  7
SLDTEXTSTYLE0
 11
0.29349276223169
 21
-0.9559612955123301
 31
0.0
 73
     1
 44
1.0
  0
LINE
  5
32F
330
32A
100
AcDbEntity
  8
치수문자_일반주서
 62
     0
370
    -2
100
AcDbLine
 10
116.0129999999999
 20
-11.93692507127609
 30
0.0
 11
116.2366414848204
 21
-12.66536757845649
 31
0.0
  0
SOLID
  5
330
330
32A
100
AcDbEntity
  8
치수문자_일반주서
 62
     0
100
AcDbTrace
 10
117.7318519520064
 20
-15.66043292609003
 30
0.0
 11
116.6796572194125
 21
-15.98347062638637
 31
0.0
 12
116.2366414848204
 22
-12.66536757845649
 32
0.0
 13
116.2366414848204
 23
-12.66536757845649
 33
0.0
  0
POINT
  5
331
330
32A
100
AcDbEntity
  8
Defpoints
 62
     0
100
AcDbPoint
 10
116.2366414848204
 20
-12.66536757845649
 30
0.0
  0
POINT
  5
332
330
32A
100
AcDbEntity
  8
Defpoints
 62
     0
100
AcDbPoint
 10
116.0129999999999
 20
-11.93692507127609
 30
0.0
  0
ENDBLK
  5
32C
330
32A
100
AcDbEntity
  8
0
100
AcDbBlockEnd
  0
ENDSEC
  0
SECTION
  2
ENTITIES
  0
LINE
  5
F4
330
1F
100
AcDbEntity
  8
참조1
100
AcDbLine
 10
32.22499999999995
 20
0.0010749287238892
 30
0.0
 11
32.22499999999995
 21
-39.9989250712761
 31
0.0
  0
LINE
  5
F5
330
1F
100
AcDbEntity
  8
참조1
100
AcDbLine
 10
32.22499999999995
 20
-39.9989250712761
 30
0.0
 11
-19.44635681430873
 21
-39.9989250712761
 31
0.0
  0
INSERT
  5
F7
330
1F
100
AcDbEntity
  8
0
  6
Continuous
 62
     7
100
AcDbBlockReference
 66
     1
  2
블럭10
 10
18.28472706787474
 20
-52.04609937292003
 30
0.0
  0
ATTRIB
  5
F8
330
F7
100
AcDbEntity
  8
FORMAT
 62
     2
100
AcDbText
 10
7.57864624558606
 20
-49.97073246008785
 30
0.0
 40
4.233333333333333
  1
G8C51908 [ 8 FLUTE ]
 41
0.75
  7
SLDTEXTSTYLE0
 11
7.57864624558606
 21
-52.08739912675451
 31
0.0
100
AcDbAttribute
  2
AUTOATTR0
 70
     0
 74
     1
  0
SEQEND
  5
F9
330
F7
100
AcDbEntity
  8
0
  6
Continuous
 62
     7
  0
HATCH
  5
FA
330
1F
100
AcDbEntity
  8
중심선
100
AcDbHatch
 10
0.0
 20
0.0
 30
0.0
210
0.0
220
0.0
230
1.0
  2
SOLID
 70
     1
 71
     0
 91
        1
 92
        0
 93
        4
 72
     1
 10
23.99963637225558
 20
-35.7989250712761
 11
20.5533611284183
 21
-35.7989250712761
 72
     1
 10
20.5533611284183
 20
-35.7989250712761
 11
18.42513126921427
 21
-38.3352506518487
 72
     1
 10
18.42513126921427
 20
-38.3352506518487
 11
21.87143959816471
 21
-38.33521122254621
 72
     1
 10
21.87143959816471
 20
-38.33521122254621
 11
23.99963637225558
 21
-35.7989250712761
 97
        0
 75
     0
 76
     1
 98
        1
 10
0.0
 20
0.0
  0
HATCH
  5
FB
330
1F
100
AcDbEntity
  8
중심선
100
AcDbHatch
 10
0.0
 20
0.0
 30
0.0
210
0.0
220
0.0
230
1.0
  2
SOLID
 70
     1
 71
     0
 91
        1
 92
        0
 93
        4
 72
     1
 10
29.01240036329156
 20
-35.7989250712761
 11
25.56612511945427
 21
-35.79892507127608
 72
     1
 10
25.56612511945427
 20
-35.79892507127608
 11
21.03498711109686
 21
-41.19892507127612
 72
     1
 10
21.03498711109686
 20
-41.19892507127612
 11
24.48126235493414
 21
-41.19892507127612
 72
     1
 10
24.48126235493414
 20
-41.19892507127612
 11
29.01240036329156
 21
-35.7989250712761
 97
        0
 75
     0
 76
     1
 98
        1
 10
0.0
 20
0.0
  0
HATCH
  5
FC
330
1F
100
AcDbEntity
  8
중심선
100
AcDbHatch
 10
0.0
 20
0.0
 30
0.0
210
0.0
220
0.0
230
1.0
  2
SOLID
 70
     1
 71
     0
 91
        1
 92
        0
 93
        4
 72
     1
 10
34.02516435432742
 20
-35.79892507127608
 11
30.57888911049034
 21
-35.79892507127608
 72
     1
 10
30.57888911049034
 20
-35.79892507127608
 11
23.53045220860106
 21
-44.19892507127612
 72
     1
 10
23.53045220860106
 20
-44.19892507127612
 11
26.97672745243834
 21
-44.19892507127612
 72
     1
 10
26.97672745243834
 20
-44.19892507127612
 11
34.02516435432742
 21
-35.79892507127608
 97
        0
 75
     0
 76
     1
 98
        1
 10
0.0
 20
0.0
  0
HATCH
  5
FD
330
1F
100
AcDbEntity
  8
중심선
100
AcDbHatch
 10
0.0
 20
0.0
 30
0.0
210
0.0
220
0.0
230
1.0
  2
SOLID
 70
     1
 71
     0
 91
        1
 92
        0
 93
        6
 72
     3
 10
38.8250547853396
 20
-39.99892507132738
 11
3.960054785062284
 21
1.540850780301639E-10
 40
0.3939339440162633
 50
17.09539180608417
 51
320.0019657685091
 73
     0
 72
     1
 10
40.50805444104022
 20
-38.58681907591443
 11
42.81335631474126
 21
-36.65249236586649
 72
     3
 10
38.82505478528675
 20
-39.99892507127625
 11
6.600054785286829
 21
-1.249000902703301E-13
 40
0.6363583540795982
 50
39.99873849337391
 51
368.4976242363724
 73
     1
 72
     1
 10
45.25038727718739
 20
-39.03892507120613
 11
37.50512209212275
 21
-39.03892507120613
 72
     1
 10
37.50512209212275
 20
-39.03892507120613
 11
37.50509704767674
 21
-40.95892507120602
 72
     1
 10
37.50509704767674
 20
-40.95892507120602
 11
41.94647681714881
 21
-40.95892507120599
 97
        0
 75
     0
 76
     1
 98
        1
 10
0.0
 20
0.0
  0
LINE
  5
14F
330
1F
100
AcDbEntity
  8
참조1
100
AcDbLine
 10
78.52598381534554
 20
7.441074928723896
 30
0.0
 11
78.52598381534554
 21
-7.438925071276109
 31
0.0
  0
LINE
  5
150
330
1F
100
AcDbEntity
  8
참조1
100
AcDbLine
 10
91.22598381534554
 20
5.441074928723896
 30
0.0
 11
78.52598381534554
 21
5.441074928723896
 31
0.0
  0
SOLID
  5
151
330
1F
100
AcDbEntity
  8
참조1
100
AcDbTrace
 10
78.52598381534554
 20
5.441074928723896
 30
0.0
 11
84.87598381534553
 21
4.425074928723896
 31
0.0
 12
84.87598381534553
 22
6.457074928723896
 32
0.0
 13
84.87598381534553
 23
6.457074928723896
 33
0.0
  0
LINE
  5
152
330
1F
100
AcDbEntity
  8
참조1
100
AcDbLine
 10
91.22598381534554
 20
-5.438925071276109
 30
0.0
 11
78.52598381534554
 21
-5.438925071276109
 31
0.0
  0
SOLID
  5
153
330
1F
100
AcDbEntity
  8
참조1
100
AcDbTrace
 10
78.52598381534554
 20
-5.438925071276109
 30
0.0
 11
84.87598381534553
 21
-6.454925071276109
 31
0.0
 12
84.87598381534553
 22
-4.422925071276109
 32
0.0
 13
84.87598381534553
 23
-4.422925071276109
 33
0.0
  0
MTEXT
  5
154
330
1F
100
AcDbEntity
  8
참조1
100
AcDbMText
 10
87.9234739078158
 20
10.98929157337383
 30
0.0
 40
3.5
 41
0.0
 71
     1
 72
     1
  1
A
  7
SLDTEXTSTYLE0
 73
     1
 44
1.0
  0
MTEXT
  5
155
330
1F
100
AcDbEntity
  8
참조1
100
AcDbMText
 10
87.9234739078158
 20
0.1092915733738259
 30
0.0
 40
3.5
 41
0.0
 71
     1
 72
     1
  1
A
  7
SLDTEXTSTYLE0
 73
     1
 44
1.0
  0
LINE
  5
284
330
1F
100
AcDbEntity
  8
0
  6
Continuous
 62
     1
370
    15
100
AcDbLine
 10
67.1897978889946
 20
-1.785051724816206
 30
0.0
 11
67.39201496269695
 21
-1.903861628723298
 31
0.0
  0
LINE
  5
285
330
1F
100
AcDbEntity
  8
0
  6
Continuous
 62
     1
370
    15
100
AcDbLine
 10
74.18935345063053
 20
1.808160034535945
 30
0.0
 11
74.01559266076575
 21
1.906176154599308
 31
0.0
  0
LINE
  5
286
330
1F
100
AcDbEntity
  8
0
  6
Continuous
 62
     1
370
    15
100
AcDbLine
 10
108.7985382850714
 20
1.778811820317657
 30
0.0
 11
108.5701995746282
 21
1.9060762249295
 31
0.0
  0
LINE
  5
287
330
1F
100
AcDbEntity
  8
0
  6
Continuous
 62
     1
370
    15
100
AcDbLine
 10
101.799272204668
 20
-1.820609519096834
 30
0.0
 11
101.9458967974855
 21
-1.903970795104563
 31
0.0
  0
LINE
  5
288
330
1F
100
AcDbEntity
  8
0
  6
Continuous
 62
     1
370
    15
100
AcDbLine
 10
32.61982221897213
 20
-1.77953393774996
 30
0.0
 11
32.84022507980015
 21
-1.904018840515704
 31
0.0
  0
LINE
  5
289
330
1F
100
AcDbEntity
  8
0
  6
Continuous
 62
     1
370
    15
100
AcDbLine
 10
39.63521392415893
 20
1.809266140644496
 30
0.0
 11
39.46457443714272
 21
1.906001677581337
 31
0.0
  0
LINE
  5
28A
330
1F
100
AcDbEntity
  8
0
  6
Continuous
 62
     1
370
    15
100
AcDbLine
 10
91.40980709960778
 20
1.839484743435481
 30
0.0
 11
91.29314318976017
 21
1.906016712386261
 31
0.0
  0
LINE
  5
28B
330
1F
100
AcDbEntity
  8
0
  6
Continuous
 62
     1
370
    15
100
AcDbLine
 10
84.44357768466196
 20
-1.776846721106608
 30
0.0
 11
84.66800680537071
 21
-1.903870452670958
 31
0.0
  0
LINE
  5
28C
330
1F
100
AcDbEntity
  8
0
  6
Continuous
 62
     1
370
    15
100
AcDbLine
 10
60.05273434868585
 20
-12.69892507127614
 30
0.0
 11
64.08062859460179
 21
-12.69892507127614
 31
0.0
  0
LINE
  5
28D
330
1F
100
AcDbEntity
  8
0
  6
Continuous
 62
     1
370
    15
100
AcDbLine
 10
77.329200944944
 20
-12.69892507127614
 30
0.0
 11
81.35782981863449
 21
-12.69892507127614
 31
0.0
  0
LINE
  5
28E
330
1F
100
AcDbEntity
  8
외형선
  6
Continuous
370
    15
100
AcDbLine
 10
12.24979901281318
 20
12.70107492872389
 30
0.0
 11
11.99999999999997
 21
12.70107492872389
 31
0.0
  0
LINE
  5
28F
330
1F
100
AcDbEntity
  8
0
  6
Continuous
 62
     1
370
    15
100
AcDbLine
 10
42.77440595493098
 20
-12.69892507127614
 30
0.0
 11
46.80296937194188
 21
-12.69892507127614
 31
0.0
  0
LINE
  5
290
330
1F
100
AcDbEntity
  8
0
  6
Continuous
 62
     1
370
    15
100
AcDbLine
 10
116.0129999999999
 20
12.70107492872391
 30
0.0
 11
111.8802083964593
 21
12.70107492872389
 31
0.0
  0
LINE
  5
291
330
1F
100
AcDbEntity
  8
0
  6
Continuous
 62
     1
370
    15
100
AcDbLine
 10
64.0806285946019
 20
12.70107492872389
 30
0.0
 11
60.05273434868596
 21
12.70107492872389
 31
0.0
  0
LINE
  5
292
330
1F
100
AcDbEntity
  8
외형선
  6
Continuous
370
    15
100
AcDbLine
 10
11.99999999999997
 20
-12.69892507127614
 30
0.0
 11
12.24979901281333
 21
-12.69892507127614
 31
0.0
  0
LINE
  5
293
330
1F
100
AcDbEntity
  8
0
  6
Continuous
 62
     1
370
    15
100
AcDbLine
 10
81.35782981863466
 20
12.70107492872389
 30
0.0
 11
77.32920094494418
 21
12.70107492872389
 31
0.0
  0
LINE
  5
294
330
1F
100
AcDbEntity
  8
0
  6
Continuous
 62
     1
370
    15
100
AcDbLine
 10
111.8802083964593
 20
-12.69892507127614
 30
0.0
 11
116.0129999999999
 21
-12.69892507127609
 31
0.0
  0
LINE
  5
295
330
1F
100
AcDbEntity
  8
0
  6
Continuous
 62
     1
370
    15
100
AcDbLine
 10
46.80296937194205
 20
12.70107492872389
 30
0.0
 11
42.77440595493104
 21
12.70107492872389
 31
0.0
  0
LINE
  5
296
330
1F
100
AcDbEntity
  8
0
  6
Continuous
 62
     1
370
    15
100
AcDbLine
 10
94.60559571517578
 20
-12.69892507127614
 30
0.0
 11
98.63325158817995
 21
-12.69892507127614
 31
0.0
  0
LINE
  5
297
330
1F
100
AcDbEntity
  8
0
  6
Continuous
 62
     1
370
    15
100
AcDbLine
 10
29.52755157449909
 20
12.70107492872389
 30
0.0
 11
25.49913207624959
 21
12.70107492872389
 31
0.0
  0
LINE
  5
298
330
1F
100
AcDbEntity
  8
0
  6
Continuous
 62
     1
370
    15
100
AcDbLine
 10
25.49913207624982
 20
-12.69892507127614
 30
0.0
 11
29.52755157449891
 21
-12.69892507127614
 31
0.0
  0
LINE
  5
299
330
1F
100
AcDbEntity
  8
0
  6
Continuous
 62
     1
370
    15
100
AcDbLine
 10
98.63325158817995
 20
12.70107492872389
 30
0.0
 11
94.60559571517595
 21
12.70107492872389
 31
0.0
  0
LINE
  5
29C
330
1F
100
AcDbEntity
  8
외형선
  6
Continuous
370
    15
100
AcDbLine
 10
-58.48500000000004
 20
-12.69892507127612
 30
0.0
 11
11.99999999999997
 21
-12.69892507127612
 31
0.0
  0
LINE
  5
29D
330
1F
100
AcDbEntity
  8
외형선
  6
Continuous
370
    15
100
AcDbLine
 10
11.99999999999997
 20
12.70107492872388
 30
0.0
 11
-58.48500000000004
 21
12.70107492872388
 31
0.0
  0
LINE
  5
29E
330
1F
100
AcDbEntity
  8
외형선
  6
Continuous
370
    15
100
AcDbLine
 10
-58.48500000000004
 20
12.70107492872388
 30
0.0
 11
-61.02500000000006
 21
10.16107492872388
 31
0.0
  0
LINE
  5
29F
330
1F
100
AcDbEntity
  8
외형선
  6
Continuous
370
    15
100
AcDbLine
 10
-61.02500000000006
 20
-10.15892507127612
 30
0.0
 11
-58.48500000000004
 21
-12.69892507127612
 31
0.0
  0
SPLINE
  5
2A0
330
1F
100
AcDbEntity
  8
0
  6
Continuous
 62
     1
370
    15
100
AcDbSpline
210
0.0
220
0.0
230
1.0
 70
     8
 71
     3
 72
    28
 73
    24
 74
     0
 42
0.000000001
 43
0.00000001
 40
0.0
 40
0.0
 40
0.0
 40
0.0
 40
0.0120681542543769
 40
0.0607737915171373
 40
0.1094795010067963
 40
0.1591300514620108
 40
0.2087809283325557
 40
0.2584320685886026
 40
0.3080834091608592
 40
0.3577348869500157
 40
0.4073864388361929
 40
0.457038001688408
 40
0.5066895123740317
 40
0.5563409077682565
 40
0.6059921247635532
 40
0.6556431002791324
 40
0.7052937712703855
 40
0.7549440747383235
 40
0.8045939477389955
 40
0.8591562294809043
 40
0.9137074234928304
 40
0.9682645289471118
 40
1.0
 40
1.0
 40
1.0
 40
1.0
 10
29.52755157449903
 20
12.66783543107176
 30
0.0
 10
29.83217790237657
 20
12.6778426799297
 30
0.0
 10
31.36623990977481
 20
12.72823799663955
 30
0.0
 10
34.12974533896792
 20
12.46449381705633
 30
0.0
 10
37.84188902153809
 20
11.86590758901461
 30
0.0
 10
41.57798698958081
 20
10.893967368809
 30
0.0
 10
45.33793096586064
 20
9.606251800528518
 30
0.0
 10
49.09790534561583
 20
8.036479961339243
 30
0.0
 10
52.85789619356925
 20
6.233083945626746
 30
0.0
 10
56.61789997540447
 20
4.247904278339703
 30
0.0
 10
60.37791036305165
 20
2.138991606669144
 30
0.0
 10
64.13792179078499
 20
-0.0322412324688237
 30
0.0
 10
67.89792843098232
 20
-2.202498793748504
 30
0.0
 10
71.65792474032989
 20
-4.308534401910862
 30
0.0
 10
75.41790430460671
 20
-6.288958835282507
 30
0.0
 10
79.17786391867381
 20
-8.086082995313944
 30
0.0
 10
82.93778842719709
 20
-9.647421348735726
 30
0.0
 10
86.69770728659782
 20
-10.92788083192357
 30
0.0
 10
90.58149467837231
 20
-11.92030542750872
 30
0.0
 10
94.58941399869624
 20
-12.56176395733399
 30
0.0
 10
98.72080349628848
 20
-12.76160518285841
 30
0.0
 10
102.2761508473457
 20
-12.60941047878077
 30
0.0
 10
104.4545472092222
 20
-12.21897494009324
 30
0.0
 10
105.2556872085395
 20
-12.075386044761
 30
0.0
  0
SPLINE
  5
2A1
330
1F
100
AcDbEntity
  8
0
  6
Continuous
 62
     1
370
    15
100
AcDbSpline
210
0.0
220
0.0
230
1.0
 70
     8
 71
     3
 72
    28
 73
    24
 74
     0
 42
0.000000001
 43
0.00000001
 40
0.0
 40
0.0
 40
0.0
 40
0.0
 40
0.0100665259509324
 40
0.0646387479519471
 40
0.119205133936025
 40
0.173761549149696
 40
0.228312052995802
 40
0.2828736444316115
 40
0.3325228892765503
 40
0.3821725645833079
 40
0.431822607408731
 40
0.4814729547546265
 40
0.5311235435771864
 40
0.5807743107964161
 40
0.6304251933055863
 40
0.6800761279806877
 40
0.7297270516898905
 40
0.7793779013030093
 40
0.8290286137009646
 40
0.8786791257852448
 40
0.9283293744873553
 40
0.9779792967782643
 40
1.0
 40
1.0
 40
1.0
 40
1.0
 10
111.8802083964593
 20
-12.66526304127397
 30
0.0
 10
111.6260770144191
 20
-12.6758427526767
 30
0.0
 10
109.9942594012281
 20
-12.74377674520781
 30
0.0
 10
106.9849149760057
 20
-12.43371990306932
 30
0.0
 10
102.8525060587031
 20
-11.71961047647135
 30
0.0
 10
98.72080015986225
 20
-10.5531397414349
 30
0.0
 10
94.58941489565805
 20
-9.025894258634708
 30
0.0
 10
90.58149446197913
 20
-7.233819495895254
 30
0.0
 10
86.6977073422535
 20
-5.271340851348917
 30
0.0
 10
82.93778841228337
 20
-3.217643939873007
 30
0.0
 10
79.17786392267234
 20
-1.070191359959843
 30
0.0
 10
75.41790430352657
 20
1.108503511478368
 30
0.0
 10
71.65792474065219
 20
3.25492252523366
 30
0.0
 10
67.89792843077342
 20
5.306515607860856
 30
0.0
 10
64.13792179129851
 20
7.20347766085262
 30
0.0
 10
60.37791036120663
 20
8.8905560969189
 30
0.0
 10
56.61789998227133
 20
10.31845088331936
 30
0.0
 10
52.85789616794713
 20
11.44602957510067
 30
0.0
 10
49.09790544123692
 20
12.23862496666852
 30
0.0
 10
45.33793060900044
 20
12.67987277589484
 30
0.0
 10
41.57798832138954
 20
12.73178123981733
 30
0.0
 10
38.51547947350306
 20
12.53211087076657
 30
0.0
 10
36.70633802019429
 20
12.19189848372873
 30
0.0
 10
36.15048174372825
 20
12.08736868572945
 30
0.0
  0
SPLINE
  5
2A2
330
1F
100
AcDbEntity
  8
0
  6
Continuous
 62
     1
370
    15
100
AcDbSpline
210
0.0
220
0.0
230
1.0
 70
     8
 71
     3
 72
    28
 73
    24
 74
     0
 42
0.000000001
 43
0.00000001
 40
0.0
 40
0.0
 40
0.0
 40
0.0
 40
0.0454030093749647
 40
0.094104564689753
 40
0.1428062104423763
 40
0.1915079420819373
 40
0.2402097550553093
 40
0.2889116448072546
 40
0.3376136067805412
 40
0.3872603370213971
 40
0.4369073936524685
 40
0.4865547136487765
 40
0.5362022339458815
 40
0.5858498914493284
 40
0.635497623044095
 40
0.6851453656040557
 40
0.7347930560014388
 40
0.7844406311162938
 40
0.8340880278459473
 40
0.8837351831144629
 40
0.9333820338820832
 40
0.9830285171546664
 40
1.0
 40
1.0
 40
1.0
 40
1.0
 10
12.24979901281316
 20
12.6898242723298
 30
0.0
 10
13.39595581511088
 20
12.66449107525024
 30
0.0
 10
15.77153814833613
 20
12.61198421466565
 30
0.0
 10
19.37655013085978
 20
12.09193418874228
 30
0.0
 10
23.06483645261673
 20
11.25083524796307
 30
0.0
 10
26.75313108214957
 20
10.08614062415188
 30
0.0
 10
30.44143134259073
 20
8.640739443764296
 30
0.0
 10
34.12974511749158
 20
6.952431631574449
 30
0.0
 10
37.84188908216598
 20
5.057133386946923
 30
0.0
 10
41.57798697320177
 20
3.004207979058673
 30
0.0
 10
45.33793097025708
 20
0.8506665373047646
 30
0.0
 10
49.09790534440916
 20
-1.327644268116792
 30
0.0
 10
52.85789619399927
 20
-3.467232028376223
 30
0.0
 10
56.61789997489089
 20
-5.505742230835004
 30
0.0
 10
60.37791036467596
 20
-7.383750157966226
 30
0.0
 10
64.1379217848013
 20
-9.046563038616931
 30
0.0
 10
67.89792845329285
 20
-10.44556023192042
 30
0.0
 10
71.65792465707202
 20
-11.54055685302247
 30
0.0
 10
75.41790461532597
 20
-12.2974436705682
 30
0.0
 10
79.17786275906317
 20
-12.70236051727395
 30
0.0
 10
82.93779275488046
 20
-12.71291503366677
 30
0.0
 10
85.87283838592535
 20
-12.50219714374093
 30
0.0
 10
87.5545708005163
 20
-12.17177410542632
 30
0.0
 10
87.98300616844918
 20
-12.08759607878808
 30
0.0
  0
SPLINE
  5
2A3
330
1F
100
AcDbEntity
  8
0
  6
Continuous
 62
     1
370
    15
100
AcDbSpline
210
0.0
220
0.0
230
1.0
 70
     8
 71
     3
 72
    29
 73
    25
 74
     0
 42
0.000000001
 43
0.00000001
 40
0.0
 40
0.0
 40
0.0
 40
0.0
 40
0.0002108763530446
 40
0.054769542011642
 40
0.1044161244960201
 40
0.1540631374191342
 40
0.2037105178412062
 40
0.2533582027674213
 40
0.3030061291573518
 40
0.3526542339343859
 40
0.4023024539951784
 40
0.4519507262191048
 40
0.5015989874777205
 40
0.5512471746442255
 40
0.600895224602925
 40
0.6505430742586911
 40
0.7001906605464107
 40
0.7498379204404321
 40
0.7985404019876806
 40
0.8472428113128174
 40
0.8959451438585624
 40
0.9446473950696281
 40
0.9933495603928404
 40
1.0
 40
1.0
 40
1.0
 40
1.0
 10
94.60559571517584
 20
-12.69806475671517
 30
0.0
 10
94.6002722738028
 20
-12.69835142093685
 30
0.0
 10
93.21764951066373
 20
-12.77280485256134
 30
0.0
 10
90.58147980600327
 20
-12.52299790531542
 30
0.0
 10
86.69771111171812
 20
-11.95303953135348
 30
0.0
 10
82.93778740224721
 20
-11.00512486477116
 30
0.0
 10
79.17786419331102
 20
-9.74923786370654
 30
0.0
 10
75.4179042310175
 20
-8.205751534048233
 30
0.0
 10
71.65792476004779
 20
-6.42399703874753
 30
0.0
 10
67.89792842570048
 20
-4.45473754513371
 30
0.0
 10
64.13792179219465
 20
-2.355678977526672
 30
0.0
 10
60.37791036269508
 20
-0.1879150180529763
 30
0.0
 10
56.61789997542112
 20
1.98535230953128
 30
0.0
 10
52.85789619385937
 20
4.100787573117831
 30
0.0
 10
49.09790534443849
 20
6.0967389404884
 30
0.0
 10
45.3379309702797
 20
7.915019299028451
 30
0.0
 10
41.57798697308183
 20
9.502695353051863
 30
0.0
 10
37.84188908261913
 20
10.80496439435635
 30
0.0
 10
34.12974511583369
 20
11.79140398506144
 30
0.0
 10
30.44143134878291
 20
12.43846981307406
 30
0.0
 10
26.75313105903919
 20
12.74544673862499
 30
0.0
 10
23.06483653886605
 20
12.66228454677215
 30
0.0
 10
20.43809393926793
 20
12.43701953262526
 30
0.0
 10
19.04078311235676
 20
12.14463294378337
 30
0.0
 10
18.8729006562647
 20
12.10950362415186
 30
0.0
  0
LINE
  5
2A4
330
1F
100
AcDbEntity
  8
0
  6
Continuous
 62
     1
370
    15
100
AcDbLine
 10
116.775
 20
-8.153117200277975
 30
0.0
 11
116.775
 21
-2.540672942274114
 31
0.0
  0
SPLINE
  5
2A5
330
1F
100
AcDbEntity
  8
0
  6
Continuous
 62
     1
370
    15
100
AcDbSpline
210
0.0
220
0.0
230
1.0
 70
     8
 71
     3
 72
    18
 73
    14
 74
     0
 42
0.000000001
 43
0.00000001
 40
0.0
 40
0.0
 40
0.0
 40
0.0
 40
0.2499999999999993
 40
0.2499999999999993
 40
0.4999999999999987
 40
0.4999999999999987
 40
0.624999999999999
 40
0.624999999999999
 40
0.7499999999999993
 40
0.7499999999999993
 40
0.8749999999999997
 40
0.8749999999999997
 40
1.0
 40
1.0
 40
1.0
 40
1.0
 10
115.2509999999999
 20
-8.70614546175537
 30
0.0
 10
115.4396836843334
 20
-8.78536491223936
 30
0.0
 10
115.620774733571
 20
-8.841423595433447
 30
0.0
 10
115.9723203266146
 20
-8.901424191116796
 30
0.0
 10
116.1336304871459
 20
-8.904022239203258
 30
0.0
 10
116.3535716503762
 20
-8.850770324698459
 30
0.0
 10
116.421366266713
 20
-8.823449878147827
 30
0.0
 10
116.542792990863
 20
-8.74691715675025
 30
0.0
 10
116.5971774228956
 20
-8.696643881683016
 30
0.0
 10
116.6844794211236
 20
-8.575518736912073
 30
0.0
 10
116.7186262756532
 20
-8.503434704099952
 30
0.0
 10
116.764095457072
 20
-8.339134620240273
 30
0.0
 10
116.7749999999998
 20
-8.249570434509025
 30
0.0
 10
116.7749999999998
 20
-8.153117200277968
 30
0.0
  0
SPLINE
  5
2A6
330
1F
100
AcDbEntity
  8
0
  6
Continuous
 62
     1
370
    15
100
AcDbSpline
210
0.0
220
0.0
230
1.0
 70
     8
 71
     3
 72
    21
 73
    17
 74
     0
 42
0.000000001
 43
0.00000001
 40
0.0
 40
0.0
 40
0.0
 40
0.0
 40
0.0011197037440287
 40
0.074601544707413
 40
0.1480832150450878
 40
0.221564621360954
 40
0.2950456702984853
 40
0.3685262685547022
 40
0.4420063228941397
 40
0.5154857401627861
 40
0.5962352854272608
 40
0.6769684213861576
 40
0.7577103059946123
 40
0.8384669470490399
 40
0.91923222523632
 40
1.0
 40
1.0
 40
1.0
 40
1.0
 10
64.0806285946019
 20
12.69829754642456
 30
0.0
 10
64.0997267191108
 20
12.69922175777291
 30
0.0
 10
65.37216114382127
 20
12.7607983976575
 30
0.0
 10
67.89792839443064
 20
12.54353185880758
 30
0.0
 10
71.65792475039328
 20
12.02085136752102
 30
0.0
 10
75.41790430090472
 20
11.10330102159957
 30
0.0
 10
79.17786392341847
 20
9.874121990659177
 30
0.0
 10
82.93778841192054
 20
8.354010261349071
 30
0.0
 10
86.6977073429587
 20
6.591295720507347
 30
0.0
 10
90.58149445941731
 20
4.571906762838033
 30
0.0
 10
94.58941490621945
 20
2.336740890773321
 30
0.0
 10
98.72080012059146
 20
-0.0497207192400886
 30
0.0
 10
102.8525062052566
 20
-2.435771141864763
 30
0.0
 10
106.9849144289363
 20
-4.730218591412552
 30
0.0
 10
111.1178543654608
 20
-6.880279249060131
 30
0.0
 10
113.8732705930287
 20
-8.097517119844525
 30
0.0
 10
115.251
 20
-8.706145461755348
 30
0.0
  0
SPLINE
  5
2A7
330
1F
100
AcDbEntity
  8
0
  6
Continuous
 62
     1
370
    15
100
AcDbSpline
210
0.0
220
0.0
230
1.0
 70
     8
 71
     3
 72
    19
 73
    15
 74
     0
 42
0.000000001
 43
0.00000001
 40
0.0
 40
0.0
 40
0.0
 40
0.0
 40
0.092775062673857
 40
0.185547257619432
 40
0.2783095313985018
 40
0.3710548549743017
 40
0.4637901292883319
 40
0.5565442523865187
 40
0.6409474387103153
 40
0.7253513568146096
 40
0.8097558996967126
 40
0.8941609602603686
 40
0.9785664313317766
 40
0.9999999999999999
 40
0.9999999999999999
 40
0.9999999999999999
 40
0.9999999999999999
 10
115.2509999999999
 20
-1.936528284576625
 30
0.0
 10
113.873270593029
 20
-1.143920529878457
 30
0.0
 10
111.1178543654618
 20
0.4412704795756781
 30
0.0
 10
106.9849144289324
 20
2.821767355495993
 30
0.0
 10
102.8525062052709
 20
5.098015205802088
 30
0.0
 10
98.72080012053803
 20
7.196200392637458
 30
0.0
 10
94.58941490641897
 20
9.041063298625517
 30
0.0
 10
90.58149445870063
 20
10.52167977772051
 30
0.0
 10
86.69770734536664
 20
11.62337727292621
 30
0.0
 10
82.93778840290523
 20
12.34924541636233
 30
0.0
 10
79.1778639570721
 20
12.72269671645751
 30
0.0
 10
75.41790417530459
 20
12.69748234418044
 30
0.0
 10
72.59299204767163
 20
12.47878095452917
 30
0.0
 10
71.02139907307745
 20
12.16050011849439
 30
0.0
 10
70.70313422465918
 20
12.09604475144161
 30
0.0
  0
SPLINE
  5
2A8
330
1F
100
AcDbEntity
  8
0
  6
Continuous
 62
     1
370
    15
100
AcDbSpline
210
0.0
220
0.0
230
1.0
 70
     8
 71
     3
 72
    12
 73
     8
 74
     0
 42
0.000000001
 43
0.00000001
 40
0.0
 40
0.0
 40
0.0
 40
0.0
 40
0.1507289627317546
 40
0.3808323665676302
 40
0.6111894558669154
 40
0.8461576995997145
 40
1.0
 40
1.0
 40
1.0
 40
1.0
 10
116.7434494755084
 20
-2.531416340123592
 30
0.0
 10
116.7300141199866
 20
-2.526797101288707
 30
0.0
 10
116.6960682999775
 20
-2.515126115000818
 30
0.0
 10
116.4407936839845
 20
-2.458305593827603
 30
0.0
 10
116.0469236883986
 20
-2.327753957579922
 30
0.0
 10
115.6256521844714
 20
-2.143027227369039
 30
0.0
 10
115.3572140454799
 20
-1.995070818186214
 30
0.0
 10
115.251
 20
-1.936528284576681
 30
0.0
  0
SPLINE
  5
2A9
330
1F
100
AcDbEntity
  8
0
  6
Continuous
 62
     1
370
    15
100
AcDbSpline
210
0.0
220
0.0
230
1.0
 70
     8
 71
     3
 72
    23
 73
    19
 74
     0
 42
0.000000001
 43
0.00000001
 40
0.0
 40
0.0
 40
0.0
 40
0.0
 40
0.0628299062459806
 40
0.1256599350341926
 40
0.1884900804965383
 40
0.2513203367618909
 40
0.3141506979562474
 40
0.3769811582028813
 40
0.4398117116224934
 40
0.5038611135381319
 40
0.5679109365308078
 40
0.631961099291799
 40
0.6960115204614746
 40
0.760062118641481
 40
0.8241128124069306
 40
0.8881635203186113
 40
0.9522141609351877
 40
1.0
 40
1.0
 40
1.0
 40
1.0
 10
11.99999999999994
 20
9.082920714200952
 30
0.0
 10
13.22942312969045
 20
8.562128867545969
 30
0.0
 10
15.68827178691456
 20
7.520544158493681
 30
0.0
 10
19.37655012770952
 20
5.679008633785116
 30
0.0
 10
23.06483645346086
 20
3.696505817992865
 30
0.0
 10
26.75313108192327
 20
1.605451794001681
 30
0.0
 10
30.44143134265167
 20
-0.5292902500409227
 30
0.0
 10
34.12974511747407
 20
-2.649509528912219
 30
0.0
 10
37.8418890821753
 20
-4.708520602253159
 30
0.0
 10
41.57798697318199
 20
-6.646064546450546
 30
0.0
 10
45.3379309703266
 20
-8.402254225657686
 30
0.0
 10
49.09790534415086
 20
-9.913479245608691
 30
0.0
 10
52.85789619496316
 20
-11.13597883857209
 30
0.0
 10
56.61789997129361
 20
-12.03304144560839
 30
0.0
 10
60.37791037810106
 20
-12.58255748360517
 30
0.0
 10
64.13792173469827
 20
-12.75344595742617
 30
0.0
 10
67.57966363273513
 20
-12.6101961720895
 30
0.0
 10
69.76806659626138
 20
-12.24845905505747
 30
0.0
 10
70.70313422465907
 20
-12.09389489399385
 30
0.0
  0
SPLINE
  5
2AA
330
1F
100
AcDbEntity
  8
외형선
  6
Continuous
370
    15
100
AcDbSpline
210
0.0
220
0.0
230
1.0
 70
    24
 71
     3
 72
    12
 73
     8
 74
     0
 42
0.000000001
 43
0.00000001
 40
0.0
 40
0.0
 40
0.0
 40
0.0
 40
0.3121894440860564
 40
0.4954457366057406
 40
0.6840164740231578
 40
0.8672727665428458
 40
1.0
 40
1.0
 40
1.0
 40
1.0
 10
11.99999999999991
 20
12.51422755278622
 30
0.0
 10
11.99999999999997
 20
12.16300510725987
 30
0.0
 10
12.00000000000009
 20
11.60561386123074
 30
0.0
 10
11.99999999999991
 20
10.81250674621875
 30
0.0
 10
11.99999999999997
 20
10.18729867691399
 30
0.0
 10
11.99999999999997
 20
9.640189272351389
 30
0.0
 10
11.99999999999997
 20
9.335615809413241
 30
0.0
 10
11.99999999999997
 20
9.207681313476229
 30
0.0
  0
SPLINE
  5
2AB
330
1F
100
AcDbEntity
  8
0
  6
Continuous
 62
     1
370
    15
100
AcDbSpline
210
0.0
220
0.0
230
1.0
 70
     8
 71
     3
 72
    25
 73
    21
 74
     0
 42
0.000000001
 43
0.00000001
 40
0.0
 40
0.0
 40
0.0
 40
0.0
 40
0.0292561178812619
 40
0.0868100763683081
 40
0.1443642416491661
 40
0.2019185405717919
 40
0.2594728999641103
 40
0.3170272466449805
 40
0.3745815074351687
 40
0.4321356091683143
 40
0.4896894787018987
 40
0.5472430429281983
 40
0.6047962287852339
 40
0.6612541879590329
 40
0.7177120634099309
 40
0.7741698498549376
 40
0.8306275420133734
 40
0.8870851346070072
 40
0.9435426223601909
 40
1.0
 40
1.0
 40
1.0
 40
1.0
 10
77.329200944944
 20
-12.65258653686735
 30
0.0
 10
76.69210409957677
 20
-12.6612220301574
 30
0.0
 10
74.80168152113347
 20
-12.68684565647137
 30
0.0
 10
71.65792451802778
 20
-12.32719719118504
 30
0.0
 10
67.89792849054979
 20
-11.60905027839446
 30
0.0
 10
64.13792177481835
 20
-10.53342419575998
 30
0.0
 10
60.37791036735089
 20
-9.155892062547913
 30
0.0
 10
56.61789997417421
 20
-7.510111278951818
 30
0.0
 10
52.8578961941914
 20
-5.645787871795584
 30
0.0
 10
49.0979053443576
 20
-3.616792640638891
 30
0.0
 10
45.33793097027117
 20
-1.482385107382854
 30
0.0
 10
41.57798697319683
 20
0.695256032228464
 30
0.0
 10
37.84188908217138
 20
2.838991628456462
 30
0.0
 10
34.12974511747515
 20
4.887726333579373
 30
0.0
 10
30.4414313426515
 20
6.786369791661606
 30
0.0
 10
26.75313108192339
 20
8.494212199285986
 30
0.0
 10
23.06483645346091
 20
9.965647246454587
 30
0.0
 10
19.37655012770958
 20
11.15084324267066
 30
0.0
 10
15.68827178691456
 20
12.04850884460716
 30
0.0
 10
13.22942312969047
 20
12.35898808431831
 30
0.0
 10
11.99999999999997
 20
12.51422755278585
 30
0.0
  0
LINE
  5
2AC
330
1F
100
AcDbEntity
  8
0
  6
Continuous
 62
     1
370
    15
100
AcDbLine
 10
116.7749999999999
 20
-11.93692507127609
 30
0.0
 11
116.775
 21
-9.491746443608271
 31
0.0
  0
SPLINE
  5
2AE
330
1F
100
AcDbEntity
  8
0
  6
Continuous
 62
     1
370
    15
100
AcDbSpline
210
0.0
220
0.0
230
1.0
 70
     8
 71
     3
 72
    25
 73
    21
 74
     0
 42
0.000000001
 43
0.00000001
 40
0.0
 40
0.0
 40
0.0
 40
0.0
 40
0.0335286953321477
 40
0.0884617364116018
 40
0.1433949293045116
 40
0.1983282041765713
 40
0.2532614911811897
 40
0.3081947204699546
 40
0.3631278222031069
 40
0.4180607265600046
 40
0.4729933637495894
 40
0.5279256640208327
 40
0.5828575576731785
 40
0.6377889750669633
 40
0.6981553625556385
 40
0.7585094828483108
 40
0.8188701434176804
 40
0.8792418355455884
 40
0.9396199845830295
 40
1.0
 40
1.0
 40
1.0
 40
1.0
 10
46.80296937194205
 20
12.65698534487023
 30
0.0
 10
47.56794630922141
 20
12.66095263034823
 30
0.0
 10
49.58625294227639
 20
12.67141987217641
 30
0.0
 10
52.85789636706815
 20
12.27276519114439
 30
0.0
 10
56.61789992891684
 20
11.51649611155966
 30
0.0
 10
60.37791037550281
 20
10.408657731562
 30
0.0
 10
64.13792178746806
 20
9.0017685465533
 30
0.0
 10
67.89792843179893
 20
7.331412019683729
 30
0.0
 10
71.65792474038054
 20
5.447723833385837
 30
0.0
 10
75.41790430358756
 20
3.405216343186293
 30
0.0
 10
79.17786392269963
 20
1.263521412667949
 30
0.0
 10
82.93778841211306
 20
-0.9149612320821845
 30
0.0
 10
86.6977073429072
 20
-3.066761233701683
 30
0.0
 10
90.58149445943255
 20
-5.197083259511686
 30
0.0
 10
94.58941490621513
 20
-7.228377677857345
 30
0.0
 10
98.72080012059266
 20
-9.067800404470987
 30
0.0
 10
102.8525062052562
 20
-10.59027468468645
 30
0.0
 10
106.9849144289365
 20
-11.7315185550372
 30
0.0
 10
111.1178543654608
 20
-12.49203313333035
 30
0.0
 10
113.8732705930287
 20
-12.62616090807037
 30
0.0
 10
115.251
 20
-12.69322583194724
 30
0.0
  0
SPLINE
  5
2AF
330
1F
100
AcDbEntity
  8
0
  6
Continuous
 62
     1
370
    15
100
AcDbSpline
210
0.0
220
0.0
230
1.0
 70
     8
 71
     3
 72
    23
 73
    19
 74
     0
 42
0.000000001
 43
0.00000001
 40
0.0
 40
0.0
 40
0.0
 40
0.0
 40
0.0668520807317949
 40
0.1337020950289566
 40
0.2005449603077822
 40
0.2673756115678321
 40
0.3341990215063483
 40
0.4010360135476821
 40
0.4618554672189237
 40
0.5226754481983392
 40
0.5834958793816708
 40
0.6443166835972373
 40
0.7051377836174799
 40
0.7659591021705126
 40
0.8267805619516992
 40
0.8876020856352363
 40
0.94842359588574
 40
1.0
 40
1.0
 40
1.0
 40
1.0
 10
115.2509999999999
 20
-10.24414261888835
 30
0.0
 10
113.8732705930286
 20
-9.739252695943577
 30
0.0
 10
111.1178543654608
 20
-8.7294884564796
 30
0.0
 10
106.9849144289363
 20
-6.811053571722525
 30
0.0
 10
102.8525062052562
 20
-4.678889394592446
 30
0.0
 10
98.72080012059266
 20
-2.375154643927019
 30
0.0
 10
94.58941490621496
 20
0.0105301848026542
 30
0.0
 10
90.58149445943329
 20
2.324428390939779
 30
0.0
 10
86.69770734290475
 20
4.490903580498202
 30
0.0
 10
82.93778841212222
 20
6.457450707376115
 30
0.0
 10
79.17786392266564
 20
8.235824949643764
 30
0.0
 10
75.41790430371455
 20
9.774163858636932
 30
0.0
 10
71.65792473990703
 20
11.02785797498883
 30
0.0
 10
67.89792843356625
 20
11.95948890492284
 30
0.0
 10
64.13792178087246
 20
12.54518742865999
 30
0.0
 10
60.37791040011805
 20
12.75562248877328
 30
0.0
 10
56.80841012437142
 20
12.63676030579473
 30
0.0
 10
54.4922485497431
 20
12.27347426842113
 30
0.0
 10
53.42942379857132
 20
12.10677199837862
 30
0.0
  0
SPLINE
  5
2B0
330
1F
100
AcDbEntity
  8
0
  6
Continuous
 62
     1
370
    15
100
AcDbSpline
210
0.0
220
0.0
230
1.0
 70
     8
 71
     3
 72
    18
 73
    14
 74
     0
 42
0.000000001
 43
0.00000001
 40
0.0
 40
0.0
 40
0.0
 40
0.0
 40
0.1249999999999943
 40
0.1249999999999943
 40
0.2499999999999887
 40
0.2499999999999887
 40
0.374999999999983
 40
0.374999999999983
 40
0.4999999999999774
 40
0.4999999999999774
 40
0.7499999999999887
 40
0.7499999999999887
 40
1.0
 40
1.0
 40
1.0
 40
1.0
 10
116.775
 20
-9.491746443608278
 30
0.0
 10
116.775
 20
-9.566050373922096
 30
0.0
 10
116.7642927774985
 20
-9.638619690191092
 30
0.0
 10
116.7225310486892
 20
-9.779060080804626
 30
0.0
 10
116.6909557697481
 20
-9.847630237190792
 30
0.0
 10
116.6091525740075
 20
-9.974097950246104
 30
0.0
 10
116.5593086629744
 20
-10.03192093015028
 30
0.0
 10
116.4426937785283
 20
-10.1352669003635
 30
0.0
 10
116.3753966096411
 20
-10.18080993306491
 30
0.0
 10
116.1577644329335
 20
-10.29107232623313
 30
0.0
 10
115.9862956791417
 20
-10.33181964027333
 30
0.0
 10
115.6281989352395
 20
-10.33992991949471
 30
0.0
 10
115.4385957643668
 20
-10.30808006593368
 30
0.0
 10
115.251
 20
-10.24414261888839
 30
0.0
  0
LINE
  5
2B1
330
1F
100
AcDbEntity
  8
0
  6
Continuous
 62
     1
370
    15
100
AcDbLine
 10
116.775
 20
-0.3605461777620391
 30
0.0
 11
116.775
 21
5.899321989757734
 31
0.0
  0
SPLINE
  5
2B2
330
1F
100
AcDbEntity
  8
0
  6
Continuous
 62
     1
370
    15
100
AcDbSpline
210
0.0
220
0.0
230
1.0
 70
     8
 71
     3
 72
    18
 73
    14
 74
     0
 42
0.000000001
 43
0.00000001
 40
0.0
 40
0.0
 40
0.0
 40
0.0
 40
0.25
 40
0.25
 40
0.5
 40
0.5
 40
0.625
 40
0.625
 40
0.75
 40
0.75
 40
0.875
 40
0.875
 40
1.0
 40
1.0
 40
1.0
 40
1.0
 10
115.2509999999999
 20
0.3815065226077223
 30
0.0
 10
115.4396836843335
 20
0.2727330986074357
 30
0.0
 10
115.620774733571
 20
0.1617402638320904
 30
0.0
 10
115.9723203266146
 20
-0.0569980962236585
 30
0.0
 10
116.133630487146
 20
-0.1591506539787133
 30
0.0
 10
116.3535716503763
 20
-0.287872782190135
 30
0.0
 10
116.421366266713
 20
-0.3254876756719298
 30
0.0
 10
116.542792990863
 20
-0.3855017352131185
 30
0.0
 10
116.5971774228957
 20
-0.4080952134527784
 30
0.0
 10
116.6844794211237
 20
-0.4318233320863776
 30
0.0
 10
116.7186262756534
 20
-0.4334172081744683
 30
0.0
 10
116.7640954570722
 20
-0.4132709266134711
 30
0.0
 10
116.7749999999998
 20
-0.3920801490497112
 30
0.0
 10
116.7749999999998
 20
-0.3605461777620391
 30
0.0
  0
SPLINE
  5
2B3
330
1F
100
AcDbEntity
  8
0
  6
Continuous
 62
     1
370
    15
100
AcDbSpline
210
0.0
220
0.0
230
1.0
 70
     8
 71
     3
 72
     9
 73
     5
 74
     0
 42
0.000000001
 43
0.00000001
 40
0.0
 40
0.0
 40
0.0
 40
0.0
 40
0.5366395575922176
 40
1.0
 40
1.0
 40
1.0
 40
1.0
 10
11.99999999999997
 20
-12.6981030846646
 30
0.0
 10
13.22942310513201
 20
-12.6782476729473
 30
0.0
 10
15.52038933700689
 20
-12.64124814237528
 30
0.0
 10
17.81135690870221
 20
-12.27640680855275
 30
0.0
 10
18.87290065626487
 20
-12.1073537667041
 30
0.0
  0
SPLINE
  5
2B4
330
1F
100
AcDbEntity
  8
0
  6
Continuous
 62
     1
370
    15
100
AcDbSpline
210
0.0
220
0.0
230
1.0
 70
     8
 71
     3
 72
    16
 73
    12
 74
     0
 42
0.000000001
 43
0.00000001
 40
0.0
 40
0.0
 40
0.0
 40
0.0
 40
0.0466180013239717
 40
0.157556204420112
 40
0.2684934456839643
 40
0.390406930002977
 40
0.512295639995254
 40
0.6341975584625403
 40
0.7561217558137364
 40
0.8780589932750308
 40
1.0
 40
1.0
 40
1.0
 40
1.0
 10
81.35782981863466
 20
12.65590611743851
 30
0.0
 10
81.88448674193526
 20
12.66673303150076
 30
0.0
 10
83.66444434436781
 20
12.70332506541004
 30
0.0
 10
86.69770758088023
 20
12.37499169765027
 30
0.0
 10
90.58149438860809
 20
11.66750205215079
 30
0.0
 10
94.58941492593854
 20
10.53250604821115
 30
0.0
 10
98.72080011530781
 20
8.99842303764732
 30
0.0
 10
102.8525062066722
 20
7.146121079919162
 30
0.0
 10
106.9849144285587
 20
5.042631006325742
 30
0.0
 10
111.1178543655552
 20
2.762473070222207
 30
0.0
 10
113.8732705930602
 20
1.175170216006507
 30
0.0
 10
115.251
 20
0.3815065226077294
 30
0.0
  0
SPLINE
  5
2B5
330
1F
100
AcDbEntity
  8
외형선
  6
Continuous
370
    15
100
AcDbSpline
210
0.0
220
0.0
230
1.0
 70
    24
 71
     3
 72
    10
 73
     6
 74
     0
 42
0.000000001
 43
0.00000001
 40
0.0
 40
0.0
 40
0.0
 40
0.0
 40
0.1024371450802021
 40
0.6705768493864431
 40
1.0
 40
1.0
 40
1.0
 40
1.0
 10
11.99999999999997
 20
-10.50658642861829
 30
0.0
 10
11.99999999999997
 20
-10.57178262642334
 30
0.0
 10
11.99999999999989
 20
-10.99857176508831
 30
0.0
 10
12.0
 20
-11.78557056190777
 30
0.0
 10
11.99999999999997
 20
-12.45310490430375
 30
0.0
 10
11.99999999999997
 20
-12.6981030846646
 30
0.0
  0
SPLINE
  5
2B6
330
1F
100
AcDbEntity
  8
0
  6
Continuous
 62
     1
370
    15
100
AcDbSpline
210
0.0
220
0.0
230
1.0
 70
     8
 71
     3
 72
    14
 73
    10
 74
     0
 42
0.000000001
 43
0.00000001
 40
0.0
 40
0.0
 40
0.0
 40
0.0
 40
0.1515698988875929
 40
0.3031351126661365
 40
0.4546841178843108
 40
0.6062054309563234
 40
0.7577103261942063
 40
0.9092460153569485
 40
1.0
 40
1.0
 40
1.0
 40
1.0
 10
115.2509999999999
 20
7.506107733588848
 30
0.0
 10
113.8732705970257
 20
8.122118405339652
 30
0.0
 10
111.1178543774518
 20
9.354120707612136
 30
0.0
 10
106.9849143809759
 20
10.80245739658001
 30
0.0
 10
102.8525063850727
 20
11.888479651428
 30
0.0
 10
98.72079944944258
 20
12.55544207739179
 30
0.0
 10
94.58941741097178
 20
12.76604135629085
 30
0.0
 10
91.0099583012558
 20
12.61078528324303
 30
0.0
 10
88.80784687748852
 20
12.23172851328581
 30
0.0
 10
87.9830061684493
 20
12.08974593623584
 30
0.0
  0
SPLINE
  5
2B7
330
1F
100
AcDbEntity
  8
0
  6
Continuous
 62
     1
370
    15
100
AcDbSpline
210
0.0
220
0.0
230
1.0
 70
     8
 71
     3
 72
    11
 73
     7
 74
     0
 42
0.000000001
 43
0.00000001
 40
0.0
 40
0.0
 40
0.0
 40
0.0
 40
0.1803298183061627
 40
0.4535537280806454
 40
0.7267771304846166
 40
1.0
 40
1.0
 40
1.0
 40
1.0
 10
25.49913207624977
 20
-12.65889557866277
 30
0.0
 10
24.68769953014842
 20
-12.65986791979684
 30
0.0
 10
22.6468376259601
 20
-12.66231348842472
 30
0.0
 10
19.37655013783436
 20
-12.25534680657006
 30
0.0
 10
15.68827178438337
 20
-11.5257903399723
 30
0.0
 10
13.22942312884675
 20
-10.76314708497892
 30
0.0
 10
11.99999999999994
 20
-10.38182582934301
 30
0.0
  0
SPLINE
  5
2B8
330
1F
100
AcDbEntity
  8
0
  6
Continuous
 62
     1
370
    15
100
AcDbSpline
210
0.0
220
0.0
230
1.0
 70
     8
 71
     3
 72
    18
 73
    14
 74
     0
 42
0.000000001
 43
0.00000001
 40
0.0
 40
0.0
 40
0.0
 40
0.0
 40
0.125
 40
0.125
 40
0.25
 40
0.25
 40
0.375
 40
0.375
 40
0.5
 40
0.5
 40
0.75
 40
0.75
 40
1.0
 40
1.0
 40
1.0
 40
1.0
 10
116.775
 20
5.89932198975773
 30
0.0
 10
116.775
 20
5.97826959158234
 30
0.0
 10
116.7642927774985
 20
6.05634113442817
 30
0.0
 10
116.7225310486892
 20
6.212088422976148
 30
0.0
 10
116.690955769748
 20
6.290615888375115
 30
0.0
 10
116.6091525740075
 20
6.444139174890637
 30
0.0
 10
116.5593086629744
 20
6.518951131529878
 30
0.0
 10
116.4426937785283
 20
6.666439639574978
 30
0.0
 10
116.3753966096411
 20
6.739421364193166
 30
0.0
 10
116.1577644329335
 20
6.948303309560337
 30
0.0
 10
115.9862956791417
 20
7.079729578253211
 30
0.0
 10
115.6281989352395
 20
7.313803825198413
 30
0.0
 10
115.4385957643668
 20
7.418825895994004
 30
0.0
 10
115.251
 20
7.506107733588813
 30
0.0
  0
SPLINE
  5
2BA
330
1F
100
AcDbEntity
  8
0
  6
Continuous
 62
     1
370
    15
100
AcDbSpline
210
0.0
220
0.0
230
1.0
 70
     8
 71
     3
 72
    19
 73
    15
 74
     0
 42
0.000000001
 43
0.00000001
 40
0.0
 40
0.0
 40
0.0
 40
0.0
 40
0.089026056736362
 40
0.1780522871074202
 40
0.2670786827984457
 40
0.356105235490418
 40
0.4451319368602422
 40
0.5341587785809617
 40
0.6231857523219784
 40
0.713939758329054
 40
0.8046943609760175
 40
0.8954494450534832
 40
0.9862048952799308
 40
1.0
 40
1.0
 40
1.0
 40
1.0
 10
11.99999999999997
 20
0.145566396537987
 30
0.0
 10
13.22942312969025
 20
-0.5645852659726458
 30
0.0
 10
15.68827178691382
 20
-1.984889976059954
 30
0.0
 10
19.37655012771253
 20
-4.060728822104799
 30
0.0
 10
23.06483645344966
 20
-6.022356358112532
 30
0.0
 10
26.75313108196522
 20
-7.815106099940337
 30
0.0
 10
30.44143134249524
 20
-9.38865234458752
 30
0.0
 10
34.12974511805825
 20
-10.69867488891249
 30
0.0
 10
37.84188907997705
 20
-11.71574489551495
 30
0.0
 10
41.57798698156321
 20
-12.40105172945456
 30
0.0
 10
45.33793093906692
 20
-12.73814412448932
 30
0.0
 10
49.09790546080913
 20
-12.67088236165306
 30
0.0
 10
51.79507173668563
 20
-12.44626033538717
 30
0.0
 10
53.23891357701601
 20
-12.14444560959188
 30
0.0
 10
53.42942379857109
 20
-12.10462214093086
 30
0.0
  0
SPLINE
  5
2BB
330
1F
100
AcDbEntity
  8
0
  6
Continuous
 62
     1
370
    15
100
AcDbSpline
210
0.0
220
0.0
230
1.0
 70
     8
 71
     3
 72
    20
 73
    16
 74
     0
 42
0.000000001
 43
0.00000001
 40
0.0
 40
0.0
 40
0.0
 40
0.0
 40
0.0714797358188902
 40
0.1497263381483904
 40
0.2279727242354614
 40
0.3062187946408353
 40
0.3844644499725486
 40
0.4627095909008292
 40
0.5394657409956373
 40
0.616221777266856
 40
0.6929776925321148
 40
0.769733479612184
 40
0.8464891313311633
 40
0.9232446405166641
 40
0.9999999999999999
 40
0.9999999999999999
 40
0.9999999999999999
 40
0.9999999999999999
 10
60.05273434868585
 20
-12.684295520436
 30
0.0
 10
58.90778893827402
 20
-12.66039508118333
 30
0.0
 10
56.50950805884932
 20
-12.61033158824446
 30
0.0
 10
52.85789619867401
 20
-12.07902095947364
 30
0.0
 10
49.09790534315655
 20
-11.21249459981944
 30
0.0
 10
45.33793097059302
 20
-10.01041289703016
 30
0.0
 10
41.57798697311054
 20
-8.518900428476258
 30
0.0
 10
37.84188908219406
 20
-6.789478976524826
 30
0.0
 10
34.12974511746913
 20
-4.878082081254945
 30
0.0
 10
30.44143134265309
 20
-2.841995762871036
 30
0.0
 10
26.75313108192293
 20
-0.7264630254959954
 30
0.0
 10
23.06483645346103
 20
1.410534741296825
 30
0.0
 10
19.37655012770952
 20
3.504051522684478
 30
0.0
 10
15.68827178691461
 20
5.51404289840098
 30
0.0
 10
13.2294231296905
 20
6.714310902729739
 30
0.0
 10
11.99999999999994
 20
7.314444319649827
 30
0.0
  0
SPLINE
  5
2BC
330
1F
100
AcDbEntity
  8
외형선
  6
Continuous
370
    15
100
AcDbSpline
210
0.0
220
0.0
230
1.0
 70
    24
 71
     3
 72
    15
 73
    11
 74
     0
 42
0.000000001
 43
0.00000001
 40
0.0
 40
0.0
 40
0.0
 40
0.0
 40
0.1100708537628816
 40
0.2407026378472515
 40
0.371334421931625
 40
0.5019662060159988
 40
0.6325979901003712
 40
0.7632297741847434
 40
0.8938615582691176
 40
1.0
 40
1.0
 40
1.0
 40
1.0
 10
11.99999999999991
 20
7.314444319649997
 30
0.0
 10
11.99999999999997
 20
7.126578662152639
 30
0.0
 10
12.00000000000006
 20
6.715754563177839
 30
0.0
 10
11.99999999999991
 20
5.716731148476317
 30
0.0
 10
11.99999999999997
 20
4.483538963841628
 30
0.0
 10
11.99999999999991
 20
3.179241226533932
 30
0.0
 10
12.0
 20
1.955362563100017
 30
0.0
 10
11.99999999999991
 20
0.9632723648476045
 30
0.0
 10
11.99999999999997
 20
0.3009551561867028
 30
0.0
 10
11.99999999999997
 20
0.193863798492842
 30
0.0
 10
11.99999999999997
 20
0.1458572985651898
 30
0.0
  0
LINE
  5
2BD
330
1F
100
AcDbEntity
  8
외형선
  6
Continuous
370
    15
100
AcDbLine
 10
11.99999999999997
 20
7.314444319649837
 30
0.0
 11
11.99999999999994
 21
9.082920714200952
 31
0.0
  0
LINE
  5
2BE
330
1F
100
AcDbEntity
  8
외형선
  6
Continuous
370
    15
100
AcDbLine
 10
11.99999999999997
 20
12.51422755278585
 30
0.0
 11
11.99999999999997
 21
12.70107492872389
 31
0.0
  0
SPLINE
  5
2BF
330
1F
100
AcDbEntity
  8
0
  6
Continuous
 62
     1
370
    15
100
AcDbSpline
210
0.0
220
0.0
230
1.0
 70
     8
 71
     3
 72
    10
 73
     6
 74
     0
 42
0.000000001
 43
0.00000001
 40
0.0
 40
0.0
 40
0.0
 40
0.0
 40
0.4135093533485432
 40
0.827005924895245
 40
1.0
 40
1.0
 40
1.0
 40
1.0
 10
115.2509999999999
 20
12.55239732071937
 30
0.0
 10
113.8732719822202
 20
12.62618327911853
 30
0.0
 10
111.1178585329928
 20
12.77375291515224
 30
0.0
 10
107.7860570119899
 20
12.56367664728041
 30
0.0
 10
105.8320503285358
 20
12.18826817391258
 30
0.0
 10
105.2556872085395
 20
12.07753590220877
 30
0.0
  0
SPLINE
  5
2C0
330
1F
100
AcDbEntity
  8
0
  6
Continuous
 62
     1
370
    15
100
AcDbSpline
210
0.0
220
0.0
230
1.0
 70
     8
 71
     3
 72
    16
 73
    12
 74
     0
 42
0.000000001
 43
0.00000001
 40
0.0
 40
0.0
 40
0.0
 40
0.0
 40
0.0388768821425653
 40
0.1610521387996821
 40
0.2809024224925818
 40
0.400752528456538
 40
0.5206024454766949
 40
0.6404521623431008
 40
0.7603016678510033
 40
0.8801509508011326
 40
1.0
 40
1.0
 40
1.0
 40
1.0
 10
42.77440595493104
 20
-12.65871102619199
 30
0.0
 10
42.37559596427192
 20
-12.67001969728747
 30
0.0
 10
40.72347783054946
 20
-12.71686722122804
 30
0.0
 10
37.84188879355273
 20
-12.42399314352702
 30
0.0
 10
34.1297451941812
 20
-11.79003656193368
 30
0.0
 10
30.44143132209817
 20
-10.80377954914135
 30
0.0
 10
26.75313108743049
 20
-9.521264387342207
 30
0.0
 10
23.06483645198577
 20
-7.970137705722209
 30
0.0
 10
19.37655012810293
 20
-6.194758377500854
 30
0.0
 10
15.68827178681622
 20
-4.249839415497227
 30
0.0
 10
13.2294231296577
 20
-2.862887031682931
 30
0.0
 10
11.99999999999994
 20
-2.169411516046381
 30
0.0
  0
LINE
  5
2C1
330
1F
100
AcDbEntity
  8
외형선
  6
Continuous
370
    15
100
AcDbLine
 10
11.99999999999997
 20
-2.169411516046438
 30
0.0
 11
11.99999999999997
 21
0.145566396537987
 31
0.0
  0
LINE
  5
2C2
330
1F
100
AcDbEntity
  8
외형선
  6
Continuous
370
    15
100
AcDbLine
 10
11.99999999999997
 20
-12.69892507127614
 30
0.0
 11
11.99999999999997
 21
-12.6981030846646
 31
0.0
  0
LINE
  5
2C3
330
1F
100
AcDbEntity
  8
0
  6
Continuous
 62
     1
370
    15
100
AcDbLine
 10
116.775
 20
-2.540672942274114
 30
0.0
 11
116.775
 21
-0.3605461777620391
 31
0.0
  0
LINE
  5
2C4
330
1F
100
AcDbEntity
  8
0
  6
Continuous
 62
     1
370
    15
100
AcDbLine
 10
116.775
 20
7.643857584492871
 30
0.0
 11
116.775
 21
10.88420378766315
 31
0.0
  0
SPLINE
  5
2C5
330
1F
100
AcDbEntity
  8
0
  6
Continuous
 62
     1
370
    15
100
AcDbSpline
210
0.0
220
0.0
230
1.0
 70
     8
 71
     3
 72
    18
 73
    14
 74
     0
 42
0.000000001
 43
0.00000001
 40
0.0
 40
0.0
 40
0.0
 40
0.0
 40
0.2499999999999989
 40
0.2499999999999989
 40
0.4999999999999979
 40
0.4999999999999979
 40
0.6249999999999982
 40
0.6249999999999982
 40
0.7499999999999986
 40
0.7499999999999986
 40
0.874999999999999
 40
0.874999999999999
 40
1.0
 40
1.0
 40
1.0
 40
1.0
 10
115.2509999999999
 20
9.246306838828751
 30
0.0
 10
115.4396836843335
 20
9.171697437865777
 30
0.0
 10
115.620774733571
 20
9.07078854879433
 30
0.0
 10
115.9723203266146
 20
8.82144638907559
 30
0.0
 10
116.1336304871459
 20
8.679578904553786
 30
0.0
 10
116.3535716503762
 20
8.44428641055486
 30
0.0
 10
116.421366266713
 20
8.36377047149503
 30
0.0
 10
116.5427929908629
 20
8.202365053161245
 30
0.0
 10
116.5971774228956
 20
8.120139774746303
 30
0.0
 10
116.6844794211236
 20
7.965458002794122
 30
0.0
 10
116.7186262756532
 20
7.891119888801523
 30
0.0
 10
116.764095457072
 20
7.755310949556787
 30
0.0
 10
116.7749999999998
 20
7.695715048853412
 30
0.0
 10
116.7749999999998
 20
7.643857584492871
 30
0.0
  0
SPLINE
  5
2C6
330
1F
100
AcDbEntity
  8
0
  6
Continuous
 62
     1
370
    15
100
AcDbSpline
210
0.0
220
0.0
230
1.0
 70
     8
 71
     3
 72
    14
 73
    10
 74
     0
 42
0.000000001
 43
0.00000001
 40
0.0
 40
0.0
 40
0.0
 40
0.0
 40
0.1527204906228448
 40
0.3054412791087746
 40
0.4581623511942194
 40
0.6108836926082464
 40
0.7636052890729319
 40
0.9163271263037318
 40
1.0
 40
1.0
 40
1.0
 40
1.0
 10
11.99999999999994
 20
-8.876429063323272
 30
0.0
 10
13.22942313147823
 20
-9.359926913425213
 30
0.0
 10
15.68827179227782
 20
-10.32692355663394
 30
0.0
 10
19.3765501062563
 20
-11.42131371767476
 30
0.0
 10
23.06483653391078
 20
-12.21203546681176
 30
0.0
 10
26.75313078157617
 20
-12.65980901707186
 30
0.0
 10
30.44143246359269
 20
-12.73734678232405
 30
0.0
 10
33.57388346805433
 20
-12.55146938947733
 30
0.0
 10
35.47690093628663
 20
-12.20710722370808
 30
0.0
 10
36.15048174372831
 20
-12.08521882828169
 30
0.0
  0
SPLINE
  5
2C7
330
1F
100
AcDbEntity
  8
0
  6
Continuous
 62
     1
370
    15
100
AcDbSpline
210
0.0
220
0.0
230
1.0
 70
     8
 71
     3
 72
    12
 73
     8
 74
     0
 42
0.000000001
 43
0.00000001
 40
0.0
 40
0.0
 40
0.0
 40
0.0
 40
0.0052617204455863
 40
0.253896989257518
 40
0.502577698833298
 40
0.7512850054579203
 40
1.0
 40
1.0
 40
1.0
 40
1.0
 10
98.63325158817995
 20
12.69644607191654
 30
0.0
 10
98.66239578906047
 20
12.69798502008862
 30
0.0
 10
100.068708597658
 20
12.77224482000683
 30
0.0
 10
102.8525055708169
 20
12.50947055765695
 30
0.0
 10
106.9849145981533
 20
11.87102625064462
 30
0.0
 10
111.1178543231531
 20
10.78543042618637
 30
0.0
 10
113.873270578926
 20
9.759353320797729
 30
0.0
 10
115.251
 20
9.246306838828755
 30
0.0
  0
SPLINE
  5
2C8
330
1F
100
AcDbEntity
  8
0
  6
Continuous
 62
     1
370
    15
100
AcDbSpline
210
0.0
220
0.0
230
1.0
 70
     8
 71
     3
 72
    18
 73
    14
 74
     0
 42
0.000000001
 43
0.00000001
 40
0.0
 40
0.0
 40
0.0
 40
0.0
 40
0.125
 40
0.125
 40
0.2499999999999999
 40
0.2499999999999999
 40
0.3749999999999999
 40
0.3749999999999999
 40
0.4999999999999999
 40
0.4999999999999999
 40
0.7499999999999999
 40
0.7499999999999999
 40
1.0
 40
1.0
 40
1.0
 40
1.0
 10
116.775
 20
10.88420378766315
 30
0.0
 10
116.775
 20
10.99256898526547
 30
0.0
 10
116.7642927774986
 20
11.09908815826934
 30
0.0
 10
116.7225310486893
 20
11.30852447470835
 30
0.0
 10
116.6909557697481
 20
11.41253820056902
 30
0.0
 10
116.6091525740075
 20
11.61052173503675
 30
0.0
 10
116.5593086629742
 20
11.70430879808884
 30
0.0
 10
116.4426937785282
 20
11.88167555862069
 30
0.0
 10
116.3753966096411
 20
11.96548521825986
 30
0.0
 10
116.1577644329334
 20
12.19115434421553
 30
0.0
 10
115.9862956791418
 20
12.3128994521073
 30
0.0
 10
115.6281989352396
 20
12.48414977285816
 30
0.0
 10
115.4385957643669
 20
12.53589034385914
 30
0.0
 10
115.251
 20
12.55239732071937
 30
0.0
  0
SPLINE
  5
2C9
330
1F
100
AcDbEntity
  8
외형선
  6
Continuous
370
    15
100
AcDbSpline
210
0.0
220
0.0
230
1.0
 70
    24
 71
     3
 72
    15
 73
    11
 74
     0
 42
0.000000001
 43
0.00000001
 40
0.0
 40
0.0
 40
0.0
 40
0.0
 40
0.0887974835953199
 40
0.2272817349894104
 40
0.3657659863835014
 40
0.5042502377775908
 40
0.6427344891716801
 40
0.7812187405657717
 40
0.919702991959861
 40
1.0
 40
1.0
 40
1.0
 40
1.0
 10
12.0
 20
-2.035640241614935
 30
0.0
 10
11.99999999999997
 20
-2.05600733931719
 30
0.0
 10
11.99999999999991
 20
-2.108137975401014
 30
0.0
 10
12.00000000000003
 20
-2.671050201565819
 30
0.0
 10
11.99999999999991
 20
-3.597068830049949
 30
0.0
 10
11.99999999999997
 20
-4.786418641841472
 30
0.0
 10
11.99999999999991
 20
-6.084943643550659
 30
0.0
 10
11.99999999999997
 20
-7.345414217023254
 30
0.0
 10
12.00000000000003
 20
-8.294529888099241
 30
0.0
 10
11.99999999999997
 20
-8.720199848990546
 30
0.0
 10
11.99999999999994
 20
-8.876429063323272
 30
0.0
  0
LINE
  5
2CA
330
1F
100
AcDbEntity
  8
0
  6
Continuous
 62
     1
370
    15
100
AcDbLine
 10
116.775
 20
5.899321989757734
 30
0.0
 11
116.775
 21
7.643857584492871
 31
0.0
  0
LINE
  5
2CB
330
1F
100
AcDbEntity
  8
외형선
  6
Continuous
370
    15
100
AcDbLine
 10
11.99999999999997
 20
-10.38182582934301
 30
0.0
 11
11.99999999999997
 21
-8.876429063323265
 31
0.0
  0
LINE
  5
2CC
330
1F
100
AcDbEntity
  8
0
  6
Continuous
 62
     1
370
    15
100
AcDbLine
 10
116.775
 20
-9.491746443608271
 30
0.0
 11
116.775
 21
-8.153117200277975
 31
0.0
  0
LINE
  5
2CD
330
1F
100
AcDbEntity
  8
0
  6
Continuous
 62
     1
370
    15
100
AcDbLine
 10
116.775
 20
10.88420378766315
 30
0.0
 11
116.7749999999999
 21
11.93907492872391
 31
0.0
  0
LINE
  5
2CE
330
1F
100
AcDbEntity
  8
외형선
  6
Continuous
370
    15
100
AcDbLine
 10
11.49991915307871
 20
-12.69152885182378
 30
0.0
 11
11.49991915307871
 21
-10.2127284292871
 31
0.0
  0
SPLINE
  5
2CF
330
1F
100
AcDbEntity
  8
외형선
  6
Continuous
370
    15
100
AcDbSpline
210
0.0
220
0.0
230
1.0
 70
     8
 71
     3
 72
     8
 73
     4
 74
     0
 42
0.000000001
 43
0.00000001
 40
0.0
 40
0.0
 40
0.0
 40
0.0
 40
1.0
 40
1.0
 40
1.0
 40
1.0
 10
11.99999999999997
 20
-12.69810308466458
 30
0.0
 10
11.83314033548371
 20
-12.69700687628234
 30
0.0
 10
11.66642525095452
 20
-12.6948144439454
 30
0.0
 10
11.49991915307874
 20
-12.69152895967415
 30
0.0
  0
SPLINE
  5
2D0
330
1F
100
AcDbEntity
  8
외형선
  6
Continuous
370
    15
100
AcDbSpline
210
0.0
220
0.0
230
1.0
 70
     8
 71
     3
 72
     8
 73
     4
 74
     0
 42
0.000000001
 43
0.00000001
 40
0.0
 40
0.0
 40
0.0
 40
0.0
 40
1.0
 40
1.0
 40
1.0
 40
1.0
 10
11.99999999999997
 20
12.51422755278585
 30
0.0
 10
11.83314033548371
 20
12.53069430663835
 30
0.0
 10
11.66642525095452
 20
12.54607582761421
 30
0.0
 10
11.49991915307871
 20
12.56036844288823
 30
0.0
  0
LINE
  5
2D1
330
1F
100
AcDbEntity
  8
외형선
  6
Continuous
370
    15
100
AcDbLine
 10
11.49991915307871
 20
9.282539764588378
 30
0.0
 11
11.49991915307871
 21
12.56037527369408
 31
0.0
  0
SPLINE
  5
2D2
330
1F
100
AcDbEntity
  8
외형선
  6
Continuous
370
    15
100
AcDbSpline
210
0.0
220
0.0
230
1.0
 70
     8
 71
     3
 72
     8
 73
     4
 74
     0
 42
0.000000001
 43
0.00000001
 40
0.0
 40
0.0
 40
0.0
 40
0.0
 40
1.0
 40
1.0
 40
1.0
 40
1.0
 10
11.99999999999997
 20
9.082920714200945
 30
0.0
 10
11.83314033548371
 20
9.150271364288557
 30
0.0
 10
11.66642525095452
 20
9.21681837185428
 30
0.0
 10
11.49991915307874
 20
9.28253760727555
 30
0.0
  0
SPLINE
  5
2D3
330
1F
100
AcDbEntity
  8
외형선
  6
Continuous
370
    15
100
AcDbSpline
210
0.0
220
0.0
230
1.0
 70
     8
 71
     3
 72
     8
 73
     4
 74
     0
 42
0.000000001
 43
0.00000001
 40
0.0
 40
0.0
 40
0.0
 40
0.0
 40
1.0
 40
1.0
 40
1.0
 40
1.0
 10
11.99999999999997
 20
7.314444319649816
 30
0.0
 10
11.83314033548371
 20
7.39321591090761
 30
0.0
 10
11.66642525095452
 20
7.471333264844926
 30
0.0
 10
11.49991915307871
 20
7.548767444317715
 30
0.0
  0
SPLINE
  5
2D4
330
1F
100
AcDbEntity
  8
외형선
  6
Continuous
370
    15
100
AcDbSpline
210
0.0
220
0.0
230
1.0
 70
     8
 71
     3
 72
     8
 73
     4
 74
     0
 42
0.000000001
 43
0.00000001
 40
0.0
 40
0.0
 40
0.0
 40
0.0
 40
1.0
 40
1.0
 40
1.0
 40
1.0
 10
11.99999999999997
 20
0.1455663965379941
 30
0.0
 10
11.83314033548371
 20
0.2419108077087699
 30
0.0
 10
11.66642525095452
 20
0.3382149206804996
 30
0.0
 10
11.49991915307874
 20
0.4344414389933107
 30
0.0
  0
SPLINE
  5
2D5
330
1F
100
AcDbEntity
  8
외형선
  6
Continuous
370
    15
100
AcDbSpline
210
0.0
220
0.0
230
1.0
 70
     8
 71
     3
 72
     8
 73
     4
 74
     0
 42
0.000000001
 43
0.00000001
 40
0.0
 40
0.0
 40
0.0
 40
0.0
 40
1.0
 40
1.0
 40
1.0
 40
1.0
 10
11.99999999999997
 20
-2.169411516046381
 30
0.0
 10
11.83314033548371
 20
-2.074478417212397
 30
0.0
 10
11.66642525095452
 20
-1.979385316793419
 30
0.0
 10
11.49991915307871
 20
-1.884169465265785
 30
0.0
  0
LINE
  5
2D6
330
1F
100
AcDbEntity
  8
외형선
  6
Continuous
370
    15
100
AcDbLine
 10
11.49991915307871
 20
-8.667512643690173
 30
0.0
 11
11.49991915307871
 21
-1.884123958617039
 31
0.0
  0
SPLINE
  5
2D7
330
1F
100
AcDbEntity
  8
외형선
  6
Continuous
370
    15
100
AcDbSpline
210
0.0
220
0.0
230
1.0
 70
     8
 71
     3
 72
     8
 73
     4
 74
     0
 42
0.000000001
 43
0.00000001
 40
0.0
 40
0.0
 40
0.0
 40
0.0
 40
1.0
 40
1.0
 40
1.0
 40
1.0
 10
11.99999999999997
 20
-8.876429063323272
 30
0.0
 10
11.83314033548371
 20
-8.807528140474318
 30
0.0
 10
11.66642525095452
 20
-8.737880565363106
 30
0.0
 10
11.49991915307874
 20
-8.667514953526464
 30
0.0
  0
SPLINE
  5
2D8
330
1F
100
AcDbEntity
  8
외형선
  6
Continuous
370
    15
100
AcDbSpline
210
0.0
220
0.0
230
1.0
 70
     8
 71
     3
 72
     8
 73
     4
 74
     0
 42
0.000000001
 43
0.00000001
 40
0.0
 40
0.0
 40
0.0
 40
0.0
 40
1.0
 40
1.0
 40
1.0
 40
1.0
 10
11.99999999999997
 20
-10.38182582934301
 30
0.0
 10
11.83314033548371
 20
-10.32634174471168
 30
0.0
 10
11.66642525095452
 20
-10.26997714634837
 30
0.0
 10
11.49991915307871
 20
-10.21275577723787
 30
0.0
  0
LINE
  5
2D9
330
1F
100
AcDbEntity
  8
외형선
  6
Continuous
370
    15
100
AcDbLine
 10
-58.48500000000004
 20
0.0010749287238809
 30
0.0
 11
-58.48500000000004
 21
12.70107492872388
 31
0.0
  0
LINE
  5
2DA
330
1F
100
AcDbEntity
  8
외형선
  6
Continuous
370
    15
100
AcDbLine
 10
-58.48500000000004
 20
-12.69892507127612
 30
0.0
 11
-58.48500000000004
 21
0.0010749287238809
 31
0.0
  0
LINE
  5
2DB
330
1F
100
AcDbEntity
  8
외형선
  6
Continuous
370
    15
100
AcDbLine
 10
11.49991915307871
 20
0.4344445977447435
 30
0.0
 11
11.49991915307871
 21
7.54880445248677
 31
0.0
  0
LINE
  5
2DC
330
1F
100
AcDbEntity
  8
외형선
  6
Continuous
370
    15
100
AcDbLine
 10
-61.02500000000006
 20
0.0010749287238809
 30
0.0
 11
-61.02500000000006
 21
10.1610749287239
 31
0.0
  0
LINE
  5
2DD
330
1F
100
AcDbEntity
  8
외형선
  6
Continuous
370
    15
100
AcDbLine
 10
-61.02500000000006
 20
-10.15892507127612
 30
0.0
 11
-61.02500000000006
 21
0.0010749287238809
 31
0.0
  0
SPLINE
  5
2DE
330
1F
100
AcDbEntity
  8
외형선
  6
Continuous
370
    15
100
AcDbSpline
210
0.0
220
0.0
230
1.0
 70
    24
 71
     3
 72
    16
 73
    12
 74
     0
 42
0.000000001
 43
0.00000001
 40
0.0
 40
0.0
 40
0.0
 40
0.0
 40
0.0340494305550352
 40
0.1648854267192564
 40
0.2957214228834766
 40
0.4265574190476965
 40
0.5573934152119177
 40
0.6882294113761379
 40
0.8190654075403613
 40
0.9499014037045822
 40
1.0
 40
1.0
 40
1.0
 40
1.0
 10
11.99999999999991
 20
0.1565177023919908
 30
0.0
 10
11.99999999999994
 20
0.1552867726659848
 30
0.0
 10
11.99999999999991
 20
0.1493259571743515
 30
0.0
 10
11.99999999999991
 20
0.5681345490330223
 30
0.0
 10
12.00000000000009
 20
1.375485657507642
 30
0.0
 10
11.99999999999997
 20
2.501625875583592
 30
0.0
 10
12.0
 20
3.7767822026263
 30
0.0
 10
11.99999999999991
 20
5.070086340413631
 30
0.0
 10
11.99999999999997
 20
6.226953673288563
 30
0.0
 10
12.00000000000009
 20
6.951520897521096
 30
0.0
 10
11.99999999999994
 20
7.235745868959295
 30
0.0
 10
11.99999999999991
 20
7.314444319640227
 30
0.0
  0
SPLINE
  5
2DF
330
1F
100
AcDbEntity
  8
외형선
  6
Continuous
370
    15
100
AcDbSpline
210
0.0
220
0.0
230
1.0
 70
    24
 71
     3
 72
    16
 73
    12
 74
     0
 42
0.000000001
 43
0.00000001
 40
0.0
 40
0.0
 40
0.0
 40
0.0
 40
0.005295173001708
 40
0.1437199260503862
 40
0.2821446790990642
 40
0.4205694321477412
 40
0.5589941851964179
 40
0.6974189382450958
 40
0.8358436912937729
 40
0.9742684443424531
 40
1.0
 40
1.0
 40
1.0
 40
1.0
 10
11.99999999999997
 20
-8.876429063323272
 30
0.0
 10
11.99999999999997
 20
-8.86685061054483
 30
0.0
 10
11.99999999999983
 20
-8.606875247218454
 30
0.0
 10
11.99999999999997
 20
-7.965614610338733
 30
0.0
 10
11.99999999999989
 20
-6.7809032924959
 30
0.0
 10
12.00000000000006
 20
-5.481644275809224
 30
0.0
 10
11.99999999999997
 20
-4.219471268297923
 30
0.0
 10
12.0
 20
-3.123318447455375
 30
0.0
 10
11.99999999999991
 20
-2.365081637176473
 30
0.0
 10
12.0
 20
-1.990040946026987
 30
0.0
 10
11.99999999999997
 20
-2.014581280588942
 30
0.0
 10
11.99999999999997
 20
-2.018427986144232
 30
0.0
  0
SPLINE
  5
2E0
330
1F
100
AcDbEntity
  8
외형선
  6
Continuous
370
    15
100
AcDbSpline
210
0.0
220
0.0
230
1.0
 70
    24
 71
     3
 72
    11
 73
     7
 74
     0
 42
0.000000001
 43
0.00000001
 40
0.0
 40
0.0
 40
0.0
 40
0.0
 40
0.1218006117593432
 40
0.4903411219416552
 40
0.8588816321239608
 40
1.0
 40
1.0
 40
1.0
 40
1.0
 10
11.99999999999997
 20
9.207681313476233
 30
0.0
 10
11.99999999999997
 20
9.317184134013992
 30
0.0
 10
11.99999999999997
 20
9.758017189798235
 30
0.0
 10
11.99999999999994
 20
10.76108609742804
 30
0.0
 10
12.00000000000006
 20
11.78961539191478
 30
0.0
 10
11.99999999999994
 20
12.35709838741555
 30
0.0
 10
11.99999999999991
 20
12.51422755276545
 30
0.0
  0
SPLINE
  5
2E1
330
1F
100
AcDbEntity
  8
외형선
  6
Continuous
370
    15
100
AcDbSpline
210
0.0
220
0.0
230
1.0
 70
    24
 71
     3
 72
    10
 73
     6
 74
     0
 42
0.000000001
 43
0.00000001
 40
0.0
 40
0.0
 40
0.0
 40
0.0
 40
0.0217449633611637
 40
0.5901949804523395
 40
1.0
 40
1.0
 40
1.0
 40
1.0
 10
11.99999999999997
 20
-12.69810308466458
 30
0.0
 10
11.99999999999997
 20
-12.68199824673756
 30
0.0
 10
11.9999999999998
 20
-12.24488578314495
 30
0.0
 10
11.99999999999997
 20
-11.4648350303573
 30
0.0
 10
11.99999999999997
 20
-10.7894957200549
 30
0.0
 10
11.99999999999991
 20
-10.5065864286183
 30
0.0
  0
LINE
  5
2E2
330
1F
100
AcDbEntity
  8
중심선
100
AcDbLine
 10
-64.02500000000003
 20
0.001074928723888
 30
0.0
 11
119.775
 21
0.0010749287239094
 31
0.0
  0
CIRCLE
  5
2E3
330
1F
100
AcDbEntity
  8
해칭선
100
AcDbCircle
 10
0.0
 20
0.0
 30
0.0
 40
3.000000000000002
  0
DIMENSION
  5
2E4
330
1F
100
AcDbEntity
  8
치수문자_일반주서
100
AcDbDimension
  2
*D12
 10
131.4456355631023
 20
-12.69892507127604
 30
0.0
 11
131.4456355631021
 21
34.18796562434829
 31
0.0
 70
   160
  1
%%c<>
 71
     2
 42
25.4
 52
-270.0
  3
SLDDIMSTYLE0
100
AcDbAlignedDimension
 13
116.7749999999999
 23
12.70107492872391
 33
0.0
 14
116.7749999999999
 24
-12.69892507127609
 34
0.0
 50
90.0000000000002
100
AcDbRotatedDimension
1001
ACAD
1000
DSTYLE
1002
{
1070
   171
1070
     6
1070
   273
1070
     7
1002
}
  0
DIMENSION
  5
2E5
330
1F
100
AcDbEntity
  8
치수문자_일반주서
100
AcDbDimension
  2
*D13
 10
-67.39
 20
-12.69892507127614
 30
0.0
 11
-67.39000000000004
 21
0.0010749287238667
 31
0.0
 70
   160
  1
%%c<>
 71
     2
 42
25.39999999999998
 52
-270.0
  3
SLDDIMSTYLE0
100
AcDbAlignedDimension
 13
-58.48500000000004
 23
12.70107492872387
 33
0.0
 14
-58.48500000000004
 24
-12.69892507127611
 34
0.0
 50
90.0000000000002
100
AcDbRotatedDimension
1001
ACAD
1000
DSTYLE
1002
{
1070
   171
1070
     6
1070
   273
1070
     7
1002
}
  0
DIMENSION
  5
2E6
330
1F
100
AcDbEntity
  8
치수문자_일반주서
100
AcDbDimension
  2
*D14
 10
11.99999999999997
 20
40.64198500996288
 30
0.0
 11
70.89795345249999
 21
40.64198500996288
 31
0.0
 70
   160
  1
<>
 71
     2
 42
104.7749999999999
  3
SLDDIMSTYLE0
100
AcDbAlignedDimension
 13
116.7749999999999
 23
12.70107492872391
 33
0.0
 14
11.99999999999997
 24
12.70107492872388
 34
0.0
 50
0.0000000000000039
100
AcDbRotatedDimension
1001
ACAD
1000
DSTYLE
1002
{
1070
   171
1070
     6
1070
   273
1070
     7
1002
}
  0
DIMENSION
  5
2E7
330
1F
100
AcDbEntity
  8
치수문자_일반주서
100
AcDbDimension
  2
*D15
 10
116.7749999999999
 20
55.87576202930138
 30
0.0
 11
29.79013200050136
 21
55.87576202930138
 31
0.0
 70
   160
  1
<>
 71
     2
 42
177.8
  3
SLDDIMSTYLE0
100
AcDbAlignedDimension
 13
-61.02500000000006
 23
10.16107492872388
 33
0.0
 14
116.7749999999999
 24
12.70107492872391
 34
0.0
 50
-0.0000000000000046
100
AcDbRotatedDimension
1001
ACAD
1000
DSTYLE
1002
{
1070
   171
1070
     6
1070
   273
1070
     7
1002
}
  0
INSERT
  5
2E8
330
1F
100
AcDbEntity
  8
해칭선
100
AcDbBlockReference
  2
SW_DOWELSYMBOL_0
 10
0.0
 20
0.0
 30
0.0
  0
ARC
  5
320
330
1F
100
AcDbEntity
  8
0
  6
Continuous
 62
     1
370
    15
100
AcDbCircle
 10
116.0129999999999
 20
11.93907492872391
 30
0.0
 40
0.7619999999999998
100
AcDbArc
 50
0.0
 51
90.0
  0
ARC
  5
322
102
{ACAD_REACTORS
102
}
330
1F
100
AcDbEntity
  8
0
  6
Continuous
 62
     1
370
    15
100
AcDbCircle
 10
116.0129999999999
 20
-11.93692507127609
 30
0.0
 40
0.7619999999999998
100
AcDbArc
 50
270.0
 51
0.0
  0
DIMENSION
  5
327
102
{ACAD_REACTORS
102
}
102
{ACAD_XDICTIONARY
360
328
102
}
330
1F
100
AcDbEntity
  8
치수문자_일반주서
100
AcDbDimension
  2
*D16
 10
116.0129999999999
 20
-11.93692507127609
 30
0.0
 11
123.3109910256531
 21
-35.70785864548569
 31
0.0
 70
   164
  1
<>
 71
     5
 42
0.7619999999999973
  3
SLDDIMSTYLE0
100
AcDbRadialDimension
 15
116.2366414848204
 25
-12.66536757845649
 35
0.0
 40
0.0
1001
ACAD
1000
DSTYLE
1002
{
1070
   171
1070
     3
1070
   273
1070
     2
1002
}
1001
ACAD_DSTYLE_DIMRADIAL_EXTENSION
1070
   387
1070
     1
1070
   388
1040
4.71238898038469
1070
   390
1040
0.0
  0
ENDSEC
  0
SECTION
  2
OBJECTS
  0
DICTIONARY
  5
C
330
0
100
AcDbDictionary
281
     1
  3
ACAD_GROUP
350
D
  3
ACAD_IMAGE_VARS
350
180
  3
ACAD_LAYOUT
350
1A
  3
ACAD_MLINESTYLE
350
17
  3
ACAD_PLOTSETTINGS
350
19
  3
ACAD_PLOTSTYLENAME
350
E
  3
ACAD_SCALELIST
350
47
  3
APPDATA
350
17E
  3
DWGPROPS
350
334
  0
DICTIONARY
  5
24F
330
2
100
AcDbDictionary
280
     1
281
     1
  3
ACAD_LAYERSTATES
360
250
  0
DICTIONARY
  5
328
330
327
100
AcDbDictionary
280
     1
281
     1
  0
DICTIONARY
  5
D
102
{ACAD_REACTORS
330
C
102
}
330
C
100
AcDbDictionary
281
     1
  0
RASTERVARIABLES
  5
180
102
{ACAD_REACTORS
330
C
102
}
330
C
100
AcDbRasterVariables
 90
        0
 70
     1
 71
     1
 72
     1
  0
DICTIONARY
  5
1A
102
{ACAD_REACTORS
330
C
102
}
330
C
100
AcDbDictionary
281
     1
  3
Layout1
350
1E
  3
Layout2
350
26
  3
Model
350
22
  0
DICTIONARY
  5
17
102
{ACAD_REACTORS
330
C
102
}
330
C
100
AcDbDictionary
281
     1
  3
Standard
350
18
  0
DICTIONARY
  5
19
102
{ACAD_REACTORS
330
C
102
}
330
C
100
AcDbDictionary
281
     1
  0
ACDBDICTIONARYWDFLT
  5
E
102
{ACAD_REACTORS
330
C
102
}
330
C
100
AcDbDictionary
281
     1
  3
Normal
350
F
100
AcDbDictionaryWithDefault
340
F
  0
DICTIONARY
  5
47
102
{ACAD_REACTORS
330
C
102
}
330
C
100
AcDbDictionary
281
     1
  3
A0
350
48
  3
A1
350
49
  3
A2
350
4A
  3
A3
350
4B
  3
A4
350
4C
  3
A5
350
4D
  3
A6
350
4E
  3
A7
350
4F
  3
A8
350
50
  3
A9
350
51
  3
B0
350
52
  3
B1
350
53
  3
B2
350
54
  3
B3
350
55
  3
B4
350
56
  3
B5
350
57
  3
B6
350
58
  3
B7
350
59
  3
B8
350
5A
  3
B9
350
5B
  3
C0
350
5C
  3
C1
350
5D
  3
C2
350
5E
  3
C3
350
5F
  3
C4
350
60
  3
C5
350
61
  3
C6
350
62
  3
C7
350
63
  3
C8
350
64
  3
C9
350
65
  3
D0
350
66
  3
D1
350
67
  3
D2
350
68
  0
DICTIONARY
  5
17E
102
{ACAD_REACTORS
330
C
102
}
330
C
100
AcDbDictionary
281
     1
  0
XRECORD
  5
334
102
{ACAD_REACTORS
330
C
102
}
330
C
100
AcDbXrecord
280
     1
  1
DWGPROPS COOKIE
  2

  3

  4

  6

  7

  8
12017012
  9

300
=
301
=
302
=
303
=
304
=
305
=
306
=
307
=
308
=
309
=
 40
0.0
 41
2458295.136791516
 42
2458295.495583403
  1

 90
        0
  0
DICTIONARY
  5
250
102
{ACAD_REACTORS
330
24F
102
}
330
24F
100
AcDbDictionary
281
     1
  0
LAYOUT
  5
1E
102
{ACAD_REACTORS
330
1A
102
}
330
1A
100
AcDbPlotSettings
  1

  2
none_device
  4

  6

 40
0.0
 41
0.0
 42
0.0
 43
0.0
 44
0.0
 45
0.0
 46
0.0
 47
0.0
 48
0.0
 49
0.0
140
0.0
141
0.0
142
1.0
143
1.0
 70
   688
 72
     1
 73
     0
 74
     5
  7

 75
    16
147
1.0
148
0.0
149
0.0
100
AcDbLayout
  1
Layout1
 70
     1
 71
     1
 10
0.0
 20
0.0
 11
420.0
 21
297.0
 12
0.0
 22
0.0
 32
0.0
 14
1.000000000000000E+20
 24
1.000000000000000E+20
 34
1.000000000000000E+20
 15
-1.000000000000000E+20
 25
-1.000000000000000E+20
 35
-1.000000000000000E+20
146
0.0
 13
0.0
 23
0.0
 33
0.0
 16
1.0
 26
0.0
 36
0.0
 17
0.0
 27
1.0
 37
0.0
 76
     0
330
1B
  0
LAYOUT
  5
26
102
{ACAD_REACTORS
330
1A
102
}
330
1A
100
AcDbPlotSettings
  1

  2
none_device
  4

  6

 40
0.0
 41
0.0
 42
0.0
 43
0.0
 44
0.0
 45
0.0
 46
0.0
 47
0.0
 48
0.0
 49
0.0
140
0.0
141
0.0
142
1.0
143
1.0
 70
   688
 72
     1
 73
     0
 74
     5
  7

 75
    16
147
1.0
148
0.0
149
0.0
100
AcDbLayout
  1
Layout2
 70
     1
 71
     2
 10
0.0
 20
0.0
 11
0.0
 21
0.0
 12
0.0
 22
0.0
 32
0.0
 14
0.0
 24
0.0
 34
0.0
 15
0.0
 25
0.0
 35
0.0
146
0.0
 13
0.0
 23
0.0
 33
0.0
 16
1.0
 26
0.0
 36
0.0
 17
0.0
 27
1.0
 37
0.0
 76
     0
330
23
  0
LAYOUT
  5
22
102
{ACAD_REACTORS
330
1A
102
}
330
1A
100
AcDbPlotSettings
  1

  2
none_device
  4
ANSI_A_(11.00_x_8.50_Inches)
  6

 40
6.35
 41
19.05
 42
6.35000508
 43
19.05000254
 44
279.4
 45
215.9
 46
98.2134786473599
 47
77.75379676061014
 48
0.0
 49
0.0
140
0.0
141
0.0
142
0.0550117020125572
143
1.0
 70
  1696
 72
     0
 73
     0
 74
     0
  7

 75
     0
147
0.0235690232323232
148
0.0
149
0.0
100
AcDbLayout
  1
Model
 70
     1
 71
     0
 10
0.0
 20
0.0
 11
420.0
 21
297.0
 12
0.0
 22
0.0
 32
0.0
 14
1.000000000000000E+20
 24
1.000000000000000E+20
 34
1.000000000000000E+20
 15
-1.000000000000000E+20
 25
-1.000000000000000E+20
 35
-1.000000000000000E+20
146
0.0
 13
0.0
 23
0.0
 33
0.0
 16
1.0
 26
0.0
 36
0.0
 17
0.0
 27
1.0
 37
0.0
 76
     0
330
1F
331
29
  0
MLINESTYLE
  5
18
102
{ACAD_REACTORS
330
17
102
}
330
17
100
AcDbMlineStyle
  2
Standard
 70
     0
  3

 62
   256
 51
90.0
 52
90.0
 71
     2
 49
0.5
 62
   256
  6
BYLAYER
 49
-0.5
 62
   256
  6
BYLAYER
  0
ACDBPLACEHOLDER
  5
F
102
{ACAD_REACTORS
330
E
102
}
330
E
  0
SCALE
  5
48
102
{ACAD_REACTORS
330
47
102
}
330
47
100
AcDbScale
 70
     0
300
1:1
140
1.0
141
1.0
290
     1
  0
SCALE
  5
49
102
{ACAD_REACTORS
330
47
102
}
330
47
100
AcDbScale
 70
     0
300
1:2
140
1.0
141
2.0
290
     0
  0
SCALE
  5
4A
102
{ACAD_REACTORS
330
47
102
}
330
47
100
AcDbScale
 70
     0
300
1:4
140
1.0
141
4.0
290
     0
  0
SCALE
  5
4B
102
{ACAD_REACTORS
330
47
102
}
330
47
100
AcDbScale
 70
     0
300
1:5
140
1.0
141
5.0
290
     0
  0
SCALE
  5
4C
102
{ACAD_REACTORS
330
47
102
}
330
47
100
AcDbScale
 70
     0
300
1:8
140
1.0
141
8.0
290
     0
  0
SCALE
  5
4D
102
{ACAD_REACTORS
330
47
102
}
330
47
100
AcDbScale
 70
     0
300
1:10
140
1.0
141
10.0
290
     0
  0
SCALE
  5
4E
102
{ACAD_REACTORS
330
47
102
}
330
47
100
AcDbScale
 70
     0
300
1:16
140
1.0
141
16.0
290
     0
  0
SCALE
  5
4F
102
{ACAD_REACTORS
330
47
102
}
330
47
100
AcDbScale
 70
     0
300
1:20
140
1.0
141
20.0
290
     0
  0
SCALE
  5
50
102
{ACAD_REACTORS
330
47
102
}
330
47
100
AcDbScale
 70
     0
300
1:30
140
1.0
141
30.0
290
     0
  0
SCALE
  5
51
102
{ACAD_REACTORS
330
47
102
}
330
47
100
AcDbScale
 70
     0
300
1:40
140
1.0
141
40.0
290
     0
  0
SCALE
  5
52
102
{ACAD_REACTORS
330
47
102
}
330
47
100
AcDbScale
 70
     0
300
1:50
140
1.0
141
50.0
290
     0
  0
SCALE
  5
53
102
{ACAD_REACTORS
330
47
102
}
330
47
100
AcDbScale
 70
     0
300
1:100
140
1.0
141
100.0
290
     0
  0
SCALE
  5
54
102
{ACAD_REACTORS
330
47
102
}
330
47
100
AcDbScale
 70
     0
300
2:1
140
2.0
141
1.0
290
     0
  0
SCALE
  5
55
102
{ACAD_REACTORS
330
47
102
}
330
47
100
AcDbScale
 70
     0
300
4:1
140
4.0
141
1.0
290
     0
  0
SCALE
  5
56
102
{ACAD_REACTORS
330
47
102
}
330
47
100
AcDbScale
 70
     0
300
8:1
140
8.0
141
1.0
290
     0
  0
SCALE
  5
57
102
{ACAD_REACTORS
330
47
102
}
330
47
100
AcDbScale
 70
     0
300
10:1
140
10.0
141
1.0
290
     0
  0
SCALE
  5
58
102
{ACAD_REACTORS
330
47
102
}
330
47
100
AcDbScale
 70
     0
300
100:1
140
100.0
141
1.0
290
     0
  0
SCALE
  5
59
102
{ACAD_REACTORS
330
47
102
}
330
47
100
AcDbScale
 70
     0
300
1/128" = 1'-0"
140
0.0078125
141
12.0
290
     0
  0
SCALE
  5
5A
102
{ACAD_REACTORS
330
47
102
}
330
47
100
AcDbScale
 70
     0
300
1/64" = 1'-0"
140
0.015625
141
12.0
290
     0
  0
SCALE
  5
5B
102
{ACAD_REACTORS
330
47
102
}
330
47
100
AcDbScale
 70
     0
300
1/32" = 1'-0"
140
0.03125
141
12.0
290
     0
  0
SCALE
  5
5C
102
{ACAD_REACTORS
330
47
102
}
330
47
100
AcDbScale
 70
     0
300
1/16" = 1'-0"
140
0.0625
141
12.0
290
     0
  0
SCALE
  5
5D
102
{ACAD_REACTORS
330
47
102
}
330
47
100
AcDbScale
 70
     0
300
3/32" = 1'-0"
140
0.09375
141
12.0
290
     0
  0
SCALE
  5
5E
102
{ACAD_REACTORS
330
47
102
}
330
47
100
AcDbScale
 70
     0
300
1/8" = 1'-0"
140
0.125
141
12.0
290
     0
  0
SCALE
  5
5F
102
{ACAD_REACTORS
330
47
102
}
330
47
100
AcDbScale
 70
     0
300
3/16" = 1'-0"
140
0.1875
141
12.0
290
     0
  0
SCALE
  5
60
102
{ACAD_REACTORS
330
47
102
}
330
47
100
AcDbScale
 70
     0
300
1/4" = 1'-0"
140
0.25
141
12.0
290
     0
  0
SCALE
  5
61
102
{ACAD_REACTORS
330
47
102
}
330
47
100
AcDbScale
 70
     0
300
3/8" = 1'-0"
140
0.375
141
12.0
290
     0
  0
SCALE
  5
62
102
{ACAD_REACTORS
330
47
102
}
330
47
100
AcDbScale
 70
     0
300
1/2" = 1'-0"
140
0.5
141
12.0
290
     0
  0
SCALE
  5
63
102
{ACAD_REACTORS
330
47
102
}
330
47
100
AcDbScale
 70
     0
300
3/4" = 1'-0"
140
0.75
141
12.0
290
     0
  0
SCALE
  5
64
102
{ACAD_REACTORS
330
47
102
}
330
47
100
AcDbScale
 70
     0
300
1" = 1'-0"
140
1.0
141
12.0
290
     0
  0
SCALE
  5
65
102
{ACAD_REACTORS
330
47
102
}
330
47
100
AcDbScale
 70
     0
300
1-1/2" = 1'-0"
140
1.5
141
12.0
290
     0
  0
SCALE
  5
66
102
{ACAD_REACTORS
330
47
102
}
330
47
100
AcDbScale
 70
     0
300
3" = 1'-0"
140
3.0
141
12.0
290
     0
  0
SCALE
  5
67
102
{ACAD_REACTORS
330
47
102
}
330
47
100
AcDbScale
 70
     0
300
6" = 1'-0"
140
6.0
141
12.0
290
     0
  0
SCALE
  5
68
102
{ACAD_REACTORS
330
47
102
}
330
47
100
AcDbScale
 70
     0
300
1'-0" = 1'-0"
140
12.0
141
12.0
290
     0
  0
ENDSEC
  0
EOF
