  0
SECTION
  2
HEADER
  9
$ACADVER
  1
AC1015
  9
$ACADMAINTVER
 70
     6
  9
$DWGCODEPAGE
  3
ANSI_949
  9
$INSBASE
 10
0.0
 20
0.0
 30
0.0
  9
$EXTMIN
 10
-69.92500000000004
 20
-49.97180738881174
 30
0.0
  9
$EXTMAX
 10
74.77501515065208
 20
47.83099845446576
 30
0.0
  9
$LIMMIN
 10
0.0
 20
0.0
  9
$LIMMAX
 10
420.0
 20
297.0
  9
$ORTHOMODE
 70
     0
  9
$REGENMODE
 70
     1
  9
$FILLMODE
 70
     1
  9
$QTEXTMODE
 70
     0
  9
$MIRRTEXT
 70
     1
  9
$LTSCALE
 40
1.0
  9
$ATTMODE
 70
     1
  9
$TEXTSIZE
 40
3.5
  9
$TRACEWID
 40
1.0
  9
$TEXTSTYLE
  7
Standard
  9
$CLAYER
  8
0
  9
$CELTYPE
  6
ByLayer
  9
$CECOLOR
 62
   256
  9
$CELTSCALE
 40
1.0
  9
$DISPSILH
 70
     0
  9
$DIMSCALE
 40
1.0
  9
$DIMASZ
 40
3.302
  9
$DIMEXO
 40
1.0
  9
$DIMDLI
 40
3.75
  9
$DIMRND
 40
0.0
  9
$DIMDLE
 40
0.0
  9
$DIMEXE
 40
1.0
  9
$DIMTP
 40
0.0
  9
$DIMTM
 40
0.0
  9
$DIMTXT
 40
3.5
  9
$DIMCEN
 40
2.5
  9
$DIMTSZ
 40
0.0
  9
$DIMTOL
 70
     0
  9
$DIMLIM
 70
     0
  9
$DIMTIH
 70
     1
  9
$DIMTOH
 70
     1
  9
$DIMSE1
 70
     0
  9
$DIMSE2
 70
     0
  9
$DIMTAD
 70
     1
  9
$DIMZIN
 70
     0
  9
$DIMBLK
  1

  9
$DIMASO
 70
     1
  9
$DIMSHO
 70
     1
  9
$DIMPOST
  1

  9
$DIMAPOST
  1

  9
$DIMALT
 70
     0
  9
$DIMALTD
 70
     3
  9
$DIMALTF
 40
0.0393700787401575
  9
$DIMLFAC
 40
1.0
  9
$DIMTOFL
 70
     1
  9
$DIMTVP
 40
0.0
  9
$DIMTIX
 70
     0
  9
$DIMSOXD
 70
     0
  9
$DIMSAH
 70
     0
  9
$DIMBLK1
  1

  9
$DIMBLK2
  1

  9
$DIMSTYLE
  2
ISO-25
  9
$DIMCLRD
 70
     0
  9
$DIMCLRE
 70
     0
  9
$DIMCLRT
 70
     0
  9
$DIMTFAC
 40
1.0
  9
$DIMGAP
 40
1.524
  9
$DIMJUST
 70
     0
  9
$DIMSD1
 70
     0
  9
$DIMSD2
 70
     0
  9
$DIMTOLJ
 70
     0
  9
$DIMTZIN
 70
     0
  9
$DIMALTZ
 70
     0
  9
$DIMALTTZ
 70
     0
  9
$DIMUPT
 70
     0
  9
$DIMDEC
 70
     2
  9
$DIMTDEC
 70
     2
  9
$DIMALTU
 70
     2
  9
$DIMALTTD
 70
     3
  9
$DIMTXSTY
  7
Standard
  9
$DIMAUNIT
 70
     0
  9
$DIMADEC
 70
     2
  9
$DIMALTRND
 40
0.0
  9
$DIMAZIN
 70
     0
  9
$DIMDSEP
 70
    44
  9
$DIMATFIT
 70
     3
  9
$DIMFRAC
 70
     0
  9
$DIMLDRBLK
  1

  9
$DIMLUNIT
 70
     2
  9
$DIMLWD
 70
    -2
  9
$DIMLWE
 70
    -2
  9
$DIMTMOVE
 70
     0
  9
$LUNITS
 70
     2
  9
$LUPREC
 70
     2
  9
$SKETCHINC
 40
1.0
  9
$FILLETRAD
 40
10.0
  9
$AUNITS
 70
     0
  9
$AUPREC
 70
     2
  9
$MENU
  1
.
  9
$ELEVATION
 40
0.0
  9
$PELEVATION
 40
0.0
  9
$THICKNESS
 40
0.0
  9
$LIMCHECK
 70
     0
  9
$CHAMFERA
 40
0.0
  9
$CHAMFERB
 40
0.0
  9
$CHAMFERC
 40
0.0
  9
$CHAMFERD
 40
0.0
  9
$SKPOLY
 70
     0
  9
$TDCREATE
 40
2458236.727117327
  9
$TDUCREATE
 40
2458236.352117327
  9
$TDUPDATE
 40
2459697.430236782
  9
$TDUUPDATE
 40
2459697.055236782
  9
$TDINDWG
 40
0.002525706
  9
$TDUSRTIMER
 40
0.0001262269
  9
$USRTIMER
 70
     1
  9
$ANGBASE
 50
0.0
  9
$ANGDIR
 70
     0
  9
$PDMODE
 70
     0
  9
$PDSIZE
 40
-1.0
  9
$PLINEWID
 40
0.0
  9
$SPLFRAME
 70
     0
  9
$SPLINETYPE
 70
     6
  9
$SPLINESEGS
 70
     8
  9
$HANDSEED
  5
22D
  9
$SURFTAB1
 70
     6
  9
$SURFTAB2
 70
     6
  9
$SURFTYPE
 70
     6
  9
$SURFU
 70
     6
  9
$SURFV
 70
     6
  9
$UCSBASE
  2

  9
$UCSNAME
  2

  9
$UCSORG
 10
0.0
 20
0.0
 30
0.0
  9
$UCSXDIR
 10
1.0
 20
0.0
 30
0.0
  9
$UCSYDIR
 10
0.0
 20
1.0
 30
0.0
  9
$UCSORTHOREF
  2

  9
$UCSORTHOVIEW
 70
     0
  9
$UCSORGTOP
 10
0.0
 20
0.0
 30
0.0
  9
$UCSORGBOTTOM
 10
0.0
 20
0.0
 30
0.0
  9
$UCSORGLEFT
 10
0.0
 20
0.0
 30
0.0
  9
$UCSORGRIGHT
 10
0.0
 20
0.0
 30
0.0
  9
$UCSORGFRONT
 10
0.0
 20
0.0
 30
0.0
  9
$UCSORGBACK
 10
0.0
 20
0.0
 30
0.0
  9
$PUCSBASE
  2

  9
$PUCSNAME
  2

  9
$PUCSORG
 10
0.0
 20
0.0
 30
0.0
  9
$PUCSXDIR
 10
1.0
 20
0.0
 30
0.0
  9
$PUCSYDIR
 10
0.0
 20
1.0
 30
0.0
  9
$PUCSORTHOREF
  2

  9
$PUCSORTHOVIEW
 70
     0
  9
$PUCSORGTOP
 10
0.0
 20
0.0
 30
0.0
  9
$PUCSORGBOTTOM
 10
0.0
 20
0.0
 30
0.0
  9
$PUCSORGLEFT
 10
0.0
 20
0.0
 30
0.0
  9
$PUCSORGRIGHT
 10
0.0
 20
0.0
 30
0.0
  9
$PUCSORGFRONT
 10
0.0
 20
0.0
 30
0.0
  9
$PUCSORGBACK
 10
0.0
 20
0.0
 30
0.0
  9
$USERI1
 70
     0
  9
$USERI2
 70
     0
  9
$USERI3
 70
     0
  9
$USERI4
 70
     0
  9
$USERI5
 70
     0
  9
$USERR1
 40
0.0
  9
$USERR2
 40
0.0
  9
$USERR3
 40
0.0
  9
$USERR4
 40
0.0
  9
$USERR5
 40
0.0
  9
$WORLDVIEW
 70
     1
  9
$SHADEDGE
 70
     3
  9
$SHADEDIF
 70
    70
  9
$TILEMODE
 70
     1
  9
$MAXACTVP
 70
    64
  9
$PINSBASE
 10
0.0
 20
0.0
 30
0.0
  9
$PLIMCHECK
 70
     0
  9
$PEXTMIN
 10
1.000000000000000E+20
 20
1.000000000000000E+20
 30
1.000000000000000E+20
  9
$PEXTMAX
 10
-1.000000000000000E+20
 20
-1.000000000000000E+20
 30
-1.000000000000000E+20
  9
$PLIMMIN
 10
0.0
 20
0.0
  9
$PLIMMAX
 10
0.0
 20
0.0
  9
$UNITMODE
 70
     0
  9
$VISRETAIN
 70
     1
  9
$PLINEGEN
 70
     0
  9
$PSLTSCALE
 70
     1
  9
$TREEDEPTH
 70
  3020
  9
$CMLSTYLE
  2
Standard
  9
$CMLJUST
 70
     0
  9
$CMLSCALE
 40
20.0
  9
$PROXYGRAPHICS
 70
     1
  9
$MEASUREMENT
 70
     1
  9
$CELWEIGHT
370
    -1
  9
$ENDCAPS
280
     0
  9
$JOINSTYLE
280
     0
  9
$LWDISPLAY
290
     1
  9
$INSUNITS
 70
     4
  9
$HYPERLINKBASE
  1

  9
$STYLESHEET
  1

  9
$XEDIT
290
     1
  9
$CEPSNTYPE
380
     0
  9
$PSTYLEMODE
290
     1
  9
$FINGERPRINTGUID
  2
{3309F886-8C63-465B-A6E5-09DFB344257B}
  9
$VERSIONGUID
  2
{FAEB1C32-E019-11D5-929B-00C0DF256EC4}
  9
$EXTNAMES
290
     1
  9
$PSVPSCALE
 40
0.0
  9
$OLESTARTUP
290
     0
  0
ENDSEC
  0
SECTION
  2
CLASSES
  0
CLASS
  1
ACDBDICTIONARYWDFLT
  2
AcDbDictionaryWithDefault
  3
ObjectDBX Classes
 90
        0
280
     0
281
     0
  0
CLASS
  1
VISUALSTYLE
  2
AcDbVisualStyle
  3
ObjectDBX Classes
 90
     4095
280
     0
281
     0
  0
CLASS
  1
MATERIAL
  2
AcDbMaterial
  3
ObjectDBX Classes
 90
     1153
280
     0
281
     0
  0
CLASS
  1
SCALE
  2
AcDbScale
  3
ObjectDBX Classes
 90
     1153
280
     0
281
     0
  0
CLASS
  1
SUN
  2
AcDbSun
  3
SCENEOE
 90
     1153
280
     0
281
     0
  0
CLASS
  1
ACDBPLACEHOLDER
  2
AcDbPlaceHolder
  3
ObjectDBX Classes
 90
        0
280
     0
281
     0
  0
CLASS
  1
LAYOUT
  2
AcDbLayout
  3
ObjectDBX Classes
 90
        0
280
     0
281
     0
  0
CLASS
  1
TABLESTYLE
  2
AcDbTableStyle
  3
ObjectDBX Classes
 90
     4095
280
     0
281
     0
  0
CLASS
  1
MLEADERSTYLE
  2
AcDbMLeaderStyle
  3
ACDB_MLEADERSTYLE_CLASS
 90
     4095
280
     0
281
     0
  0
CLASS
  1
RASTERVARIABLES
  2
AcDbRasterVariables
  3
ISM
 90
        0
280
     0
281
     0
  0
CLASS
  1
DIMASSOC
  2
AcDbDimAssoc
  3
"AcDbDimAssoc|Product Desc:     AcDim ARX App For Dimension|Company:          Autodesk, Inc.|WEB Address:      www.autodesk.com"
 90
        0
280
     0
281
     0
  0
ENDSEC
  0
SECTION
  2
TABLES
  0
TABLE
  2
VPORT
  5
8
330
0
100
AcDbSymbolTable
 70
     1
  0
VPORT
  5
29
330
8
100
AcDbSymbolTableRecord
100
AcDbViewportTableRecord
  2
*Active
 70
     0
 10
0.0
 20
0.0
 11
1.0
 21
1.0
 12
2.425007575326021
 22
-1.070404467172992
 13
0.0
 23
0.0
 14
10.0
 24
10.0
 15
10.0
 25
10.0
 16
0.0
 26
0.0
 36
1.0
 17
0.0
 27
0.0
 37
0.0
 40
99.75886196014305
 41
1.898569570871262
 42
50.0
 43
0.0
 44
0.0
 50
0.0
 51
0.0
 71
    16
 72
  2000
 73
     1
 74
     3
 75
     0
 76
     0
 77
     0
 78
     0
281
     0
 65
     1
110
0.0
120
0.0
130
0.0
111
1.0
121
0.0
131
0.0
112
0.0
122
1.0
132
0.0
 79
     0
146
0.0
  0
ENDTAB
  0
TABLE
  2
LTYPE
  5
5
330
0
100
AcDbSymbolTable
 70
     6
  0
LTYPE
  5
14
330
5
100
AcDbSymbolTableRecord
100
AcDbLinetypeTableRecord
  2
ByBlock
 70
     0
  3

 72
    65
 73
     0
 40
0.0
  0
LTYPE
  5
15
330
5
100
AcDbSymbolTableRecord
100
AcDbLinetypeTableRecord
  2
ByLayer
 70
     0
  3

 72
    65
 73
     0
 40
0.0
  0
LTYPE
  5
16
330
5
100
AcDbSymbolTableRecord
100
AcDbLinetypeTableRecord
  2
Continuous
 70
     0
  3
Solid line
 72
    65
 73
     0
 40
0.0
  0
LTYPE
  5
6A
330
5
100
AcDbSymbolTableRecord
100
AcDbLinetypeTableRecord
  2
HIDDEN
 70
     0
  3
Hidden __ __ __ __ __ __ __ __ __ __ __ __ __ __
 72
    65
 73
     2
 40
1.905
 49
1.27
 74
     0
 49
-0.635
 74
     0
  0
LTYPE
  5
6B
330
5
100
AcDbSymbolTableRecord
100
AcDbLinetypeTableRecord
  2
PHANTOM
 70
     0
  3
Phantom ______  __  __  ______  __  __  ______
 72
    65
 73
     6
 40
12.7
 49
6.35
 74
     0
 49
-1.27
 74
     0
 49
1.27
 74
     0
 49
-1.27
 74
     0
 49
1.27
 74
     0
 49
-1.27
 74
     0
  0
LTYPE
  5
6C
330
5
100
AcDbSymbolTableRecord
100
AcDbLinetypeTableRecord
  2
CENTER
 70
     0
  3
Center ____ _ ____ _ ____ _ ____ _ ____ _ ____
 72
    65
 73
     4
 40
10.16
 49
6.35
 74
     0
 49
-1.27
 74
     0
 49
1.27
 74
     0
 49
-1.27
 74
     0
  0
LTYPE
  5
6D
330
5
100
AcDbSymbolTableRecord
100
AcDbLinetypeTableRecord
  2
CENTERX2
 70
     0
  3
Center (2x) ________  __  ________  __  _____
 72
    65
 73
     4
 40
20.32
 49
12.7
 74
     0
 49
-2.54
 74
     0
 49
2.54
 74
     0
 49
-2.54
 74
     0
  0
LTYPE
  5
6E
330
5
100
AcDbSymbolTableRecord
100
AcDbLinetypeTableRecord
  2
DOT2
 70
     0
  3
Dot (.5x) ........................................
 72
    65
 73
     2
 40
0.635
 49
0.0
 74
     0
 49
-0.635
 74
     0
  0
ENDTAB
  0
TABLE
  2
LAYER
  5
2
102
{ACAD_XDICTIONARY
360
1F6
102
}
330
0
100
AcDbSymbolTable
 70
    17
  0
LAYER
  5
10
330
2
100
AcDbSymbolTableRecord
100
AcDbLayerTableRecord
  2
0
 70
     0
 62
     7
  6
Continuous
370
    -3
390
F
  0
LAYER
  5
6F
330
2
100
AcDbSymbolTableRecord
100
AcDbLayerTableRecord
  2
FORMAT
 70
     0
 62
     2
  6
Continuous
370
    -3
390
F
  0
LAYER
  5
70
330
2
100
AcDbSymbolTableRecord
100
AcDbLayerTableRecord
  2
외형선
 70
     0
 62
   100
  6
Continuous
370
    30
390
F
  0
LAYER
  5
71
330
2
100
AcDbSymbolTableRecord
100
AcDbLayerTableRecord
  2
숨은선
 70
     0
 62
     2
  6
HIDDEN
370
    15
390
F
  0
LAYER
  5
72
330
2
100
AcDbSymbolTableRecord
100
AcDbLayerTableRecord
  2
중심선
 70
     0
 62
     1
  6
CENTERX2
370
    -3
390
F
  0
LAYER
  5
73
330
2
100
AcDbSymbolTableRecord
100
AcDbLayerTableRecord
  2
파단선
 70
     0
 62
     4
  6
Continuous
370
    -3
390
F
  0
LAYER
  5
74
330
2
100
AcDbSymbolTableRecord
100
AcDbLayerTableRecord
  2
해칭선
 70
     0
 62
     4
  6
Continuous
370
    -3
390
F
  0
LAYER
  5
75
330
2
100
AcDbSymbolTableRecord
100
AcDbLayerTableRecord
  2
가는실선
 70
     0
 62
     4
  6
Continuous
370
    -3
390
F
  0
LAYER
  5
76
330
2
100
AcDbSymbolTableRecord
100
AcDbLayerTableRecord
  2
치수_보조선
 70
     0
 62
     4
  6
Continuous
370
    -3
390
F
  0
LAYER
  5
77
330
2
100
AcDbSymbolTableRecord
100
AcDbLayerTableRecord
  2
치수문자_일반주서
 70
     0
 62
     7
  6
Continuous
370
    15
390
F
  0
LAYER
  5
78
330
2
100
AcDbSymbolTableRecord
100
AcDbLayerTableRecord
  2
개별주서
 70
     0
 62
   100
  6
Continuous
370
    30
390
F
  0
LAYER
  5
79
330
2
100
AcDbSymbolTableRecord
100
AcDbLayerTableRecord
  2
중간선
 70
     0
 62
     2
  6
Continuous
370
    15
390
F
  0
LAYER
  5
7A
330
2
100
AcDbSymbolTableRecord
100
AcDbLayerTableRecord
  2
윤곽선
 70
     0
 62
     3
  6
Continuous
370
    40
390
F
  0
LAYER
  5
7B
330
2
100
AcDbSymbolTableRecord
100
AcDbLayerTableRecord
  2
중심마크
 70
     0
 62
   100
  6
Continuous
370
    30
390
F
  0
LAYER
  5
7C
330
2
100
AcDbSymbolTableRecord
100
AcDbLayerTableRecord
  2
가상선
 70
     0
 62
     4
  6
PHANTOM
370
    -3
390
F
  0
LAYER
  5
7D
330
2
100
AcDbSymbolTableRecord
100
AcDbLayerTableRecord
  2
특수지정선
 70
     0
 62
     5
  6
CENTERX2
370
    60
390
F
  0
LAYER
  5
172
330
2
100
AcDbSymbolTableRecord
100
AcDbLayerTableRecord
  2
Defpoints
 70
     0
 62
     7
  6
Continuous
290
     0
370
    -3
390
F
  0
ENDTAB
  0
TABLE
  2
STYLE
  5
3
330
0
100
AcDbSymbolTable
 70
     2
  0
STYLE
  5
11
330
3
100
AcDbSymbolTableRecord
100
AcDbTextStyleTableRecord
  2
Standard
 70
     0
 40
0.0
 41
1.0
 50
0.0
 71
     0
 42
3.5
  3
txt
  4

  0
STYLE
  5
93
330
3
100
AcDbSymbolTableRecord
100
AcDbTextStyleTableRecord
  2
SLDTEXTSTYLE0
 70
     0
 40
0.0
 41
0.75
 50
0.0
 71
     0
 42
3.5
  3
TXT
  4

  0
ENDTAB
  0
TABLE
  2
VIEW
  5
6
330
0
100
AcDbSymbolTable
 70
     0
  0
ENDTAB
  0
TABLE
  2
UCS
  5
7
330
0
100
AcDbSymbolTable
 70
     0
  0
ENDTAB
  0
TABLE
  2
APPID
  5
9
330
0
100
AcDbSymbolTable
 70
     2
  0
APPID
  5
12
330
9
100
AcDbSymbolTableRecord
100
AcDbRegAppTableRecord
  2
ACAD
 70
     0
  0
APPID
  5
177
330
9
100
AcDbSymbolTableRecord
100
AcDbRegAppTableRecord
  2
ACAD_DSTYLE_DIMRADIAL_EXTENSION
 70
     0
  0
ENDTAB
  0
TABLE
  2
DIMSTYLE
  5
A
330
0
100
AcDbSymbolTable
 70
     3
100
AcDbDimStyleTable
  0
DIMSTYLE
105
27
330
A
100
AcDbSymbolTableRecord
100
AcDbDimStyleTableRecord
  2
ISO-25
 70
     0
 41
2.5
 42
0.625
 43
3.75
 44
1.25
 73
     0
 74
     0
 77
     1
 78
     8
140
2.5
141
2.5
143
0.03937007874016
147
0.625
171
     3
172
     1
178
     0
271
     2
272
     2
274
     3
278
    44
283
     0
284
     8
340
11
  0
DIMSTYLE
105
F8
102
{ACAD_REACTORS
330
F7
330
120
330
178
102
}
330
A
100
AcDbSymbolTableRecord
100
AcDbDimStyleTableRecord
  2
SLDDIMSTYLE0
 70
     0
 41
3.302
 44
0.0
 45
0.000000001
 73
     0
 74
     0
 77
     1
 78
     4
 79
     1
140
3.5
143
0.0393700787401575
147
0.875
148
0.000000001
170
     1
173
     1
178
     0
271
     2
272
     2
276
     2
284
    12
340
93
  0
DIMSTYLE
105
10C
102
{ACAD_REACTORS
330
10B
330
133
102
}
330
A
100
AcDbSymbolTableRecord
100
AcDbDimStyleTableRecord
  2
SLDDIMSTYLE1
 70
     0
 41
3.302
 44
0.0
 45
0.000000001
 73
     0
 74
     0
 77
     1
 78
    12
 79
     3
140
3.5
143
0.0393700787401575
147
0.875
148
0.000000001
170
     1
172
     1
173
     1
178
     0
271
     2
272
     2
276
     2
284
    12
289
     0
340
93
  0
ENDTAB
  0
TABLE
  2
BLOCK_RECORD
  5
1
330
0
100
AcDbSymbolTable
 70
     8
  0
BLOCK_RECORD
  5
1F
102
{ACAD_XDICTIONARY
360
22A
102
}
330
1
100
AcDbSymbolTableRecord
100
AcDbBlockTableRecord
  2
*Model_Space
340
22
  0
BLOCK_RECORD
  5
1B
330
1
100
AcDbSymbolTableRecord
100
AcDbBlockTableRecord
  2
*Paper_Space
340
1E
  0
BLOCK_RECORD
  5
23
330
1
100
AcDbSymbolTableRecord
100
AcDbBlockTableRecord
  2
*Paper_Space0
340
26
  0
BLOCK_RECORD
  5
7E
330
1
100
AcDbSymbolTableRecord
100
AcDbBlockTableRecord
  2
블럭10
340
0
102
{BLKREFS
331
EF
102
}
  0
BLOCK_RECORD
  5
F9
330
1
100
AcDbSymbolTableRecord
100
AcDbBlockTableRecord
  2
_D
340
0
  0
BLOCK_RECORD
  5
10D
330
1
100
AcDbSymbolTableRecord
100
AcDbBlockTableRecord
  2
_D_1
340
0
  0
BLOCK_RECORD
  5
121
330
1
100
AcDbSymbolTableRecord
100
AcDbBlockTableRecord
  2
_D_2
340
0
  0
BLOCK_RECORD
  5
134
330
1
100
AcDbSymbolTableRecord
100
AcDbBlockTableRecord
  2
_D_3
340
0
  0
BLOCK_RECORD
  5
147
330
1
100
AcDbSymbolTableRecord
100
AcDbBlockTableRecord
  2
SW_DOWELSYMBOL_0
340
0
102
{BLKREFS
331
14D
102
}
  0
BLOCK_RECORD
  5
17B
330
1
100
AcDbSymbolTableRecord
100
AcDbBlockTableRecord
  2
*D7
340
0
  0
ENDTAB
  0
ENDSEC
  0
SECTION
  2
BLOCKS
  0
BLOCK
  5
20
330
1F
100
AcDbEntity
  8
0
100
AcDbBlockBegin
  2
*Model_Space
 70
     0
 10
0.0
 20
0.0
 30
0.0
  3
*Model_Space
  1
*Model_Space
  0
ENDBLK
  5
21
330
1F
100
AcDbEntity
  8
0
100
AcDbBlockEnd
  0
BLOCK
  5
1C
330
1B
100
AcDbEntity
 67
     1
  8
0
100
AcDbBlockBegin
  2
*Paper_Space
 70
     0
 10
0.0
 20
0.0
 30
0.0
  3
*Paper_Space
  1
*Paper_Space
  0
ENDBLK
  5
1D
330
1B
100
AcDbEntity
 67
     1
  8
0
100
AcDbBlockEnd
  0
BLOCK
  5
24
330
23
100
AcDbEntity
  8
0
100
AcDbBlockBegin
  2
*Paper_Space0
 70
     0
 10
0.0
 20
0.0
 30
0.0
  3
*Paper_Space0
  1
*Paper_Space0
  0
ENDBLK
  5
25
330
23
100
AcDbEntity
  8
0
100
AcDbBlockEnd
  0
BLOCK
  5
7F
330
7E
100
AcDbEntity
  8
0
100
AcDbBlockBegin
  2
블럭10
 70
     2
 10
0.0
 20
0.0
 30
0.0
  3
블럭10
  1
블럭10
  0
ELLIPSE
  5
81
330
7E
100
AcDbEntity
  8
중심선
100
AcDbEllipse
 10
20.54032771741204
 20
12.0471743016438
 30
0.0
 11
6.600054785286829
 21
-1.261213355974178E-13
 31
0.0
210
0.0
220
0.0
230
1.0
 40
0.636358354079598
 41
0.9219305317359503
 42
6.513795318482858
  0
ELLIPSE
  5
82
330
7E
100
AcDbEntity
  8
중심선
100
AcDbEllipse
 10
20.54032771746488
 20
12.04717430159265
 30
0.0
 11
3.960054785062283
 21
1.540847449632565E-10
 31
0.0
210
0.0
220
0.0
230
1.0
 40
0.3939339440162632
 41
1.131841032648279
 42
5.62031148352944
  0
LINE
  5
83
330
7E
100
AcDbEntity
  8
중심선
100
AcDbLine
 10
2.268634060543552
 20
16.24717430164393
 30
0.0
 11
5.714909304380834
 21
16.24717430164393
 31
0.0
  0
LINE
  5
84
330
7E
100
AcDbEntity
  8
중심선
100
AcDbLine
 10
5.245725140726316
 20
7.84717430164391
 30
0.0
 11
8.692000384563599
 21
7.84717430164391
 31
0.0
  0
LINE
  5
85
330
7E
100
AcDbEntity
  8
중심선
100
AcDbLine
 10
15.74043728645272
 20
16.24717430164393
 30
0.0
 11
8.692000384563599
 21
7.84717430164391
 31
0.0
  0
LINE
  5
86
330
7E
100
AcDbEntity
  8
중심선
100
AcDbLine
 10
0.1404042013395286
 20
13.71084872107135
 30
0.0
 11
3.58671253028996
 21
13.71088815037384
 31
0.0
  0
LINE
  5
87
330
7E
100
AcDbEntity
  8
중심선
100
AcDbLine
 10
2.750260043222114
 20
10.84717430164391
 30
0.0
 11
6.196535287059397
 21
10.84717430164391
 31
0.0
  0
LINE
  5
88
330
7E
100
AcDbEntity
  8
중심선
100
AcDbLine
 10
12.29416204261559
 20
16.24717430164393
 30
0.0
 11
5.245725140726316
 21
7.84717430164391
 31
0.0
  0
LINE
  5
89
330
7E
100
AcDbEntity
  8
중심선
100
AcDbLine
 10
10.72767329541681
 20
16.24717430164393
 30
0.0
 11
6.196535287059397
 21
10.84717430164391
 31
0.0
  0
LINE
  5
8A
330
7E
100
AcDbEntity
  8
중심선
100
AcDbLine
 10
7.28139805157953
 20
16.24717430164393
 30
0.0
 11
2.750260043222114
 21
10.84717430164391
 31
0.0
  0
LINE
  5
8B
330
7E
100
AcDbEntity
  8
중심선
100
AcDbLine
 10
5.714909304380834
 20
16.24717430164393
 30
0.0
 11
3.58671253028996
 21
13.71088815037384
 31
0.0
  0
LINE
  5
8C
330
7E
100
AcDbEntity
  8
중심선
100
AcDbLine
 10
2.268634060543552
 20
16.24717430164393
 30
0.0
 11
0.1404042013395286
 21
13.71084872107135
 31
0.0
  0
LINE
  5
8D
330
7E
100
AcDbEntity
  8
중심선
100
AcDbLine
 10
7.28139805157953
 20
16.24717430164393
 30
0.0
 11
10.72767329541681
 21
16.24717430164393
 31
0.0
  0
LINE
  5
8E
330
7E
100
AcDbEntity
  8
중심선
100
AcDbLine
 10
12.29416204261559
 20
16.24717430164393
 30
0.0
 11
15.74043728645272
 21
16.24717430164393
 31
0.0
  0
LINE
  5
8F
330
7E
100
AcDbEntity
  8
중심선
100
AcDbLine
 10
19.22036997980202
 20
11.08717430171403
 30
0.0
 11
23.66174974927406
 21
11.08717430171406
 31
0.0
  0
LINE
  5
90
330
7E
100
AcDbEntity
  8
중심선
100
AcDbLine
 10
19.22039502424796
 20
13.00717430171391
 30
0.0
 11
19.22036997980202
 21
11.08717430171403
 31
0.0
  0
LINE
  5
91
330
7E
100
AcDbEntity
  8
중심선
100
AcDbLine
 10
19.22039502424796
 20
13.00717430171391
 30
0.0
 11
26.96566020931264
 21
13.00717430171391
 31
0.0
  0
LINE
  5
92
330
7E
100
AcDbEntity
  8
중심선
100
AcDbLine
 10
22.22332737316547
 20
13.45928029700563
 30
0.0
 11
24.52862924686651
 21
15.39360700705356
 31
0.0
  0
ATTDEF
  5
94
330
7E
100
AcDbEntity
  8
FORMAT
 62
     2
100
AcDbText
 10
-11.05102035218446
 20
2.075366912832191
 30
0.0
 40
4.233333333333333
  1
GMG22048[ 6 FLUTE ]
 41
0.75
  7
SLDTEXTSTYLE0
 11
-11.05102035218446
 21
-0.0412997538344756
 31
0.0
100
AcDbAttributeDefinition
  3

  2
AUTOATTR0
 70
     0
 74
     1
  0
ENDBLK
  5
80
330
7E
100
AcDbEntity
  8
0
100
AcDbBlockEnd
  0
BLOCK
  5
FA
330
F9
100
AcDbEntity
  8
0
100
AcDbBlockBegin
  2
_D
 70
     0
 10
0.0
 20
0.0
 30
0.0
  3
_D
  1
_D
  0
LINE
  5
FC
330
F9
100
AcDbEntity
  8
치수문자_일반주서
 62
     0
370
    -2
100
AcDbLine
 10
-52.54999999999998
 20
8.827121974755876
 30
0.0
 11
-52.54999999999998
 21
43.45599845446576
 31
0.0
  0
LINE
  5
FD
330
F9
100
AcDbEntity
  8
치수문자_일반주서
 62
     0
370
    -2
100
AcDbLine
 10
49.05000000000001
 20
8.891276830956764
 30
0.0
 11
49.05000000000001
 21
43.45599845446576
 31
0.0
  0
LINE
  5
FE
330
F9
100
AcDbEntity
  8
치수문자_일반주서
 62
     0
370
    -2
100
AcDbLine
 10
-49.24799999999998
 20
43.45599845446576
 30
0.0
 11
45.74800000000001
 21
43.45599845446576
 31
0.0
  0
SOLID
  5
FF
330
F9
100
AcDbEntity
  8
치수문자_일반주서
 62
     0
100
AcDbTrace
 10
-49.24799999999998
 20
44.00633178779909
 30
0.0
 11
-49.24799999999998
 21
42.90566512113242
 31
0.0
 12
-52.54999999999998
 22
43.45599845446576
 32
0.0
 13
-52.54999999999998
 23
43.45599845446576
 33
0.0
  0
SOLID
  5
100
330
F9
100
AcDbEntity
  8
치수문자_일반주서
 62
     0
100
AcDbTrace
 10
45.74800000000001
 20
42.90566512113242
 30
0.0
 11
45.74800000000001
 21
44.00633178779909
 31
0.0
 12
49.05000000000001
 22
43.45599845446576
 32
0.0
 13
49.05000000000001
 23
43.45599845446576
 33
0.0
  0
MTEXT
  5
101
330
F9
100
AcDbEntity
  8
치수문자_일반주서
 62
     0
100
AcDbMText
 10
1.257940153509092
 20
47.83099845446576
 30
0.0
 40
3.5
 41
0.0
 71
     2
 72
     1
  1
\A1;101.60 [4]
  7
SLDTEXTSTYLE0
 73
     1
 44
1.0
  0
POINT
  5
102
330
F9
100
AcDbEntity
  8
Defpoints
 62
     0
100
AcDbPoint
 10
-52.54999999999998
 20
8.764621974755876
 30
0.0
  0
POINT
  5
103
330
F9
100
AcDbEntity
  8
Defpoints
 62
     0
100
AcDbPoint
 10
49.05000000000001
 20
8.828776830956764
 30
0.0
  0
POINT
  5
104
330
F9
100
AcDbEntity
  8
Defpoints
 62
     0
100
AcDbPoint
 10
49.05000000000001
 20
43.45599845446576
 30
0.0
  0
ENDBLK
  5
FB
330
F9
100
AcDbEntity
  8
0
100
AcDbBlockEnd
  0
BLOCK
  5
10E
330
10D
100
AcDbEntity
  8
0
100
AcDbBlockBegin
  2
_D_1
 70
     0
 10
0.0
 20
0.0
 30
0.0
  3
_D_1
  1
_D_1
  0
LINE
  5
110
330
10D
100
AcDbEntity
  8
치수문자_일반주서
 62
     0
370
    -2
100
AcDbLine
 10
48.2475818844312
 20
9.264621974755885
 30
0.0
 11
63.28403823937222
 21
9.264621974755938
 31
0.0
  0
LINE
  5
111
330
10D
100
AcDbEntity
  8
치수문자_일반주서
 62
     0
370
    -2
100
AcDbLine
 10
48.24758188443127
 20
-9.785378025244116
 30
0.0
 11
63.28403823937229
 21
-9.785378025244063
 31
0.0
  0
LINE
  5
112
330
10D
100
AcDbEntity
  8
치수문자_일반주서
 62
     0
370
    -2
100
AcDbLine
 10
63.28403823937224
 20
5.962621974755939
 30
0.0
 11
63.28403823937227
 21
-6.483378025244063
 31
0.0
  0
SOLID
  5
113
330
10D
100
AcDbEntity
  8
치수문자_일반주서
 62
     0
100
AcDbTrace
 10
63.83437157270557
 20
5.96262197475594
 30
0.0
 11
62.7337049060389
 21
5.962621974755937
 31
0.0
 12
63.28403823937222
 22
9.264621974755938
 32
0.0
 13
63.28403823937222
 23
9.264621974755938
 33
0.0
  0
SOLID
  5
114
330
10D
100
AcDbEntity
  8
치수문자_일반주서
 62
     0
100
AcDbTrace
 10
62.73370490603894
 20
-6.483378025244065
 30
0.0
 11
63.83437157270561
 21
-6.483378025244061
 31
0.0
 12
63.28403823937229
 22
-9.785378025244063
 32
0.0
 13
63.28403823937229
 23
-9.785378025244063
 33
0.0
  0
MTEXT
  5
115
330
10D
100
AcDbEntity
  8
치수문자_일반주서
 62
     0
100
AcDbMText
 10
58.90903823937226
 20
-0.2603780252441316
 30
0.0
 40
3.5
 41
0.0
 71
     2
 72
     1
  1
\A1;%%c19.05 [3/4]
  7
SLDTEXTSTYLE0
 11
-3.356894814614647E-15
 21
1.0
 31
0.0
 73
     1
 44
1.0
  0
POINT
  5
116
330
10D
100
AcDbEntity
  8
Defpoints
 62
     0
100
AcDbPoint
 10
48.1850818844312
 20
9.264621974755885
 30
0.0
  0
POINT
  5
117
330
10D
100
AcDbEntity
  8
Defpoints
 62
     0
100
AcDbPoint
 10
48.18508188443127
 20
-9.785378025244116
 30
0.0
  0
POINT
  5
118
330
10D
100
AcDbEntity
  8
Defpoints
 62
     0
100
AcDbPoint
 10
63.28403823937226
 20
-9.785378025244063
 30
0.0
  0
ENDBLK
  5
10F
330
10D
100
AcDbEntity
  8
0
100
AcDbBlockEnd
  0
BLOCK
  5
122
330
121
100
AcDbEntity
  8
0
100
AcDbBlockBegin
  2
_D_2
 70
     0
 10
0.0
 20
0.0
 30
0.0
  3
_D_2
  1
_D_2
  0
LINE
  5
124
330
121
100
AcDbEntity
  8
치수문자_일반주서
 62
     0
370
    -2
100
AcDbLine
 10
49.05000000000001
 20
8.565121974755884
 30
0.0
 11
49.05000000000001
 21
28.68578207544182
 31
0.0
  0
LINE
  5
125
330
121
100
AcDbEntity
  8
치수문자_일반주서
 62
     0
370
    -2
100
AcDbLine
 10
10.95000000000002
 20
-9.352649419357578
 30
0.0
 11
10.95000000000002
 21
28.68578207544182
 31
0.0
  0
LINE
  5
126
330
121
100
AcDbEntity
  8
치수문자_일반주서
 62
     0
370
    -2
100
AcDbLine
 10
45.74800000000001
 20
28.68578207544182
 30
0.0
 11
14.25200000000002
 21
28.68578207544182
 31
0.0
  0
SOLID
  5
127
330
121
100
AcDbEntity
  8
치수문자_일반주서
 62
     0
100
AcDbTrace
 10
45.74800000000001
 20
28.13544874210849
 30
0.0
 11
45.74800000000001
 21
29.23611540877516
 31
0.0
 12
49.05000000000001
 22
28.68578207544182
 32
0.0
 13
49.05000000000001
 23
28.68578207544182
 33
0.0
  0
SOLID
  5
128
330
121
100
AcDbEntity
  8
치수문자_일반주서
 62
     0
100
AcDbTrace
 10
14.25200000000002
 20
29.23611540877516
 30
0.0
 11
14.25200000000002
 21
28.13544874210849
 31
0.0
 12
10.95000000000002
 22
28.68578207544182
 32
0.0
 13
10.95000000000002
 23
28.68578207544182
 33
0.0
  0
MTEXT
  5
129
330
121
100
AcDbEntity
  8
치수문자_일반주서
 62
     0
100
AcDbMText
 10
29.59763753669839
 20
33.06078207544182
 30
0.0
 40
3.5
 41
0.0
 71
     2
 72
     1
  1
\A1;38.10 [1 1/2]
  7
SLDTEXTSTYLE0
 73
     1
 44
1.0
  0
POINT
  5
12A
330
121
100
AcDbEntity
  8
Defpoints
 62
     0
100
AcDbPoint
 10
49.05000000000001
 20
8.502621974755884
 30
0.0
  0
POINT
  5
12B
330
121
100
AcDbEntity
  8
Defpoints
 62
     0
100
AcDbPoint
 10
10.95000000000002
 20
-9.415149419357578
 30
0.0
  0
POINT
  5
12C
330
121
100
AcDbEntity
  8
Defpoints
 62
     0
100
AcDbPoint
 10
10.95000000000002
 20
28.68578207544182
 30
0.0
  0
ENDBLK
  5
123
330
121
100
AcDbEntity
  8
0
100
AcDbBlockEnd
  0
BLOCK
  5
135
330
134
100
AcDbEntity
  8
0
100
AcDbBlockBegin
  2
_D_3
 70
     0
 10
0.0
 20
0.0
 30
0.0
  3
_D_3
  1
_D_3
  0
LINE
  5
137
330
134
100
AcDbEntity
  8
치수문자_일반주서
 62
     0
370
    -2
100
AcDbLine
 10
-52.11249999999998
 20
9.264621974755881
 30
0.0
 11
-65.55000000000004
 21
9.264621974755833
 31
0.0
  0
LINE
  5
138
330
134
100
AcDbEntity
  8
치수문자_일반주서
 62
     0
370
    -2
100
AcDbLine
 10
-52.11249999999998
 20
-9.78537802524412
 30
0.0
 11
-65.54999999999997
 21
-9.785378025244167
 31
0.0
  0
LINE
  5
139
330
134
100
AcDbEntity
  8
치수문자_일반주서
 62
     0
370
    -2
100
AcDbLine
 10
-65.55000000000003
 20
5.962621974755834
 30
0.0
 11
-65.54999999999998
 21
-6.483378025244168
 31
0.0
  0
SOLID
  5
13A
330
134
100
AcDbEntity
  8
치수문자_일반주서
 62
     0
100
AcDbTrace
 10
-64.9996666666667
 20
5.962621974755836
 30
0.0
 11
-66.10033333333335
 21
5.962621974755832
 31
0.0
 12
-65.55000000000004
 22
9.264621974755833
 32
0.0
 13
-65.55000000000004
 23
9.264621974755833
 33
0.0
  0
SOLID
  5
13B
330
134
100
AcDbEntity
  8
치수문자_일반주서
 62
     0
100
AcDbTrace
 10
-66.10033333333331
 20
-6.48337802524417
 30
0.0
 11
-64.99966666666666
 21
-6.483378025244166
 31
0.0
 12
-65.54999999999997
 22
-9.785378025244167
 32
0.0
 13
-65.54999999999997
 23
-9.785378025244167
 33
0.0
  0
MTEXT
  5
13C
330
134
100
AcDbEntity
  8
치수문자_일반주서
 62
     0
100
AcDbMText
 10
-69.925
 20
-0.2603780252442087
 30
0.0
 40
3.5
 41
0.0
 71
     2
 72
     1
  1
\A1;%%c19.05 [3/4]
  7
SLDTEXTSTYLE0
 11
-3.729883127349607E-15
 21
1.0
 31
0.0
 73
     1
 44
1.0
  0
POINT
  5
13D
330
134
100
AcDbEntity
  8
Defpoints
 62
     0
100
AcDbPoint
 10
-52.04999999999998
 20
9.264621974755881
 30
0.0
  0
POINT
  5
13E
330
134
100
AcDbEntity
  8
Defpoints
 62
     0
100
AcDbPoint
 10
-52.04999999999998
 20
-9.78537802524412
 30
0.0
  0
POINT
  5
13F
330
134
100
AcDbEntity
  8
Defpoints
 62
     0
100
AcDbPoint
 10
-65.55
 20
-9.785378025244167
 30
0.0
  0
ENDBLK
  5
136
330
134
100
AcDbEntity
  8
0
100
AcDbBlockEnd
  0
BLOCK
  5
148
330
147
100
AcDbEntity
  8
0
100
AcDbBlockBegin
  2
SW_DOWELSYMBOL_0
 70
     0
 10
0.0
 20
0.0
 30
0.0
  3
SW_DOWELSYMBOL_0
  1
SW_DOWELSYMBOL_0
  0
CIRCLE
  5
14A
330
147
100
AcDbEntity
  8
외형선
 62
     0
100
AcDbCircle
 10
0.0
 20
0.0
 30
0.0
 40
3.000000000000001
  0
HATCH
  5
14B
330
147
100
AcDbEntity
  8
0
  6
Continuous
 62
     0
370
    30
100
AcDbHatch
 10
0.0
 20
0.0
 30
0.0
210
0.0
220
0.0
230
1.0
  2
SOLID
 70
     1
 71
     0
 91
        1
 92
        0
 93
        3
 72
     2
 10
0.0000000000000139
 20
-0.0000000000000035
 40
3.000000000000001
 50
0.0
 51
90.0
 73
     1
 72
     1
 10
0.0000000000000139
 20
2.999999999999998
 11
0.0000000000000139
 21
-0.0000000000000036
 72
     1
 10
0.0000000000000139
 20
-0.0000000000000035
 11
3.000000000000015
 21
-0.0000000000000035
 97
        0
 75
     0
 76
     1
 98
        1
 10
0.0
 20
0.0
  0
HATCH
  5
14C
330
147
100
AcDbEntity
  8
0
  6
Continuous
 62
     0
370
    30
100
AcDbHatch
 10
0.0
 20
0.0
 30
0.0
210
0.0
220
0.0
230
1.0
  2
SOLID
 70
     1
 71
     0
 91
        1
 92
        0
 93
        3
 72
     2
 10
0.0000000000000139
 20
-0.0000000000000035
 40
3.000000000000001
 50
180.0
 51
270.0000000000007
 73
     1
 72
     1
 10
0.0000000000000139
 20
-3.000000000000005
 11
0.0000000000000139
 21
-0.0000000000000036
 72
     1
 10
0.0000000000000139
 20
-0.0000000000000035
 11
-2.999999999999988
 21
-0.0000000000000035
 97
        0
 75
     0
 76
     1
 98
        1
 10
0.0
 20
0.0
  0
ENDBLK
  5
149
330
147
100
AcDbEntity
  8
0
100
AcDbBlockEnd
  0
BLOCK
  5
17C
330
17B
100
AcDbEntity
  8
0
100
AcDbBlockBegin
  2
*D7
 70
     1
 10
0.0
 20
0.0
 30
0.0
  3
*D7
  1
*D7
  0
LINE
  5
17E
330
17B
100
AcDbEntity
  8
치수문자_일반주서
 62
     0
370
    -2
100
AcDbLine
 10
51.07546949125413
 20
11.46000423535859
 30
0.0
 11
74.77501515065207
 21
36.60417752132831
 31
0.0
  0
MTEXT
  5
17F
330
17B
100
AcDbEntity
  8
치수문자_일반주서
 62
     0
100
AcDbMText
 10
63.86244981925633
 20
28.85355381171502
 30
0.0
 40
3.5
 41
0.0
 71
     5
 72
     1
  1
\A1;R.76 [R0.03]
  7
SLDTEXTSTYLE0
 11
0.6858930834778819
 21
0.7277023279042081
 31
0.0
 73
     1
 44
1.0
  0
SOLID
  5
180
330
17B
100
AcDbEntity
  8
치수문자_일반주서
 62
     0
100
AcDbTrace
 10
50.67499064346418
 20
11.83747406229925
 30
0.0
 11
51.47594833904407
 21
11.08253440841792
 31
0.0
 12
48.81065052961016
 22
9.057131148618891
 32
0.0
 13
48.81065052961016
 23
9.057131148618891
 33
0.0
  0
LINE
  5
181
330
17B
100
AcDbEntity
  8
치수문자_일반주서
 62
     0
100
AcDbLine
 10
48.19800000000001
 20
8.502621974755884
 30
0.0
 11
48.37800000000001
 21
8.502621974755884
 31
0.0
  0
LINE
  5
182
330
17B
100
AcDbEntity
  8
치수문자_일반주서
 62
     0
100
AcDbLine
 10
48.28800000000001
 20
8.412621974755885
 30
0.0
 11
48.28800000000001
 21
8.592621974755884
 31
0.0
  0
POINT
  5
183
330
17B
100
AcDbEntity
  8
Defpoints
 62
     0
100
AcDbPoint
 10
48.81065052961016
 20
9.057131148618891
 30
0.0
  0
POINT
  5
184
330
17B
100
AcDbEntity
  8
Defpoints
 62
     0
100
AcDbPoint
 10
48.28800000000001
 20
8.502621974755884
 30
0.0
  0
ENDBLK
  5
17D
330
17B
100
AcDbEntity
  8
0
100
AcDbBlockEnd
  0
ENDSEC
  0
SECTION
  2
ENTITIES
  0
LINE
  5
95
330
1F
100
AcDbEntity
  8
0
  6
Continuous
 62
     4
370
    15
100
AcDbLine
 10
8.326829730202943
 20
9.264621974755885
 30
0.0
 11
-19.056925
 21
9.264621974755883
 31
0.0
  0
LINE
  5
96
330
1F
100
AcDbEntity
  8
0
  6
Continuous
 62
     4
370
    15
100
AcDbLine
 10
-52.04999999999998
 20
-9.78537802524412
 30
0.0
 11
8.326829730202943
 21
-9.785378025244116
 31
0.0
  0
LINE
  5
97
330
1F
100
AcDbEntity
  8
0
  6
Continuous
 62
     4
370
    15
100
AcDbLine
 10
-52.04999999999998
 20
9.264621974755876
 30
0.0
 11
-52.54999999999998
 21
8.764621974755876
 31
0.0
  0
LINE
  5
98
330
1F
100
AcDbEntity
  8
0
  6
Continuous
 62
     4
370
    15
100
AcDbLine
 10
-52.54999999999998
 20
-9.285378025244114
 30
0.0
 11
-52.04999999999998
 21
-9.785378025244114
 31
0.0
  0
LINE
  5
99
330
1F
100
AcDbEntity
  8
0
  6
Continuous
 62
     1
370
    15
100
AcDbLine
 10
7.900423722271372
 20
-9.601831211867745
 30
0.0
 11
7.900423721707458
 21
-9.601804409845453
 31
0.0
  0
LINE
  5
9A
330
1F
100
AcDbEntity
  8
0
  6
Continuous
 62
     1
370
    15
100
AcDbLine
 10
34.95328129620053
 20
-9.785378025244116
 30
0.0
 11
38.2097486279043
 21
-9.785378025244116
 31
0.0
  0
LINE
  5
9B
330
1F
100
AcDbEntity
  8
0
  6
Continuous
 62
     1
370
    15
100
AcDbLine
 10
44.92840332232946
 20
-9.785378025244116
 30
0.0
 11
48.18513436957374
 21
-9.785378025244116
 31
0.0
  0
LINE
  5
9C
330
1F
100
AcDbEntity
  8
0
  6
Continuous
 62
     1
370
    15
100
AcDbLine
 10
18.26108664119832
 20
9.264621974755885
 30
0.0
 11
15.00398266210338
 21
9.264621974755885
 31
0.0
  0
LINE
  5
9D
330
1F
100
AcDbEntity
  8
0
  6
Continuous
 62
     1
370
    15
100
AcDbLine
 10
28.23549594174957
 20
9.264621974755885
 30
0.0
 11
24.97883832822815
 21
9.264621974755885
 31
0.0
  0
LINE
  5
9E
330
1F
100
AcDbEntity
  8
0
  6
Continuous
 62
     1
370
    15
100
AcDbLine
 10
24.97883832822809
 20
-9.785378025244116
 30
0.0
 11
28.2354959417495
 21
-9.785378025244116
 31
0.0
  0
LINE
  5
9F
330
1F
100
AcDbEntity
  8
0
  6
Continuous
 62
     1
370
    15
100
AcDbLine
 10
38.20974862790428
 20
9.264621974755885
 30
0.0
 11
34.95328129620059
 21
9.264621974755885
 31
0.0
  0
LINE
  5
A0
330
1F
100
AcDbEntity
  8
0
  6
Continuous
 62
     1
370
    15
100
AcDbLine
 10
15.00398266210337
 20
-9.785378025244116
 30
0.0
 11
18.26108664119825
 21
-9.785378025244116
 31
0.0
  0
LINE
  5
A1
330
1F
100
AcDbEntity
  8
0
  6
Continuous
 62
     1
370
    15
100
AcDbLine
 10
48.18513436957367
 20
9.264621974755885
 30
0.0
 11
44.92840332232949
 21
9.264621974755885
 31
0.0
  0
SPLINE
  5
A3
330
1F
100
AcDbEntity
  8
0
  6
Continuous
 62
     4
370
    15
100
AcDbSpline
210
0.0
220
0.0
230
1.0
 70
     8
 71
     3
 72
    14
 73
    10
 74
     0
 42
0.000000001
 43
0.00000001
 40
0.0
 40
0.0
 40
0.0
 40
0.0
 40
0.25
 40
0.25
 40
0.5
 40
0.5
 40
0.75
 40
0.75
 40
1.0
 40
1.0
 40
1.0
 40
1.0
 10
8.530379435336004
 20
-5.232834728118675
 30
0.0
 10
8.397221697117013
 20
-5.118900872612233
 30
0.0
 10
8.287716399378754
 20
-4.989579546845948
 30
0.0
 10
8.11016735194848
 20
-4.701512427439342
 30
0.0
 10
8.043977469064648
 20
-4.544139651562869
 30
0.0
 10
7.952544779804549
 20
-4.218157261414953
 30
0.0
 10
7.926588367477486
 20
-4.047091208419776
 30
0.0
 10
7.900556713839865
 20
-3.70233286502299
 30
0.0
 10
7.900423721520642
 20
-3.527270050351759
 30
0.0
 10
7.900423721520642
 20
-3.350164538981979
 30
0.0
  0
SPLINE
  5
A4
330
1F
100
AcDbEntity
  8
0
  6
Continuous
 62
     4
370
    15
100
AcDbSpline
210
0.0
220
0.0
230
1.0
 70
     8
 71
     3
 72
    24
 73
    20
 74
     0
 42
0.000000001
 43
0.00000001
 40
0.0
 40
0.0
 40
0.0
 40
0.0
 40
0.1249999999999998
 40
0.1249999999999998
 40
0.2499999999999997
 40
0.2499999999999997
 40
0.3749999999999997
 40
0.3749999999999997
 40
0.4999999999999998
 40
0.4999999999999998
 40
0.6249999999999998
 40
0.6249999999999998
 40
0.6874999999999999
 40
0.6874999999999999
 40
0.7499999999999999
 40
0.7499999999999999
 40
0.8749999999999999
 40
0.8749999999999999
 40
1.0
 40
1.0
 40
1.0
 40
1.0
 10
7.900423721520642
 20
-3.350164538982019
 30
0.0
 10
7.900423721520642
 20
-3.157323930851506
 30
0.0
 10
7.900809584619233
 20
-2.962757689303862
 30
0.0
 10
7.934163665836594
 20
-2.573067599926283
 30
0.0
 10
7.966859576483822
 20
-2.376258312505886
 30
0.0
 10
8.083316919319909
 20
-1.991304811174699
 30
0.0
 10
8.165132590053267
 20
-1.807718659735473
 30
0.0
 10
8.388071507591095
 20
-1.464332851865787
 30
0.0
 10
8.522982397539181
 20
-1.313793563060055
 30
0.0
 10
8.842783867938389
 20
-1.0586641090475
 30
0.0
 10
9.022947543312963
 20
-0.9588085953096841
 30
0.0
 10
9.3129486130499
 20
-0.857841767951773
 30
0.0
 10
9.41347493369256
 20
-0.8322852719859498
 30
0.0
 10
9.614517649908356
 20
-0.799124408718674
 30
0.0
 10
9.716001830868047
 20
-0.7911308634212347
 30
0.0
 10
10.02339299780874
 20
-0.7933699976827032
 30
0.0
 10
10.226591018459
 20
-0.8300529817587055
 30
0.0
 10
10.61184701723748
 20
-0.9705122117186645
 30
0.0
 10
10.79096217969212
 20
-1.073142014827812
 30
0.0
 10
10.94999999999986
 20
-1.204088660331505
 30
0.0
  0
SPLINE
  5
A5
330
1F
100
AcDbEntity
  8
0
  6
Continuous
 62
     1
370
    15
100
AcDbSpline
210
0.0
220
0.0
230
1.0
 70
    24
 71
     3
 72
     8
 73
     4
 74
     0
 42
0.000000001
 43
0.00000001
 40
0.0
 40
0.0
 40
0.0
 40
0.0
 40
1.0
 40
1.0
 40
1.0
 40
1.0
 10
10.95000000000001
 20
-1.204088660331164
 30
0.0
 10
10.95000000000001
 20
-1.279491327073615
 30
0.0
 10
10.95000000000001
 20
-1.371958745331502
 30
0.0
 10
10.95000000000001
 20
-1.483658312627036
 30
0.0
  0
SPLINE
  5
A6
330
1F
100
AcDbEntity
  8
0
  6
Continuous
 62
     4
370
    15
100
AcDbSpline
210
0.0
220
0.0
230
1.0
 70
     8
 71
     3
 72
    24
 73
    20
 74
     0
 42
0.000000001
 43
0.00000001
 40
0.0
 40
0.0
 40
0.0
 40
0.0
 40
0.1250000000000001
 40
0.1250000000000001
 40
0.2500000000000001
 40
0.2500000000000001
 40
0.3750000000000002
 40
0.3750000000000002
 40
0.5000000000000003
 40
0.5000000000000003
 40
0.6250000000000006
 40
0.6250000000000006
 40
0.6875000000000004
 40
0.6875000000000004
 40
0.7500000000000003
 40
0.7500000000000003
 40
0.8750000000000001
 40
0.8750000000000001
 40
1.0
 40
1.0
 40
1.0
 40
1.0
 10
7.900423721520642
 20
-9.608099822113399
 30
0.0
 10
7.900423721520642
 20
-9.568950702521327
 30
0.0
 10
7.900809584619236
 20
-9.523436827556683
 30
0.0
 10
7.934163665836597
 20
-9.420685124330058
 30
0.0
 10
7.966859576483822
 20
-9.362910970415875
 30
0.0
 10
8.083316919319905
 20
-9.239170249917843
 30
0.0
 10
8.165132590053267
 20
-9.17475477948697
 30
0.0
 10
8.388071507591093
 20
-9.04646615104651
 30
0.0
 10
8.522982397539176
 20
-8.986126988712229
 30
0.0
 10
8.842783867938383
 20
-8.8801411306132
 30
0.0
 10
9.022947543312958
 20
-8.836486884925877
 30
0.0
 10
9.312948613049896
 20
-8.791809929287068
 30
0.0
 10
9.413474933692557
 20
-8.780353582767853
 30
0.0
 10
9.614517649908352
 20
-8.765450330413502
 30
0.0
 10
9.716001830868043
 20
-8.761830284057053
 30
0.0
 10
10.02339299780874
 20
-8.762841477065068
 30
0.0
 10
10.226591018459
 20
-8.77956657103313
 30
0.0
 10
10.61184701723748
 20
-8.841605629213046
 30
0.0
 10
10.79096217969212
 20
-8.886356575379851
 30
0.0
 10
10.94999999999986
 20
-8.940538675066605
 30
0.0
  0
SPLINE
  5
A7
330
1F
100
AcDbEntity
  8
0
  6
Continuous
 62
     4
370
    15
100
AcDbSpline
210
0.0
220
0.0
230
1.0
 70
     8
 71
     3
 72
    14
 73
    10
 74
     0
 42
0.000000001
 43
0.00000001
 40
0.0
 40
0.0
 40
0.0
 40
0.0
 40
0.2500000000000001
 40
0.2500000000000001
 40
0.5000000000000001
 40
0.5000000000000001
 40
0.75
 40
0.75
 40
1.0
 40
1.0
 40
1.0
 40
1.0
 10
8.530379435336004
 20
-9.782245971169463
 30
0.0
 10
8.397221697117015
 20
-9.78567133141176
 30
0.0
 10
8.287716399378759
 20
-9.786714663017278
 30
0.0
 10
8.110167351948483
 20
-9.77969271900653
 30
0.0
 10
8.043977469064648
 20
-9.77150377938933
 30
0.0
 10
7.952544779804549
 20
-9.743980755227108
 30
0.0
 10
7.926588367477487
 20
-9.72445821561104
 30
0.0
 10
7.900556713839865
 20
-9.674531870936487
 30
0.0
 10
7.900423721520642
 20
-9.644054515018734
 30
0.0
 10
7.900423721520642
 20
-9.608099822113296
 30
0.0
  0
SPLINE
  5
A8
330
1F
100
AcDbEntity
  8
0
  6
Continuous
 62
     4
370
    15
100
AcDbSpline
210
0.0
220
0.0
230
1.0
 70
     8
 71
     3
 72
    10
 73
     6
 74
     0
 42
0.000000001
 43
0.00000001
 40
0.0
 40
0.0
 40
0.0
 40
0.0
 40
0.5
 40
0.5
 40
1.0
 40
1.0
 40
1.0
 40
1.0
 10
10.95000000000013
 20
-9.415149419357546
 30
0.0
 10
10.54694274823326
 20
-9.526493368328852
 30
0.0
 10
10.14626066975995
 20
-9.613053381026424
 30
0.0
 10
9.337286858816862
 20
-9.735916193510544
 30
0.0
 10
8.931861724165934
 20
-9.771918208858867
 30
0.0
 10
8.530379435335997
 20
-9.782245971169482
 30
0.0
  0
LINE
  5
A9
330
1F
100
AcDbEntity
  8
0
  6
Continuous
 62
     4
370
    15
100
AcDbLine
 10
8.530379435335997
 20
9.26148992068125
 30
0.0
 11
8.326829730202943
 21
9.264451859400797
 31
0.0
  0
SPLINE
  5
AA
330
1F
100
AcDbEntity
  8
0
  6
Continuous
 62
     4
370
    15
100
AcDbSpline
210
0.0
220
0.0
230
1.0
 70
     8
 71
     3
 72
    10
 73
     6
 74
     0
 42
0.000000001
 43
0.00000001
 40
0.0
 40
0.0
 40
0.0
 40
0.0
 40
0.5
 40
0.5
 40
1.0
 40
1.0
 40
1.0
 40
1.0
 10
10.95000000000013
 20
8.894393368869315
 30
0.0
 10
10.54694274823326
 20
9.00573731784062
 30
0.0
 10
10.14626066975995
 20
9.092297330538191
 30
0.0
 10
9.33728685881686
 20
9.215160143022311
 30
0.0
 10
8.931861724165934
 20
9.251162158370635
 30
0.0
 10
8.530379435335995
 20
9.26148992068125
 30
0.0
  0
SPLINE
  5
AB
330
1F
100
AcDbEntity
  8
0
  6
Continuous
 62
     4
370
    15
100
AcDbSpline
210
0.0
220
0.0
230
1.0
 70
     8
 71
     3
 72
    24
 73
    20
 74
     0
 42
0.000000001
 43
0.00000001
 40
0.0
 40
0.0
 40
0.0
 40
0.0
 40
0.1250000000000001
 40
0.1250000000000001
 40
0.2500000000000001
 40
0.2500000000000001
 40
0.3750000000000002
 40
0.3750000000000002
 40
0.5000000000000002
 40
0.5000000000000002
 40
0.6250000000000002
 40
0.6250000000000002
 40
0.6875000000000002
 40
0.6875000000000002
 40
0.7500000000000001
 40
0.7500000000000001
 40
0.875
 40
0.875
 40
1.0
 40
1.0
 40
1.0
 40
1.0
 10
7.900423721520642
 20
5.997557257887302
 30
0.0
 10
7.900423721520641
 20
6.151248746425745
 30
0.0
 10
7.900809584619235
 20
6.300301113008749
 30
0.0
 10
7.934163665836599
 20
6.587239499159709
 30
0.0
 10
7.96685957648382
 20
6.726274632665924
 30
0.0
 10
8.083316919319907
 20
6.987487413499085
 30
0.0
 10
8.165132590053272
 20
7.10665809450744
 30
0.0
 10
8.388071507591096
 20
7.321755273936666
 30
0.0
 10
8.522982397539183
 20
7.41195540040812
 30
0.0
 10
8.84278386793839
 20
7.561098996321645
 30
0.0
 10
9.022947543312966
 20
7.617300264372136
 30
0.0
 10
9.312948613049903
 20
7.673590136091235
 30
0.0
 10
9.413474933692562
 20
7.687690285537851
 30
0.0
 10
9.614517649908358
 20
7.705947896450779
 30
0.0
 10
9.716001830868048
 20
7.710321395391763
 30
0.0
 10
10.02339299780874
 20
7.709093454138314
 30
0.0
 10
10.226591018459
 20
7.689135564030374
 30
0.0
 10
10.61184701723748
 20
7.610715392250323
 30
0.0
 10
10.79096217969212
 20
7.55283653530798
 30
0.0
 10
10.94999999999986
 20
7.476071989491043
 30
0.0
  0
SPLINE
  5
AC
330
1F
100
AcDbEntity
  8
0
  6
Continuous
 62
     4
370
    15
100
AcDbSpline
210
0.0
220
0.0
230
1.0
 70
     8
 71
     3
 72
    14
 73
    10
 74
     0
 42
0.000000001
 43
0.00000001
 40
0.0
 40
0.0
 40
0.0
 40
0.0
 40
0.25
 40
0.25
 40
0.5
 40
0.5
 40
0.75
 40
0.75
 40
1.0
 40
1.0
 40
1.0
 40
1.0
 10
8.530379435336002
 20
4.289033217806683
 30
0.0
 10
8.397221697117011
 20
4.406392433555426
 30
0.0
 10
8.287716399378754
 20
4.536757090927239
 30
0.0
 10
8.110167351948478
 20
4.817802266323097
 30
0.0
 10
8.043977469064645
 20
4.966986102582376
 30
0.0
 10
7.952544779804548
 20
5.265445468568073
 30
0.0
 10
7.926588367477487
 20
5.416988981947187
 30
0.0
 10
7.900556713839867
 20
5.711820980669417
 30
0.0
 10
7.900423721520639
 20
5.856406439422901
 30
0.0
 10
7.900423721520639
 20
5.997557257887244
 30
0.0
  0
SPLINE
  5
AD
330
1F
100
AcDbEntity
  8
0
  6
Continuous
 62
     4
370
    15
100
AcDbSpline
210
0.0
220
0.0
230
1.0
 70
     8
 71
     3
 72
    10
 73
     6
 74
     0
 42
0.000000001
 43
0.00000001
 40
0.0
 40
0.0
 40
0.0
 40
0.0
 40
0.5
 40
0.5
 40
1.0
 40
1.0
 40
1.0
 40
1.0
 10
10.95000000000013
 20
2.039544326082908
 30
0.0
 10
10.54694274823326
 20
2.430895160404484
 30
0.0
 10
10.14626066975995
 20
2.815308832615341
 30
0.0
 10
9.337286858816862
 20
3.5679310009669
 30
0.0
 10
8.931861724165934
 20
3.935184863334024
 30
0.0
 10
8.530379435335997
 20
4.289033217806689
 30
0.0
  0
SPLINE
  5
AE
330
1F
100
AcDbEntity
  8
0
  6
Continuous
 62
     4
370
    15
100
AcDbSpline
210
0.0
220
0.0
230
1.0
 70
     8
 71
     3
 72
    10
 73
     6
 74
     0
 42
0.000000001
 43
0.00000001
 40
0.0
 40
0.0
 40
0.0
 40
0.0
 40
0.5
 40
0.5
 40
1.0
 40
1.0
 40
1.0
 40
1.0
 10
10.95000000000013
 20
-7.115227068030515
 30
0.0
 10
10.54694274823326
 20
-6.835220182680248
 30
0.0
 10
10.14626066975995
 20
-6.537366523166965
 30
0.0
 10
9.337286858816862
 20
-5.907607167299536
 30
0.0
 10
8.931861724165934
 20
-5.576355320280738
 30
0.0
 10
8.530379435335997
 20
-5.232834728118695
 30
0.0
  0
LINE
  5
AF
330
1F
100
AcDbEntity
  8
0
  6
Continuous
 62
     4
370
    15
100
AcDbLine
 10
-52.04999999999998
 20
9.264621974755876
 30
0.0
 11
-52.04999999999998
 21
-9.785378025244123
 31
0.0
  0
LINE
  5
B0
330
1F
100
AcDbEntity
  8
0
  6
Continuous
 62
     1
370
    15
100
AcDbLine
 10
10.95
 20
8.89439336886934
 30
0.0
 11
10.95000000000001
 21
7.476071989491249
 31
0.0
  0
LINE
  5
B1
330
1F
100
AcDbEntity
  8
0
  6
Continuous
 62
     4
370
    15
100
AcDbLine
 10
10.95
 20
-7.115227068030423
 30
0.0
 11
10.95000000000001
 21
-8.940538675066458
 31
0.0
  0
LINE
  5
B2
330
1F
100
AcDbEntity
  8
0
  6
Continuous
 62
     4
370
    15
100
AcDbLine
 10
10.95
 20
2.039544326083024
 30
0.0
 11
10.95000000000001
 21
-1.204088660331152
 31
0.0
  0
LINE
  5
B3
330
1F
100
AcDbEntity
  8
0
  6
Continuous
 62
     4
370
    15
100
AcDbLine
 10
-52.54999999999998
 20
8.764621974755876
 30
0.0
 11
-52.54999999999998
 21
-9.285378025244098
 31
0.0
  0
SPLINE
  5
B4
330
1F
100
AcDbEntity
  8
0
  6
Continuous
 62
     4
370
    15
100
AcDbSpline
210
0.0
220
0.0
230
1.0
 70
     8
 71
     3
 72
     9
 73
     5
 74
     0
 42
0.000000001
 43
0.00000001
 40
0.0
 40
0.0
 40
0.0
 40
0.0
 40
0.1757995394187959
 40
1.0
 40
1.0
 40
1.0
 40
1.0
 10
8.670819227689437
 20
4.207709016256203
 30
0.0
 10
8.662509876284805
 20
4.208054023999774
 30
0.0
 10
8.615243817271777
 20
4.210016530526895
 30
0.0
 10
8.58751300790511
 20
4.24048193004306
 30
0.0
 10
8.564657262052815
 20
4.265591526356076
 30
0.0
  0
SPLINE
  5
B5
330
1F
100
AcDbEntity
  8
0
  6
Continuous
 62
     4
370
    15
100
AcDbSpline
210
0.0
220
0.0
230
1.0
 70
    24
 71
     3
 72
    16
 73
    12
 74
     0
 42
0.000000001
 43
0.00000001
 40
0.0
 40
0.0
 40
0.0
 40
0.0
 40
0.25
 40
0.25
 40
0.5
 40
0.5
 40
0.75
 40
0.75
 40
0.875
 40
0.875
 40
1.0
 40
1.0
 40
1.0
 40
1.0
 10
10.95000000000001
 20
6.788860830752497
 30
0.0
 10
10.95000000000001
 20
6.403032996437106
 30
0.0
 10
10.95000000000001
 20
5.974912046579058
 30
0.0
 10
10.95000000000001
 20
5.063121617769842
 30
0.0
 10
10.95000000000001
 20
4.578791808664865
 30
0.0
 10
10.95000000000001
 20
3.640870504378299
 30
0.0
 10
10.95000000000001
 20
3.188838182929506
 30
0.0
 10
10.95000000000001
 20
2.638899484382049
 30
0.0
 10
10.95000000000001
 20
2.477190019839515
 30
0.0
 10
10.95000000000001
 20
2.212153076572503
 30
0.0
 10
10.95000000000001
 20
2.108937204987576
 30
0.0
 10
10.95000000000001
 20
2.039544326083026
 30
0.0
  0
SPLINE
  5
B6
330
1F
100
AcDbEntity
  8
0
  6
Continuous
 62
     4
370
    15
100
AcDbSpline
210
0.0
220
0.0
230
1.0
 70
    24
 71
     3
 72
    16
 73
    12
 74
     0
 42
0.000000001
 43
0.00000001
 40
0.0
 40
0.0
 40
0.0
 40
0.0
 40
0.2499999999999999
 40
0.2499999999999999
 40
0.5
 40
0.5
 40
0.7500000000000002
 40
0.7500000000000002
 40
0.8750000000000001
 40
0.8750000000000001
 40
1.0
 40
1.0
 40
1.0
 40
1.0
 10
10.95000000000001
 20
-1.483658312626562
 30
0.0
 10
10.95000000000001
 20
-1.670034483296402
 30
0.0
 10
10.95000000000001
 20
-1.917043648132961
 30
0.0
 10
10.95000000000001
 20
-2.57427693273592
 30
0.0
 10
10.95000000000001
 20
-2.986226457118497
 30
0.0
 10
10.95000000000001
 20
-3.980374737177508
 30
0.0
 10
10.95000000000001
 20
-4.563852934035662
 30
0.0
 10
10.95000000000001
 20
-5.504609698688902
 30
0.0
 10
10.95000000000001
 20
-5.828240222637496
 30
0.0
 10
10.95000000000001
 20
-6.476477400480446
 30
0.0
 10
10.95000000000001
 20
-6.800947311152739
 30
0.0
 10
10.95000000000001
 20
-7.11522706803042
 30
0.0
  0
SPLINE
  5
B7
330
1F
100
AcDbEntity
  8
0
  6
Continuous
 62
     1
370
    15
100
AcDbSpline
210
0.0
220
0.0
230
1.0
 70
    24
 71
     3
 72
     8
 73
     4
 74
     0
 42
0.000000001
 43
0.00000001
 40
0.0
 40
0.0
 40
0.0
 40
0.0
 40
1.0
 40
1.0
 40
1.0
 40
1.0
 10
10.95000000000001
 20
7.476071989491349
 30
0.0
 10
10.95000000000001
 20
7.249082286773918
 30
0.0
 10
10.95000000000001
 20
7.020096411934193
 30
0.0
 10
10.95000000000001
 20
6.788860830751555
 30
0.0
  0
SPLINE
  5
B8
330
1F
100
AcDbEntity
  8
0
  6
Continuous
 62
     4
370
    15
100
AcDbSpline
210
0.0
220
0.0
230
1.0
 70
    24
 71
     3
 72
     9
 73
     5
 74
     0
 42
0.000000001
 43
0.00000001
 40
0.0
 40
0.0
 40
0.0
 40
0.0
 40
0.0757702795926591
 40
1.0
 40
1.0
 40
1.0
 40
1.0
 10
10.95
 20
-9.007600182705492
 30
0.0
 10
10.95
 20
-9.016355412811842
 30
0.0
 10
10.95
 20
-9.13190507362102
 30
0.0
 10
10.95
 20
-9.279103894392062
 30
0.0
 10
10.95000000000001
 20
-9.415149419357574
 30
0.0
  0
SPLINE
  5
B9
330
1F
100
AcDbEntity
  8
0
  6
Continuous
 62
     1
370
    15
100
AcDbSpline
210
0.0
220
0.0
230
1.0
 70
     8
 71
     3
 72
    24
 73
    20
 74
     0
 42
0.000000001
 43
0.00000001
 40
0.0
 40
0.0
 40
0.0
 40
0.0
 40
0.060358367029847
 40
0.1206207714128327
 40
0.1808694231488784
 40
0.2412250157263161
 40
0.301496745172148
 40
0.3626791105232589
 40
0.4239625461388145
 40
0.4851932927082088
 40
0.5463699797808249
 40
0.6076295575871985
 40
0.6688876510313384
 40
0.7300642015084635
 40
0.7912961673787379
 40
0.8525787115086286
 40
0.9137606671861356
 40
0.9749705118368566
 40
1.0
 40
1.0
 40
1.0
 40
1.0
 10
10.95000000000053
 20
7.482787582968629
 30
0.0
 10
11.43328267044116
 20
7.184530991064353
 30
0.0
 10
12.39907964917945
 20
6.588491999872524
 30
0.0
 10
13.84567575621548
 20
5.488112979420798
 30
0.0
 10
15.29176524253042
 20
4.267558336272422
 30
0.0
 10
16.74048042699433
 20
2.941466203107625
 30
0.0
 10
18.19464353075523
 20
1.533505311945378
 30
0.0
 10
19.6557128860221
 20
0.075219718182176
 30
0.0
 10
21.12670899908684
 20
-1.396360564581547
 30
0.0
 10
22.59642510431902
 20
-2.842173205773447
 30
0.0
 10
24.06483913886479
 20
-4.227455043045381
 30
0.0
 10
25.53525214736372
 20
-5.517060137561828
 30
0.0
 10
27.00562858651913
 20
-6.681853296062148
 30
0.0
 10
28.4740390703329
 20
-7.695411180944867
 30
0.0
 10
29.94378364895956
 20
-8.53056589609052
 30
0.0
 10
31.41475947207375
 20
-9.172572711463008
 30
0.0
 10
32.88330657929296
 20
-9.589742829684129
 30
0.0
 10
34.0624573040021
 20
-9.787900162117339
 30
0.0
 10
34.75289390670188
 20
-9.764702853181886
 30
0.0
 10
34.95328129620053
 20
-9.757970231877062
 30
0.0
  0
LINE
  5
BA
330
1F
100
AcDbEntity
  8
0
  6
Continuous
 62
     4
370
    15
100
AcDbLine
 10
10.95000000000001
 20
7.482787582967156
 30
0.0
 11
10.95000000000001
 21
8.894393368869343
 31
0.0
  0
SPLINE
  5
BB
330
1F
100
AcDbEntity
  8
0
  6
Continuous
 62
     1
370
    15
100
AcDbSpline
210
0.0
220
0.0
230
1.0
 70
     8
 71
     3
 72
    28
 73
    24
 74
     0
 42
0.000000001
 43
0.00000001
 40
0.0
 40
0.0
 40
0.0
 40
0.0
 40
0.0454013959137979
 40
0.0916739015750954
 40
0.1396464065280062
 40
0.1876186453077913
 40
0.2356708120251858
 40
0.2836563359871431
 40
0.3316199963583648
 40
0.3796625131557006
 40
0.4276653790716688
 40
0.475624802030201
 40
0.5236481506859794
 40
0.5716726630091373
 40
0.6196321930518526
 40
0.6676341030955762
 40
0.7156773187740638
 40
0.7636413003093508
 40
0.810891387841106
 40
0.85820721996565
 40
0.9054392157018417
 40
0.9526819928404865
 40
1.0
 40
1.0
 40
1.0
 40
1.0
 10
41.56823782912246
 20
-9.197848831828887
 30
0.0
 10
41.10514105181966
 20
-9.340217582246797
 30
0.0
 10
40.17006212907452
 20
-9.627686690861024
 30
0.0
 10
38.74324798673108
 20
-9.804182075270267
 30
0.0
 10
37.29262442239843
 20
-9.779657847102092
 30
0.0
 10
35.82379889162911
 20
-9.524092692167239
 30
0.0
 10
34.35252686672083
 20
-9.050229002686127
 30
0.0
 10
32.88330640336208
 20
-8.366666561781887
 30
0.0
 10
31.41475951929286
 20
-7.490069108113616
 30
0.0
 10
29.94378363630974
 20
-6.443058366212848
 30
0.0
 10
28.47403907371766
 20
-5.248436235813411
 30
0.0
 10
27.00562858561119
 20
-3.934388586482067
 30
0.0
 10
25.53525214760714
 20
-2.53441650348539
 30
0.0
 10
24.06483913879967
 20
-1.080502146421959
 30
0.0
 10
22.59642510433647
 20
0.3944479889975429
 30
0.0
 10
21.12670899908216
 20
1.852918659138105
 30
0.0
 10
19.65571288602336
 20
3.260051812024919
 30
0.0
 10
18.19464353075488
 20
4.578817930398428
 30
0.0
 10
16.74048042699435
 20
5.776842977444777
 30
0.0
 10
15.29176524253024
 20
6.82932118091299
 30
0.0
 10
13.84567575621526
 20
7.716133342364345
 30
0.0
 10
12.39907964917914
 20
8.433816114613498
 30
0.0
 10
11.43328267044079
 20
8.740786211728508
 30
0.0
 10
10.95000000000013
 20
8.89439336886931
 30
0.0
  0
SPLINE
  5
BD
330
1F
100
AcDbEntity
  8
0
  6
Continuous
 62
     1
370
    15
100
AcDbSpline
210
0.0
220
0.0
230
1.0
 70
     8
 71
     3
 72
    28
 73
    24
 74
     0
 42
0.000000001
 43
0.00000001
 40
0.0083714342898971
 40
0.0083714342898971
 40
0.0083714342898971
 40
0.0083714342898971
 40
0.0465923907548807
 40
0.0931035221897701
 40
0.139613461449041
 40
0.1862059478291863
 40
0.232714337257548
 40
0.2792271507985098
 40
0.3258192823177673
 40
0.3741231558195591
 40
0.4224267613096428
 40
0.4708108468370174
 40
0.5191278292762457
 40
0.5674227971026823
 40
0.6157971660534829
 40
0.6641316102357167
 40
0.7124223113796707
 40
0.760777379785587
 40
0.8091336198968782
 40
0.8574244288646959
 40
0.9057579105720281
 40
0.9541329832314798
 40
1.0
 40
1.0
 40
1.0
 40
1.0
 10
48.41424926526037
 20
-9.774846669314659
 30
0.0
 10
48.02655449895437
 20
-9.77670519932597
 30
0.0
 10
47.16715384760664
 20
-9.768915431245816
 30
0.0
 10
45.83755926665853
 20
-9.52923722301827
 30
0.0
 10
44.42337955927439
 20
-9.084745051594767
 30
0.0
 10
43.00663773458358
 20
-8.442973113820434
 30
0.0
 10
41.59247289490352
 20
-7.620824021204702
 30
0.0
 10
40.1781466194287
 20
-6.636043360803037
 30
0.0
 10
38.74325107698984
 20
-5.498344292750029
 30
0.0
 10
37.29262358182657
 20
-4.223151053197203
 30
0.0
 10
35.82379911728112
 20
-2.837778462440809
 30
0.0
 10
34.3525268063317
 20
-1.393282111199275
 30
0.0
 10
32.88330641943546
 20
0.0799551815054075
 30
0.0
 10
31.4147595153121
 20
1.545569714129376
 30
0.0
 10
29.94378363613018
 20
2.966259505092555
 30
0.0
 10
28.47403907840889
 20
4.311437878990776
 30
0.0
 10
27.00562856703357
 20
5.548689819196247
 30
0.0
 10
25.53525221733508
 20
6.64676441098152
 30
0.0
 10
24.06483887864676
 20
7.580519377269187
 30
0.0
 10
22.59642607415693
 20
8.330125978727828
 30
0.0
 10
21.12670537461629
 20
8.870103846960506
 30
0.0
 10
19.68035983573035
 20
9.205687730070268
 30
0.0
 10
18.72570902856419
 20
9.241696030276604
 30
0.0
 10
18.26108664119832
 20
9.25922103762093
 30
0.0
  0
SPLINE
  5
BE
330
1F
100
AcDbEntity
  8
0
  6
Continuous
 62
     1
370
    15
100
AcDbSpline
210
0.0
220
0.0
230
1.0
 70
     8
 71
     3
 72
    25
 73
    21
 74
     0
 42
0.000000001
 43
0.00000001
 40
0.0
 40
0.0
 40
0.0
 40
0.0
 40
0.0381064216335879
 40
0.0954522100214613
 40
0.152875698505643
 40
0.210297795578707
 40
0.2676434559247315
 40
0.3250410615388152
 40
0.382486078189877
 40
0.4398368052613507
 40
0.4972136748919071
 40
0.5546702300687455
 40
0.6120312144467805
 40
0.6693925170912316
 40
0.7245582687342645
 40
0.779628833281498
 40
0.8346959862024066
 40
0.8898621216851581
 40
0.9449279661933608
 40
1.0
 40
1.0
 40
1.0
 40
1.0
 10
21.62088370522762
 20
8.654740553331942
 30
0.0
 10
21.94618967074
 20
8.767447437834553
 30
0.0
 10
22.76104375596201
 20
9.049765240168563
 30
0.0
 10
24.06481021600454
 20
9.253422837333057
 30
0.0
 10
25.53525990199443
 20
9.287557502724963
 30
0.0
 10
27.00562651101134
 20
9.086743078547933
 30
0.0
 10
28.47403962978058
 20
8.665678502976904
 30
0.0
 10
29.94378348733008
 20
8.032077915450396
 30
0.0
 10
31.41475955833453
 20
7.202374467313724
 30
0.0
 10
32.88330639594864
 20
6.194063674404197
 30
0.0
 10
34.35252685733172
 20
5.032550482708811
 30
0.0
 10
35.82379893665343
 20
3.74693388731973
 30
0.0
 10
37.29262425202798
 20
2.364209725485613
 30
0.0
 10
38.74185949054731
 20
0.9381732069595123
 30
0.0
 10
40.17397136624371
 20
-0.4928289841660493
 30
0.0
 10
41.58410124729259
 20
-1.901368541878985
 30
0.0
 10
42.99410616513219
 20
-3.274760335074119
 30
0.0
 10
44.40669991770726
 20
-4.576916786791755
 30
0.0
 10
45.81654870729782
 20
-5.797446673687814
 30
0.0
 10
46.75643839074505
 20
-6.503571326138128
 30
0.0
 10
47.2264096414473
 20
-6.85665349302244
 30
0.0
  0
SPLINE
  5
BF
330
1F
100
AcDbEntity
  8
0
  6
Continuous
 62
     1
370
    15
100
AcDbSpline
210
0.0
220
0.0
230
1.0
 70
     8
 71
     3
 72
    10
 73
     6
 74
     0
 42
0.000000001
 43
0.00000001
 40
0.0
 40
0.0
 40
0.0
 40
0.0
 40
0.2430520473276435
 40
0.6150996743016126
 40
1.0
 40
1.0
 40
1.0
 40
1.0
 10
46.58522980693583
 20
-6.362721544592606
 30
0.0
 10
46.54137486489392
 20
-6.359792290323999
 30
0.0
 10
46.43038974519179
 20
-6.352379131840545
 30
0.0
 10
46.21062289828097
 20
-6.388248625111356
 30
0.0
 10
46.02414655791588
 20
-6.451677514586694
 30
0.0
 10
45.92932523778658
 20
-6.483930458968871
 30
0.0
  0
SPLINE
  5
C0
330
1F
100
AcDbEntity
  8
0
  6
Continuous
 62
     1
370
    15
100
AcDbSpline
210
0.0
220
0.0
230
1.0
 70
     8
 71
     3
 72
     8
 73
     4
 74
     0
 42
0.000000001
 43
0.00000001
 40
0.0
 40
0.0
 40
0.0
 40
0.0
 40
1.0
 40
1.0
 40
1.0
 40
1.0
 10
49.05000000000001
 20
-7.514142895986906
 30
0.0
 10
48.00732811755891
 20
-7.258779996642717
 30
0.0
 10
46.96697297875259
 20
-6.916653242466152
 30
0.0
 10
45.929325237786
 20
-6.483930458968338
 30
0.0
  0
LINE
  5
C1
330
1F
100
AcDbEntity
  8
0
  6
Continuous
 62
     1
370
    15
100
AcDbLine
 10
49.05000000000001
 20
-9.023378025244115
 30
0.0
 11
49.05000000000001
 21
-7.514142895986905
 31
0.0
  0
SPLINE
  5
C2
330
1F
100
AcDbEntity
  8
0
  6
Continuous
 62
     1
370
    15
100
AcDbSpline
210
0.0
220
0.0
230
1.0
 70
     8
 71
     3
 72
    31
 73
    27
 74
     0
 42
0.000000001
 43
0.00000001
 40
0.0
 40
0.0
 40
0.0
 40
0.0
 40
0.0226467439450697
 40
0.0661066822216783
 40
0.1095567023877625
 40
0.1530838459679176
 40
0.1965505092774854
 40
0.2406739034400807
 40
0.2848701872840511
 40
0.3290284729313437
 40
0.3731477720427139
 40
0.4173268501524445
 40
0.4615048577723445
 40
0.5056240583740108
 40
0.5497832233546378
 40
0.593978864278493
 40
0.6381019629933755
 40
0.6822451746305167
 40
0.7264496927829245
 40
0.770580683013278
 40
0.814711918103657
 40
0.8571539939014537
 40
0.8995228369812222
 40
0.9418890553074296
 40
0.9843314264144344
 40
1.0
 40
1.0
 40
1.0
 40
1.0
 10
11.64541246819652
 20
8.65270259657936
 30
0.0
 10
11.89683419993347
 20
8.744001723423889
 30
0.0
 10
12.63074352322834
 20
9.010507247576376
 30
0.0
 10
13.84565096521627
 20
9.224171973360434
 30
0.0
 10
15.29177189781171
 20
9.2986654610981
 30
0.0
 10
16.740478646039
 20
9.142707395918524
 30
0.0
 10
18.19464401568349
 20
8.770864019336722
 30
0.0
 10
19.65571275502016
 20
8.183972834540295
 30
0.0
 10
21.12670903417635
 20
7.394665282012844
 30
0.0
 10
22.59642509494532
 20
6.42289442693374
 30
0.0
 10
24.06483914132177
 20
5.291541039500588
 30
0.0
 10
25.53525214692017
 20
4.029493643311796
 30
0.0
 10
27.00562858583525
 20
2.665595986937659
 30
0.0
 10
28.4740390735075
 20
1.230712035370963
 30
0.0
 10
29.94378363692714
 20
-0.2387059290876091
 30
0.0
 10
31.41475951703331
 20
-1.707502639043603
 30
0.0
 10
32.8833064117688
 20
-3.143960874017456
 30
0.0
 10
34.35252683531377
 20
-4.511355637558125
 30
0.0
 10
35.82379900893839
 20
-5.77618926617544
 30
0.0
 10
37.29262398542454
 20
-6.911740585719544
 30
0.0
 10
38.74186046878246
 20
-7.876337259338882
 30
0.0
 10
40.17396787333068
 20
-8.652620240741072
 30
0.0
 10
41.58411427451856
 20
-9.239462661543083
 30
0.0
 10
42.99405750595392
 20
-9.615699674330465
 30
0.0
 10
44.11029819266082
 20
-9.791077637472815
 30
0.0
 10
44.75466214423424
 20
-9.76742987910569
 30
0.0
 10
44.92840332232947
 20
-9.761053685359931
 30
0.0
  0
SPLINE
  5
C3
330
1F
100
AcDbEntity
  8
0
  6
Continuous
 62
     1
370
    15
100
AcDbSpline
210
0.0
220
0.0
230
1.0
 70
     8
 71
     3
 72
    22
 73
    18
 74
     0
 42
0.000000001
 43
0.00000001
 40
0.0
 40
0.0
 40
0.0
 40
0.0
 40
0.0087470183187656
 40
0.0799973366457087
 40
0.1511888500201281
 40
0.2223159345354302
 40
0.2935378252053988
 40
0.3647614416731971
 40
0.4358886850016223
 40
0.5070787807525232
 40
0.5783301355677243
 40
0.6494639807622443
 40
0.7195390726192175
 40
0.789711668176595
 40
0.8597599286708724
 40
0.9298241787179043
 40
0.9999999999999999
 40
0.9999999999999999
 40
0.9999999999999999
 40
0.9999999999999999
 10
31.59570257171784
 20
-9.187772968324007
 30
0.0
 10
31.53553470659855
 20
-9.212224840138338
 30
0.0
 10
30.98525931151046
 20
-9.435853572794862
 30
0.0
 10
29.9437074881569
 20
-9.656642152411287
 30
0.0
 10
28.4740594489821
 20
-9.823741036854202
 30
0.0
 10
27.00562312005354
 20
-9.742535269454708
 30
0.0
 10
25.53525361302569
 20
-9.441750902531421
 30
0.0
 10
24.06483874674155
 20
-8.921553400845413
 30
0.0
 10
22.59642520942898
 20
-8.195249938566825
 30
0.0
 10
21.12670897088265
 20
-7.280638221068817
 30
0.0
 10
19.65571289357202
 20
-6.200233912701696
 30
0.0
 10
18.19464352876718
 20
-4.983306471619639
 30
0.0
 10
16.7404804275244
 20
-3.662918046790431
 30
0.0
 10
15.29176524238847
 20
-2.272582814416185
 30
0.0
 10
13.84567575625304
 20
-0.8345373682934657
 30
0.0
 10
12.39907964916967
 20
0.6201045902529545
 30
0.0
 10
11.43328267043764
 20
1.566146865529136
 30
0.0
 10
10.95000000000013
 20
2.039544326082904
 30
0.0
  0
SPLINE
  5
C4
330
1F
100
AcDbEntity
  8
0
  6
Continuous
 62
     4
370
    15
100
AcDbSpline
210
0.0
220
0.0
230
1.0
 70
    24
 71
     3
 72
    18
 73
    14
 74
     0
 42
0.000000001
 43
0.00000001
 40
0.0
 40
0.0
 40
0.0
 40
0.0
 40
0.25
 40
0.25
 40
0.5
 40
0.5
 40
0.625
 40
0.625
 40
0.75
 40
0.75
 40
0.875
 40
0.875
 40
1.0
 40
1.0
 40
1.0
 40
1.0
 10
10.95000000000001
 20
7.482787582967091
 30
0.0
 10
10.95000000000001
 20
7.096046291798364
 30
0.0
 10
10.95000000000001
 20
6.652556784889386
 30
0.0
 10
10.95000000000001
 20
5.66414225305186
 30
0.0
 10
10.95000000000001
 20
5.117256646476205
 30
0.0
 10
10.95000000000001
 20
4.290592722915363
 30
0.0
 10
10.95000000000001
 20
4.014906611517152
 30
0.0
 10
10.95000000000001
 20
3.486174766090738
 30
0.0
 10
10.95000000000001
 20
3.233287535614473
 30
0.0
 10
10.95000000000001
 20
2.777725244853309
 30
0.0
 10
10.95000000000001
 20
2.575313312879201
 30
0.0
 10
10.95000000000001
 20
2.246376261332813
 30
0.0
 10
10.95000000000001
 20
2.120099507056776
 30
0.0
 10
10.95000000000001
 20
2.039544326083018
 30
0.0
  0
SPLINE
  5
C5
330
1F
100
AcDbEntity
  8
0
  6
Continuous
 62
     1
370
    15
100
AcDbSpline
210
0.0
220
0.0
230
1.0
 70
     8
 71
     3
 72
    22
 73
    18
 74
     0
 42
0.000000001
 43
0.00000001
 40
0.0
 40
0.0
 40
0.0
 40
0.0
 40
0.0693368682717598
 40
0.1385528097854204
 40
0.2077669771526489
 40
0.2771039877299716
 40
0.3463158487029619
 40
0.4155342934572864
 40
0.4848707759453173
 40
0.5567546020324914
 40
0.6286380292757299
 40
0.7006412235807938
 40
0.7725445578463097
 40
0.8444151308758714
 40
0.9164038653736784
 40
0.9883331854826968
 40
1.0
 40
1.0
 40
1.0
 40
1.0
 10
48.66900000000002
 20
-5.435272882054192
 30
0.0
 10
48.19637980104224
 20
-5.028111715822708
 30
0.0
 10
47.25196367497365
 20
-4.214499491576097
 30
0.0
 10
45.83755926665682
 20
-2.875198967586801
 30
0.0
 10
44.42337955928078
 20
-1.486174242220043
 30
0.0
 10
43.00663773455977
 20
-0.0705461244933739
 30
0.0
 10
41.59247289499211
 20
1.342924919483129
 30
0.0
 10
40.17814661909777
 20
2.721019825365535
 30
0.0
 10
38.74325107824647
 20
4.04803570956563
 30
0.0
 10
37.29262357694488
 20
5.295444991047225
 30
0.0
 10
35.82379913549062
 20
6.426056860004984
 30
0.0
 10
34.35252673829265
 20
7.396771705193994
 30
0.0
 10
32.88330667290425
 20
8.18531362690597
 30
0.0
 10
31.41475856913702
 20
8.778779520767275
 30
0.0
 10
29.94378717259756
 20
9.135775528097904
 30
0.0
 10
28.88404947065866
 20
9.289200930938925
 30
0.0
 10
28.31492402784542
 20
9.254129025763897
 30
0.0
 10
28.23549594174957
 20
9.249234332794243
 30
0.0
  0
LINE
  5
C6
330
1F
100
AcDbEntity
  8
0
  6
Continuous
 62
     1
370
    15
100
AcDbLine
 10
48.66900000000002
 20
-6.077634093255743
 30
0.0
 11
48.66900000000002
 21
-5.435272882054194
 31
0.0
  0
ELLIPSE
  5
C7
330
1F
100
AcDbEntity
  8
0
  6
Continuous
 62
     1
370
    15
100
AcDbEllipse
 10
50.47814800674212
 20
-0.2603780252441124
 30
0.0
 11
13.41987174966148
 21
8.916837433236196
 31
0.0
210
0.0
220
0.0
230
1.0
 40
0.249553446345596
 41
4.306687302902416
 42
4.414677837925613
  0
SPLINE
  5
C8
330
1F
100
AcDbEntity
  8
0
  6
Continuous
 62
     1
370
    15
100
AcDbSpline
210
0.0
220
0.0
230
1.0
 70
     8
 71
     3
 72
    14
 73
    10
 74
     0
 42
0.000000001
 43
0.00000001
 40
0.0
 40
0.0
 40
0.0
 40
0.0
 40
0.25
 40
0.25
 40
0.5
 40
0.5
 40
0.75
 40
0.75
 40
1.0
 40
1.0
 40
1.0
 40
1.0
 10
49.05000000000001
 20
-5.358793981561765
 30
0.0
 10
49.04999999999983
 20
-5.411561276918778
 30
0.0
 10
49.04043310821555
 20
-5.460951577595114
 30
0.0
 10
48.9949067073626
 20
-5.531477652432235
 30
0.0
 10
48.95887157948654
 20
-5.550204436747846
 30
0.0
 10
48.87874131924099
 20
-5.553554555540711
 30
0.0
 10
48.8354041944966
 20
-5.540200058284063
 30
0.0
 10
48.75061939291102
 20
-5.497861441855064
 30
0.0
 10
48.70945186681735
 20
-5.469250984857463
 30
0.0
 10
48.66900000000003
 20
-5.435272882054193
 30
0.0
  0
SPLINE
  5
C9
330
1F
100
AcDbEntity
  8
0
  6
Continuous
 62
     1
370
    15
100
AcDbSpline
210
0.0
220
0.0
230
1.0
 70
     8
 71
     3
 72
    18
 73
    14
 74
     0
 42
0.000000001
 43
0.00000001
 40
0.0
 40
0.0
 40
0.0
 40
0.0
 40
0.0823942122418658
 40
0.1763835142005685
 40
0.2705033494023615
 40
0.3644666296591914
 40
0.4584304312696341
 40
0.5487976911487707
 40
0.6390090246285188
 40
0.729214769508211
 40
0.819582658156875
 40
0.9097862597199715
 40
1.0
 40
1.0
 40
1.0
 40
1.0
 10
31.59570257171791
 20
8.667016917835772
 30
0.0
 10
32.02486271203265
 20
8.804273389594385
 30
0.0
 10
32.94357740865863
 20
9.098102023631055
 30
0.0
 10
34.35249980082703
 20
9.280127236039574
 30
0.0
 10
35.82380617792111
 20
9.26364280753326
 30
0.0
 10
37.29262231056106
 20
9.01537818961224
 30
0.0
 10
38.74185998867279
 20
8.554010810080388
 30
0.0
 10
40.17397123523238
 20
7.900054878539416
 30
0.0
 10
41.58410128236611
 20
7.075265918231635
 30
0.0
 10
42.99410615571837
 20
6.089728492450321
 30
0.0
 10
44.40669992021443
 20
4.966121446810961
 30
0.0
 10
45.8165487066714
 20
3.729937669946605
 30
0.0
 10
46.75643839053624
 20
2.838132800357597
 30
0.0
 10
47.2264096414473
 20
2.392205307669438
 30
0.0
  0
SPLINE
  5
CA
330
1F
100
AcDbEntity
  8
0
  6
Continuous
 62
     1
370
    15
100
AcDbSpline
210
0.0
220
0.0
230
1.0
 70
     8
 71
     3
 72
    14
 73
    10
 74
     0
 42
0.000000001
 43
0.00000001
 40
0.0
 40
0.0
 40
0.0
 40
0.0
 40
0.2500000000000006
 40
0.2500000000000006
 40
0.5000000000000012
 40
0.5000000000000012
 40
0.7500000000000008
 40
0.7500000000000008
 40
1.0
 40
1.0
 40
1.0
 40
1.0
 10
47.2264096414473
 20
2.392205307669431
 30
0.0
 10
47.19373063081789
 20
2.250706467342476
 30
0.0
 10
47.14727569797817
 20
2.103757776341899
 30
0.0
 10
47.01936842904544
 20
1.796015178116131
 30
0.0
 10
46.93788292775879
 20
1.634766337638598
 30
0.0
 10
46.72564480974992
 20
1.294600121825545
 30
0.0
 10
46.59892121040122
 20
1.122159503877961
 30
0.0
 10
46.29199401039772
 20
0.7723793991836485
 30
0.0
 10
46.12060008146916
 20
0.6051403884237933
 30
0.0
 10
45.92932523778658
 20
0.4463847527429746
 30
0.0
  0
SPLINE
  5
CB
330
1F
100
AcDbEntity
  8
0
  6
Continuous
 62
     1
370
    15
100
AcDbSpline
210
0.0
220
0.0
230
1.0
 70
     8
 71
     3
 72
     8
 73
     4
 74
     0
 42
0.000000001
 43
0.00000001
 40
0.0
 40
0.0
 40
0.0
 40
0.0
 40
1.0
 40
1.0
 40
1.0
 40
1.0
 10
49.05000000000001
 20
-1.740685007190473
 30
0.0
 10
48.00732811755891
 20
-1.018491076992189
 30
0.0
 10
46.9669729787526
 20
-0.2895035379181395
 30
0.0
 10
45.92932523778602
 20
0.4463847527439322
 30
0.0
  0
LINE
  5
CC
330
1F
100
AcDbEntity
  8
0
  6
Continuous
 62
     1
370
    15
100
AcDbLine
 10
49.05000000000001
 20
-5.358793981558963
 30
0.0
 11
49.05000000000001
 21
-1.740685007190471
 31
0.0
  0
SPLINE
  5
CD
330
1F
100
AcDbEntity
  8
0
  6
Continuous
 62
     1
370
    15
100
AcDbSpline
210
0.0
220
0.0
230
1.0
 70
     8
 71
     3
 72
    17
 73
    13
 74
     0
 42
0.000000001
 43
0.00000001
 40
0.0
 40
0.0
 40
0.0
 40
0.0
 40
0.1032730562079408
 40
0.2063819205016391
 40
0.3094672540414367
 40
0.4127355631663513
 40
0.515860382625619
 40
0.6205432984625496
 40
0.7253991453381179
 40
0.8301648413515356
 40
0.9348380416642893
 40
1.0
 40
1.0
 40
1.0
 40
1.0
 10
10.95000000000053
 20
-1.192622707928227
 30
0.0
 10
11.43328266984975
 20
-1.670788157958335
 30
0.0
 10
12.39907964740615
 20
-2.626358831649275
 30
0.0
 10
13.84567576329484
 20
-4.000532797128193
 30
0.0
 10
15.29176521596828
 20
-5.290393095797871
 30
0.0
 10
16.74048052629844
 20
-6.46188348843651
 30
0.0
 10
18.19464315837033
 20
-7.497769521334424
 30
0.0
 10
19.65571430022857
 20
-8.368723857876372
 30
0.0
 10
21.12670371603726
 20
-9.053000455566677
 30
0.0
 10
22.59644479292482
 20
-9.519475522665187
 30
0.0
 10
23.87949058469798
 20
-9.766046228658778
 30
0.0
 10
24.67400202734193
 20
-9.760746709997603
 30
0.0
 10
24.97883832822809
 20
-9.758713403013664
 30
0.0
  0
LINE
  5
CE
330
1F
100
AcDbEntity
  8
0
  6
Continuous
 62
     4
370
    15
100
AcDbLine
 10
10.95000000000002
 20
-1.192622707928343
 30
0.0
 11
10.95000000000002
 21
2.039544326083018
 31
0.0
  0
LINE
  5
D0
330
1F
100
AcDbEntity
  8
0
  6
Continuous
 62
     1
370
    15
100
AcDbLine
 10
48.37308654675773
 20
9.259856601249448
 30
0.0
 11
48.18513436957367
 21
9.264621974755885
 31
0.0
  0
SPLINE
  5
D1
330
1F
100
AcDbEntity
  8
0
  6
Continuous
 62
     1
370
    15
100
AcDbSpline
210
0.0
220
0.0
230
1.0
 70
     8
 71
     3
 72
    15
 73
    11
 74
     0
 42
0.000000001
 43
0.00000001
 40
0.0
 40
0.0
 40
0.0
 40
0.0
 40
0.0462919560775971
 40
0.1841496655334156
 40
0.3217800164051324
 40
0.4573618825796604
 40
0.5931323997185959
 40
0.728662352351095
 40
0.8642232417022526
 40
0.9999999999999999
 40
0.9999999999999999
 40
0.9999999999999999
 40
0.9999999999999999
 10
21.62088370522755
 20
-9.175496603820173
 30
0.0
 10
21.45624568781147
 20
-9.238847746716692
 30
0.0
 10
20.80131471469737
 20
-9.49085895479782
 30
0.0
 10
19.65566180275001
 20
-9.71150386154989
 30
0.0
 10
18.19465698185993
 20
-9.824914383532352
 30
0.0
 10
16.74047683997988
 20
-9.699495851616424
 30
0.0
 10
15.29176620199484
 20
-9.362454064923899
 30
0.0
 10
13.84567550049803
 20
-8.811002882510651
 30
0.0
 10
12.39907971323332
 20
-8.074101035343643
 30
0.0
 10
11.43328269180351
 20
-7.435021202053215
 30
0.0
 10
10.95000000000013
 20
-7.115227068030513
 30
0.0
  0
SPLINE
  5
D2
330
1F
100
AcDbEntity
  8
0
  6
Continuous
 62
     4
370
    15
100
AcDbSpline
210
0.0
220
0.0
230
1.0
 70
    24
 71
     3
 72
    18
 73
    14
 74
     0
 42
0.000000001
 43
0.00000001
 40
0.0
 40
0.0
 40
0.0
 40
0.0
 40
0.2499999999999998
 40
0.2499999999999998
 40
0.4999999999999994
 40
0.4999999999999994
 40
0.6249999999999994
 40
0.6249999999999994
 40
0.7499999999999996
 40
0.7499999999999996
 40
0.8749999999999998
 40
0.8749999999999998
 40
1.0
 40
1.0
 40
1.0
 40
1.0
 10
10.95000000000001
 20
-1.192622707928364
 30
0.0
 10
10.95000000000001
 20
-1.329868462224242
 30
0.0
 10
10.95000000000001
 20
-1.528757329402602
 30
0.0
 10
10.95000000000001
 20
-2.120165567832188
 30
0.0
 10
10.95000000000001
 20
-2.515373271141452
 30
0.0
 10
10.95000000000001
 20
-3.286596737009185
 30
0.0
 10
10.95000000000001
 20
-3.572894826765814
 30
0.0
 10
10.95000000000001
 20
-4.19758568222684
 30
0.0
 10
10.95000000000001
 20
-4.536026328414898
 30
0.0
 10
10.95000000000001
 20
-5.247388358953989
 30
0.0
 10
10.95000000000001
 20
-5.62019910230122
 30
0.0
 10
10.95000000000001
 20
-6.371837385787129
 30
0.0
 10
10.95000000000001
 20
-6.75039334025703
 30
0.0
 10
10.95000000000001
 20
-7.11522706803043
 30
0.0
  0
LINE
  5
D3
330
1F
100
AcDbEntity
  8
0
  6
Continuous
 62
     1
370
    15
100
AcDbLine
 10
49.05000000000001
 20
-1.126403429028555
 30
0.0
 11
49.05000000000001
 21
3.418173999071866
 31
0.0
  0
LINE
  5
D4
330
1F
100
AcDbEntity
  8
0
  6
Continuous
 62
     1
370
    15
100
AcDbLine
 10
45.92932523778563
 20
0.4463847527439412
 30
0.0
 11
49.05000000000001
 21
-1.126403429028555
 31
0.0
  0
ELLIPSE
  5
D5
330
1F
100
AcDbEntity
  8
0
  6
Continuous
 62
     1
370
    15
100
AcDbEllipse
 10
50.47814800674212
 20
-0.2603780252441149
 30
0.0
 11
13.41987174966148
 21
8.916837433236212
 31
0.0
210
0.0
220
0.0
230
1.0
 40
0.2495534463455928
 41
1.539865975466084
 42
1.647856510489285
  0
SPLINE
  5
D6
330
1F
100
AcDbEntity
  8
0
  6
Continuous
 62
     1
370
    15
100
AcDbSpline
210
0.0
220
0.0
230
1.0
 70
     8
 71
     3
 72
    12
 73
     8
 74
     0
 42
0.000000001
 43
0.00000001
 40
0.0
 40
0.0
 40
0.0
 40
0.0
 40
0.2499999999999932
 40
0.2499999999999932
 40
0.4999999999999865
 40
0.4999999999999865
 40
1.0
 40
1.0
 40
1.0
 40
1.0
 10
49.05000000000001
 20
3.41817399907187
 30
0.0
 10
49.05000000000003
 20
3.445293301626517
 30
0.0
 10
49.03803062595146
 20
3.465218374096317
 30
0.0
 10
48.99365741594297
 20
3.485694352376089
 30
0.0
 10
48.96154695454269
 20
3.486415898186888
 30
0.0
 10
48.85080957756379
 20
3.465199402637049
 30
0.0
 10
48.75860712947422
 20
3.42129956206538
 30
0.0
 10
48.66900000000008
 20
3.362752328000368
 30
0.0
  0
SPLINE
  5
D7
330
1F
100
AcDbEntity
  8
0
  6
Continuous
 62
     1
370
    15
100
AcDbSpline
210
0.0
220
0.0
230
1.0
 70
     8
 71
     3
 72
    15
 73
    11
 74
     0
 42
0.000000001
 43
0.00000001
 40
0.0
 40
0.0
 40
0.0
 40
0.0
 40
0.1354613502763655
 40
0.2706864495892108
 40
0.4059080828056298
 40
0.5413697111000851
 40
0.6765868383835779
 40
0.8118168282022802
 40
0.9472774247845984
 40
1.0
 40
1.0
 40
1.0
 40
1.0
 10
48.66900000000003
 20
4.077459101206379
 30
0.0
 10
48.19637977834758
 20
4.488324014586073
 30
0.0
 10
47.25196360692918
 20
5.309337273619946
 30
0.0
 10
45.83755953827814
 20
6.393615563374307
 30
0.0
 10
44.42337853990748
 20
7.338360415152976
 30
0.0
 10
43.00664154485168
 20
8.111422379947916
 30
0.0
 10
41.59245870327197
 20
8.705704675425055
 30
0.0
 10
40.17819963016639
 20
9.087967746180192
 30
0.0
 10
39.04924096800097
 20
9.26979063124267
 30
0.0
 10
38.39347275483885
 20
9.245009859569755
 30
0.0
 10
38.2097486279043
 20
9.238067123479487
 30
0.0
  0
LINE
  5
D8
330
1F
100
AcDbEntity
  8
0
  6
Continuous
 62
     1
370
    15
100
AcDbLine
 10
11.64541246819652
 20
-9.173458647067593
 30
0.0
 11
10.95000000000013
 21
-9.415149419357542
 31
0.0
  0
LINE
  5
D9
330
1F
100
AcDbEntity
  8
0
  6
Continuous
 62
     1
370
    15
100
AcDbLine
 10
48.66900000000002
 20
3.36275232799823
 30
0.0
 11
48.66900000000002
 21
4.077459101206386
 31
0.0
  0
SPLINE
  5
DA
330
1F
100
AcDbEntity
  8
0
  6
Continuous
 62
     1
370
    15
100
AcDbSpline
210
0.0
220
0.0
230
1.0
 70
     8
 71
     3
 72
    14
 73
    10
 74
     0
 42
0.000000001
 43
0.00000001
 40
0.0
 40
0.0
 40
0.0
 40
0.0
 40
0.25
 40
0.25
 40
0.5
 40
0.5
 40
0.75
 40
0.75
 40
1.0
 40
1.0
 40
1.0
 40
1.0
 10
49.05000000000001
 20
3.76416239855873
 30
0.0
 10
49.04999999999981
 20
3.757580936438485
 30
0.0
 10
49.04043310821556
 20
3.759818056666925
 30
0.0
 10
48.99490670736262
 20
3.791243454276558
 30
0.0
 10
48.95887157948654
 20
3.820758435189066
 30
0.0
 10
48.87874131924097
 20
3.889912658309968
 30
0.0
 10
48.8354041944966
 20
3.928603001298544
 30
0.0
 10
48.75061939291102
 20
4.004470786050015
 30
0.0
 10
48.70945186681735
 20
4.041427535228487
 30
0.0
 10
48.66900000000003
 20
4.077459101206388
 30
0.0
  0
LINE
  5
DB
330
1F
100
AcDbEntity
  8
0
  6
Continuous
 62
     1
370
    15
100
AcDbLine
 10
49.05000000000001
 20
3.418173999071866
 30
0.0
 11
49.05000000000001
 21
3.764162398560306
 31
0.0
  0
SPLINE
  5
DC
330
1F
100
AcDbEntity
  8
0
  6
Continuous
 62
     1
370
    15
100
AcDbSpline
210
0.0
220
0.0
230
1.0
 70
     8
 71
     3
 72
    10
 73
     6
 74
     0
 42
0.000000001
 43
0.00000001
 40
0.0
 40
0.0
 40
0.0
 40
0.0
 40
0.3573750533422162
 40
0.7141819227237229
 40
1.0
 40
1.0
 40
1.0
 40
1.0
 10
10.95000000000053
 20
-8.935788316140913
 30
0.0
 10
11.43329245140153
 20
-9.114431130588947
 30
0.0
 10
12.39910897650996
 20
-9.471432738591787
 30
0.0
 10
13.74978574592498
 20
-9.744795257031583
 30
0.0
 10
14.61788233944813
 20
-9.760787230505718
 30
0.0
 10
15.00398266210337
 20
-9.767899925296053
 30
0.0
  0
SPLINE
  5
DD
330
1F
100
AcDbEntity
  8
0
  6
Continuous
 62
     1
370
    15
100
AcDbSpline
210
0.0
220
0.0
230
1.0
 70
     8
 71
     3
 72
    12
 73
     8
 74
     0
 42
0.000000001
 43
0.00000001
 40
0.0
 40
0.0
 40
0.0
 40
0.0
 40
0.0028055624468054
 40
0.2519881547174433
 40
0.5016186497766089
 40
0.7507953213912383
 40
1.0
 40
1.0
 40
1.0
 40
1.0
 10
41.56823782912246
 20
8.677092781340658
 30
0.0
 10
41.57352822709102
 20
8.679277544267956
 30
0.0
 10
42.04869769741894
 20
8.875507137792795
 30
0.0
 10
42.99403915874074
 20
9.0895920206421
 30
0.0
 10
44.40671776326273
 20
9.286526939831301
 30
0.0
 10
45.81654424870737
 20
9.266040241878635
 30
0.0
 10
46.75643690449257
 20
9.081004063683602
 30
0.0
 10
47.22640964144733
 20
8.988480775447758
 30
0.0
  0
SPLINE
  5
DE
330
1F
100
AcDbEntity
  8
0
  6
Continuous
 62
     1
370
    15
100
AcDbSpline
210
0.0
220
0.0
230
1.0
 70
     8
 71
     3
 72
    14
 73
    10
 74
     0
 42
0.000000001
 43
0.00000001
 40
0.0
 40
0.0
 40
0.0
 40
0.0
 40
0.25
 40
0.25
 40
0.5
 40
0.5
 40
0.75
 40
0.75
 40
1.0
 40
1.0
 40
1.0
 40
1.0
 10
47.2264096414473
 20
8.988480775447744
 30
0.0
 10
47.19373063081787
 20
8.745116036536636
 30
0.0
 10
47.14727569797819
 20
8.50755896629643
 30
0.0
 10
47.0193684290455
 20
8.047199070166068
 30
0.0
 10
46.93788292775888
 20
7.82352660035333
 30
0.0
 10
46.72564480975007
 20
7.400595503854133
 30
0.0
 10
46.59892121040145
 20
7.20940401968903
 30
0.0
 10
46.29199401039805
 20
6.882083593657018
 30
0.0
 10
46.12060008146955
 20
6.755471277660575
 30
0.0
 10
45.92932523778702
 20
6.669937186467926
 30
0.0
  0
SPLINE
  5
DF
330
1F
100
AcDbEntity
  8
0
  6
Continuous
 62
     1
370
    15
100
AcDbSpline
210
0.0
220
0.0
230
1.0
 70
     8
 71
     3
 72
     8
 73
     4
 74
     0
 42
0.000000001
 43
0.00000001
 40
0.0
 40
0.0
 40
0.0
 40
0.0
 40
1.0
 40
1.0
 40
1.0
 40
1.0
 10
49.05000000000001
 20
5.513079863552324
 30
0.0
 10
48.00732811755889
 20
5.979910894406424
 30
0.0
 10
46.96697297875257
 20
6.366771679303914
 30
0.0
 10
45.92932523778597
 20
6.669937186468169
 30
0.0
  0
LINE
  5
E0
330
1F
100
AcDbEntity
  8
0
  6
Continuous
 62
     1
370
    15
100
AcDbLine
 10
49.05000000000001
 20
3.764162398560306
 30
0.0
 11
49.05000000000001
 21
5.513079863552324
 31
0.0
  0
SPLINE
  5
E1
330
1F
100
AcDbEntity
  8
0
  6
Continuous
 62
     4
370
    15
100
AcDbSpline
210
0.0
220
0.0
230
1.0
 70
    24
 71
     3
 72
     9
 73
     5
 74
     0
 42
0.000000001
 43
0.00000001
 40
0.0
 40
0.0
 40
0.0
 40
0.0
 40
0.0757438001766332
 40
0.9999999999999999
 40
0.9999999999999999
 40
0.9999999999999999
 40
0.9999999999999999
 10
10.95000000000002
 20
-9.007610182705493
 30
0.0
 10
10.95000000000002
 20
-9.016362123538038
 30
0.0
 10
10.95000000000002
 20
-9.13190875325737
 30
0.0
 10
10.95000000000002
 20
-9.279103636208095
 30
0.0
 10
10.95000000000002
 20
-9.415149419357576
 30
0.0
  0
LINE
  5
E2
330
1F
100
AcDbEntity
  8
0
  6
Continuous
 62
     1
370
    15
100
AcDbLine
 10
49.05000000000001
 20
-1.126403429028555
 30
0.0
 11
49.05000000000001
 21
-1.740685007190472
 31
0.0
  0
SPLINE
  5
E3
330
1F
100
AcDbEntity
  8
0
  6
Continuous
 62
     1
370
    15
100
AcDbSpline
210
0.0
220
0.0
230
1.0
 70
     8
 71
     3
 72
    12
 73
     8
 74
     0
 42
0.000000001
 43
0.00000001
 40
0.0
 40
0.0
 40
0.0
 40
0.0
 40
0.2499999999999949
 40
0.2499999999999949
 40
0.4999999999999898
 40
0.4999999999999898
 40
1.0
 40
1.0
 40
1.0
 40
1.0
 10
49.05000000000001
 20
-5.670980857129026
 30
0.0
 10
49.05000000000003
 20
-5.698100159683674
 30
0.0
 10
49.03803062595146
 20
-5.732541629535962
 30
0.0
 10
48.99365741594296
 20
-5.806833216468884
 30
0.0
 10
48.96154695454269
 20
-5.846498170341901
 30
0.0
 10
48.85080957756379
 20
-5.959583415451201
 30
0.0
 10
48.75860712947422
 20
-6.027506245862843
 30
0.0
 10
48.66900000000008
 20
-6.077634093257809
 30
0.0
  0
LINE
  5
E4
330
1F
100
AcDbEntity
  8
0
  6
Continuous
 62
     1
370
    15
100
AcDbLine
 10
49.05000000000001
 20
-5.670980857129027
 30
0.0
 11
49.05000000000001
 21
-5.358793981558965
 31
0.0
  0
ELLIPSE
  5
E6
330
1F
100
AcDbEntity
  8
0
  6
Continuous
 62
     1
370
    15
100
AcDbEllipse
 10
50.47814800674212
 20
-0.2603780252441162
 30
0.0
 11
13.60310976421859
 21
0.0
 31
0.0
210
0.0
220
0.0
230
1.0
 40
0.7002075382097122
 41
1.70619564176845
 42
1.812177257383231
  0
LINE
  5
E7
330
1F
100
AcDbEntity
  8
0
  6
Continuous
 62
     4
370
    15
100
AcDbLine
 10
10.95000000000002
 20
-8.935788316139558
 30
0.0
 11
10.95000000000002
 21
-7.115227068030434
 31
0.0
  0
LINE
  5
E8
330
1F
100
AcDbEntity
  8
0
  6
Continuous
 62
     1
370
    15
100
AcDbLine
 10
49.05000000000001
 20
-5.670980857129027
 30
0.0
 11
49.05000000000001
 21
-7.514142895986907
 31
0.0
  0
LINE
  5
EA
330
1F
100
AcDbEntity
  8
0
  6
Continuous
 62
     1
370
    15
100
AcDbLine
 10
49.05000000000001
 20
5.513079863552324
 30
0.0
 11
49.05000000000001
 21
8.502621974755884
 31
0.0
  0
LINE
  5
ED
330
1F
100
AcDbEntity
  8
중심선
100
AcDbLine
 10
-55.54999999999999
 20
-0.2603780252441261
 30
0.0
 11
52.05000000000001
 21
-0.2603780252441265
 31
0.0
  0
CIRCLE
  5
EE
330
1F
100
AcDbEntity
  8
외형선
100
AcDbCircle
 10
0.0000000000000139
 20
-0.0000000000000035
 30
0.0
 40
3.000000000000001
  0
INSERT
  5
EF
330
1F
100
AcDbEntity
  8
0
  6
Continuous
 62
     7
100
AcDbBlockReference
 66
     1
  2
블럭10
 10
-15.67936049909347
 20
-52.04717430164393
 30
0.0
  0
ATTRIB
  5
F0
330
EF
100
AcDbEntity
  8
FORMAT
 62
     2
100
AcDbText
 10
-26.73038085127794
 20
-49.97180738881174
 30
0.0
 40
4.233333333333333
  1
GMG23048[ 6 FLUTE ]
 41
0.75
  7
SLDTEXTSTYLE0
 11
-26.73038085127794
 21
-52.08847405547841
 31
0.0
100
AcDbAttribute
  2
AUTOATTR0
 70
     0
 74
     1
  0
SEQEND
  5
F1
330
EF
100
AcDbEntity
  8
0
  6
Continuous
 62
     7
  0
HATCH
  5
F2
330
1F
100
AcDbEntity
  8
중심선
100
AcDbHatch
 10
0.0
 20
0.0
 30
0.0
210
0.0
220
0.0
230
1.0
  2
SOLID
 70
     1
 71
     0
 91
        1
 92
        0
 93
        4
 72
     1
 10
-9.96445119471262
 20
-35.8
 11
-13.4107264385499
 21
-35.8
 72
     1
 10
-13.4107264385499
 20
-35.8
 11
-15.53895629775393
 21
-38.33632558057259
 72
     1
 10
-15.53895629775393
 20
-38.33632558057259
 11
-12.09264796880349
 21
-38.3362861512701
 72
     1
 10
-12.09264796880349
 20
-38.3362861512701
 11
-9.96445119471262
 21
-35.8
 97
        0
 75
     0
 76
     1
 98
        1
 10
0.0
 20
0.0
  0
HATCH
  5
F3
330
1F
100
AcDbEntity
  8
중심선
100
AcDbHatch
 10
0.0
 20
0.0
 30
0.0
210
0.0
220
0.0
230
1.0
  2
SOLID
 70
     1
 71
     0
 91
        1
 92
        0
 93
        4
 72
     1
 10
-4.951687203676669
 20
-35.8
 11
-8.397962447513951
 21
-35.8
 72
     1
 10
-8.397962447513951
 20
-35.8
 11
-12.92910045587134
 21
-41.20000000000002
 72
     1
 10
-12.92910045587134
 20
-41.20000000000002
 11
-9.482825212034058
 21
-41.20000000000002
 72
     1
 10
-9.482825212034058
 20
-41.20000000000002
 11
-4.951687203676669
 21
-35.8
 97
        0
 75
     0
 76
     1
 98
        1
 10
0.0
 20
0.0
  0
HATCH
  5
F4
330
1F
100
AcDbEntity
  8
중심선
100
AcDbHatch
 10
0.0
 20
0.0
 30
0.0
210
0.0
220
0.0
230
1.0
  2
SOLID
 70
     1
 71
     0
 91
        1
 92
        0
 93
        4
 72
     1
 10
0.0610767873592266
 20
-35.80000000000003
 11
-3.385198456477889
 21
-35.8
 72
     1
 10
-3.385198456477889
 20
-35.8
 11
-10.43363535836714
 21
-44.20000000000002
 72
     1
 10
-10.43363535836714
 20
-44.20000000000002
 11
-6.987360114529856
 21
-44.20000000000002
 72
     1
 10
-6.987360114529856
 20
-44.20000000000002
 11
0.0610767873592266
 21
-35.80000000000003
 97
        0
 75
     0
 76
     1
 98
        1
 10
0.0
 20
0.0
  0
HATCH
  5
F5
330
1F
100
AcDbEntity
  8
중심선
100
AcDbHatch
 10
0.0
 20
0.0
 30
0.0
210
0.0
220
0.0
230
1.0
  2
SOLID
 70
     1
 71
     0
 91
        1
 92
        0
 93
        6
 72
     3
 10
4.860967218371426
 20
-40.00000000005127
 11
3.960054785062284
 21
1.540850780301639E-10
 40
0.3939339440162633
 50
17.09539180608434
 51
320.0019657685079
 73
     0
 72
     1
 10
6.543966874072021
 20
-38.5878940046383
 11
8.84926874777306
 21
-36.65356729459038
 72
     3
 10
4.86096721831858
 20
-40.00000000000015
 11
6.600054785286829
 21
-1.249000902703301E-13
 40
0.6363583540795982
 50
39.99873849337408
 51
368.4976242363724
 73
     1
 72
     1
 10
11.28629971021919
 20
-39.03999999993002
 11
3.541034525154502
 21
-39.03999999992999
 72
     1
 10
3.541034525154502
 20
-39.03999999992999
 11
3.541009480708568
 21
-40.95999999992991
 72
     1
 10
3.541009480708568
 20
-40.95999999992991
 11
7.982389250180605
 21
-40.95999999992988
 97
        0
 75
     0
 76
     1
 98
        1
 10
0.0
 20
0.0
  0
POINT
  5
F6
330
1F
100
AcDbEntity
  8
치수문자_일반주서
100
AcDbPoint
 10
0.0000000000000139
 20
-0.0000000000000035
 30
0.0
  0
DIMENSION
  5
F7
330
1F
100
AcDbEntity
  8
치수문자_일반주서
100
AcDbDimension
  2
_D
 10
49.05000000000001
 20
43.45599845446576
 30
0.0
 11
1.257940153509092
 21
43.45599845446576
 31
0.0
 70
   160
  1
<>
 71
     2
 42
101.6
  3
SLDDIMSTYLE0
100
AcDbAlignedDimension
 13
-52.54999999999998
 23
8.764621974755876
 33
0.0
 14
49.05000000000001
 24
8.828776830956764
 34
0.0
100
AcDbRotatedDimension
1001
ACAD
1000
DSTYLE
1002
{
1070
   273
1070
     7
1002
}
  0
DIMENSION
  5
10B
330
1F
100
AcDbEntity
  8
치수문자_일반주서
100
AcDbDimension
  2
_D_1
 10
63.28403823937229
 20
-9.785378025244063
 30
0.0
 11
63.28403823937226
 21
-0.2603780252441171
 31
0.0
 70
   160
  1
%%c<>
 71
     2
 42
19.05
  3
SLDDIMSTYLE1
100
AcDbAlignedDimension
 13
48.1850818844312
 23
9.264621974755885
 33
0.0
 14
48.18508188443127
 24
-9.785378025244116
 34
0.0
 50
90.0000000000002
100
AcDbRotatedDimension
1001
ACAD
1000
DSTYLE
1002
{
1070
   273
1070
     7
1002
}
  0
DIMENSION
  5
120
330
1F
100
AcDbEntity
  8
치수문자_일반주서
100
AcDbDimension
  2
_D_2
 10
10.95000000000002
 20
28.68578207544182
 30
0.0
 11
29.59763753669839
 21
28.68578207544182
 31
0.0
 70
   160
  1
<>
 71
     2
 42
38.09999999999999
  3
SLDDIMSTYLE0
100
AcDbAlignedDimension
 13
49.05000000000001
 23
8.502621974755884
 33
0.0
 14
10.95000000000002
 24
-9.415149419357578
 34
0.0
 50
0.0000000000000107
100
AcDbRotatedDimension
1001
ACAD
1000
DSTYLE
1002
{
1070
   273
1070
     7
1002
}
  0
DIMENSION
  5
133
330
1F
100
AcDbEntity
  8
치수문자_일반주서
100
AcDbDimension
  2
_D_3
 10
-65.54999999999997
 20
-9.785378025244167
 30
0.0
 11
-65.55
 21
-0.2603780252441924
 31
0.0
 70
   160
  1
%%c<>
 71
     2
 42
19.05
  3
SLDDIMSTYLE1
100
AcDbAlignedDimension
 13
-52.04999999999998
 23
9.264621974755881
 33
0.0
 14
-52.04999999999998
 24
-9.78537802524412
 34
0.0
 50
90.0000000000002
100
AcDbRotatedDimension
1001
ACAD
1000
DSTYLE
1002
{
1070
   273
1070
     7
1002
}
  0
INSERT
  5
14D
330
1F
100
AcDbEntity
  8
외형선
100
AcDbBlockReference
  2
SW_DOWELSYMBOL_0
 10
0.0000000000000139
 20
-0.0000000000000035
 30
0.0
  0
ARC
  5
173
330
1F
100
AcDbEntity
  8
0
  6
Continuous
 62
     1
370
    15
100
AcDbCircle
 10
48.28800000000001
 20
8.502621974755884
 30
0.0
 40
0.7619999999999998
100
AcDbArc
 50
0.0
 51
83.5888607623747
  0
ARC
  5
175
330
1F
100
AcDbEntity
  8
0
  6
Continuous
 62
     1
370
    15
100
AcDbCircle
 10
48.28800000000001
 20
-9.023378025244115
 30
0.0
 40
0.7619999999999998
100
AcDbArc
 50
270.0
 51
0.0
  0
DIMENSION
  5
178
330
1F
100
AcDbEntity
  8
치수문자_일반주서
100
AcDbDimension
  2
*D7
 10
48.28800000000001
 20
8.502621974755884
 30
0.0
 11
65.77266843000487
 21
27.05308446758558
 31
0.0
 70
   164
  1
<>
 71
     5
 42
0.7620000000000007
  3
SLDDIMSTYLE0
100
AcDbRadialDimension
 15
48.81065052961016
 25
9.057131148618891
 35
0.0
 40
0.0
1001
ACAD
1000
DSTYLE
1002
{
1070
   273
1070
     2
1002
}
1001
ACAD_DSTYLE_DIMRADIAL_EXTENSION
1070
   387
1070
     1
1070
   388
1040
0.0
1070
   390
1040
1.458900838294536
  0
LINE
  5
204
330
1F
100
AcDbEntity
  8
0
  6
Continuous
 62
     4
370
    15
100
AcDbLine
 10
-32.54432499999996
 20
7.359621974755889
 30
0.0
 11
-20.96192499999995
 21
7.359621974755889
 31
0.0
  0
LINE
  5
205
330
1F
100
AcDbEntity
  8
0
  6
Continuous
 62
     4
370
    15
100
AcDbLine
 10
-32.54432499999996
 20
7.359621974755875
 30
0.0
 11
-34.4493250000001
 21
9.264621974755904
 31
0.0
  0
LINE
  5
206
330
1F
100
AcDbEntity
  8
0
  6
Continuous
 62
     4
370
    15
100
AcDbLine
 10
-20.96192499999995
 20
7.359621974755875
 30
0.0
 11
-19.05692499999998
 21
9.264621974755904
 31
0.0
  0
LINE
  5
207
330
1F
100
AcDbEntity
  8
0
  6
Continuous
 62
     4
370
    15
100
AcDbLine
 10
-34.44932500000009
 20
9.264621974755883
 30
0.0
 11
-52.04999999999998
 21
9.264621974755881
 31
0.0
  0
ENDSEC
  0
SECTION
  2
OBJECTS
  0
DICTIONARY
  5
C
330
0
100
AcDbDictionary
281
     1
  3
ACAD_GROUP
350
D
  3
ACAD_IMAGE_VARS
350
171
  3
ACAD_LAYOUT
350
1A
  3
ACAD_MLINESTYLE
350
17
  3
ACAD_PLOTSETTINGS
350
19
  3
ACAD_PLOTSTYLENAME
350
E
  3
ACAD_SCALELIST
350
47
  3
APPDATA
350
16F
  3
DWGPROPS
350
22C
  0
DICTIONARY
  5
1F6
330
2
100
AcDbDictionary
280
     1
281
     1
  3
ACAD_LAYERSTATES
360
1F7
  0
DICTIONARY
  5
22A
330
1F
100
AcDbDictionary
280
     1
281
     1
  3
DIM_BOUNDING_BOXES_V1
360
22B
  0
DICTIONARY
  5
D
102
{ACAD_REACTORS
330
C
102
}
330
C
100
AcDbDictionary
281
     1
  0
RASTERVARIABLES
  5
171
102
{ACAD_REACTORS
330
C
102
}
330
C
100
AcDbRasterVariables
 90
        0
 70
     1
 71
     1
 72
     1
  0
DICTIONARY
  5
1A
102
{ACAD_REACTORS
330
C
102
}
330
C
100
AcDbDictionary
281
     1
  3
Layout1
350
1E
  3
Layout2
350
26
  3
Model
350
22
  0
DICTIONARY
  5
17
102
{ACAD_REACTORS
330
C
102
}
330
C
100
AcDbDictionary
281
     1
  3
Standard
350
18
  0
DICTIONARY
  5
19
102
{ACAD_REACTORS
330
C
102
}
330
C
100
AcDbDictionary
281
     1
  0
ACDBDICTIONARYWDFLT
  5
E
102
{ACAD_REACTORS
330
C
102
}
330
C
100
AcDbDictionary
281
     1
  3
Normal
350
F
100
AcDbDictionaryWithDefault
340
F
  0
DICTIONARY
  5
47
102
{ACAD_REACTORS
330
C
102
}
330
C
100
AcDbDictionary
281
     1
  3
A0
350
48
  3
A1
350
49
  3
A2
350
4A
  3
A3
350
4B
  3
A4
350
4C
  3
A5
350
4D
  3
A6
350
4E
  3
A7
350
4F
  3
A8
350
50
  3
A9
350
51
  3
B0
350
52
  3
B1
350
53
  3
B2
350
54
  3
B3
350
55
  3
B4
350
56
  3
B5
350
57
  3
B6
350
58
  3
B7
350
59
  3
B8
350
5A
  3
B9
350
5B
  3
C0
350
5C
  3
C1
350
5D
  3
C2
350
5E
  3
C3
350
5F
  3
C4
350
60
  3
C5
350
61
  3
C6
350
62
  3
C7
350
63
  3
C8
350
64
  3
C9
350
65
  3
D0
350
66
  3
D1
350
67
  3
D2
350
68
  0
DICTIONARY
  5
16F
102
{ACAD_REACTORS
330
C
102
}
330
C
100
AcDbDictionary
281
     1
  0
XRECORD
  5
22C
102
{ACAD_REACTORS
330
C
102
}
330
C
100
AcDbXrecord
280
     1
  1
DWGPROPS COOKIE
  2

  3

  4

  6

  7

  8
12015018
  9

300
=
301
=
302
=
303
=
304
=
305
=
306
=
307
=
308
=
309
=
 40
0.0
 41
2458236.352117327
 42
2459697.055236782
  1

 90
        0
  0
DICTIONARY
  5
1F7
102
{ACAD_REACTORS
330
1F6
102
}
330
1F6
100
AcDbDictionary
281
     1
  0
DICTIONARY
  5
22B
102
{ACAD_REACTORS
330
22A
102
}
330
22A
100
AcDbDictionary
281
     1
  0
LAYOUT
  5
1E
102
{ACAD_REACTORS
330
1A
102
}
330
1A
100
AcDbPlotSettings
  1

  2
none_device
  4

  6

 40
0.0
 41
0.0
 42
0.0
 43
0.0
 44
0.0
 45
0.0
 46
0.0
 47
0.0
 48
0.0
 49
0.0
140
0.0
141
0.0
142
1.0
143
1.0
 70
   688
 72
     1
 73
     0
 74
     5
  7

 75
    16
147
1.0
148
0.0
149
0.0
100
AcDbLayout
  1
Layout1
 70
     1
 71
     1
 10
0.0
 20
0.0
 11
420.0
 21
297.0
 12
0.0
 22
0.0
 32
0.0
 14
1.000000000000000E+20
 24
1.000000000000000E+20
 34
1.000000000000000E+20
 15
-1.000000000000000E+20
 25
-1.000000000000000E+20
 35
-1.000000000000000E+20
146
0.0
 13
0.0
 23
0.0
 33
0.0
 16
1.0
 26
0.0
 36
0.0
 17
0.0
 27
1.0
 37
0.0
 76
     0
330
1B
  0
LAYOUT
  5
26
102
{ACAD_REACTORS
330
1A
102
}
330
1A
100
AcDbPlotSettings
  1

  2
none_device
  4

  6

 40
0.0
 41
0.0
 42
0.0
 43
0.0
 44
0.0
 45
0.0
 46
0.0
 47
0.0
 48
0.0
 49
0.0
140
0.0
141
0.0
142
1.0
143
1.0
 70
   688
 72
     1
 73
     0
 74
     5
  7

 75
    16
147
1.0
148
0.0
149
0.0
100
AcDbLayout
  1
Layout2
 70
     1
 71
     2
 10
0.0
 20
0.0
 11
0.0
 21
0.0
 12
0.0
 22
0.0
 32
0.0
 14
0.0
 24
0.0
 34
0.0
 15
0.0
 25
0.0
 35
0.0
146
0.0
 13
0.0
 23
0.0
 33
0.0
 16
1.0
 26
0.0
 36
0.0
 17
0.0
 27
1.0
 37
0.0
 76
     0
330
23
  0
LAYOUT
  5
22
102
{ACAD_REACTORS
330
1A
102
}
330
1A
100
AcDbPlotSettings
  1

  2
none_device
  4
ANSI_A_(11.00_x_8.50_Inches)
  6

 40
6.35
 41
19.05
 42
6.35000508
 43
19.05000254
 44
279.4
 45
215.9
 46
145.2095633943369
 47
85.42527779010648
 48
0.0
 49
0.0
140
0.0
141
0.0
142
0.0774389427248539
143
1.0
 70
  1696
 72
     0
 73
     0
 74
     0
  7

 75
     0
147
0.0235690232323232
148
0.0
149
0.0
100
AcDbLayout
  1
Model
 70
     1
 71
     0
 10
0.0
 20
0.0
 11
420.0
 21
297.0
 12
0.0
 22
0.0
 32
0.0
 14
-69.92500000000004
 24
-49.97180738881174
 34
0.0
 15
74.77501515065208
 25
47.83099845446576
 35
0.0
146
0.0
 13
0.0
 23
0.0
 33
0.0
 16
1.0
 26
0.0
 36
0.0
 17
0.0
 27
1.0
 37
0.0
 76
     0
330
1F
331
29
  0
MLINESTYLE
  5
18
102
{ACAD_REACTORS
330
17
102
}
330
17
100
AcDbMlineStyle
  2
Standard
 70
     0
  3

 62
   256
 51
90.0
 52
90.0
 71
     2
 49
0.5
 62
   256
  6
BYLAYER
 49
-0.5
 62
   256
  6
BYLAYER
  0
ACDBPLACEHOLDER
  5
F
102
{ACAD_REACTORS
330
E
102
}
330
E
  0
SCALE
  5
48
102
{ACAD_REACTORS
330
47
102
}
330
47
100
AcDbScale
 70
     0
300
1:1
140
1.0
141
1.0
290
     1
  0
SCALE
  5
49
102
{ACAD_REACTORS
330
47
102
}
330
47
100
AcDbScale
 70
     0
300
1:2
140
1.0
141
2.0
290
     0
  0
SCALE
  5
4A
102
{ACAD_REACTORS
330
47
102
}
330
47
100
AcDbScale
 70
     0
300
1:4
140
1.0
141
4.0
290
     0
  0
SCALE
  5
4B
102
{ACAD_REACTORS
330
47
102
}
330
47
100
AcDbScale
 70
     0
300
1:5
140
1.0
141
5.0
290
     0
  0
SCALE
  5
4C
102
{ACAD_REACTORS
330
47
102
}
330
47
100
AcDbScale
 70
     0
300
1:8
140
1.0
141
8.0
290
     0
  0
SCALE
  5
4D
102
{ACAD_REACTORS
330
47
102
}
330
47
100
AcDbScale
 70
     0
300
1:10
140
1.0
141
10.0
290
     0
  0
SCALE
  5
4E
102
{ACAD_REACTORS
330
47
102
}
330
47
100
AcDbScale
 70
     0
300
1:16
140
1.0
141
16.0
290
     0
  0
SCALE
  5
4F
102
{ACAD_REACTORS
330
47
102
}
330
47
100
AcDbScale
 70
     0
300
1:20
140
1.0
141
20.0
290
     0
  0
SCALE
  5
50
102
{ACAD_REACTORS
330
47
102
}
330
47
100
AcDbScale
 70
     0
300
1:30
140
1.0
141
30.0
290
     0
  0
SCALE
  5
51
102
{ACAD_REACTORS
330
47
102
}
330
47
100
AcDbScale
 70
     0
300
1:40
140
1.0
141
40.0
290
     0
  0
SCALE
  5
52
102
{ACAD_REACTORS
330
47
102
}
330
47
100
AcDbScale
 70
     0
300
1:50
140
1.0
141
50.0
290
     0
  0
SCALE
  5
53
102
{ACAD_REACTORS
330
47
102
}
330
47
100
AcDbScale
 70
     0
300
1:100
140
1.0
141
100.0
290
     0
  0
SCALE
  5
54
102
{ACAD_REACTORS
330
47
102
}
330
47
100
AcDbScale
 70
     0
300
2:1
140
2.0
141
1.0
290
     0
  0
SCALE
  5
55
102
{ACAD_REACTORS
330
47
102
}
330
47
100
AcDbScale
 70
     0
300
4:1
140
4.0
141
1.0
290
     0
  0
SCALE
  5
56
102
{ACAD_REACTORS
330
47
102
}
330
47
100
AcDbScale
 70
     0
300
8:1
140
8.0
141
1.0
290
     0
  0
SCALE
  5
57
102
{ACAD_REACTORS
330
47
102
}
330
47
100
AcDbScale
 70
     0
300
10:1
140
10.0
141
1.0
290
     0
  0
SCALE
  5
58
102
{ACAD_REACTORS
330
47
102
}
330
47
100
AcDbScale
 70
     0
300
100:1
140
100.0
141
1.0
290
     0
  0
SCALE
  5
59
102
{ACAD_REACTORS
330
47
102
}
330
47
100
AcDbScale
 70
     0
300
1/128" = 1'-0"
140
0.0078125
141
12.0
290
     0
  0
SCALE
  5
5A
102
{ACAD_REACTORS
330
47
102
}
330
47
100
AcDbScale
 70
     0
300
1/64" = 1'-0"
140
0.015625
141
12.0
290
     0
  0
SCALE
  5
5B
102
{ACAD_REACTORS
330
47
102
}
330
47
100
AcDbScale
 70
     0
300
1/32" = 1'-0"
140
0.03125
141
12.0
290
     0
  0
SCALE
  5
5C
102
{ACAD_REACTORS
330
47
102
}
330
47
100
AcDbScale
 70
     0
300
1/16" = 1'-0"
140
0.0625
141
12.0
290
     0
  0
SCALE
  5
5D
102
{ACAD_REACTORS
330
47
102
}
330
47
100
AcDbScale
 70
     0
300
3/32" = 1'-0"
140
0.09375
141
12.0
290
     0
  0
SCALE
  5
5E
102
{ACAD_REACTORS
330
47
102
}
330
47
100
AcDbScale
 70
     0
300
1/8" = 1'-0"
140
0.125
141
12.0
290
     0
  0
SCALE
  5
5F
102
{ACAD_REACTORS
330
47
102
}
330
47
100
AcDbScale
 70
     0
300
3/16" = 1'-0"
140
0.1875
141
12.0
290
     0
  0
SCALE
  5
60
102
{ACAD_REACTORS
330
47
102
}
330
47
100
AcDbScale
 70
     0
300
1/4" = 1'-0"
140
0.25
141
12.0
290
     0
  0
SCALE
  5
61
102
{ACAD_REACTORS
330
47
102
}
330
47
100
AcDbScale
 70
     0
300
3/8" = 1'-0"
140
0.375
141
12.0
290
     0
  0
SCALE
  5
62
102
{ACAD_REACTORS
330
47
102
}
330
47
100
AcDbScale
 70
     0
300
1/2" = 1'-0"
140
0.5
141
12.0
290
     0
  0
SCALE
  5
63
102
{ACAD_REACTORS
330
47
102
}
330
47
100
AcDbScale
 70
     0
300
3/4" = 1'-0"
140
0.75
141
12.0
290
     0
  0
SCALE
  5
64
102
{ACAD_REACTORS
330
47
102
}
330
47
100
AcDbScale
 70
     0
300
1" = 1'-0"
140
1.0
141
12.0
290
     0
  0
SCALE
  5
65
102
{ACAD_REACTORS
330
47
102
}
330
47
100
AcDbScale
 70
     0
300
1-1/2" = 1'-0"
140
1.5
141
12.0
290
     0
  0
SCALE
  5
66
102
{ACAD_REACTORS
330
47
102
}
330
47
100
AcDbScale
 70
     0
300
3" = 1'-0"
140
3.0
141
12.0
290
     0
  0
SCALE
  5
67
102
{ACAD_REACTORS
330
47
102
}
330
47
100
AcDbScale
 70
     0
300
6" = 1'-0"
140
6.0
141
12.0
290
     0
  0
SCALE
  5
68
102
{ACAD_REACTORS
330
47
102
}
330
47
100
AcDbScale
 70
     0
300
1'-0" = 1'-0"
140
12.0
141
12.0
290
     0
  0
ENDSEC
  0
EOF
