  0
SECTION
  2
HEADER
  9
$ACADVER
  1
AC1015
  9
$ACADMAINTVER
 70
     6
  9
$DWGCODEPAGE
  3
ANSI_949
  9
$INSBASE
 10
0.0
 20
0.0
 30
0.0
  9
$EXTMIN
 10
-70.87500000000004
 20
-49.71142936356761
 30
0.0
  9
$EXTMAX
 10
73.33800742659953
 20
41.79305141807178
 30
0.0
  9
$LIMMIN
 10
0.0
 20
0.0
  9
$LIMMAX
 10
420.0
 20
297.0
  9
$ORTHOMODE
 70
     1
  9
$REGENMODE
 70
     1
  9
$FILLMODE
 70
     1
  9
$QTEXTMODE
 70
     0
  9
$MIRRTEXT
 70
     1
  9
$LTSCALE
 40
1.0
  9
$ATTMODE
 70
     1
  9
$TEXTSIZE
 40
3.5
  9
$TRACEWID
 40
1.0
  9
$TEXTSTYLE
  7
Standard
  9
$CLAYER
  8
0
  9
$CELTYPE
  6
ByLayer
  9
$CECOLOR
 62
   256
  9
$CELTSCALE
 40
1.0
  9
$DISPSILH
 70
     0
  9
$DIMSCALE
 40
1.0
  9
$DIMASZ
 40
3.302
  9
$DIMEXO
 40
1.0
  9
$DIMDLI
 40
3.75
  9
$DIMRND
 40
0.0
  9
$DIMDLE
 40
0.0
  9
$DIMEXE
 40
1.0
  9
$DIMTP
 40
0.0
  9
$DIMTM
 40
0.0
  9
$DIMTXT
 40
3.5
  9
$DIMCEN
 40
2.5
  9
$DIMTSZ
 40
0.0
  9
$DIMTOL
 70
     0
  9
$DIMLIM
 70
     0
  9
$DIMTIH
 70
     1
  9
$DIMTOH
 70
     1
  9
$DIMSE1
 70
     0
  9
$DIMSE2
 70
     0
  9
$DIMTAD
 70
     1
  9
$DIMZIN
 70
     0
  9
$DIMBLK
  1

  9
$DIMASO
 70
     1
  9
$DIMSHO
 70
     1
  9
$DIMPOST
  1

  9
$DIMAPOST
  1

  9
$DIMALT
 70
     0
  9
$DIMALTD
 70
     3
  9
$DIMALTF
 40
0.0393700787401575
  9
$DIMLFAC
 40
1.0
  9
$DIMTOFL
 70
     1
  9
$DIMTVP
 40
0.0
  9
$DIMTIX
 70
     0
  9
$DIMSOXD
 70
     0
  9
$DIMSAH
 70
     0
  9
$DIMBLK1
  1

  9
$DIMBLK2
  1

  9
$DIMSTYLE
  2
ISO-25
  9
$DIMCLRD
 70
     0
  9
$DIMCLRE
 70
     0
  9
$DIMCLRT
 70
     0
  9
$DIMTFAC
 40
1.0
  9
$DIMGAP
 40
1.524
  9
$DIMJUST
 70
     0
  9
$DIMSD1
 70
     0
  9
$DIMSD2
 70
     0
  9
$DIMTOLJ
 70
     0
  9
$DIMTZIN
 70
     0
  9
$DIMALTZ
 70
     0
  9
$DIMALTTZ
 70
     0
  9
$DIMUPT
 70
     0
  9
$DIMDEC
 70
     2
  9
$DIMTDEC
 70
     2
  9
$DIMALTU
 70
     2
  9
$DIMALTTD
 70
     3
  9
$DIMTXSTY
  7
Standard
  9
$DIMAUNIT
 70
     0
  9
$DIMADEC
 70
     2
  9
$DIMALTRND
 40
0.0
  9
$DIMAZIN
 70
     0
  9
$DIMDSEP
 70
    44
  9
$DIMATFIT
 70
     3
  9
$DIMFRAC
 70
     0
  9
$DIMLDRBLK
  1

  9
$DIMLUNIT
 70
     2
  9
$DIMLWD
 70
    -2
  9
$DIMLWE
 70
    -2
  9
$DIMTMOVE
 70
     0
  9
$LUNITS
 70
     2
  9
$LUPREC
 70
     2
  9
$SKETCHINC
 40
1.0
  9
$FILLETRAD
 40
10.0
  9
$AUNITS
 70
     0
  9
$AUPREC
 70
     2
  9
$MENU
  1
.
  9
$ELEVATION
 40
0.0
  9
$PELEVATION
 40
0.0
  9
$THICKNESS
 40
0.0
  9
$LIMCHECK
 70
     0
  9
$CHAMFERA
 40
0.0
  9
$CHAMFERB
 40
0.0
  9
$CHAMFERC
 40
0.0
  9
$CHAMFERD
 40
0.0
  9
$SKPOLY
 70
     0
  9
$TDCREATE
 40
2458236.742187697
  9
$TDUCREATE
 40
2458236.367187697
  9
$TDUPDATE
 40
2459697.431260486
  9
$TDUUPDATE
 40
2459697.056260486
  9
$TDINDWG
 40
0.0039097222
  9
$TDUSRTIMER
 40
0.0001935417
  9
$USRTIMER
 70
     1
  9
$ANGBASE
 50
0.0
  9
$ANGDIR
 70
     0
  9
$PDMODE
 70
     0
  9
$PDSIZE
 40
-1.0
  9
$PLINEWID
 40
0.0
  9
$SPLFRAME
 70
     0
  9
$SPLINETYPE
 70
     6
  9
$SPLINESEGS
 70
     8
  9
$HANDSEED
  5
222
  9
$SURFTAB1
 70
     6
  9
$SURFTAB2
 70
     6
  9
$SURFTYPE
 70
     6
  9
$SURFU
 70
     6
  9
$SURFV
 70
     6
  9
$UCSBASE
  2

  9
$UCSNAME
  2

  9
$UCSORG
 10
0.0
 20
0.0
 30
0.0
  9
$UCSXDIR
 10
1.0
 20
0.0
 30
0.0
  9
$UCSYDIR
 10
0.0
 20
1.0
 30
0.0
  9
$UCSORTHOREF
  2

  9
$UCSORTHOVIEW
 70
     0
  9
$UCSORGTOP
 10
0.0
 20
0.0
 30
0.0
  9
$UCSORGBOTTOM
 10
0.0
 20
0.0
 30
0.0
  9
$UCSORGLEFT
 10
0.0
 20
0.0
 30
0.0
  9
$UCSORGRIGHT
 10
0.0
 20
0.0
 30
0.0
  9
$UCSORGFRONT
 10
0.0
 20
0.0
 30
0.0
  9
$UCSORGBACK
 10
0.0
 20
0.0
 30
0.0
  9
$PUCSBASE
  2

  9
$PUCSNAME
  2

  9
$PUCSORG
 10
0.0
 20
0.0
 30
0.0
  9
$PUCSXDIR
 10
1.0
 20
0.0
 30
0.0
  9
$PUCSYDIR
 10
0.0
 20
1.0
 30
0.0
  9
$PUCSORTHOREF
  2

  9
$PUCSORTHOVIEW
 70
     0
  9
$PUCSORGTOP
 10
0.0
 20
0.0
 30
0.0
  9
$PUCSORGBOTTOM
 10
0.0
 20
0.0
 30
0.0
  9
$PUCSORGLEFT
 10
0.0
 20
0.0
 30
0.0
  9
$PUCSORGRIGHT
 10
0.0
 20
0.0
 30
0.0
  9
$PUCSORGFRONT
 10
0.0
 20
0.0
 30
0.0
  9
$PUCSORGBACK
 10
0.0
 20
0.0
 30
0.0
  9
$USERI1
 70
     0
  9
$USERI2
 70
     0
  9
$USERI3
 70
     0
  9
$USERI4
 70
     0
  9
$USERI5
 70
     0
  9
$USERR1
 40
0.0
  9
$USERR2
 40
0.0
  9
$USERR3
 40
0.0
  9
$USERR4
 40
0.0
  9
$USERR5
 40
0.0
  9
$WORLDVIEW
 70
     1
  9
$SHADEDGE
 70
     3
  9
$SHADEDIF
 70
    70
  9
$TILEMODE
 70
     1
  9
$MAXACTVP
 70
    64
  9
$PINSBASE
 10
0.0
 20
0.0
 30
0.0
  9
$PLIMCHECK
 70
     0
  9
$PEXTMIN
 10
1.000000000000000E+20
 20
1.000000000000000E+20
 30
1.000000000000000E+20
  9
$PEXTMAX
 10
-1.000000000000000E+20
 20
-1.000000000000000E+20
 30
-1.000000000000000E+20
  9
$PLIMMIN
 10
0.0
 20
0.0
  9
$PLIMMAX
 10
0.0
 20
0.0
  9
$UNITMODE
 70
     0
  9
$VISRETAIN
 70
     1
  9
$PLINEGEN
 70
     0
  9
$PSLTSCALE
 70
     1
  9
$TREEDEPTH
 70
  3020
  9
$CMLSTYLE
  2
Standard
  9
$CMLJUST
 70
     0
  9
$CMLSCALE
 40
20.0
  9
$PROXYGRAPHICS
 70
     1
  9
$MEASUREMENT
 70
     1
  9
$CELWEIGHT
370
    -1
  9
$ENDCAPS
280
     0
  9
$JOINSTYLE
280
     0
  9
$LWDISPLAY
290
     1
  9
$INSUNITS
 70
     4
  9
$HYPERLINKBASE
  1

  9
$STYLESHEET
  1

  9
$XEDIT
290
     1
  9
$CEPSNTYPE
380
     0
  9
$PSTYLEMODE
290
     1
  9
$FINGERPRINTGUID
  2
{552AC243-95C2-4757-96E4-6CF55718BC64}
  9
$VERSIONGUID
  2
{FAEB1C32-E019-11D5-929B-00C0DF256EC4}
  9
$EXTNAMES
290
     1
  9
$PSVPSCALE
 40
0.0
  9
$OLESTARTUP
290
     0
  0
ENDSEC
  0
SECTION
  2
CLASSES
  0
CLASS
  1
ACDBDICTIONARYWDFLT
  2
AcDbDictionaryWithDefault
  3
ObjectDBX Classes
 90
        0
280
     0
281
     0
  0
CLASS
  1
VISUALSTYLE
  2
AcDbVisualStyle
  3
ObjectDBX Classes
 90
     4095
280
     0
281
     0
  0
CLASS
  1
MATERIAL
  2
AcDbMaterial
  3
ObjectDBX Classes
 90
     1153
280
     0
281
     0
  0
CLASS
  1
SCALE
  2
AcDbScale
  3
ObjectDBX Classes
 90
     1153
280
     0
281
     0
  0
CLASS
  1
SUN
  2
AcDbSun
  3
SCENEOE
 90
     1153
280
     0
281
     0
  0
CLASS
  1
ACDBPLACEHOLDER
  2
AcDbPlaceHolder
  3
ObjectDBX Classes
 90
        0
280
     0
281
     0
  0
CLASS
  1
LAYOUT
  2
AcDbLayout
  3
ObjectDBX Classes
 90
        0
280
     0
281
     0
  0
CLASS
  1
TABLESTYLE
  2
AcDbTableStyle
  3
ObjectDBX Classes
 90
     4095
280
     0
281
     0
  0
CLASS
  1
MLEADERSTYLE
  2
AcDbMLeaderStyle
  3
ACDB_MLEADERSTYLE_CLASS
 90
     4095
280
     0
281
     0
  0
CLASS
  1
RASTERVARIABLES
  2
AcDbRasterVariables
  3
ISM
 90
        0
280
     0
281
     0
  0
CLASS
  1
DIMASSOC
  2
AcDbDimAssoc
  3
"AcDbDimAssoc|Product Desc:     AcDim ARX App For Dimension|Company:          Autodesk, Inc.|WEB Address:      www.autodesk.com"
 90
        0
280
     0
281
     0
  0
ENDSEC
  0
SECTION
  2
TABLES
  0
TABLE
  2
VPORT
  5
8
330
0
100
AcDbSymbolTable
 70
     1
  0
VPORT
  5
29
330
8
100
AcDbSymbolTableRecord
100
AcDbViewportTableRecord
  2
*Active
 70
     0
 10
0.0
 20
0.0
 11
1.0
 21
1.0
 12
1.231503713299745
 22
-3.95918897274791
 13
0.0
 23
0.0
 14
10.0
 24
10.0
 15
10.0
 25
10.0
 16
0.0
 26
0.0
 36
1.0
 17
0.0
 27
0.0
 37
0.0
 40
93.33457039727219
 41
1.898569570871261
 42
50.0
 43
0.0
 44
0.0
 50
0.0
 51
0.0
 71
    16
 72
  2000
 73
     1
 74
     3
 75
     0
 76
     0
 77
     0
 78
     0
281
     0
 65
     1
110
0.0
120
0.0
130
0.0
111
1.0
121
0.0
131
0.0
112
0.0
122
1.0
132
0.0
 79
     0
146
0.0
  0
ENDTAB
  0
TABLE
  2
LTYPE
  5
5
330
0
100
AcDbSymbolTable
 70
     6
  0
LTYPE
  5
14
330
5
100
AcDbSymbolTableRecord
100
AcDbLinetypeTableRecord
  2
ByBlock
 70
     0
  3

 72
    65
 73
     0
 40
0.0
  0
LTYPE
  5
15
330
5
100
AcDbSymbolTableRecord
100
AcDbLinetypeTableRecord
  2
ByLayer
 70
     0
  3

 72
    65
 73
     0
 40
0.0
  0
LTYPE
  5
16
330
5
100
AcDbSymbolTableRecord
100
AcDbLinetypeTableRecord
  2
Continuous
 70
     0
  3
Solid line
 72
    65
 73
     0
 40
0.0
  0
LTYPE
  5
6A
330
5
100
AcDbSymbolTableRecord
100
AcDbLinetypeTableRecord
  2
HIDDEN
 70
     0
  3
Hidden __ __ __ __ __ __ __ __ __ __ __ __ __ __
 72
    65
 73
     2
 40
1.905
 49
1.27
 74
     0
 49
-0.635
 74
     0
  0
LTYPE
  5
6B
330
5
100
AcDbSymbolTableRecord
100
AcDbLinetypeTableRecord
  2
PHANTOM
 70
     0
  3
Phantom ______  __  __  ______  __  __  ______
 72
    65
 73
     6
 40
12.7
 49
6.35
 74
     0
 49
-1.27
 74
     0
 49
1.27
 74
     0
 49
-1.27
 74
     0
 49
1.27
 74
     0
 49
-1.27
 74
     0
  0
LTYPE
  5
6C
330
5
100
AcDbSymbolTableRecord
100
AcDbLinetypeTableRecord
  2
CENTER
 70
     0
  3
Center ____ _ ____ _ ____ _ ____ _ ____ _ ____
 72
    65
 73
     4
 40
10.16
 49
6.35
 74
     0
 49
-1.27
 74
     0
 49
1.27
 74
     0
 49
-1.27
 74
     0
  0
LTYPE
  5
6D
330
5
100
AcDbSymbolTableRecord
100
AcDbLinetypeTableRecord
  2
CENTERX2
 70
     0
  3
Center (2x) ________  __  ________  __  _____
 72
    65
 73
     4
 40
20.32
 49
12.7
 74
     0
 49
-2.54
 74
     0
 49
2.54
 74
     0
 49
-2.54
 74
     0
  0
LTYPE
  5
6E
330
5
100
AcDbSymbolTableRecord
100
AcDbLinetypeTableRecord
  2
DOT2
 70
     0
  3
Dot (.5x) ........................................
 72
    65
 73
     2
 40
0.635
 49
0.0
 74
     0
 49
-0.635
 74
     0
  0
ENDTAB
  0
TABLE
  2
LAYER
  5
2
102
{ACAD_XDICTIONARY
360
1EA
102
}
330
0
100
AcDbSymbolTable
 70
    17
  0
LAYER
  5
10
330
2
100
AcDbSymbolTableRecord
100
AcDbLayerTableRecord
  2
0
 70
     0
 62
     7
  6
Continuous
370
    -3
390
F
  0
LAYER
  5
6F
330
2
100
AcDbSymbolTableRecord
100
AcDbLayerTableRecord
  2
FORMAT
 70
     0
 62
     2
  6
Continuous
370
    -3
390
F
  0
LAYER
  5
70
330
2
100
AcDbSymbolTableRecord
100
AcDbLayerTableRecord
  2
외형선
 70
     0
 62
   100
  6
Continuous
370
    30
390
F
  0
LAYER
  5
71
330
2
100
AcDbSymbolTableRecord
100
AcDbLayerTableRecord
  2
숨은선
 70
     0
 62
     2
  6
HIDDEN
370
    15
390
F
  0
LAYER
  5
72
330
2
100
AcDbSymbolTableRecord
100
AcDbLayerTableRecord
  2
중심선
 70
     0
 62
     1
  6
CENTERX2
370
    -3
390
F
  0
LAYER
  5
73
330
2
100
AcDbSymbolTableRecord
100
AcDbLayerTableRecord
  2
파단선
 70
     0
 62
     4
  6
Continuous
370
    -3
390
F
  0
LAYER
  5
74
330
2
100
AcDbSymbolTableRecord
100
AcDbLayerTableRecord
  2
해칭선
 70
     0
 62
     4
  6
Continuous
370
    -3
390
F
  0
LAYER
  5
75
330
2
100
AcDbSymbolTableRecord
100
AcDbLayerTableRecord
  2
가는실선
 70
     0
 62
     4
  6
Continuous
370
    -3
390
F
  0
LAYER
  5
76
330
2
100
AcDbSymbolTableRecord
100
AcDbLayerTableRecord
  2
치수_보조선
 70
     0
 62
     4
  6
Continuous
370
    -3
390
F
  0
LAYER
  5
77
330
2
100
AcDbSymbolTableRecord
100
AcDbLayerTableRecord
  2
치수문자_일반주서
 70
     0
 62
     7
  6
Continuous
370
    15
390
F
  0
LAYER
  5
78
330
2
100
AcDbSymbolTableRecord
100
AcDbLayerTableRecord
  2
개별주서
 70
     0
 62
   100
  6
Continuous
370
    30
390
F
  0
LAYER
  5
79
330
2
100
AcDbSymbolTableRecord
100
AcDbLayerTableRecord
  2
중간선
 70
     0
 62
     2
  6
Continuous
370
    15
390
F
  0
LAYER
  5
7A
330
2
100
AcDbSymbolTableRecord
100
AcDbLayerTableRecord
  2
윤곽선
 70
     0
 62
     3
  6
Continuous
370
    40
390
F
  0
LAYER
  5
7B
330
2
100
AcDbSymbolTableRecord
100
AcDbLayerTableRecord
  2
중심마크
 70
     0
 62
   100
  6
Continuous
370
    30
390
F
  0
LAYER
  5
7C
330
2
100
AcDbSymbolTableRecord
100
AcDbLayerTableRecord
  2
가상선
 70
     0
 62
     4
  6
PHANTOM
370
    -3
390
F
  0
LAYER
  5
7D
330
2
100
AcDbSymbolTableRecord
100
AcDbLayerTableRecord
  2
특수지정선
 70
     0
 62
     5
  6
CENTERX2
370
    60
390
F
  0
LAYER
  5
188
330
2
100
AcDbSymbolTableRecord
100
AcDbLayerTableRecord
  2
Defpoints
 70
     0
 62
     7
  6
Continuous
290
     0
370
    -3
390
F
  0
ENDTAB
  0
TABLE
  2
STYLE
  5
3
330
0
100
AcDbSymbolTable
 70
     2
  0
STYLE
  5
11
330
3
100
AcDbSymbolTableRecord
100
AcDbTextStyleTableRecord
  2
Standard
 70
     0
 40
0.0
 41
1.0
 50
0.0
 71
     0
 42
3.5
  3
txt
  4

  0
STYLE
  5
93
330
3
100
AcDbSymbolTableRecord
100
AcDbTextStyleTableRecord
  2
SLDTEXTSTYLE0
 70
     0
 40
0.0
 41
0.75
 50
0.0
 71
     0
 42
3.5
  3
TXT
  4

  0
ENDTAB
  0
TABLE
  2
VIEW
  5
6
330
0
100
AcDbSymbolTable
 70
     0
  0
ENDTAB
  0
TABLE
  2
UCS
  5
7
330
0
100
AcDbSymbolTable
 70
     0
  0
ENDTAB
  0
TABLE
  2
APPID
  5
9
330
0
100
AcDbSymbolTable
 70
     2
  0
APPID
  5
12
330
9
100
AcDbSymbolTableRecord
100
AcDbRegAppTableRecord
  2
ACAD
 70
     0
  0
APPID
  5
18D
330
9
100
AcDbSymbolTableRecord
100
AcDbRegAppTableRecord
  2
ACAD_DSTYLE_DIMRADIAL_EXTENSION
 70
     0
  0
ENDTAB
  0
TABLE
  2
DIMSTYLE
  5
A
330
0
100
AcDbSymbolTable
 70
     3
100
AcDbDimStyleTable
  0
DIMSTYLE
105
27
330
A
100
AcDbSymbolTableRecord
100
AcDbDimStyleTableRecord
  2
ISO-25
 70
     0
 41
2.5
 42
0.625
 43
3.75
 44
1.25
 73
     0
 74
     0
 77
     1
 78
     8
140
2.5
141
2.5
143
0.03937007874016
147
0.625
171
     3
172
     1
178
     0
271
     2
272
     2
274
     3
278
    44
283
     0
284
     8
340
11
  0
DIMSTYLE
105
10E
102
{ACAD_REACTORS
330
10D
330
149
102
}
330
A
100
AcDbSymbolTableRecord
100
AcDbDimStyleTableRecord
  2
SLDDIMSTYLE0
 70
     0
 41
3.302
 44
0.0
 45
0.000000001
 73
     0
 74
     0
 77
     1
 78
    12
 79
     3
140
3.5
143
0.0393700787401575
147
0.875
148
0.000000001
170
     1
172
     1
173
     1
178
     0
271
     2
272
     2
276
     2
284
    12
289
     0
340
93
  0
DIMSTYLE
105
123
102
{ACAD_REACTORS
330
122
330
136
330
18E
102
}
330
A
100
AcDbSymbolTableRecord
100
AcDbDimStyleTableRecord
  2
SLDDIMSTYLE1
 70
     0
 41
3.302
 44
0.0
 45
0.000000001
 73
     0
 74
     0
 77
     1
 78
     4
 79
     1
140
3.5
143
0.0393700787401575
147
0.875
148
0.000000001
170
     1
173
     1
178
     0
271
     2
272
     2
276
     2
284
    12
340
93
  0
ENDTAB
  0
TABLE
  2
BLOCK_RECORD
  5
1
330
0
100
AcDbSymbolTable
 70
     8
  0
BLOCK_RECORD
  5
1F
102
{ACAD_XDICTIONARY
360
21F
102
}
330
1
100
AcDbSymbolTableRecord
100
AcDbBlockTableRecord
  2
*Model_Space
340
22
  0
BLOCK_RECORD
  5
1B
330
1
100
AcDbSymbolTableRecord
100
AcDbBlockTableRecord
  2
*Paper_Space
340
1E
  0
BLOCK_RECORD
  5
23
330
1
100
AcDbSymbolTableRecord
100
AcDbBlockTableRecord
  2
*Paper_Space0
340
26
  0
BLOCK_RECORD
  5
7E
330
1
100
AcDbSymbolTableRecord
100
AcDbBlockTableRecord
  2
블럭10
340
0
102
{BLKREFS
331
105
102
}
  0
BLOCK_RECORD
  5
10F
330
1
100
AcDbSymbolTableRecord
100
AcDbBlockTableRecord
  2
_D
340
0
  0
BLOCK_RECORD
  5
124
330
1
100
AcDbSymbolTableRecord
100
AcDbBlockTableRecord
  2
_D_1
340
0
  0
BLOCK_RECORD
  5
137
330
1
100
AcDbSymbolTableRecord
100
AcDbBlockTableRecord
  2
_D_2
340
0
  0
BLOCK_RECORD
  5
14A
330
1
100
AcDbSymbolTableRecord
100
AcDbBlockTableRecord
  2
_D_3
340
0
  0
BLOCK_RECORD
  5
15D
330
1
100
AcDbSymbolTableRecord
100
AcDbBlockTableRecord
  2
SW_DOWELSYMBOL_0
340
0
102
{BLKREFS
331
163
102
}
  0
BLOCK_RECORD
  5
191
330
1
100
AcDbSymbolTableRecord
100
AcDbBlockTableRecord
  2
*D7
340
0
  0
ENDTAB
  0
ENDSEC
  0
SECTION
  2
BLOCKS
  0
BLOCK
  5
20
330
1F
100
AcDbEntity
  8
0
100
AcDbBlockBegin
  2
*Model_Space
 70
     0
 10
0.0
 20
0.0
 30
0.0
  3
*Model_Space
  1
*Model_Space
  0
ENDBLK
  5
21
330
1F
100
AcDbEntity
  8
0
100
AcDbBlockEnd
  0
BLOCK
  5
1C
330
1B
100
AcDbEntity
 67
     1
  8
0
100
AcDbBlockBegin
  2
*Paper_Space
 70
     0
 10
0.0
 20
0.0
 30
0.0
  3
*Paper_Space
  1
*Paper_Space
  0
ENDBLK
  5
1D
330
1B
100
AcDbEntity
 67
     1
  8
0
100
AcDbBlockEnd
  0
BLOCK
  5
24
330
23
100
AcDbEntity
  8
0
100
AcDbBlockBegin
  2
*Paper_Space0
 70
     0
 10
0.0
 20
0.0
 30
0.0
  3
*Paper_Space0
  1
*Paper_Space0
  0
ENDBLK
  5
25
330
23
100
AcDbEntity
  8
0
100
AcDbBlockEnd
  0
BLOCK
  5
7F
330
7E
100
AcDbEntity
  8
0
100
AcDbBlockBegin
  2
블럭10
 70
     2
 10
0.0
 20
0.0
 30
0.0
  3
블럭10
  1
블럭10
  0
ELLIPSE
  5
81
330
7E
100
AcDbEntity
  8
중심선
100
AcDbEllipse
 10
20.54032771741204
 20
12.0471743016438
 30
0.0
 11
6.600054785286829
 21
-1.261213355974178E-13
 31
0.0
210
0.0
220
0.0
230
1.0
 40
0.636358354079598
 41
0.9219305317359503
 42
6.513795318482858
  0
ELLIPSE
  5
82
330
7E
100
AcDbEntity
  8
중심선
100
AcDbEllipse
 10
20.54032771746488
 20
12.04717430159265
 30
0.0
 11
3.960054785062283
 21
1.540847449632565E-10
 31
0.0
210
0.0
220
0.0
230
1.0
 40
0.3939339440162632
 41
1.131841032648279
 42
5.62031148352944
  0
LINE
  5
83
330
7E
100
AcDbEntity
  8
중심선
100
AcDbLine
 10
2.268634060543552
 20
16.24717430164393
 30
0.0
 11
5.714909304380834
 21
16.24717430164393
 31
0.0
  0
LINE
  5
84
330
7E
100
AcDbEntity
  8
중심선
100
AcDbLine
 10
5.245725140726316
 20
7.84717430164391
 30
0.0
 11
8.692000384563599
 21
7.84717430164391
 31
0.0
  0
LINE
  5
85
330
7E
100
AcDbEntity
  8
중심선
100
AcDbLine
 10
15.74043728645272
 20
16.24717430164393
 30
0.0
 11
8.692000384563599
 21
7.84717430164391
 31
0.0
  0
LINE
  5
86
330
7E
100
AcDbEntity
  8
중심선
100
AcDbLine
 10
0.1404042013395286
 20
13.71084872107135
 30
0.0
 11
3.58671253028996
 21
13.71088815037384
 31
0.0
  0
LINE
  5
87
330
7E
100
AcDbEntity
  8
중심선
100
AcDbLine
 10
2.750260043222114
 20
10.84717430164391
 30
0.0
 11
6.196535287059397
 21
10.84717430164391
 31
0.0
  0
LINE
  5
88
330
7E
100
AcDbEntity
  8
중심선
100
AcDbLine
 10
12.29416204261559
 20
16.24717430164393
 30
0.0
 11
5.245725140726316
 21
7.84717430164391
 31
0.0
  0
LINE
  5
89
330
7E
100
AcDbEntity
  8
중심선
100
AcDbLine
 10
10.72767329541681
 20
16.24717430164393
 30
0.0
 11
6.196535287059397
 21
10.84717430164391
 31
0.0
  0
LINE
  5
8A
330
7E
100
AcDbEntity
  8
중심선
100
AcDbLine
 10
7.28139805157953
 20
16.24717430164393
 30
0.0
 11
2.750260043222114
 21
10.84717430164391
 31
0.0
  0
LINE
  5
8B
330
7E
100
AcDbEntity
  8
중심선
100
AcDbLine
 10
5.714909304380834
 20
16.24717430164393
 30
0.0
 11
3.58671253028996
 21
13.71088815037384
 31
0.0
  0
LINE
  5
8C
330
7E
100
AcDbEntity
  8
중심선
100
AcDbLine
 10
2.268634060543552
 20
16.24717430164393
 30
0.0
 11
0.1404042013395286
 21
13.71084872107135
 31
0.0
  0
LINE
  5
8D
330
7E
100
AcDbEntity
  8
중심선
100
AcDbLine
 10
7.28139805157953
 20
16.24717430164393
 30
0.0
 11
10.72767329541681
 21
16.24717430164393
 31
0.0
  0
LINE
  5
8E
330
7E
100
AcDbEntity
  8
중심선
100
AcDbLine
 10
12.29416204261559
 20
16.24717430164393
 30
0.0
 11
15.74043728645272
 21
16.24717430164393
 31
0.0
  0
LINE
  5
8F
330
7E
100
AcDbEntity
  8
중심선
100
AcDbLine
 10
19.22036997980202
 20
11.08717430171403
 30
0.0
 11
23.66174974927406
 21
11.08717430171406
 31
0.0
  0
LINE
  5
90
330
7E
100
AcDbEntity
  8
중심선
100
AcDbLine
 10
19.22039502424796
 20
13.00717430171391
 30
0.0
 11
19.22036997980202
 21
11.08717430171403
 31
0.0
  0
LINE
  5
91
330
7E
100
AcDbEntity
  8
중심선
100
AcDbLine
 10
19.22039502424796
 20
13.00717430171391
 30
0.0
 11
26.96566020931264
 21
13.00717430171391
 31
0.0
  0
LINE
  5
92
330
7E
100
AcDbEntity
  8
중심선
100
AcDbLine
 10
22.22332737316547
 20
13.45928029700563
 30
0.0
 11
24.52862924686651
 21
15.39360700705356
 31
0.0
  0
ATTDEF
  5
94
330
7E
100
AcDbEntity
  8
FORMAT
 62
     2
100
AcDbText
 10
-11.05102035218446
 20
2.075366912832191
 30
0.0
 40
4.233333333333333
  1
GMG22911[ 6 FLUTE ]
 41
0.75
  7
SLDTEXTSTYLE0
 11
-11.05102035218446
 21
-0.0412997538344756
 31
0.0
100
AcDbAttributeDefinition
  3

  2
AUTOATTR0
 70
     0
 74
     1
  0
ENDBLK
  5
80
330
7E
100
AcDbEntity
  8
0
100
AcDbBlockEnd
  0
BLOCK
  5
110
330
10F
100
AcDbEntity
  8
0
100
AcDbBlockBegin
  2
_D
 70
     0
 10
0.0
 20
0.0
 30
0.0
  3
_D
  1
_D
  0
LINE
  5
112
330
10F
100
AcDbEntity
  8
치수문자_일반주서
 62
     0
370
    -2
100
AcDbLine
 10
47.40050000000001
 20
-4.762499999999994
 30
0.0
 11
66.74524571577297
 21
-4.762499999999921
 31
0.0
  0
LINE
  5
113
330
10F
100
AcDbEntity
  8
치수문자_일반주서
 62
     0
370
    -2
100
AcDbLine
 10
47.40049999999999
 20
4.762500000000006
 30
0.0
 11
66.74524571577294
 21
4.762500000000079
 31
0.0
  0
LINE
  5
114
330
10F
100
AcDbEntity
  8
치수문자_일반주서
 62
     0
370
    -2
100
AcDbLine
 10
66.74524571577295
 20
-1.460499999999922
 30
0.0
 11
66.74524571577295
 21
1.46050000000008
 31
0.0
  0
SOLID
  5
115
330
10F
100
AcDbEntity
  8
치수문자_일반주서
 62
     0
100
AcDbTrace
 10
66.19491238243963
 20
-1.460499999999923
 30
0.0
 11
67.29557904910628
 21
-1.46049999999992
 31
0.0
 12
66.74524571577297
 22
-4.762499999999921
 32
0.0
 13
66.74524571577297
 23
-4.762499999999921
 33
0.0
  0
SOLID
  5
116
330
10F
100
AcDbEntity
  8
치수문자_일반주서
 62
     0
100
AcDbTrace
 10
67.29557904910628
 20
1.460500000000081
 30
0.0
 11
66.19491238243963
 21
1.460500000000078
 31
0.0
 12
66.74524571577294
 22
4.762500000000079
 32
0.0
 13
66.74524571577294
 23
4.762500000000079
 33
0.0
  0
MTEXT
  5
117
330
10F
100
AcDbEntity
  8
치수문자_일반주서
 62
     0
100
AcDbMText
 10
62.37024571577295
 20
-0.4965537846535287
 30
0.0
 40
3.5
 41
0.0
 71
     2
 72
     1
  1
\A1;%%c9.53 [3/8]
  7
SLDTEXTSTYLE0
 11
-2.983906501879686E-15
 21
1.0
 31
0.0
 73
     1
 44
1.0
  0
POINT
  5
118
330
10F
100
AcDbEntity
  8
Defpoints
 62
     0
100
AcDbPoint
 10
47.33800000000001
 20
-4.762499999999994
 30
0.0
  0
POINT
  5
119
330
10F
100
AcDbEntity
  8
Defpoints
 62
     0
100
AcDbPoint
 10
47.33799999999999
 20
4.762500000000006
 30
0.0
  0
POINT
  5
11A
330
10F
100
AcDbEntity
  8
Defpoints
 62
     0
100
AcDbPoint
 10
66.74524571577294
 20
4.762500000000079
 30
0.0
  0
ENDBLK
  5
111
330
10F
100
AcDbEntity
  8
0
100
AcDbBlockEnd
  0
BLOCK
  5
125
330
124
100
AcDbEntity
  8
0
100
AcDbBlockBegin
  2
_D_1
 70
     0
 10
0.0
 20
0.0
 30
0.0
  3
_D_1
  1
_D_1
  0
LINE
  5
127
330
124
100
AcDbEntity
  8
치수문자_일반주서
 62
     0
370
    -2
100
AcDbLine
 10
-53.5
 20
4.324999999999998
 30
0.0
 11
-53.5
 21
37.41805141807179
 31
0.0
  0
LINE
  5
128
330
124
100
AcDbEntity
  8
치수문자_일반주서
 62
     0
370
    -2
100
AcDbLine
 10
48.09999999999999
 20
4.063000000000006
 30
0.0
 11
48.09999999999999
 21
37.41805141807179
 31
0.0
  0
LINE
  5
129
330
124
100
AcDbEntity
  8
치수문자_일반주서
 62
     0
370
    -2
100
AcDbLine
 10
-50.198
 20
37.41805141807179
 30
0.0
 11
44.79799999999999
 21
37.41805141807179
 31
0.0
  0
SOLID
  5
12A
330
124
100
AcDbEntity
  8
치수문자_일반주서
 62
     0
100
AcDbTrace
 10
-50.198
 20
37.96838475140513
 30
0.0
 11
-50.198
 21
36.86771808473846
 31
0.0
 12
-53.5
 22
37.41805141807179
 32
0.0
 13
-53.5
 23
37.41805141807179
 33
0.0
  0
SOLID
  5
12B
330
124
100
AcDbEntity
  8
치수문자_일반주서
 62
     0
100
AcDbTrace
 10
44.79799999999999
 20
36.86771808473846
 30
0.0
 11
44.79799999999999
 21
37.96838475140513
 31
0.0
 12
48.09999999999999
 22
37.41805141807179
 32
0.0
 13
48.09999999999999
 23
37.41805141807179
 33
0.0
  0
MTEXT
  5
12C
330
124
100
AcDbEntity
  8
치수문자_일반주서
 62
     0
100
AcDbMText
 10
-2.700000000000003
 20
41.79305141807179
 30
0.0
 40
3.5
 41
0.0
 71
     2
 72
     1
  1
\A1;101.60 [4]
  7
SLDTEXTSTYLE0
 73
     1
 44
1.0
  0
POINT
  5
12D
330
124
100
AcDbEntity
  8
Defpoints
 62
     0
100
AcDbPoint
 10
-53.5
 20
4.262499999999998
 30
0.0
  0
POINT
  5
12E
330
124
100
AcDbEntity
  8
Defpoints
 62
     0
100
AcDbPoint
 10
48.09999999999999
 20
4.000500000000006
 30
0.0
  0
POINT
  5
12F
330
124
100
AcDbEntity
  8
Defpoints
 62
     0
100
AcDbPoint
 10
48.09999999999999
 20
37.41805141807179
 30
0.0
  0
ENDBLK
  5
126
330
124
100
AcDbEntity
  8
0
100
AcDbBlockEnd
  0
BLOCK
  5
138
330
137
100
AcDbEntity
  8
0
100
AcDbBlockBegin
  2
_D_2
 70
     0
 10
0.0
 20
0.0
 30
0.0
  3
_D_2
  1
_D_2
  0
LINE
  5
13A
330
137
100
AcDbEntity
  8
치수문자_일반주서
 62
     0
370
    -2
100
AcDbLine
 10
48.09999999999999
 20
4.063000000000006
 30
0.0
 11
48.09999999999999
 21
21.62749453033794
 31
0.0
  0
LINE
  5
13B
330
137
100
AcDbEntity
  8
치수문자_일반주서
 62
     0
370
    -2
100
AcDbLine
 10
9.999999999999996
 20
-4.568667405098523
 30
0.0
 11
9.999999999999996
 21
21.62749453033794
 31
0.0
  0
LINE
  5
13C
330
137
100
AcDbEntity
  8
치수문자_일반주서
 62
     0
370
    -2
100
AcDbLine
 10
44.79799999999999
 20
21.62749453033794
 30
0.0
 11
13.302
 21
21.62749453033794
 31
0.0
  0
SOLID
  5
13D
330
137
100
AcDbEntity
  8
치수문자_일반주서
 62
     0
100
AcDbTrace
 10
44.79799999999999
 20
21.07716119700461
 30
0.0
 11
44.79799999999999
 21
22.17782786367128
 31
0.0
 12
48.09999999999999
 22
21.62749453033794
 32
0.0
 13
48.09999999999999
 23
21.62749453033794
 33
0.0
  0
SOLID
  5
13E
330
137
100
AcDbEntity
  8
치수문자_일반주서
 62
     0
100
AcDbTrace
 10
13.302
 20
22.17782786367128
 30
0.0
 11
13.302
 21
21.07716119700461
 31
0.0
 12
9.999999999999996
 22
21.62749453033794
 32
0.0
 13
9.999999999999996
 23
21.62749453033794
 33
0.0
  0
MTEXT
  5
13F
330
137
100
AcDbEntity
  8
치수문자_일반주서
 62
     0
100
AcDbMText
 10
28.63090169785223
 20
26.00249453033794
 30
0.0
 40
3.5
 41
0.0
 71
     2
 72
     1
  1
\A1;38.10 [1 1/2]
  7
SLDTEXTSTYLE0
 73
     1
 44
1.0
  0
POINT
  5
140
330
137
100
AcDbEntity
  8
Defpoints
 62
     0
100
AcDbPoint
 10
48.09999999999999
 20
4.000500000000006
 30
0.0
  0
POINT
  5
141
330
137
100
AcDbEntity
  8
Defpoints
 62
     0
100
AcDbPoint
 10
9.999999999999996
 20
-4.631167405098523
 30
0.0
  0
POINT
  5
142
330
137
100
AcDbEntity
  8
Defpoints
 62
     0
100
AcDbPoint
 10
9.999999999999996
 20
21.62749453033794
 30
0.0
  0
ENDBLK
  5
139
330
137
100
AcDbEntity
  8
0
100
AcDbBlockEnd
  0
BLOCK
  5
14B
330
14A
100
AcDbEntity
  8
0
100
AcDbBlockBegin
  2
_D_3
 70
     0
 10
0.0
 20
0.0
 30
0.0
  3
_D_3
  1
_D_3
  0
LINE
  5
14D
330
14A
100
AcDbEntity
  8
치수문자_일반주서
 62
     0
370
    -2
100
AcDbLine
 10
-53.0625
 20
4.762500000000002
 30
0.0
 11
-66.50000000000001
 21
4.762499999999953
 31
0.0
  0
LINE
  5
14E
330
14A
100
AcDbEntity
  8
치수문자_일반주서
 62
     0
370
    -2
100
AcDbLine
 10
-53.0625
 20
-4.762499999999998
 30
0.0
 11
-66.49999999999999
 21
-4.762500000000047
 31
0.0
  0
LINE
  5
14F
330
14A
100
AcDbEntity
  8
치수문자_일반주서
 62
     0
370
    -2
100
AcDbLine
 10
-66.5
 20
1.460499999999954
 30
0.0
 11
-66.5
 21
-1.460500000000048
 31
0.0
  0
SOLID
  5
150
330
14A
100
AcDbEntity
  8
치수문자_일반주서
 62
     0
100
AcDbTrace
 10
-65.94966666666667
 20
1.460499999999955
 30
0.0
 11
-67.05033333333333
 21
1.460499999999952
 31
0.0
 12
-66.50000000000001
 22
4.762499999999953
 32
0.0
 13
-66.50000000000001
 23
4.762499999999953
 33
0.0
  0
SOLID
  5
151
330
14A
100
AcDbEntity
  8
치수문자_일반주서
 62
     0
100
AcDbTrace
 10
-67.05033333333333
 20
-1.460500000000049
 30
0.0
 11
-65.94966666666667
 21
-1.460500000000046
 31
0.0
 12
-66.49999999999999
 22
-4.762500000000047
 32
0.0
 13
-66.49999999999999
 23
-4.762500000000047
 33
0.0
  0
MTEXT
  5
152
330
14A
100
AcDbEntity
  8
치수문자_일반주서
 62
     0
100
AcDbMText
 10
-70.875
 20
-0.0000000000000128
 30
0.0
 40
3.5
 41
0.0
 71
     2
 72
     1
  1
\A1;%%c9.53 [3/8]
  7
SLDTEXTSTYLE0
 11
-2.983906501879685E-15
 21
1.0
 31
0.0
 73
     1
 44
1.0
  0
POINT
  5
153
330
14A
100
AcDbEntity
  8
Defpoints
 62
     0
100
AcDbPoint
 10
-53.0
 20
4.762500000000002
 30
0.0
  0
POINT
  5
154
330
14A
100
AcDbEntity
  8
Defpoints
 62
     0
100
AcDbPoint
 10
-53.0
 20
-4.762499999999998
 30
0.0
  0
POINT
  5
155
330
14A
100
AcDbEntity
  8
Defpoints
 62
     0
100
AcDbPoint
 10
-66.49999999999999
 20
-4.762500000000049
 30
0.0
  0
ENDBLK
  5
14C
330
14A
100
AcDbEntity
  8
0
100
AcDbBlockEnd
  0
BLOCK
  5
15E
330
15D
100
AcDbEntity
  8
0
100
AcDbBlockBegin
  2
SW_DOWELSYMBOL_0
 70
     0
 10
0.0
 20
0.0
 30
0.0
  3
SW_DOWELSYMBOL_0
  1
SW_DOWELSYMBOL_0
  0
CIRCLE
  5
160
330
15D
100
AcDbEntity
  8
외형선
 62
     0
100
AcDbCircle
 10
0.0
 20
0.0
 30
0.0
 40
3.000000000000001
  0
HATCH
  5
161
330
15D
100
AcDbEntity
  8
0
  6
Continuous
 62
     0
370
    30
100
AcDbHatch
 10
0.0
 20
0.0
 30
0.0
210
0.0
220
0.0
230
1.0
  2
SOLID
 70
     1
 71
     0
 91
        1
 92
        0
 93
        3
 72
     2
 10
0.0
 20
0.0
 40
3.000000000000001
 50
0.0
 51
90.0
 73
     1
 72
     1
 10
0.0
 20
3.000000000000001
 11
0.0
 21
0.0
 72
     1
 10
0.0
 20
0.0
 11
3.000000000000001
 21
0.0
 97
        0
 75
     0
 76
     1
 98
        1
 10
0.0
 20
0.0
  0
HATCH
  5
162
330
15D
100
AcDbEntity
  8
0
  6
Continuous
 62
     0
370
    30
100
AcDbHatch
 10
0.0
 20
0.0
 30
0.0
210
0.0
220
0.0
230
1.0
  2
SOLID
 70
     1
 71
     0
 91
        1
 92
        0
 93
        3
 72
     2
 10
0.0
 20
0.0
 40
3.000000000000001
 50
180.0
 51
270.0000000000007
 73
     1
 72
     1
 10
0.0
 20
-3.000000000000001
 11
0.0
 21
0.0
 72
     1
 10
0.0
 20
0.0
 11
-3.000000000000001
 21
0.0
 97
        0
 75
     0
 76
     1
 98
        1
 10
0.0
 20
0.0
  0
ENDBLK
  5
15F
330
15D
100
AcDbEntity
  8
0
100
AcDbBlockEnd
  0
BLOCK
  5
192
330
191
100
AcDbEntity
  8
0
100
AcDbBlockBegin
  2
*D7
 70
     1
 10
0.0
 20
0.0
 30
0.0
  3
*D7
  1
*D7
  0
LINE
  5
194
330
191
100
AcDbEntity
  8
치수문자_일반주서
 62
     0
370
    -2
100
AcDbLine
 10
50.2131833168952
 20
7.091396415312158
 30
0.0
 11
73.33800742659953
 21
32.21620481857711
 31
0.0
  0
MTEXT
  5
195
330
191
100
AcDbEntity
  8
치수문자_일반주서
 62
     0
100
AcDbMText
 10
61.925559822275
 20
23.69290354040164
 30
0.0
 40
3.5
 41
0.0
 71
     5
 72
     1
  1
\A1;R.38 [R0.015]
  7
SLDTEXTSTYLE0
 11
0.6772151281279395
 21
0.7357850706793788
 31
0.0
 73
     1
 44
1.0
  0
SOLID
  5
196
330
191
100
AcDbEntity
  8
치수문자_일반주서
 62
     0
100
AcDbTrace
 10
49.80825626633131
 20
7.464090474158567
 30
0.0
 11
50.61811036745908
 21
6.718702356465748
 31
0.0
 12
47.97701896381674
 22
4.661834111928849
 32
0.0
 13
47.97701896381674
 23
4.661834111928849
 33
0.0
  0
LINE
  5
197
330
191
100
AcDbEntity
  8
치수문자_일반주서
 62
     0
100
AcDbLine
 10
47.62899999999999
 20
4.381500000000005
 30
0.0
 11
47.809
 21
4.381500000000005
 31
0.0
  0
LINE
  5
198
330
191
100
AcDbEntity
  8
치수문자_일반주서
 62
     0
100
AcDbLine
 10
47.71899999999999
 20
4.291500000000005
 30
0.0
 11
47.71899999999999
 21
4.471500000000005
 31
0.0
  0
POINT
  5
199
330
191
100
AcDbEntity
  8
Defpoints
 62
     0
100
AcDbPoint
 10
47.97701896381674
 20
4.661834111928849
 30
0.0
  0
POINT
  5
19A
330
191
100
AcDbEntity
  8
Defpoints
 62
     0
100
AcDbPoint
 10
47.71899999999999
 20
4.381500000000005
 30
0.0
  0
ENDBLK
  5
193
330
191
100
AcDbEntity
  8
0
100
AcDbBlockEnd
  0
ENDSEC
  0
SECTION
  2
ENTITIES
  0
LINE
  5
95
330
1F
100
AcDbEntity
  8
0
  6
Continuous
 62
     4
370
    15
100
AcDbLine
 10
8.480002758622181
 20
4.762500000000006
 30
0.0
 11
-28.81754999999987
 21
4.762500000000004
 31
0.0
  0
LINE
  5
96
330
1F
100
AcDbEntity
  8
0
  6
Continuous
 62
     4
370
    15
100
AcDbLine
 10
-53.0
 20
-4.762499999999998
 30
0.0
 11
8.480624873632731
 21
-4.762499999999995
 31
0.0
  0
LINE
  5
97
330
1F
100
AcDbEntity
  8
0
  6
Continuous
 62
     4
370
    15
100
AcDbLine
 10
-53.0
 20
4.762499999999999
 30
0.0
 11
-53.5
 21
4.262499999999998
 31
0.0
  0
LINE
  5
98
330
1F
100
AcDbEntity
  8
0
  6
Continuous
 62
     4
370
    15
100
AcDbLine
 10
-53.5
 20
-4.262499999999996
 30
0.0
 11
-53.0
 21
-4.762499999999996
 31
0.0
  0
LINE
  5
99
330
1F
100
AcDbEntity
  8
0
  6
Continuous
 62
     1
370
    15
100
AcDbLine
 10
8.480390585944981
 20
4.762474687273941
 30
0.0
 11
8.480390593174576
 21
4.762590356321931
 31
0.0
  0
LINE
  5
9A
330
1F
100
AcDbEntity
  8
0
  6
Continuous
 62
     1
370
    15
100
AcDbLine
 10
36.06408462514873
 20
-4.762499999999995
 30
0.0
 11
37.69321677605603
 21
-4.762499999999995
 31
0.0
  0
LINE
  5
9B
330
1F
100
AcDbEntity
  8
0
  6
Continuous
 62
     1
370
    15
100
AcDbLine
 10
22.73079614615876
 20
4.762500000000006
 30
0.0
 11
21.10258780746023
 21
4.762500000000006
 31
0.0
  0
LINE
  5
9C
330
1F
100
AcDbEntity
  8
0
  6
Continuous
 62
     1
370
    15
100
AcDbLine
 10
31.07808779872965
 20
-4.762499999999995
 30
0.0
 11
32.70482660386586
 21
-4.762499999999995
 31
0.0
  0
LINE
  5
9D
330
1F
100
AcDbEntity
  8
0
  6
Continuous
 62
     1
370
    15
100
AcDbLine
 10
17.74291089664511
 20
4.762500000000006
 30
0.0
 11
16.11628790972395
 21
4.762500000000006
 31
0.0
  0
LINE
  5
9E
330
1F
100
AcDbEntity
  8
0
  6
Continuous
 62
     1
370
    15
100
AcDbLine
 10
47.71899999999999
 20
4.762500000000006
 30
0.0
 11
46.04011674768391
 21
4.762500000000006
 31
0.0
  0
LINE
  5
9F
330
1F
100
AcDbEntity
  8
0
  6
Continuous
 62
     1
370
    15
100
AcDbLine
 10
26.09020769502072
 20
-4.762499999999995
 30
0.0
 11
27.71842181383788
 21
-4.762499999999995
 31
0.0
  0
LINE
  5
A0
330
1F
100
AcDbEntity
  8
0
  6
Continuous
 62
     1
370
    15
100
AcDbLine
 10
12.75675721681123
 20
4.762500000000006
 30
0.0
 11
11.12900409703185
 21
4.762500000000006
 31
0.0
  0
LINE
  5
A1
330
1F
100
AcDbEntity
  8
0
  6
Continuous
 62
     1
370
    15
100
AcDbLine
 10
42.68005480447488
 20
4.762500000000006
 30
0.0
 11
41.05250887498585
 21
4.762500000000006
 31
0.0
  0
LINE
  5
A2
330
1F
100
AcDbEntity
  8
0
  6
Continuous
 62
     1
370
    15
100
AcDbLine
 10
46.04011674768391
 20
-4.762499999999995
 30
0.0
 11
47.71899999999999
 21
-4.762500000000006
 31
0.0
  0
LINE
  5
A3
330
1F
100
AcDbEntity
  8
0
  6
Continuous
 62
     1
370
    15
100
AcDbLine
 10
16.11628790972398
 20
-4.762499999999995
 30
0.0
 11
17.74291089664515
 21
-4.762499999999995
 31
0.0
  0
LINE
  5
A4
330
1F
100
AcDbEntity
  8
0
  6
Continuous
 62
     1
370
    15
100
AcDbLine
 10
32.70482660386587
 20
4.762500000000006
 30
0.0
 11
31.07808779872967
 21
4.762500000000006
 31
0.0
  0
LINE
  5
A5
330
1F
100
AcDbEntity
  8
0
  6
Continuous
 62
     1
370
    15
100
AcDbLine
 10
41.05250887498583
 20
-4.762499999999995
 30
0.0
 11
42.68005480447489
 21
-4.762499999999995
 31
0.0
  0
LINE
  5
A6
330
1F
100
AcDbEntity
  8
0
  6
Continuous
 62
     1
370
    15
100
AcDbLine
 10
11.12900409703181
 20
-4.762499999999995
 30
0.0
 11
12.75675721681124
 21
-4.762499999999995
 31
0.0
  0
LINE
  5
A7
330
1F
100
AcDbEntity
  8
0
  6
Continuous
 62
     1
370
    15
100
AcDbLine
 10
27.71842181383787
 20
4.762500000000006
 30
0.0
 11
26.09020769502068
 21
4.762500000000006
 31
0.0
  0
LINE
  5
A8
330
1F
100
AcDbEntity
  8
0
  6
Continuous
 62
     1
370
    15
100
AcDbLine
 10
21.10258780746027
 20
-4.762499999999995
 30
0.0
 11
22.7307961461588
 21
-4.762499999999995
 31
0.0
  0
LINE
  5
A9
330
1F
100
AcDbEntity
  8
0
  6
Continuous
 62
     1
370
    15
100
AcDbLine
 10
37.69321677605608
 20
4.762500000000006
 30
0.0
 11
36.06408462514877
 21
4.762500000000006
 31
0.0
  0
LINE
  5
AD
330
1F
100
AcDbEntity
  8
0
  6
Continuous
 62
     1
370
    15
100
AcDbLine
 10
48.09968827698543
 20
-4.02229377670291
 30
0.0
 11
48.09999999999999
 21
-4.000499999999995
 31
0.0
  0
SPLINE
  5
B0
330
1F
100
AcDbEntity
  8
0
  6
Continuous
 62
     4
370
    15
100
AcDbSpline
210
0.0
220
0.0
230
1.0
 70
     8
 71
     3
 72
    12
 73
     8
 74
     0
 42
0.000000001
 43
0.00000001
 40
0.0
 40
0.0
 40
0.0
 40
0.0
 40
0.0435096475455959
 40
0.2990903994536824
 40
0.5445777468471646
 40
0.7887659181754443
 40
1.0
 40
1.0
 40
1.0
 40
1.0
 10
8.86618534379444
 20
4.632760248518026
 30
0.0
 10
8.878088838118972
 20
4.629941185484691
 30
0.0
 10
8.959914848515588
 20
4.610562616907655
 30
0.0
 10
9.180428309100584
 20
4.585548468924774
 30
0.0
 10
9.483193966833388
 20
4.575393908139819
 30
0.0
 10
9.773214932986384
 20
4.593271865497419
 30
0.0
 10
9.92814178327154
 20
4.619159974743692
 30
0.0
 10
9.999999999999856
 20
4.631167405098604
 30
0.0
  0
SPLINE
  5
B1
330
1F
100
AcDbEntity
  8
0
  6
Continuous
 62
     4
370
    15
100
AcDbSpline
210
0.0
220
0.0
230
1.0
 70
     8
 71
     3
 72
    12
 73
     8
 74
     0
 42
0.000000001
 43
0.00000001
 40
0.0
 40
0.0
 40
0.0
 40
0.0
 40
0.5
 40
0.5
 40
0.75
 40
0.75
 40
1.0
 40
1.0
 40
1.0
 40
1.0
 10
8.795422422314646
 20
4.652196580385572
 30
0.0
 10
8.662179642488784
 20
4.680793427423088
 30
0.0
 10
8.574962316727847
 20
4.711194861422267
 30
0.0
 10
8.506399893419802
 20
4.741991922708322
 30
0.0
 10
8.493435429109834
 20
4.74999171190295
 30
0.0
 10
8.480446281944952
 20
4.760335135098489
 30
0.0
 10
8.48039058594347
 20
4.762788244827738
 30
0.0
 10
8.48039058594347
 20
4.76247303222376
 30
0.0
  0
SPLINE
  5
B2
330
1F
100
AcDbEntity
  8
0
  6
Continuous
 62
     4
370
    15
100
AcDbSpline
210
0.0
220
0.0
230
1.0
 70
     8
 71
     3
 72
     8
 73
     4
 74
     0
 42
0.000000001
 43
0.00000001
 40
0.0
 40
0.0
 40
0.0
 40
0.0
 40
1.0
 40
1.0
 40
1.0
 40
1.0
 10
9.999999999994738
 20
4.249523640043219
 30
0.0
 10
9.602674941405152
 20
4.430048472881084
 30
0.0
 10
9.194745608221028
 20
4.56649299418884
 30
0.0
 10
8.795422422314646
 20
4.652196580385574
 30
0.0
  0
SPLINE
  5
B3
330
1F
100
AcDbEntity
  8
0
  6
Continuous
 62
     4
370
    15
100
AcDbSpline
210
0.0
220
0.0
230
1.0
 70
     8
 71
     3
 72
    14
 73
    10
 74
     0
 42
0.000000001
 43
0.00000001
 40
0.0
 40
0.0
 40
0.0
 40
0.0
 40
0.2500000000000001
 40
0.2500000000000001
 40
0.5000000000000001
 40
0.5000000000000001
 40
0.7500000000000002
 40
0.7500000000000002
 40
1.0
 40
1.0
 40
1.0
 40
1.0
 10
8.480390585943468
 20
2.395116375841232
 30
0.0
 10
8.480390585943468
 20
2.570834829039367
 30
0.0
 10
8.484329383428035
 20
2.740378428730858
 30
0.0
 10
8.599946199681114
 20
3.051723217938658
 30
0.0
 10
8.710000824938888
 20
3.186277817664282
 30
0.0
 10
9.027838593887997
 20
3.372403232855526
 30
0.0
 10
9.23004331191944
 20
3.421595882870251
 30
0.0
 10
9.638519239561534
 20
3.421153887701462
 30
0.0
 10
9.840417310879328
 20
3.371841855482972
 30
0.0
 10
9.999999999999858
 20
3.277493800720757
 30
0.0
  0
SPLINE
  5
B4
330
1F
100
AcDbEntity
  8
0
  6
Continuous
 62
     4
370
    15
100
AcDbSpline
210
0.0
220
0.0
230
1.0
 70
     8
 71
     3
 72
    12
 73
     8
 74
     0
 42
0.000000001
 43
0.00000001
 40
0.0
 40
0.0
 40
0.0
 40
0.0
 40
0.4999999999999998
 40
0.4999999999999998
 40
0.7499999999999999
 40
0.7499999999999999
 40
1.0
 40
1.0
 40
1.0
 40
1.0
 10
8.795422422314646
 20
1.443570715220401
 30
0.0
 10
8.662179642488784
 20
1.570929192983272
 30
0.0
 10
8.574962316727847
 20
1.731834744645761
 30
0.0
 10
8.506399893419802
 20
1.980707756095018
 30
0.0
 10
8.493435429109832
 20
2.065553349734705
 30
0.0
 10
8.48044628194495
 20
2.231918914355058
 30
0.0
 10
8.480390585943464
 20
2.314156905576651
 30
0.0
 10
8.480390585943466
 20
2.395116375841225
 30
0.0
  0
SPLINE
  5
B5
330
1F
100
AcDbEntity
  8
0
  6
Continuous
 62
     4
370
    15
100
AcDbSpline
210
0.0
220
0.0
230
1.0
 70
     8
 71
     3
 72
     8
 73
     4
 74
     0
 42
0.000000001
 43
0.00000001
 40
0.0
 40
0.0
 40
0.0
 40
0.0
 40
1.0
 40
1.0
 40
1.0
 40
1.0
 10
9.999999999994738
 20
0.2627155499102927
 30
0.0
 10
9.602674941405152
 20
0.661970507387365
 30
0.0
 10
9.194745608221028
 20
1.06188254300631
 30
0.0
 10
8.795422422314646
 20
1.4435707152204
 30
0.0
  0
SPLINE
  5
B6
330
1F
100
AcDbEntity
  8
0
  6
Continuous
 62
     4
370
    15
100
AcDbSpline
210
0.0
220
0.0
230
1.0
 70
     8
 71
     3
 72
    14
 73
    10
 74
     0
 42
0.000000001
 43
0.00000001
 40
0.0
 40
0.0
 40
0.0
 40
0.0
 40
0.25
 40
0.25
 40
0.5
 40
0.5
 40
0.75
 40
0.75
 40
1.0
 40
1.0
 40
1.0
 40
1.0
 10
8.480390585943468
 20
-2.367356656382523
 30
0.0
 10
8.480390585943468
 20
-2.190954050101139
 30
0.0
 10
8.484329383428037
 20
-2.007330437818283
 30
0.0
 10
8.599946199681114
 20
-1.645121440685436
 30
0.0
 10
8.710000824938886
 20
-1.474291937398307
 30
0.0
 10
9.027838593887997
 20
-1.228172942749531
 30
0.0
 10
9.230043311919438
 20
-1.158098357482211
 30
0.0
 10
9.638519239561534
 20
-1.158714662224966
 30
0.0
 10
9.84041731087933
 20
-1.228997476914962
 30
0.0
 10
9.999999999999858
 20
-1.353673604377824
 30
0.0
  0
SPLINE
  5
B7
330
1F
100
AcDbEntity
  8
0
  6
Continuous
 62
     4
370
    15
100
AcDbSpline
210
0.0
220
0.0
230
1.0
 70
     8
 71
     3
 72
    12
 73
     8
 74
     0
 42
0.000000001
 43
0.00000001
 40
0.0
 40
0.0
 40
0.0
 40
0.0
 40
0.5000000000000001
 40
0.5000000000000001
 40
0.75
 40
0.75
 40
1.0
 40
1.0
 40
1.0
 40
1.0
 10
8.795422422314646
 20
-3.208625865165147
 30
0.0
 10
8.662179642488786
 20
-3.109864234439791
 30
0.0
 10
8.574962316727847
 20
-2.979360116776485
 30
0.0
 10
8.506399893419802
 20
-2.761284166613283
 30
0.0
 10
8.493435429109834
 20
-2.684438362168225
 30
0.0
 10
8.480446281944952
 20
-2.528416220743412
 30
0.0
 10
8.48039058594347
 20
-2.448631339251069
 30
0.0
 10
8.48039058594347
 20
-2.367356656382515
 30
0.0
  0
SPLINE
  5
B8
330
1F
100
AcDbEntity
  8
0
  6
Continuous
 62
     4
370
    15
100
AcDbSpline
210
0.0
220
0.0
230
1.0
 70
     8
 71
     3
 72
     8
 73
     4
 74
     0
 42
0.000000001
 43
0.00000001
 40
0.0
 40
0.0
 40
0.0
 40
0.0
 40
1.0
 40
1.0
 40
1.0
 40
1.0
 10
9.99999999999474
 20
-3.986808090132904
 30
0.0
 10
9.602674941405152
 20
-3.768077965493697
 30
0.0
 10
9.194745608221028
 20
-3.504610451182506
 30
0.0
 10
8.795422422314646
 20
-3.208625865165151
 30
0.0
  0
SPLINE
  5
B9
330
1F
100
AcDbEntity
  8
0
  6
Continuous
 62
     4
370
    15
100
AcDbSpline
210
0.0
220
0.0
230
1.0
 70
     8
 71
     3
 72
    14
 73
    10
 74
     0
 42
0.000000001
 43
0.00000001
 40
0.0
 40
0.0
 40
0.0
 40
0.0
 40
0.25
 40
0.25
 40
0.5
 40
0.5
 40
0.75
 40
0.75
 40
1.0
 40
1.0
 40
1.0
 40
1.0
 10
8.480390585943468
 20
-4.762473032223765
 30
0.0
 10
8.480390585943468
 20
-4.761788879140519
 30
0.0
 10
8.484329383428037
 20
-4.747708866549155
 30
0.0
 10
8.599946199681114
 20
-4.696844658624109
 30
0.0
 10
8.710000824938888
 20
-4.660569755062608
 30
0.0
 10
9.027838593887997
 20
-4.600576175605077
 30
0.0
 10
9.230043311919438
 20
-4.579694240352485
 30
0.0
 10
9.638519239561532
 20
-4.57986854992645
 30
0.0
 10
9.840417310879328
 20
-4.600839332397955
 30
0.0
 10
9.999999999999858
 20
-4.631167405098601
 30
0.0
  0
SPLINE
  5
BA
330
1F
100
AcDbEntity
  8
0
  6
Continuous
 62
     4
370
    15
100
AcDbSpline
210
0.0
220
0.0
230
1.0
 70
     8
 71
     3
 72
    12
 73
     8
 74
     0
 42
0.000000001
 43
0.00000001
 40
0.0
 40
0.0
 40
0.0
 40
0.0
 40
0.4999999999999998
 40
0.4999999999999998
 40
0.7499999999999999
 40
0.7499999999999999
 40
1.0
 40
1.0
 40
1.0
 40
1.0
 10
8.795422422314646
 20
-4.652196580385551
 30
0.0
 10
8.662179642488786
 20
-4.680793427423067
 30
0.0
 10
8.574962316727845
 20
-4.711194861422253
 30
0.0
 10
8.506399893419802
 20
-4.741991922708309
 30
0.0
 10
8.493435429109834
 20
-4.749991711902937
 30
0.0
 10
8.480446281944952
 20
-4.760335135098478
 30
0.0
 10
8.480390585943468
 20
-4.762788244827727
 30
0.0
 10
8.480390585943468
 20
-4.76247303222375
 30
0.0
  0
LINE
  5
BB
330
1F
100
AcDbEntity
  8
0
  6
Continuous
 62
     4
370
    15
100
AcDbLine
 10
8.866185343794063
 20
-4.63276024851811
 30
0.0
 11
8.795422422314646
 21
-4.652196580385556
 31
0.0
  0
LINE
  5
BC
330
1F
100
AcDbEntity
  8
0
  6
Continuous
 62
     4
370
    15
100
AcDbLine
 10
-53.0
 20
4.762499999999999
 30
0.0
 11
-53.0
 21
-4.762499999999998
 31
0.0
  0
LINE
  5
BD
330
1F
100
AcDbEntity
  8
0
  6
Continuous
 62
     1
370
    15
100
AcDbLine
 10
9.999999999999998
 20
-3.986808090135937
 30
0.0
 11
9.999999999999996
 21
-4.631167405098523
 31
0.0
  0
LINE
  5
BE
330
1F
100
AcDbEntity
  8
0
  6
Continuous
 62
     1
370
    15
100
AcDbLine
 10
9.999999999999998
 20
0.262715549904954
 30
0.0
 11
9.999999999999996
 21
-1.353673604377499
 31
0.0
  0
LINE
  5
BF
330
1F
100
AcDbEntity
  8
0
  6
Continuous
 62
     1
370
    15
100
AcDbLine
 10
9.999999999999998
 20
4.249523640040914
 30
0.0
 11
9.999999999999996
 21
3.277493800721003
 31
0.0
  0
LINE
  5
C0
330
1F
100
AcDbEntity
  8
0
  6
Continuous
 62
     4
370
    15
100
AcDbLine
 10
-53.5
 20
4.262499999999998
 30
0.0
 11
-53.5
 21
-4.262499999999998
 31
0.0
  0
SPLINE
  5
C1
330
1F
100
AcDbEntity
  8
0
  6
Continuous
 62
     1
370
    15
100
AcDbSpline
210
0.0
220
0.0
230
1.0
 70
    24
 71
     3
 72
    14
 73
    10
 74
     0
 42
0.000000001
 43
0.00000001
 40
0.0
 40
0.0
 40
0.0
 40
0.0
 40
0.25
 40
0.25
 40
0.5
 40
0.5
 40
0.75
 40
0.75
 40
1.0
 40
1.0
 40
1.0
 40
1.0
 10
9.999999999999998
 20
2.915431542507235
 30
0.0
 10
9.999999999999998
 20
2.72661810256302
 30
0.0
 10
9.999999999999998
 20
2.513434176596892
 30
0.0
 10
9.999999999999998
 20
2.047184905575497
 30
0.0
 10
9.999999999999998
 20
1.793692128976942
 30
0.0
 10
9.999999999999998
 20
1.28348253074292
 30
0.0
 10
9.999999999999998
 20
1.027312806944728
 30
0.0
 10
9.999999999999998
 20
0.5794372031588013
 30
0.0
 10
9.999999999999998
 20
0.3895962906238805
 30
0.0
 10
9.999999999999998
 20
0.2627155499049535
 30
0.0
  0
SPLINE
  5
C3
330
1F
100
AcDbEntity
  8
0
  6
Continuous
 62
     1
370
    15
100
AcDbSpline
210
0.0
220
0.0
230
1.0
 70
    24
 71
     3
 72
     8
 73
     4
 74
     0
 42
0.000000001
 43
0.00000001
 40
0.0
 40
0.0
 40
0.0
 40
0.0
 40
1.0
 40
1.0
 40
1.0
 40
1.0
 10
9.999999999999996
 20
-1.353673604377535
 30
0.0
 10
9.999999999999996
 20
-1.371417745934591
 30
0.0
 10
9.999999999999996
 20
-1.399955332109759
 30
0.0
 10
9.999999999999996
 20
-1.440880697708273
 30
0.0
  0
SPLINE
  5
C4
330
1F
100
AcDbEntity
  8
0
  6
Continuous
 62
     1
370
    15
100
AcDbSpline
210
0.0
220
0.0
230
1.0
 70
    24
 71
     3
 72
     8
 73
     4
 74
     0
 42
0.000000001
 43
0.00000001
 40
0.0
 40
0.0
 40
0.0
 40
0.0
 40
1.0
 40
1.0
 40
1.0
 40
1.0
 10
9.999999999999996
 20
3.27749380072109
 30
0.0
 10
9.999999999999996
 20
3.160142910681428
 30
0.0
 10
9.999999999999996
 20
3.039612065132879
 30
0.0
 10
9.999999999999996
 20
2.915431542506852
 30
0.0
  0
SPLINE
  5
C5
330
1F
100
AcDbEntity
  8
0
  6
Continuous
 62
     1
370
    15
100
AcDbSpline
210
0.0
220
0.0
230
1.0
 70
    24
 71
     3
 72
    14
 73
    10
 74
     0
 42
0.000000001
 43
0.00000001
 40
0.0
 40
0.0
 40
0.0
 40
0.0
 40
0.25
 40
0.25
 40
0.5
 40
0.5
 40
0.75
 40
0.75
 40
1.0
 40
1.0
 40
1.0
 40
1.0
 10
9.999999999999998
 20
-1.440880697708146
 30
0.0
 10
9.999999999999998
 20
-1.503106712675295
 30
0.0
 10
9.999999999999998
 20
-1.593759254206371
 30
0.0
 10
9.999999999999998
 20
-1.85669082283565
 30
0.0
 10
9.999999999999998
 20
-2.02979970890001
 30
0.0
 10
9.999999999999998
 20
-2.469284639646055
 30
0.0
 10
9.999999999999998
 20
-2.736447668688557
 30
0.0
 10
9.999999999999998
 20
-3.334111646871551
 30
0.0
 10
9.999999999999998
 20
-3.663767314170644
 30
0.0
 10
9.999999999999998
 20
-3.986808090135942
 30
0.0
  0
LINE
  5
C6
330
1F
100
AcDbEntity
  8
0
  6
Continuous
 62
     4
370
    15
100
AcDbLine
 10
9.999999999999998
 20
4.356312240215395
 30
0.0
 11
9.999999999999998
 21
4.319536591480551
 31
0.0
  0
SPLINE
  5
C7
330
1F
100
AcDbEntity
  8
0
  6
Continuous
 62
     1
370
    15
100
AcDbSpline
210
0.0
220
0.0
230
1.0
 70
    24
 71
     3
 72
     8
 73
     4
 74
     0
 42
0.000000001
 43
0.00000001
 40
0.0
 40
0.0
 40
0.0
 40
0.0
 40
1.0
 40
1.0
 40
1.0
 40
1.0
 10
9.999999999999996
 20
4.63116740509865
 30
0.0
 10
9.999999999999996
 20
4.53156065661604
 30
0.0
 10
9.999999999999996
 20
4.439567397242655
 30
0.0
 10
9.999999999999996
 20
4.356312240215135
 30
0.0
  0
SPLINE
  5
C8
330
1F
100
AcDbEntity
  8
0
  6
Continuous
 62
     1
370
    15
100
AcDbSpline
210
0.0
220
0.0
230
1.0
 70
     8
 71
     3
 72
    25
 73
    21
 74
     0
 42
0.000000001
 43
0.00000001
 40
0.0
 40
0.0
 40
0.0
 40
0.0
 40
0.0099532651739017
 40
0.0728959209656824
 40
0.1323463136946199
 40
0.1918612806537739
 40
0.251473281119729
 40
0.3109565164154309
 40
0.3704129790572518
 40
0.4299768782158896
 40
0.4895543340437568
 40
0.5490143540592305
 40
0.6084906875760011
 40
0.6680976791458659
 40
0.7276232764635396
 40
0.787073872867114
 40
0.8465838263333967
 40
0.9061975180385005
 40
0.9656845079073152
 40
0.9999999999999999
 40
0.9999999999999999
 40
0.9999999999999999
 40
0.9999999999999999
 10
44.35976841780238
 20
-4.455057228218174
 30
0.0
 10
44.30450921269735
 20
-4.478611696398684
 30
0.0
 10
43.89980074993851
 20
-4.651120377808803
 30
0.0
 10
43.16575416959792
 20
-4.76231991831912
 30
0.0
 10
42.15746910781994
 20
-4.771088716342137
 30
0.0
 10
41.16706924842271
 20
-4.5557218687084
 30
0.0
 10
40.17493471111605
 20
-4.149467003601329
 30
0.0
 10
39.18507338337263
 20
-3.562380454106163
 30
0.0
 10
38.19566039493669
 20
-2.821953152651486
 30
0.0
 10
37.20439258347944
 20
-1.960447317702664
 30
0.0
 10
36.2128817461812
 20
-1.014731720031776
 30
0.0
 10
35.22340659849544
 20
-0.0242533134879434
 30
0.0
 10
34.23365826230632
 20
0.9673298348233175
 30
0.0
 10
33.24161541096453
 20
1.915692099505116
 30
0.0
 10
32.25102767759067
 20
2.782787051957996
 30
0.0
 10
31.2617162608918
 20
3.529369191861963
 30
0.0
 10
30.27140664976809
 20
4.126181614666183
 30
0.0
 10
29.27922154178574
 20
4.535200247406591
 30
0.0
 10
28.42873782798602
 20
4.749300673983245
 30
0.0
 10
27.90867492817841
 20
4.740597621476421
 30
0.0
 10
27.71842181383787
 20
4.737413808817788
 30
0.0
  0
SPLINE
  5
C9
330
1F
100
AcDbEntity
  8
0
  6
Continuous
 62
     1
370
    15
100
AcDbSpline
210
0.0
220
0.0
230
1.0
 70
     8
 71
     3
 72
    13
 73
     9
 74
     0
 42
0.000000001
 43
0.00000001
 40
0.0
 40
0.0
 40
0.0
 40
0.0
 40
0.0031710678101309
 40
0.226233678356345
 40
0.4195236485787556
 40
0.6133302131567625
 40
0.8064610201835157
 40
1.0
 40
1.0
 40
1.0
 40
1.0
 10
14.43510550022599
 20
-4.468074303228294
 30
0.0
 10
14.43041342911004
 20
-4.470130766062236
 30
0.0
 10
14.09566672193455
 20
-4.616845115670019
 30
0.0
 10
13.47585269174161
 20
-4.725727631135299
 30
0.0
 10
12.57461630806811
 20
-4.788225530111674
 30
0.0
 10
11.71495725981384
 20
-4.672374863713739
 30
0.0
 10
10.85839369569989
 20
-4.418602711095705
 30
0.0
 10
10.28633252320724
 20
-4.130840885280933
 30
0.0
 10
9.999999999994774
 20
-3.986808090132916
 30
0.0
  0
SPLINE
  5
CA
330
1F
100
AcDbEntity
  8
0
  6
Continuous
 62
     1
370
    15
100
AcDbSpline
210
0.0
220
0.0
230
1.0
 70
    24
 71
     3
 72
    14
 73
    10
 74
     0
 42
0.000000001
 43
0.00000001
 40
0.0
 40
0.0
 40
0.0
 40
0.0
 40
0.25
 40
0.25
 40
0.5
 40
0.5
 40
0.75
 40
0.75
 40
1.0
 40
1.0
 40
1.0
 40
1.0
 10
9.999999999999998
 20
-1.3468294672469
 30
0.0
 10
9.999999999999998
 20
-1.379785586267156
 30
0.0
 10
9.999999999999998
 20
-1.440208674427057
 30
0.0
 10
9.999999999999998
 20
-1.655651557061125
 30
0.0
 10
9.999999999999998
 20
-1.811924910773847
 30
0.0
 10
9.999999999999998
 20
-2.253267323442072
 30
0.0
 10
9.999999999999998
 20
-2.540438203503728
 30
0.0
 10
9.999999999999998
 20
-3.21754321966532
 30
0.0
 10
9.999999999999998
 20
-3.606388115322771
 30
0.0
 10
9.999999999999998
 20
-3.986808090135942
 30
0.0
  0
SPLINE
  5
CB
330
1F
100
AcDbEntity
  8
0
  6
Continuous
 62
     1
370
    15
100
AcDbSpline
210
0.0
220
0.0
230
1.0
 70
     8
 71
     3
 72
    13
 73
     9
 74
     0
 42
0.000000001
 43
0.00000001
 40
0.0
 40
0.0
 40
0.0
 40
0.0
 40
0.1871481810298421
 40
0.3741452753901515
 40
0.5610637467706315
 40
0.7228931339364931
 40
0.8850622381688603
 40
1.0
 40
1.0
 40
1.0
 40
1.0
 10
9.999999999997288
 20
-1.346829467242335
 30
0.0
 10
10.3817534052183
 20
-1.7051951888202
 30
0.0
 10
11.14495202217289
 20
-2.42163731960832
 30
0.0
 10
12.28868419706646
 20
-3.336186283633103
 30
0.0
 10
13.38102764684705
 20
-4.034229446107045
 30
0.0
 10
14.42136134881231
 20
-4.492586504733984
 30
0.0
 10
15.31708098047032
 20
-4.735944258507571
 30
0.0
 10
15.88198025913416
 20
-4.739712439733612
 30
0.0
 10
16.11628790972397
 20
-4.741275397456194
 30
0.0
  0
SPLINE
  5
CC
330
1F
100
AcDbEntity
  8
0
  6
Continuous
 62
     1
370
    15
100
AcDbSpline
210
0.0
220
0.0
230
1.0
 70
     8
 71
     3
 72
    24
 73
    20
 74
     0
 42
0.000000001
 43
0.00000001
 40
0.0
 40
0.0
 40
0.0
 40
0.0
 40
0.0524836326707152
 40
0.1119940887580493
 40
0.1714451872813454
 40
0.230971287352198
 40
0.2905787823626979
 40
0.3500556182165661
 40
0.4095161404313534
 40
0.4690940994503967
 40
0.5286585016857114
 40
0.5881154664968004
 40
0.647599204187892
 40
0.7072117081367875
 40
0.766727177759337
 40
0.8261780726062763
 40
0.8891212600117112
 40
0.9521611471679685
 40
1.0
 40
1.0
 40
1.0
 40
1.0
 10
29.39761338020534
 20
4.459252837862303
 30
0.0
 10
29.68902874775089
 20
4.549406684781944
 30
0.0
 10
30.31087591948005
 20
4.741784716179752
 30
0.0
 10
31.26173709963835
 20
4.790315809874584
 30
0.0
 10
32.25102208861319
 20
4.652604061552299
 30
0.0
 10
33.24161691168818
 20
4.309364486619485
 30
0.0
 10
34.23365786103825
 20
3.782379432895128
 30
0.0
 10
35.22340670549595
 20
3.091165036824642
 30
0.0
 10
36.21288171886732
 20
2.266663776234907
 30
0.0
 10
37.20439258550262
 20
1.345381158774629
 30
0.0
 10
38.19566041415433
 20
0.3659868392971721
 30
0.0
 10
39.18507330463306
 20
-0.6299982653166739
 30
0.0
 10
40.17493500733137
 20
-1.598831770516013
 30
0.0
 10
41.16706814052554
 20
-2.497432931749085
 30
0.0
 10
42.15747323300187
 20
-3.289141086753248
 30
0.0
 10
43.16573841027136
 20
-3.95334463650275
 30
0.0
 10
44.19430054981512
 20
-4.441167877968099
 30
0.0
 10
45.15974685853128
 20
-4.726745919634769
 30
0.0
 10
45.77476566204464
 20
-4.737059244073871
 30
0.0
 10
46.04011674768392
 20
-4.741508948409465
 30
0.0
  0
SPLINE
  5
CD
330
1F
100
AcDbEntity
  8
0
  6
Continuous
 62
     1
370
    15
100
AcDbSpline
210
0.0
220
0.0
230
1.0
 70
     8
 71
     3
 72
    20
 73
    16
 74
     0
 42
0.000000001
 43
0.00000001
 40
0.0
 40
0.0
 40
0.0
 40
0.0
 40
0.1250000000000013
 40
0.1250000000000013
 40
0.2500000000000026
 40
0.2500000000000026
 40
0.3750000000000039
 40
0.3750000000000039
 40
0.5000000000000052
 40
0.5000000000000052
 40
0.6250000000000066
 40
0.6250000000000066
 40
0.7500000000000078
 40
0.7500000000000078
 40
1.0
 40
1.0
 40
1.0
 40
1.0
 10
48.09999999999999
 20
2.250919584899812
 30
0.0
 10
48.09999999999999
 20
2.222934465777463
 30
0.0
 10
48.09828212545003
 20
2.19790769832203
 30
0.0
 10
48.08794548140529
 20
2.156593745859746
 30
0.0
 10
48.07920317419712
 20
2.140092150184664
 30
0.0
 10
48.04916414674195
 20
2.123114161549767
 30
0.0
 10
48.02726952670549
 20
2.122942277597073
 30
0.0
 10
47.96747363121959
 20
2.145424868626885
 30
0.0
 10
47.92911484786126
 20
2.168389960364125
 30
0.0
 10
47.84309056517611
 20
2.230247638827973
 30
0.0
 10
47.79716229125808
 20
2.267439015244263
 30
0.0
 10
47.70360850339417
 20
2.345986184140043
 30
0.0
 10
47.65701351045506
 20
2.386482478925087
 30
0.0
 10
47.51624808492885
 20
2.508985683415665
 30
0.0
 10
47.42619975754111
 20
2.587397928188965
 30
0.0
 10
47.33799999999999
 20
2.660316621281714
 30
0.0
  0
SPLINE
  5
CE
330
1F
100
AcDbEntity
  8
0
  6
Continuous
 62
     1
370
    15
100
AcDbSpline
210
0.0
220
0.0
230
1.0
 70
     8
 71
     3
 72
    12
 73
     8
 74
     0
 42
0.000000001
 43
0.00000001
 40
0.0
 40
0.0
 40
0.0
 40
0.0
 40
0.224722618422552
 40
0.4496594442554729
 40
0.6748993876686326
 40
0.8997938252856066
 40
1.0
 40
1.0
 40
1.0
 40
1.0
 10
47.33800000000015
 20
2.660316621281592
 30
0.0
 10
46.98925849377885
 20
2.937281774551869
 30
0.0
 10
46.29144305812289
 20
3.491476086507906
 30
0.0
 10
45.24365119115287
 20
4.123184841916589
 30
0.0
 10
44.19431799106117
 20
4.552841461249971
 30
0.0
 10
43.3399275814626
 20
4.759479695423382
 30
0.0
 10
42.83552687497581
 20
4.742207997271819
 30
0.0
 10
42.68005480447488
 20
4.736884319810314
 30
0.0
  0
SPLINE
  5
CF
330
1F
100
AcDbEntity
  8
0
  6
Continuous
 62
     1
370
    15
100
AcDbSpline
210
0.0
220
0.0
230
1.0
 70
     8
 71
     3
 72
    25
 73
    21
 74
     0
 42
0.000000001
 43
0.00000001
 40
0.0
 40
0.0
 40
0.0
 40
0.0
 40
0.0071305100152725
 40
0.0666175641879122
 40
0.126072617540978
 40
0.1856299167643672
 40
0.2452135895065622
 40
0.3046757574775963
 40
0.3641490083429564
 40
0.4237527469240237
 40
0.4832840250510472
 40
0.5427350930609705
 40
0.6022402987412813
 40
0.6618552038724623
 40
0.7213462148883247
 40
0.7807999981795577
 40
0.8403508326515119
 40
0.8999401170808145
 40
0.959404571956441
 40
1.0
 40
1.0
 40
1.0
 40
1.0
 10
29.39761338020534
 20
-4.459252837862291
 30
0.0
 10
29.35802574617639
 20
-4.476135653048233
 30
0.0
 10
28.98817397606151
 20
-4.633865187389162
 30
0.0
 10
28.28935368461379
 20
-4.750673655643203
 30
0.0
 10
27.29991602099693
 20
-4.781532341973785
 30
0.0
 10
26.30878086838255
 20
-4.587461199417947
 30
0.0
 10
25.31715593314551
 20
-4.201032526161066
 30
0.0
 10
24.32764594844943
 20
-3.631655952857922
 30
0.0
 10
23.33794909959739
 20
-2.905870307785414
 30
0.0
 10
22.34596651395937
 20
-2.055992623394569
 30
0.0
 10
21.35527953444637
 20
-1.116684162145209
 30
0.0
 10
20.36596242840916
 20
-0.128933276336615
 30
0.0
 10
19.37573050287144
 20
0.864381469280591
 30
0.0
 10
18.38354473913404
 20
1.818993142480057
 30
0.0
 10
17.39355489650765
 20
2.696843755838621
 30
0.0
 10
16.40418921639548
 20
3.457846402430649
 30
0.0
 10
15.41315910338078
 20
4.070934734856185
 30
0.0
 10
14.42142433904446
 20
4.502596039435419
 30
0.0
 10
13.53653905849147
 20
4.734975683673248
 30
0.0
 10
12.98181503671815
 20
4.745385766731865
 30
0.0
 10
12.75675721681124
 20
4.749609255360919
 30
0.0
  0
SPLINE
  5
D0
330
1F
100
AcDbEntity
  8
0
  6
Continuous
 62
     1
370
    15
100
AcDbSpline
210
0.0
220
0.0
230
1.0
 70
     8
 71
     3
 72
    24
 73
    20
 74
     0
 42
0.000000001
 43
0.00000001
 40
0.0
 40
0.0
 40
0.0
 40
0.0
 40
0.0587416965254739
 40
0.1182902616308834
 40
0.1777417792540033
 40
0.2372305231830774
 40
0.2968431565061055
 40
0.356346094558696
 40
0.4157948970039804
 40
0.4753239065097135
 40
0.534925373708163
 40
0.5943963581635392
 40
0.6538562601469367
 40
0.713437662271184
 40
0.7729926918816689
 40
0.832445479518222
 40
0.8919302667548603
 40
0.951541751136383
 40
0.9999999999999999
 40
0.9999999999999999
 40
0.9999999999999999
 40
0.9999999999999999
 10
14.43510550022598
 20
4.468074303228304
 30
0.0
 10
14.76116770060774
 20
4.562949080408061
 30
0.0
 10
15.41777085088232
 20
4.754001822813934
 30
0.0
 10
16.4042105088733
 20
4.785799053400743
 30
0.0
 10
17.39354919155064
 20
4.625774108048345
 30
0.0
 10
18.38354627175561
 20
4.262273296511382
 30
0.0
 10
19.37573009291436
 20
3.716961729628649
 30
0.0
 10
20.36596253716964
 20
3.010372260071215
 30
0.0
 10
21.35527950857504
 20
2.17398144650681
 30
0.0
 10
22.34596650855369
 20
1.244076268749156
 30
0.0
 10
23.33794914716625
 20
0.2615955780304717
 30
0.0
 10
24.32764576407383
 20
-0.7336523649058495
 30
0.0
 10
25.31715662370442
 20
-1.697171405619252
 30
0.0
 10
26.30877828524531
 20
-2.586584277938287
 30
0.0
 10
27.29992564914877
 20
-3.364513638822629
 30
0.0
 10
28.28931781197874
 20
-3.999501148681963
 30
0.0
 10
29.27922260172121
 20
-4.455949880042528
 30
0.0
 10
30.21007283023758
 20
-4.724554267848467
 30
0.0
 10
30.80936597152749
 20
-4.740022534079412
 30
0.0
 10
31.07808779872966
 20
-4.746958473236469
 30
0.0
  0
SPLINE
  5
D1
330
1F
100
AcDbEntity
  8
0
  6
Continuous
 62
     1
370
    15
100
AcDbSpline
210
0.0
220
0.0
230
1.0
 70
     8
 71
     3
 72
     9
 73
     5
 74
     0
 42
0.000000001
 43
0.00000001
 40
0.0
 40
0.0
 40
0.0
 40
0.0
 40
0.2966777723876903
 40
0.6129174690204783
 40
0.6129174690204783
 40
0.6129174690204783
 40
0.6129174690204783
 10
44.35976841780238
 20
4.455057228218187
 30
0.0
 10
44.6545220970174
 20
4.547078836888327
 30
0.0
 10
45.26346451152652
 20
4.737189646428825
 30
0.0
 10
45.87189528968144
 20
4.77811849274003
 30
0.0
 10
46.18574602494117
 20
4.762500000000006
 30
0.0
  0
SPLINE
  5
D3
330
1F
100
AcDbEntity
  8
0
  6
Continuous
 62
     1
370
    15
100
AcDbSpline
210
0.0
220
0.0
230
1.0
 70
     8
 71
     3
 72
    16
 73
    12
 74
     0
 42
0.000000001
 43
0.00000001
 40
0.0
 40
0.0
 40
0.0
 40
0.0
 40
0.2499999999999981
 40
0.2499999999999981
 40
0.4999999999999962
 40
0.4999999999999962
 40
0.7499999999999943
 40
0.7499999999999943
 40
0.8749999999999971
 40
0.8749999999999971
 40
1.0
 40
1.0
 40
1.0
 40
1.0
 10
47.48767641168727
 20
4.762500000000006
 30
0.0
 10
47.47285083019429
 20
4.379097377313923
 30
0.0
 10
47.44817610501826
 20
4.234174436086653
 30
0.0
 10
47.37159547663055
 20
3.954143867185351
 30
0.0
 10
47.31838363457165
 20
3.816363929298237
 30
0.0
 10
47.17622209978226
 20
3.573202416005679
 30
0.0
 10
47.08542222429072
 20
3.466463629094528
 30
0.0
 10
46.92768304965574
 20
3.353672514874165
 30
0.0
 10
46.87032975221285
 20
3.323063063234452
 30
0.0
 10
46.75284744639809
 20
3.280016768054003
 30
0.0
 10
46.69259762145538
 20
3.267174594047164
 30
0.0
 10
46.63093485845448
 20
3.262462535579561
 30
0.0
  0
SPLINE
  5
D4
330
1F
100
AcDbEntity
  8
0
  6
Continuous
 62
     1
370
    15
100
AcDbSpline
210
0.0
220
0.0
230
1.0
 70
     8
 71
     3
 72
     8
 73
     4
 74
     0
 42
0.000000001
 43
0.00000001
 40
0.0
 40
0.0
 40
0.0
 40
0.0
 40
1.0
 40
1.0
 40
1.0
 40
1.0
 10
48.09999999999999
 20
2.585374663495466
 30
0.0
 10
47.61232526839262
 20
2.846603633069276
 30
0.0
 10
47.12256731793492
 20
3.071071953573064
 30
0.0
 10
46.63093485845449
 20
3.262462535579565
 30
0.0
  0
LINE
  5
D5
330
1F
100
AcDbEntity
  8
0
  6
Continuous
 62
     1
370
    15
100
AcDbLine
 10
48.09999999999999
 20
2.250919584899808
 30
0.0
 11
48.09999999999999
 21
2.585374663495466
 31
0.0
  0
SPLINE
  5
D7
330
1F
100
AcDbEntity
  8
0
  6
Continuous
 62
     1
370
    15
100
AcDbSpline
210
0.0
220
0.0
230
1.0
 70
     8
 71
     3
 72
    25
 73
    21
 74
     0
 42
0.000000001
 43
0.00000001
 40
0.0
 40
0.0
 40
0.0
 40
0.0
 40
0.0091569350708133
 40
0.0687596606685448
 40
0.1282809978393349
 40
0.187727339463715
 40
0.2472330339027183
 40
0.3068424591561713
 40
0.3663251916411726
 40
0.4257759256314343
 40
0.4853288980639376
 40
0.5449082420992312
 40
0.6043660901905898
 40
0.663835020371111
 40
0.7234344287875095
 40
0.7829613820140592
 40
0.8424081309507104
 40
0.90190901362469
 40
0.9615195877799614
 40
0.9999999999999999
 40
0.9999999999999999
 40
0.9999999999999999
 40
0.9999999999999999
 10
34.38640232366837
 20
-4.456867882673245
 30
0.0
 10
34.33562672701446
 20
-4.478358631339793
 30
0.0
 10
33.95435146742521
 20
-4.639733215127644
 30
0.0
 10
33.24154164265484
 20
-4.755275518403843
 30
0.0
 10
32.25104711776507
 20
-4.77822184566529
 30
0.0
 10
31.2617121159025
 20
-4.577211186848438
 30
0.0
 10
30.27140377421756
 20
-4.183542050116405
 30
0.0
 10
29.27923721651742
 20
-3.609122104992723
 30
0.0
 10
28.28931390188761
 20
-2.878548999549918
 30
0.0
 10
27.29992669920953
 20
-2.023724208882445
 30
0.0
 10
26.30877800128302
 20
-1.082310462526799
 30
0.0
 10
25.31715670797925
 20
-0.0946632933240769
 30
0.0
 10
24.32764571043486
 20
0.8982351594387402
 30
0.0
 10
23.33794927768576
 20
1.852352690928197
 30
0.0
 10
22.34596603930774
 20
2.725457472313688
 30
0.0
 10
21.35528125131698
 20
3.48145032433856
 30
0.0
 10
20.36595604153684
 20
4.089719101186282
 30
0.0
 10
19.37575437922454
 20
4.513285611946849
 30
0.0
 10
18.5001672923929
 20
4.742340890072794
 30
0.0
 10
17.95627576340593
 20
4.739947749996119
 30
0.0
 10
17.74291089664512
 20
4.739008937776427
 30
0.0
  0
SPLINE
  5
D8
330
1F
100
AcDbEntity
  8
0
  6
Continuous
 62
     1
370
    15
100
AcDbSpline
210
0.0
220
0.0
230
1.0
 70
     8
 71
     3
 72
    24
 73
    20
 74
     0
 42
0.000000001
 43
0.00000001
 40
0.0
 40
0.0
 40
0.0
 40
0.0
 40
0.0566165805754833
 40
0.1160712643795835
 40
0.1756061631791367
 40
0.2352135268397541
 40
0.2946903948484455
 40
0.3541561792887527
 40
0.4137434758901003
 40
0.4733043973686132
 40
0.5327630667582431
 40
0.5922537389137265
 40
0.6518711207484318
 40
0.7113847579228458
 40
0.7708390343603074
 40
0.8303683163544773
 40
0.8899789976392004
 40
0.9494590127830038
 40
1.0
 40
1.0
 40
1.0
 40
1.0
 10
19.42417308809441
 20
4.464968238274457
 30
0.0
 10
19.73822510745381
 20
4.558396983424746
 30
0.0
 10
20.38207209710743
 20
4.749937914875628
 30
0.0
 10
21.3552577458848
 20
4.78755998185285
 30
0.0
 10
22.34597235012588
 20
4.634873682653049
 30
0.0
 10
23.33794759007958
 20
4.278707813730618
 30
0.0
 10
24.3276461616327
 20
3.738663476210125
 30
0.0
 10
25.31715658850184
 20
3.036970452372656
 30
0.0
 10
26.30877802699437
 20
2.205389149613497
 30
0.0
 10
27.29992671587516
 20
1.278483263151049
 30
0.0
 10
28.28931380973192
 20
0.2958068094684084
 30
0.0
 10
29.27923756906309
 20
-0.6997192818930573
 30
0.0
 10
30.27140245419587
 20
-1.663501653760246
 30
0.0
 10
31.26171703090141
 20
-2.557077086225848
 30
0.0
 10
32.25102878421377
 20
-3.3399839612951
 30
0.0
 10
33.24161020268764
 20
-3.980178645748064
 30
0.0
 10
34.23367799758816
 20
-4.442780535943877
 30
0.0
 10
35.17387805622106
 20
-4.720703136645126
 30
0.0
 10
35.78386937034921
 20
-4.740370616454307
 30
0.0
 10
36.06408462514874
 20
-4.749405380947423
 30
0.0
  0
SPLINE
  5
DA
330
1F
100
AcDbEntity
  8
0
  6
Continuous
 62
     1
370
    15
100
AcDbSpline
210
0.0
220
0.0
230
1.0
 70
     8
 71
     3
 72
    22
 73
    18
 74
     0
 42
0.000000001
 43
0.00000001
 40
0.0
 40
0.0
 40
0.0
 40
0.0
 40
0.0715301781576424
 40
0.1431285394573912
 40
0.2148233843895808
 40
0.2864082533374704
 40
0.3540213611554806
 40
0.4217079094368666
 40
0.4895048142130737
 40
0.5571552739795863
 40
0.6247752851275056
 40
0.6925174841443636
 40
0.7602751012013083
 40
0.8278991581608243
 40
0.8955417685137065
 40
0.9633329766575475
 40
1.0
 40
1.0
 40
1.0
 40
1.0
 10
47.40050000000001
 20
-4.762499999999994
 30
0.0
 10
46.9892584260062
 20
-4.704833132170466
 30
0.0
 10
46.29144285474032
 20
-4.612182399757308
 30
0.0
 10
45.24365200604521
 20
-4.189354911915875
 30
0.0
 10
44.19431493269587
 20
-3.581622071576757
 30
0.0
 10
43.16573479598218
 20
-2.810498384218525
 30
0.0
 10
42.1574741798493
 20
-1.928479895318377
 30
0.0
 10
41.16706788335111
 20
-0.9796133872892111
 30
0.0
 10
40.17493508685299
 20
0.0100374775885779
 30
0.0
 10
39.18507324343128
 20
1.000882407780181
 30
0.0
 10
38.19566057963257
 20
1.948403819806271
 30
0.0
 10
37.20439198356182
 20
2.811398140044635
 30
0.0
 10
36.21288395937296
 20
3.552458680819608
 30
0.0
 10
35.22339836250261
 20
4.143802467501704
 30
0.0
 10
34.23368903764099
 20
4.546350110968731
 30
0.0
 10
33.39307246420505
 20
4.752640255803017
 30
0.0
 10
32.88364595875049
 20
4.741025419064829
 30
0.0
 10
32.70482660386587
 20
4.73694836851804
 30
0.0
  0
SPLINE
  5
DB
330
1F
100
AcDbEntity
  8
0
  6
Continuous
 62
     1
370
    15
100
AcDbSpline
210
0.0
220
0.0
230
1.0
 70
     8
 71
     3
 72
    18
 73
    14
 74
     0
 42
0.000000001
 43
0.00000001
 40
0.0
 40
0.0
 40
0.0
 40
0.0
 40
0.0051066979839864
 40
0.1103723018992533
 40
0.2154191385642516
 40
0.320400240009058
 40
0.4255527105288776
 40
0.5307730744383096
 40
0.6357730193380114
 40
0.726758398614801
 40
0.8179869489848557
 40
0.9088974070243605
 40
1.0
 40
1.0
 40
1.0
 40
1.0
 10
19.42417308809444
 20
-4.464968238274445
 30
0.0
 10
19.40813272587175
 20
-4.471950131699277
 30
0.0
 10
19.06144848737409
 20
-4.622851487395352
 30
0.0
 10
18.38345361172216
 20
-4.740153440112364
 30
0.0
 10
17.39357853244432
 20
-4.787628565248841
 30
0.0
 10
16.40418564176978
 20
-4.607198380464341
 30
0.0
 10
15.41314970750073
 20
-4.234013470479079
 30
0.0
 10
14.4214654923928
 20
-3.677246513314946
 30
0.0
 10
13.47579927751628
 20
-2.993463537943242
 30
0.0
 10
12.57462978268935
 20
-2.232720221640046
 30
0.0
 10
11.71495367678792
 20
-1.439594992029336
 30
0.0
 10
10.8583945923584
 20
-0.5956881420105801
 30
0.0
 10
10.28633282230367
 20
-0.0236203077182002
 30
0.0
 10
9.999999999994774
 20
0.2627155499102612
 30
0.0
  0
SPLINE
  5
DC
330
1F
100
AcDbEntity
  8
0
  6
Continuous
 62
     1
370
    15
100
AcDbSpline
210
0.0
220
0.0
230
1.0
 70
    24
 71
     3
 72
    14
 73
    10
 74
     0
 42
0.000000001
 43
0.00000001
 40
0.0
 40
0.0
 40
0.0
 40
0.0
 40
0.25
 40
0.25
 40
0.5
 40
0.5
 40
0.75
 40
0.75
 40
1.0
 40
1.0
 40
1.0
 40
1.0
 10
9.999999999999998
 20
3.282668237836937
 30
0.0
 10
9.999999999999998
 20
3.098807155142971
 30
0.0
 10
9.999999999999998
 20
2.883472847847077
 30
0.0
 10
9.999999999999998
 20
2.387510634880603
 30
0.0
 10
9.999999999999998
 20
2.105734873094161
 30
0.0
 10
9.999999999999998
 20
1.512731833414455
 30
0.0
 10
9.999999999999998
 20
1.201712313168118
 30
0.0
 10
9.999999999999998
 20
0.6495016180722855
 30
0.0
 10
9.999999999999998
 20
0.4121331212450968
 30
0.0
 10
9.999999999999998
 20
0.2627155499049535
 30
0.0
  0
SPLINE
  5
DD
330
1F
100
AcDbEntity
  8
0
  6
Continuous
 62
     1
370
    15
100
AcDbSpline
210
0.0
220
0.0
230
1.0
 70
     8
 71
     3
 72
    18
 73
    14
 74
     0
 42
0.000000001
 43
0.00000001
 40
0.0
 40
0.0
 40
0.0
 40
0.0
 40
0.1030833414010773
 40
0.206083462550422
 40
0.3090402772704596
 40
0.3981777397568601
 40
0.487502322257752
 40
0.5767692681144014
 40
0.6658907338518957
 40
0.75506800410176
 40
0.8444309921401679
 40
0.9336295402504338
 40
1.0
 40
1.0
 40
1.0
 40
1.0
 10
9.999999999997286
 20
3.282668237849784
 30
0.0
 10
10.38175324686589
 20
2.988017220271187
 30
0.0
 10
11.1449515472435
 20
2.398953059939576
 30
0.0
 10
12.28868609466241
 20
1.326779958114839
 30
0.0
 10
13.38102093709616
 20
0.2430987349559321
 30
0.0
 10
14.42138270499975
 20
-0.8033091185505489
 30
0.0
 10
15.4131703010489
 20
-1.761643184790507
 30
0.0
 10
16.40418607548824
 20
-2.644993945768705
 30
0.0
 10
17.39355628513922
 20
-3.414246383566982
 30
0.0
 10
18.38354232094015
 20
-4.038078062907766
 30
0.0
 10
19.37573879638802
 20
-4.48024603877484
 30
0.0
 10
20.28178670824385
 20
-4.73226722192028
 30
0.0
 10
20.85712922857506
 20
-4.739770807452997
 30
0.0
 10
21.10258780746027
 20
-4.742972064749856
 30
0.0
  0
SPLINE
  5
DE
330
1F
100
AcDbEntity
  8
0
  6
Continuous
 62
     1
370
    15
100
AcDbSpline
210
0.0
220
0.0
230
1.0
 70
     8
 71
     3
 72
    20
 73
    16
 74
     0
 42
0.000000001
 43
0.00000001
 40
0.0
 40
0.0
 40
0.0
 40
0.0
 40
0.064654753073899
 40
0.1410551692736896
 40
0.2176064792158849
 40
0.2941403701398709
 40
0.3705362154561068
 40
0.4469664610617931
 40
0.5235621575468575
 40
0.6000331752931155
 40
0.6764212213541467
 40
0.7572964901139075
 40
0.8382960077186841
 40
0.9191865198895013
 40
1.0
 40
1.0
 40
1.0
 40
1.0
 10
34.3864023236684
 20
4.456867882673257
 30
0.0
 10
34.66545493568233
 20
4.545090506901201
 30
0.0
 10
35.27425493185428
 20
4.737562933174615
 30
0.0
 10
36.21285613284638
 20
4.791274404846901
 30
0.0
 10
37.2043994444221
 20
4.661119415083819
 30
0.0
 10
38.19565858474665
 20
4.324933462430861
 30
0.0
 10
39.18507377778253
 20
3.803393028516367
 30
0.0
 10
40.17493494329484
 20
3.117283772049949
 30
0.0
 10
41.16706792177891
 20
2.298234935993325
 30
0.0
 10
42.15747416959172
 20
1.378944423412404
 30
0.0
 10
43.16573479890944
 20
0.3816111473267843
 30
0.0
 10
44.19431493189157
 20
-0.6539148460693702
 30
0.0
 10
45.2436520062595
 20
-1.672949612133916
 30
0.0
 10
46.29144285468683
 20
-2.6241157496783
 30
0.0
 10
46.98925842598837
 20
-3.144430502231885
 30
0.0
 10
47.33800000000015
 20
-3.404463945522121
 30
0.0
  0
SPLINE
  5
DF
330
1F
100
AcDbEntity
  8
0
  6
Continuous
 62
     1
370
    15
100
AcDbSpline
210
0.0
220
0.0
230
1.0
 70
     8
 71
     3
 72
     8
 73
     4
 74
     0
 42
0.000000001
 43
0.00000001
 40
0.0
 40
0.0
 40
0.0
 40
0.0
 40
1.0
 40
1.0
 40
1.0
 40
1.0
 10
47.33799999999999
 20
-3.404463945520098
 30
0.0
 10
47.38965520043482
 20
-3.440468035679479
 30
0.0
 10
47.43941567854927
 20
-3.472595934002569
 30
0.0
 10
47.48767641167574
 20
-3.501122098154938
 30
0.0
  0
SPLINE
  5
E0
330
1F
100
AcDbEntity
  8
0
  6
Continuous
 62
     1
370
    15
100
AcDbSpline
210
0.0
220
0.0
230
1.0
 70
     8
 71
     3
 72
     9
 73
     5
 74
     0
 42
0.000000001
 43
0.00000001
 40
0.0
 40
0.0
 40
0.0
 40
0.0
 40
0.5181857918746895
 40
1.0
 40
1.0
 40
1.0
 40
1.0
 10
47.10538386484127
 20
-3.224731969058612
 30
0.0
 10
47.03272518390762
 20
-3.233860946432093
 30
0.0
 10
46.89250775210424
 20
-3.251478136089986
 30
0.0
 10
46.71598569406522
 20
-3.343673221969599
 30
0.0
 10
46.63093485845448
 20
-3.38809412426573
 30
0.0
  0
SPLINE
  5
E1
330
1F
100
AcDbEntity
  8
0
  6
Continuous
 62
     1
370
    15
100
AcDbSpline
210
0.0
220
0.0
230
1.0
 70
     8
 71
     3
 72
     8
 73
     4
 74
     0
 42
0.000000001
 43
0.00000001
 40
0.0
 40
0.0
 40
0.0
 40
0.0
 40
1.0
 40
1.0
 40
1.0
 40
1.0
 10
48.09999999999999
 20
-3.726477509433518
 30
0.0
 10
47.61232526839262
 20
-3.654487337456451
 30
0.0
 10
47.12256731793491
 20
-3.540283120497246
 30
0.0
 10
46.63093485845447
 20
-3.388094124265733
 30
0.0
  0
LINE
  5
E2
330
1F
100
AcDbEntity
  8
0
  6
Continuous
 62
     1
370
    15
100
AcDbLine
 10
48.09999999999999
 20
-4.381500000000005
 30
0.0
 11
48.09999999999999
 21
-3.726477509433518
 31
0.0
  0
SPLINE
  5
E3
330
1F
100
AcDbEntity
  8
0
  6
Continuous
 62
     1
370
    15
100
AcDbSpline
210
0.0
220
0.0
230
1.0
 70
     8
 71
     3
 72
    25
 73
    21
 74
     0
 42
0.000000001
 43
0.00000001
 40
0.0
 40
0.0
 40
0.0
 40
0.0
 40
0.0112776510611823
 40
0.0707329303732907
 40
0.1302956440639653
 40
0.1898719141540582
 40
0.2493307507690189
 40
0.3088059005605979
 40
0.3684117058048546
 40
0.4279361184168657
 40
0.4873855316074802
 40
0.5468943006794514
 40
0.6065068059255979
 40
0.6659926118571332
 40
0.7254464176405809
 40
0.7850024671488853
 40
0.844584889622589
 40
0.9040458098747162
 40
0.9635178127886124
 40
0.9999999999999999
 40
0.9999999999999999
 40
0.9999999999999999
 40
0.9999999999999999
 10
39.3725790338973
 20
-4.454608326177625
 30
0.0
 10
39.31003528650663
 20
-4.480791020662706
 30
0.0
 10
38.91776365959876
 20
-4.645007726424509
 30
0.0
 10
38.19570782974598
 20
-4.759848567629639
 30
0.0
 10
37.20437986001357
 20
-4.774552331456533
 30
0.0
 10
36.21288514674507
 20
-4.566883952512763
 30
0.0
 10
35.22340569336277
 20
-4.166583981546687
 30
0.0
 10
34.23365848491434
 20
-3.585222385829623
 30
0.0
 10
33.2416154282261
 20
-2.85076597181664
 30
0.0
 10
32.25102738673462
 20
-1.992549460603449
 30
0.0
 10
31.26171740601265
 20
-1.04822413919425
 30
0.0
 10
30.27140235171587
 20
-0.0587213297130253
 30
0.0
 10
29.27923760292195
 20
0.9319110627539682
 30
0.0
 10
28.28931377669552
 20
1.883924623993452
 30
0.0
 10
27.29992681424411
 20
2.754739589042677
 30
0.0
 10
26.30877766580657
 20
3.505605368198129
 30
0.0
 10
25.31715793410431
 20
4.107622959121353
 30
0.0
 10
24.32764115135333
 20
4.524435365683801
 30
0.0
 10
23.46612900855748
 20
4.745877299633348
 30
0.0
 10
22.93335794744179
 20
4.740194615530183
 30
0.0
 10
22.73079614615876
 20
4.738034035100666
 30
0.0
  0
LINE
  5
E4
330
1F
100
AcDbEntity
  8
0
  6
Continuous
 62
     1
370
    15
100
AcDbLine
 10
9.999999999997288
 20
-4.629497705092139
 30
0.0
 11
11.12900409703181
 21
-4.760599336058767
 31
0.0
  0
SPLINE
  5
E5
330
1F
100
AcDbEntity
  8
0
  6
Continuous
 62
     1
370
    15
100
AcDbSpline
210
0.0
220
0.0
230
1.0
 70
     8
 71
     3
 72
    24
 73
    20
 74
     0
 42
0.000000001
 43
0.00000001
 40
0.0
 40
0.0
 40
0.0
 40
0.0
 40
0.0544603490626061
 40
0.1140449693429039
 40
0.1736032156849869
 40
0.2330592145307667
 40
0.2925472147050184
 40
0.3521619188674172
 40
0.4116728830291421
 40
0.4711244891200598
 40
0.5306510973988646
 40
0.5902591013122315
 40
0.6497364449534555
 40
0.7091974748163199
 40
0.7687759424860645
 40
0.8283408532563389
 40
0.8877983256851334
 40
0.9472825712225057
 40
1.0
 40
1.0
 40
1.0
 40
1.0
 10
24.41090677025146
 20
4.462002410312486
 30
0.0
 10
24.71277764224855
 20
4.553808741184584
 30
0.0
 10
25.34492295411292
 20
4.746059624074757
 30
0.0
 10
26.30878053125414
 20
4.789043556278455
 30
0.0
 10
27.29992604809858
 20
4.644030755538585
 30
0.0
 10
28.28931398186658
 20
4.294097988343629
 30
0.0
 10
29.27923754808882
 20
3.760043215149691
 30
0.0
 10
30.2714023653148
 20
3.064704826006553
 30
0.0
 10
31.26171740639088
 20
2.236392530747795
 30
0.0
 10
32.25102737165738
 20
1.311542142681588
 30
0.0
 10
33.24161548828391
 20
0.3303433499078339
 30
0.0
 10
34.23365825966557
 20
-0.6639527396269239
 30
0.0
 10
35.22340653207653
 20
-1.631141993942058
 30
0.0
 10
36.21288201467784
 20
-2.52798499488565
 30
0.0
 10
37.20439157380938
 20
-3.314617142680105
 30
0.0
 10
38.19566416047812
 20
-3.960053017916642
 30
0.0
 10
39.18505935529335
 20
-4.4300905975506
 30
0.0
 10
40.13675723748015
 20
-4.716717611955478
 30
0.0
 10
40.7597831032416
 20
-4.740703698342889
 30
0.0
 10
41.05250887498583
 20
-4.751973448179514
 30
0.0
  0
SPLINE
  5
E6
330
1F
100
AcDbEntity
  8
0
  6
Continuous
 62
     1
370
    15
100
AcDbSpline
210
0.0
220
0.0
230
1.0
 70
     8
 71
     3
 72
    20
 73
    16
 74
     0
 42
0.000000001
 43
0.00000001
 40
0.0
 40
0.0
 40
0.0
 40
0.0
 40
0.1250000000000015
 40
0.1250000000000015
 40
0.2500000000000025
 40
0.2500000000000025
 40
0.3750000000000035
 40
0.3750000000000035
 40
0.5000000000000046
 40
0.5000000000000046
 40
0.6250000000000061
 40
0.6250000000000061
 40
0.7500000000000077
 40
0.7500000000000077
 40
1.0
 40
1.0
 40
1.0
 40
1.0
 10
48.09999999999999
 20
-1.73863185312219
 30
0.0
 10
48.10000000000001
 20
-1.800768796350277
 30
0.0
 10
48.09828212545008
 20
-1.862286716867211
 30
0.0
 10
48.08794548140531
 20
-1.983373584255011
 30
0.0
 10
48.07920317419712
 20
-2.0438338701638
 30
0.0
 10
48.04916414674195
 20
-2.155621224619967
 30
0.0
 10
48.02726952670552
 20
-2.207628382676829
 30
0.0
 10
47.96747363121963
 20
-2.287890066511637
 30
0.0
 10
47.92911484786126
 20
-2.316141914039236
 30
0.0
 10
47.84309056517611
 20
-2.343695523501565
 30
0.0
 10
47.79716229125808
 20
-2.343598681325976
 30
0.0
 10
47.70360850339419
 20
-2.325454458146746
 30
0.0
 10
47.65701351045506
 20
-2.307770626754714
 30
0.0
 10
47.51624808492885
 20
-2.237131821693728
 30
0.0
 10
47.42619975754113
 20
-2.169807959449413
 30
0.0
 10
47.33799999999999
 20
-2.090819808757051
 30
0.0
  0
SPLINE
  5
E7
330
1F
100
AcDbEntity
  8
0
  6
Continuous
 62
     1
370
    15
100
AcDbSpline
210
0.0
220
0.0
230
1.0
 70
     8
 71
     3
 72
    17
 73
    13
 74
     0
 42
0.000000001
 43
0.00000001
 40
0.0
 40
0.0
 40
0.0
 40
0.0
 40
0.1085228233537855
 40
0.2171490915371112
 40
0.3259217409607703
 40
0.434527539069015
 40
0.5371075346054921
 40
0.6397989511762688
 40
0.7426577963583237
 40
0.8452944608283007
 40
0.9478849298302656
 40
0.9999999999999999
 40
0.9999999999999999
 40
0.9999999999999999
 40
0.9999999999999999
 10
47.33800000000014
 20
-2.090819808757183
 30
0.0
 10
46.98925842683789
 20
-1.767382363904751
 30
0.0
 10
46.29144285723621
 20
-1.120199171021667
 30
0.0
 10
45.243651996045
 20
-0.0682020354274393
 30
0.0
 10
44.19431497022752
 20
0.9788455415474183
 30
0.0
 10
43.16573465938922
 20
1.963358652988036
 30
0.0
 10
42.15747465849098
 20
2.839706809496992
 30
0.0
 10
41.16706609022171
 20
3.576444523208507
 30
0.0
 10
40.17494178560462
 20
4.161071108618726
 30
0.0
 10
39.18504830937407
 20
4.556679677574581
 30
0.0
 10
38.35847428499858
 20
4.755914063198981
 30
0.0
 10
37.86084969170157
 20
4.741585151680118
 30
0.0
 10
37.69321677605608
 20
4.736758225422276
 30
0.0
  0
SPLINE
  5
E8
330
1F
100
AcDbEntity
  8
0
  6
Continuous
 62
     1
370
    15
100
AcDbSpline
210
0.0
220
0.0
230
1.0
 70
     8
 71
     3
 72
    23
 73
    19
 74
     0
 42
0.000000001
 43
0.00000001
 40
0.0
 40
0.0
 40
0.0
 40
0.0
 40
0.0057767484764675
 40
0.0744522725574575
 40
0.1432784746681825
 40
0.2120210045466989
 40
0.2806709134275684
 40
0.3493833366797271
 40
0.4182224331365672
 40
0.486918465389311
 40
0.5555715096859221
 40
0.6243366218550932
 40
0.6931461333287142
 40
0.7618115004198647
 40
0.8213119551480659
 40
0.8809714331252883
 40
0.9404228926443395
 40
1.0
 40
1.0
 40
1.0
 40
1.0
 10
24.41090677025149
 20
-4.462002410312472
 30
0.0
 10
24.38316915968176
 20
-4.473974181834151
 30
0.0
 10
24.02567944887942
 20
-4.628269560966302
 30
0.0
 10
23.33798460421077
 20
-4.745660956525931
 30
0.0
 10
22.34595700522487
 20
-4.784722060741449
 30
0.0
 10
21.35528207326004
 20
-4.5976048667158
 30
0.0
 10
20.36596176213805
 20
-4.217507190130404
 30
0.0
 10
19.37573062850596
 20
-3.654024631347971
 30
0.0
 10
18.38354490486887
 20
-2.934522762170112
 30
0.0
 10
17.39355411037224
 20
-2.087276033768498
 30
0.0
 10
16.40419219585552
 20
-1.150047848149256
 30
0.0
 10
15.41314794814173
 20
-0.1638112356796269
 30
0.0
 10
14.42146596508166
 20
0.8289755863164284
 30
0.0
 10
13.47579916964293
 20
1.744457736828086
 30
0.0
 10
12.57462980990219
 20
2.552429260311365
 30
0.0
 10
11.71495366955177
 20
3.233597821227976
 30
0.0
 10
10.85839459416926
 20
3.822709875779402
 30
0.0
 10
10.28633282290772
 20
4.10715229846074
 30
0.0
 10
9.999999999994774
 20
4.2495236400432
 30
0.0
  0
LINE
  5
E9
330
1F
100
AcDbEntity
  8
0
  6
Continuous
 62
     1
370
    15
100
AcDbLine
 10
9.999999999999998
 20
4.629497705083887
 30
0.0
 11
9.999999999999996
 21
4.319536591480551
 31
0.0
  0
SPLINE
  5
EA
330
1F
100
AcDbEntity
  8
0
  6
Continuous
 62
     1
370
    15
100
AcDbSpline
210
0.0
220
0.0
230
1.0
 70
     8
 71
     3
 72
    23
 73
    19
 74
     0
 42
0.000000001
 43
0.00000001
 40
0.0
 40
0.0
 40
0.0
 40
0.0
 40
0.0711288686769614
 40
0.1422003142797744
 40
0.213241877873708
 40
0.274747905687883
 40
0.3363830487864162
 40
0.3979784218382708
 40
0.4594734116841694
 40
0.5210069073815277
 40
0.5826685508087979
 40
0.6442167285111985
 40
0.7057089098529561
 40
0.7672840551385298
 40
0.8289341486383123
 40
0.890449274431951
 40
0.9519529368260157
 40
1.0
 40
1.0
 40
1.0
 40
1.0
 10
9.999999999997286
 20
4.629497705092144
 30
0.0
 10
10.38175324678211
 20
4.693178368541246
 30
0.0
 10
11.14495154699223
 20
4.820488285378712
 30
0.0
 10
12.28868609566636
 20
4.663374162350475
 30
0.0
 10
13.38102093354625
 20
4.275885805706146
 30
0.0
 10
14.4213827162986
 20
3.693868262801479
 30
0.0
 10
15.41317025858891
 20
2.983177293003024
 30
0.0
 10
16.4041862337719
 20
2.143296678187074
 30
0.0
 10
17.39355569530781
 20
1.210573018844658
 30
0.0
 10
18.3835445258209
 20
0.2255250953730356
 30
0.0
 10
19.37573055513519
 20
-0.7676533531648336
 30
0.0
 10
20.36596243239933
 20
-1.729195910863079
 30
0.0
 10
21.35527946634698
 20
-2.616265691814506
 30
0.0
 10
22.34596678294174
 20
-3.389807418779463
 30
0.0
 10
23.33794809151766
 20
-4.018379740234711
 30
0.0
 10
24.32764970205009
 20
-4.468244957678286
 30
0.0
 10
25.24435722827988
 20
-4.728507490586219
 30
0.0
 10
25.83233205389884
 20
-4.73984266682682
 30
0.0
 10
26.09020769502072
 20
-4.744814080079415
 30
0.0
  0
SPLINE
  5
EB
330
1F
100
AcDbEntity
  8
0
  6
Continuous
 62
     1
370
    15
100
AcDbSpline
210
0.0
220
0.0
230
1.0
 70
     8
 71
     3
 72
    15
 73
    11
 74
     0
 42
0.000000001
 43
0.00000001
 40
0.0
 40
0.0
 40
0.0
 40
0.0
 40
0.1007186964303868
 40
0.2252700535056899
 40
0.3496186719569007
 40
0.4738323711310757
 40
0.6053426901190656
 40
0.737055048685934
 40
0.8685901548045416
 40
1.0
 40
1.0
 40
1.0
 40
1.0
 10
39.37257903389732
 20
4.454608326177636
 30
0.0
 10
39.63982015554976
 20
4.540767745068867
 30
0.0
 10
40.23753859221731
 20
4.733474140122953
 30
0.0
 10
41.16708014288053
 20
4.79198827924539
 30
0.0
 10
42.15747090740177
 20
4.669397873334584
 30
0.0
 10
43.1657357298609
 20
4.333324028434862
 30
0.0
 10
44.19431467609402
 20
3.792735401122921
 30
0.0
 10
45.24365207441598
 20
3.058446040487188
 30
0.0
 10
46.2914428376762
 20
2.180227255945538
 30
0.0
 10
46.98925842031997
 20
1.514576568320606
 30
0.0
 10
47.33800000000015
 20
1.181909774841983
 30
0.0
  0
SPLINE
  5
EC
330
1F
100
AcDbEntity
  8
0
  6
Continuous
 62
     1
370
    15
100
AcDbSpline
210
0.0
220
0.0
230
1.0
 70
     8
 71
     3
 72
     8
 73
     4
 74
     0
 42
0.000000001
 43
0.00000001
 40
0.0
 40
0.0
 40
0.0
 40
0.0
 40
1.0
 40
1.0
 40
1.0
 40
1.0
 10
47.33799999999999
 20
1.181909774838415
 30
0.0
 10
47.38965520043894
 20
1.132033093147265
 30
0.0
 10
47.43941567855722
 20
1.080081208787554
 30
0.0
 10
47.4876764116873
 20
1.026448284697359
 30
0.0
  0
SPLINE
  5
ED
330
1F
100
AcDbEntity
  8
0
  6
Continuous
 62
     1
370
    15
100
AcDbSpline
210
0.0
220
0.0
230
1.0
 70
     8
 71
     3
 72
    16
 73
    12
 74
     0
 42
0.000000001
 43
0.00000001
 40
0.0
 40
0.0
 40
0.0
 40
0.0
 40
0.2499999999999979
 40
0.2499999999999979
 40
0.4999999999999959
 40
0.4999999999999959
 40
0.7499999999999938
 40
0.7499999999999938
 40
0.8749999999999969
 40
0.8749999999999969
 40
1.0
 40
1.0
 40
1.0
 40
1.0
 10
47.4876764116873
 20
1.026448284697364
 30
0.0
 10
47.4728508301943
 20
0.9432215861339865
 30
0.0
 10
47.44817610501827
 20
0.8557974234653528
 30
0.0
 10
47.37159547663056
 20
0.6693438361858426
 30
0.0
 10
47.31838363457164
 20
0.5681863383953891
 30
0.0
 10
47.17622209978226
 20
0.3603991801805199
 30
0.0
 10
47.08542222429067
 20
0.2519689677727492
 30
0.0
 10
46.92768304965574
 20
0.0999207669863133
 30
0.0
 10
46.87032975221287
 20
0.0498371440620559
 30
0.0
 10
46.75284744639808
 20
-0.042926981949492
 30
0.0
 10
46.69259762145536
 20
-0.0858834131382691
 30
0.0
 10
46.63093485845447
 20
-0.1256315886861881
 30
0.0
  0
SPLINE
  5
EE
330
1F
100
AcDbEntity
  8
0
  6
Continuous
 62
     1
370
    15
100
AcDbSpline
210
0.0
220
0.0
230
1.0
 70
     8
 71
     3
 72
     8
 73
     4
 74
     0
 42
0.000000001
 43
0.00000001
 40
0.0
 40
0.0
 40
0.0
 40
0.0
 40
1.0
 40
1.0
 40
1.0
 40
1.0
 10
48.09999999999999
 20
-1.141102845938064
 30
0.0
 10
47.61232526839262
 20
-0.8078837043871857
 30
0.0
 10
47.12256731793491
 20
-0.469211166924195
 30
0.0
 10
46.63093485845447
 20
-0.1256315886861792
 30
0.0
  0
LINE
  5
EF
330
1F
100
AcDbEntity
  8
0
  6
Continuous
 62
     1
370
    15
100
AcDbLine
 10
48.09999999999999
 20
-1.738631853122201
 30
0.0
 11
48.09999999999999
 21
-1.141102845938064
 31
0.0
  0
LINE
  5
F0
330
1F
100
AcDbEntity
  8
0
  6
Continuous
 62
     1
370
    15
100
AcDbLine
 10
48.09999999999999
 20
-0.8660254037844334
 30
0.0
 11
48.09999999999999
 21
1.07072446713333
 31
0.0
  0
LINE
  5
F1
330
1F
100
AcDbEntity
  8
0
  6
Continuous
 62
     1
370
    15
100
AcDbLine
 10
46.63093485845448
 20
-0.1256315886861786
 30
0.0
 11
48.09999999999999
 21
-0.8660254037844334
 31
0.0
  0
SPLINE
  5
F2
330
1F
100
AcDbEntity
  8
0
  6
Continuous
 62
     1
370
    15
100
AcDbSpline
210
0.0
220
0.0
230
1.0
 70
     8
 71
     3
 72
    14
 73
    10
 74
     0
 42
0.000000001
 43
0.00000001
 40
0.0
 40
0.0
 40
0.0
 40
0.0
 40
0.25
 40
0.25
 40
0.5
 40
0.5
 40
0.75
 40
0.75
 40
1.0
 40
1.0
 40
1.0
 40
1.0
 10
48.09999999999999
 20
1.070724467133458
 30
0.0
 10
48.09999999999995
 20
1.117391287396621
 30
0.0
 10
48.08377157645397
 20
1.153217962024024
 30
0.0
 10
48.01849687992095
 20
1.197280667807817
 30
0.0
 10
47.96984704382257
 20
1.204731666895362
 30
0.0
 10
47.85281799962338
 20
1.192178569066113
 30
0.0
 10
47.78412305568031
 20
1.172333725590194
 30
0.0
 10
47.63953102376963
 20
1.112612424259157
 30
0.0
 10
47.56363746788551
 20
1.072924728720348
 30
0.0
 10
47.48767641168728
 20
1.026448284697367
 30
0.0
  0
LINE
  5
F4
330
1F
100
AcDbEntity
  8
0
  6
Continuous
 62
     1
370
    15
100
AcDbLine
 10
9.999999999999998
 20
-1.346829467246895
 30
0.0
 11
9.999999999999998
 21
0.262715549904954
 31
0.0
  0
LINE
  5
F5
330
1F
100
AcDbEntity
  8
0
  6
Continuous
 62
     1
370
    15
100
AcDbLine
 10
9.999999999999998
 20
-4.629497705083884
 30
0.0
 11
9.999999999999998
 21
-3.986808090135937
 31
0.0
  0
LINE
  5
F7
330
1F
100
AcDbEntity
  8
0
  6
Continuous
 62
     1
370
    15
100
AcDbLine
 10
9.999999999999998
 20
3.282668237836968
 30
0.0
 11
9.999999999999998
 21
4.249523640040914
 31
0.0
  0
LINE
  5
F8
330
1F
100
AcDbEntity
  8
0
  6
Continuous
 62
     1
370
    15
100
AcDbLine
 10
48.09999999999999
 20
1.07072446713333
 30
0.0
 11
48.09999999999999
 21
2.250919584899808
 31
0.0
  0
LINE
  5
F9
330
1F
100
AcDbEntity
  8
0
  6
Continuous
 62
     1
370
    15
100
AcDbLine
 10
48.09999999999999
 20
-2.802775274702214
 30
0.0
 11
48.09999999999999
 21
-1.738631853122201
 31
0.0
  0
SPLINE
  5
FA
330
1F
100
AcDbEntity
  8
0
  6
Continuous
 62
     1
370
    15
100
AcDbSpline
210
0.0
220
0.0
230
1.0
 70
     8
 71
     3
 72
    14
 73
    10
 74
     0
 42
0.000000001
 43
0.00000001
 40
0.0
 40
0.0
 40
0.0
 40
0.0
 40
0.25
 40
0.25
 40
0.5
 40
0.5
 40
0.75
 40
0.75
 40
1.0
 40
1.0
 40
1.0
 40
1.0
 10
48.09999999999999
 20
-2.802775274702341
 30
0.0
 10
48.09999999999997
 20
-2.849442094965662
 30
0.0
 10
48.08377157645386
 20
-2.904950521047402
 30
0.0
 10
48.01849687992053
 20
-3.028178054503505
 30
0.0
 10
47.96984704382191
 20
-3.094631333120068
 30
0.0
 10
47.8528179996222
 20
-3.224010478698177
 30
0.0
 10
47.78412305567888
 20
-3.287478521961549
 30
0.0
 10
47.63953102376766
 20
-3.403117718601917
 30
0.0
 10
47.56363746788337
 20
-3.455473350601824
 30
0.0
 10
47.48767641168491
 20
-3.501122098163201
 30
0.0
  0
LINE
  5
FB
330
1F
100
AcDbEntity
  8
0
  6
Continuous
 62
     1
370
    15
100
AcDbLine
 10
48.09999999999999
 20
-0.8660254037844334
 30
0.0
 11
48.09999999999999
 21
-1.141102845938064
 31
0.0
  0
LINE
  5
FD
330
1F
100
AcDbEntity
  8
0
  6
Continuous
 62
     1
370
    15
100
AcDbLine
 10
48.09999999999999
 20
2.585374663495466
 30
0.0
 11
48.09999999999999
 21
3.873499741835547
 31
0.0
  0
LINE
  5
FE
330
1F
100
AcDbEntity
  8
0
  6
Continuous
 62
     1
370
    15
100
AcDbLine
 10
48.09999999999999
 20
-2.802775274702214
 30
0.0
 11
48.09999999999999
 21
-3.726477509433519
 31
0.0
  0
LINE
  5
FF
330
1F
100
AcDbEntity
  8
0
  6
Continuous
 62
     1
370
    15
100
AcDbLine
 10
48.09999999999999
 20
3.873499741835547
 30
0.0
 11
48.09999999999999
 21
4.381500000000005
 31
0.0
  0
LINE
  5
100
330
1F
100
AcDbEntity
  8
0
  6
Continuous
 62
     1
370
    15
100
AcDbLine
 10
48.09999999999999
 20
-4.000499999999995
 30
0.0
 11
48.09999999999999
 21
-3.989551438021994
 31
0.0
  0
LINE
  5
102
330
1F
100
AcDbEntity
  8
0
  6
Continuous
 62
     8
370
    15
100
AcDbLine
 10
47.33799999999999
 20
-4.762499999999995
 30
0.0
 11
47.33799999999999
 21
-4.751136430038749
 31
0.0
  0
LINE
  5
103
330
1F
100
AcDbEntity
  8
중심선
100
AcDbLine
 10
-56.5
 20
0.0
 30
0.0
 11
51.1
 21
0.0
 31
0.0
  0
CIRCLE
  5
104
330
1F
100
AcDbEntity
  8
외형선
100
AcDbCircle
 10
0.0
 20
0.0
 30
0.0
 40
3.000000000000001
  0
INSERT
  5
105
330
1F
100
AcDbEntity
  8
0
  6
Continuous
 62
     7
100
AcDbBlockReference
 66
     1
  2
블럭10
 10
-16.62936049909349
 20
-51.78679627639981
 30
0.0
  0
ATTRIB
  5
106
330
105
100
AcDbEntity
  8
FORMAT
 62
     2
100
AcDbText
 10
-27.68038085127795
 20
-49.71142936356761
 30
0.0
 40
4.233333333333333
  1
GMG23911[ 6 FLUTE ]
 41
0.75
  7
SLDTEXTSTYLE0
 11
-27.68038085127795
 21
-51.82809603023428
 31
0.0
100
AcDbAttribute
  2
AUTOATTR0
 70
     0
 74
     1
  0
SEQEND
  5
107
330
105
100
AcDbEntity
  8
0
  6
Continuous
 62
     7
  0
HATCH
  5
108
330
1F
100
AcDbEntity
  8
중심선
100
AcDbHatch
 10
0.0
 20
0.0
 30
0.0
210
0.0
220
0.0
230
1.0
  2
SOLID
 70
     1
 71
     0
 91
        1
 92
        0
 93
        4
 72
     1
 10
-10.91445119471263
 20
-35.53962197475587
 11
-14.36072643854992
 21
-35.53962197475587
 72
     1
 10
-14.36072643854992
 20
-35.53962197475587
 11
-16.48895629775394
 21
-38.07594755532847
 72
     1
 10
-16.48895629775394
 20
-38.07594755532847
 11
-13.04264796880351
 21
-38.07590812602598
 72
     1
 10
-13.04264796880351
 20
-38.07590812602598
 11
-10.91445119471263
 21
-35.53962197475587
 97
        0
 75
     0
 76
     1
 98
        1
 10
0.0004859200744764
 20
0.2622744311706929
  0
HATCH
  5
109
330
1F
100
AcDbEntity
  8
중심선
100
AcDbHatch
 10
0.0
 20
0.0
 30
0.0
210
0.0
220
0.0
230
1.0
  2
SOLID
 70
     1
 71
     0
 91
        1
 92
        0
 93
        4
 72
     1
 10
-5.901687203676683
 20
-35.53962197475587
 11
-9.347962447513964
 21
-35.53962197475587
 72
     1
 10
-9.347962447513964
 20
-35.53962197475587
 11
-13.87910045587135
 21
-40.93962197475589
 72
     1
 10
-13.87910045587135
 20
-40.93962197475589
 11
-10.43282521203407
 21
-40.93962197475589
 72
     1
 10
-10.43282521203407
 20
-40.93962197475589
 11
-5.901687203676683
 21
-35.53962197475587
 97
        0
 75
     0
 76
     1
 98
        1
 10
0.0004859200744764
 20
0.2622744311706929
  0
HATCH
  5
10A
330
1F
100
AcDbEntity
  8
중심선
100
AcDbHatch
 10
0.0
 20
0.0
 30
0.0
210
0.0
220
0.0
230
1.0
  2
SOLID
 70
     1
 71
     0
 91
        1
 92
        0
 93
        4
 72
     1
 10
-0.8889232126407867
 20
-35.5396219747559
 11
-4.335198456477903
 21
-35.53962197475587
 72
     1
 10
-4.335198456477903
 20
-35.53962197475587
 11
-11.38363535836715
 21
-43.93962197475589
 72
     1
 10
-11.38363535836715
 20
-43.93962197475589
 11
-7.937360114529869
 21
-43.93962197475589
 72
     1
 10
-7.937360114529869
 20
-43.93962197475589
 11
-0.8889232126407869
 21
-35.5396219747559
 97
        0
 75
     0
 76
     1
 98
        1
 10
0.0004859200744764
 20
0.2622744311706929
  0
HATCH
  5
10B
330
1F
100
AcDbEntity
  8
중심선
100
AcDbHatch
 10
0.0
 20
0.0
 30
0.0
210
0.0
220
0.0
230
1.0
  2
SOLID
 70
     1
 71
     0
 91
        1
 92
        0
 93
        6
 72
     3
 10
3.910967218371413
 20
-39.73962197480715
 11
3.960054785062283
 21
1.540882976769353E-10
 40
0.3939339440162628
 50
17.09539180608436
 51
320.0019657685081
 73
     0
 72
     1
 10
5.593966874072008
 20
-38.32751597939418
 11
7.899268747773046
 21
-36.39318926934625
 72
     3
 10
3.910967218318566
 20
-39.73962197475602
 11
6.600054785286829
 21
-1.278976924368180E-13
 40
0.636358354079598
 50
39.99873849337411
 51
368.4976242363724
 73
     1
 72
     1
 10
10.33629971021917
 20
-38.7796219746859
 11
2.591034525154488
 21
-38.77962197468587
 72
     1
 10
2.591034525154488
 20
-38.77962197468587
 11
2.591009480708554
 21
-40.69962197468579
 72
     1
 10
2.591009480708554
 20
-40.69962197468579
 11
7.032389250180591
 21
-40.69962197468576
 97
        0
 75
     0
 76
     1
 98
        1
 10
0.0004859200744764
 20
0.2622744311706929
  0
POINT
  5
10C
330
1F
100
AcDbEntity
  8
치수문자_일반주서
100
AcDbPoint
 10
0.0
 20
0.0
 30
0.0
  0
DIMENSION
  5
10D
330
1F
100
AcDbEntity
  8
치수문자_일반주서
100
AcDbDimension
  2
_D
 10
66.74524571577294
 20
4.762500000000079
 30
0.0
 11
66.74524571577295
 21
-0.4965537846535155
 31
0.0
 70
   160
  1
%%c<>
 71
     2
 42
9.525
 52
-270.0
  3
SLDDIMSTYLE0
100
AcDbAlignedDimension
 13
47.33800000000001
 23
-4.762499999999994
 33
0.0
 14
47.33799999999999
 24
4.762500000000006
 34
0.0
 50
90.0000000000002
100
AcDbRotatedDimension
1001
ACAD
1000
DSTYLE
1002
{
1070
   171
1070
     3
1070
   273
1070
     7
1002
}
  0
DIMENSION
  5
122
330
1F
100
AcDbEntity
  8
치수문자_일반주서
100
AcDbDimension
  2
_D_1
 10
48.09999999999999
 20
37.41805141807179
 30
0.0
 11
-2.700000000000003
 21
37.41805141807179
 31
0.0
 70
   160
  1
<>
 71
     2
 42
101.6
  3
SLDDIMSTYLE1
100
AcDbAlignedDimension
 13
-53.5
 23
4.262499999999998
 33
0.0
 14
48.09999999999999
 24
4.000500000000006
 34
0.0
100
AcDbRotatedDimension
1001
ACAD
1000
DSTYLE
1002
{
1070
   171
1070
     3
1070
   273
1070
     7
1002
}
  0
DIMENSION
  5
136
330
1F
100
AcDbEntity
  8
치수문자_일반주서
100
AcDbDimension
  2
_D_2
 10
9.999999999999996
 20
21.62749453033794
 30
0.0
 11
28.63090169785223
 21
21.62749453033794
 31
0.0
 70
   160
  1
<>
 71
     2
 42
38.09999999999999
  3
SLDDIMSTYLE1
100
AcDbAlignedDimension
 13
48.09999999999999
 23
4.000500000000006
 33
0.0
 14
9.999999999999996
 24
-4.631167405098523
 34
0.0
100
AcDbRotatedDimension
1001
ACAD
1000
DSTYLE
1002
{
1070
   171
1070
     3
1070
   273
1070
     7
1002
}
  0
DIMENSION
  5
149
330
1F
100
AcDbEntity
  8
치수문자_일반주서
100
AcDbDimension
  2
_D_3
 10
-66.49999999999999
 20
-4.762500000000047
 30
0.0
 11
-66.5
 21
0.0000000000000003
 31
0.0
 70
   160
  1
%%c<>
 71
     2
 42
9.525
 52
-270.0
  3
SLDDIMSTYLE0
100
AcDbAlignedDimension
 13
-53.0
 23
4.762500000000002
 33
0.0
 14
-53.0
 24
-4.762499999999998
 34
0.0
 50
90.0000000000002
100
AcDbRotatedDimension
1001
ACAD
1000
DSTYLE
1002
{
1070
   171
1070
     3
1070
   273
1070
     7
1002
}
  0
INSERT
  5
163
330
1F
100
AcDbEntity
  8
외형선
100
AcDbBlockReference
  2
SW_DOWELSYMBOL_0
 10
0.0
 20
0.0
 30
0.0
  0
ARC
  5
189
330
1F
100
AcDbEntity
  8
0
  6
Continuous
 62
     1
370
    15
100
AcDbCircle
 10
47.71899999999999
 20
4.381500000000005
 30
0.0
 40
0.3809999999999999
100
AcDbArc
 50
0.0
 51
90.0
  0
ARC
  5
18A
330
1F
100
AcDbEntity
  8
0
  6
Continuous
 62
     1
370
    15
100
AcDbCircle
 10
47.71899999999999
 20
-4.381500000000005
 30
0.0
 40
0.3809999999999999
100
AcDbArc
 50
270.0
 51
0.0
  0
DIMENSION
  5
18E
330
1F
100
AcDbEntity
  8
치수문자_일반주서
100
AcDbDimension
  2
*D7
 10
47.71899999999999
 20
4.381500000000005
 30
0.0
 11
63.85699563280837
 21
21.9152138290658
 31
0.0
 70
   164
  1
<>
 71
     5
 42
0.3810000000000007
  3
SLDDIMSTYLE1
100
AcDbRadialDimension
 15
47.97701896381674
 25
4.661834111928849
 35
0.0
 40
0.0
1001
ACAD
1000
DSTYLE
1002
{
1070
   171
1070
     3
1070
   273
1070
     2
1002
}
1001
ACAD_DSTYLE_DIMRADIAL_EXTENSION
1070
   387
1070
     1
1070
   388
1040
0.0
1070
   390
1040
1.570796326794897
  0
LINE
  5
1F9
330
1F
100
AcDbEntity
  8
0
  6
Continuous
 62
     4
370
    15
100
AcDbLine
 10
-37.22495000000012
 20
3.492500000000007
 30
0.0
 11
-30.08754999999999
 21
3.492500000000007
 31
0.0
  0
LINE
  5
1FA
330
1F
100
AcDbEntity
  8
0
  6
Continuous
 62
     4
370
    15
100
AcDbLine
 10
-37.22495000000012
 20
3.492500000000007
 30
0.0
 11
-38.4949500000001
 21
4.762499999999989
 31
0.0
  0
LINE
  5
1FB
330
1F
100
AcDbEntity
  8
0
  6
Continuous
 62
     4
370
    15
100
AcDbLine
 10
-30.08754999999999
 20
3.492500000000007
 30
0.0
 11
-28.8175499999999
 21
4.762499999999989
 31
0.0
  0
LINE
  5
1FC
330
1F
100
AcDbEntity
  8
0
  6
Continuous
 62
     4
370
    15
100
AcDbLine
 10
-38.49495000000012
 20
4.762500000000003
 30
0.0
 11
-53.0
 21
4.762500000000002
 31
0.0
  0
ENDSEC
  0
SECTION
  2
OBJECTS
  0
DICTIONARY
  5
C
330
0
100
AcDbDictionary
281
     1
  3
ACAD_GROUP
350
D
  3
ACAD_IMAGE_VARS
350
187
  3
ACAD_LAYOUT
350
1A
  3
ACAD_MLINESTYLE
350
17
  3
ACAD_PLOTSETTINGS
350
19
  3
ACAD_PLOTSTYLENAME
350
E
  3
ACAD_SCALELIST
350
47
  3
APPDATA
350
185
  3
DWGPROPS
350
221
  0
DICTIONARY
  5
1EA
330
2
100
AcDbDictionary
280
     1
281
     1
  3
ACAD_LAYERSTATES
360
1EB
  0
DICTIONARY
  5
21F
330
1F
100
AcDbDictionary
280
     1
281
     1
  3
DIM_BOUNDING_BOXES_V1
360
220
  0
DICTIONARY
  5
D
102
{ACAD_REACTORS
330
C
102
}
330
C
100
AcDbDictionary
281
     1
  0
RASTERVARIABLES
  5
187
102
{ACAD_REACTORS
330
C
102
}
330
C
100
AcDbRasterVariables
 90
        0
 70
     1
 71
     1
 72
     1
  0
DICTIONARY
  5
1A
102
{ACAD_REACTORS
330
C
102
}
330
C
100
AcDbDictionary
281
     1
  3
Layout1
350
1E
  3
Layout2
350
26
  3
Model
350
22
  0
DICTIONARY
  5
17
102
{ACAD_REACTORS
330
C
102
}
330
C
100
AcDbDictionary
281
     1
  3
Standard
350
18
  0
DICTIONARY
  5
19
102
{ACAD_REACTORS
330
C
102
}
330
C
100
AcDbDictionary
281
     1
  0
ACDBDICTIONARYWDFLT
  5
E
102
{ACAD_REACTORS
330
C
102
}
330
C
100
AcDbDictionary
281
     1
  3
Normal
350
F
100
AcDbDictionaryWithDefault
340
F
  0
DICTIONARY
  5
47
102
{ACAD_REACTORS
330
C
102
}
330
C
100
AcDbDictionary
281
     1
  3
A0
350
48
  3
A1
350
49
  3
A2
350
4A
  3
A3
350
4B
  3
A4
350
4C
  3
A5
350
4D
  3
A6
350
4E
  3
A7
350
4F
  3
A8
350
50
  3
A9
350
51
  3
B0
350
52
  3
B1
350
53
  3
B2
350
54
  3
B3
350
55
  3
B4
350
56
  3
B5
350
57
  3
B6
350
58
  3
B7
350
59
  3
B8
350
5A
  3
B9
350
5B
  3
C0
350
5C
  3
C1
350
5D
  3
C2
350
5E
  3
C3
350
5F
  3
C4
350
60
  3
C5
350
61
  3
C6
350
62
  3
C7
350
63
  3
C8
350
64
  3
C9
350
65
  3
D0
350
66
  3
D1
350
67
  3
D2
350
68
  0
DICTIONARY
  5
185
102
{ACAD_REACTORS
330
C
102
}
330
C
100
AcDbDictionary
281
     1
  0
XRECORD
  5
221
102
{ACAD_REACTORS
330
C
102
}
330
C
100
AcDbXrecord
280
     1
  1
DWGPROPS COOKIE
  2

  3

  4

  6

  7

  8
12015018
  9

300
=
301
=
302
=
303
=
304
=
305
=
306
=
307
=
308
=
309
=
 40
0.0
 41
2458236.367187697
 42
2459697.056260486
  1

 90
        0
  0
DICTIONARY
  5
1EB
102
{ACAD_REACTORS
330
1EA
102
}
330
1EA
100
AcDbDictionary
281
     1
  0
DICTIONARY
  5
220
102
{ACAD_REACTORS
330
21F
102
}
330
21F
100
AcDbDictionary
281
     1
  0
LAYOUT
  5
1E
102
{ACAD_REACTORS
330
1A
102
}
330
1A
100
AcDbPlotSettings
  1

  2
none_device
  4

  6

 40
0.0
 41
0.0
 42
0.0
 43
0.0
 44
0.0
 45
0.0
 46
0.0
 47
0.0
 48
0.0
 49
0.0
140
0.0
141
0.0
142
1.0
143
1.0
 70
   688
 72
     1
 73
     0
 74
     5
  7

 75
    16
147
1.0
148
0.0
149
0.0
100
AcDbLayout
  1
Layout1
 70
     1
 71
     1
 10
0.0
 20
0.0
 11
420.0
 21
297.0
 12
0.0
 22
0.0
 32
0.0
 14
1.000000000000000E+20
 24
1.000000000000000E+20
 34
1.000000000000000E+20
 15
-1.000000000000000E+20
 25
-1.000000000000000E+20
 35
-1.000000000000000E+20
146
0.0
 13
0.0
 23
0.0
 33
0.0
 16
1.0
 26
0.0
 36
0.0
 17
0.0
 27
1.0
 37
0.0
 76
     0
330
1B
  0
LAYOUT
  5
26
102
{ACAD_REACTORS
330
1A
102
}
330
1A
100
AcDbPlotSettings
  1

  2
none_device
  4

  6

 40
0.0
 41
0.0
 42
0.0
 43
0.0
 44
0.0
 45
0.0
 46
0.0
 47
0.0
 48
0.0
 49
0.0
140
0.0
141
0.0
142
1.0
143
1.0
 70
   688
 72
     1
 73
     0
 74
     5
  7

 75
    16
147
1.0
148
0.0
149
0.0
100
AcDbLayout
  1
Layout2
 70
     1
 71
     2
 10
0.0
 20
0.0
 11
0.0
 21
0.0
 12
0.0
 22
0.0
 32
0.0
 14
0.0
 24
0.0
 34
0.0
 15
0.0
 25
0.0
 35
0.0
146
0.0
 13
0.0
 23
0.0
 33
0.0
 16
1.0
 26
0.0
 36
0.0
 17
0.0
 27
1.0
 37
0.0
 76
     0
330
23
  0
LAYOUT
  5
22
102
{ACAD_REACTORS
330
1A
102
}
330
1A
100
AcDbPlotSettings
  1

  2
none_device
  4
ANSI_A_(11.00_x_8.50_Inches)
  6

 40
6.35
 41
19.05
 42
6.35000508
 43
19.05000254
 44
279.4
 45
215.9
 46
142.455197130854
 47
91.54042515825547
 48
0.0
 49
0.0
140
0.0
141
0.0
142
0.0750837051803466
143
1.0
 70
  1696
 72
     0
 73
     0
 74
     0
  7

 75
     0
147
0.0235690232323232
148
0.0
149
0.0
100
AcDbLayout
  1
Model
 70
     1
 71
     0
 10
0.0
 20
0.0
 11
420.0
 21
297.0
 12
0.0
 22
0.0
 32
0.0
 14
-70.87500000000004
 24
-49.71142936356761
 34
0.0
 15
73.33800742659953
 25
41.79305141807178
 35
0.0
146
0.0
 13
0.0
 23
0.0
 33
0.0
 16
1.0
 26
0.0
 36
0.0
 17
0.0
 27
1.0
 37
0.0
 76
     0
330
1F
331
29
  0
MLINESTYLE
  5
18
102
{ACAD_REACTORS
330
17
102
}
330
17
100
AcDbMlineStyle
  2
Standard
 70
     0
  3

 62
   256
 51
90.0
 52
90.0
 71
     2
 49
0.5
 62
   256
  6
BYLAYER
 49
-0.5
 62
   256
  6
BYLAYER
  0
ACDBPLACEHOLDER
  5
F
102
{ACAD_REACTORS
330
E
102
}
330
E
  0
SCALE
  5
48
102
{ACAD_REACTORS
330
47
102
}
330
47
100
AcDbScale
 70
     0
300
1:1
140
1.0
141
1.0
290
     1
  0
SCALE
  5
49
102
{ACAD_REACTORS
330
47
102
}
330
47
100
AcDbScale
 70
     0
300
1:2
140
1.0
141
2.0
290
     0
  0
SCALE
  5
4A
102
{ACAD_REACTORS
330
47
102
}
330
47
100
AcDbScale
 70
     0
300
1:4
140
1.0
141
4.0
290
     0
  0
SCALE
  5
4B
102
{ACAD_REACTORS
330
47
102
}
330
47
100
AcDbScale
 70
     0
300
1:5
140
1.0
141
5.0
290
     0
  0
SCALE
  5
4C
102
{ACAD_REACTORS
330
47
102
}
330
47
100
AcDbScale
 70
     0
300
1:8
140
1.0
141
8.0
290
     0
  0
SCALE
  5
4D
102
{ACAD_REACTORS
330
47
102
}
330
47
100
AcDbScale
 70
     0
300
1:10
140
1.0
141
10.0
290
     0
  0
SCALE
  5
4E
102
{ACAD_REACTORS
330
47
102
}
330
47
100
AcDbScale
 70
     0
300
1:16
140
1.0
141
16.0
290
     0
  0
SCALE
  5
4F
102
{ACAD_REACTORS
330
47
102
}
330
47
100
AcDbScale
 70
     0
300
1:20
140
1.0
141
20.0
290
     0
  0
SCALE
  5
50
102
{ACAD_REACTORS
330
47
102
}
330
47
100
AcDbScale
 70
     0
300
1:30
140
1.0
141
30.0
290
     0
  0
SCALE
  5
51
102
{ACAD_REACTORS
330
47
102
}
330
47
100
AcDbScale
 70
     0
300
1:40
140
1.0
141
40.0
290
     0
  0
SCALE
  5
52
102
{ACAD_REACTORS
330
47
102
}
330
47
100
AcDbScale
 70
     0
300
1:50
140
1.0
141
50.0
290
     0
  0
SCALE
  5
53
102
{ACAD_REACTORS
330
47
102
}
330
47
100
AcDbScale
 70
     0
300
1:100
140
1.0
141
100.0
290
     0
  0
SCALE
  5
54
102
{ACAD_REACTORS
330
47
102
}
330
47
100
AcDbScale
 70
     0
300
2:1
140
2.0
141
1.0
290
     0
  0
SCALE
  5
55
102
{ACAD_REACTORS
330
47
102
}
330
47
100
AcDbScale
 70
     0
300
4:1
140
4.0
141
1.0
290
     0
  0
SCALE
  5
56
102
{ACAD_REACTORS
330
47
102
}
330
47
100
AcDbScale
 70
     0
300
8:1
140
8.0
141
1.0
290
     0
  0
SCALE
  5
57
102
{ACAD_REACTORS
330
47
102
}
330
47
100
AcDbScale
 70
     0
300
10:1
140
10.0
141
1.0
290
     0
  0
SCALE
  5
58
102
{ACAD_REACTORS
330
47
102
}
330
47
100
AcDbScale
 70
     0
300
100:1
140
100.0
141
1.0
290
     0
  0
SCALE
  5
59
102
{ACAD_REACTORS
330
47
102
}
330
47
100
AcDbScale
 70
     0
300
1/128" = 1'-0"
140
0.0078125
141
12.0
290
     0
  0
SCALE
  5
5A
102
{ACAD_REACTORS
330
47
102
}
330
47
100
AcDbScale
 70
     0
300
1/64" = 1'-0"
140
0.015625
141
12.0
290
     0
  0
SCALE
  5
5B
102
{ACAD_REACTORS
330
47
102
}
330
47
100
AcDbScale
 70
     0
300
1/32" = 1'-0"
140
0.03125
141
12.0
290
     0
  0
SCALE
  5
5C
102
{ACAD_REACTORS
330
47
102
}
330
47
100
AcDbScale
 70
     0
300
1/16" = 1'-0"
140
0.0625
141
12.0
290
     0
  0
SCALE
  5
5D
102
{ACAD_REACTORS
330
47
102
}
330
47
100
AcDbScale
 70
     0
300
3/32" = 1'-0"
140
0.09375
141
12.0
290
     0
  0
SCALE
  5
5E
102
{ACAD_REACTORS
330
47
102
}
330
47
100
AcDbScale
 70
     0
300
1/8" = 1'-0"
140
0.125
141
12.0
290
     0
  0
SCALE
  5
5F
102
{ACAD_REACTORS
330
47
102
}
330
47
100
AcDbScale
 70
     0
300
3/16" = 1'-0"
140
0.1875
141
12.0
290
     0
  0
SCALE
  5
60
102
{ACAD_REACTORS
330
47
102
}
330
47
100
AcDbScale
 70
     0
300
1/4" = 1'-0"
140
0.25
141
12.0
290
     0
  0
SCALE
  5
61
102
{ACAD_REACTORS
330
47
102
}
330
47
100
AcDbScale
 70
     0
300
3/8" = 1'-0"
140
0.375
141
12.0
290
     0
  0
SCALE
  5
62
102
{ACAD_REACTORS
330
47
102
}
330
47
100
AcDbScale
 70
     0
300
1/2" = 1'-0"
140
0.5
141
12.0
290
     0
  0
SCALE
  5
63
102
{ACAD_REACTORS
330
47
102
}
330
47
100
AcDbScale
 70
     0
300
3/4" = 1'-0"
140
0.75
141
12.0
290
     0
  0
SCALE
  5
64
102
{ACAD_REACTORS
330
47
102
}
330
47
100
AcDbScale
 70
     0
300
1" = 1'-0"
140
1.0
141
12.0
290
     0
  0
SCALE
  5
65
102
{ACAD_REACTORS
330
47
102
}
330
47
100
AcDbScale
 70
     0
300
1-1/2" = 1'-0"
140
1.5
141
12.0
290
     0
  0
SCALE
  5
66
102
{ACAD_REACTORS
330
47
102
}
330
47
100
AcDbScale
 70
     0
300
3" = 1'-0"
140
3.0
141
12.0
290
     0
  0
SCALE
  5
67
102
{ACAD_REACTORS
330
47
102
}
330
47
100
AcDbScale
 70
     0
300
6" = 1'-0"
140
6.0
141
12.0
290
     0
  0
SCALE
  5
68
102
{ACAD_REACTORS
330
47
102
}
330
47
100
AcDbScale
 70
     0
300
1'-0" = 1'-0"
140
12.0
141
12.0
290
     0
  0
ENDSEC
  0
EOF
