  0
SECTION
  2
HEADER
  9
$ACADVER
  1
AC1015
  9
$ACADMAINTVER
 70
     6
  9
$DWGCODEPAGE
  3
ANSI_949
  9
$INSBASE
 10
0.0
 20
0.0
 30
0.0
  9
$EXTMIN
 10
-60.17500000000008
 20
-49.97180738881174
 30
0.0
  9
$EXTMAX
 10
79.73945390772995
 20
41.53267339282768
 30
0.0
  9
$LIMMIN
 10
0.0
 20
0.0
  9
$LIMMAX
 10
420.0
 20
297.0
  9
$ORTHOMODE
 70
     1
  9
$REGENMODE
 70
     1
  9
$FILLMODE
 70
     1
  9
$QTEXTMODE
 70
     0
  9
$MIRRTEXT
 70
     1
  9
$LTSCALE
 40
1.0
  9
$ATTMODE
 70
     1
  9
$TEXTSIZE
 40
3.5
  9
$TRACEWID
 40
1.0
  9
$TEXTSTYLE
  7
Standard
  9
$CLAYER
  8
0
  9
$CELTYPE
  6
ByLayer
  9
$CECOLOR
 62
   256
  9
$CELTSCALE
 40
1.0
  9
$DISPSILH
 70
     0
  9
$DIMSCALE
 40
1.0
  9
$DIMASZ
 40
3.302
  9
$DIMEXO
 40
1.0
  9
$DIMDLI
 40
3.75
  9
$DIMRND
 40
0.0
  9
$DIMDLE
 40
0.0
  9
$DIMEXE
 40
1.0
  9
$DIMTP
 40
0.0
  9
$DIMTM
 40
0.0
  9
$DIMTXT
 40
3.5
  9
$DIMCEN
 40
2.5
  9
$DIMTSZ
 40
0.0
  9
$DIMTOL
 70
     0
  9
$DIMLIM
 70
     0
  9
$DIMTIH
 70
     1
  9
$DIMTOH
 70
     1
  9
$DIMSE1
 70
     0
  9
$DIMSE2
 70
     0
  9
$DIMTAD
 70
     1
  9
$DIMZIN
 70
     0
  9
$DIMBLK
  1

  9
$DIMASO
 70
     1
  9
$DIMSHO
 70
     1
  9
$DIMPOST
  1

  9
$DIMAPOST
  1

  9
$DIMALT
 70
     0
  9
$DIMALTD
 70
     3
  9
$DIMALTF
 40
0.0393700787401575
  9
$DIMLFAC
 40
1.0
  9
$DIMTOFL
 70
     1
  9
$DIMTVP
 40
0.0
  9
$DIMTIX
 70
     0
  9
$DIMSOXD
 70
     0
  9
$DIMSAH
 70
     0
  9
$DIMBLK1
  1

  9
$DIMBLK2
  1

  9
$DIMSTYLE
  2
ISO-25
  9
$DIMCLRD
 70
     0
  9
$DIMCLRE
 70
     0
  9
$DIMCLRT
 70
     0
  9
$DIMTFAC
 40
1.0
  9
$DIMGAP
 40
1.524
  9
$DIMJUST
 70
     0
  9
$DIMSD1
 70
     0
  9
$DIMSD2
 70
     0
  9
$DIMTOLJ
 70
     0
  9
$DIMTZIN
 70
     0
  9
$DIMALTZ
 70
     0
  9
$DIMALTTZ
 70
     0
  9
$DIMUPT
 70
     0
  9
$DIMDEC
 70
     2
  9
$DIMTDEC
 70
     2
  9
$DIMALTU
 70
     2
  9
$DIMALTTD
 70
     3
  9
$DIMTXSTY
  7
Standard
  9
$DIMAUNIT
 70
     0
  9
$DIMADEC
 70
     2
  9
$DIMALTRND
 40
0.0
  9
$DIMAZIN
 70
     0
  9
$DIMDSEP
 70
    44
  9
$DIMATFIT
 70
     3
  9
$DIMFRAC
 70
     0
  9
$DIMLDRBLK
  1

  9
$DIMLUNIT
 70
     2
  9
$DIMLWD
 70
    -2
  9
$DIMLWE
 70
    -2
  9
$DIMTMOVE
 70
     0
  9
$LUNITS
 70
     2
  9
$LUPREC
 70
     2
  9
$SKETCHINC
 40
1.0
  9
$FILLETRAD
 40
10.0
  9
$AUNITS
 70
     0
  9
$AUPREC
 70
     2
  9
$MENU
  1
.
  9
$ELEVATION
 40
0.0
  9
$PELEVATION
 40
0.0
  9
$THICKNESS
 40
0.0
  9
$LIMCHECK
 70
     0
  9
$CHAMFERA
 40
0.0
  9
$CHAMFERB
 40
0.0
  9
$CHAMFERC
 40
0.0
  9
$CHAMFERD
 40
0.0
  9
$SKPOLY
 70
     0
  9
$TDCREATE
 40
2458236.742821204
  9
$TDUCREATE
 40
2458236.367821204
  9
$TDUPDATE
 40
2459697.432100463
  9
$TDUUPDATE
 40
2459697.057100463
  9
$TDINDWG
 40
0.0045027546
  9
$TDUSRTIMER
 40
0.0001166204
  9
$USRTIMER
 70
     1
  9
$ANGBASE
 50
0.0
  9
$ANGDIR
 70
     0
  9
$PDMODE
 70
     0
  9
$PDSIZE
 40
-1.0
  9
$PLINEWID
 40
0.0
  9
$SPLFRAME
 70
     0
  9
$SPLINETYPE
 70
     6
  9
$SPLINESEGS
 70
     8
  9
$HANDSEED
  5
22C
  9
$SURFTAB1
 70
     6
  9
$SURFTAB2
 70
     6
  9
$SURFTYPE
 70
     6
  9
$SURFU
 70
     6
  9
$SURFV
 70
     6
  9
$UCSBASE
  2

  9
$UCSNAME
  2

  9
$UCSORG
 10
0.0
 20
0.0
 30
0.0
  9
$UCSXDIR
 10
1.0
 20
0.0
 30
0.0
  9
$UCSYDIR
 10
0.0
 20
1.0
 30
0.0
  9
$UCSORTHOREF
  2

  9
$UCSORTHOVIEW
 70
     0
  9
$UCSORGTOP
 10
0.0
 20
0.0
 30
0.0
  9
$UCSORGBOTTOM
 10
0.0
 20
0.0
 30
0.0
  9
$UCSORGLEFT
 10
0.0
 20
0.0
 30
0.0
  9
$UCSORGRIGHT
 10
0.0
 20
0.0
 30
0.0
  9
$UCSORGFRONT
 10
0.0
 20
0.0
 30
0.0
  9
$UCSORGBACK
 10
0.0
 20
0.0
 30
0.0
  9
$PUCSBASE
  2

  9
$PUCSNAME
  2

  9
$PUCSORG
 10
0.0
 20
0.0
 30
0.0
  9
$PUCSXDIR
 10
1.0
 20
0.0
 30
0.0
  9
$PUCSYDIR
 10
0.0
 20
1.0
 30
0.0
  9
$PUCSORTHOREF
  2

  9
$PUCSORTHOVIEW
 70
     0
  9
$PUCSORGTOP
 10
0.0
 20
0.0
 30
0.0
  9
$PUCSORGBOTTOM
 10
0.0
 20
0.0
 30
0.0
  9
$PUCSORGLEFT
 10
0.0
 20
0.0
 30
0.0
  9
$PUCSORGRIGHT
 10
0.0
 20
0.0
 30
0.0
  9
$PUCSORGFRONT
 10
0.0
 20
0.0
 30
0.0
  9
$PUCSORGBACK
 10
0.0
 20
0.0
 30
0.0
  9
$USERI1
 70
     0
  9
$USERI2
 70
     0
  9
$USERI3
 70
     0
  9
$USERI4
 70
     0
  9
$USERI5
 70
     0
  9
$USERR1
 40
0.0
  9
$USERR2
 40
0.0
  9
$USERR3
 40
0.0
  9
$USERR4
 40
0.0
  9
$USERR5
 40
0.0
  9
$WORLDVIEW
 70
     1
  9
$SHADEDGE
 70
     3
  9
$SHADEDIF
 70
    70
  9
$TILEMODE
 70
     1
  9
$MAXACTVP
 70
    64
  9
$PINSBASE
 10
0.0
 20
0.0
 30
0.0
  9
$PLIMCHECK
 70
     0
  9
$PEXTMIN
 10
1.000000000000000E+20
 20
1.000000000000000E+20
 30
1.000000000000000E+20
  9
$PEXTMAX
 10
-1.000000000000000E+20
 20
-1.000000000000000E+20
 30
-1.000000000000000E+20
  9
$PLIMMIN
 10
0.0
 20
0.0
  9
$PLIMMAX
 10
0.0
 20
0.0
  9
$UNITMODE
 70
     0
  9
$VISRETAIN
 70
     1
  9
$PLINEGEN
 70
     0
  9
$PSLTSCALE
 70
     1
  9
$TREEDEPTH
 70
  3020
  9
$CMLSTYLE
  2
Standard
  9
$CMLJUST
 70
     0
  9
$CMLSCALE
 40
20.0
  9
$PROXYGRAPHICS
 70
     1
  9
$MEASUREMENT
 70
     1
  9
$CELWEIGHT
370
    -1
  9
$ENDCAPS
280
     0
  9
$JOINSTYLE
280
     0
  9
$LWDISPLAY
290
     1
  9
$INSUNITS
 70
     4
  9
$HYPERLINKBASE
  1

  9
$STYLESHEET
  1

  9
$XEDIT
290
     1
  9
$CEPSNTYPE
380
     0
  9
$PSTYLEMODE
290
     1
  9
$FINGERPRINTGUID
  2
{6A7FF082-CDD7-4B3B-A97D-A60FB05712F3}
  9
$VERSIONGUID
  2
{FAEB1C32-E019-11D5-929B-00C0DF256EC4}
  9
$EXTNAMES
290
     1
  9
$PSVPSCALE
 40
0.0
  9
$OLESTARTUP
290
     0
  0
ENDSEC
  0
SECTION
  2
CLASSES
  0
CLASS
  1
ACDBDICTIONARYWDFLT
  2
AcDbDictionaryWithDefault
  3
ObjectDBX Classes
 90
        0
280
     0
281
     0
  0
CLASS
  1
VISUALSTYLE
  2
AcDbVisualStyle
  3
ObjectDBX Classes
 90
     4095
280
     0
281
     0
  0
CLASS
  1
MATERIAL
  2
AcDbMaterial
  3
ObjectDBX Classes
 90
     1153
280
     0
281
     0
  0
CLASS
  1
SCALE
  2
AcDbScale
  3
ObjectDBX Classes
 90
     1153
280
     0
281
     0
  0
CLASS
  1
SUN
  2
AcDbSun
  3
SCENEOE
 90
     1153
280
     0
281
     0
  0
CLASS
  1
ACDBPLACEHOLDER
  2
AcDbPlaceHolder
  3
ObjectDBX Classes
 90
        0
280
     0
281
     0
  0
CLASS
  1
LAYOUT
  2
AcDbLayout
  3
ObjectDBX Classes
 90
        0
280
     0
281
     0
  0
CLASS
  1
TABLESTYLE
  2
AcDbTableStyle
  3
ObjectDBX Classes
 90
     4095
280
     0
281
     0
  0
CLASS
  1
MLEADERSTYLE
  2
AcDbMLeaderStyle
  3
ACDB_MLEADERSTYLE_CLASS
 90
     4095
280
     0
281
     0
  0
CLASS
  1
RASTERVARIABLES
  2
AcDbRasterVariables
  3
ISM
 90
        0
280
     0
281
     0
  0
CLASS
  1
DIMASSOC
  2
AcDbDimAssoc
  3
"AcDbDimAssoc|Product Desc:     AcDim ARX App For Dimension|Company:          Autodesk, Inc.|WEB Address:      www.autodesk.com"
 90
        0
280
     0
281
     0
  0
ENDSEC
  0
SECTION
  2
TABLES
  0
TABLE
  2
VPORT
  5
8
330
0
100
AcDbSymbolTable
 70
     1
  0
VPORT
  5
29
330
8
100
AcDbSymbolTableRecord
100
AcDbViewportTableRecord
  2
*Active
 70
     0
 10
0.0
 20
0.0
 11
1.0
 21
1.0
 12
9.782226953864935
 22
-4.219566997992032
 13
0.0
 23
0.0
 14
10.0
 24
10.0
 15
10.0
 25
10.0
 16
0.0
 26
0.0
 36
1.0
 17
0.0
 27
0.0
 37
0.0
 40
93.3345703972722
 41
1.898569570871261
 42
50.0
 43
0.0
 44
0.0
 50
0.0
 51
0.0
 71
    16
 72
  2000
 73
     1
 74
     3
 75
     0
 76
     0
 77
     0
 78
     0
281
     0
 65
     1
110
0.0
120
0.0
130
0.0
111
1.0
121
0.0
131
0.0
112
0.0
122
1.0
132
0.0
 79
     0
146
0.0
  0
ENDTAB
  0
TABLE
  2
LTYPE
  5
5
330
0
100
AcDbSymbolTable
 70
     6
  0
LTYPE
  5
14
330
5
100
AcDbSymbolTableRecord
100
AcDbLinetypeTableRecord
  2
ByBlock
 70
     0
  3

 72
    65
 73
     0
 40
0.0
  0
LTYPE
  5
15
330
5
100
AcDbSymbolTableRecord
100
AcDbLinetypeTableRecord
  2
ByLayer
 70
     0
  3

 72
    65
 73
     0
 40
0.0
  0
LTYPE
  5
16
330
5
100
AcDbSymbolTableRecord
100
AcDbLinetypeTableRecord
  2
Continuous
 70
     0
  3
Solid line
 72
    65
 73
     0
 40
0.0
  0
LTYPE
  5
6A
330
5
100
AcDbSymbolTableRecord
100
AcDbLinetypeTableRecord
  2
HIDDEN
 70
     0
  3
Hidden __ __ __ __ __ __ __ __ __ __ __ __ __ __
 72
    65
 73
     2
 40
1.905
 49
1.27
 74
     0
 49
-0.635
 74
     0
  0
LTYPE
  5
6B
330
5
100
AcDbSymbolTableRecord
100
AcDbLinetypeTableRecord
  2
PHANTOM
 70
     0
  3
Phantom ______  __  __  ______  __  __  ______
 72
    65
 73
     6
 40
12.7
 49
6.35
 74
     0
 49
-1.27
 74
     0
 49
1.27
 74
     0
 49
-1.27
 74
     0
 49
1.27
 74
     0
 49
-1.27
 74
     0
  0
LTYPE
  5
6C
330
5
100
AcDbSymbolTableRecord
100
AcDbLinetypeTableRecord
  2
CENTER
 70
     0
  3
Center ____ _ ____ _ ____ _ ____ _ ____ _ ____
 72
    65
 73
     4
 40
10.16
 49
6.35
 74
     0
 49
-1.27
 74
     0
 49
1.27
 74
     0
 49
-1.27
 74
     0
  0
LTYPE
  5
6D
330
5
100
AcDbSymbolTableRecord
100
AcDbLinetypeTableRecord
  2
CENTERX2
 70
     0
  3
Center (2x) ________  __  ________  __  _____
 72
    65
 73
     4
 40
20.32
 49
12.7
 74
     0
 49
-2.54
 74
     0
 49
2.54
 74
     0
 49
-2.54
 74
     0
  0
LTYPE
  5
6E
330
5
100
AcDbSymbolTableRecord
100
AcDbLinetypeTableRecord
  2
DOT2
 70
     0
  3
Dot (.5x) ........................................
 72
    65
 73
     2
 40
0.635
 49
0.0
 74
     0
 49
-0.635
 74
     0
  0
ENDTAB
  0
TABLE
  2
LAYER
  5
2
102
{ACAD_XDICTIONARY
360
1F4
102
}
330
0
100
AcDbSymbolTable
 70
    17
  0
LAYER
  5
10
330
2
100
AcDbSymbolTableRecord
100
AcDbLayerTableRecord
  2
0
 70
     0
 62
     7
  6
Continuous
370
    -3
390
F
  0
LAYER
  5
6F
330
2
100
AcDbSymbolTableRecord
100
AcDbLayerTableRecord
  2
FORMAT
 70
     0
 62
     2
  6
Continuous
370
    -3
390
F
  0
LAYER
  5
70
330
2
100
AcDbSymbolTableRecord
100
AcDbLayerTableRecord
  2
외형선
 70
     0
 62
   100
  6
Continuous
370
    30
390
F
  0
LAYER
  5
71
330
2
100
AcDbSymbolTableRecord
100
AcDbLayerTableRecord
  2
숨은선
 70
     0
 62
     2
  6
HIDDEN
370
    15
390
F
  0
LAYER
  5
72
330
2
100
AcDbSymbolTableRecord
100
AcDbLayerTableRecord
  2
중심선
 70
     0
 62
     1
  6
CENTERX2
370
    -3
390
F
  0
LAYER
  5
73
330
2
100
AcDbSymbolTableRecord
100
AcDbLayerTableRecord
  2
파단선
 70
     0
 62
     4
  6
Continuous
370
    -3
390
F
  0
LAYER
  5
74
330
2
100
AcDbSymbolTableRecord
100
AcDbLayerTableRecord
  2
해칭선
 70
     0
 62
     4
  6
Continuous
370
    -3
390
F
  0
LAYER
  5
75
330
2
100
AcDbSymbolTableRecord
100
AcDbLayerTableRecord
  2
가는실선
 70
     0
 62
     4
  6
Continuous
370
    -3
390
F
  0
LAYER
  5
76
330
2
100
AcDbSymbolTableRecord
100
AcDbLayerTableRecord
  2
치수_보조선
 70
     0
 62
     4
  6
Continuous
370
    -3
390
F
  0
LAYER
  5
77
330
2
100
AcDbSymbolTableRecord
100
AcDbLayerTableRecord
  2
치수문자_일반주서
 70
     0
 62
     7
  6
Continuous
370
    15
390
F
  0
LAYER
  5
78
330
2
100
AcDbSymbolTableRecord
100
AcDbLayerTableRecord
  2
개별주서
 70
     0
 62
   100
  6
Continuous
370
    30
390
F
  0
LAYER
  5
79
330
2
100
AcDbSymbolTableRecord
100
AcDbLayerTableRecord
  2
중간선
 70
     0
 62
     2
  6
Continuous
370
    15
390
F
  0
LAYER
  5
7A
330
2
100
AcDbSymbolTableRecord
100
AcDbLayerTableRecord
  2
윤곽선
 70
     0
 62
     3
  6
Continuous
370
    40
390
F
  0
LAYER
  5
7B
330
2
100
AcDbSymbolTableRecord
100
AcDbLayerTableRecord
  2
중심마크
 70
     0
 62
   100
  6
Continuous
370
    30
390
F
  0
LAYER
  5
7C
330
2
100
AcDbSymbolTableRecord
100
AcDbLayerTableRecord
  2
가상선
 70
     0
 62
     4
  6
PHANTOM
370
    -3
390
F
  0
LAYER
  5
7D
330
2
100
AcDbSymbolTableRecord
100
AcDbLayerTableRecord
  2
특수지정선
 70
     0
 62
     5
  6
CENTERX2
370
    60
390
F
  0
LAYER
  5
190
330
2
100
AcDbSymbolTableRecord
100
AcDbLayerTableRecord
  2
Defpoints
 70
     0
 62
     7
  6
Continuous
290
     0
370
    -3
390
F
  0
ENDTAB
  0
TABLE
  2
STYLE
  5
3
330
0
100
AcDbSymbolTable
 70
     2
  0
STYLE
  5
11
330
3
100
AcDbSymbolTableRecord
100
AcDbTextStyleTableRecord
  2
Standard
 70
     0
 40
0.0
 41
1.0
 50
0.0
 71
     0
 42
3.5
  3
txt
  4

  0
STYLE
  5
93
330
3
100
AcDbSymbolTableRecord
100
AcDbTextStyleTableRecord
  2
SLDTEXTSTYLE0
 70
     0
 40
0.0
 41
0.75
 50
0.0
 71
     0
 42
3.5
  3
TXT
  4

  0
ENDTAB
  0
TABLE
  2
VIEW
  5
6
330
0
100
AcDbSymbolTable
 70
     0
  0
ENDTAB
  0
TABLE
  2
UCS
  5
7
330
0
100
AcDbSymbolTable
 70
     0
  0
ENDTAB
  0
TABLE
  2
APPID
  5
9
330
0
100
AcDbSymbolTable
 70
     2
  0
APPID
  5
12
330
9
100
AcDbSymbolTableRecord
100
AcDbRegAppTableRecord
  2
ACAD
 70
     0
  0
APPID
  5
196
330
9
100
AcDbSymbolTableRecord
100
AcDbRegAppTableRecord
  2
ACAD_DSTYLE_DIMRADIAL_EXTENSION
 70
     0
  0
ENDTAB
  0
TABLE
  2
DIMSTYLE
  5
A
330
0
100
AcDbSymbolTable
 70
     3
100
AcDbDimStyleTable
  0
DIMSTYLE
105
27
330
A
100
AcDbSymbolTableRecord
100
AcDbDimStyleTableRecord
  2
ISO-25
 70
     0
 41
2.5
 42
0.625
 43
3.75
 44
1.25
 73
     0
 74
     0
 77
     1
 78
     8
140
2.5
141
2.5
143
0.03937007874016
147
0.625
171
     3
172
     1
178
     0
271
     2
272
     2
274
     3
278
    44
283
     0
284
     8
340
11
  0
DIMSTYLE
105
116
102
{ACAD_REACTORS
330
115
330
151
102
}
330
A
100
AcDbSymbolTableRecord
100
AcDbDimStyleTableRecord
  2
SLDDIMSTYLE0
 70
     0
 41
3.302
 44
0.0
 45
0.000000001
 73
     0
 74
     0
 77
     1
 78
    12
 79
     3
140
3.5
143
0.0393700787401575
147
0.875
148
0.000000001
170
     1
172
     1
173
     1
178
     0
271
     2
272
     2
276
     2
284
    12
289
     0
340
93
  0
DIMSTYLE
105
12B
102
{ACAD_REACTORS
330
12A
330
13E
330
197
102
}
330
A
100
AcDbSymbolTableRecord
100
AcDbDimStyleTableRecord
  2
SLDDIMSTYLE1
 70
     0
 41
3.302
 44
0.0
 45
0.000000001
 73
     0
 74
     0
 77
     1
 78
     4
 79
     1
140
3.5
143
0.0393700787401575
147
0.875
148
0.000000001
170
     1
173
     1
178
     0
271
     2
272
     2
276
     2
284
    12
340
93
  0
ENDTAB
  0
TABLE
  2
BLOCK_RECORD
  5
1
330
0
100
AcDbSymbolTable
 70
     8
  0
BLOCK_RECORD
  5
1F
102
{ACAD_XDICTIONARY
360
229
102
}
330
1
100
AcDbSymbolTableRecord
100
AcDbBlockTableRecord
  2
*Model_Space
340
22
  0
BLOCK_RECORD
  5
1B
330
1
100
AcDbSymbolTableRecord
100
AcDbBlockTableRecord
  2
*Paper_Space
340
1E
  0
BLOCK_RECORD
  5
23
330
1
100
AcDbSymbolTableRecord
100
AcDbBlockTableRecord
  2
*Paper_Space0
340
26
  0
BLOCK_RECORD
  5
7E
330
1
100
AcDbSymbolTableRecord
100
AcDbBlockTableRecord
  2
블럭10
340
0
102
{BLKREFS
331
10D
102
}
  0
BLOCK_RECORD
  5
117
330
1
100
AcDbSymbolTableRecord
100
AcDbBlockTableRecord
  2
_D
340
0
  0
BLOCK_RECORD
  5
12C
330
1
100
AcDbSymbolTableRecord
100
AcDbBlockTableRecord
  2
_D_1
340
0
  0
BLOCK_RECORD
  5
13F
330
1
100
AcDbSymbolTableRecord
100
AcDbBlockTableRecord
  2
_D_2
340
0
  0
BLOCK_RECORD
  5
152
330
1
100
AcDbSymbolTableRecord
100
AcDbBlockTableRecord
  2
_D_3
340
0
  0
BLOCK_RECORD
  5
165
330
1
100
AcDbSymbolTableRecord
100
AcDbBlockTableRecord
  2
SW_DOWELSYMBOL_0
340
0
102
{BLKREFS
331
16B
102
}
  0
BLOCK_RECORD
  5
19A
330
1
100
AcDbSymbolTableRecord
100
AcDbBlockTableRecord
  2
*D7
340
0
  0
ENDTAB
  0
ENDSEC
  0
SECTION
  2
BLOCKS
  0
BLOCK
  5
20
330
1F
100
AcDbEntity
  8
0
100
AcDbBlockBegin
  2
*Model_Space
 70
     0
 10
0.0
 20
0.0
 30
0.0
  3
*Model_Space
  1
*Model_Space
  0
ENDBLK
  5
21
330
1F
100
AcDbEntity
  8
0
100
AcDbBlockEnd
  0
BLOCK
  5
1C
330
1B
100
AcDbEntity
 67
     1
  8
0
100
AcDbBlockBegin
  2
*Paper_Space
 70
     0
 10
0.0
 20
0.0
 30
0.0
  3
*Paper_Space
  1
*Paper_Space
  0
ENDBLK
  5
1D
330
1B
100
AcDbEntity
 67
     1
  8
0
100
AcDbBlockEnd
  0
BLOCK
  5
24
330
23
100
AcDbEntity
  8
0
100
AcDbBlockBegin
  2
*Paper_Space0
 70
     0
 10
0.0
 20
0.0
 30
0.0
  3
*Paper_Space0
  1
*Paper_Space0
  0
ENDBLK
  5
25
330
23
100
AcDbEntity
  8
0
100
AcDbBlockEnd
  0
BLOCK
  5
7F
330
7E
100
AcDbEntity
  8
0
100
AcDbBlockBegin
  2
블럭10
 70
     2
 10
0.0
 20
0.0
 30
0.0
  3
블럭10
  1
블럭10
  0
ELLIPSE
  5
81
330
7E
100
AcDbEntity
  8
중심선
100
AcDbEllipse
 10
20.54032771741204
 20
12.0471743016438
 30
0.0
 11
6.600054785286829
 21
-1.261213355974178E-13
 31
0.0
210
0.0
220
0.0
230
1.0
 40
0.636358354079598
 41
0.9219305317359503
 42
6.513795318482858
  0
ELLIPSE
  5
82
330
7E
100
AcDbEntity
  8
중심선
100
AcDbEllipse
 10
20.54032771746488
 20
12.04717430159265
 30
0.0
 11
3.960054785062283
 21
1.540847449632565E-10
 31
0.0
210
0.0
220
0.0
230
1.0
 40
0.3939339440162632
 41
1.131841032648279
 42
5.62031148352944
  0
LINE
  5
83
330
7E
100
AcDbEntity
  8
중심선
100
AcDbLine
 10
2.268634060543552
 20
16.24717430164393
 30
0.0
 11
5.714909304380834
 21
16.24717430164393
 31
0.0
  0
LINE
  5
84
330
7E
100
AcDbEntity
  8
중심선
100
AcDbLine
 10
5.245725140726316
 20
7.84717430164391
 30
0.0
 11
8.692000384563599
 21
7.84717430164391
 31
0.0
  0
LINE
  5
85
330
7E
100
AcDbEntity
  8
중심선
100
AcDbLine
 10
15.74043728645272
 20
16.24717430164393
 30
0.0
 11
8.692000384563599
 21
7.84717430164391
 31
0.0
  0
LINE
  5
86
330
7E
100
AcDbEntity
  8
중심선
100
AcDbLine
 10
0.1404042013395286
 20
13.71084872107135
 30
0.0
 11
3.58671253028996
 21
13.71088815037384
 31
0.0
  0
LINE
  5
87
330
7E
100
AcDbEntity
  8
중심선
100
AcDbLine
 10
2.750260043222114
 20
10.84717430164391
 30
0.0
 11
6.196535287059397
 21
10.84717430164391
 31
0.0
  0
LINE
  5
88
330
7E
100
AcDbEntity
  8
중심선
100
AcDbLine
 10
12.29416204261559
 20
16.24717430164393
 30
0.0
 11
5.245725140726316
 21
7.84717430164391
 31
0.0
  0
LINE
  5
89
330
7E
100
AcDbEntity
  8
중심선
100
AcDbLine
 10
10.72767329541681
 20
16.24717430164393
 30
0.0
 11
6.196535287059397
 21
10.84717430164391
 31
0.0
  0
LINE
  5
8A
330
7E
100
AcDbEntity
  8
중심선
100
AcDbLine
 10
7.28139805157953
 20
16.24717430164393
 30
0.0
 11
2.750260043222114
 21
10.84717430164391
 31
0.0
  0
LINE
  5
8B
330
7E
100
AcDbEntity
  8
중심선
100
AcDbLine
 10
5.714909304380834
 20
16.24717430164393
 30
0.0
 11
3.58671253028996
 21
13.71088815037384
 31
0.0
  0
LINE
  5
8C
330
7E
100
AcDbEntity
  8
중심선
100
AcDbLine
 10
2.268634060543552
 20
16.24717430164393
 30
0.0
 11
0.1404042013395286
 21
13.71084872107135
 31
0.0
  0
LINE
  5
8D
330
7E
100
AcDbEntity
  8
중심선
100
AcDbLine
 10
7.28139805157953
 20
16.24717430164393
 30
0.0
 11
10.72767329541681
 21
16.24717430164393
 31
0.0
  0
LINE
  5
8E
330
7E
100
AcDbEntity
  8
중심선
100
AcDbLine
 10
12.29416204261559
 20
16.24717430164393
 30
0.0
 11
15.74043728645272
 21
16.24717430164393
 31
0.0
  0
LINE
  5
8F
330
7E
100
AcDbEntity
  8
중심선
100
AcDbLine
 10
19.22036997980202
 20
11.08717430171403
 30
0.0
 11
23.66174974927406
 21
11.08717430171406
 31
0.0
  0
LINE
  5
90
330
7E
100
AcDbEntity
  8
중심선
100
AcDbLine
 10
19.22039502424796
 20
13.00717430171391
 30
0.0
 11
19.22036997980202
 21
11.08717430171403
 31
0.0
  0
LINE
  5
91
330
7E
100
AcDbEntity
  8
중심선
100
AcDbLine
 10
19.22039502424796
 20
13.00717430171391
 30
0.0
 11
26.96566020931264
 21
13.00717430171391
 31
0.0
  0
LINE
  5
92
330
7E
100
AcDbEntity
  8
중심선
100
AcDbLine
 10
22.22332737316547
 20
13.45928029700563
 30
0.0
 11
24.52862924686651
 21
15.39360700705356
 31
0.0
  0
ATTDEF
  5
94
330
7E
100
AcDbEntity
  8
FORMAT
 62
     2
100
AcDbText
 10
-11.05102035218446
 20
2.075366912832191
 30
0.0
 40
4.233333333333333
  1
GMG22914[ 6 FLUTE ]
 41
0.75
  7
SLDTEXTSTYLE0
 11
-11.05102035218446
 21
-0.0412997538344756
 31
0.0
100
AcDbAttributeDefinition
  3

  2
AUTOATTR0
 70
     0
 74
     1
  0
ENDBLK
  5
80
330
7E
100
AcDbEntity
  8
0
100
AcDbBlockEnd
  0
BLOCK
  5
118
330
117
100
AcDbEntity
  8
0
100
AcDbBlockBegin
  2
_D
 70
     0
 10
0.0
 20
0.0
 30
0.0
  3
_D
  1
_D
  0
LINE
  5
11A
330
117
100
AcDbEntity
  8
치수문자_일반주서
 62
     0
370
    -2
100
AcDbLine
 10
58.10049999999998
 20
-5.022878025244113
 30
0.0
 11
69.26089501895794
 21
-5.022878025244069
 31
0.0
  0
LINE
  5
11B
330
117
100
AcDbEntity
  8
치수문자_일반주서
 62
     0
370
    -2
100
AcDbLine
 10
58.10049999999998
 20
4.502121974755887
 30
0.0
 11
69.26089501895791
 21
4.502121974755931
 31
0.0
  0
LINE
  5
11C
330
117
100
AcDbEntity
  8
치수문자_일반주서
 62
     0
370
    -2
100
AcDbLine
 10
69.26089501895792
 20
-1.72087802524407
 30
0.0
 11
69.26089501895792
 21
1.200121974755931
 31
0.0
  0
SOLID
  5
11D
330
117
100
AcDbEntity
  8
치수문자_일반주서
 62
     0
100
AcDbTrace
 10
68.7105616856246
 20
-1.720878025244071
 30
0.0
 11
69.81122835229125
 21
-1.720878025244068
 31
0.0
 12
69.26089501895794
 22
-5.022878025244069
 32
0.0
 13
69.26089501895794
 23
-5.022878025244069
 33
0.0
  0
SOLID
  5
11E
330
117
100
AcDbEntity
  8
치수문자_일반주서
 62
     0
100
AcDbTrace
 10
69.81122835229125
 20
1.200121974755933
 30
0.0
 11
68.7105616856246
 21
1.20012197475593
 31
0.0
 12
69.26089501895791
 22
4.502121974755931
 32
0.0
 13
69.26089501895791
 23
4.502121974755931
 33
0.0
  0
MTEXT
  5
11F
330
117
100
AcDbEntity
  8
치수문자_일반주서
 62
     0
100
AcDbMText
 10
64.88589501895792
 20
-0.2603780252441011
 30
0.0
 40
3.5
 41
0.0
 71
     2
 72
     1
  1
\A1;%%c9.53 [3/8]
  7
SLDTEXTSTYLE0
 11
-2.983906501879686E-15
 21
1.0
 31
0.0
 73
     1
 44
1.0
  0
POINT
  5
120
330
117
100
AcDbEntity
  8
Defpoints
 62
     0
100
AcDbPoint
 10
58.03799999999998
 20
-5.022878025244113
 30
0.0
  0
POINT
  5
121
330
117
100
AcDbEntity
  8
Defpoints
 62
     0
100
AcDbPoint
 10
58.03799999999998
 20
4.502121974755887
 30
0.0
  0
POINT
  5
122
330
117
100
AcDbEntity
  8
Defpoints
 62
     0
100
AcDbPoint
 10
69.26089501895791
 20
4.502121974755929
 30
0.0
  0
ENDBLK
  5
119
330
117
100
AcDbEntity
  8
0
100
AcDbBlockEnd
  0
BLOCK
  5
12D
330
12C
100
AcDbEntity
  8
0
100
AcDbBlockBegin
  2
_D_1
 70
     0
 10
0.0
 20
0.0
 30
0.0
  3
_D_1
  1
_D_1
  0
LINE
  5
12F
330
12C
100
AcDbEntity
  8
치수문자_일반주서
 62
     0
370
    -2
100
AcDbLine
 10
-42.80000000000001
 20
4.06462197475588
 30
0.0
 11
-42.80000000000001
 21
37.15767339282767
 31
0.0
  0
LINE
  5
130
330
12C
100
AcDbEntity
  8
치수문자_일반주서
 62
     0
370
    -2
100
AcDbLine
 10
58.79999999999998
 20
3.802621974755888
 30
0.0
 11
58.79999999999998
 21
37.15767339282767
 31
0.0
  0
LINE
  5
131
330
12C
100
AcDbEntity
  8
치수문자_일반주서
 62
     0
370
    -2
100
AcDbLine
 10
-39.49800000000001
 20
37.15767339282767
 30
0.0
 11
55.49799999999998
 21
37.15767339282767
 31
0.0
  0
SOLID
  5
132
330
12C
100
AcDbEntity
  8
치수문자_일반주서
 62
     0
100
AcDbTrace
 10
-39.49800000000001
 20
37.708006726161
 30
0.0
 11
-39.49800000000001
 21
36.60734005949433
 31
0.0
 12
-42.80000000000001
 22
37.15767339282767
 32
0.0
 13
-42.80000000000001
 23
37.15767339282767
 33
0.0
  0
SOLID
  5
133
330
12C
100
AcDbEntity
  8
치수문자_일반주서
 62
     0
100
AcDbTrace
 10
55.49799999999998
 20
36.60734005949433
 30
0.0
 11
55.49799999999998
 21
37.708006726161
 31
0.0
 12
58.79999999999998
 22
37.15767339282767
 32
0.0
 13
58.79999999999998
 23
37.15767339282767
 33
0.0
  0
MTEXT
  5
134
330
12C
100
AcDbEntity
  8
치수문자_일반주서
 62
     0
100
AcDbMText
 10
7.999999999999991
 20
41.53267339282767
 30
0.0
 40
3.5
 41
0.0
 71
     2
 72
     1
  1
\A1;101.60 [4]
  7
SLDTEXTSTYLE0
 73
     1
 44
1.0
  0
POINT
  5
135
330
12C
100
AcDbEntity
  8
Defpoints
 62
     0
100
AcDbPoint
 10
-42.80000000000001
 20
4.00212197475588
 30
0.0
  0
POINT
  5
136
330
12C
100
AcDbEntity
  8
Defpoints
 62
     0
100
AcDbPoint
 10
58.79999999999998
 20
3.740121974755888
 30
0.0
  0
POINT
  5
137
330
12C
100
AcDbEntity
  8
Defpoints
 62
     0
100
AcDbPoint
 10
58.79999999999998
 20
37.15767339282767
 30
0.0
  0
ENDBLK
  5
12E
330
12C
100
AcDbEntity
  8
0
100
AcDbBlockEnd
  0
BLOCK
  5
140
330
13F
100
AcDbEntity
  8
0
100
AcDbBlockBegin
  2
_D_2
 70
     0
 10
0.0
 20
0.0
 30
0.0
  3
_D_2
  1
_D_2
  0
LINE
  5
142
330
13F
100
AcDbEntity
  8
치수문자_일반주서
 62
     0
370
    -2
100
AcDbLine
 10
58.79999999999998
 20
3.802621974755888
 30
0.0
 11
58.79999999999998
 21
21.36711650509383
 31
0.0
  0
LINE
  5
143
330
13F
100
AcDbEntity
  8
치수문자_일반주서
 62
     0
370
    -2
100
AcDbLine
 10
7.999999999999979
 20
-4.960378025244113
 30
0.0
 11
7.999999999999979
 21
21.36711650509383
 31
0.0
  0
LINE
  5
144
330
13F
100
AcDbEntity
  8
치수문자_일반주서
 62
     0
370
    -2
100
AcDbLine
 10
55.49799999999998
 20
21.36711650509383
 30
0.0
 11
11.30199999999998
 21
21.36711650509383
 31
0.0
  0
SOLID
  5
145
330
13F
100
AcDbEntity
  8
치수문자_일반주서
 62
     0
100
AcDbTrace
 10
55.49799999999998
 20
20.81678317176049
 30
0.0
 11
55.49799999999998
 21
21.91744983842716
 31
0.0
 12
58.79999999999998
 22
21.36711650509383
 32
0.0
 13
58.79999999999998
 23
21.36711650509383
 33
0.0
  0
SOLID
  5
146
330
13F
100
AcDbEntity
  8
치수문자_일반주서
 62
     0
100
AcDbTrace
 10
11.30199999999998
 20
21.91744983842716
 30
0.0
 11
11.30199999999998
 21
20.81678317176049
 31
0.0
 12
7.999999999999979
 22
21.36711650509383
 32
0.0
 13
7.999999999999979
 23
21.36711650509383
 33
0.0
  0
MTEXT
  5
147
330
13F
100
AcDbEntity
  8
치수문자_일반주서
 62
     0
100
AcDbMText
 10
32.84120226380295
 20
25.74211650509383
 30
0.0
 40
3.5
 41
0.0
 71
     2
 72
     1
  1
\A1;50.80 [2]
  7
SLDTEXTSTYLE0
 73
     1
 44
1.0
  0
POINT
  5
148
330
13F
100
AcDbEntity
  8
Defpoints
 62
     0
100
AcDbPoint
 10
58.79999999999998
 20
3.740121974755888
 30
0.0
  0
POINT
  5
149
330
13F
100
AcDbEntity
  8
Defpoints
 62
     0
100
AcDbPoint
 10
7.999999999999979
 20
-5.022878025244113
 30
0.0
  0
POINT
  5
14A
330
13F
100
AcDbEntity
  8
Defpoints
 62
     0
100
AcDbPoint
 10
7.999999999999979
 20
21.36711650509383
 30
0.0
  0
ENDBLK
  5
141
330
13F
100
AcDbEntity
  8
0
100
AcDbBlockEnd
  0
BLOCK
  5
153
330
152
100
AcDbEntity
  8
0
100
AcDbBlockBegin
  2
_D_3
 70
     0
 10
0.0
 20
0.0
 30
0.0
  3
_D_3
  1
_D_3
  0
LINE
  5
155
330
152
100
AcDbEntity
  8
치수문자_일반주서
 62
     0
370
    -2
100
AcDbLine
 10
-42.36250000000001
 20
4.502121974755885
 30
0.0
 11
-55.80000000000004
 21
4.502121974755836
 31
0.0
  0
LINE
  5
156
330
152
100
AcDbEntity
  8
치수문자_일반주서
 62
     0
370
    -2
100
AcDbLine
 10
-42.36250000000001
 20
-5.022878025244116
 30
0.0
 11
-55.8
 21
-5.022878025244164
 31
0.0
  0
LINE
  5
157
330
152
100
AcDbEntity
  8
치수문자_일반주서
 62
     0
370
    -2
100
AcDbLine
 10
-55.80000000000003
 20
1.200121974755836
 30
0.0
 11
-55.80000000000002
 21
-1.720878025244165
 31
0.0
  0
SOLID
  5
158
330
152
100
AcDbEntity
  8
치수문자_일반주서
 62
     0
100
AcDbTrace
 10
-55.24966666666669
 20
1.200121974755838
 30
0.0
 11
-56.35033333333336
 21
1.200121974755834
 31
0.0
 12
-55.80000000000004
 22
4.502121974755836
 32
0.0
 13
-55.80000000000004
 23
4.502121974755836
 33
0.0
  0
SOLID
  5
159
330
152
100
AcDbEntity
  8
치수문자_일반주서
 62
     0
100
AcDbTrace
 10
-56.35033333333335
 20
-1.720878025244167
 30
0.0
 11
-55.24966666666668
 21
-1.720878025244163
 31
0.0
 12
-55.8
 22
-5.022878025244164
 32
0.0
 13
-55.8
 23
-5.022878025244164
 33
0.0
  0
MTEXT
  5
15A
330
152
100
AcDbEntity
  8
치수문자_일반주서
 62
     0
100
AcDbMText
 10
-60.17500000000003
 20
-0.2603780252441322
 30
0.0
 40
3.5
 41
0.0
 71
     2
 72
     1
  1
\A1;%%c9.53 [3/8]
  7
SLDTEXTSTYLE0
 11
-3.729883127349606E-15
 21
1.0
 31
0.0
 73
     1
 44
1.0
  0
POINT
  5
15B
330
152
100
AcDbEntity
  8
Defpoints
 62
     0
100
AcDbPoint
 10
-42.30000000000001
 20
4.502121974755885
 30
0.0
  0
POINT
  5
15C
330
152
100
AcDbEntity
  8
Defpoints
 62
     0
100
AcDbPoint
 10
-42.30000000000001
 20
-5.022878025244116
 30
0.0
  0
POINT
  5
15D
330
152
100
AcDbEntity
  8
Defpoints
 62
     0
100
AcDbPoint
 10
-55.8
 20
-5.022878025244166
 30
0.0
  0
ENDBLK
  5
154
330
152
100
AcDbEntity
  8
0
100
AcDbBlockEnd
  0
BLOCK
  5
166
330
165
100
AcDbEntity
  8
0
100
AcDbBlockBegin
  2
SW_DOWELSYMBOL_0
 70
     0
 10
0.0
 20
0.0
 30
0.0
  3
SW_DOWELSYMBOL_0
  1
SW_DOWELSYMBOL_0
  0
CIRCLE
  5
168
330
165
100
AcDbEntity
  8
외형선
 62
     0
100
AcDbCircle
 10
0.0
 20
0.0
 30
0.0
 40
3.000000000000004
  0
HATCH
  5
169
330
165
100
AcDbEntity
  8
0
  6
Continuous
 62
     0
370
    30
100
AcDbHatch
 10
0.0
 20
0.0
 30
0.0
210
0.0
220
0.0
230
1.0
  2
SOLID
 70
     1
 71
     0
 91
        1
 92
        0
 93
        3
 72
     2
 10
0.0
 20
0.0
 40
3.000000000000004
 50
0.0
 51
90.0
 73
     1
 72
     1
 10
0.0
 20
3.000000000000004
 11
0.0
 21
0.0
 72
     1
 10
0.0
 20
0.0
 11
3.000000000000006
 21
0.0
 97
        0
 75
     0
 76
     1
 98
        1
 10
0.0
 20
0.0
  0
HATCH
  5
16A
330
165
100
AcDbEntity
  8
0
  6
Continuous
 62
     0
370
    30
100
AcDbHatch
 10
0.0
 20
0.0
 30
0.0
210
0.0
220
0.0
230
1.0
  2
SOLID
 70
     1
 71
     0
 91
        1
 92
        0
 93
        3
 72
     2
 10
0.0
 20
0.0
 40
3.000000000000004
 50
180.0
 51
270.0000000000007
 73
     1
 72
     1
 10
0.0
 20
-3.000000000000004
 11
0.0
 21
0.0
 72
     1
 10
0.0
 20
0.0
 11
-3.000000000000006
 21
0.0
 97
        0
 75
     0
 76
     1
 98
        1
 10
0.0
 20
0.0
  0
ENDBLK
  5
167
330
165
100
AcDbEntity
  8
0
100
AcDbBlockEnd
  0
BLOCK
  5
19B
330
19A
100
AcDbEntity
  8
0
100
AcDbBlockBegin
  2
*D7
 70
     1
 10
0.0
 20
0.0
 30
0.0
  3
*D7
  1
*D7
  0
LINE
  5
19D
330
19A
100
AcDbEntity
  8
치수문자_일반주서
 62
     0
370
    -2
100
AcDbLine
 10
60.55276629264537
 20
7.123043094367517
 30
0.0
 11
79.73945390772995
 21
34.11612240471042
 31
0.0
  0
MTEXT
  5
19E
330
19A
100
AcDbEntity
  8
치수문자_일반주서
 62
     0
100
AcDbMText
 10
69.48890516050866
 20
24.22588098294319
 30
0.0
 40
3.5
 41
0.0
 71
     5
 72
     1
  1
\A1;R.38 [R0.015]
  7
SLDTEXTSTYLE0
 11
0.5793554962382269
 21
0.8150749713851836
 31
0.0
 73
     1
 44
1.0
  0
SOLID
  5
19F
330
19A
100
AcDbEntity
  8
치수문자_일반주서
 62
     0
100
AcDbTrace
 10
60.1042033667264
 20
7.441881735797288
 30
0.0
 11
61.00132921856435
 21
6.804204452937746
 31
0.0
 12
58.63973444406675
 22
4.431665538853641
 32
0.0
 13
58.63973444406675
 23
4.431665538853641
 33
0.0
  0
LINE
  5
1A0
330
19A
100
AcDbEntity
  8
치수문자_일반주서
 62
     0
100
AcDbLine
 10
58.32899999999998
 20
4.121121974755887
 30
0.0
 11
58.50899999999999
 21
4.121121974755887
 31
0.0
  0
LINE
  5
1A1
330
19A
100
AcDbEntity
  8
치수문자_일반주서
 62
     0
100
AcDbLine
 10
58.41899999999998
 20
4.031121974755887
 30
0.0
 11
58.41899999999998
 21
4.211121974755887
 31
0.0
  0
POINT
  5
1A2
330
19A
100
AcDbEntity
  8
Defpoints
 62
     0
100
AcDbPoint
 10
58.63973444406675
 20
4.431665538853641
 30
0.0
  0
POINT
  5
1A3
330
19A
100
AcDbEntity
  8
Defpoints
 62
     0
100
AcDbPoint
 10
58.41899999999998
 20
4.121121974755887
 30
0.0
  0
ENDBLK
  5
19C
330
19A
100
AcDbEntity
  8
0
100
AcDbBlockEnd
  0
ENDSEC
  0
SECTION
  2
ENTITIES
  0
LINE
  5
95
330
1F
100
AcDbEntity
  8
0
  6
Continuous
 62
     4
370
    15
100
AcDbLine
 10
7.999999999999979
 20
4.502121974755887
 30
0.0
 11
-18.11754999999989
 21
4.502121974755886
 31
0.0
  0
LINE
  5
96
330
1F
100
AcDbEntity
  8
0
  6
Continuous
 62
     4
370
    15
100
AcDbLine
 10
-42.30000000000001
 20
-5.022878025244116
 30
0.0
 11
7.999999999999979
 21
-5.022878025244113
 31
0.0
  0
LINE
  5
97
330
1F
100
AcDbEntity
  8
0
  6
Continuous
 62
     4
370
    15
100
AcDbLine
 10
-42.30000000000001
 20
4.502121974755882
 30
0.0
 11
-42.80000000000001
 21
4.00212197475588
 31
0.0
  0
LINE
  5
98
330
1F
100
AcDbEntity
  8
0
  6
Continuous
 62
     4
370
    15
100
AcDbLine
 10
-42.80000000000001
 20
-4.522878025244113
 30
0.0
 11
-42.30000000000001
 21
-5.022878025244113
 31
0.0
  0
LINE
  5
99
330
1F
100
AcDbEntity
  8
0
  6
Continuous
 62
     1
370
    15
100
AcDbLine
 10
46.76377782863484
 20
-5.022878025244113
 30
0.0
 11
48.39313415532497
 21
-5.022878025244113
 31
0.0
  0
LINE
  5
9A
330
1F
100
AcDbEntity
  8
0
  6
Continuous
 62
     1
370
    15
100
AcDbLine
 10
16.8413502556901
 20
-5.022878025244113
 30
0.0
 11
18.46847450891411
 21
-5.022878025244113
 31
0.0
  0
LINE
  5
9B
330
1F
100
AcDbEntity
  8
0
  6
Continuous
 62
     1
370
    15
100
AcDbLine
 10
33.43183942044944
 20
4.502121974755887
 30
0.0
 11
31.80260250489089
 21
4.502121974755887
 31
0.0
  0
LINE
  5
9C
330
1F
100
AcDbEntity
  8
0
  6
Continuous
 62
     1
370
    15
100
AcDbLine
 10
56.73972848319396
 20
-5.022878025244113
 30
0.0
 11
58.41899999999998
 21
-5.022878025244122
 31
0.0
  0
LINE
  5
9D
330
1F
100
AcDbEntity
  8
0
  6
Continuous
 62
     1
370
    15
100
AcDbLine
 10
26.81638381330415
 20
-5.022878025244113
 30
0.0
 11
28.44339107399352
 21
-5.022878025244113
 31
0.0
  0
LINE
  5
9E
330
1F
100
AcDbEntity
  8
0
  6
Continuous
 62
     1
370
    15
100
AcDbLine
 10
13.48092994399125
 20
4.502121974755887
 30
0.0
 11
11.85437637866336
 21
4.502121974755887
 31
0.0
  0
LINE
  5
9F
330
1F
100
AcDbEntity
  8
0
  6
Continuous
 62
     1
370
    15
100
AcDbLine
 10
43.40669177997782
 20
4.502121974755887
 30
0.0
 11
41.7764567923656
 21
4.502121974755887
 31
0.0
  0
LINE
  5
A0
330
1F
100
AcDbEntity
  8
0
  6
Continuous
 62
     1
370
    15
100
AcDbLine
 10
51.75112994564655
 20
-5.022878025244113
 30
0.0
 11
53.38039072757323
 21
-5.022878025244113
 31
0.0
  0
LINE
  5
A1
330
1F
100
AcDbEntity
  8
0
  6
Continuous
 62
     1
370
    15
100
AcDbLine
 10
21.8286044591051
 20
-5.022878025244113
 30
0.0
 11
23.45631505660441
 21
-5.022878025244113
 31
0.0
  0
LINE
  5
A2
330
1F
100
AcDbEntity
  8
0
  6
Continuous
 62
     1
370
    15
100
AcDbLine
 10
8.494620584046364
 20
4.502121974755887
 30
0.0
 11
7.99999999999998
 21
4.502121974755887
 31
0.0
  0
LINE
  5
A3
330
1F
100
AcDbEntity
  8
0
  6
Continuous
 62
     1
370
    15
100
AcDbLine
 10
38.41854664191624
 20
4.502121974755887
 30
0.0
 11
36.7903910018166
 21
4.502121974755887
 31
0.0
  0
LINE
  5
A4
330
1F
100
AcDbEntity
  8
0
  6
Continuous
 62
     1
370
    15
100
AcDbLine
 10
41.77645679236561
 20
-5.022878025244113
 30
0.0
 11
43.40669177997779
 21
-5.022878025244113
 31
0.0
  0
LINE
  5
A5
330
1F
100
AcDbEntity
  8
0
  6
Continuous
 62
     1
370
    15
100
AcDbLine
 10
11.85437637866334
 20
-5.022878025244113
 30
0.0
 11
13.48092994399121
 21
-5.022878025244113
 31
0.0
  0
LINE
  5
A6
330
1F
100
AcDbEntity
  8
0
  6
Continuous
 62
     1
370
    15
100
AcDbLine
 10
28.44339107399348
 20
4.502121974755887
 30
0.0
 11
26.81638381330412
 21
4.502121974755887
 31
0.0
  0
LINE
  5
A7
330
1F
100
AcDbEntity
  8
0
  6
Continuous
 62
     1
370
    15
100
AcDbLine
 10
58.41899999999998
 20
4.502121974755887
 30
0.0
 11
56.73972848319399
 21
4.502121974755887
 31
0.0
  0
LINE
  5
A8
330
1F
100
AcDbEntity
  8
0
  6
Continuous
 62
     1
370
    15
100
AcDbLine
 10
36.79039100181662
 20
-5.022878025244113
 30
0.0
 11
38.41854664191623
 21
-5.022878025244113
 31
0.0
  0
LINE
  5
A9
330
1F
100
AcDbEntity
  8
0
  6
Continuous
 62
     1
370
    15
100
AcDbLine
 10
7.99999999999998
 20
-5.022878025244113
 30
0.0
 11
8.49462058404634
 21
-5.022878025244113
 31
0.0
  0
LINE
  5
AA
330
1F
100
AcDbEntity
  8
0
  6
Continuous
 62
     1
370
    15
100
AcDbLine
 10
23.45631505660442
 20
4.502121974755887
 30
0.0
 11
21.82860445910514
 21
4.502121974755887
 31
0.0
  0
LINE
  5
AB
330
1F
100
AcDbEntity
  8
0
  6
Continuous
 62
     1
370
    15
100
AcDbLine
 10
53.38039072757321
 20
4.502121974755887
 30
0.0
 11
51.75112994564656
 21
4.502121974755887
 31
0.0
  0
LINE
  5
AC
330
1F
100
AcDbEntity
  8
0
  6
Continuous
 62
     1
370
    15
100
AcDbLine
 10
31.80260250489093
 20
-5.022878025244113
 30
0.0
 11
33.43183942044946
 21
-5.022878025244113
 31
0.0
  0
LINE
  5
AD
330
1F
100
AcDbEntity
  8
0
  6
Continuous
 62
     1
370
    15
100
AcDbLine
 10
18.46847450891417
 20
4.502121974755887
 30
0.0
 11
16.84135025569013
 21
4.502121974755887
 31
0.0
  0
LINE
  5
AE
330
1F
100
AcDbEntity
  8
0
  6
Continuous
 62
     1
370
    15
100
AcDbLine
 10
48.39313415532499
 20
4.502121974755887
 30
0.0
 11
46.76377782863488
 21
4.502121974755887
 31
0.0
  0
LINE
  5
B2
330
1F
100
AcDbEntity
  8
0
  6
Continuous
 62
     1
370
    15
100
AcDbLine
 10
58.7996882769854
 20
-4.282671801946956
 30
0.0
 11
58.79999999999998
 21
-4.260878025244113
 31
0.0
  0
SPLINE
  5
B6
330
1F
100
AcDbEntity
  8
0
  6
Continuous
 62
     4
370
    15
100
AcDbSpline
210
0.0
220
0.0
230
1.0
 70
     8
 71
     3
 72
    12
 73
     8
 74
     0
 42
0.000000001
 43
0.00000001
 40
0.0
 40
0.0
 40
0.0
 40
0.0
 40
0.4999999999999999
 40
0.4999999999999999
 40
0.7499999999999999
 40
0.7499999999999999
 40
1.0
 40
1.0
 40
1.0
 40
1.0
 10
6.796354753932466
 20
-1.051255904855387
 30
0.0
 10
6.662997641039281
 20
-0.9198176383724845
 30
0.0
 10
6.575522601837312
 20
-0.750616503913397
 30
0.0
 10
6.506534977515768
 20
-0.4802195206084476
 30
0.0
 10
6.493421806270714
 20
-0.3866926548818144
 30
0.0
 10
6.480200557563753
 20
-0.200473676272071
 30
0.0
 10
6.480079250343099
 20
-0.1070092493327526
 30
0.0
 10
6.48007925034311
 20
-0.0135535331076129
 30
0.0
  0
SPLINE
  5
B7
330
1F
100
AcDbEntity
  8
0
  6
Continuous
 62
     4
370
    15
100
AcDbSpline
210
0.0
220
0.0
230
1.0
 70
     8
 71
     3
 72
    14
 73
    10
 74
     0
 42
0.000000001
 43
0.00000001
 40
0.0
 40
0.0
 40
0.0
 40
0.0
 40
0.2500000000000001
 40
0.2500000000000001
 40
0.5000000000000001
 40
0.5000000000000001
 40
0.7500000000000002
 40
0.7500000000000002
 40
1.0
 40
1.0
 40
1.0
 40
1.0
 10
6.480079250343111
 20
-0.0135535331076127
 30
0.0
 10
6.480079250343133
 20
0.1897091735463355
 30
0.0
 10
6.483900782815727
 20
0.3929356224386282
 30
0.0
 10
6.599090696797644
 20
0.7794604495717076
 30
0.0
 10
6.708972192077756
 20
0.9541692142826831
 30
0.0
 10
7.02686932156665
 20
1.201140470965219
 30
0.0
 10
7.229248511360513
 20
1.269120826557038
 30
0.0
 10
7.63822845421482
 20
1.268618472738783
 30
0.0
 10
7.840323785950901
 20
1.200559862168035
 30
0.0
 10
7.999999999999881
 20
1.075500160121688
 30
0.0
  0
SPLINE
  5
B8
330
1F
100
AcDbEntity
  8
0
  6
Continuous
 62
     1
370
    15
100
AcDbSpline
210
0.0
220
0.0
230
1.0
 70
    24
 71
     3
 72
     8
 73
     4
 74
     0
 42
0.000000001
 43
0.00000001
 40
0.0
 40
0.0
 40
0.0
 40
0.0
 40
1.0
 40
1.0
 40
1.0
 40
1.0
 10
7.99999999999998
 20
1.075500160121947
 30
0.0
 10
7.99999999999998
 20
0.9960638034962495
 30
0.0
 10
7.99999999999998
 20
0.9095100226559553
 30
0.0
 10
7.99999999999998
 20
0.8148736650508458
 30
0.0
  0
LINE
  5
B9
330
1F
100
AcDbEntity
  8
0
  6
Continuous
 62
     4
370
    15
100
AcDbLine
 10
-42.30000000000001
 20
4.502121974755882
 30
0.0
 11
-42.30000000000001
 21
-5.022878025244116
 31
0.0
  0
SPLINE
  5
BA
330
1F
100
AcDbEntity
  8
0
  6
Continuous
 62
     4
370
    15
100
AcDbSpline
210
0.0
220
0.0
230
1.0
 70
     8
 71
     3
 72
    10
 73
     6
 74
     0
 42
0.000000001
 43
0.00000001
 40
0.0
 40
0.0
 40
0.0
 40
0.0
 40
0.5
 40
0.5
 40
1.0
 40
1.0
 40
1.0
 40
1.0
 10
7.99999999999976
 20
-2.200694514707807
 30
0.0
 10
7.798586033866949
 20
-2.017208159605237
 30
0.0
 10
7.596347197698309
 20
-1.82827330041834
 30
0.0
 10
7.195055842875487
 20
-1.444060018040219
 30
0.0
 10
6.997178352355483
 20
-1.249189896323287
 30
0.0
 10
6.796354753932466
 20
-1.051255904855388
 30
0.0
  0
LINE
  5
BB
330
1F
100
AcDbEntity
  8
0
  6
Continuous
 62
     4
370
    15
100
AcDbLine
 10
7.999999999999982
 20
-2.200694514708005
 30
0.0
 11
7.999999999999979
 21
-3.551305789743469
 31
0.0
  0
SPLINE
  5
BC
330
1F
100
AcDbEntity
  8
0
  6
Continuous
 62
     4
370
    15
100
AcDbSpline
210
0.0
220
0.0
230
1.0
 70
     8
 71
     3
 72
    14
 73
    10
 74
     0
 42
0.000000001
 43
0.00000001
 40
0.0
 40
0.0
 40
0.0
 40
0.0
 40
0.25
 40
0.25
 40
0.5
 40
0.5
 40
0.75
 40
0.75
 40
1.0
 40
1.0
 40
1.0
 40
1.0
 10
6.480079250343111
 20
-4.255868902588806
 30
0.0
 10
6.480079250343135
 20
-4.1451021897674
 30
0.0
 10
6.483900782815725
 20
-4.022714653390528
 30
0.0
 10
6.599090696797646
 20
-3.768986242354154
 30
0.0
 10
6.708972192077759
 20
-3.642731901515365
 30
0.0
 10
7.026869321566654
 20
-3.456633428095801
 30
0.0
 10
7.229248511360517
 20
-3.401589388574734
 30
0.0
 10
7.638228454214822
 20
-3.401988072514356
 30
0.0
 10
7.840323785950902
 20
-3.457125873084461
 30
0.0
 10
7.999999999999881
 20
-3.551305789743645
 30
0.0
  0
SPLINE
  5
BD
330
1F
100
AcDbEntity
  8
0
  6
Continuous
 62
     4
370
    15
100
AcDbSpline
210
0.0
220
0.0
230
1.0
 70
     8
 71
     3
 72
    12
 73
     8
 74
     0
 42
0.000000001
 43
0.00000001
 40
0.0
 40
0.0
 40
0.0
 40
0.0
 40
0.4999999999999998
 40
0.4999999999999998
 40
0.7499999999999999
 40
0.7499999999999999
 40
1.0
 40
1.0
 40
1.0
 40
1.0
 10
6.796354753932466
 20
-4.722995203356505
 30
0.0
 10
6.662997641039279
 20
-4.676445063592528
 30
0.0
 10
6.57552260183731
 20
-4.611015448099837
 30
0.0
 10
6.506534977515768
 20
-4.491090659595327
 30
0.0
 10
6.49342180627071
 20
-4.447318857306986
 30
0.0
 10
6.48020055756375
 20
-4.35533380586079
 30
0.0
 10
6.480079250343101
 20
-4.306796997816096
 30
0.0
 10
6.480079250343111
 20
-4.255868902588805
 30
0.0
  0
SPLINE
  5
BE
330
1F
100
AcDbEntity
  8
0
  6
Continuous
 62
     4
370
    15
100
AcDbSpline
210
0.0
220
0.0
230
1.0
 70
     8
 71
     3
 72
    10
 73
     6
 74
     0
 42
0.000000001
 43
0.00000001
 40
0.0
 40
0.0
 40
0.0
 40
0.0
 40
0.5
 40
0.5
 40
1.0
 40
1.0
 40
1.0
 40
1.0
 10
7.999999999999762
 20
-4.997157252771607
 30
0.0
 10
7.798586033866949
 20
-4.976304191724595
 30
0.0
 10
7.596347197698309
 20
-4.942726854239731
 30
0.0
 10
7.195055842875488
 20
-4.851022123766366
 30
0.0
 10
6.997178352355483
 20
-4.793095450517564
 30
0.0
 10
6.796354753932466
 20
-4.722995203356505
 30
0.0
  0
LINE
  5
BF
330
1F
100
AcDbEntity
  8
0
  6
Continuous
 62
     4
370
    15
100
AcDbLine
 10
7.999999999999982
 20
-4.997157252771626
 30
0.0
 11
7.999999999999979
 21
-5.022878025244113
 31
0.0
  0
LINE
  5
C0
330
1F
100
AcDbEntity
  8
0
  6
Continuous
 62
     1
370
    15
100
AcDbLine
 10
7.999999999999979
 20
4.502121974755887
 30
0.0
 11
7.999999999999979
 21
4.366427924621321
 31
0.0
  0
SPLINE
  5
C1
330
1F
100
AcDbEntity
  8
0
  6
Continuous
 62
     4
370
    15
100
AcDbSpline
210
0.0
220
0.0
230
1.0
 70
     8
 71
     3
 72
    14
 73
    10
 74
     0
 42
0.000000001
 43
0.00000001
 40
0.0
 40
0.0
 40
0.0
 40
0.0
 40
0.2499999999999999
 40
0.2499999999999999
 40
0.4999999999999999
 40
0.4999999999999999
 40
0.7499999999999999
 40
0.7499999999999999
 40
1.0
 40
1.0
 40
1.0
 40
1.0
 10
6.48007925034311
 20
3.98193734423712
 30
0.0
 10
6.480079250343133
 20
4.074433338069663
 30
0.0
 10
6.483900782815727
 20
4.155272250585086
 30
0.0
 10
6.599090696797646
 20
4.288068666681795
 30
0.0
 10
6.708972192077757
 20
4.336523090553981
 30
0.0
 10
7.026869321566652
 20
4.397395873816952
 30
0.0
 10
7.229248511360515
 20
4.410332189887703
 30
0.0
 10
7.63822845421482
 20
4.410228520009069
 30
0.0
 10
7.840323785950902
 20
4.397307710008428
 30
0.0
 10
7.999999999999881
 20
4.366427924621264
 30
0.0
  0
SPLINE
  5
C2
330
1F
100
AcDbEntity
  8
0
  6
Continuous
 62
     4
370
    15
100
AcDbSpline
210
0.0
220
0.0
230
1.0
 70
     8
 71
     3
 72
    12
 73
     8
 74
     0
 42
0.000000001
 43
0.00000001
 40
0.0
 40
0.0
 40
0.0
 40
0.0
 40
0.4999999999999994
 40
0.4999999999999994
 40
0.7499999999999997
 40
0.7499999999999997
 40
1.0
 40
1.0
 40
1.0
 40
1.0
 10
6.796354753932466
 20
3.411361273257032
 30
0.0
 10
6.662997641039279
 20
3.496249399975959
 30
0.0
 10
6.575522601837312
 20
3.600020918942359
 30
0.0
 10
6.506534977515768
 20
3.750493113742802
 30
0.0
 10
6.493421806270712
 20
3.800248177181093
 30
0.0
 10
6.480200557563752
 20
3.894482104344644
 30
0.0
 10
6.480079250343099
 20
3.93940972323927
 30
0.0
 10
6.48007925034311
 20
3.98193734423712
 30
0.0
  0
SPLINE
  5
C3
330
1F
100
AcDbEntity
  8
0
  6
Continuous
 62
     4
370
    15
100
AcDbSpline
210
0.0
220
0.0
230
1.0
 70
     8
 71
     3
 72
    10
 73
     6
 74
     0
 42
0.000000001
 43
0.00000001
 40
0.0
 40
0.0
 40
0.0
 40
0.0
 40
0.5
 40
0.5
 40
1.0
 40
1.0
 40
1.0
 40
1.0
 10
7.99999999999976
 20
2.536084712819701
 30
0.0
 10
7.798586033866949
 20
2.698718006875261
 30
0.0
 10
7.596347197698309
 20
2.854075528577296
 30
0.0
 10
7.195055842875487
 20
3.146584080482056
 30
0.0
 10
6.997178352355483
 20
3.283527528950188
 30
0.0
 10
6.796354753932466
 20
3.41136127325703
 30
0.0
  0
LINE
  5
C4
330
1F
100
AcDbEntity
  8
0
  6
Continuous
 62
     1
370
    15
100
AcDbLine
 10
7.999999999999982
 20
2.536084712819523
 30
0.0
 11
7.999999999999979
 21
1.075500160121923
 31
0.0
  0
LINE
  5
C5
330
1F
100
AcDbEntity
  8
0
  6
Continuous
 62
     4
370
    15
100
AcDbLine
 10
-42.80000000000001
 20
4.00212197475588
 30
0.0
 11
-42.80000000000001
 21
-4.522878025244117
 31
0.0
  0
SPLINE
  5
C6
330
1F
100
AcDbEntity
  8
0
  6
Continuous
 62
     1
370
    15
100
AcDbSpline
210
0.0
220
0.0
230
1.0
 70
    24
 71
     3
 72
    14
 73
    10
 74
     0
 42
0.000000001
 43
0.00000001
 40
0.0
 40
0.0
 40
0.0
 40
0.0
 40
0.2500000000000001
 40
0.2500000000000001
 40
0.5000000000000001
 40
0.5000000000000001
 40
0.7500000000000001
 40
0.7500000000000001
 40
1.0
 40
1.0
 40
1.0
 40
1.0
 10
7.999999999999979
 20
0.814873665051057
 30
0.0
 10
7.999999999999979
 20
0.664541804358936
 30
0.0
 10
7.999999999999979
 20
0.4837415157523423
 30
0.0
 10
7.999999999999979
 20
0.0531408755594922
 30
0.0
 10
7.99999999999998
 20
-0.197389135877837
 30
0.0
 10
7.99999999999998
 20
-0.7509633525193297
 30
0.0
 10
7.99999999999998
 20
-1.054101724925855
 30
0.0
 10
7.99999999999998
 20
-1.653985873010513
 30
0.0
 10
7.999999999999982
 20
-1.949074089579963
 30
0.0
 10
7.999999999999982
 20
-2.200694514708006
 30
0.0
  0
SPLINE
  5
C7
330
1F
100
AcDbEntity
  8
0
  6
Continuous
 62
     1
370
    15
100
AcDbSpline
210
0.0
220
0.0
230
1.0
 70
    24
 71
     3
 72
    11
 73
     7
 74
     0
 42
0.000000001
 43
0.00000001
 40
0.0
 40
0.0
 40
0.0
 40
0.0
 40
0.2376606677575384
 40
0.5457188510161487
 40
0.8537770342747584
 40
1.0
 40
1.0
 40
1.0
 40
1.0
 10
7.999999999999977
 20
4.01809826386399
 30
0.0
 10
7.999999999999977
 20
3.831249132282426
 30
0.0
 10
7.999999999999979
 20
3.402204249247408
 30
0.0
 10
7.999999999999979
 20
2.892530857218151
 30
0.0
 10
7.999999999999982
 20
2.573267075263199
 30
0.0
 10
7.999999999999982
 20
2.553824989602691
 30
0.0
 10
7.999999999999982
 20
2.547567016029447
 30
0.0
  0
SPLINE
  5
C8
330
1F
100
AcDbEntity
  8
0
  6
Continuous
 62
     4
370
    15
100
AcDbSpline
210
0.0
220
0.0
230
1.0
 70
    24
 71
     3
 72
    12
 73
     8
 74
     0
 42
0.000000001
 43
0.00000001
 40
0.0
 40
0.0
 40
0.0
 40
0.0
 40
0.0624622312003925
 40
0.3468814910615579
 40
0.6313007509227225
 40
0.915720010783888
 40
1.0
 40
1.0
 40
1.0
 40
1.0
 10
7.999999999999979
 20
-3.453738828758108
 30
0.0
 10
7.999999999999979
 20
-3.451078390363511
 30
0.0
 10
7.999999999999979
 20
-3.436303752643082
 30
0.0
 10
7.99999999999998
 20
-3.637074680831144
 30
0.0
 10
7.999999999999982
 20
-4.093171128212536
 30
0.0
 10
7.999999999999982
 20
-4.60338429549736
 30
0.0
 10
7.999999999999982
 20
-4.923893010644978
 30
0.0
 10
7.999999999999982
 20
-4.997157252771626
 30
0.0
  0
SPLINE
  5
C9
330
1F
100
AcDbEntity
  8
0
  6
Continuous
 62
     1
370
    15
100
AcDbSpline
210
0.0
220
0.0
230
1.0
 70
    24
 71
     3
 72
     8
 73
     4
 74
     0
 42
0.000000001
 43
0.00000001
 40
0.0
 40
0.0
 40
0.0
 40
0.0
 40
1.0
 40
1.0
 40
1.0
 40
1.0
 10
7.99999999999998
 20
4.366427924621406
 30
0.0
 10
7.99999999999998
 20
4.24736779845904
 30
0.0
 10
7.99999999999998
 20
4.131130323750682
 30
0.0
 10
7.99999999999998
 20
4.018098263863598
 30
0.0
  0
SPLINE
  5
CA
330
1F
100
AcDbEntity
  8
0
  6
Continuous
 62
     1
370
    15
100
AcDbSpline
210
0.0
220
0.0
230
1.0
 70
     8
 71
     3
 72
    24
 73
    20
 74
     0
 42
0.000000001
 43
0.00000001
 40
0.0
 40
0.0
 40
0.0
 40
0.0
 40
0.0305378840487218
 40
0.0908686364073776
 40
0.1513094559960425
 40
0.2116373730441348
 40
0.271917563597142
 40
0.3374037812364117
 40
0.4029736081068871
 40
0.4684952515306631
 40
0.5339519190913629
 40
0.5993959478098938
 40
0.6648798501775205
 40
0.7304479268296101
 40
0.7959727468135843
 40
0.8614307917871663
 40
0.9268743796607913
 40
0.9923560290499605
 40
1.0
 40
1.0
 40
1.0
 40
1.0
 10
8.494620584046354
 20
4.475714907066868
 30
0.0
 10
8.663902105170306
 20
4.480667664673374
 30
0.0
 10
9.167616801609599
 20
4.495405107825675
 30
0.0
 10
10.00654319662419
 20
4.290492146829481
 30
0.0
 10
11.01238182522678
 20
3.885023604489408
 30
0.0
 10
12.01618802629936
 20
3.284405653607893
 30
0.0
 10
13.04759331608897
 20
2.508353080632734
 30
0.0
 10
14.10895143560217
 20
1.573556723179237
 30
0.0
 10
15.20035780545367
 20
0.5187511461475012
 30
0.0
 10
16.29091327479765
 20
-0.5772823961609799
 30
0.0
 10
17.38014509591443
 20
-1.65667174335376
 30
0.0
 10
18.46910962613256
 20
-2.663151776334387
 30
0.0
 10
19.55891615127043
 20
-3.544500598724803
 30
0.0
 10
20.65032994465883
 20
-4.254518073762081
 30
0.0
 10
21.74093788968497
 20
-4.754922893417167
 30
0.0
 10
22.83019092284274
 20
-5.026959256390514
 30
0.0
 10
23.91918664893636
 20
-5.027559483908212
 30
0.0
 10
24.6875962863334
 20
-4.912809150694001
 30
0.0
 10
25.09349138970129
 20
-4.736226812837249
 30
0.0
 10
25.13592043665522
 20
-4.717768299191746
 30
0.0
  0
SPLINE
  5
CB
330
1F
100
AcDbEntity
  8
0
  6
Continuous
 62
     1
370
    15
100
AcDbSpline
210
0.0
220
0.0
230
1.0
 70
     8
 71
     3
 72
    23
 73
    19
 74
     0
 42
0.000000001
 43
0.00000001
 40
0.0
 40
0.0
 40
0.0
 40
0.0
 40
0.0457956616743466
 40
0.1112429282225941
 40
0.1767228185093627
 40
0.2422860085622147
 40
0.3078287805409187
 40
0.3732975870753638
 40
0.4387446646557226
 40
0.5042225513592588
 40
0.5697827325624425
 40
0.635328988875658
 40
0.7007994863085447
 40
0.7662464379085603
 40
0.8317223835033279
 40
0.8897019815183373
 40
0.9475769214216394
 40
0.9999999999999999
 40
0.9999999999999999
 40
0.9999999999999999
 40
0.9999999999999999
 10
38.41854664191624
 20
4.475958878018751
 30
0.0
 10
38.67252530385173
 20
4.474592570680033
 30
0.0
 10
39.28946867854669
 20
4.471273653043425
 30
0.0
 10
40.26928058575937
 20
4.179626159680125
 30
0.0
 10
41.35892511757294
 20
3.657570171314226
 30
0.0
 10
42.4501584025987
 20
2.922410318996754
 30
0.0
 10
43.54101588144107
 20
2.023551475592083
 30
0.0
 10
44.63041071614992
 20
1.004753677748787
 30
0.0
 10
45.71934012499541
 20
-0.0796058169633247
 30
0.0
 10
46.80892806820783
 20
-1.173787153879744
 30
0.0
 10
47.90010851847485
 20
-2.219855715854848
 30
0.0
 10
48.99103338078701
 20
-3.163895309534382
 30
0.0
 10
50.08045272083036
 20
-3.956750962565927
 30
0.0
 10
51.16942335734261
 20
-4.556285168638795
 30
0.0
 10
52.21679308609949
 20
-4.91877682273699
 30
0.0
 10
53.22373013523147
 20
-5.050064534028639
 30
0.0
 10
54.15668058119629
 20
-4.998850724665258
 30
0.0
 10
54.76794204923776
 20
-4.811262546442158
 30
0.0
 10
55.05846592638603
 20
-4.722104554823334
 30
0.0
  0
SPLINE
  5
CC
330
1F
100
AcDbEntity
  8
0
  6
Continuous
 62
     1
370
    15
100
AcDbSpline
210
0.0
220
0.0
230
1.0
 70
     8
 71
     3
 72
    23
 73
    19
 74
     0
 42
0.000000001
 43
0.00000001
 40
0.0
 40
0.0
 40
0.0
 40
0.0
 40
0.0503536380745319
 40
0.1106830274322987
 40
0.1709646891302102
 40
0.2364525049680834
 40
0.3020239320776548
 40
0.3675471745646043
 40
0.4330054396027344
 40
0.4984510654902432
 40
0.5639365659999686
 40
0.62950624284844
 40
0.695032661973112
 40
0.76049230445774
 40
0.8259374894895838
 40
0.8914207369658675
 40
0.9569884117728986
 40
1.0
 40
1.0
 40
1.0
 40
1.0
 10
10.17422068945346
 20
4.195238882436485
 30
0.0
 10
10.4537737305545
 20
4.283917005780653
 30
0.0
 10
11.06826313191947
 20
4.478841613695163
 30
0.0
 10
12.01620317931553
 20
4.531272040545751
 30
0.0
 10
13.04758886531599
 20
4.39140932480128
 30
0.0
 10
14.1089526716185
 20
4.01431909570907
 30
0.0
 10
15.20035747364286
 20
3.406113337537795
 30
0.0
 10
16.29091336619942
 20
2.605935160955053
 30
0.0
 10
17.38014506167836
 20
1.656406781946439
 30
0.0
 10
18.46910967174314
 20
0.6070373189901493
 30
0.0
 10
19.55891600289491
 20
-0.4879672590517496
 30
0.0
 10
20.6503304931107
 20
-1.570368846982591
 30
0.0
 10
21.74093584689134
 20
-2.585143816169272
 30
0.0
 10
22.8301985370128
 20
-3.47789166401942
 30
0.0
 10
23.91915823158022
 20
-4.205371905567435
 30
0.0
 10
25.00889866593957
 20
-4.717462533743612
 30
0.0
 10
25.97532726728026
 20
-4.997326583670031
 30
0.0
 10
26.57774686699564
 20
-4.995495161733141
 30
0.0
 10
26.81638381330415
 20
-4.994769679131597
 30
0.0
  0
SPLINE
  5
CD
330
1F
100
AcDbEntity
  8
0
  6
Continuous
 62
     1
370
    15
100
AcDbSpline
210
0.0
220
0.0
230
1.0
 70
     8
 71
     3
 72
    24
 73
    20
 74
     0
 42
0.000000001
 43
0.00000001
 40
0.0
 40
0.0
 40
0.0
 40
0.0
 40
0.0103802378139335
 40
0.0758496693687908
 40
0.1414023873847324
 40
0.2069346905877887
 40
0.2723930401606681
 40
0.3378296642501032
 40
0.4032970925417499
 40
0.4688468021886096
 40
0.5343825891696447
 40
0.599842629370888
 40
0.6652791275001024
 40
0.7307446149930222
 40
0.7887149522553131
 40
0.8465806481223452
 40
0.9043847946882722
 40
0.9622938547295358
 40
1.0
 40
1.0
 40
1.0
 40
1.0
 10
40.09644062956324
 20
4.193474939006647
 30
0.0
 10
40.15400633023591
 20
4.218239840304252
 30
0.0
 10
40.57464595731109
 20
4.39920000798488
 30
0.0
 10
41.35892582129939
 20
4.512064455365765
 30
0.0
 10
42.45015821395618
 20
4.499637796204859
 30
0.0
 10
43.5410159320539
 20
4.21761589354514
 30
0.0
 10
44.63041070209361
 20
3.707662183623222
 30
0.0
 10
45.7193401306526
 20
2.989384718422728
 30
0.0
 10
46.80892805963004
 20
2.101755991625018
 30
0.0
 10
47.90010854715756
 20
1.091222006248327
 30
0.0
 10
48.99103327472564
 20
0.0100931795226547
 30
0.0
 10
50.08045311584785
 20
-1.085409682439519
 30
0.0
 10
51.16942188343901
 20
-2.137488922018269
 30
0.0
 10
52.21679832324046
 20
-3.055621534851781
 30
0.0
 10
53.22371307659989
 20
-3.806281803253461
 30
0.0
 10
54.18662880099407
 20
-4.384083621804399
 30
0.0
 10
55.14842033011668
 20
-4.786037235345897
 30
0.0
 10
55.99983842983392
 20
-5.003473682855907
 30
0.0
 10
56.53047166337976
 20
-5.001518627698969
 30
0.0
 10
56.73972848319398
 20
-5.000747645787476
 30
0.0
  0
SPLINE
  5
CE
330
1F
100
AcDbEntity
  8
0
  6
Continuous
 62
     1
370
    15
100
AcDbSpline
210
0.0
220
0.0
230
1.0
 70
     8
 71
     3
 72
    20
 73
    16
 74
     0
 42
0.000000001
 43
0.00000001
 40
0.0
 40
0.0
 40
0.0
 40
0.0
 40
0.1250000000000001
 40
0.1250000000000001
 40
0.2500000000000002
 40
0.2500000000000002
 40
0.3750000000000002
 40
0.3750000000000002
 40
0.5000000000000003
 40
0.5000000000000003
 40
0.6250000000000004
 40
0.6250000000000004
 40
0.7500000000000004
 40
0.7500000000000004
 40
1.0
 40
1.0
 40
1.0
 40
1.0
 10
58.79999999999998
 20
1.990541559655694
 30
0.0
 10
58.79999999999997
 20
1.962556440533343
 30
0.0
 10
58.79828212544997
 20
1.937529673077914
 30
0.0
 10
58.78794548140525
 20
1.896215720615628
 30
0.0
 10
58.77920317419711
 20
1.879714124940533
 30
0.0
 10
58.74916414674197
 20
1.862736136305633
 30
0.0
 10
58.72726952670549
 20
1.862564252352958
 30
0.0
 10
58.66747363121961
 20
1.885046843382773
 30
0.0
 10
58.62911484786125
 20
1.908011935120008
 30
0.0
 10
58.54309056517607
 20
1.969869613583859
 30
0.0
 10
58.49716229125807
 20
2.007060990000159
 30
0.0
 10
58.40360850339416
 20
2.085608158895937
 30
0.0
 10
58.357013510455
 20
2.126104453680976
 30
0.0
 10
58.21624808492884
 20
2.248607658171554
 30
0.0
 10
58.12619975754108
 20
2.327019902944846
 30
0.0
 10
58.03799999999997
 20
2.399938596037593
 30
0.0
  0
SPLINE
  5
CF
330
1F
100
AcDbEntity
  8
0
  6
Continuous
 62
     1
370
    15
100
AcDbSpline
210
0.0
220
0.0
230
1.0
 70
     8
 71
     3
 72
    10
 73
     6
 74
     0
 42
0.000000001
 43
0.00000001
 40
0.0
 40
0.0
 40
0.0
 40
0.0
 40
0.4612114602859346
 40
0.9228119210613246
 40
1.0
 40
1.0
 40
1.0
 40
1.0
 10
7.999999999999762
 20
-4.997157252771604
 30
0.0
 10
8.334155790033511
 20
-5.008246936537722
 30
0.0
 10
9.002749207776505
 20
-5.030435657463759
 30
0.0
 10
9.727306646117116
 20
-4.904117109908047
 30
0.0
 10
10.11821785523664
 20
-4.739568537843133
 30
0.0
 10
10.17422068945347
 20
-4.715994932924712
 30
0.0
  0
SPLINE
  5
D0
330
1F
100
AcDbEntity
  8
0
  6
Continuous
 62
     1
370
    15
100
AcDbSpline
210
0.0
220
0.0
230
1.0
 70
     8
 71
     3
 72
    23
 73
    19
 74
     0
 42
0.000000001
 43
0.00000001
 40
0.0
 40
0.0
 40
0.0
 40
0.0
 40
0.0278149142262092
 40
0.0933053673590228
 40
0.1588802571128121
 40
0.2244171252548841
 40
0.2898854111283594
 40
0.3553374196968899
 40
0.4208256818873378
 40
0.4863983176115238
 40
0.5519384859334215
 40
0.6174082748443777
 40
0.6828599684603434
 40
0.7483461020838297
 40
0.8139162320557796
 40
0.8794597620724066
 40
0.9449311167035306
 40
1.0
 40
1.0
 40
1.0
 40
1.0
 10
23.45631505660441
 20
4.471699882192087
 30
0.0
 10
23.61053311569547
 20
4.478915461378641
 30
0.0
 10
24.12785891220389
 20
4.503120183393391
 30
0.0
 10
25.0089176215629
 20
4.281203792209744
 30
0.0
 10
26.10029119450137
 20
3.825151061277469
 30
0.0
 10
27.19095855580513
 20
3.141075924131221
 30
0.0
 10
28.28025318452937
 20
2.283501646294683
 30
0.0
 10
29.3691992878522
 20
1.292377061231948
 30
0.0
 10
30.45891528898351
 20
0.2201770970359139
 30
0.0
 10
31.55025059634125
 20
-0.876544655066155
 30
0.0
 10
32.64097933464353
 20
-1.941514421698863
 30
0.0
 10
33.73030631649007
 20
-2.918803741234684
 30
0.0
 10
34.81924542386946
 20
-3.75741638177076
 30
0.0
 10
35.90891784418096
 20
-4.413404300989894
 30
0.0
 10
37.00020590621308
 20
-4.854235022666695
 30
0.0
 10
38.09100019537617
 20
-5.049171754101883
 30
0.0
 10
39.1227839071176
 20
-5.020059658651775
 30
0.0
 10
39.79111373056482
 20
-4.810135138283516
 30
0.0
 10
40.09644062956324
 20
-4.714230989494868
 30
0.0
  0
SPLINE
  5
D1
330
1F
100
AcDbEntity
  8
0
  6
Continuous
 62
     1
370
    15
100
AcDbSpline
210
0.0
220
0.0
230
1.0
 70
     8
 71
     3
 72
    12
 73
     8
 74
     0
 42
0.000000001
 43
0.00000001
 40
0.0
 40
0.0
 40
0.0
 40
0.0
 40
0.1731465615298924
 40
0.3796395571461309
 40
0.5865073337960807
 40
0.7934861910262339
 40
1.0
 40
1.0
 40
1.0
 40
1.0
 10
53.3803907275732
 20
4.488906751334105
 30
0.0
 10
53.64925567539522
 20
4.481065078227586
 30
0.0
 10
54.23876648532052
 20
4.463871497950052
 30
0.0
 10
55.14841880793237
 20
4.204456993029837
 30
0.0
 10
56.11205763158411
 20
3.766507660990717
 30
0.0
 10
57.07617181938068
 20
3.167331349009041
 30
0.0
 10
57.7176310859479
 20
2.65554431426744
 30
0.0
 10
58.03800000000014
 20
2.399938596037471
 30
0.0
  0
SPLINE
  5
D2
330
1F
100
AcDbEntity
  8
0
  6
Continuous
 62
     1
370
    15
100
AcDbSpline
210
0.0
220
0.0
230
1.0
 70
    24
 71
     3
 72
    12
 73
     8
 74
     0
 42
0.000000001
 43
0.00000001
 40
0.0
 40
0.0
 40
0.0
 40
0.0
 40
0.0886804411638725
 40
0.3651459266589703
 40
0.6416114121540686
 40
0.9180768976491676
 40
1.0
 40
1.0
 40
1.0
 40
1.0
 10
7.999999999999977
 20
-3.465488280067391
 30
0.0
 10
7.999999999999977
 20
-3.457177030440874
 30
0.0
 10
7.999999999999979
 20
-3.422955065521234
 30
0.0
 10
7.999999999999979
 20
-3.63865695160094
 30
0.0
 10
7.99999999999998
 20
-4.092733346751158
 30
0.0
 10
7.999999999999982
 20
-4.6034108585284
 30
0.0
 10
7.999999999999982
 20
-4.923897952884666
 30
0.0
 10
7.999999999999982
 20
-4.997157252771626
 30
0.0
  0
SPLINE
  5
D3
330
1F
100
AcDbEntity
  8
0
  6
Continuous
 62
     1
370
    15
100
AcDbSpline
210
0.0
220
0.0
230
1.0
 70
     8
 71
     3
 72
    11
 73
     7
 74
     0
 42
0.000000001
 43
0.00000001
 40
0.0
 40
0.0
 40
0.0
 40
0.0
 40
0.2602297316557173
 40
0.5206789493860469
 40
0.7816033298291386
 40
1.0
 40
1.0
 40
1.0
 40
1.0
 10
8.000000000001018
 20
-3.546625146360439
 30
0.0
 10
8.334148951140989
 20
-3.774972737328358
 30
0.0
 10
9.002728685328275
 20
-4.231860514922153
 30
0.0
 10
10.00652791035058
 20
-4.697082781995546
 30
0.0
 10
10.95833790302206
 20
-4.981433923253602
 30
0.0
 10
11.573902178861
 20
-5.000085560537397
 30
0.0
 10
11.85437637866334
 20
-5.008583946892007
 30
0.0
  0
SPLINE
  5
D4
330
1F
100
AcDbEntity
  8
0
  6
Continuous
 62
     1
370
    15
100
AcDbSpline
210
0.0
220
0.0
230
1.0
 70
     8
 71
     3
 72
    23
 73
    19
 74
     0
 42
0.000000001
 43
0.00000001
 40
0.0
 40
0.0
 40
0.0
 40
0.0
 40
0.057929133313715
 40
0.1234651441588892
 40
0.1889325736326009
 40
0.2543837260142935
 40
0.319871131543665
 40
0.3854429095030722
 40
0.4509822204849024
 40
0.5164511529764335
 40
0.5819019904096815
 40
0.6473872673999354
 40
0.7129565396398851
 40
0.7784992122724694
 40
0.843969710463687
 40
0.9094202959318758
 40
0.9749035067929793
 40
1.0
 40
1.0
 40
1.0
 40
1.0
 10
25.13592043665522
 20
4.197012248703523
 30
0.0
 10
25.45742824519827
 20
4.295199827834959
 30
0.0
 10
26.14266217947807
 20
4.50446834125159
 30
0.0
 10
27.19097124144616
 20
4.525336331127753
 30
0.0
 10
28.28024978794253
 20
4.319468879735311
 30
0.0
 10
29.36920019838182
 20
3.868930539081324
 30
0.0
 10
30.45891504463631
 20
3.204378107720599
 30
0.0
 10
31.55025066166529
 20
2.359128273062606
 30
0.0
 10
32.64097931772545
 20
1.377089593585952
 30
0.0
 10
33.73030631892884
 20
0.3095511574414741
 30
0.0
 10
34.81924543101857
 20
-0.7875144901746169
 30
0.0
 10
35.90891781310837
 20
-1.857373864634287
 30
0.0
 10
37.00020602349198
 20
-2.843703011847979
 30
0.0
 10
38.09099975779272
 20
-3.694476063240685
 30
0.0
 10
39.18035399078911
 20
-4.370420645544574
 30
0.0
 10
40.26931050845231
 20
-4.816081050569919
 30
0.0
 10
41.13445851049508
 20
-5.028312987848826
 30
0.0
 10
41.63717225588003
 20
-5.000988303147573
 30
0.0
 10
41.77645679236561
 20
-4.993417581085231
 30
0.0
  0
SPLINE
  5
D5
330
1F
100
AcDbEntity
  8
0
  6
Continuous
 62
     1
370
    15
100
AcDbSpline
210
0.0
220
0.0
230
1.0
 70
     8
 71
     3
 72
    11
 73
     7
 74
     0
 42
0.000000001
 43
0.00000001
 40
0.0
 40
0.0
 40
0.0
 40
0.0
 40
0.0301004327695158
 40
0.3535268687358414
 40
0.6771269731039958
 40
1.0
 40
1.0
 40
1.0
 40
1.0
 10
55.05846592638603
 20
4.201348504335113
 30
0.0
 10
55.08833926595388
 20
4.214149553175393
 30
0.0
 10
55.43919894551289
 20
4.36449671753981
 30
0.0
 10
56.11209223666016
 20
4.479172401008163
 30
0.0
 10
57.0761631888554
 20
4.53414473453067
 30
0.0
 10
57.71762821126396
 20
4.395326666140265
 30
0.0
 10
58.03800000000015
 20
4.325995695119982
 30
0.0
  0
SPLINE
  5
D6
330
1F
100
AcDbEntity
  8
0
  6
Continuous
 62
     1
370
    15
100
AcDbSpline
210
0.0
220
0.0
230
1.0
 70
     8
 71
     3
 72
     8
 73
     4
 74
     0
 42
0.000000001
 43
0.00000001
 40
0.0
 40
0.0
 40
0.0
 40
0.0
 40
1.0
 40
1.0
 40
1.0
 40
1.0
 10
58.03799999999998
 20
4.325995695114395
 30
0.0
 10
58.08965520043833
 20
4.312123103585663
 30
0.0
 10
58.13941567855779
 20
4.292299117550845
 30
0.0
 10
58.18767641168728
 20
4.267192357615009
 30
0.0
  0
SPLINE
  5
D7
330
1F
100
AcDbEntity
  8
0
  6
Continuous
 62
     1
370
    15
100
AcDbSpline
210
0.0
220
0.0
230
1.0
 70
     8
 71
     3
 72
    16
 73
    12
 74
     0
 42
0.000000001
 43
0.00000001
 40
0.0
 40
0.0
 40
0.0
 40
0.0
 40
0.2499999999999981
 40
0.2499999999999981
 40
0.4999999999999962
 40
0.4999999999999962
 40
0.7499999999999943
 40
0.7499999999999943
 40
0.8749999999999971
 40
0.8749999999999971
 40
1.0
 40
1.0
 40
1.0
 40
1.0
 10
58.18767641168726
 20
4.267192357615018
 30
0.0
 10
58.17285083019428
 20
4.118719352069804
 30
0.0
 10
58.14817610501824
 20
3.973796410842535
 30
0.0
 10
58.07159547663053
 20
3.693765841941233
 30
0.0
 10
58.01838363457164
 20
3.555985904054115
 30
0.0
 10
57.87622209978225
 20
3.312824390761558
 30
0.0
 10
57.78542222429068
 20
3.206085603850406
 30
0.0
 10
57.62768304965573
 20
3.093294489630044
 30
0.0
 10
57.5703297522128
 20
3.062685037990331
 30
0.0
 10
57.45284744639804
 20
3.019638742809884
 30
0.0
 10
57.39259762145537
 20
3.006796568803047
 30
0.0
 10
57.33093485845446
 20
3.002084510335445
 30
0.0
  0
SPLINE
  5
D8
330
1F
100
AcDbEntity
  8
0
  6
Continuous
 62
     1
370
    15
100
AcDbSpline
210
0.0
220
0.0
230
1.0
 70
     8
 71
     3
 72
     8
 73
     4
 74
     0
 42
0.000000001
 43
0.00000001
 40
0.0
 40
0.0
 40
0.0
 40
0.0
 40
1.0
 40
1.0
 40
1.0
 40
1.0
 10
58.79999999999998
 20
2.324996638251348
 30
0.0
 10
58.31232526839259
 20
2.586225607825157
 30
0.0
 10
57.82256731793488
 20
2.810693928328943
 30
0.0
 10
57.33093485845446
 20
3.002084510335445
 30
0.0
  0
LINE
  5
D9
330
1F
100
AcDbEntity
  8
0
  6
Continuous
 62
     1
370
    15
100
AcDbLine
 10
58.79999999999998
 20
1.99054155965569
 30
0.0
 11
58.79999999999998
 21
2.324996638251348
 31
0.0
  0
SPLINE
  5
DB
330
1F
100
AcDbEntity
  8
0
  6
Continuous
 62
     1
370
    15
100
AcDbSpline
210
0.0
220
0.0
230
1.0
 70
     8
 71
     3
 72
    14
 73
    10
 74
     0
 42
0.000000001
 43
0.00000001
 40
0.0
 40
0.0
 40
0.0
 40
0.0
 40
0.1400664751767088
 40
0.2802510868961787
 40
0.4206914509691108
 40
0.5608694745574051
 40
0.7009366008019624
 40
0.8531004581025192
 40
1.0
 40
1.0
 40
1.0
 40
1.0
 10
7.99999999999976
 20
-2.200694514707803
 30
0.0
 10
8.334147932349198
 20
-2.497888227979018
 30
0.0
 10
9.00272562809614
 20
-3.092526317199805
 30
0.0
 10
10.00654016061457
 20
-3.836474650269435
 30
0.0
 10
11.0123821936535
 20
-4.427021264260933
 30
0.0
 10
12.01618958034441
 20
-4.833369266934409
 30
0.0
 10
13.04758650309099
 20
-5.038741762944328
 30
0.0
 10
14.09594798322742
 20
-5.034472046871238
 30
0.0
 10
14.81043643865275
 20
-4.827455111135832
 30
0.0
 10
15.16139221282797
 20
-4.725768669043284
 30
0.0
  0
SPLINE
  5
DC
330
1F
100
AcDbEntity
  8
0
  6
Continuous
 62
     1
370
    15
100
AcDbSpline
210
0.0
220
0.0
230
1.0
 70
     8
 71
     3
 72
    23
 73
    19
 74
     0
 42
0.000000001
 43
0.00000001
 40
0.0
 40
0.0
 40
0.0
 40
0.0
 40
0.0556426995155528
 40
0.12112368036547
 40
0.186689025368018
 40
0.2522219065781797
 40
0.3176844162025648
 40
0.3831288325438926
 40
0.448607685063514
 40
0.5141705245924291
 40
0.5797067671235487
 40
0.6451708422940164
 40
0.7106150066950041
 40
0.7760917932881742
 40
0.8416518756990866
 40
0.9071915410036508
 40
0.9726572443698583
 40
1.0
 40
1.0
 40
1.0
 40
1.0
 10
28.44339107399348
 20
4.48629304488072
 30
0.0
 10
28.75193000869092
 20
4.475311659073303
 30
0.0
 10
29.42356117741504
 20
4.45140724976017
 30
0.0
 10
30.45891500579096
 20
4.11542326656735
 30
0.0
 10
31.5502506716271
 20
3.558924694862112
 30
0.0
 10
32.64097931672659
 20
2.796330767928152
 30
0.0
 10
33.73030631298475
 20
1.876032804772551
 30
0.0
 10
34.81924545579265
 20
0.8440331642783625
 30
0.0
 10
35.90891771984936
 20
-0.2458106051425752
 30
0.0
 10
37.00020637215761
 20
-1.335868178064652
 30
0.0
 10
38.09099845775501
 20
-2.370175671312919
 30
0.0
 10
39.18035883608922
 20
-3.294446592539854
 30
0.0
 10
40.26929242717989
 20
-4.060588447452939
 30
0.0
 10
41.35892197252309
 20
-4.627725399435971
 30
0.0
 10
42.45015912197483
 20
-4.970600742558307
 30
0.0
 10
43.54101614955307
 20
-5.053968136884715
 30
0.0
 10
44.41912192210203
 20
-4.961602468513385
 30
0.0
 10
44.93375137742305
 20
-4.760601489179537
 30
0.0
 10
45.08536888717472
 20
-4.701383604099033
 30
0.0
  0
SPLINE
  5
DD
330
1F
100
AcDbEntity
  8
0
  6
Continuous
 62
     1
370
    15
100
AcDbSpline
210
0.0
220
0.0
230
1.0
 70
    24
 71
     3
 72
    14
 73
    10
 74
     0
 42
0.000000001
 43
0.00000001
 40
0.0
 40
0.0
 40
0.0
 40
0.0
 40
0.2500000000000002
 40
0.2500000000000002
 40
0.5000000000000001
 40
0.5000000000000001
 40
0.75
 40
0.75
 40
1.0
 40
1.0
 40
1.0
 40
1.0
 10
7.999999999999984
 20
1.081710229418732
 30
0.0
 10
7.999999999999984
 20
0.9493206980475835
 30
0.0
 10
7.999999999999984
 20
0.7827471482868033
 30
0.0
 10
7.999999999999986
 20
0.3588261562720003
 30
0.0
 10
7.999999999999986
 20
0.1000990604577232
 30
0.0
 10
7.999999999999988
 20
-0.5037659113578732
 30
0.0
 10
7.999999999999988
 20
-0.8498833960062362
 30
0.0
 10
7.999999999999988
 20
-1.55269416152777
 30
0.0
 10
7.999999999999988
 20
-1.906421620829991
 30
0.0
 10
7.999999999999988
 20
-2.20069451470801
 30
0.0
  0
SPLINE
  5
DE
330
1F
100
AcDbEntity
  8
0
  6
Continuous
 62
     1
370
    15
100
AcDbSpline
210
0.0
220
0.0
230
1.0
 70
     8
 71
     3
 72
    16
 73
    12
 74
     0
 42
0.000000001
 43
0.00000001
 40
0.0
 40
0.0
 40
0.0
 40
0.0
 40
0.1134561122637111
 40
0.227007917039431
 40
0.3407668853615284
 40
0.4543133536443494
 40
0.567769993283558
 40
0.6910251808978346
 40
0.8144377340135864
 40
0.9377595984321292
 40
0.9999999999999999
 40
0.9999999999999999
 40
0.9999999999999999
 40
0.9999999999999999
 10
8.000000000001018
 20
1.081710229421633
 30
0.0
 10
8.33414794182243
 20
0.7549700630046574
 30
0.0
 10
9.002725656521307
 20
0.1012141470692355
 30
0.0
 10
10.00654004672025
 20
-0.9119182478925899
 30
0.0
 10
11.01238262128107
 20
-1.890433408711729
 30
0.0
 10
12.0161879878229
 20
-2.799540615026676
 30
0.0
 10
13.0475926584675
 20
-3.617344417959707
 30
0.0
 10
14.10895438169707
 20
-4.298502033458076
 30
0.0
 10
15.20034676487438
 20
-4.774141213076926
 30
0.0
 10
16.11123984075507
 20
-5.015102201733635
 30
0.0
 10
16.65796899566195
 20
-4.997615276257934
 30
0.0
 10
16.8413502556901
 20
-4.991749895933928
 30
0.0
  0
SPLINE
  5
DF
330
1F
100
AcDbEntity
  8
0
  6
Continuous
 62
     1
370
    15
100
AcDbSpline
210
0.0
220
0.0
230
1.0
 70
     8
 71
     3
 72
    23
 73
    19
 74
     0
 42
0.000000001
 43
0.00000001
 40
0.0
 40
0.0
 40
0.0
 40
0.0
 40
0.0202542989640972
 40
0.0858189653656257
 40
0.1513511683107687
 40
0.2168130003984802
 40
0.2822567393904001
 40
0.3477349142041992
 40
0.413297075158027
 40
0.4788326393893377
 40
0.5442960370069285
 40
0.609739524061116
 40
0.6752156329698457
 40
0.7407750368342069
 40
0.8063140238035367
 40
0.8717790496000157
 40
0.9372223476972266
 40
0.9999999999999999
 40
0.9999999999999999
 40
0.9999999999999999
 40
0.9999999999999999
 10
30.12159995794501
 20
4.184081651424977
 30
0.0
 10
30.23393520578729
 20
4.229903928545764
 30
0.0
 10
30.70990797388976
 20
4.424056311710131
 30
0.0
 10
31.55028389549693
 20
4.526631833670714
 30
0.0
 10
32.64097042684474
 20
4.472654869095258
 30
0.0
 10
33.73030869318428
 20
4.155050545633491
 30
0.0
 10
34.81924481765019
 20
3.611750464154659
 30
0.0
 10
35.90891789148792
 20
2.865050620691487
 30
0.0
 10
37.00020632480174
 20
1.956100091258128
 30
0.0
 10
38.0909984754953
 20
0.9312180088701244
 30
0.0
 10
39.18035881244892
 20
-0.1559146893896192
 30
0.0
 10
40.26929250401163
 20
-1.248245534945986
 30
0.0
 10
41.35892168852196
 20
-2.289501956814997
 30
0.0
 10
42.4501601824058
 20
-3.224068508365194
 30
0.0
 10
43.54101219562101
 20
-4.005726765228199
 30
0.0
 10
44.63042366362379
 20
-4.586831572352227
 30
0.0
 10
45.7043411811478
 20
-4.956729874301709
 30
0.0
 10
46.41556090687934
 20
-4.997843599581278
 30
0.0
 10
46.76377782863486
 20
-5.01797309591102
 30
0.0
  0
SPLINE
  5
E1
330
1F
100
AcDbEntity
  8
0
  6
Continuous
 62
     1
370
    15
100
AcDbSpline
210
0.0
220
0.0
230
1.0
 70
     8
 71
     3
 72
    23
 73
    19
 74
     0
 42
0.000000001
 43
0.00000001
 40
0.0
 40
0.0
 40
0.0
 40
0.0
 40
0.0377246055991564
 40
0.1033013084002831
 40
0.1688298227019896
 40
0.2342933543269745
 40
0.299744245784428
 40
0.3652350150722976
 40
0.4308099674715031
 40
0.4963416586665152
 40
0.5618065678488238
 40
0.6272570184151424
 40
0.6927455344882976
 40
0.7583184846849839
 40
0.8238534143945463
 40
0.8893197638640206
 40
0.9547698365099959
 40
1.0
 40
1.0
 40
1.0
 40
1.0
 10
13.48092994399124
 20
4.471698491336761
 30
0.0
 10
13.69014052603229
 20
4.475581314560987
 30
0.0
 10
14.26302197867519
 20
4.486213651545809
 30
0.0
 10
15.2003855039138
 20
4.227592383359847
 30
0.0
 10
16.29090586648489
 20
3.734637786354019
 30
0.0
 10
17.38014706845624
 20
3.021953659961596
 30
0.0
 10
18.469109139117
 20
2.141265633404505
 30
0.0
 10
19.55891612572647
 20
1.134142341310421
 30
0.0
 10
20.65033053542374
 20
0.0551671578723095
 30
0.0
 10
21.74093555520595
 20
-1.040819703506025
 30
0.0
 10
22.83019966012405
 20
-2.096043477784254
 30
0.0
 10
23.91915403031528
 20
-3.055355449866575
 30
0.0
 10
25.00891436671039
 20
-3.869343200081179
 30
0.0
 10
26.10029326119082
 20
-4.494057472591101
 30
0.0
 10
27.19095354983968
 20
-4.90057665674285
 30
0.0
 10
28.28027112176398
 20
-5.056335468763491
 30
0.0
 10
29.25683190564373
 20
-5.000783444388439
 30
0.0
 10
29.87072765898133
 20
-4.790692618252567
 30
0.0
 10
30.12159995794504
 20
-4.704837701913204
 30
0.0
  0
SPLINE
  5
E2
330
1F
100
AcDbEntity
  8
0
  6
Continuous
 62
     1
370
    15
100
AcDbSpline
210
0.0
220
0.0
230
1.0
 70
     8
 71
     3
 72
    22
 73
    18
 74
     0
 42
0.000000001
 43
0.00000001
 40
0.0
 40
0.0
 40
0.0
 40
0.0
 40
0.0091951049024221
 40
0.0836478214147813
 40
0.1580758272329285
 40
0.2325388699340638
 40
0.3070954999384832
 40
0.3816362942199048
 40
0.4560909336630304
 40
0.5305187962132722
 40
0.6049796314383817
 40
0.6709154381685818
 40
0.7367322251528277
 40
0.802479005595562
 40
0.8683451152497491
 40
0.9342465926436335
 40
1.0
 40
1.0
 40
1.0
 40
1.0
 10
43.40669177997782
 20
4.488663371455591
 30
0.0
 10
43.45155921573249
 20
4.493017894676673
 30
0.0
 10
43.85971804515022
 20
4.53263096974313
 30
0.0
 10
44.63037126125555
 20
4.370503692625654
 30
0.0
 10
45.71935070224876
 20
3.991801779151645
 30
0.0
 10
46.80892522303937
 20
3.366536777174032
 30
0.0
 10
47.90010930517184
 20
2.559005024847307
 30
0.0
 10
48.99103308047593
 20
1.602576252677163
 30
0.0
 10
50.08045313586911
 20
0.5492082054285989
 30
0.0
 10
51.16942199740566
 20
-0.5461405358732391
 30
0.0
 10
52.21679786960944
 20
-1.585564805262967
 30
0.0
 10
53.22371456449758
 20
-2.519309199855119
 30
0.0
 10
54.18662323623075
 20
-3.322828091906116
 30
0.0
 10
55.14844109749829
 20
-4.00265581556441
 30
0.0
 10
56.11205167913686
 20
-4.52558378512567
 30
0.0
 10
57.07617330392434
 20
-4.88864309010328
 30
0.0
 10
57.71763158042462
 20
-4.970588054264609
 30
0.0
 10
58.10049999999998
 20
-5.022878025244113
 30
0.0
  0
SPLINE
  5
E3
330
1F
100
AcDbEntity
  8
0
  6
Continuous
 62
     1
370
    15
100
AcDbSpline
210
0.0
220
0.0
230
1.0
 70
     8
 71
     3
 72
    24
 73
    20
 74
     0
 42
0.000000001
 43
0.00000001
 40
0.0
 40
0.0
 40
0.0
 40
0.0
 40
0.0023493702556598
 40
0.0678759320761395
 40
0.1333375131561154
 40
0.198786454445185
 40
0.2642752723764745
 40
0.3298482709107886
 40
0.3953780095299156
 40
0.4608409681261694
 40
0.5262894685372408
 40
0.5917760333209525
 40
0.6573470297124049
 40
0.7228800067495876
 40
0.7883444055900923
 40
0.853792528092081
 40
0.9192769020635093
 40
0.9848456445591857
 40
1.0
 40
1.0
 40
1.0
 40
1.0
 10
15.16139221282801
 20
4.205012618555063
 30
0.0
 10
15.17443177572004
 20
4.210813903392177
 30
0.0
 10
15.55115931920953
 20
4.37841950519534
 30
0.0
 10
16.29090459627744
 20
4.495317528699394
 30
0.0
 10
17.38014740854798
 20
4.517522232775524
 30
0.0
 10
18.46910904807175
 20
4.26438200720227
 30
0.0
 10
19.55891614966794
 20
3.78209516665042
 30
0.0
 10
20.65033053086243
 20
3.087473963899437
 30
0.0
 10
21.7409355495207
 20
2.218443892606141
 30
0.0
 10
22.8301996873863
 20
1.219992362491911
 30
0.0
 10
23.9191539269401
 20
0.1445507560151462
 30
0.0
 10
25.00891475341257
 20
-0.9524353617441763
 30
0.0
 10
26.10029181619102
 20
-2.012572609878056
 30
0.0
 10
27.19095893658092
 20
-2.982166773674269
 30
0.0
 10
28.28025104336829
 20
-3.80829968469039
 30
0.0
 10
29.36920747224312
 20
-4.454780350256178
 30
0.0
 10
30.4588846566697
 20
-4.862185730807963
 30
0.0
 10
31.27064051482976
 20
-5.043417067968996
 30
0.0
 10
31.71852078604651
 20
-5.007483143810551
 30
0.0
 10
31.80260250489093
 20
-5.000737175518938
 30
0.0
  0
SPLINE
  5
E4
330
1F
100
AcDbEntity
  8
0
  6
Continuous
 62
     1
370
    15
100
AcDbSpline
210
0.0
220
0.0
230
1.0
 70
     8
 71
     3
 72
    20
 73
    16
 74
     0
 42
0.000000001
 43
0.00000001
 40
0.0
 40
0.0
 40
0.0
 40
0.0
 40
0.0489482060972056
 40
0.1330629193113707
 40
0.2172833503271546
 40
0.301485893042243
 40
0.3855911137939473
 40
0.4696660869142895
 40
0.5537783065261769
 40
0.6282605096764754
 40
0.7026082661075093
 40
0.7768769419644915
 40
0.851280414118205
 40
0.9257238382692277
 40
1.0
 40
1.0
 40
1.0
 40
1.0
 10
45.08536888717475
 20
4.180627553610812
 30
0.0
 10
45.29664112675835
 20
4.257143212186216
 30
0.0
 10
45.87097271538934
 20
4.465146685957175
 30
0.0
 10
46.80892838903721
 20
4.537028887458995
 30
0.0
 10
47.900108456561
 20
4.409769793262551
 30
0.0
 10
48.99103330755478
 20
4.028404535154299
 30
0.0
 10
50.08045307506082
 20
3.426018973337975
 30
0.0
 10
51.16942201377073
 20
2.630912879671467
 30
0.0
 10
52.21679786577867
 20
1.721009670882969
 30
0.0
 10
53.2237145654689
 20
0.7615288279433109
 30
0.0
 10
54.18662323597102
 20
-0.2003675988305776
 30
0.0
 10
55.14844109756795
 20
-1.16580070002954
 30
0.0
 10
56.11205167911828
 20
-2.090710501492781
 30
0.0
 10
57.076173303929
 20
-2.950701891925953
 30
0.0
 10
57.71763158042616
 20
-3.426973829502287
 30
0.0
 10
58.03800000000014
 20
-3.664841970766244
 30
0.0
  0
SPLINE
  5
E5
330
1F
100
AcDbEntity
  8
0
  6
Continuous
 62
     1
370
    15
100
AcDbSpline
210
0.0
220
0.0
230
1.0
 70
     8
 71
     3
 72
     8
 73
     4
 74
     0
 42
0.000000001
 43
0.00000001
 40
0.0
 40
0.0
 40
0.0
 40
0.0
 40
1.0
 40
1.0
 40
1.0
 40
1.0
 10
58.03799999999998
 20
-3.664841970764225
 30
0.0
 10
58.08965520043893
 20
-3.700846060926484
 30
0.0
 10
58.13941567855721
 20
-3.732973959251828
 30
0.0
 10
58.18767641168728
 20
-3.761500123405897
 30
0.0
  0
SPLINE
  5
E6
330
1F
100
AcDbEntity
  8
0
  6
Continuous
 62
     1
370
    15
100
AcDbSpline
210
0.0
220
0.0
230
1.0
 70
     8
 71
     3
 72
     9
 73
     5
 74
     0
 42
0.000000001
 43
0.00000001
 40
0.0
 40
0.0
 40
0.0
 40
0.0
 40
0.5168111898685704
 40
1.0
 40
1.0
 40
1.0
 40
1.0
 10
57.8041336511903
 20
-3.485370289342851
 30
0.0
 10
57.73186529589514
 20
-3.494466758415729
 30
0.0
 10
57.59203017484537
 20
-3.512067904155609
 30
0.0
 10
57.41599370895013
 20
-3.604034782831125
 30
0.0
 10
57.33093485845446
 20
-3.64847214950985
 30
0.0
  0
SPLINE
  5
E7
330
1F
100
AcDbEntity
  8
0
  6
Continuous
 62
     1
370
    15
100
AcDbSpline
210
0.0
220
0.0
230
1.0
 70
     8
 71
     3
 72
     8
 73
     4
 74
     0
 42
0.000000001
 43
0.00000001
 40
0.0
 40
0.0
 40
0.0
 40
0.0
 40
1.0
 40
1.0
 40
1.0
 40
1.0
 10
58.79999999999998
 20
-3.986855534677634
 30
0.0
 10
58.31232526839259
 20
-3.914865362700568
 30
0.0
 10
57.82256731793488
 20
-3.800661145741359
 30
0.0
 10
57.33093485845446
 20
-3.648472149509849
 30
0.0
  0
LINE
  5
E8
330
1F
100
AcDbEntity
  8
0
  6
Continuous
 62
     1
370
    15
100
AcDbLine
 10
58.79999999999998
 20
-4.249929463266108
 30
0.0
 11
58.79999999999998
 21
-3.986855534677634
 31
0.0
  0
SPLINE
  5
E9
330
1F
100
AcDbEntity
  8
0
  6
Continuous
 62
     1
370
    15
100
AcDbSpline
210
0.0
220
0.0
230
1.0
 70
     8
 71
     3
 72
    19
 73
    15
 74
     0
 42
0.000000001
 43
0.00000001
 40
0.0
 40
0.0
 40
0.0
 40
0.0
 40
0.082571947748172
 40
0.1652135393167067
 40
0.2480059019383425
 40
0.3306436096737008
 40
0.4132159412392018
 40
0.5029195341819848
 40
0.5927376557799978
 40
0.6824897752718407
 40
0.7721528902588792
 40
0.8617986924495149
 40
0.9514991139129773
 40
1.0
 40
1.0
 40
1.0
 40
1.0
 10
7.99999999999976
 20
2.536084712819701
 30
0.0
 10
8.334147942922792
 20
2.253294080304276
 30
0.0
 10
9.002725659825842
 20
1.687474300613806
 30
0.0
 10
10.00654003347428
 20
0.7187582956323382
 30
0.0
 10
11.01238267101073
 20
-0.2829690323255706
 30
0.0
 10
12.0161878026231
 20
-1.287547625553074
 30
0.0
 10
13.04759337429626
 20
-2.272923785845065
 30
0.0
 10
14.10895145038591
 20
-3.188899943467532
 30
0.0
 10
15.20035768669748
 20
-3.976492167059184
 30
0.0
 10
16.29091373440887
 20
-4.569875476669242
 30
0.0
 10
17.38014337807652
 20
-4.941429114503323
 30
0.0
 10
18.46911603890292
 20
-5.057512942337118
 30
0.0
 10
19.39161770764482
 20
-4.979841616540697
 30
0.0
 10
19.95167856523015
 20
-4.773232019351944
 30
0.0
 10
20.14822842671119
 20
-4.700723671092819
 30
0.0
  0
SPLINE
  5
EA
330
1F
100
AcDbEntity
  8
0
  6
Continuous
 62
     1
370
    15
100
AcDbSpline
210
0.0
220
0.0
230
1.0
 70
     8
 71
     3
 72
    23
 73
    19
 74
     0
 42
0.000000001
 43
0.00000001
 40
0.0
 40
0.0
 40
0.0
 40
0.0
 40
0.0179457229467435
 40
0.0833950968183813
 40
0.1488789094769142
 40
0.2144467155069051
 40
0.2799879225243311
 40
0.3454569567142999
 40
0.4109060786265127
 40
0.4763878252020967
 40
0.5419528739052284
 40
0.6074975039553802
 40
0.6729681664644274
 40
0.7384170994033944
 40
0.8038968423389463
 40
0.869458882107112
 40
0.9350069965905528
 40
1.0
 40
1.0
 40
1.0
 40
1.0
 10
33.43183942044944
 20
4.477359008976391
 30
0.0
 10
33.53135886558551
 20
4.484643121009101
 30
0.0
 10
33.99383305996952
 20
4.518492926336338
 30
0.0
 10
34.81922864649975
 20
4.329070726519667
 30
0.0
 10
35.90892223143941
 20
3.910708039980073
 30
0.0
 10
37.00020516295471
 20
3.256038636546281
 30
0.0
 10
38.09099878195194
 20
2.422921413401478
 30
0.0
 10
39.18035874690047
 20
1.448365730773139
 30
0.0
 10
40.26929246001338
 20
0.3852822534903256
 30
0.0
 10
41.35892193036109
 20
-0.7119348255070341
 30
0.0
 10
42.4501592579111
 20
-1.785054888452583
 30
0.0
 10
43.54101564845197
 20
-2.778902159136372
 30
0.0
 10
44.63041079389598
 20
-3.641592256989444
 30
0.0
 10
45.71934004679897
 20
-4.327449328892999
 30
0.0
 10
46.80892830348241
 20
-4.802580240370683
 30
0.0
 10
47.90010765454952
 20
-5.036064966733399
 30
0.0
 10
48.98837645921753
 20
-5.037652901670154
 30
0.0
 10
49.712217179199
 20
-4.831561735927269
 30
0.0
 10
50.07259851452856
 20
-4.728954342532838
 30
0.0
  0
SPLINE
  5
EB
330
1F
100
AcDbEntity
  8
0
  6
Continuous
 62
     1
370
    15
100
AcDbSpline
210
0.0
220
0.0
230
1.0
 70
    24
 71
     3
 72
    12
 73
     8
 74
     0
 42
0.000000001
 43
0.00000001
 40
0.0
 40
0.0
 40
0.0
 40
0.0
 40
0.0573344300683942
 40
0.3104155476223486
 40
0.5634966651763033
 40
0.8165777827302583
 40
1.0
 40
1.0
 40
1.0
 40
1.0
 10
7.999999999999977
 20
4.367957350532651
 30
0.0
 10
7.999999999999975
 20
4.309337946893768
 30
0.0
 10
7.999999999999972
 20
3.991965396749767
 30
0.0
 10
7.999999999999979
 20
3.448429097869297
 30
0.0
 10
7.999999999999979
 20
2.888328914756229
 30
0.0
 10
7.99999999999998
 20
2.552066741722744
 30
0.0
 10
7.99999999999998
 20
2.53536783972707
 30
0.0
 10
7.99999999999998
 20
2.528350826601033
 30
0.0
  0
SPLINE
  5
EC
330
1F
100
AcDbEntity
  8
0
  6
Continuous
 62
     1
370
    15
100
AcDbSpline
210
0.0
220
0.0
230
1.0
 70
     8
 71
     3
 72
    21
 73
    17
 74
     0
 42
0.000000001
 43
0.00000001
 40
0.0
 40
0.0
 40
0.0
 40
0.0
 40
0.0725417670616612
 40
0.1451447181686523
 40
0.217880125865466
 40
0.2904796649163142
 40
0.3630217691722414
 40
0.4418288861327969
 40
0.5207366197223183
 40
0.5995863686143494
 40
0.6783579245579152
 40
0.7571142707253028
 40
0.8359186014525138
 40
0.9148242288024326
 40
0.9936778004156421
 40
0.9999999999999999
 40
0.9999999999999999
 40
0.9999999999999999
 40
0.9999999999999999
 10
8.000000000001018
 20
4.367957350538002
 30
0.0
 10
8.33414794294052
 20
4.269260196326746
 30
0.0
 10
9.002725659876525
 20
4.071782643569256
 30
0.0
 10
10.00654003327596
 20
3.528448861464745
 30
0.0
 10
11.01238267175862
 20
2.833031281408829
 30
0.0
 10
12.01618779983999
 20
1.995614478268027
 30
0.0
 10
13.04759338505446
 20
1.032922779063735
 30
0.0
 10
14.10895140633149
 20
-0.0213557722015252
 30
0.0
 10
15.20035785084062
 20
-1.115825394186998
 30
0.0
 10
16.29091312272295
 20
-2.166117402275002
 30
0.0
 10
17.3801456582298
 20
-3.117409996319761
 30
0.0
 10
18.46910752860765
 20
-3.917710897526093
 30
0.0
 10
19.55892398864646
 20
-4.53457855096804
 30
0.0
 10
20.65030066214717
 20
-4.901660860743384
 30
0.0
 10
21.40694618681985
 20
-5.057275087400543
 30
0.0
 10
21.79946930199723
 20
-5.016717262761698
 30
0.0
 10
21.8286044591051
 20
-5.013706844910835
 30
0.0
  0
SPLINE
  5
ED
330
1F
100
AcDbEntity
  8
0
  6
Continuous
 62
     1
370
    15
100
AcDbSpline
210
0.0
220
0.0
230
1.0
 70
     8
 71
     3
 72
    23
 73
    19
 74
     0
 42
0.000000001
 43
0.00000001
 40
0.0
 40
0.0
 40
0.0
 40
0.0
 40
0.0479608350028465
 40
0.1135297763661119
 40
0.179072118256239
 40
0.2445422860692071
 40
0.3099925412596303
 40
0.3754754216783335
 40
0.4410416056669952
 40
0.5065873706491193
 40
0.5720591668093612
 40
0.6375092330232661
 40
0.7029901097672442
 40
0.7685532847688388
 40
0.8341025342445862
 40
0.8995760213804845
 40
0.9650259616082935
 40
1.0
 40
1.0
 40
1.0
 40
1.0
 10
35.11065378886151
 20
4.18614983970133
 30
0.0
 10
35.37660782421895
 20
4.275129112370166
 30
0.0
 10
36.00615695854918
 20
4.48575507262946
 30
0.0
 10
37.00021712405989
 20
4.534163523754546
 30
0.0
 10
38.09099558141452
 20
4.367385889665017
 30
0.0
 10
39.18035960384523
 20
3.951106766612163
 30
0.0
 10
40.2692922300471
 20
3.317473520011872
 30
0.0
 10
41.35892199305376
 20
2.496396178782752
 30
0.0
 10
42.45015923747502
 20
1.532119400423136
 30
0.0
 10
43.54101566746941
 20
0.4741179068538681
 30
0.0
 10
44.63041073831278
 20
-0.622366778446534
 30
0.0
 10
45.71934025011164
 20
-1.699665415224979
 30
0.0
 10
46.80892754499774
 20
-2.702458162361299
 30
0.0
 10
47.90011048862225
 20
-3.576589292927046
 30
0.0
 10
48.99102602973649
 20
-4.281223571184208
 30
0.0
 10
50.08048011704273
 20
-4.764014703462205
 30
0.0
 10
51.0002041067201
 20
-5.011841966082998
 30
0.0
 10
51.55716174951142
 20
-4.9970400635318
 30
0.0
 10
51.75112994564653
 20
-4.991885096409285
 30
0.0
  0
SPLINE
  5
EE
330
1F
100
AcDbEntity
  8
0
  6
Continuous
 62
     1
370
    15
100
AcDbSpline
210
0.0
220
0.0
230
1.0
 70
     8
 71
     3
 72
    20
 73
    16
 74
     0
 42
0.000000001
 43
0.00000001
 40
0.0
 40
0.0
 40
0.0
 40
0.0
 40
0.1250000000000002
 40
0.1250000000000002
 40
0.2500000000000003
 40
0.2500000000000003
 40
0.3750000000000005
 40
0.3750000000000005
 40
0.5000000000000007
 40
0.5000000000000007
 40
0.6250000000000009
 40
0.6250000000000009
 40
0.750000000000001
 40
0.750000000000001
 40
1.0
 40
1.0
 40
1.0
 40
1.0
 10
58.79999999999998
 20
-1.999009878366309
 30
0.0
 10
58.79999999999997
 20
-2.061146821594398
 30
0.0
 10
58.79828212544999
 20
-2.122664742111324
 30
0.0
 10
58.78794548140524
 20
-2.24375160949913
 30
0.0
 10
58.77920317419712
 20
-2.304211895407932
 30
0.0
 10
58.74916414674198
 20
-2.415999249864105
 30
0.0
 10
58.72726952670548
 20
-2.468006407920943
 30
0.0
 10
58.66747363121956
 20
-2.548268091755747
 30
0.0
 10
58.62911484786125
 20
-2.576519939283367
 30
0.0
 10
58.54309056517607
 20
-2.604073548745696
 30
0.0
 10
58.49716229125809
 20
-2.603976706570093
 30
0.0
 10
58.40360850339417
 20
-2.585832483390865
 30
0.0
 10
58.357013510455
 20
-2.56814865199883
 30
0.0
 10
58.21624808492884
 20
-2.497509846937846
 30
0.0
 10
58.12619975754108
 20
-2.430185984693532
 30
0.0
 10
58.03799999999997
 20
-2.35119783400117
 30
0.0
  0
SPLINE
  5
EF
330
1F
100
AcDbEntity
  8
0
  6
Continuous
 62
     1
370
    15
100
AcDbSpline
210
0.0
220
0.0
230
1.0
 70
     8
 71
     3
 72
    24
 73
    20
 74
     0
 42
0.000000001
 43
0.00000001
 40
0.0
 40
0.0
 40
0.0
 40
0.0
 40
0.0000271311189503
 40
0.0655120397346691
 40
0.1310811239283018
 40
0.1966069507891224
 40
0.2620660016134629
 40
0.3275105951156937
 40
0.392993250718335
 40
0.4585603328886226
 40
0.5240893979741834
 40
0.5895498889568005
 40
0.6549941045725075
 40
0.7204745694936446
 40
0.7860393979027018
 40
0.851571762775157
 40
0.9170337566162977
 40
0.9824776573169394
 40
0.9999999999999999
 40
0.9999999999999999
 40
0.9999999999999999
 40
0.9999999999999999
 10
18.46847450891416
 20
4.502070550459459
 30
0.0
 10
18.4686249567947
 20
4.502087691178691
 30
0.0
 10
18.83190328476733
 20
4.543476455181458
 30
0.0
 10
19.55892603500599
 20
4.399151907865734
 30
0.0
 10
20.65032788231193
 20
4.054171367714575
 30
0.0
 10
21.74093625894181
 20
3.453379113302333
 30
0.0
 10
22.83019949466141
 20
2.667069084097687
 30
0.0
 10
23.91915398894141
 20
1.726047473441811
 30
0.0
 10
25.00891469815645
 20
0.6816406669131337
 30
0.0
 10
26.10029197529579
 20
-0.4114123292043688
 30
0.0
 10
27.19095835612371
 20
-1.496991091408629
 30
0.0
 10
28.28025320356187
 20
-2.518095270010932
 30
0.0
 10
29.36919941125286
 20
-3.421211603064363
 30
0.0
 10
30.45891477572276
 20
-4.160074564758332
 30
0.0
 10
31.55025252817703
 20
-4.693908908578512
 30
0.0
 10
32.64097212875155
 20
-5.001522758323316
 30
0.0
 10
33.7303331753203
 20
-5.043967020491635
 30
0.0
 10
34.55326303611246
 20
-4.937816680749059
 30
0.0
 10
35.01346074276226
 20
-4.747170144666293
 30
0.0
 10
35.11065378886153
 20
-4.706905890189551
 30
0.0
  0
SPLINE
  5
F0
330
1F
100
AcDbEntity
  8
0
  6
Continuous
 62
     1
370
    15
100
AcDbSpline
210
0.0
220
0.0
230
1.0
 70
     8
 71
     3
 72
    17
 73
    13
 74
     0
 42
0.000000001
 43
0.00000001
 40
0.0
 40
0.0
 40
0.0
 40
0.0
 40
0.0619867133184614
 40
0.1749290487109136
 40
0.2878307654818874
 40
0.4007824994301862
 40
0.5008023780273114
 40
0.6006417122263119
 40
0.7003748515347026
 40
0.8002890046781316
 40
0.9002568081400473
 40
1.0
 40
1.0
 40
1.0
 40
1.0
 10
48.393134155325
 20
4.471240749271111
 30
0.0
 10
48.59254585028134
 20
4.476011334730947
 30
0.0
 10
49.15529383663335
 20
4.489474122667383
 30
0.0
 10
50.08043719299842
 20
4.238021114371124
 30
0.0
 10
51.16942628804212
 20
3.752022379183981
 30
0.0
 10
52.21679686524531
 20
3.071514777879186
 30
0.0
 10
53.22371481916431
 20
2.27325585048591
 30
0.0
 10
54.18662316813174
 20
1.403659737402977
 30
0.0
 10
55.1484411157675
 20
0.4655616616787183
 30
0.0
 10
56.11205167425805
 20
-0.4996013873903691
 30
0.0
 10
57.07617330514113
 20
-1.460708435193075
 30
0.0
 10
57.71763158082991
 20
-2.054590677526133
 30
0.0
 10
58.03800000000014
 20
-2.351197834001301
 30
0.0
  0
SPLINE
  5
F1
330
1F
100
AcDbEntity
  8
0
  6
Continuous
 62
     1
370
    15
100
AcDbSpline
210
0.0
220
0.0
230
1.0
 70
     8
 71
     3
 72
    23
 73
    19
 74
     0
 42
0.000000001
 43
0.00000001
 40
0.0
 40
0.0
 40
0.0
 40
0.0
 40
0.0301617056760856
 40
0.0956880003911022
 40
0.1611475185928582
 40
0.2265925793692791
 40
0.2920757025178739
 40
0.3576432528369207
 40
0.4231727857997985
 40
0.4886337441701136
 40
0.5540784270573128
 40
0.6195593595087621
 40
0.6851246560504859
 40
0.7506574888238191
 40
0.8161199500633883
 40
0.8815643180332737
 40
0.9470431221560001
 40
1.0
 40
1.0
 40
1.0
 40
1.0
 10
20.14822842671122
 20
4.179967620604595
 30
0.0
 10
20.31564470042137
 20
4.244047520332566
 30
0.0
 10
20.84677276845218
 20
4.447340979133656
 30
0.0
 10
21.74094295884753
 20
4.534901728242133
 30
0.0
 10
22.83019770063443
 20
4.440141795674633
 30
0.0
 10
23.91915447007376
 20
4.08730318613411
 30
0.0
 10
25.00891456835338
 20
3.510985703926598
 30
0.0
 10
26.10029201255706
 20
2.73745252650792
 30
0.0
 10
27.19095833689828
 20
1.807516372539854
 30
0.0
 10
28.28025324320532
 20
0.76963119686293
 30
0.0
 10
29.36919927188571
 20
-0.3217733135605422
 30
0.0
 10
30.4589152941541
 20
-1.410322136477625
 30
0.0
 10
31.55025059164784
 20
-2.438436668643787
 30
0.0
 10
32.64097934823094
 20
-3.352811382190827
 30
0.0
 10
33.73030626689293
 20
-4.107862523355601
 30
0.0
 10
34.81924560867908
 20
-4.654831975782717
 30
0.0
 10
35.83900730003486
 20
-4.977930792628227
 30
0.0
 10
36.49643243947489
 20
-4.99562154223366
 30
0.0
 10
36.79039100181662
 20
-5.003531716348983
 30
0.0
  0
SPLINE
  5
F2
330
1F
100
AcDbEntity
  8
0
  6
Continuous
 62
     1
370
    15
100
AcDbSpline
210
0.0
220
0.0
230
1.0
 70
     8
 71
     3
 72
    16
 73
    12
 74
     0
 42
0.000000001
 43
0.00000001
 40
0.0
 40
0.0
 40
0.0
 40
0.0
 40
0.0010012101644951
 40
0.1377030032022127
 40
0.2744653572129476
 40
0.395569775592855
 40
0.516455590184864
 40
0.6372128236323767
 40
0.7581892292636454
 40
0.8792305948879404
 40
1.0
 40
1.0
 40
1.0
 40
1.0
 10
50.07259851452859
 20
4.208198292044621
 30
0.0
 10
50.07525683815201
 20
4.20939107718577
 30
0.0
 10
50.44087352824462
 20
4.373442643915793
 30
0.0
 10
51.16939640166947
 20
4.490728035706424
 30
0.0
 10
52.21680386113064
 20
4.520189562349079
 30
0.0
 10
53.22371304528654
 20
4.306795448447167
 30
0.0
 10
54.18662364247462
 20
3.922149912809088
 30
0.0
 10
55.14844098851345
 20
3.365244835145278
 30
0.0
 10
56.11205170824136
 20
2.660657418495406
 30
0.0
 10
57.07617329666571
 20
1.840873578300692
 30
0.0
 10
57.71763157800689
 20
1.227749168923865
 30
0.0
 10
58.03800000000015
 20
0.9215317495978465
 30
0.0
  0
SPLINE
  5
F3
330
1F
100
AcDbEntity
  8
0
  6
Continuous
 62
     1
370
    15
100
AcDbSpline
210
0.0
220
0.0
230
1.0
 70
     8
 71
     3
 72
     8
 73
     4
 74
     0
 42
0.000000001
 43
0.00000001
 40
0.0
 40
0.0
 40
0.0
 40
0.0
 40
1.0
 40
1.0
 40
1.0
 40
1.0
 10
58.03799999999998
 20
0.9215317495942852
 30
0.0
 10
58.08965520043498
 20
0.8716550679069407
 30
0.0
 10
58.13941567854961
 20
0.8197031835513442
 30
0.0
 10
58.18767641167624
 20
0.7660702594655041
 30
0.0
  0
SPLINE
  5
F4
330
1F
100
AcDbEntity
  8
0
  6
Continuous
 62
     1
370
    15
100
AcDbSpline
210
0.0
220
0.0
230
1.0
 70
     8
 71
     3
 72
    16
 73
    12
 74
     0
 42
0.000000001
 43
0.00000001
 40
0.0
 40
0.0
 40
0.0
 40
0.0
 40
0.250000000000002
 40
0.250000000000002
 40
0.500000000000004
 40
0.500000000000004
 40
0.750000000000006
 40
0.750000000000006
 40
0.875000000000003
 40
0.875000000000003
 40
1.0
 40
1.0
 40
1.0
 40
1.0
 10
58.18767641168778
 20
0.7660702594562366
 30
0.0
 10
58.17285083019497
 20
0.6828435608927138
 30
0.0
 10
58.14817610501912
 20
0.595419398223922
 30
0.0
 10
58.0715954766317
 20
0.4089658109440687
 30
0.0
 10
58.01838363457291
 20
0.3078083131534195
 30
0.0
 10
57.87622209978353
 20
0.1000211549379935
 30
0.0
 10
57.78542222429184
 20
-0.008409057470119
 30
0.0
 10
57.62768304965656
 20
-0.1604572582570546
 30
0.0
 10
57.57032975221354
 20
-0.2105408811814741
 30
0.0
 10
57.45284744639843
 20
-0.3033050071933397
 30
0.0
 10
57.39259762145554
 20
-0.3462614383822565
 30
0.0
 10
57.33093485845446
 20
-0.386009613930294
 30
0.0
  0
SPLINE
  5
F5
330
1F
100
AcDbEntity
  8
0
  6
Continuous
 62
     1
370
    15
100
AcDbSpline
210
0.0
220
0.0
230
1.0
 70
     8
 71
     3
 72
     8
 73
     4
 74
     0
 42
0.000000001
 43
0.00000001
 40
0.0
 40
0.0
 40
0.0
 40
0.0
 40
1.0
 40
1.0
 40
1.0
 40
1.0
 10
58.79999999999998
 20
-1.401480871182182
 30
0.0
 10
58.31232526839259
 20
-1.068261729631303
 30
0.0
 10
57.82256731793487
 20
-0.7295891921683156
 30
0.0
 10
57.33093485845444
 20
-0.3860096139302991
 30
0.0
  0
LINE
  5
F6
330
1F
100
AcDbEntity
  8
0
  6
Continuous
 62
     1
370
    15
100
AcDbLine
 10
58.79999999999998
 20
-1.999009878366314
 30
0.0
 11
58.79999999999998
 21
-1.401480871182182
 31
0.0
  0
LINE
  5
F7
330
1F
100
AcDbEntity
  8
0
  6
Continuous
 62
     1
370
    15
100
AcDbLine
 10
58.79999999999998
 20
-1.126403429028551
 30
0.0
 11
58.79999999999998
 21
0.8103464418892118
 31
0.0
  0
LINE
  5
F8
330
1F
100
AcDbEntity
  8
0
  6
Continuous
 62
     1
370
    15
100
AcDbLine
 10
57.33093485845446
 20
-0.386009613930296
 30
0.0
 11
58.79999999999998
 21
-1.126403429028551
 31
0.0
  0
SPLINE
  5
F9
330
1F
100
AcDbEntity
  8
0
  6
Continuous
 62
     1
370
    15
100
AcDbSpline
210
0.0
220
0.0
230
1.0
 70
     8
 71
     3
 72
    14
 73
    10
 74
     0
 42
0.000000001
 43
0.00000001
 40
0.0
 40
0.0
 40
0.0
 40
0.0
 40
0.25
 40
0.25
 40
0.5
 40
0.5
 40
0.75
 40
0.75
 40
1.0
 40
1.0
 40
1.0
 40
1.0
 10
58.79999999999998
 20
0.8103464418893404
 30
0.0
 10
58.79999999999994
 20
0.8570132621526193
 30
0.0
 10
58.78377157645385
 20
0.8928399367800871
 30
0.0
 10
58.71849687992054
 20
0.9369026425638446
 30
0.0
 10
58.66984704382192
 20
0.9443536416512982
 30
0.0
 10
58.55281799962226
 20
0.931800543821754
 30
0.0
 10
58.48412305567894
 20
0.9119557003456388
 30
0.0
 10
58.33953102376775
 20
0.8522343990141455
 30
0.0
 10
58.26363746788346
 20
0.8125467034751109
 30
0.0
 10
58.187676411685
 20
0.7660702594518681
 30
0.0
  0
LINE
  5
FA
330
1F
100
AcDbEntity
  8
0
  6
Continuous
 62
     1
370
    15
100
AcDbLine
 10
7.999999999999977
 20
1.081710229418758
 30
0.0
 11
7.999999999999982
 21
2.536084712819523
 31
0.0
  0
LINE
  5
FB
330
1F
100
AcDbEntity
  8
0
  6
Continuous
 62
     1
370
    15
100
AcDbLine
 10
7.999999999999975
 20
4.36795735053265
 30
0.0
 11
7.99999999999998
 21
4.502121974755887
 31
0.0
  0
LINE
  5
FC
330
1F
100
AcDbEntity
  8
0
  6
Continuous
 62
     1
370
    15
100
AcDbLine
 10
7.999999999999977
 20
-3.546625146357962
 30
0.0
 11
7.999999999999982
 21
-2.200694514708005
 31
0.0
  0
LINE
  5
FD
330
1F
100
AcDbEntity
  8
0
  6
Continuous
 62
     1
370
    15
100
AcDbLine
 10
58.038
 20
0.9215317495979971
 30
0.0
 11
58.03799999999998
 21
2.399938596037603
 31
0.0
  0
LINE
  5
FE
330
1F
100
AcDbEntity
  8
0
  6
Continuous
 62
     1
370
    15
100
AcDbLine
 10
58.03799999999998
 20
-3.664841970766142
 30
0.0
 11
58.03799999999998
 21
-2.351197834001161
 31
0.0
  0
LINE
  5
FF
330
1F
100
AcDbEntity
  8
0
  6
Continuous
 62
     1
370
    15
100
AcDbLine
 10
58.79999999999998
 20
0.8103464418892118
 30
0.0
 11
58.79999999999998
 21
1.99054155965569
 31
0.0
  0
LINE
  5
100
330
1F
100
AcDbEntity
  8
0
  6
Continuous
 62
     1
370
    15
100
AcDbLine
 10
58.79999999999998
 20
-3.063153299946331
 30
0.0
 11
58.79999999999998
 21
-1.999009878366314
 31
0.0
  0
SPLINE
  5
101
330
1F
100
AcDbEntity
  8
0
  6
Continuous
 62
     1
370
    15
100
AcDbSpline
210
0.0
220
0.0
230
1.0
 70
     8
 71
     3
 72
    14
 73
    10
 74
     0
 42
0.000000001
 43
0.00000001
 40
0.0
 40
0.0
 40
0.0
 40
0.0
 40
0.25
 40
0.25
 40
0.5
 40
0.5
 40
0.75
 40
0.75
 40
1.0
 40
1.0
 40
1.0
 40
1.0
 10
58.79999999999998
 20
-3.063153299946458
 30
0.0
 10
58.79999999999994
 20
-3.109820120209658
 30
0.0
 10
58.78377157645394
 20
-3.165328546291214
 30
0.0
 10
58.71849687992093
 20
-3.28855607974696
 30
0.0
 10
58.66984704382255
 20
-3.355009358363325
 30
0.0
 10
58.55281799962337
 20
-3.484388503941126
 30
0.0
 10
58.4841230556803
 20
-3.54785654720439
 30
0.0
 10
58.3395310237696
 20
-3.663495743844595
 30
0.0
 10
58.26363746788551
 20
-3.715851375844501
 30
0.0
 10
58.18767641168727
 20
-3.761500123405887
 30
0.0
  0
LINE
  5
102
330
1F
100
AcDbEntity
  8
0
  6
Continuous
 62
     1
370
    15
100
AcDbLine
 10
58.79999999999998
 20
-1.126403429028551
 30
0.0
 11
58.79999999999998
 21
-1.401480871182182
 31
0.0
  0
SPLINE
  5
103
330
1F
100
AcDbEntity
  8
0
  6
Continuous
 62
     1
370
    15
100
AcDbSpline
210
0.0
220
0.0
230
1.0
 70
     8
 71
     3
 72
    14
 73
    10
 74
     0
 42
0.000000001
 43
0.00000001
 40
0.0
 40
0.0
 40
0.0
 40
0.0
 40
0.25
 40
0.25
 40
0.5
 40
0.5
 40
0.75
 40
0.75
 40
1.0
 40
1.0
 40
1.0
 40
1.0
 10
58.79999999999998
 20
3.613121716591429
 30
0.0
 10
58.79999999999998
 20
3.706455357117804
 30
0.0
 10
58.783771576454
 20
3.797790457826797
 30
0.0
 10
58.71849687992103
 20
3.965080697066404
 30
0.0
 10
58.66984704382264
 20
4.038984974770343
 30
0.0
 10
58.55281799962344
 20
4.155811022518951
 30
0.0
 10
58.48412305568036
 20
4.199434222306316
 30
0.0
 10
58.33953102376966
 20
4.255352117615511
 30
0.0
 10
58.26363746788554
 20
4.26802005407662
 30
0.0
 10
58.18767641168727
 20
4.267192357615026
 30
0.0
  0
LINE
  5
104
330
1F
100
AcDbEntity
  8
0
  6
Continuous
 62
     1
370
    15
100
AcDbLine
 10
58.79999999999998
 20
2.324996638251348
 30
0.0
 11
58.79999999999998
 21
3.613121716591428
 31
0.0
  0
LINE
  5
105
330
1F
100
AcDbEntity
  8
0
  6
Continuous
 62
     1
370
    15
100
AcDbLine
 10
58.79999999999998
 20
-3.063153299946331
 30
0.0
 11
58.79999999999998
 21
-4.641878025244122
 31
0.0
  0
LINE
  5
106
330
1F
100
AcDbEntity
  8
0
  6
Continuous
 62
     1
370
    15
100
AcDbLine
 10
58.79999999999998
 20
3.613121716591428
 30
0.0
 11
58.79999999999998
 21
4.121121974755887
 31
0.0
  0
LINE
  5
107
330
1F
100
AcDbEntity
  8
0
  6
Continuous
 62
     1
370
    15
100
AcDbLine
 10
58.79999999999998
 20
-4.260878025244113
 30
0.0
 11
58.79999999999998
 21
-4.249929463266108
 31
0.0
  0
LINE
  5
10B
330
1F
100
AcDbEntity
  8
중심선
100
AcDbLine
 10
-45.8
 20
-0.2603780252441172
 30
0.0
 11
61.8
 21
-0.2603780252441172
 31
0.0
  0
CIRCLE
  5
10C
330
1F
100
AcDbEntity
  8
외형선
100
AcDbCircle
 10
0.0
 20
-0.2603780252441172
 30
0.0
 40
3.000000000000004
  0
INSERT
  5
10D
330
1F
100
AcDbEntity
  8
0
  6
Continuous
 62
     7
100
AcDbBlockReference
 66
     1
  2
블럭10
 10
-18.6293604990935
 20
-52.04717430164393
 30
0.0
  0
ATTRIB
  5
10E
330
10D
100
AcDbEntity
  8
FORMAT
 62
     2
100
AcDbText
 10
-29.68038085127796
 20
-49.97180738881174
 30
0.0
 40
4.233333333333333
  1
GMG23914[ 6 FLUTE ]
 41
0.75
  7
SLDTEXTSTYLE0
 11
-29.68038085127796
 21
-52.08847405547841
 31
0.0
100
AcDbAttribute
  2
AUTOATTR0
 70
     0
 74
     1
  0
SEQEND
  5
10F
330
10D
100
AcDbEntity
  8
0
  6
Continuous
 62
     7
  0
HATCH
  5
110
330
1F
100
AcDbEntity
  8
중심선
100
AcDbHatch
 10
0.0
 20
0.0
 30
0.0
210
0.0
220
0.0
230
1.0
  2
SOLID
 70
     1
 71
     0
 91
        1
 92
        0
 93
        4
 72
     1
 10
-12.91445119471265
 20
-35.8
 11
-16.36072643854993
 21
-35.8
 72
     1
 10
-16.36072643854993
 20
-35.8
 11
-18.48895629775395
 21
-38.33632558057259
 72
     1
 10
-18.48895629775395
 20
-38.33632558057259
 11
-15.04264796880352
 21
-38.3362861512701
 72
     1
 10
-15.04264796880352
 20
-38.3362861512701
 11
-12.91445119471265
 21
-35.8
 97
        0
 75
     0
 76
     1
 98
        1
 10
-1.99951407992554
 20
0.0018964059265748
  0
HATCH
  5
111
330
1F
100
AcDbEntity
  8
중심선
100
AcDbHatch
 10
0.0
 20
0.0
 30
0.0
210
0.0
220
0.0
230
1.0
  2
SOLID
 70
     1
 71
     0
 91
        1
 92
        0
 93
        4
 72
     1
 10
-7.901687203676699
 20
-35.8
 11
-11.34796244751398
 21
-35.8
 72
     1
 10
-11.34796244751398
 20
-35.8
 11
-15.87910045587137
 21
-41.20000000000001
 72
     1
 10
-15.87910045587137
 20
-41.20000000000001
 11
-12.43282521203409
 21
-41.20000000000001
 72
     1
 10
-12.43282521203409
 20
-41.20000000000001
 11
-7.901687203676699
 21
-35.8
 97
        0
 75
     0
 76
     1
 98
        1
 10
-1.99951407992554
 20
0.0018964059265748
  0
HATCH
  5
112
330
1F
100
AcDbEntity
  8
중심선
100
AcDbHatch
 10
0.0
 20
0.0
 30
0.0
210
0.0
220
0.0
230
1.0
  2
SOLID
 70
     1
 71
     0
 91
        1
 92
        0
 93
        4
 72
     1
 10
-2.888923212640803
 20
-35.80000000000003
 11
-6.335198456477919
 21
-35.8
 72
     1
 10
-6.335198456477919
 20
-35.8
 11
-13.38363535836717
 21
-44.20000000000002
 72
     1
 10
-13.38363535836717
 20
-44.20000000000002
 11
-9.937360114529884
 21
-44.20000000000002
 72
     1
 10
-9.937360114529884
 20
-44.20000000000002
 11
-2.888923212640802
 21
-35.80000000000003
 97
        0
 75
     0
 76
     1
 98
        1
 10
-1.99951407992554
 20
0.0018964059265748
  0
HATCH
  5
113
330
1F
100
AcDbEntity
  8
중심선
100
AcDbHatch
 10
0.0
 20
0.0
 30
0.0
210
0.0
220
0.0
230
1.0
  2
SOLID
 70
     1
 71
     0
 91
        1
 92
        0
 93
        6
 72
     3
 10
1.910967218371397
 20
-40.00000000005127
 11
3.960054785062283
 21
1.540882976769353E-10
 40
0.3939339440162628
 50
17.09539180608436
 51
320.0019657685081
 73
     0
 72
     1
 10
3.593966874071992
 20
-38.5878940046383
 11
5.89926874777303
 21
-36.65356729459037
 72
     3
 10
1.91096721831855
 20
-40.00000000000014
 11
6.600054785286829
 21
-1.278976924368180E-13
 40
0.636358354079598
 50
39.99873849337411
 51
368.4976242363724
 73
     1
 72
     1
 10
8.336299710219158
 20
-39.03999999993002
 11
0.5910345251544724
 21
-39.03999999992999
 72
     1
 10
0.5910345251544724
 20
-39.03999999992999
 11
0.5910094807085384
 21
-40.95999999992991
 72
     1
 10
0.5910094807085384
 20
-40.95999999992991
 11
5.032389250180575
 21
-40.95999999992988
 97
        0
 75
     0
 76
     1
 98
        1
 10
-1.99951407992554
 20
0.0018964059265748
  0
POINT
  5
114
330
1F
100
AcDbEntity
  8
치수문자_일반주서
100
AcDbPoint
 10
0.0
 20
-0.2603780252441172
 30
0.0
  0
DIMENSION
  5
115
330
1F
100
AcDbEntity
  8
치수문자_일반주서
100
AcDbDimension
  2
_D
 10
69.26089501895791
 20
4.502121974755931
 30
0.0
 11
69.26089501895792
 21
-0.2603780252440879
 31
0.0
 70
   160
  1
%%c<>
 71
     2
 42
9.525
 52
-270.0
  3
SLDDIMSTYLE0
100
AcDbAlignedDimension
 13
58.03799999999998
 23
-5.022878025244113
 33
0.0
 14
58.03799999999998
 24
4.502121974755887
 34
0.0
 50
90.0000000000002
100
AcDbRotatedDimension
1001
ACAD
1000
DSTYLE
1002
{
1070
   171
1070
     3
1070
   273
1070
     7
1002
}
  0
DIMENSION
  5
12A
330
1F
100
AcDbEntity
  8
치수문자_일반주서
100
AcDbDimension
  2
_D_1
 10
58.79999999999998
 20
37.15767339282767
 30
0.0
 11
7.999999999999991
 21
37.15767339282767
 31
0.0
 70
   160
  1
<>
 71
     2
 42
101.6
  3
SLDDIMSTYLE1
100
AcDbAlignedDimension
 13
-42.80000000000001
 23
4.00212197475588
 33
0.0
 14
58.79999999999998
 24
3.740121974755888
 34
0.0
100
AcDbRotatedDimension
1001
ACAD
1000
DSTYLE
1002
{
1070
   171
1070
     3
1070
   273
1070
     7
1002
}
  0
DIMENSION
  5
13E
330
1F
100
AcDbEntity
  8
치수문자_일반주서
100
AcDbDimension
  2
_D_2
 10
7.999999999999979
 20
21.36711650509383
 30
0.0
 11
32.84120226380295
 21
21.36711650509383
 31
0.0
 70
   160
  1
<>
 71
     2
 42
50.8
  3
SLDDIMSTYLE1
100
AcDbAlignedDimension
 13
58.79999999999998
 23
3.740121974755888
 33
0.0
 14
7.999999999999979
 24
-5.022878025244113
 34
0.0
 50
-0.000000000000004
100
AcDbRotatedDimension
1001
ACAD
1000
DSTYLE
1002
{
1070
   171
1070
     3
1070
   273
1070
     7
1002
}
  0
DIMENSION
  5
151
330
1F
100
AcDbEntity
  8
치수문자_일반주서
100
AcDbDimension
  2
_D_3
 10
-55.8
 20
-5.022878025244164
 30
0.0
 11
-55.80000000000003
 21
-0.2603780252441159
 31
0.0
 70
   160
  1
%%c<>
 71
     2
 42
9.525
 52
-270.0
  3
SLDDIMSTYLE0
100
AcDbAlignedDimension
 13
-42.30000000000001
 23
4.502121974755885
 33
0.0
 14
-42.30000000000001
 24
-5.022878025244116
 34
0.0
 50
90.0000000000002
100
AcDbRotatedDimension
1001
ACAD
1000
DSTYLE
1002
{
1070
   171
1070
     3
1070
   273
1070
     7
1002
}
  0
INSERT
  5
16B
330
1F
100
AcDbEntity
  8
외형선
100
AcDbBlockReference
  2
SW_DOWELSYMBOL_0
 10
0.0
 20
-0.2603780252441172
 30
0.0
  0
LINE
  5
191
330
1F
100
AcDbEntity
  8
0
100
AcDbLine
 10
7.999999999999993
 20
0.0
 30
0.0
 11
7.999999999999989
 21
-1.464312945158387
 31
0.0
  0
ARC
  5
193
330
1F
100
AcDbEntity
  8
0
  6
Continuous
 62
     1
370
    15
100
AcDbCircle
 10
58.41899999999998
 20
4.121121974755887
 30
0.0
 40
0.3809999999999999
100
AcDbArc
 50
0.0
 51
90.0
  0
ARC
  5
195
330
1F
100
AcDbEntity
  8
0
  6
Continuous
 62
     1
370
    15
100
AcDbCircle
 10
58.41899999999998
 20
-4.641878025244122
 30
0.0
 40
0.3809999999999999
100
AcDbArc
 50
270.0
 51
0.0
  0
DIMENSION
  5
197
330
1F
100
AcDbEntity
  8
치수문자_일반주서
100
AcDbDimension
  2
*D7
 10
58.41899999999998
 20
4.121121974755887
 30
0.0
 11
71.62847696039478
 21
22.70507280531785
 31
0.0
 70
   164
  1
<>
 71
     5
 42
0.3809999999999992
  3
SLDDIMSTYLE1
100
AcDbRadialDimension
 15
58.63973444406675
 25
4.431665538853641
 35
0.0
 40
0.0
1001
ACAD
1000
DSTYLE
1002
{
1070
   171
1070
     3
1070
   273
1070
     2
1002
}
1001
ACAD_DSTYLE_DIMRADIAL_EXTENSION
1070
   387
1070
     1
1070
   388
1040
0.0
1070
   390
1040
1.570796326794897
  0
LINE
  5
203
330
1F
100
AcDbEntity
  8
0
  6
Continuous
 62
     4
370
    15
100
AcDbLine
 10
-26.52495000000013
 20
3.232121974755888
 30
0.0
 11
-19.38755
 21
3.232121974755888
 31
0.0
  0
LINE
  5
204
330
1F
100
AcDbEntity
  8
0
  6
Continuous
 62
     4
370
    15
100
AcDbLine
 10
-26.52495000000013
 20
3.232121974755888
 30
0.0
 11
-27.79495000000011
 21
4.50212197475587
 31
0.0
  0
LINE
  5
205
330
1F
100
AcDbEntity
  8
0
  6
Continuous
 62
     4
370
    15
100
AcDbLine
 10
-19.38755
 20
3.232121974755888
 30
0.0
 11
-18.11754999999991
 21
4.50212197475587
 31
0.0
  0
LINE
  5
206
330
1F
100
AcDbEntity
  8
0
  6
Continuous
 62
     4
370
    15
100
AcDbLine
 10
-27.79495000000014
 20
4.502121974755886
 30
0.0
 11
-42.30000000000001
 21
4.502121974755885
 31
0.0
  0
ENDSEC
  0
SECTION
  2
OBJECTS
  0
DICTIONARY
  5
C
330
0
100
AcDbDictionary
281
     1
  3
ACAD_GROUP
350
D
  3
ACAD_IMAGE_VARS
350
18F
  3
ACAD_LAYOUT
350
1A
  3
ACAD_MLINESTYLE
350
17
  3
ACAD_PLOTSETTINGS
350
19
  3
ACAD_PLOTSTYLENAME
350
E
  3
ACAD_SCALELIST
350
47
  3
APPDATA
350
18D
  3
DWGPROPS
350
22B
  0
DICTIONARY
  5
1F4
330
2
100
AcDbDictionary
280
     1
281
     1
  3
ACAD_LAYERSTATES
360
1F5
  0
DICTIONARY
  5
229
330
1F
100
AcDbDictionary
280
     1
281
     1
  3
DIM_BOUNDING_BOXES_V1
360
22A
  0
DICTIONARY
  5
D
102
{ACAD_REACTORS
330
C
102
}
330
C
100
AcDbDictionary
281
     1
  0
RASTERVARIABLES
  5
18F
102
{ACAD_REACTORS
330
C
102
}
330
C
100
AcDbRasterVariables
 90
        0
 70
     1
 71
     1
 72
     1
  0
DICTIONARY
  5
1A
102
{ACAD_REACTORS
330
C
102
}
330
C
100
AcDbDictionary
281
     1
  3
Layout1
350
1E
  3
Layout2
350
26
  3
Model
350
22
  0
DICTIONARY
  5
17
102
{ACAD_REACTORS
330
C
102
}
330
C
100
AcDbDictionary
281
     1
  3
Standard
350
18
  0
DICTIONARY
  5
19
102
{ACAD_REACTORS
330
C
102
}
330
C
100
AcDbDictionary
281
     1
  0
ACDBDICTIONARYWDFLT
  5
E
102
{ACAD_REACTORS
330
C
102
}
330
C
100
AcDbDictionary
281
     1
  3
Normal
350
F
100
AcDbDictionaryWithDefault
340
F
  0
DICTIONARY
  5
47
102
{ACAD_REACTORS
330
C
102
}
330
C
100
AcDbDictionary
281
     1
  3
A0
350
48
  3
A1
350
49
  3
A2
350
4A
  3
A3
350
4B
  3
A4
350
4C
  3
A5
350
4D
  3
A6
350
4E
  3
A7
350
4F
  3
A8
350
50
  3
A9
350
51
  3
B0
350
52
  3
B1
350
53
  3
B2
350
54
  3
B3
350
55
  3
B4
350
56
  3
B5
350
57
  3
B6
350
58
  3
B7
350
59
  3
B8
350
5A
  3
B9
350
5B
  3
C0
350
5C
  3
C1
350
5D
  3
C2
350
5E
  3
C3
350
5F
  3
C4
350
60
  3
C5
350
61
  3
C6
350
62
  3
C7
350
63
  3
C8
350
64
  3
C9
350
65
  3
D0
350
66
  3
D1
350
67
  3
D2
350
68
  0
DICTIONARY
  5
18D
102
{ACAD_REACTORS
330
C
102
}
330
C
100
AcDbDictionary
281
     1
  0
XRECORD
  5
22B
102
{ACAD_REACTORS
330
C
102
}
330
C
100
AcDbXrecord
280
     1
  1
DWGPROPS COOKIE
  2

  3

  4

  6

  7

  8
12015018
  9

300
=
301
=
302
=
303
=
304
=
305
=
306
=
307
=
308
=
309
=
 40
0.0
 41
2458236.367821204
 42
2459697.057100463
  1

 90
        0
  0
DICTIONARY
  5
1F5
102
{ACAD_REACTORS
330
1F4
102
}
330
1F4
100
AcDbDictionary
281
     1
  0
DICTIONARY
  5
22A
102
{ACAD_REACTORS
330
229
102
}
330
229
100
AcDbDictionary
281
     1
  0
LAYOUT
  5
1E
102
{ACAD_REACTORS
330
1A
102
}
330
1A
100
AcDbPlotSettings
  1

  2
none_device
  4

  6

 40
0.0
 41
0.0
 42
0.0
 43
0.0
 44
0.0
 45
0.0
 46
0.0
 47
0.0
 48
0.0
 49
0.0
140
0.0
141
0.0
142
1.0
143
1.0
 70
   688
 72
     1
 73
     0
 74
     5
  7

 75
    16
147
1.0
148
0.0
149
0.0
100
AcDbLayout
  1
Layout1
 70
     1
 71
     1
 10
0.0
 20
0.0
 11
420.0
 21
297.0
 12
0.0
 22
0.0
 32
0.0
 14
1.000000000000000E+20
 24
1.000000000000000E+20
 34
1.000000000000000E+20
 15
-1.000000000000000E+20
 25
-1.000000000000000E+20
 35
-1.000000000000000E+20
146
0.0
 13
0.0
 23
0.0
 33
0.0
 16
1.0
 26
0.0
 36
0.0
 17
0.0
 27
1.0
 37
0.0
 76
     0
330
1B
  0
LAYOUT
  5
26
102
{ACAD_REACTORS
330
1A
102
}
330
1A
100
AcDbPlotSettings
  1

  2
none_device
  4

  6

 40
0.0
 41
0.0
 42
0.0
 43
0.0
 44
0.0
 45
0.0
 46
0.0
 47
0.0
 48
0.0
 49
0.0
140
0.0
141
0.0
142
1.0
143
1.0
 70
   688
 72
     1
 73
     0
 74
     5
  7

 75
    16
147
1.0
148
0.0
149
0.0
100
AcDbLayout
  1
Layout2
 70
     1
 71
     2
 10
0.0
 20
0.0
 11
0.0
 21
0.0
 12
0.0
 22
0.0
 32
0.0
 14
0.0
 24
0.0
 34
0.0
 15
0.0
 25
0.0
 35
0.0
146
0.0
 13
0.0
 23
0.0
 33
0.0
 16
1.0
 26
0.0
 36
0.0
 17
0.0
 27
1.0
 37
0.0
 76
     0
330
23
  0
LAYOUT
  5
22
102
{ACAD_REACTORS
330
1A
102
}
330
1A
100
AcDbPlotSettings
  1

  2
none_device
  4
ANSI_A_(11.00_x_8.50_Inches)
  6

 40
6.35
 41
19.05
 42
6.35000508
 43
19.05000254
 44
279.4
 45
215.9
 46
130.0565626932801
 47
91.79381710424715
 48
0.0
 49
0.0
140
0.0
141
0.0
142
0.0822892103079729
143
1.0
 70
  1696
 72
     0
 73
     0
 74
     0
  7

 75
     0
147
0.0235690232323232
148
0.0
149
0.0
100
AcDbLayout
  1
Model
 70
     1
 71
     0
 10
0.0
 20
0.0
 11
420.0
 21
297.0
 12
0.0
 22
0.0
 32
0.0
 14
-60.17500000000008
 24
-49.97180738881174
 34
0.0
 15
79.73945390772995
 25
41.53267339282768
 35
0.0
146
0.0
 13
0.0
 23
0.0
 33
0.0
 16
1.0
 26
0.0
 36
0.0
 17
0.0
 27
1.0
 37
0.0
 76
     0
330
1F
331
29
  0
MLINESTYLE
  5
18
102
{ACAD_REACTORS
330
17
102
}
330
17
100
AcDbMlineStyle
  2
Standard
 70
     0
  3

 62
   256
 51
90.0
 52
90.0
 71
     2
 49
0.5
 62
   256
  6
BYLAYER
 49
-0.5
 62
   256
  6
BYLAYER
  0
ACDBPLACEHOLDER
  5
F
102
{ACAD_REACTORS
330
E
102
}
330
E
  0
SCALE
  5
48
102
{ACAD_REACTORS
330
47
102
}
330
47
100
AcDbScale
 70
     0
300
1:1
140
1.0
141
1.0
290
     1
  0
SCALE
  5
49
102
{ACAD_REACTORS
330
47
102
}
330
47
100
AcDbScale
 70
     0
300
1:2
140
1.0
141
2.0
290
     0
  0
SCALE
  5
4A
102
{ACAD_REACTORS
330
47
102
}
330
47
100
AcDbScale
 70
     0
300
1:4
140
1.0
141
4.0
290
     0
  0
SCALE
  5
4B
102
{ACAD_REACTORS
330
47
102
}
330
47
100
AcDbScale
 70
     0
300
1:5
140
1.0
141
5.0
290
     0
  0
SCALE
  5
4C
102
{ACAD_REACTORS
330
47
102
}
330
47
100
AcDbScale
 70
     0
300
1:8
140
1.0
141
8.0
290
     0
  0
SCALE
  5
4D
102
{ACAD_REACTORS
330
47
102
}
330
47
100
AcDbScale
 70
     0
300
1:10
140
1.0
141
10.0
290
     0
  0
SCALE
  5
4E
102
{ACAD_REACTORS
330
47
102
}
330
47
100
AcDbScale
 70
     0
300
1:16
140
1.0
141
16.0
290
     0
  0
SCALE
  5
4F
102
{ACAD_REACTORS
330
47
102
}
330
47
100
AcDbScale
 70
     0
300
1:20
140
1.0
141
20.0
290
     0
  0
SCALE
  5
50
102
{ACAD_REACTORS
330
47
102
}
330
47
100
AcDbScale
 70
     0
300
1:30
140
1.0
141
30.0
290
     0
  0
SCALE
  5
51
102
{ACAD_REACTORS
330
47
102
}
330
47
100
AcDbScale
 70
     0
300
1:40
140
1.0
141
40.0
290
     0
  0
SCALE
  5
52
102
{ACAD_REACTORS
330
47
102
}
330
47
100
AcDbScale
 70
     0
300
1:50
140
1.0
141
50.0
290
     0
  0
SCALE
  5
53
102
{ACAD_REACTORS
330
47
102
}
330
47
100
AcDbScale
 70
     0
300
1:100
140
1.0
141
100.0
290
     0
  0
SCALE
  5
54
102
{ACAD_REACTORS
330
47
102
}
330
47
100
AcDbScale
 70
     0
300
2:1
140
2.0
141
1.0
290
     0
  0
SCALE
  5
55
102
{ACAD_REACTORS
330
47
102
}
330
47
100
AcDbScale
 70
     0
300
4:1
140
4.0
141
1.0
290
     0
  0
SCALE
  5
56
102
{ACAD_REACTORS
330
47
102
}
330
47
100
AcDbScale
 70
     0
300
8:1
140
8.0
141
1.0
290
     0
  0
SCALE
  5
57
102
{ACAD_REACTORS
330
47
102
}
330
47
100
AcDbScale
 70
     0
300
10:1
140
10.0
141
1.0
290
     0
  0
SCALE
  5
58
102
{ACAD_REACTORS
330
47
102
}
330
47
100
AcDbScale
 70
     0
300
100:1
140
100.0
141
1.0
290
     0
  0
SCALE
  5
59
102
{ACAD_REACTORS
330
47
102
}
330
47
100
AcDbScale
 70
     0
300
1/128" = 1'-0"
140
0.0078125
141
12.0
290
     0
  0
SCALE
  5
5A
102
{ACAD_REACTORS
330
47
102
}
330
47
100
AcDbScale
 70
     0
300
1/64" = 1'-0"
140
0.015625
141
12.0
290
     0
  0
SCALE
  5
5B
102
{ACAD_REACTORS
330
47
102
}
330
47
100
AcDbScale
 70
     0
300
1/32" = 1'-0"
140
0.03125
141
12.0
290
     0
  0
SCALE
  5
5C
102
{ACAD_REACTORS
330
47
102
}
330
47
100
AcDbScale
 70
     0
300
1/16" = 1'-0"
140
0.0625
141
12.0
290
     0
  0
SCALE
  5
5D
102
{ACAD_REACTORS
330
47
102
}
330
47
100
AcDbScale
 70
     0
300
3/32" = 1'-0"
140
0.09375
141
12.0
290
     0
  0
SCALE
  5
5E
102
{ACAD_REACTORS
330
47
102
}
330
47
100
AcDbScale
 70
     0
300
1/8" = 1'-0"
140
0.125
141
12.0
290
     0
  0
SCALE
  5
5F
102
{ACAD_REACTORS
330
47
102
}
330
47
100
AcDbScale
 70
     0
300
3/16" = 1'-0"
140
0.1875
141
12.0
290
     0
  0
SCALE
  5
60
102
{ACAD_REACTORS
330
47
102
}
330
47
100
AcDbScale
 70
     0
300
1/4" = 1'-0"
140
0.25
141
12.0
290
     0
  0
SCALE
  5
61
102
{ACAD_REACTORS
330
47
102
}
330
47
100
AcDbScale
 70
     0
300
3/8" = 1'-0"
140
0.375
141
12.0
290
     0
  0
SCALE
  5
62
102
{ACAD_REACTORS
330
47
102
}
330
47
100
AcDbScale
 70
     0
300
1/2" = 1'-0"
140
0.5
141
12.0
290
     0
  0
SCALE
  5
63
102
{ACAD_REACTORS
330
47
102
}
330
47
100
AcDbScale
 70
     0
300
3/4" = 1'-0"
140
0.75
141
12.0
290
     0
  0
SCALE
  5
64
102
{ACAD_REACTORS
330
47
102
}
330
47
100
AcDbScale
 70
     0
300
1" = 1'-0"
140
1.0
141
12.0
290
     0
  0
SCALE
  5
65
102
{ACAD_REACTORS
330
47
102
}
330
47
100
AcDbScale
 70
     0
300
1-1/2" = 1'-0"
140
1.5
141
12.0
290
     0
  0
SCALE
  5
66
102
{ACAD_REACTORS
330
47
102
}
330
47
100
AcDbScale
 70
     0
300
3" = 1'-0"
140
3.0
141
12.0
290
     0
  0
SCALE
  5
67
102
{ACAD_REACTORS
330
47
102
}
330
47
100
AcDbScale
 70
     0
300
6" = 1'-0"
140
6.0
141
12.0
290
     0
  0
SCALE
  5
68
102
{ACAD_REACTORS
330
47
102
}
330
47
100
AcDbScale
 70
     0
300
1'-0" = 1'-0"
140
12.0
141
12.0
290
     0
  0
ENDSEC
  0
EOF
