  0
SECTION
  2
HEADER
  9
$ACADVER
  1
AC1015
  9
$ACADMAINTVER
 70
     6
  9
$DWGCODEPAGE
  3
ANSI_949
  9
$INSBASE
 10
0.0
 20
0.0
 30
0.0
  9
$EXTMIN
 10
-64.52500000000005
 20
-49.97370379473831
 30
0.0
  9
$EXTMAX
 10
62.59105127683323
 20
43.38055141807179
 30
0.0
  9
$LIMMIN
 10
0.0
 20
0.0
  9
$LIMMAX
 10
420.0
 20
297.0
  9
$ORTHOMODE
 70
     0
  9
$REGENMODE
 70
     1
  9
$FILLMODE
 70
     1
  9
$QTEXTMODE
 70
     0
  9
$MIRRTEXT
 70
     1
  9
$LTSCALE
 40
1.0
  9
$ATTMODE
 70
     1
  9
$TEXTSIZE
 40
3.5
  9
$TRACEWID
 40
1.0
  9
$TEXTSTYLE
  7
Standard
  9
$CLAYER
  8
0
  9
$CELTYPE
  6
ByLayer
  9
$CECOLOR
 62
   256
  9
$CELTSCALE
 40
1.0
  9
$DISPSILH
 70
     0
  9
$DIMSCALE
 40
1.0
  9
$DIMASZ
 40
3.302
  9
$DIMEXO
 40
1.0
  9
$DIMDLI
 40
3.75
  9
$DIMRND
 40
0.0
  9
$DIMDLE
 40
0.0
  9
$DIMEXE
 40
1.0
  9
$DIMTP
 40
0.0
  9
$DIMTM
 40
0.0
  9
$DIMTXT
 40
3.5
  9
$DIMCEN
 40
2.5
  9
$DIMTSZ
 40
0.0
  9
$DIMTOL
 70
     0
  9
$DIMLIM
 70
     0
  9
$DIMTIH
 70
     1
  9
$DIMTOH
 70
     1
  9
$DIMSE1
 70
     0
  9
$DIMSE2
 70
     0
  9
$DIMTAD
 70
     1
  9
$DIMZIN
 70
     0
  9
$DIMBLK
  1

  9
$DIMASO
 70
     1
  9
$DIMSHO
 70
     1
  9
$DIMPOST
  1

  9
$DIMAPOST
  1

  9
$DIMALT
 70
     0
  9
$DIMALTD
 70
     3
  9
$DIMALTF
 40
0.0393700787401575
  9
$DIMLFAC
 40
1.0
  9
$DIMTOFL
 70
     1
  9
$DIMTVP
 40
0.0
  9
$DIMTIX
 70
     0
  9
$DIMSOXD
 70
     0
  9
$DIMSAH
 70
     0
  9
$DIMBLK1
  1

  9
$DIMBLK2
  1

  9
$DIMSTYLE
  2
ISO-25
  9
$DIMCLRD
 70
     0
  9
$DIMCLRE
 70
     0
  9
$DIMCLRT
 70
     0
  9
$DIMTFAC
 40
1.0
  9
$DIMGAP
 40
1.524
  9
$DIMJUST
 70
     0
  9
$DIMSD1
 70
     0
  9
$DIMSD2
 70
     0
  9
$DIMTOLJ
 70
     0
  9
$DIMTZIN
 70
     0
  9
$DIMALTZ
 70
     0
  9
$DIMALTTZ
 70
     0
  9
$DIMUPT
 70
     0
  9
$DIMDEC
 70
     2
  9
$DIMTDEC
 70
     2
  9
$DIMALTU
 70
     2
  9
$DIMALTTD
 70
     3
  9
$DIMTXSTY
  7
Standard
  9
$DIMAUNIT
 70
     0
  9
$DIMADEC
 70
     2
  9
$DIMALTRND
 40
0.0
  9
$DIMAZIN
 70
     0
  9
$DIMDSEP
 70
    44
  9
$DIMATFIT
 70
     3
  9
$DIMFRAC
 70
     0
  9
$DIMLDRBLK
  1

  9
$DIMLUNIT
 70
     2
  9
$DIMLWD
 70
    -2
  9
$DIMLWE
 70
    -2
  9
$DIMTMOVE
 70
     0
  9
$LUNITS
 70
     2
  9
$LUPREC
 70
     2
  9
$SKETCHINC
 40
1.0
  9
$FILLETRAD
 40
10.0
  9
$AUNITS
 70
     0
  9
$AUPREC
 70
     2
  9
$MENU
  1
.
  9
$ELEVATION
 40
0.0
  9
$PELEVATION
 40
0.0
  9
$THICKNESS
 40
0.0
  9
$LIMCHECK
 70
     0
  9
$CHAMFERA
 40
0.0
  9
$CHAMFERB
 40
0.0
  9
$CHAMFERC
 40
0.0
  9
$CHAMFERD
 40
0.0
  9
$SKPOLY
 70
     0
  9
$TDCREATE
 40
2458236.744305718
  9
$TDUCREATE
 40
2458236.369305718
  9
$TDUPDATE
 40
2459697.433584884
  9
$TDUUPDATE
 40
2459697.058584884
  9
$TDINDWG
 40
0.0006608449
  9
$TDUSRTIMER
 40
0.0001124306
  9
$USRTIMER
 70
     1
  9
$ANGBASE
 50
0.0
  9
$ANGDIR
 70
     0
  9
$PDMODE
 70
     0
  9
$PDSIZE
 40
-1.0
  9
$PLINEWID
 40
0.0
  9
$SPLFRAME
 70
     0
  9
$SPLINETYPE
 70
     6
  9
$SPLINESEGS
 70
     8
  9
$HANDSEED
  5
350
  9
$SURFTAB1
 70
     6
  9
$SURFTAB2
 70
     6
  9
$SURFTYPE
 70
     6
  9
$SURFU
 70
     6
  9
$SURFV
 70
     6
  9
$UCSBASE
  2

  9
$UCSNAME
  2

  9
$UCSORG
 10
0.0
 20
0.0
 30
0.0
  9
$UCSXDIR
 10
1.0
 20
0.0
 30
0.0
  9
$UCSYDIR
 10
0.0
 20
1.0
 30
0.0
  9
$UCSORTHOREF
  2

  9
$UCSORTHOVIEW
 70
     0
  9
$UCSORGTOP
 10
0.0
 20
0.0
 30
0.0
  9
$UCSORGBOTTOM
 10
0.0
 20
0.0
 30
0.0
  9
$UCSORGLEFT
 10
0.0
 20
0.0
 30
0.0
  9
$UCSORGRIGHT
 10
0.0
 20
0.0
 30
0.0
  9
$UCSORGFRONT
 10
0.0
 20
0.0
 30
0.0
  9
$UCSORGBACK
 10
0.0
 20
0.0
 30
0.0
  9
$PUCSBASE
  2

  9
$PUCSNAME
  2

  9
$PUCSORG
 10
0.0
 20
0.0
 30
0.0
  9
$PUCSXDIR
 10
1.0
 20
0.0
 30
0.0
  9
$PUCSYDIR
 10
0.0
 20
1.0
 30
0.0
  9
$PUCSORTHOREF
  2

  9
$PUCSORTHOVIEW
 70
     0
  9
$PUCSORGTOP
 10
0.0
 20
0.0
 30
0.0
  9
$PUCSORGBOTTOM
 10
0.0
 20
0.0
 30
0.0
  9
$PUCSORGLEFT
 10
0.0
 20
0.0
 30
0.0
  9
$PUCSORGRIGHT
 10
0.0
 20
0.0
 30
0.0
  9
$PUCSORGFRONT
 10
0.0
 20
0.0
 30
0.0
  9
$PUCSORGBACK
 10
0.0
 20
0.0
 30
0.0
  9
$USERI1
 70
     0
  9
$USERI2
 70
     0
  9
$USERI3
 70
     0
  9
$USERI4
 70
     0
  9
$USERI5
 70
     0
  9
$USERR1
 40
0.0
  9
$USERR2
 40
0.0
  9
$USERR3
 40
0.0
  9
$USERR4
 40
0.0
  9
$USERR5
 40
0.0
  9
$WORLDVIEW
 70
     1
  9
$SHADEDGE
 70
     3
  9
$SHADEDIF
 70
    70
  9
$TILEMODE
 70
     1
  9
$MAXACTVP
 70
    64
  9
$PINSBASE
 10
0.0
 20
0.0
 30
0.0
  9
$PLIMCHECK
 70
     0
  9
$PEXTMIN
 10
1.000000000000000E+20
 20
1.000000000000000E+20
 30
1.000000000000000E+20
  9
$PEXTMAX
 10
-1.000000000000000E+20
 20
-1.000000000000000E+20
 30
-1.000000000000000E+20
  9
$PLIMMIN
 10
0.0
 20
0.0
  9
$PLIMMAX
 10
0.0
 20
0.0
  9
$UNITMODE
 70
     0
  9
$VISRETAIN
 70
     1
  9
$PLINEGEN
 70
     0
  9
$PSLTSCALE
 70
     1
  9
$TREEDEPTH
 70
  3020
  9
$CMLSTYLE
  2
Standard
  9
$CMLJUST
 70
     0
  9
$CMLSCALE
 40
20.0
  9
$PROXYGRAPHICS
 70
     1
  9
$MEASUREMENT
 70
     1
  9
$CELWEIGHT
370
    -1
  9
$ENDCAPS
280
     0
  9
$JOINSTYLE
280
     0
  9
$LWDISPLAY
290
     1
  9
$INSUNITS
 70
     4
  9
$HYPERLINKBASE
  1

  9
$STYLESHEET
  1

  9
$XEDIT
290
     1
  9
$CEPSNTYPE
380
     0
  9
$PSTYLEMODE
290
     1
  9
$FINGERPRINTGUID
  2
{F0FA2DAB-BBEE-41D3-87EE-B493E7A957BB}
  9
$VERSIONGUID
  2
{FAEB1C32-E019-11D5-929B-00C0DF256EC4}
  9
$EXTNAMES
290
     1
  9
$PSVPSCALE
 40
0.0
  9
$OLESTARTUP
290
     0
  0
ENDSEC
  0
SECTION
  2
CLASSES
  0
CLASS
  1
ACDBDICTIONARYWDFLT
  2
AcDbDictionaryWithDefault
  3
ObjectDBX Classes
 90
        0
280
     0
281
     0
  0
CLASS
  1
VISUALSTYLE
  2
AcDbVisualStyle
  3
ObjectDBX Classes
 90
     4095
280
     0
281
     0
  0
CLASS
  1
MATERIAL
  2
AcDbMaterial
  3
ObjectDBX Classes
 90
     1153
280
     0
281
     0
  0
CLASS
  1
SCALE
  2
AcDbScale
  3
ObjectDBX Classes
 90
     1153
280
     0
281
     0
  0
CLASS
  1
SUN
  2
AcDbSun
  3
SCENEOE
 90
     1153
280
     0
281
     0
  0
CLASS
  1
ACDBPLACEHOLDER
  2
AcDbPlaceHolder
  3
ObjectDBX Classes
 90
        0
280
     0
281
     0
  0
CLASS
  1
LAYOUT
  2
AcDbLayout
  3
ObjectDBX Classes
 90
        0
280
     0
281
     0
  0
CLASS
  1
TABLESTYLE
  2
AcDbTableStyle
  3
ObjectDBX Classes
 90
     4095
280
     0
281
     0
  0
CLASS
  1
MLEADERSTYLE
  2
AcDbMLeaderStyle
  3
ACDB_MLEADERSTYLE_CLASS
 90
     4095
280
     0
281
     0
  0
CLASS
  1
RASTERVARIABLES
  2
AcDbRasterVariables
  3
ISM
 90
        0
280
     0
281
     0
  0
CLASS
  1
DIMASSOC
  2
AcDbDimAssoc
  3
"AcDbDimAssoc|Product Desc:     AcDim ARX App For Dimension|Company:          Autodesk, Inc.|WEB Address:      www.autodesk.com"
 90
        0
280
     0
281
     0
  0
ENDSEC
  0
SECTION
  2
TABLES
  0
TABLE
  2
VPORT
  5
8
330
0
100
AcDbSymbolTable
 70
     1
  0
VPORT
  5
29
330
8
100
AcDbSymbolTableRecord
100
AcDbViewportTableRecord
  2
*Active
 70
     0
 10
0.0
 20
0.0
 11
1.0
 21
1.0
 12
-0.9669743615834108
 22
-3.296576188333262
 13
0.0
 23
0.0
 14
10.0
 24
10.0
 15
10.0
 25
10.0
 16
0.0
 26
0.0
 36
1.0
 17
0.0
 27
0.0
 37
0.0
 40
95.2213403170663
 41
1.898569570871261
 42
50.0
 43
0.0
 44
0.0
 50
0.0
 51
0.0
 71
    16
 72
  2000
 73
     1
 74
     3
 75
     0
 76
     0
 77
     0
 78
     0
281
     0
 65
     1
110
0.0
120
0.0
130
0.0
111
1.0
121
0.0
131
0.0
112
0.0
122
1.0
132
0.0
 79
     0
146
0.0
  0
ENDTAB
  0
TABLE
  2
LTYPE
  5
5
330
0
100
AcDbSymbolTable
 70
     6
  0
LTYPE
  5
14
330
5
100
AcDbSymbolTableRecord
100
AcDbLinetypeTableRecord
  2
ByBlock
 70
     0
  3

 72
    65
 73
     0
 40
0.0
  0
LTYPE
  5
15
330
5
100
AcDbSymbolTableRecord
100
AcDbLinetypeTableRecord
  2
ByLayer
 70
     0
  3

 72
    65
 73
     0
 40
0.0
  0
LTYPE
  5
16
330
5
100
AcDbSymbolTableRecord
100
AcDbLinetypeTableRecord
  2
Continuous
 70
     0
  3
Solid line
 72
    65
 73
     0
 40
0.0
  0
LTYPE
  5
6A
330
5
100
AcDbSymbolTableRecord
100
AcDbLinetypeTableRecord
  2
HIDDEN
 70
     0
  3
Hidden __ __ __ __ __ __ __ __ __ __ __ __ __ __
 72
    65
 73
     2
 40
1.905
 49
1.27
 74
     0
 49
-0.635
 74
     0
  0
LTYPE
  5
6B
330
5
100
AcDbSymbolTableRecord
100
AcDbLinetypeTableRecord
  2
PHANTOM
 70
     0
  3
Phantom ______  __  __  ______  __  __  ______
 72
    65
 73
     6
 40
12.7
 49
6.35
 74
     0
 49
-1.27
 74
     0
 49
1.27
 74
     0
 49
-1.27
 74
     0
 49
1.27
 74
     0
 49
-1.27
 74
     0
  0
LTYPE
  5
6C
330
5
100
AcDbSymbolTableRecord
100
AcDbLinetypeTableRecord
  2
CENTER
 70
     0
  3
Center ____ _ ____ _ ____ _ ____ _ ____ _ ____
 72
    65
 73
     4
 40
10.16
 49
6.35
 74
     0
 49
-1.27
 74
     0
 49
1.27
 74
     0
 49
-1.27
 74
     0
  0
LTYPE
  5
6D
330
5
100
AcDbSymbolTableRecord
100
AcDbLinetypeTableRecord
  2
CENTERX2
 70
     0
  3
Center (2x) ________  __  ________  __  _____
 72
    65
 73
     4
 40
20.32
 49
12.7
 74
     0
 49
-2.54
 74
     0
 49
2.54
 74
     0
 49
-2.54
 74
     0
  0
LTYPE
  5
6E
330
5
100
AcDbSymbolTableRecord
100
AcDbLinetypeTableRecord
  2
DOT2
 70
     0
  3
Dot (.5x) ........................................
 72
    65
 73
     2
 40
0.635
 49
0.0
 74
     0
 49
-0.635
 74
     0
  0
ENDTAB
  0
TABLE
  2
LAYER
  5
2
102
{ACAD_XDICTIONARY
360
318
102
}
330
0
100
AcDbSymbolTable
 70
    17
  0
LAYER
  5
10
330
2
100
AcDbSymbolTableRecord
100
AcDbLayerTableRecord
  2
0
 70
     0
 62
     7
  6
Continuous
370
    -3
390
F
  0
LAYER
  5
6F
330
2
100
AcDbSymbolTableRecord
100
AcDbLayerTableRecord
  2
FORMAT
 70
     0
 62
     2
  6
Continuous
370
    -3
390
F
  0
LAYER
  5
70
330
2
100
AcDbSymbolTableRecord
100
AcDbLayerTableRecord
  2
외형선
 70
     0
 62
   100
  6
Continuous
370
    30
390
F
  0
LAYER
  5
71
330
2
100
AcDbSymbolTableRecord
100
AcDbLayerTableRecord
  2
숨은선
 70
     0
 62
     2
  6
HIDDEN
370
    15
390
F
  0
LAYER
  5
72
330
2
100
AcDbSymbolTableRecord
100
AcDbLayerTableRecord
  2
중심선
 70
     0
 62
     1
  6
CENTERX2
370
    -3
390
F
  0
LAYER
  5
73
330
2
100
AcDbSymbolTableRecord
100
AcDbLayerTableRecord
  2
파단선
 70
     0
 62
     4
  6
Continuous
370
    -3
390
F
  0
LAYER
  5
74
330
2
100
AcDbSymbolTableRecord
100
AcDbLayerTableRecord
  2
해칭선
 70
     0
 62
     4
  6
Continuous
370
    -3
390
F
  0
LAYER
  5
75
330
2
100
AcDbSymbolTableRecord
100
AcDbLayerTableRecord
  2
가는실선
 70
     0
 62
     4
  6
Continuous
370
    -3
390
F
  0
LAYER
  5
76
330
2
100
AcDbSymbolTableRecord
100
AcDbLayerTableRecord
  2
치수_보조선
 70
     0
 62
     4
  6
Continuous
370
    -3
390
F
  0
LAYER
  5
77
330
2
100
AcDbSymbolTableRecord
100
AcDbLayerTableRecord
  2
치수문자_일반주서
 70
     0
 62
     7
  6
Continuous
370
    15
390
F
  0
LAYER
  5
78
330
2
100
AcDbSymbolTableRecord
100
AcDbLayerTableRecord
  2
개별주서
 70
     0
 62
   100
  6
Continuous
370
    30
390
F
  0
LAYER
  5
79
330
2
100
AcDbSymbolTableRecord
100
AcDbLayerTableRecord
  2
중간선
 70
     0
 62
     2
  6
Continuous
370
    15
390
F
  0
LAYER
  5
7A
330
2
100
AcDbSymbolTableRecord
100
AcDbLayerTableRecord
  2
윤곽선
 70
     0
 62
     3
  6
Continuous
370
    40
390
F
  0
LAYER
  5
7B
330
2
100
AcDbSymbolTableRecord
100
AcDbLayerTableRecord
  2
중심마크
 70
     0
 62
   100
  6
Continuous
370
    30
390
F
  0
LAYER
  5
7C
330
2
100
AcDbSymbolTableRecord
100
AcDbLayerTableRecord
  2
가상선
 70
     0
 62
     4
  6
PHANTOM
370
    -3
390
F
  0
LAYER
  5
7D
330
2
100
AcDbSymbolTableRecord
100
AcDbLayerTableRecord
  2
특수지정선
 70
     0
 62
     5
  6
CENTERX2
370
    60
390
F
  0
LAYER
  5
163
330
2
100
AcDbSymbolTableRecord
100
AcDbLayerTableRecord
  2
Defpoints
 70
     0
 62
     7
  6
Continuous
290
     0
370
    -3
390
F
  0
ENDTAB
  0
TABLE
  2
STYLE
  5
3
330
0
100
AcDbSymbolTable
 70
     2
  0
STYLE
  5
11
330
3
100
AcDbSymbolTableRecord
100
AcDbTextStyleTableRecord
  2
Standard
 70
     0
 40
0.0
 41
1.0
 50
0.0
 71
     0
 42
3.5
  3
txt
  4

  0
STYLE
  5
93
330
3
100
AcDbSymbolTableRecord
100
AcDbTextStyleTableRecord
  2
SLDTEXTSTYLE0
 70
     0
 40
0.0
 41
0.75
 50
0.0
 71
     0
 42
3.5
  3
TXT
  4

  0
ENDTAB
  0
TABLE
  2
VIEW
  5
6
330
0
100
AcDbSymbolTable
 70
     0
  0
ENDTAB
  0
TABLE
  2
UCS
  5
7
330
0
100
AcDbSymbolTable
 70
     0
  0
ENDTAB
  0
TABLE
  2
APPID
  5
9
330
0
100
AcDbSymbolTable
 70
     2
  0
APPID
  5
12
330
9
100
AcDbSymbolTableRecord
100
AcDbRegAppTableRecord
  2
ACAD
 70
     0
  0
APPID
  5
2BB
330
9
100
AcDbSymbolTableRecord
100
AcDbRegAppTableRecord
  2
ACAD_DSTYLE_DIMRADIAL_EXTENSION
 70
     0
  0
ENDTAB
  0
TABLE
  2
DIMSTYLE
  5
A
330
0
100
AcDbSymbolTable
 70
     5
100
AcDbDimStyleTable
  0
DIMSTYLE
105
27
330
A
100
AcDbSymbolTableRecord
100
AcDbDimStyleTableRecord
  2
ISO-25
 70
     0
 41
2.5
 42
0.625
 43
3.75
 44
1.25
 73
     0
 74
     0
 77
     1
 78
     8
140
2.5
141
2.5
143
0.03937007874016
147
0.625
171
     3
172
     1
178
     0
271
     2
272
     2
274
     3
278
    44
283
     0
284
     8
340
11
  0
DIMSTYLE
105
E6
102
{ACAD_REACTORS
330
286
330
2BC
102
}
330
A
100
AcDbSymbolTableRecord
100
AcDbDimStyleTableRecord
  2
SLDDIMSTYLE0
 70
     0
 41
3.302
 44
0.0
 45
0.000000001
 73
     0
 74
     0
 77
     1
 78
    12
 79
     3
140
3.5
143
0.0393700787401575
147
0.875
148
0.000000001
170
     1
172
     1
173
     1
178
     0
271
     2
272
     2
276
     2
284
    12
289
     0
340
93
  0
DIMSTYLE
105
FB
102
{ACAD_REACTORS
330
287
102
}
330
A
100
AcDbSymbolTableRecord
100
AcDbDimStyleTableRecord
  2
SLDDIMSTYLE1
 70
     0
 41
3.302
 44
0.0
 45
0.000000001
 73
     0
 74
     0
 77
     1
 78
     4
 79
     1
140
3.5
143
0.0393700787401575
147
0.875
148
0.000000001
170
     1
173
     1
178
     0
271
     2
272
     2
276
     2
284
    12
340
93
  0
DIMSTYLE
105
10F
102
{ACAD_REACTORS
330
288
102
}
330
A
100
AcDbSymbolTableRecord
100
AcDbDimStyleTableRecord
  2
SLDDIMSTYLE2
 70
     0
 41
3.302
 44
0.0
 45
0.000000001
 73
     0
 74
     0
 77
     1
 78
    12
 79
     3
140
3.5
143
0.0393700787401575
147
0.875
148
0.000000001
170
     1
173
     1
178
     0
271
     2
272
     2
276
     2
284
    12
340
93
  0
DIMSTYLE
105
123
102
{ACAD_REACTORS
330
289
102
}
330
A
100
AcDbSymbolTableRecord
100
AcDbDimStyleTableRecord
  2
SLDDIMSTYLE3
 70
     0
 41
3.302
 44
0.0
 45
0.000000001
 73
     0
 74
     0
 77
     1
 78
     4
 79
     1
140
3.5
143
0.0393700787401575
147
0.875
148
0.000000001
170
     1
172
     1
173
     1
178
     0
271
     2
272
     2
276
     2
284
    12
289
     0
340
93
  0
ENDTAB
  0
TABLE
  2
BLOCK_RECORD
  5
1
330
0
100
AcDbSymbolTable
 70
    16
  0
BLOCK_RECORD
  5
1F
102
{ACAD_XDICTIONARY
360
34D
102
}
330
1
100
AcDbSymbolTableRecord
100
AcDbBlockTableRecord
  2
*Model_Space
340
22
  0
BLOCK_RECORD
  5
1B
330
1
100
AcDbSymbolTableRecord
100
AcDbBlockTableRecord
  2
*Paper_Space
340
1E
  0
BLOCK_RECORD
  5
23
330
1
100
AcDbSymbolTableRecord
100
AcDbBlockTableRecord
  2
*Paper_Space0
340
26
  0
BLOCK_RECORD
  5
7E
330
1
100
AcDbSymbolTableRecord
100
AcDbBlockTableRecord
  2
블럭10
340
0
102
{BLKREFS
331
DD
102
}
  0
BLOCK_RECORD
  5
E7
330
1
100
AcDbSymbolTableRecord
100
AcDbBlockTableRecord
  2
_D
340
0
  0
BLOCK_RECORD
  5
FC
330
1
100
AcDbSymbolTableRecord
100
AcDbBlockTableRecord
  2
_D_1
340
0
  0
BLOCK_RECORD
  5
110
330
1
100
AcDbSymbolTableRecord
100
AcDbBlockTableRecord
  2
_D_2
340
0
  0
BLOCK_RECORD
  5
124
330
1
100
AcDbSymbolTableRecord
100
AcDbBlockTableRecord
  2
_D_3
340
0
  0
BLOCK_RECORD
  5
137
330
1
100
AcDbSymbolTableRecord
100
AcDbBlockTableRecord
  2
SW_DOWELSYMBOL_0
340
0
102
{BLKREFS
331
28A
102
}
  0
BLOCK_RECORD
  5
210
330
1
100
AcDbSymbolTableRecord
100
AcDbBlockTableRecord
  2
*D7
340
0
  0
BLOCK_RECORD
  5
21C
330
1
100
AcDbSymbolTableRecord
100
AcDbBlockTableRecord
  2
*D8
340
0
  0
BLOCK_RECORD
  5
228
330
1
100
AcDbSymbolTableRecord
100
AcDbBlockTableRecord
  2
*D9
340
0
  0
BLOCK_RECORD
  5
234
330
1
100
AcDbSymbolTableRecord
100
AcDbBlockTableRecord
  2
*D10
340
0
  0
BLOCK_RECORD
  5
28B
330
1
100
AcDbSymbolTableRecord
100
AcDbBlockTableRecord
  2
*D11
340
0
  0
BLOCK_RECORD
  5
297
330
1
100
AcDbSymbolTableRecord
100
AcDbBlockTableRecord
  2
*D12
340
0
  0
BLOCK_RECORD
  5
2A3
330
1
100
AcDbSymbolTableRecord
100
AcDbBlockTableRecord
  2
*D13
340
0
  0
BLOCK_RECORD
  5
2AF
330
1
100
AcDbSymbolTableRecord
100
AcDbBlockTableRecord
  2
*D14
340
0
  0
BLOCK_RECORD
  5
2BF
330
1
100
AcDbSymbolTableRecord
100
AcDbBlockTableRecord
  2
*D15
340
0
  0
ENDTAB
  0
ENDSEC
  0
SECTION
  2
BLOCKS
  0
BLOCK
  5
20
330
1F
100
AcDbEntity
  8
0
100
AcDbBlockBegin
  2
*Model_Space
 70
     0
 10
0.0
 20
0.0
 30
0.0
  3
*Model_Space
  1
*Model_Space
  0
ENDBLK
  5
21
330
1F
100
AcDbEntity
  8
0
100
AcDbBlockEnd
  0
BLOCK
  5
1C
330
1B
100
AcDbEntity
 67
     1
  8
0
100
AcDbBlockBegin
  2
*Paper_Space
 70
     0
 10
0.0
 20
0.0
 30
0.0
  3
*Paper_Space
  1
*Paper_Space
  0
ENDBLK
  5
1D
330
1B
100
AcDbEntity
 67
     1
  8
0
100
AcDbBlockEnd
  0
BLOCK
  5
24
330
23
100
AcDbEntity
  8
0
100
AcDbBlockBegin
  2
*Paper_Space0
 70
     0
 10
0.0
 20
0.0
 30
0.0
  3
*Paper_Space0
  1
*Paper_Space0
  0
ENDBLK
  5
25
330
23
100
AcDbEntity
  8
0
100
AcDbBlockEnd
  0
BLOCK
  5
7F
330
7E
100
AcDbEntity
  8
0
100
AcDbBlockBegin
  2
블럭10
 70
     2
 10
0.0
 20
0.0
 30
0.0
  3
블럭10
  1
블럭10
  0
ELLIPSE
  5
81
330
7E
100
AcDbEntity
  8
중심선
100
AcDbEllipse
 10
20.54032771741204
 20
12.0471743016438
 30
0.0
 11
6.600054785286829
 21
-1.261213355974178E-13
 31
0.0
210
0.0
220
0.0
230
1.0
 40
0.636358354079598
 41
0.9219305317359503
 42
6.513795318482858
  0
ELLIPSE
  5
82
330
7E
100
AcDbEntity
  8
중심선
100
AcDbEllipse
 10
20.54032771746488
 20
12.04717430159265
 30
0.0
 11
3.960054785062283
 21
1.540847449632565E-10
 31
0.0
210
0.0
220
0.0
230
1.0
 40
0.3939339440162632
 41
1.131841032648279
 42
5.62031148352944
  0
LINE
  5
83
330
7E
100
AcDbEntity
  8
중심선
100
AcDbLine
 10
2.268634060543552
 20
16.24717430164393
 30
0.0
 11
5.714909304380834
 21
16.24717430164393
 31
0.0
  0
LINE
  5
84
330
7E
100
AcDbEntity
  8
중심선
100
AcDbLine
 10
5.245725140726316
 20
7.84717430164391
 30
0.0
 11
8.692000384563599
 21
7.84717430164391
 31
0.0
  0
LINE
  5
85
330
7E
100
AcDbEntity
  8
중심선
100
AcDbLine
 10
15.74043728645272
 20
16.24717430164393
 30
0.0
 11
8.692000384563599
 21
7.84717430164391
 31
0.0
  0
LINE
  5
86
330
7E
100
AcDbEntity
  8
중심선
100
AcDbLine
 10
0.1404042013395286
 20
13.71084872107135
 30
0.0
 11
3.58671253028996
 21
13.71088815037384
 31
0.0
  0
LINE
  5
87
330
7E
100
AcDbEntity
  8
중심선
100
AcDbLine
 10
2.750260043222114
 20
10.84717430164391
 30
0.0
 11
6.196535287059397
 21
10.84717430164391
 31
0.0
  0
LINE
  5
88
330
7E
100
AcDbEntity
  8
중심선
100
AcDbLine
 10
12.29416204261559
 20
16.24717430164393
 30
0.0
 11
5.245725140726316
 21
7.84717430164391
 31
0.0
  0
LINE
  5
89
330
7E
100
AcDbEntity
  8
중심선
100
AcDbLine
 10
10.72767329541681
 20
16.24717430164393
 30
0.0
 11
6.196535287059397
 21
10.84717430164391
 31
0.0
  0
LINE
  5
8A
330
7E
100
AcDbEntity
  8
중심선
100
AcDbLine
 10
7.28139805157953
 20
16.24717430164393
 30
0.0
 11
2.750260043222114
 21
10.84717430164391
 31
0.0
  0
LINE
  5
8B
330
7E
100
AcDbEntity
  8
중심선
100
AcDbLine
 10
5.714909304380834
 20
16.24717430164393
 30
0.0
 11
3.58671253028996
 21
13.71088815037384
 31
0.0
  0
LINE
  5
8C
330
7E
100
AcDbEntity
  8
중심선
100
AcDbLine
 10
2.268634060543552
 20
16.24717430164393
 30
0.0
 11
0.1404042013395286
 21
13.71084872107135
 31
0.0
  0
LINE
  5
8D
330
7E
100
AcDbEntity
  8
중심선
100
AcDbLine
 10
7.28139805157953
 20
16.24717430164393
 30
0.0
 11
10.72767329541681
 21
16.24717430164393
 31
0.0
  0
LINE
  5
8E
330
7E
100
AcDbEntity
  8
중심선
100
AcDbLine
 10
12.29416204261559
 20
16.24717430164393
 30
0.0
 11
15.74043728645272
 21
16.24717430164393
 31
0.0
  0
LINE
  5
8F
330
7E
100
AcDbEntity
  8
중심선
100
AcDbLine
 10
19.22036997980202
 20
11.08717430171403
 30
0.0
 11
23.66174974927406
 21
11.08717430171406
 31
0.0
  0
LINE
  5
90
330
7E
100
AcDbEntity
  8
중심선
100
AcDbLine
 10
19.22039502424796
 20
13.00717430171391
 30
0.0
 11
19.22036997980202
 21
11.08717430171403
 31
0.0
  0
LINE
  5
91
330
7E
100
AcDbEntity
  8
중심선
100
AcDbLine
 10
19.22039502424796
 20
13.00717430171391
 30
0.0
 11
26.96566020931264
 21
13.00717430171391
 31
0.0
  0
LINE
  5
92
330
7E
100
AcDbEntity
  8
중심선
100
AcDbLine
 10
22.22332737316547
 20
13.45928029700563
 30
0.0
 11
24.52862924686651
 21
15.39360700705356
 31
0.0
  0
ATTDEF
  5
94
330
7E
100
AcDbEntity
  8
FORMAT
 62
     2
100
AcDbText
 10
-11.05102035218446
 20
2.075366912832191
 30
0.0
 40
4.233333333333333
  1
GMG22921[ 6 FLUTE ]
 41
0.75
  7
SLDTEXTSTYLE0
 11
-11.05102035218446
 21
-0.0412997538344756
 31
0.0
100
AcDbAttributeDefinition
  3

  2
AUTOATTR0
 70
     0
 74
     1
  0
ENDBLK
  5
80
330
7E
100
AcDbEntity
  8
0
100
AcDbBlockEnd
  0
BLOCK
  5
E8
330
E7
100
AcDbEntity
  8
0
100
AcDbBlockBegin
  2
_D
 70
     0
 10
0.0
 20
0.0
 30
0.0
  3
_D
  1
_D
  0
SOLID
  5
EA
330
E7
100
AcDbEntity
  8
치수문자_일반주서
100
AcDbTrace
 10
66.74475979569846
 20
-3.437274431170699
 30
0.0
 11
66.23675979569846
 21
-6.739274431170699
 31
0.0
 12
67.25275979569845
 22
-6.739274431170699
 32
0.0
 13
67.25275979569845
 23
-6.739274431170699
 33
0.0
  0
SOLID
  5
EB
330
E7
100
AcDbEntity
  8
치수문자_일반주서
100
AcDbTrace
 10
66.74475979569846
 20
2.912725568829323
 30
0.0
 11
67.25275979569845
 21
6.214725568829323
 31
0.0
 12
66.23675979569846
 22
6.214725568829323
 32
0.0
 13
66.23675979569846
 23
6.214725568829323
 33
0.0
  0
LINE
  5
EC
330
E7
100
AcDbEntity
  8
치수문자_일반주서
100
AcDbLine
 10
55.95187807965569
 20
-6.173194646892865
 30
0.0
 11
55.95187807965569
 21
-6.884132132457365
 31
0.0
  0
LINE
  5
ED
330
E7
100
AcDbEntity
  8
치수문자_일반주서
100
AcDbLine
 10
55.95187807965569
 20
-6.884132132457365
 30
0.0
 11
61.508128070715
 21
-6.884132132457365
 31
0.0
  0
LINE
  5
EE
330
E7
100
AcDbEntity
  8
치수문자_일반주서
100
AcDbLine
 10
61.508128070715
 20
-6.884132132457365
 30
0.0
 11
61.508128070715
 21
-6.173194646892865
 31
0.0
  0
LINE
  5
EF
330
E7
100
AcDbEntity
  8
치수문자_일반주서
100
AcDbLine
 10
55.95187807965569
 20
4.655538215244393
 30
0.0
 11
55.95187807965569
 21
5.366475700808893
 31
0.0
  0
LINE
  5
F0
330
E7
100
AcDbEntity
  8
치수문자_일반주서
100
AcDbLine
 10
55.95187807965569
 20
5.366475700808893
 30
0.0
 11
61.508128070715
 21
5.366475700808893
 31
0.0
  0
LINE
  5
F1
330
E7
100
AcDbEntity
  8
치수문자_일반주서
100
AcDbLine
 10
61.508128070715
 20
5.366475700808893
 30
0.0
 11
61.508128070715
 21
4.655538215244393
 31
0.0
  0
LINE
  5
F2
330
E7
100
AcDbEntity
  8
치수문자_일반주서
100
AcDbLine
 10
49.09951407992549
 20
-3.4372744311707
 30
0.0
 11
67.74475979569846
 21
-3.437274431170699
 31
0.0
  0
LINE
  5
F3
330
E7
100
AcDbEntity
  8
치수문자_일반주서
100
AcDbLine
 10
49.09951407992549
 20
2.912725568829322
 30
0.0
 11
67.74475979569846
 21
2.912725568829323
 31
0.0
  0
LINE
  5
F4
330
E7
100
AcDbEntity
  8
치수문자_일반주서
100
AcDbLine
 10
66.74475979569846
 20
-3.437274431170699
 30
0.0
 11
66.74475979569846
 21
-9.7872744311707
 31
0.0
  0
LINE
  5
F5
330
E7
100
AcDbEntity
  8
치수문자_일반주서
100
AcDbLine
 10
66.74475979569846
 20
-3.437274431170699
 30
0.0
 11
66.74475979569846
 21
2.912725568829323
 31
0.0
  0
LINE
  5
F6
330
E7
100
AcDbEntity
  8
치수문자_일반주서
100
AcDbLine
 10
66.74475979569846
 20
2.912725568829323
 30
0.0
 11
66.74475979569846
 21
9.262725568829323
 31
0.0
  0
MTEXT
  5
F7
330
E7
100
AcDbEntity
  8
치수문자_일반주서
100
AcDbMText
 10
56.99639115613611
 20
-5.284522746281494
 30
0.0
 40
3.5
 41
0.0
 71
     1
 72
     1
  1
0.25
  7
SLDTEXTSTYLE0
 11
6.123233995736766E-17
 21
1.0
 31
0.0
 73
     1
 44
1.0
  0
MTEXT
  5
F8
330
E7
100
AcDbEntity
  8
치수문자_일반주서
100
AcDbMText
 10
62.23302270649658
 20
-7.923741911129822
 30
0.0
 40
3.5
 41
0.0
 71
     1
 72
     1
  1
%%c
  7
SLDTEXTSTYLE0
 11
6.123233995736766E-17
 21
1.0
 31
0.0
 73
     1
 44
1.0
  0
MTEXT
  5
F9
330
E7
100
AcDbEntity
  8
치수문자_일반주서
100
AcDbMText
 10
62.23302270649658
 20
-2.645304512755741
 30
0.0
 40
3.5
 41
0.0
 71
     1
 72
     1
  1
6.35
  7
SLDTEXTSTYLE0
 11
6.123233995736766E-17
 21
1.0
 31
0.0
 73
     1
 44
1.0
  0
ENDBLK
  5
E9
330
E7
100
AcDbEntity
  8
0
100
AcDbBlockEnd
  0
BLOCK
  5
FD
330
FC
100
AcDbEntity
  8
0
100
AcDbBlockBegin
  2
_D_1
 70
     0
 10
0.0
 20
0.0
 30
0.0
  3
_D_1
  1
_D_1
  0
SOLID
  5
FF
330
FC
100
AcDbEntity
  8
치수문자_일반주서
100
AcDbTrace
 10
-47.15048592007449
 20
38.74327698690109
 30
0.0
 11
-43.84848592007449
 21
38.23527698690109
 31
0.0
 12
-43.84848592007449
 22
39.2512769869011
 32
0.0
 13
-43.84848592007449
 23
39.2512769869011
 33
0.0
  0
SOLID
  5
100
330
FC
100
AcDbEntity
  8
치수문자_일반주서
100
AcDbTrace
 10
41.74951407992551
 20
38.74327698690109
 30
0.0
 11
38.44751407992551
 21
39.2512769869011
 31
0.0
 12
38.44751407992551
 22
38.23527698690109
 32
0.0
 13
38.44751407992551
 23
38.23527698690109
 33
0.0
  0
LINE
  5
101
330
FC
100
AcDbEntity
  8
치수문자_일반주서
100
AcDbLine
 10
-8.11485200189717
 20
49.53615870294384
 30
0.0
 11
-8.82578948746167
 21
49.53615870294384
 31
0.0
  0
LINE
  5
102
330
FC
100
AcDbEntity
  8
치수문자_일반주서
100
AcDbLine
 10
-8.82578948746167
 20
49.53615870294384
 30
0.0
 11
-8.82578948746167
 21
43.97990871188454
 31
0.0
  0
LINE
  5
103
330
FC
100
AcDbEntity
  8
치수문자_일반주서
100
AcDbLine
 10
-8.82578948746167
 20
43.97990871188454
 30
0.0
 11
-8.11485200189717
 21
43.97990871188454
 31
0.0
  0
LINE
  5
104
330
FC
100
AcDbEntity
  8
치수문자_일반주서
100
AcDbLine
 10
2.713880860240089
 20
49.53615870294384
 30
0.0
 11
3.42481834580459
 21
49.53615870294384
 31
0.0
  0
LINE
  5
105
330
FC
100
AcDbEntity
  8
치수문자_일반주서
100
AcDbLine
 10
3.42481834580459
 20
49.53615870294384
 30
0.0
 11
3.42481834580459
 21
43.97990871188454
 31
0.0
  0
LINE
  5
106
330
FC
100
AcDbEntity
  8
치수문자_일반주서
100
AcDbLine
 10
3.42481834580459
 20
43.97990871188454
 30
0.0
 11
2.713880860240089
 21
43.97990871188454
 31
0.0
  0
LINE
  5
107
330
FC
100
AcDbEntity
  8
치수문자_일반주서
100
AcDbLine
 10
-47.15048592007449
 20
6.587725568829306
 30
0.0
 11
-47.15048592007449
 21
39.74327698690109
 31
0.0
  0
LINE
  5
108
330
FC
100
AcDbEntity
  8
치수문자_일반주서
100
AcDbLine
 10
41.74951407992551
 20
5.563725568829313
 30
0.0
 11
41.74951407992551
 21
39.74327698690109
 31
0.0
  0
LINE
  5
109
330
FC
100
AcDbEntity
  8
치수문자_일반주서
100
AcDbLine
 10
-47.15048592007449
 20
38.74327698690109
 30
0.0
 11
41.74951407992551
 21
38.74327698690109
 31
0.0
  0
MTEXT
  5
10A
330
FC
100
AcDbEntity
  8
치수문자_일반주서
100
AcDbMText
 10
-9.339548212948365
 20
43.30848625276282
 30
0.0
 40
3.5
 41
0.0
 71
     1
 72
     1
  1

  7
SLDTEXTSTYLE0
 73
     1
 44
1.0
  0
MTEXT
  5
10B
330
FC
100
AcDbEntity
  8
치수문자_일반주서
100
AcDbMText
 10
-7.226180101285798
 20
48.49164562646344
 30
0.0
 40
3.5
 41
0.0
 71
     1
 72
     1
  1
3.50
  7
SLDTEXTSTYLE0
 73
     1
 44
1.0
  0
MTEXT
  5
10C
330
FC
100
AcDbEntity
  8
치수문자_일반주서
100
AcDbMText
 10
-8.519235814462526
 20
43.25501407610297
 30
0.0
 40
3.5
 41
0.0
 71
     1
 72
     1
  1
88.90
  7
SLDTEXTSTYLE0
 73
     1
 44
1.0
  0
MTEXT
  5
10D
330
FC
100
AcDbEntity
  8
치수문자_일반주서
100
AcDbMText
 10
5.270521590945201
 20
43.30848625276282
 30
0.0
 40
3.5
 41
0.0
 71
     1
 72
     1
  1

  7
SLDTEXTSTYLE0
 73
     1
 44
1.0
  0
ENDBLK
  5
FE
330
FC
100
AcDbEntity
  8
0
100
AcDbBlockEnd
  0
BLOCK
  5
111
330
110
100
AcDbEntity
  8
0
100
AcDbBlockBegin
  2
_D_2
 70
     0
 10
0.0
 20
0.0
 30
0.0
  3
_D_2
  1
_D_2
  0
SOLID
  5
113
330
110
100
AcDbEntity
  8
치수문자_일반주서
100
AcDbTrace
 10
41.74951407992551
 20
22.19072009916724
 30
0.0
 11
38.44751407992551
 21
22.69872009916724
 31
0.0
 12
38.44751407992551
 22
21.68272009916724
 32
0.0
 13
38.44751407992551
 23
21.68272009916724
 33
0.0
  0
SOLID
  5
114
330
110
100
AcDbEntity
  8
치수문자_일반주서
100
AcDbTrace
 10
9.999514079925522
 20
22.19072009916724
 30
0.0
 11
13.30151407992552
 21
21.68272009916724
 31
0.0
 12
13.30151407992552
 22
22.69872009916724
 32
0.0
 13
13.30151407992552
 23
22.69872009916724
 33
0.0
  0
LINE
  5
115
330
110
100
AcDbEntity
  8
치수문자_일반주서
100
AcDbLine
 10
20.11089941297971
 20
32.98360181520997
 30
0.0
 11
19.39996192741521
 21
32.98360181520998
 31
0.0
  0
LINE
  5
116
330
110
100
AcDbEntity
  8
치수문자_일반주서
100
AcDbLine
 10
19.39996192741521
 20
32.98360181520998
 30
0.0
 11
19.39996192741517
 21
27.42735182415067
 31
0.0
  0
LINE
  5
117
330
110
100
AcDbEntity
  8
치수문자_일반주서
100
AcDbLine
 10
19.39996192741517
 20
27.42735182415067
 30
0.0
 11
20.11089941297967
 21
27.42735182415067
 31
0.0
  0
LINE
  5
118
330
110
100
AcDbEntity
  8
치수문자_일반주서
100
AcDbLine
 10
30.93963227511697
 20
32.98360181520989
 30
0.0
 11
31.65056976068147
 21
32.98360181520989
 31
0.0
  0
LINE
  5
119
330
110
100
AcDbEntity
  8
치수문자_일반주서
100
AcDbLine
 10
31.65056976068147
 20
32.98360181520989
 30
0.0
 11
31.65056976068142
 21
27.42735182415058
 31
0.0
  0
LINE
  5
11A
330
110
100
AcDbEntity
  8
치수문자_일반주서
100
AcDbLine
 10
31.65056976068142
 20
27.42735182415058
 30
0.0
 11
30.93963227511692
 21
27.42735182415059
 31
0.0
  0
LINE
  5
11B
330
110
100
AcDbEntity
  8
치수문자_일반주서
100
AcDbLine
 10
41.74951407992551
 20
5.563725568829313
 30
0.0
 11
41.74951407992551
 21
23.19072009916724
 31
0.0
  0
LINE
  5
11C
330
110
100
AcDbEntity
  8
치수문자_일반주서
100
AcDbLine
 10
9.999514079925524
 20
6.751793113178116
 30
0.0
 11
9.999514079925522
 21
23.19072009916724
 31
0.0
  0
LINE
  5
11D
330
110
100
AcDbEntity
  8
치수문자_일반주서
100
AcDbLine
 10
41.74951407992551
 20
22.19072009916724
 30
0.0
 11
9.999514079925522
 21
22.19072009916724
 31
0.0
  0
MTEXT
  5
11E
330
110
100
AcDbEntity
  8
치수문자_일반주서
100
AcDbMText
 10
18.88620320192846
 20
26.75592936502896
 30
0.0
 40
3.5
 41
0.0
 71
     1
 72
     1
  1

  7
SLDTEXTSTYLE0
 73
     1
 44
1.0
  0
MTEXT
  5
11F
330
110
100
AcDbEntity
  8
치수문자_일반주서
100
AcDbMText
 10
20.99957131359107
 20
31.93908873872956
 30
0.0
 40
3.5
 41
0.0
 71
     1
 72
     1
  1
1.25
  7
SLDTEXTSTYLE0
 73
     1
 44
1.0
  0
MTEXT
  5
120
330
110
100
AcDbEntity
  8
치수문자_일반주서
100
AcDbMText
 10
19.70651560041431
 20
26.7024571883691
 30
0.0
 40
3.5
 41
0.0
 71
     1
 72
     1
  1
31.75
  7
SLDTEXTSTYLE0
 73
     1
 44
1.0
  0
MTEXT
  5
121
330
110
100
AcDbEntity
  8
치수문자_일반주서
100
AcDbMText
 10
33.49627300582204
 20
26.75592936502886
 30
0.0
 40
3.5
 41
0.0
 71
     1
 72
     1
  1

  7
SLDTEXTSTYLE0
 73
     1
 44
1.0
  0
ENDBLK
  5
112
330
110
100
AcDbEntity
  8
0
100
AcDbBlockEnd
  0
BLOCK
  5
125
330
124
100
AcDbEntity
  8
0
100
AcDbBlockBegin
  2
_D_3
 70
     0
 10
0.0
 20
0.0
 30
0.0
  3
_D_3
  1
_D_3
  0
SOLID
  5
127
330
124
100
AcDbEntity
  8
치수문자_일반주서
100
AcDbTrace
 10
-60.1504859200745
 20
6.087725568829307
 30
0.0
 11
-59.6424859200745
 21
9.389725568829306
 31
0.0
 12
-60.6584859200745
 22
9.389725568829306
 32
0.0
 13
-60.6584859200745
 23
9.389725568829306
 33
0.0
  0
SOLID
  5
128
330
124
100
AcDbEntity
  8
치수문자_일반주서
100
AcDbTrace
 10
-60.1504859200745
 20
-6.612274431170692
 30
0.0
 11
-60.6584859200745
 21
-9.914274431170693
 31
0.0
 12
-59.6424859200745
 22
-9.914274431170693
 32
0.0
 13
-59.6424859200745
 23
-9.914274431170693
 33
0.0
  0
LINE
  5
129
330
124
100
AcDbEntity
  8
치수문자_일반주서
100
AcDbLine
 10
-70.94336763611722
 20
-5.676640862239396
 30
0.0
 11
-70.94336763611722
 21
-6.387578347803896
 31
0.0
  0
LINE
  5
12A
330
124
100
AcDbEntity
  8
치수문자_일반주서
100
AcDbLine
 10
-70.94336763611722
 20
-6.387578347803896
 30
0.0
 11
-65.38711764505791
 21
-6.387578347803857
 31
0.0
  0
LINE
  5
12B
330
124
100
AcDbEntity
  8
치수문자_일반주서
100
AcDbLine
 10
-65.38711764505791
 20
-6.387578347803857
 30
0.0
 11
-65.38711764505791
 21
-5.676640862239357
 31
0.0
  0
LINE
  5
12C
330
124
100
AcDbEntity
  8
치수문자_일반주서
100
AcDbLine
 10
-70.9433676361173
 20
5.152091999897862
 30
0.0
 11
-70.9433676361173
 21
5.863029485462362
 31
0.0
  0
LINE
  5
12D
330
124
100
AcDbEntity
  8
치수문자_일반주서
100
AcDbLine
 10
-70.9433676361173
 20
5.863029485462362
 30
0.0
 11
-65.387117645058
 21
5.863029485462401
 31
0.0
  0
LINE
  5
12E
330
124
100
AcDbEntity
  8
치수문자_일반주서
100
AcDbLine
 10
-65.387117645058
 20
5.863029485462401
 30
0.0
 11
-65.387117645058
 21
5.152091999897901
 31
0.0
  0
LINE
  5
12F
330
124
100
AcDbEntity
  8
치수문자_일반주서
100
AcDbLine
 10
-47.65048592007449
 20
6.087725568829309
 30
0.0
 11
-61.1504859200745
 21
6.087725568829307
 31
0.0
  0
LINE
  5
130
330
124
100
AcDbEntity
  8
치수문자_일반주서
100
AcDbLine
 10
-47.65048592007449
 20
-6.61227443117069
 30
0.0
 11
-61.1504859200745
 21
-6.612274431170692
 31
0.0
  0
LINE
  5
131
330
124
100
AcDbEntity
  8
치수문자_일반주서
100
AcDbLine
 10
-60.1504859200745
 20
6.087725568829307
 30
0.0
 11
-60.1504859200745
 21
12.43772556882931
 31
0.0
  0
LINE
  5
132
330
124
100
AcDbEntity
  8
치수문자_일반주서
100
AcDbLine
 10
-60.1504859200745
 20
6.087725568829307
 30
0.0
 11
-60.1504859200745
 21
-6.612274431170692
 31
0.0
  0
LINE
  5
133
330
124
100
AcDbEntity
  8
치수문자_일반주서
100
AcDbLine
 10
-60.1504859200745
 20
-6.612274431170692
 30
0.0
 11
-60.1504859200745
 21
-12.96227443117069
 31
0.0
  0
MTEXT
  5
134
330
124
100
AcDbEntity
  8
치수문자_일반주서
100
AcDbMText
 10
-69.89885455963683
 20
-4.787968961628018
 30
0.0
 40
3.5
 41
0.0
 71
     1
 72
     1
  1
0.50
  7
SLDTEXTSTYLE0
 11
-7.044195017643634E-15
 21
1.0
 31
0.0
 73
     1
 44
1.0
  0
MTEXT
  5
135
330
124
100
AcDbEntity
  8
치수문자_일반주서
100
AcDbMText
 10
-64.66222300927633
 20
-8.72024337399175
 30
0.0
 40
3.5
 41
0.0
 71
     1
 72
     1
  1
%%c
  7
SLDTEXTSTYLE0
 11
-7.044195017643634E-15
 21
1.0
 31
0.0
 73
     1
 44
1.0
  0
MTEXT
  5
136
330
124
100
AcDbEntity
  8
치수문자_일반주서
100
AcDbMText
 10
-64.66222300927636
 20
-3.441805975617669
 30
0.0
 40
3.5
 41
0.0
 71
     1
 72
     1
  1
12.70
  7
SLDTEXTSTYLE0
 11
-7.044195017643634E-15
 21
1.0
 31
0.0
 73
     1
 44
1.0
  0
ENDBLK
  5
126
330
124
100
AcDbEntity
  8
0
100
AcDbBlockEnd
  0
BLOCK
  5
138
330
137
100
AcDbEntity
  8
0
100
AcDbBlockBegin
  2
SW_DOWELSYMBOL_0
 70
     0
 10
0.0
 20
0.0
 30
0.0
  3
SW_DOWELSYMBOL_0
  1
SW_DOWELSYMBOL_0
  0
CIRCLE
  5
13A
330
137
100
AcDbEntity
  8
외형선
 62
     0
100
AcDbCircle
 10
0.0
 20
0.0
 30
0.0
 40
3.000000000000004
  0
HATCH
  5
13B
330
137
100
AcDbEntity
  8
0
  6
Continuous
 62
     0
370
    30
100
AcDbHatch
 10
0.0
 20
0.0
 30
0.0
210
0.0
220
0.0
230
1.0
  2
SOLID
 70
     1
 71
     0
 91
        1
 92
        0
 93
        3
 72
     2
 10
0.0
 20
0.0
 40
3.000000000000004
 50
0.0
 51
90.0
 73
     1
 72
     1
 10
0.0
 20
3.000000000000004
 11
0.0
 21
0.0
 72
     1
 10
0.0
 20
0.0
 11
3.000000000000004
 21
0.0
 97
        0
 75
     0
 76
     1
 98
        1
 10
0.0
 20
0.0
  0
HATCH
  5
13C
330
137
100
AcDbEntity
  8
0
  6
Continuous
 62
     0
370
    30
100
AcDbHatch
 10
0.0
 20
0.0
 30
0.0
210
0.0
220
0.0
230
1.0
  2
SOLID
 70
     1
 71
     0
 91
        1
 92
        0
 93
        3
 72
     2
 10
0.0
 20
0.0
 40
3.000000000000004
 50
180.0
 51
270.0000000000007
 73
     1
 72
     1
 10
0.0
 20
-3.000000000000004
 11
0.0
 21
0.0
 72
     1
 10
0.0
 20
0.0
 11
-3.000000000000004
 21
0.0
 97
        0
 75
     0
 76
     1
 98
        1
 10
0.0
 20
0.0
  0
ENDBLK
  5
139
330
137
100
AcDbEntity
  8
0
100
AcDbBlockEnd
  0
BLOCK
  5
211
330
210
100
AcDbEntity
  8
0
100
AcDbBlockBegin
  2
*D7
 70
     1
 10
0.0
 20
0.0
 30
0.0
  3
*D7
  1
*D8
  0
LINE
  5
213
330
210
100
AcDbEntity
  8
치수문자_일반주서
 62
     0
370
    -2
100
AcDbLine
 10
104.0515000000001
 20
6.118750000000017
 30
0.0
 11
121.8009795436848
 21
6.11875000000008
 31
0.0
  0
LINE
  5
214
330
210
100
AcDbEntity
  8
치수문자_일반주서
 62
     0
370
    -2
100
AcDbLine
 10
103.5903898511778
 20
18.81875000000002
 30
0.0
 11
121.8009795436847
 21
18.81875000000009
 31
0.0
  0
LINE
  5
215
330
210
100
AcDbEntity
  8
치수문자_일반주서
 62
     0
370
    -2
100
AcDbLine
 10
121.8009795436848
 20
9.42075000000008
 30
0.0
 11
121.8009795436847
 21
15.51675000000009
 31
0.0
  0
SOLID
  5
216
330
210
100
AcDbEntity
  8
치수문자_일반주서
 62
     0
100
AcDbTrace
 10
121.2506462103514
 20
9.420750000000078
 30
0.0
 11
122.3513128770181
 21
9.420750000000082
 31
0.0
 12
121.8009795436848
 22
6.11875000000008
 32
0.0
 13
121.8009795436848
 23
6.11875000000008
 33
0.0
  0
SOLID
  5
217
330
210
100
AcDbEntity
  8
치수문자_일반주서
 62
     0
100
AcDbTrace
 10
122.3513128770181
 20
15.51675000000009
 30
0.0
 11
121.2506462103514
 21
15.51675000000009
 31
0.0
 12
121.8009795436847
 22
18.81875000000009
 32
0.0
 13
121.8009795436847
 23
18.81875000000009
 33
0.0
  0
MTEXT
  5
218
330
210
100
AcDbEntity
  8
치수문자_일반주서
 62
     0
100
AcDbMText
 10
117.4259795436847
 20
15.19360432073049
 30
0.0
 40
3.5
 41
0.0
 71
     2
 72
     1
  1
\A1;%%c12.7 [1/2]
  7
SLDTEXTSTYLE0
 11
-3.356894814614645E-15
 21
1.0
 31
0.0
 73
     1
 44
1.0
  0
POINT
  5
219
330
210
100
AcDbEntity
  8
Defpoints
 62
     0
100
AcDbPoint
 10
103.9890000000001
 20
6.118750000000017
 30
0.0
  0
POINT
  5
21A
330
210
100
AcDbEntity
  8
Defpoints
 62
     0
100
AcDbPoint
 10
103.5278898511778
 20
18.81875000000002
 30
0.0
  0
POINT
  5
21B
330
210
100
AcDbEntity
  8
Defpoints
 62
     0
100
AcDbPoint
 10
121.8009795436847
 20
18.81875000000009
 30
0.0
  0
ENDBLK
  5
212
330
210
100
AcDbEntity
  8
0
100
AcDbBlockEnd
  0
BLOCK
  5
21D
330
21C
100
AcDbEntity
  8
0
100
AcDbBlockBegin
  2
*D8
 70
     1
 10
0.0
 20
0.0
 30
0.0
  3
*D8
  1
*D9
  0
LINE
  5
21F
330
21C
100
AcDbEntity
  8
치수문자_일반주서
 62
     0
370
    -2
100
AcDbLine
 10
17.37500000000006
 20
18.38125000000001
 30
0.0
 11
17.37500000000006
 21
51.4743014180718
 31
0.0
  0
LINE
  5
220
330
21C
100
AcDbEntity
  8
치수문자_일반주서
 62
     0
370
    -2
100
AcDbLine
 10
106.2750000000001
 20
16.59525000000002
 30
0.0
 11
106.2750000000001
 21
51.4743014180718
 31
0.0
  0
LINE
  5
221
330
21C
100
AcDbEntity
  8
치수문자_일반주서
 62
     0
370
    -2
100
AcDbLine
 10
20.67700000000006
 20
51.4743014180718
 30
0.0
 11
102.9730000000001
 21
51.4743014180718
 31
0.0
  0
SOLID
  5
222
330
21C
100
AcDbEntity
  8
치수문자_일반주서
 62
     0
100
AcDbTrace
 10
20.67700000000006
 20
52.02463475140514
 30
0.0
 11
20.67700000000006
 21
50.92396808473847
 31
0.0
 12
17.37500000000006
 22
51.4743014180718
 32
0.0
 13
17.37500000000006
 23
51.4743014180718
 33
0.0
  0
SOLID
  5
223
330
21C
100
AcDbEntity
  8
치수문자_일반주서
 62
     0
100
AcDbTrace
 10
102.9730000000001
 20
50.92396808473847
 30
0.0
 11
102.9730000000001
 21
52.02463475140514
 31
0.0
 12
106.2750000000001
 22
51.4743014180718
 32
0.0
 13
106.2750000000001
 23
51.4743014180718
 33
0.0
  0
MTEXT
  5
224
330
21C
100
AcDbEntity
  8
치수문자_일반주서
 62
     0
100
AcDbMText
 10
61.82500000000006
 20
55.8493014180718
 30
0.0
 40
3.5
 41
0.0
 71
     2
 72
     1
  1
\A1;88.90 [3 1/2]
  7
SLDTEXTSTYLE0
 73
     1
 44
1.0
  0
POINT
  5
225
330
21C
100
AcDbEntity
  8
Defpoints
 62
     0
100
AcDbPoint
 10
17.37500000000006
 20
18.31875000000001
 30
0.0
  0
POINT
  5
226
330
21C
100
AcDbEntity
  8
Defpoints
 62
     0
100
AcDbPoint
 10
106.2750000000001
 20
16.53275000000002
 30
0.0
  0
POINT
  5
227
330
21C
100
AcDbEntity
  8
Defpoints
 62
     0
100
AcDbPoint
 10
106.2750000000001
 20
51.4743014180718
 30
0.0
  0
ENDBLK
  5
21E
330
21C
100
AcDbEntity
  8
0
100
AcDbBlockEnd
  0
BLOCK
  5
229
330
228
100
AcDbEntity
  8
0
100
AcDbBlockBegin
  2
*D9
 70
     1
 10
0.0
 20
0.0
 30
0.0
  3
*D9
  1
*D10
  0
LINE
  5
22B
330
228
100
AcDbEntity
  8
치수문자_일반주서
 62
     0
370
    -2
100
AcDbLine
 10
106.2750000000001
 20
16.59525000000002
 30
0.0
 11
106.2750000000001
 21
34.15974453033796
 31
0.0
  0
LINE
  5
22C
330
228
100
AcDbEntity
  8
치수문자_일반주서
 62
     0
370
    -2
100
AcDbLine
 10
74.52500000000006
 20
6.517182455651199
 30
0.0
 11
74.52500000000006
 21
34.15974453033796
 31
0.0
  0
LINE
  5
22D
330
228
100
AcDbEntity
  8
치수문자_일반주서
 62
     0
370
    -2
100
AcDbLine
 10
102.9730000000001
 20
34.15974453033796
 30
0.0
 11
77.82700000000006
 21
34.15974453033796
 31
0.0
  0
SOLID
  5
22E
330
228
100
AcDbEntity
  8
치수문자_일반주서
 62
     0
100
AcDbTrace
 10
102.9730000000001
 20
33.60941119700463
 30
0.0
 11
102.9730000000001
 21
34.71007786367129
 31
0.0
 12
106.2750000000001
 22
34.15974453033796
 32
0.0
 13
106.2750000000001
 23
34.15974453033796
 33
0.0
  0
SOLID
  5
22F
330
228
100
AcDbEntity
  8
치수문자_일반주서
 62
     0
100
AcDbTrace
 10
77.82700000000006
 20
34.71007786367129
 30
0.0
 11
77.82700000000006
 21
33.60941119700463
 31
0.0
 12
74.52500000000006
 22
34.15974453033796
 32
0.0
 13
74.52500000000006
 23
34.15974453033796
 33
0.0
  0
MTEXT
  5
230
330
228
100
AcDbEntity
  8
치수문자_일반주서
 62
     0
100
AcDbMText
 10
90.05075141487691
 20
38.53474453033796
 30
0.0
 40
3.5
 41
0.0
 71
     2
 72
     1
  1
\A1;31.75 [1 1/4]
  7
SLDTEXTSTYLE0
 73
     1
 44
1.0
  0
POINT
  5
231
330
228
100
AcDbEntity
  8
Defpoints
 62
     0
100
AcDbPoint
 10
106.2750000000001
 20
16.53275000000002
 30
0.0
  0
POINT
  5
232
330
228
100
AcDbEntity
  8
Defpoints
 62
     0
100
AcDbPoint
 10
74.52500000000006
 20
6.454682455651199
 30
0.0
  0
POINT
  5
233
330
228
100
AcDbEntity
  8
Defpoints
 62
     0
100
AcDbPoint
 10
74.52500000000006
 20
34.15974453033796
 30
0.0
  0
ENDBLK
  5
22A
330
228
100
AcDbEntity
  8
0
100
AcDbBlockEnd
  0
BLOCK
  5
235
330
234
100
AcDbEntity
  8
0
100
AcDbBlockBegin
  2
*D10
 70
     1
 10
0.0
 20
0.0
 30
0.0
  3
*D10
  1
*D11
  0
LINE
  5
237
330
234
100
AcDbEntity
  8
치수문자_일반주서
 62
     0
370
    -2
100
AcDbLine
 10
17.81250000000006
 20
18.81875000000002
 30
0.0
 11
4.37500000000002
 21
18.81874999999997
 31
0.0
  0
LINE
  5
238
330
234
100
AcDbEntity
  8
치수문자_일반주서
 62
     0
370
    -2
100
AcDbLine
 10
17.81250000000006
 20
6.118750000000015
 30
0.0
 11
4.375000000000065
 21
6.118749999999966
 31
0.0
  0
LINE
  5
239
330
234
100
AcDbEntity
  8
치수문자_일반주서
 62
     0
370
    -2
100
AcDbLine
 10
4.375000000000032
 20
15.51674999999997
 30
0.0
 11
4.375000000000053
 21
9.420749999999966
 31
0.0
  0
SOLID
  5
23A
330
234
100
AcDbEntity
  8
치수문자_일반주서
 62
     0
100
AcDbTrace
 10
4.925333333333366
 20
15.51674999999997
 30
0.0
 11
3.824666666666699
 21
15.51674999999996
 31
0.0
 12
4.37500000000002
 22
18.81874999999997
 32
0.0
 13
4.37500000000002
 23
18.81874999999997
 33
0.0
  0
SOLID
  5
23B
330
234
100
AcDbEntity
  8
치수문자_일반주서
 62
     0
100
AcDbTrace
 10
3.82466666666672
 20
9.420749999999964
 30
0.0
 11
4.925333333333387
 21
9.420749999999968
 31
0.0
 12
4.375000000000065
 22
6.118749999999966
 32
0.0
 13
4.375000000000065
 23
6.118749999999966
 33
0.0
  0
MTEXT
  5
23C
330
234
100
AcDbEntity
  8
치수문자_일반주서
 62
     0
100
AcDbMText
 10
0.0000000000000426
 20
12.46875
 30
0.0
 40
3.5
 41
0.0
 71
     2
 72
     1
  1
\A1;%%c12.70 [1/2]
  7
SLDTEXTSTYLE0
 11
-3.496765431890257E-15
 21
1.0
 31
0.0
 73
     1
 44
1.0
  0
POINT
  5
23D
330
234
100
AcDbEntity
  8
Defpoints
 62
     0
100
AcDbPoint
 10
17.87500000000006
 20
18.81875000000002
 30
0.0
  0
POINT
  5
23E
330
234
100
AcDbEntity
  8
Defpoints
 62
     0
100
AcDbPoint
 10
17.87500000000006
 20
6.118750000000015
 30
0.0
  0
POINT
  5
23F
330
234
100
AcDbEntity
  8
Defpoints
 62
     0
100
AcDbPoint
 10
4.375000000000064
 20
6.118749999999965
 30
0.0
  0
ENDBLK
  5
236
330
234
100
AcDbEntity
  8
0
100
AcDbBlockEnd
  0
BLOCK
  5
28C
330
28B
100
AcDbEntity
  8
0
100
AcDbBlockBegin
  2
*D11
 70
     1
 10
0.0
 20
0.0
 30
0.0
  3
*D11
  1
*D12
  0
LINE
  5
28E
330
28B
100
AcDbEntity
  8
치수문자_일반주서
 62
     0
370
    -2
100
AcDbLine
 10
39.52650000000003
 20
-6.349999999999994
 30
0.0
 11
57.27597954368471
 21
-6.349999999999929
 31
0.0
  0
LINE
  5
28F
330
28B
100
AcDbEntity
  8
치수문자_일반주서
 62
     0
370
    -2
100
AcDbLine
 10
39.06538985117777
 20
6.350000000000009
 30
0.0
 11
57.27597954368467
 21
6.350000000000076
 31
0.0
  0
LINE
  5
290
330
28B
100
AcDbEntity
  8
치수문자_일반주서
 62
     0
370
    -2
100
AcDbLine
 10
57.2759795436847
 20
-3.047999999999929
 30
0.0
 11
57.27597954368468
 21
3.048000000000076
 31
0.0
  0
SOLID
  5
291
330
28B
100
AcDbEntity
  8
치수문자_일반주서
 62
     0
100
AcDbTrace
 10
56.72564621035136
 20
-3.047999999999931
 30
0.0
 11
57.82631287701803
 21
-3.047999999999927
 31
0.0
 12
57.27597954368471
 22
-6.349999999999929
 32
0.0
 13
57.27597954368471
 23
-6.349999999999929
 33
0.0
  0
SOLID
  5
292
330
28B
100
AcDbEntity
  8
치수문자_일반주서
 62
     0
100
AcDbTrace
 10
57.82631287701802
 20
3.048000000000078
 30
0.0
 11
56.72564621035135
 21
3.048000000000075
 31
0.0
 12
57.27597954368467
 22
6.350000000000076
 32
0.0
 13
57.27597954368467
 23
6.350000000000076
 33
0.0
  0
MTEXT
  5
293
330
28B
100
AcDbEntity
  8
치수문자_일반주서
 62
     0
100
AcDbMText
 10
52.90097954368469
 20
0.0000000000000596
 30
0.0
 40
3.5
 41
0.0
 71
     2
 72
     1
  1
\A1;%%c12.7 [1/2]
  7
SLDTEXTSTYLE0
 11
-3.356894814614645E-15
 21
1.0
 31
0.0
 73
     1
 44
1.0
  0
POINT
  5
294
330
28B
100
AcDbEntity
  8
Defpoints
 62
     0
100
AcDbPoint
 10
39.46400000000003
 20
-6.349999999999994
 30
0.0
  0
POINT
  5
295
330
28B
100
AcDbEntity
  8
Defpoints
 62
     0
100
AcDbPoint
 10
39.00288985117777
 20
6.350000000000009
 30
0.0
  0
POINT
  5
296
330
28B
100
AcDbEntity
  8
Defpoints
 62
     0
100
AcDbPoint
 10
57.27597954368467
 20
6.350000000000077
 30
0.0
  0
ENDBLK
  5
28D
330
28B
100
AcDbEntity
  8
0
100
AcDbBlockEnd
  0
BLOCK
  5
298
330
297
100
AcDbEntity
  8
0
100
AcDbBlockBegin
  2
*D12
 70
     1
 10
0.0
 20
0.0
 30
0.0
  3
*D12
  1
*D13
  0
LINE
  5
29A
330
297
100
AcDbEntity
  8
치수문자_일반주서
 62
     0
370
    -2
100
AcDbLine
 10
-47.15000000000001
 20
5.912499999999994
 30
0.0
 11
-47.15000000000001
 21
39.00555141807179
 31
0.0
  0
LINE
  5
29B
330
297
100
AcDbEntity
  8
치수문자_일반주서
 62
     0
370
    -2
100
AcDbLine
 10
41.75
 20
4.126500000000007
 30
0.0
 11
41.75
 21
39.00555141807179
 31
0.0
  0
LINE
  5
29C
330
297
100
AcDbEntity
  8
치수문자_일반주서
 62
     0
370
    -2
100
AcDbLine
 10
-43.84800000000001
 20
39.00555141807179
 30
0.0
 11
38.448
 21
39.00555141807179
 31
0.0
  0
SOLID
  5
29D
330
297
100
AcDbEntity
  8
치수문자_일반주서
 62
     0
100
AcDbTrace
 10
-43.84800000000001
 20
39.55588475140512
 30
0.0
 11
-43.84800000000001
 21
38.45521808473845
 31
0.0
 12
-47.15000000000001
 22
39.00555141807179
 32
0.0
 13
-47.15000000000001
 23
39.00555141807179
 33
0.0
  0
SOLID
  5
29E
330
297
100
AcDbEntity
  8
치수문자_일반주서
 62
     0
100
AcDbTrace
 10
38.448
 20
38.45521808473845
 30
0.0
 11
38.448
 21
39.55588475140512
 31
0.0
 12
41.75
 22
39.00555141807179
 32
0.0
 13
41.75
 23
39.00555141807179
 33
0.0
  0
MTEXT
  5
29F
330
297
100
AcDbEntity
  8
치수문자_일반주서
 62
     0
100
AcDbMText
 10
-2.700000000000003
 20
43.38055141807179
 30
0.0
 40
3.5
 41
0.0
 71
     2
 72
     1
  1
\A1;88.90 [3 1/2]
  7
SLDTEXTSTYLE0
 73
     1
 44
1.0
  0
POINT
  5
2A0
330
297
100
AcDbEntity
  8
Defpoints
 62
     0
100
AcDbPoint
 10
-47.15000000000001
 20
5.849999999999994
 30
0.0
  0
POINT
  5
2A1
330
297
100
AcDbEntity
  8
Defpoints
 62
     0
100
AcDbPoint
 10
41.75
 20
4.064000000000007
 30
0.0
  0
POINT
  5
2A2
330
297
100
AcDbEntity
  8
Defpoints
 62
     0
100
AcDbPoint
 10
41.75
 20
39.00555141807179
 30
0.0
  0
ENDBLK
  5
299
330
297
100
AcDbEntity
  8
0
100
AcDbBlockEnd
  0
BLOCK
  5
2A4
330
2A3
100
AcDbEntity
  8
0
100
AcDbBlockBegin
  2
*D13
 70
     1
 10
0.0
 20
0.0
 30
0.0
  3
*D13
  1
*D14
  0
LINE
  5
2A6
330
2A3
100
AcDbEntity
  8
치수문자_일반주서
 62
     0
370
    -2
100
AcDbLine
 10
41.75
 20
4.126500000000007
 30
0.0
 11
41.75
 21
21.69099453033795
 31
0.0
  0
LINE
  5
2A7
330
2A3
100
AcDbEntity
  8
치수문자_일반주서
 62
     0
370
    -2
100
AcDbLine
 10
10.0
 20
-5.951567544348819
 30
0.0
 11
10.0
 21
21.69099453033795
 31
0.0
  0
LINE
  5
2A8
330
2A3
100
AcDbEntity
  8
치수문자_일반주서
 62
     0
370
    -2
100
AcDbLine
 10
38.448
 20
21.69099453033795
 30
0.0
 11
13.302
 21
21.69099453033795
 31
0.0
  0
SOLID
  5
2A9
330
2A3
100
AcDbEntity
  8
치수문자_일반주서
 62
     0
100
AcDbTrace
 10
38.448
 20
21.14066119700461
 30
0.0
 11
38.448
 21
22.24132786367128
 31
0.0
 12
41.75
 22
21.69099453033795
 32
0.0
 13
41.75
 23
21.69099453033795
 33
0.0
  0
SOLID
  5
2AA
330
2A3
100
AcDbEntity
  8
치수문자_일반주서
 62
     0
100
AcDbTrace
 10
13.302
 20
22.24132786367128
 30
0.0
 11
13.302
 21
21.14066119700461
 31
0.0
 12
10.0
 22
21.69099453033795
 32
0.0
 13
10.0
 23
21.69099453033795
 33
0.0
  0
MTEXT
  5
2AB
330
2A3
100
AcDbEntity
  8
치수문자_일반주서
 62
     0
100
AcDbMText
 10
25.52575141487685
 20
26.06599453033795
 30
0.0
 40
3.5
 41
0.0
 71
     2
 72
     1
  1
\A1;31.75 [1 1/4]
  7
SLDTEXTSTYLE0
 73
     1
 44
1.0
  0
POINT
  5
2AC
330
2A3
100
AcDbEntity
  8
Defpoints
 62
     0
100
AcDbPoint
 10
41.75
 20
4.064000000000007
 30
0.0
  0
POINT
  5
2AD
330
2A3
100
AcDbEntity
  8
Defpoints
 62
     0
100
AcDbPoint
 10
10.0
 20
-6.014067544348819
 30
0.0
  0
POINT
  5
2AE
330
2A3
100
AcDbEntity
  8
Defpoints
 62
     0
100
AcDbPoint
 10
10.0
 20
21.69099453033795
 30
0.0
  0
ENDBLK
  5
2A5
330
2A3
100
AcDbEntity
  8
0
100
AcDbBlockEnd
  0
BLOCK
  5
2B0
330
2AF
100
AcDbEntity
  8
0
100
AcDbBlockBegin
  2
*D14
 70
     1
 10
0.0
 20
0.0
 30
0.0
  3
*D14
  1
*D15
  0
LINE
  5
2B2
330
2AF
100
AcDbEntity
  8
치수문자_일반주서
 62
     0
370
    -2
100
AcDbLine
 10
-46.71250000000001
 20
6.350000000000009
 30
0.0
 11
-60.15000000000003
 21
6.349999999999958
 31
0.0
  0
LINE
  5
2B3
330
2AF
100
AcDbEntity
  8
치수문자_일반주서
 62
     0
370
    -2
100
AcDbLine
 10
-46.71250000000001
 20
-6.349999999999994
 30
0.0
 11
-60.14999999999998
 21
-6.350000000000045
 31
0.0
  0
LINE
  5
2B4
330
2AF
100
AcDbEntity
  8
치수문자_일반주서
 62
     0
370
    -2
100
AcDbLine
 10
-60.15000000000001
 20
3.047999999999958
 30
0.0
 11
-60.15
 21
-3.048000000000045
 31
0.0
  0
SOLID
  5
2B5
330
2AF
100
AcDbEntity
  8
치수문자_일반주서
 62
     0
100
AcDbTrace
 10
-59.59966666666668
 20
3.04799999999996
 30
0.0
 11
-60.70033333333335
 21
3.047999999999957
 31
0.0
 12
-60.15000000000003
 22
6.349999999999958
 32
0.0
 13
-60.15000000000003
 23
6.349999999999958
 33
0.0
  0
SOLID
  5
2B6
330
2AF
100
AcDbEntity
  8
치수문자_일반주서
 62
     0
100
AcDbTrace
 10
-60.70033333333333
 20
-3.048000000000047
 30
0.0
 11
-59.59966666666666
 21
-3.048000000000044
 31
0.0
 12
-60.14999999999998
 22
-6.350000000000045
 32
0.0
 13
-60.14999999999998
 23
-6.350000000000045
 33
0.0
  0
MTEXT
  5
2B7
330
2AF
100
AcDbEntity
  8
치수문자_일반주서
 62
     0
100
AcDbMText
 10
-64.525
 20
-0.0000000000000145
 30
0.0
 40
3.5
 41
0.0
 71
     2
 72
     1
  1
\A1;%%c12.70 [1/2]
  7
SLDTEXTSTYLE0
 11
-3.356894814614646E-15
 21
1.0
 31
0.0
 73
     1
 44
1.0
  0
POINT
  5
2B8
330
2AF
100
AcDbEntity
  8
Defpoints
 62
     0
100
AcDbPoint
 10
-46.65000000000001
 20
6.350000000000009
 30
0.0
  0
POINT
  5
2B9
330
2AF
100
AcDbEntity
  8
Defpoints
 62
     0
100
AcDbPoint
 10
-46.65000000000001
 20
-6.349999999999994
 30
0.0
  0
POINT
  5
2BA
330
2AF
100
AcDbEntity
  8
Defpoints
 62
     0
100
AcDbPoint
 10
-60.14999999999998
 20
-6.350000000000045
 30
0.0
  0
ENDBLK
  5
2B1
330
2AF
100
AcDbEntity
  8
0
100
AcDbBlockEnd
  0
BLOCK
  5
2C0
330
2BF
100
AcDbEntity
  8
0
100
AcDbBlockBegin
  2
*D15
 70
     1
 10
0.0
 20
0.0
 30
0.0
  3
*D15
  1
*D16
  0
LINE
  5
2C2
330
2BF
100
AcDbEntity
  8
치수문자_일반주서
 62
     0
370
    -2
100
AcDbLine
 10
42.75024436886453
 20
8.583551078160996
 30
0.0
 11
62.59105127683323
 21
35.87048722389788
 31
0.0
  0
MTEXT
  5
2C3
330
2BF
100
AcDbEntity
  8
치수문자_일반주서
 62
     0
100
AcDbMText
 10
51.9774194486918
 20
25.73723253122073
 30
0.0
 40
3.5
 41
0.0
 71
     5
 72
     1
  1
\A1;R2.29 [R0.09]
  7
SLDTEXTSTYLE0
 11
0.588089543461799
 21
0.8087958264425533
 31
0.0
 73
     1
 44
1.0
  0
LINE
  5
2C4
330
2BF
100
AcDbEntity
  8
치수문자_일반주서
 62
     0
370
    -2
100
AcDbLine
 10
39.464
 20
4.064000000000007
 30
0.0
 11
40.80837269635367
 21
5.912907259247685
 31
0.0
  0
SOLID
  5
2C5
330
2BF
100
AcDbEntity
  8
치수문자_일반주서
 62
     0
100
AcDbTrace
 10
42.30513706571231
 20
8.907196356912806
 30
0.0
 11
43.19535167201675
 21
8.259905799409186
 31
0.0
 12
40.80837269635367
 22
5.912907259247685
 32
0.0
 13
40.80837269635367
 23
5.912907259247685
 33
0.0
  0
POINT
  5
2C6
330
2BF
100
AcDbEntity
  8
Defpoints
 62
     0
100
AcDbPoint
 10
40.80837269635367
 20
5.912907259247685
 30
0.0
  0
POINT
  5
2C7
330
2BF
100
AcDbEntity
  8
Defpoints
 62
     0
100
AcDbPoint
 10
39.464
 20
4.064000000000007
 30
0.0
  0
ENDBLK
  5
2C1
330
2BF
100
AcDbEntity
  8
0
100
AcDbBlockEnd
  0
ENDSEC
  0
SECTION
  2
ENTITIES
  0
INSERT
  5
DD
330
1F
100
AcDbEntity
  8
0
  6
Continuous
 62
     7
100
AcDbBlockReference
 66
     1
  2
블럭10
 10
-16.62984641916796
 20
-52.04907070757051
 30
0.0
  0
ATTRIB
  5
DE
330
DD
100
AcDbEntity
  8
FORMAT
 62
     2
100
AcDbText
 10
-27.68086677135242
 20
-49.97370379473831
 30
0.0
 40
4.233333333333333
  1
GMG23921[ 6 FLUTE ]
 41
0.75
  7
SLDTEXTSTYLE0
 11
-27.68086677135242
 21
-52.09037046140498
 31
0.0
100
AcDbAttribute
  2
AUTOATTR0
 70
     0
 74
     1
  0
SEQEND
  5
DF
330
DD
100
AcDbEntity
  8
0
  6
Continuous
 62
     7
  0
HATCH
  5
E0
330
1F
100
AcDbEntity
  8
중심선
100
AcDbHatch
 10
0.0
 20
0.0
 30
0.0
210
0.0
220
0.0
230
1.0
  2
SOLID
 70
     1
 71
     0
 91
        1
 92
        0
 93
        4
 72
     1
 10
-10.91493711478711
 20
-35.80189640592657
 11
-14.36121235862439
 21
-35.80189640592657
 72
     1
 10
-14.36121235862439
 20
-35.80189640592657
 11
-16.48944221782842
 21
-38.33822198649916
 72
     1
 10
-16.48944221782842
 20
-38.33822198649916
 11
-13.04313388887798
 21
-38.33818255719667
 72
     1
 10
-13.04313388887798
 20
-38.33818255719667
 11
-10.91493711478711
 21
-35.80189640592657
 97
        0
 75
     0
 76
     1
 98
        1
 10
0.0
 20
0.0
  0
HATCH
  5
E1
330
1F
100
AcDbEntity
  8
중심선
100
AcDbHatch
 10
0.0
 20
0.0
 30
0.0
210
0.0
220
0.0
230
1.0
  2
SOLID
 70
     1
 71
     0
 91
        1
 92
        0
 93
        4
 72
     1
 10
-5.902173123751159
 20
-35.80189640592657
 11
-9.348448367588441
 21
-35.80189640592657
 72
     1
 10
-9.348448367588441
 20
-35.80189640592657
 11
-13.87958637594583
 21
-41.20189640592658
 72
     1
 10
-13.87958637594583
 20
-41.20189640592658
 11
-10.43331113210855
 21
-41.20189640592658
 72
     1
 10
-10.43331113210855
 20
-41.20189640592658
 11
-5.902173123751159
 21
-35.80189640592657
 97
        0
 75
     0
 76
     1
 98
        1
 10
0.0
 20
0.0
  0
HATCH
  5
E2
330
1F
100
AcDbEntity
  8
중심선
100
AcDbHatch
 10
0.0
 20
0.0
 30
0.0
210
0.0
220
0.0
230
1.0
  2
SOLID
 70
     1
 71
     0
 91
        1
 92
        0
 93
        4
 72
     1
 10
-0.8894091327152631
 20
-35.8018964059266
 11
-4.335684376552379
 21
-35.80189640592657
 72
     1
 10
-4.335684376552379
 20
-35.80189640592657
 11
-11.38412127844163
 21
-44.20189640592659
 72
     1
 10
-11.38412127844163
 20
-44.20189640592659
 11
-7.937846034604346
 21
-44.20189640592659
 72
     1
 10
-7.937846034604346
 20
-44.20189640592659
 11
-0.8894091327152633
 21
-35.8018964059266
 97
        0
 75
     0
 76
     1
 98
        1
 10
0.0
 20
0.0
  0
HATCH
  5
E3
330
1F
100
AcDbEntity
  8
중심선
100
AcDbHatch
 10
0.0
 20
0.0
 30
0.0
210
0.0
220
0.0
230
1.0
  2
SOLID
 70
     1
 71
     0
 91
        1
 92
        0
 93
        6
 72
     3
 10
3.910481298296936
 20
-40.00189640597785
 11
3.960054785062284
 21
1.540850780301639E-10
 40
0.3939339440162633
 50
17.09539180608434
 51
320.0019657685079
 73
     0
 72
     1
 10
5.593480953997531
 20
-38.58979041056487
 11
7.89878282769857
 21
-36.65546370051695
 72
     3
 10
3.91048129824409
 20
-40.00189640592671
 11
6.600054785286829
 21
-1.249000902703301E-13
 40
0.6363583540795982
 50
39.99873849337408
 51
368.4976242363724
 73
     1
 72
     1
 10
10.3358137901447
 20
-39.04189640585659
 11
2.590548605080012
 21
-39.04189640585656
 72
     1
 10
2.590548605080012
 20
-39.04189640585656
 11
2.590523560634078
 21
-40.96189640585649
 72
     1
 10
2.590523560634078
 20
-40.96189640585649
 11
7.031903330106115
 21
-40.96189640585646
 97
        0
 75
     0
 76
     1
 98
        1
 10
0.0
 20
0.0
  0
LINE
  5
241
330
1F
100
AcDbEntity
  8
0
  6
Continuous
 62
     4
370
    15
100
AcDbLine
 10
8.097270301605079
 20
6.350000000000009
 30
0.0
 11
-17.41612499999999
 21
6.350000000000009
 31
0.0
  0
LINE
  5
242
330
1F
100
AcDbEntity
  8
0
  6
Continuous
 62
     4
370
    15
100
AcDbLine
 10
-46.65000000000001
 20
-6.349999999999994
 30
0.0
 11
8.097270301605093
 21
-6.349999999999994
 31
0.0
  0
LINE
  5
243
330
1F
100
AcDbEntity
  8
0
  6
Continuous
 62
     4
370
    15
100
AcDbLine
 10
-46.65000000000001
 20
6.349999999999994
 30
0.0
 11
-47.15000000000001
 21
5.849999999999994
 31
0.0
  0
LINE
  5
244
330
1F
100
AcDbEntity
  8
0
  6
Continuous
 62
     4
370
    15
100
AcDbLine
 10
-47.15000000000001
 20
-5.849999999999994
 30
0.0
 11
-46.65000000000001
 21
-6.349999999999994
 31
0.0
  0
LINE
  5
245
330
1F
100
AcDbEntity
  8
0
  6
Continuous
 62
     1
370
    15
100
AcDbLine
 10
7.970376235597087
 20
-6.280844186446927
 30
0.0
 11
7.970376224053126
 21
-6.280705353153948
 31
0.0
  0
LINE
  5
246
330
1F
100
AcDbEntity
  8
0
  6
Continuous
 62
     1
370
    15
100
AcDbLine
 10
25.70340550578122
 20
-6.349999999999994
 30
0.0
 11
27.87321375738287
 21
-6.349999999999994
 31
0.0
  0
LINE
  5
247
330
1F
100
AcDbEntity
  8
0
  6
Continuous
 62
     1
370
    15
100
AcDbLine
 10
19.05192204434375
 20
-6.349999999999994
 30
0.0
 11
21.22473802695535
 21
-6.349999999999994
 31
0.0
  0
LINE
  5
248
330
1F
100
AcDbEntity
  8
0
  6
Continuous
 62
     1
370
    15
100
AcDbLine
 10
39.464
 20
6.350000000000009
 30
0.0
 11
39.00288985117777
 21
6.350000000000009
 31
0.0
  0
LINE
  5
249
330
1F
100
AcDbEntity
  8
0
  6
Continuous
 62
     1
370
    15
100
AcDbLine
 10
32.35138476427639
 20
-6.349999999999994
 30
0.0
 11
34.524135164046
 21
-6.349999999999994
 31
0.0
  0
LINE
  5
24A
330
1F
100
AcDbEntity
  8
0
  6
Continuous
 62
     1
370
    15
100
AcDbLine
 10
14.57377096210656
 20
6.350000000000009
 30
0.0
 11
12.40251837069717
 21
6.350000000000009
 31
0.0
  0
LINE
  5
24B
330
1F
100
AcDbEntity
  8
0
  6
Continuous
 62
     1
370
    15
100
AcDbLine
 10
39.00288985117777
 20
-6.349999999999994
 30
0.0
 11
39.464
 21
-6.349999999999994
 31
0.0
  0
LINE
  5
24C
330
1F
100
AcDbEntity
  8
0
  6
Continuous
 62
     1
370
    15
100
AcDbLine
 10
21.22473802695539
 20
6.350000000000009
 30
0.0
 11
19.05192204434377
 21
6.350000000000009
 31
0.0
  0
LINE
  5
24D
330
1F
100
AcDbEntity
  8
0
  6
Continuous
 62
     1
370
    15
100
AcDbLine
 10
27.8732137573829
 20
6.350000000000009
 30
0.0
 11
25.70340550578126
 21
6.350000000000009
 31
0.0
  0
ARC
  5
24E
330
1F
100
AcDbEntity
  8
0
  6
Continuous
 62
     1
370
    15
100
AcDbCircle
 10
39.464
 20
-4.063999999999993
 30
0.0
 40
2.286000000000001
100
AcDbArc
 50
270.0000000000007
 51
0.0
  0
ARC
  5
24F
330
1F
100
AcDbEntity
  8
0
  6
Continuous
 62
     1
370
    15
100
AcDbCircle
 10
39.464
 20
4.064000000000007
 30
0.0
 40
2.286000000000001
100
AcDbArc
 50
0.0
 51
90.0
  0
LINE
  5
250
330
1F
100
AcDbEntity
  8
0
  6
Continuous
 62
     1
370
    15
100
AcDbLine
 10
12.40251837069722
 20
-6.349999999999994
 30
0.0
 11
14.57377096210655
 21
-6.349999999999994
 31
0.0
  0
LINE
  5
251
330
1F
100
AcDbEntity
  8
0
  6
Continuous
 62
     1
370
    15
100
AcDbLine
 10
34.52413516404599
 20
6.350000000000009
 30
0.0
 11
32.35138476427645
 21
6.350000000000009
 31
0.0
  0
SPLINE
  5
252
330
1F
100
AcDbEntity
  8
0
  6
Continuous
 62
     4
370
    15
100
AcDbSpline
210
0.0
220
0.0
230
1.0
 70
     8
 71
     3
 72
    20
 73
    16
 74
     0
 42
0.000000001
 43
0.00000001
 40
0.0
 40
0.0
 40
0.0
 40
0.0
 40
0.1250000000000001
 40
0.1250000000000001
 40
0.2500000000000001
 40
0.2500000000000001
 40
0.3750000000000002
 40
0.3750000000000002
 40
0.5000000000000002
 40
0.5000000000000002
 40
0.7500000000000002
 40
0.7500000000000002
 40
0.8750000000000001
 40
0.8750000000000001
 40
1.0
 40
1.0
 40
1.0
 40
1.0
 10
7.970376223537983
 20
-2.344740257881156
 30
0.0
 10
7.970376223537983
 20
-2.21854999545684
 30
0.0
 10
7.970574704376943
 20
-2.091005479590365
 30
0.0
 10
7.992550938187222
 20
-1.83510235949224
 30
0.0
 10
8.01416413265025
 20
-1.70564884854106
 30
0.0
 10
8.091360364277634
 20
-1.451954061224598
 30
0.0
 10
8.145642639295474
 20
-1.330748497943006
 30
0.0
 10
8.293681585150196
 20
-1.103628604052403
 30
0.0
 10
8.383346825593947
 20
-1.003813187734167
 30
0.0
 10
8.702187530413426
 20
-0.7497028549628482
 30
0.0
 10
8.972368724363676
 20
-0.654497538194434
 30
0.0
 10
9.381754190779859
 20
-0.6561768759494129
 30
0.0
 10
9.517245167301496
 20
-0.6800821772468879
 30
0.0
 10
9.774100578642162
 20
-0.7722969085585873
 30
0.0
 10
9.893738590921032
 20
-0.8399360496976698
 30
0.0
 10
9.999999999999858
 20
-0.9262503012289187
 30
0.0
  0
SPLINE
  5
253
330
1F
100
AcDbEntity
  8
0
  6
Continuous
 62
     4
370
    15
100
AcDbSpline
210
0.0
220
0.0
230
1.0
 70
     8
 71
     3
 72
    14
 73
    10
 74
     0
 42
0.000000001
 43
0.00000001
 40
0.0
 40
0.0
 40
0.0
 40
0.0
 40
0.25
 40
0.25
 40
0.5
 40
0.5
 40
0.75
 40
0.75
 40
1.0
 40
1.0
 40
1.0
 40
1.0
 10
8.390159250862936
 20
-3.56887586880174
 30
0.0
 10
8.301502651427285
 20
-3.495283856552462
 30
0.0
 10
8.228580541900044
 20
-3.411664800165582
 30
0.0
 10
8.110315485923408
 20
-3.225089480158445
 30
0.0
 10
8.06619590175238
 20
-3.12299756968693
 30
0.0
 10
8.005212551946315
 20
-2.911156257174383
 30
0.0
 10
7.987867946454955
 20
-2.799796051497637
 30
0.0
 10
7.970467864698378
 20
-2.574966198543422
 30
0.0
 10
7.970376223537983
 20
-2.460613557004748
 30
0.0
 10
7.970376223537983
 20
-2.344740257881156
 30
0.0
  0
SPLINE
  5
254
330
1F
100
AcDbEntity
  8
0
  6
Continuous
 62
     4
370
    15
100
AcDbSpline
210
0.0
220
0.0
230
1.0
 70
     8
 71
     3
 72
    10
 73
     6
 74
     0
 42
0.000000001
 43
0.00000001
 40
0.0
 40
0.0
 40
0.0
 40
0.0
 40
0.5
 40
0.5
 40
1.0
 40
1.0
 40
1.0
 40
1.0
 10
9.999999999999986
 20
-4.77200365265611
 30
0.0
 10
9.732802537947506
 20
-4.595253522383089
 30
0.0
 10
9.462925626698322
 20
-4.40512141306435
 30
0.0
 10
8.924281858482132
 20
-4.002468838553412
 30
0.0
 10
8.656992520525947
 20
-3.79036865528974
 30
0.0
 10
8.390159250862936
 20
-3.56887586880174
 30
0.0
  0
SPLINE
  5
255
330
1F
100
AcDbEntity
  8
0
  6
Continuous
 62
     4
370
    15
100
AcDbSpline
210
0.0
220
0.0
230
1.0
 70
     8
 71
     3
 72
    20
 73
    16
 74
     0
 42
0.000000001
 43
0.00000001
 40
0.0
 40
0.0
 40
0.0
 40
0.0
 40
0.125
 40
0.125
 40
0.2500000000000001
 40
0.2500000000000001
 40
0.3750000000000001
 40
0.3750000000000001
 40
0.5
 40
0.5
 40
0.7499999999999999
 40
0.7499999999999999
 40
0.875
 40
0.875
 40
1.0
 40
1.0
 40
1.0
 40
1.0
 10
7.970376223537983
 20
-6.282998254944616
 30
0.0
 10
7.970376223537983
 20
-6.263324898096158
 30
0.0
 10
7.970574704376943
 20
-6.239366737301324
 30
0.0
 10
7.992550938187222
 20
-6.183455723030946
 30
0.0
 10
8.01416413265025
 20
-6.151202415831378
 30
0.0
 10
8.091360364277648
 20
-6.080751525436852
 30
0.0
 10
8.145642639295474
 20
-6.043454496333155
 30
0.0
 10
8.29368158515021
 20
-5.968309363307327
 30
0.0
 10
8.383346825593947
 20
-5.932527227221485
 30
0.0
 10
8.70218753041344
 20
-5.837663782231417
 30
0.0
 10
8.972368724363676
 20
-5.797221408842461
 30
0.0
 10
9.381754190779873
 20
-5.797910114057927
 30
0.0
 10
9.517245167301496
 20
-5.807820045354319
 30
0.0
 10
9.774100578642162
 20
-5.844734228937298
 30
0.0
 10
9.893738590921032
 20
-5.871432475682397
 30
0.0
 10
9.999999999999858
 20
-5.903568173439439
 30
0.0
  0
SPLINE
  5
256
330
1F
100
AcDbEntity
  8
0
  6
Continuous
 62
     4
370
    15
100
AcDbSpline
210
0.0
220
0.0
230
1.0
 70
     8
 71
     3
 72
    14
 73
    10
 74
     0
 42
0.000000001
 43
0.00000001
 40
0.0
 40
0.0
 40
0.0
 40
0.0
 40
0.2500000000000001
 40
0.2500000000000001
 40
0.5000000000000001
 40
0.5000000000000001
 40
0.7500000000000002
 40
0.7500000000000002
 40
1.0
 40
1.0
 40
1.0
 40
1.0
 10
8.390159250862936
 20
-6.332978224957102
 30
0.0
 10
8.301502651427285
 20
-6.33948854457806
 30
0.0
 10
8.228580541900044
 20
-6.344933765266887
 30
0.0
 10
8.110315485923408
 20
-6.3506828123285
 30
0.0
 10
8.066195901752394
 20
-6.35085233311932
 30
0.0
 10
8.005212551946315
 20
-6.34399502062098
 30
0.0
 10
7.987867946454955
 20
-6.336929249855729
 30
0.0
 10
7.970467864698378
 20
-6.315463067664794
 30
0.0
 10
7.970376223537983
 20
-6.301063173101298
 30
0.0
 10
7.970376223537983
 20
-6.282998254944616
 30
0.0
  0
SPLINE
  5
257
330
1F
100
AcDbEntity
  8
0
  6
Continuous
 62
     4
370
    15
100
AcDbSpline
210
0.0
220
0.0
230
1.0
 70
     8
 71
     3
 72
    10
 73
     6
 74
     0
 42
0.000000001
 43
0.00000001
 40
0.0
 40
0.0
 40
0.0
 40
0.0
 40
0.5
 40
0.5
 40
1.0
 40
1.0
 40
1.0
 40
1.0
 10
9.999999999999986
 20
-6.014067544348805
 30
0.0
 10
9.732802537947506
 20
-6.100052386010745
 30
0.0
 10
9.462925626698322
 20
-6.170201128793309
 30
0.0
 10
8.924281858482132
 20
-6.276883365991779
 30
0.0
 10
8.656992520525947
 20
-6.313383858806517
 30
0.0
 10
8.390159250862936
 20
-6.332978224957102
 30
0.0
  0
SPLINE
  5
258
330
1F
100
AcDbEntity
  8
0
  6
Continuous
 62
     4
370
    15
100
AcDbSpline
210
0.0
220
0.0
230
1.0
 70
     8
 71
     3
 72
    10
 73
     6
 74
     0
 42
0.000000001
 43
0.00000001
 40
0.0
 40
0.0
 40
0.0
 40
0.0
 40
0.4036730919152877
 40
0.8203169061205845
 40
1.0
 40
1.0
 40
1.0
 40
1.0
 10
8.390159250862936
 20
6.332978224957102
 30
0.0
 10
8.340610269456917
 20
6.336589016377786
 30
0.0
 10
8.2399202112329
 20
6.343926620261172
 30
0.0
 10
8.145270384547345
 20
6.34993845375736
 30
0.0
 10
8.108384595734933
 20
6.349333215811868
 30
0.0
 10
8.097270301605079
 20
6.349150847676029
 30
0.0
  0
SPLINE
  5
259
330
1F
100
AcDbEntity
  8
0
  6
Continuous
 62
     4
370
    15
100
AcDbSpline
210
0.0
220
0.0
230
1.0
 70
     8
 71
     3
 72
    10
 73
     6
 74
     0
 42
0.000000001
 43
0.00000001
 40
0.0
 40
0.0
 40
0.0
 40
0.0
 40
0.5
 40
0.5
 40
1.0
 40
1.0
 40
1.0
 40
1.0
 10
9.999999999999986
 20
6.014067544348805
 30
0.0
 10
9.732802537947506
 20
6.100052386010731
 30
0.0
 10
9.462925626698322
 20
6.170201128793309
 30
0.0
 10
8.924281858482132
 20
6.276883365991779
 30
0.0
 10
8.656992520525947
 20
6.313383858806517
 30
0.0
 10
8.390159250862936
 20
6.332978224957102
 30
0.0
  0
SPLINE
  5
25A
330
1F
100
AcDbEntity
  8
0
  6
Continuous
 62
     4
370
    15
100
AcDbSpline
210
0.0
220
0.0
230
1.0
 70
     8
 71
     3
 72
    20
 73
    16
 74
     0
 42
0.000000001
 43
0.00000001
 40
0.0
 40
0.0
 40
0.0
 40
0.0
 40
0.1249999999999998
 40
0.1249999999999998
 40
0.2499999999999996
 40
0.2499999999999996
 40
0.3749999999999994
 40
0.3749999999999994
 40
0.4999999999999992
 40
0.4999999999999992
 40
0.7499999999999996
 40
0.7499999999999996
 40
0.8749999999999998
 40
0.8749999999999998
 40
1.0
 40
1.0
 40
1.0
 40
1.0
 10
7.970376223537983
 20
3.938257997063417
 30
0.0
 10
7.970376223537983
 20
4.044774902639276
 30
0.0
 10
7.970574704376943
 20
4.148361257710917
 30
0.0
 10
7.992550938187222
 20
4.348353363538664
 30
0.0
 10
8.01416413265025
 20
4.445553567290276
 30
0.0
 10
8.091360364277648
 20
4.628797464212212
 30
0.0
 10
8.145642639295474
 20
4.712705998390106
 30
0.0
 10
8.293681585150196
 20
4.864680759254881
 30
0.0
 10
8.383346825593947
 20
4.928714039487275
 30
0.0
 10
8.70218753041344
 20
5.087960927268526
 30
0.0
 10
8.972368724363676
 20
5.14272387064797
 30
0.0
 10
9.381754190779859
 20
5.141733238108472
 30
0.0
 10
9.517245167301496
 20
5.127737868107388
 30
0.0
 10
9.774100578642162
 20
5.072437320378668
 30
0.0
 10
9.893738590921032
 20
5.031496425984685
 30
0.0
 10
9.999999999999858
 20
4.977317872210477
 30
0.0
  0
SPLINE
  5
25B
330
1F
100
AcDbEntity
  8
0
  6
Continuous
 62
     4
370
    15
100
AcDbSpline
210
0.0
220
0.0
230
1.0
 70
     8
 71
     3
 72
    14
 73
    10
 74
     0
 42
0.000000001
 43
0.00000001
 40
0.0
 40
0.0
 40
0.0
 40
0.0
 40
0.25
 40
0.25
 40
0.5
 40
0.5
 40
0.75
 40
0.75
 40
1.0
 40
1.0
 40
1.0
 40
1.0
 10
8.390159250862936
 20
2.764102356155306
 30
0.0
 10
8.301502651427285
 20
2.844204688025528
 30
0.0
 10
8.228580541900044
 20
2.933268965101249
 30
0.0
 10
8.110315485923408
 20
3.125593332169998
 30
0.0
 10
8.06619590175238
 20
3.227854763432333
 30
0.0
 10
8.005212551946315
 20
3.43283876344654
 30
0.0
 10
7.987867946454955
 20
3.537133198358035
 30
0.0
 10
7.970467864698378
 20
3.740496869121316
 30
0.0
 10
7.970376223537983
 20
3.840449616096507
 30
0.0
 10
7.970376223537983
 20
3.938257997063417
 30
0.0
  0
SPLINE
  5
25C
330
1F
100
AcDbEntity
  8
0
  6
Continuous
 62
     4
370
    15
100
AcDbSpline
210
0.0
220
0.0
230
1.0
 70
     8
 71
     3
 72
    10
 73
     6
 74
     0
 42
0.000000001
 43
0.00000001
 40
0.0
 40
0.0
 40
0.0
 40
0.0
 40
0.5
 40
0.5
 40
1.0
 40
1.0
 40
1.0
 40
1.0
 10
9.999999999999986
 20
1.242063891692638
 30
0.0
 10
9.732802537947506
 20
1.504798863627585
 30
0.0
 10
9.462925626698322
 20
1.765079715728902
 30
0.0
 10
8.924281858482132
 20
2.27441452743831
 30
0.0
 10
8.656992520525947
 20
2.523015203516707
 30
0.0
 10
8.390159250862936
 20
2.764102356155306
 30
0.0
  0
LINE
  5
25D
330
1F
100
AcDbEntity
  8
0
  6
Continuous
 62
     4
370
    15
100
AcDbLine
 10
-46.65000000000001
 20
6.349999999999994
 30
0.0
 11
-46.65000000000001
 21
-6.349999999999994
 31
0.0
  0
LINE
  5
25E
330
1F
100
AcDbEntity
  8
0
  6
Continuous
 62
     4
370
    15
100
AcDbLine
 10
10.0
 20
-4.77200365265611
 30
0.0
 11
10.0
 21
-5.903568173439311
 31
0.0
  0
LINE
  5
25F
330
1F
100
AcDbEntity
  8
0
  6
Continuous
 62
     4
370
    15
100
AcDbLine
 10
10.0
 20
1.242063891692638
 30
0.0
 11
10.0
 21
-0.9262503012285777
 31
0.0
  0
LINE
  5
260
330
1F
100
AcDbEntity
  8
0
  6
Continuous
 62
     1
370
    15
100
AcDbLine
 10
10.0
 20
6.014067544348805
 30
0.0
 11
9.999999999999986
 21
4.977317872210691
 31
0.0
  0
SPLINE
  5
261
330
1F
100
AcDbEntity
  8
0
  6
Continuous
 62
     1
370
    15
100
AcDbSpline
210
0.0
220
0.0
230
1.0
 70
    24
 71
     3
 72
     8
 73
     4
 74
     0
 42
0.000000001
 43
0.00000001
 40
0.0
 40
0.0
 40
0.0
 40
0.0
 40
1.0
 40
1.0
 40
1.0
 40
1.0
 10
10.0
 20
-0.9262503012286061
 30
0.0
 10
10.0
 20
-0.9712384494344803
 30
0.0
 10
10.0
 20
-1.028833675969267
 30
0.0
 10
10.0
 20
-1.100755961752427
 30
0.0
  0
LINE
  5
262
330
1F
100
AcDbEntity
  8
0
  6
Continuous
 62
     4
370
    15
100
AcDbLine
 10
-47.15000000000001
 20
5.849999999999994
 30
0.0
 11
-47.15000000000001
 21
-5.849999999999994
 31
0.0
  0
SPLINE
  5
263
330
1F
100
AcDbEntity
  8
0
  6
Continuous
 62
     1
370
    15
100
AcDbSpline
210
0.0
220
0.0
230
1.0
 70
    24
 71
     3
 72
    14
 73
    10
 74
     0
 42
0.000000001
 43
0.00000001
 40
0.0
 40
0.0
 40
0.0
 40
0.0
 40
0.25
 40
0.25
 40
0.5
 40
0.5
 40
0.75
 40
0.75
 40
1.0
 40
1.0
 40
1.0
 40
1.0
 10
10.0
 20
4.502238552934742
 30
0.0
 10
10.0
 20
4.245746069048693
 30
0.0
 10
10.0
 20
3.960100617078339
 30
0.0
 10
10.0
 20
3.348151760276224
 30
0.0
 10
10.0
 20
3.021386277847583
 30
0.0
 10
10.0
 20
2.382508122089291
 30
0.0
 10
10.0
 20
2.071354582237291
 30
0.0
 10
10.0
 20
1.55579834240514
 30
0.0
 10
10.0
 20
1.353968346346122
 30
0.0
 10
10.0
 20
1.242063891692638
 30
0.0
  0
SPLINE
  5
264
330
1F
100
AcDbEntity
  8
0
  6
Continuous
 62
     4
370
    15
100
AcDbSpline
210
0.0
220
0.0
230
1.0
 70
    24
 71
     3
 72
    14
 73
    10
 74
     0
 42
0.000000001
 43
0.00000001
 40
0.0
 40
0.0
 40
0.0
 40
0.0
 40
0.25
 40
0.25
 40
0.5
 40
0.5
 40
0.75
 40
0.75
 40
1.0
 40
1.0
 40
1.0
 40
1.0
 10
10.0
 20
-1.100755961752441
 30
0.0
 10
10.0
 20
-1.215625691448523
 30
0.0
 10
10.0
 20
-1.37034509517278
 30
0.0
 10
10.0
 20
-1.788456984229171
 30
0.0
 10
10.0
 20
-2.052978854179301
 30
0.0
 10
10.0
 20
-2.697784582666003
 30
0.0
 10
10.0
 20
-3.078954236250397
 30
0.0
 10
10.0
 20
-3.905732027446845
 30
0.0
 10
10.0
 20
-4.349876765405909
 30
0.0
 10
10.0
 20
-4.77200365265611
 30
0.0
  0
SPLINE
  5
265
330
1F
100
AcDbEntity
  8
0
  6
Continuous
 62
     1
370
    15
100
AcDbSpline
210
0.0
220
0.0
230
1.0
 70
    24
 71
     3
 72
     8
 73
     4
 74
     0
 42
0.000000001
 43
0.00000001
 40
0.0
 40
0.0
 40
0.0
 40
0.0
 40
1.0
 40
1.0
 40
1.0
 40
1.0
 10
10.0
 20
4.977317872210776
 30
0.0
 10
10.0
 20
4.821100329419394
 30
0.0
 10
10.0
 20
4.662833739987903
 30
0.0
 10
10.0
 20
4.502238552934756
 30
0.0
  0
LINE
  5
266
330
1F
100
AcDbEntity
  8
0
  6
Continuous
 62
     4
370
    15
100
AcDbLine
 10
10.0
 20
-5.96232803788466
 30
0.0
 11
10.0
 21
-6.014067544348819
 31
0.0
  0
SPLINE
  5
267
330
1F
100
AcDbEntity
  8
0
  6
Continuous
 62
     1
370
    15
100
AcDbSpline
210
0.0
220
0.0
230
1.0
 70
     8
 71
     3
 72
    26
 73
    22
 74
     0
 42
0.000000001
 43
0.00000001
 40
0.0
 40
0.0
 40
0.0
 40
0.0
 40
0.04479322326222
 40
0.1002512605879217
 40
0.1557649357464544
 40
0.2102069395510222
 40
0.2645471906143314
 40
0.3188752299599486
 40
0.3732964639144661
 40
0.4277009983469278
 40
0.4820247537630094
 40
0.5363739743010997
 40
0.590821073686089
 40
0.645184916034354
 40
0.6995055183513891
 40
0.7538891931952505
 40
0.8083270181922707
 40
0.8626634017531466
 40
0.9169942021248058
 40
0.9652669457045165
 40
1.0
 40
1.0
 40
1.0
 40
1.0
 10
36.76122517586069
 20
-5.941819607890281
 30
0.0
 10
36.42994625720729
 20
-6.049239727150834
 30
0.0
 10
35.68851425516567
 20
-6.289655611163781
 30
0.0
 10
34.53723791820968
 20
-6.385778691364806
 30
0.0
 10
33.31384260875264
 20
-6.274436349399579
 30
0.0
 10
32.09741754675588
 20
-5.928033332906622
 30
0.0
 10
30.89174957116441
 20
-5.371922752414918
 30
0.0
 10
29.68636322540331
 20
-4.621796374633519
 30
0.0
 10
28.47882610049217
 20
-3.706305834764564
 30
0.0
 10
27.27168751249175
 20
-2.65724275512504
 30
0.0
 10
26.06639911826369
 20
-1.511833383776775
 30
0.0
 10
24.86054218052516
 20
-0.3119051339328678
 30
0.0
 10
23.65238499710247
 20
0.8975635302994647
 30
0.0
 10
22.44619812326636
 20
2.076266017954779
 30
0.0
 10
21.24098494683376
 20
3.18019281663193
 30
0.0
 10
20.03433434079341
 20
4.169457990111482
 30
0.0
 10
18.8264161737646
 20
5.007472729522348
 30
0.0
 10
17.62078376679196
 20
5.668323335627989
 30
0.0
 10
16.46103292719974
 20
6.10047815454017
 30
0.0
 10
15.44391085328306
 20
6.325637663985461
 30
0.0
 10
14.83046291661184
 20
6.330067212596958
 30
0.0
 10
14.57377096210655
 20
6.331920718693723
 30
0.0
  0
SPLINE
  5
268
330
1F
100
AcDbEntity
  8
0
  6
Continuous
 62
     1
370
    15
100
AcDbSpline
210
0.0
220
0.0
230
1.0
 70
     8
 71
     3
 72
    26
 73
    22
 74
     0
 42
0.000000001
 43
0.00000001
 40
0.0
 40
0.0
 40
0.0
 40
0.0
 40
0.0363434942186831
 40
0.0906796771354124
 40
0.1451173011137005
 40
0.1995007751387862
 40
0.2538211768699491
 40
0.3081848184726724
 40
0.3626317168046829
 40
0.4169807366512245
 40
0.4713042914697905
 40
0.5257086250064498
 40
0.5801296580034995
 40
0.6344574967357826
 40
0.688797547140664
 40
0.7432393499110689
 40
0.7987528200781531
 40
0.8542106526178562
 40
0.9097025002523265
 40
0.9652827359592046
 40
1.0
 40
1.0
 40
1.0
 40
1.0
 10
16.81473329905603
 20
5.935454355722555
 30
0.0
 10
17.08343396177544
 20
6.028507640372894
 30
0.0
 10
17.75386177465595
 20
6.260682393788457
 30
0.0
 10
18.82637832734608
 20
6.379085689331831
 30
0.0
 10
20.0343444788338
 20
6.313691576365883
 30
0.0
 10
21.24098223509613
 20
6.012771526427017
 30
0.0
 10
22.44619885008046
 20
5.497472304891673
 30
0.0
 10
23.65238480211994
 20
4.783593074948513
 30
0.0
 10
24.86054223204189
 20
3.89885233752544
 30
0.0
 10
26.0663991069295
 20
2.87251545062577
 30
0.0
 10
27.2716875063836
 20
1.742745058742159
 30
0.0
 10
28.4788261363442
 20
0.5509987704369053
 30
0.0
 10
29.68636308817607
 20
-0.6602299594999153
 30
0.0
 10
30.89175008329894
 20
-1.848894396523505
 30
0.0
 10
32.09741563309515
 20
-2.970915840935604
 30
0.0
 10
33.31384982511693
 20
-3.991881906461529
 30
0.0
 10
34.53721040892074
 20
-4.87339342173297
 30
0.0
 10
35.76769302904447
 20
-5.580770290935632
 30
0.0
 10
36.99890568579545
 20
-6.06883823168414
 30
0.0
 10
38.07850140359221
 20
-6.329116112700419
 30
0.0
 10
38.74618226850066
 20
-6.324012578521121
 30
0.0
 10
39.00288985117777
 20
-6.322050389710355
 30
0.0
  0
SPLINE
  5
269
330
1F
100
AcDbEntity
  8
0
  6
Continuous
 62
     1
370
    15
100
AcDbSpline
210
0.0
220
0.0
230
1.0
 70
     8
 71
     3
 72
    25
 73
    21
 74
     0
 42
0.000000001
 43
0.00000001
 40
0.0
 40
0.0
 40
0.0
 40
0.0
 40
0.0212490639717788
 40
0.0812780569019194
 40
0.1412886295314057
 40
0.2012100993851767
 40
0.2611596583783876
 40
0.3212171820056497
 40
0.3811828694927556
 40
0.4411008613408548
 40
0.501088424934977
 40
0.5611357185080972
 40
0.6210711177559575
 40
0.681000358502776
 40
0.734247298575593
 40
0.7873809906989246
 40
0.8404955300722647
 40
0.8937492763110199
 40
0.9468587325639739
 40
1.0
 40
1.0
 40
1.0
 40
1.0
 10
30.11401805100239
 20
-5.93466020885208
 30
0.0
 10
29.97162061197037
 20
-5.990435357208113
 30
0.0
 10
29.42694781284366
 20
-6.203776316029476
 30
0.0
 10
28.47878887670413
 20
-6.350326711959426
 30
0.0
 10
27.27169746879134
 20
-6.362147978547227
 30
0.0
 10
26.06639645021281
 20
-6.130580352614245
 30
0.0
 10
24.86054289966506
 20
-5.681962826672404
 30
0.0
 10
23.652384794775
 20
-5.028727131269932
 30
0.0
 10
22.44619821392753
 20
-4.193990274595777
 30
0.0
 10
21.24098478623125
 20
-3.208082612733037
 30
0.0
 10
20.03433489347032
 20
-2.106993778374843
 30
0.0
 10
18.8264141233594
 20
-0.9310814677002526
 30
0.0
 10
17.62079139911712
 20
0.2797621108745147
 30
0.0
 10
16.46100578768377
 20
1.435540169613887
 30
0.0
 10
15.34448429232854
 20
2.49674945246305
 30
0.0
 10
14.27580774752771
 20
3.445777267088431
 30
0.0
 10
13.20761308588509
 20
4.29839865670813
 30
0.0
 10
12.13653423365294
 20
5.024001649288792
 30
0.0
 10
11.06853797348913
 20
5.621875712852571
 30
0.0
 10
10.35625041016146
 20
5.883310842856687
 30
0.0
 10
10.0
 20
6.014067544348805
 30
0.0
  0
SPLINE
  5
26A
330
1F
100
AcDbEntity
  8
0
  6
Continuous
 62
     1
370
    15
100
AcDbSpline
210
0.0
220
0.0
230
1.0
 70
     8
 71
     3
 72
    27
 73
    23
 74
     0
 42
0.000000001
 43
0.00000001
 40
0.0
 40
0.0
 40
0.0
 40
0.0
 40
0.0407387948051425
 40
0.0888865576672019
 40
0.1371651303795193
 40
0.185317501476952
 40
0.2334872359994657
 40
0.2817596384045211
 40
0.336090054785339
 40
0.3904260543159135
 40
0.4448634945656803
 40
0.4992467850450023
 40
0.5535670034432723
 40
0.6079304615671668
 40
0.6623771761393548
 40
0.7167260125564165
 40
0.7710493840314477
 40
0.8254535339519419
 40
0.8798743832764653
 40
0.9342020386507552
 40
0.988541905656429
 40
1.0
 40
1.0
 40
1.0
 40
1.0
 10
10.16496721316253
 20
5.948222207506575
 30
0.0
 10
10.46621268785013
 20
6.045136836474626
 30
0.0
 10
11.12348969827418
 20
6.256591490392765
 30
0.0
 10
12.13652900427461
 20
6.371623829439031
 30
0.0
 10
13.20761448456551
 20
6.329941617666591
 30
0.0
 10
14.27580737315412
 20
6.104423327248085
 30
0.0
 10
15.34448439248433
 20
5.707180109662801
 30
0.0
 10
16.46100575710855
 20
5.125594519865004
 30
0.0
 10
17.62079140744898
 20
4.350361412999376
 30
0.0
 10
18.82641412210691
 20
3.388103918794371
 30
0.0
 10
20.0343348901233
 20
2.305240408879897
 30
0.0
 10
21.24098480084508
 20
1.138531727257984
 30
0.0
 10
22.44619815886483
 20
-0.0695172383941127
 30
0.0
 10
23.65238500074962
 20
-1.275006006622846
 30
0.0
 10
24.86054213020851
 20
-2.433184653228253
 30
0.0
 10
26.06639931541025
 20
-3.505300663461682
 30
0.0
 10
27.27168677398642
 20
-4.451464253412084
 30
0.0
 10
28.47882886231255
 20
-5.235438143357925
 30
0.0
 10
29.68635292239696
 20
-5.836214574711605
 30
0.0
 10
30.89178795238257
 20
-6.207908266577164
 30
0.0
 10
31.77959700800319
 20
-6.370679730863884
 30
0.0
 10
32.26658108128839
 20
-6.336851421035789
 30
0.0
 10
32.35138476427639
 20
-6.330960539957616
 30
0.0
  0
SPLINE
  5
26B
330
1F
100
AcDbEntity
  8
0
  6
Continuous
 62
     1
370
    15
100
AcDbSpline
210
0.0
220
0.0
230
1.0
 70
     8
 71
     3
 72
    38
 73
    34
 74
     0
 42
0.000000001
 43
0.00000001
 40
0.0
 40
0.0
 40
0.0
 40
0.0
 40
0.1250000000000001
 40
0.1250000000000001
 40
0.1875000000000001
 40
0.1875000000000001
 40
0.2500000000000002
 40
0.2500000000000002
 40
0.3125000000000001
 40
0.3125000000000001
 40
0.375
 40
0.375
 40
0.5
 40
0.5
 40
0.5624999999999999
 40
0.5624999999999999
 40
0.6249999999999998
 40
0.6249999999999998
 40
0.6562499999999998
 40
0.6562499999999998
 40
0.6874999999999998
 40
0.6874999999999998
 40
0.7187499999999998
 40
0.7187499999999998
 40
0.7499999999999998
 40
0.7499999999999998
 40
0.8124999999999999
 40
0.8124999999999999
 40
0.8749999999999999
 40
0.8749999999999999
 40
0.9375
 40
0.9375
 40
1.0
 40
1.0
 40
1.0
 40
1.0
 10
39.464
 20
-3.565862921727998
 30
0.0
 10
39.7100730522485
 20
-3.769000800438889
 30
0.0
 10
39.94039201725502
 20
-3.945114967426576
 30
0.0
 10
40.27133798775799
 20
-4.166301540906616
 30
0.0
 10
40.37839620092794
 20
-4.231962167337841
 30
0.0
 10
40.58098571340835
 20
-4.345485970708282
 30
0.0
 10
40.67726392616929
 20
-4.393832152796818
 30
0.0
 10
40.85855814168463
 20
-4.475841411328361
 30
0.0
 10
40.94376646048374
 20
-4.509493034571179
 30
0.0
 10
41.09690218989651
 20
-4.564488828985645
 30
0.0
 10
41.16539481671384
 20
-4.58610219824233
 30
0.0
 10
41.34478793980557
 20
-4.643535540147383
 30
0.0
 10
41.42902063272064
 20
-4.671317286239528
 30
0.0
 10
41.49614581078436
 20
-4.755220906467045
 30
0.0
 10
41.50923818289385
 20
-4.790555210426248
 30
0.0
 10
41.51371936027645
 20
-4.887686909296377
 30
0.0
 10
41.50546178492553
 20
-4.949137299964406
 30
0.0
 10
41.46749245555574
 20
-5.069867126339247
 30
0.0
 10
41.45061137130671
 20
-5.114506682878016
 30
0.0
 10
41.40409170971179
 20
-5.215544162810929
 30
0.0
 10
41.37437439482096
 20
-5.271865464871155
 30
0.0
 10
41.29905510211643
 20
-5.392866440091453
 30
0.0
 10
41.25297146435841
 20
-5.457978834672858
 30
0.0
 10
41.14708100500448
 20
-5.586862596038486
 30
0.0
 10
41.08643359193245
 20
-5.651489111293259
 30
0.0
 10
40.89555877514499
 20
-5.828452796815753
 30
0.0
 10
40.75703220156608
 20
-5.923935318655893
 30
0.0
 10
40.48773387668774
 20
-6.064083240613996
 30
0.0
 10
40.35345633919121
 20
-6.111528100781058
 30
0.0
 10
40.09210167479671
 20
-6.169556184410908
 30
0.0
 10
39.96502082731959
 20
-6.180494407239621
 30
0.0
 10
39.71197694661045
 20
-6.172825335331567
 30
0.0
 10
39.58679059441764
 20
-6.153818169694759
 30
0.0
 10
39.46400000000003
 20
-6.121231968026365
 30
0.0
  0
SPLINE
  5
26C
330
1F
100
AcDbEntity
  8
0
  6
Continuous
 62
     1
370
    15
100
AcDbSpline
210
0.0
220
0.0
230
1.0
 70
     8
 71
     3
 72
    23
 73
    19
 74
     0
 42
0.000000001
 43
0.00000001
 40
0.0
 40
0.0
 40
0.0
 40
0.0
 40
0.0675161894102864
 40
0.1351296859285472
 40
0.2026356581344333
 40
0.2701002508919894
 40
0.3376325269631796
 40
0.4038611169511326
 40
0.4699659249305253
 40
0.5360558773794902
 40
0.6022592008859222
 40
0.6684422094567909
 40
0.7345269505139456
 40
0.8006426698416755
 40
0.8668774585931367
 40
0.9330109653240344
 40
0.9990918706424334
 40
1.0
 40
1.0
 40
1.0
 40
1.0
 10
39.46399999999936
 20
-6.121231968026194
 30
0.0
 10
39.05363981395487
 20
-5.98974884921779
 30
0.0
 10
38.2323280138946
 20
-5.726593112724473
 30
0.0
 10
36.99892576547921
 20
-5.056469775955989
 30
0.0
 10
35.76768765596184
 20
-4.212415495903585
 30
0.0
 10
34.53721185067404
 20
-3.206012428132439
 30
0.0
 10
33.31384944741397
 20
-2.088173782389916
 30
0.0
 10
32.09741573141881
 20
-0.9028188176549037
 30
0.0
 10
30.89175006383697
 20
0.308345427278141
 30
0.0
 10
29.68636306780442
 20
1.508379972237563
 30
0.0
 10
28.47882623752145
 20
2.65301849089262
 30
0.0
 10
27.2716871224861
 20
3.702416072087686
 30
0.0
 10
26.0664005393659
 20
4.619721569519143
 30
0.0
 10
24.8605368785075
 20
5.368645883130966
 30
0.0
 10
23.65240480879049
 20
5.930967585241675
 30
0.0
 10
22.44612434080885
 20
6.252998198535167
 30
0.0
 10
21.63757001506882
 20
6.38695823921104
 30
0.0
 10
21.23025968391244
 20
6.348967614936825
 30
0.0
 10
21.22473802695541
 20
6.348452599287128
 30
0.0
  0
SPLINE
  5
26D
330
1F
100
AcDbEntity
  8
0
  6
Continuous
 62
     1
370
    15
100
AcDbSpline
210
0.0
220
0.0
230
1.0
 70
     8
 71
     3
 72
    21
 73
    17
 74
     0
 42
0.000000001
 43
0.00000001
 40
0.0
 40
0.0
 40
0.0
 40
0.0
 40
0.0118823767142208
 40
0.0873806624190368
 40
0.1627432258313685
 40
0.2380704783992538
 40
0.3135097420260666
 40
0.3889721618044747
 40
0.4643053546215139
 40
0.5396554806409029
 40
0.6151467006325614
 40
0.6921239382629412
 40
0.7690240264942435
 40
0.8459712814406696
 40
0.9230410988864848
 40
1.0
 40
1.0
 40
1.0
 40
1.0
 10
23.46194821228376
 20
5.944978043431078
 30
0.0
 10
23.52531477336112
 20
5.97134099349698
 30
0.0
 10
23.99130000639357
 20
6.165208945631591
 30
0.0
 10
24.86061774235625
 20
6.319615181534502
 30
0.0
 10
26.06637890081775
 20
6.381198664570675
 30
0.0
 10
27.27169292893018
 20
6.193083032697317
 30
0.0
 10
28.4788246800933
 20
5.787556486328739
 30
0.0
 10
29.6863634843682
 20
5.172635472925791
 30
0.0
 10
30.89174995228413
 20
4.371269287601777
 30
0.0
 10
32.09741576135508
 20
3.4122782938868
 30
0.0
 10
33.31384943920989
 20
2.324386605095341
 30
0.0
 10
34.53721185288782
 20
1.14199835267604
 30
0.0
 10
35.76768765536872
 20
-0.0920484735334668
 30
0.0
 10
36.99892576563772
 20
-1.320278253408091
 30
0.0
 10
38.23232801385501
 20
-2.507172635119147
 30
0.0
 10
39.05363981394169
 20
-3.213135614557672
 30
0.0
 10
39.46399999999934
 20
-3.565862921728538
 30
0.0
  0
SPLINE
  5
26E
330
1F
100
AcDbEntity
  8
0
  6
Continuous
 62
     1
370
    15
100
AcDbSpline
210
0.0
220
0.0
230
1.0
 70
     8
 71
     3
 72
    19
 73
    15
 74
     0
 42
0.000000001
 43
0.00000001
 40
0.0
 40
0.0
 40
0.0
 40
0.0
 40
0.0754686415634001
 40
0.1649879190157034
 40
0.2546111387438237
 40
0.3443235968525576
 40
0.4338688814823529
 40
0.5234049651268271
 40
0.6029574910851198
 40
0.6823408212092699
 40
0.761695536550321
 40
0.8412582311247206
 40
0.9206053521314135
 40
1.0
 40
1.0
 40
1.0
 40
1.0
 10
23.46194821228372
 20
-5.944978043431064
 30
0.0
 10
23.12324432279742
 20
-6.053056205599646
 30
0.0
 10
22.38277717337982
 20
-6.289334356336681
 30
0.0
 10
21.24100984092415
 20
-6.384598320975144
 30
0.0
 10
20.03432816879214
 20
-6.277354602990215
 30
0.0
 10
18.82641592276607
 20
-5.938626611887983
 30
0.0
 10
17.62079091550567
 20
-5.387373050603372
 30
0.0
 10
16.46100590128871
 20
-4.669400380012362
 30
0.0
 10
15.34448426349006
 20
-3.836279261814965
 30
0.0
 10
14.2758077552441
 20
-2.92720399661188
 30
0.0
 10
13.20761308381229
 20
-1.934478710895561
 30
0.0
 10
12.13653423420462
 20
-0.8907902884278798
 30
0.0
 10
11.06853797335128
 20
0.1839478659817217
 30
0.0
 10
10.35625041011549
 20
0.8892881574554679
 30
0.0
 10
10.0
 20
1.242063891692638
 30
0.0
  0
SPLINE
  5
26F
330
1F
100
AcDbEntity
  8
0
  6
Continuous
 62
     1
370
    15
100
AcDbSpline
210
0.0
220
0.0
230
1.0
 70
     8
 71
     3
 72
    21
 73
    17
 74
     0
 42
0.000000001
 43
0.00000001
 40
0.0
 40
0.0
 40
0.0
 40
0.0
 40
0.0680658963790256
 40
0.136091047461689
 40
0.2043010121119607
 40
0.2723326739001867
 40
0.3403888674536337
 40
0.4085901144385609
 40
0.485350374168125
 40
0.5621185220026215
 40
0.6390299894814545
 40
0.7158649519246091
 40
0.7926108035225733
 40
0.8694177459935821
 40
0.9463423166187793
 40
1.0
 40
1.0
 40
1.0
 40
1.0
 10
10.00000000000161
 20
4.982660781466777
 30
0.0
 10
10.3562504101657
 20
4.748207210401986
 30
0.0
 10
11.06853797349865
 20
4.279440415799527
 30
0.0
 10
12.1365342336214
 20
3.415822445538268
 30
0.0
 10
13.20761308600848
 20
2.468614633690564
 30
0.0
 10
14.27580774707194
 20
1.446057609177601
 30
0.0
 10
15.34448429403425
 20
0.3837229441348455
 30
0.0
 10
16.46100578096558
 20
-0.7331866697449954
 30
0.0
 10
17.62079142771661
 20
-1.876274455779736
 30
0.0
 10
18.82641401694725
 20
-2.996158288947768
 30
0.0
 10
20.03433529114989
 20
-4.007158050277511
 30
0.0
 10
21.24098330456334
 20
-4.874237242219294
 30
0.0
 10
22.44620373845653
 20
-5.568289295942236
 30
0.0
 10
23.65236414448287
 20
-6.053393979522156
 30
0.0
 10
24.73939179186756
 20
-6.321656295036448
 30
0.0
 10
25.42264801438291
 20
-6.324674580511015
 30
0.0
 10
25.70340550578122
 20
-6.32591482718604
 30
0.0
  0
SPLINE
  5
270
330
1F
100
AcDbEntity
  8
0
  6
Continuous
 62
     1
370
    15
100
AcDbSpline
210
0.0
220
0.0
230
1.0
 70
    24
 71
     3
 72
    16
 73
    12
 74
     0
 42
0.000000001
 43
0.00000001
 40
0.0
 40
0.0
 40
0.0
 40
0.0
 40
0.2499999999999998
 40
0.2499999999999998
 40
0.5
 40
0.5
 40
0.7500000000000002
 40
0.7500000000000002
 40
0.8750000000000001
 40
0.8750000000000001
 40
1.0
 40
1.0
 40
1.0
 40
1.0
 10
10.0
 20
4.982660781460126
 30
0.0
 10
10.0
 20
4.727147965356124
 30
0.0
 10
10.0
 20
4.432641486982888
 30
0.0
 10
10.0
 20
3.770910552602302
 30
0.0
 10
10.0
 20
3.402318707866144
 30
0.0
 10
10.0
 20
2.651058510312524
 30
0.0
 10
10.0
 20
2.269143909701114
 30
0.0
 10
10.0
 20
1.787848929863898
 30
0.0
 10
10.0
 20
1.643233051994414
 30
0.0
 10
10.0
 20
1.402946644632607
 30
0.0
 10
10.0
 20
1.307446840532904
 30
0.0
 10
10.0
 20
1.242063891692638
 30
0.0
  0
SPLINE
  5
271
330
1F
100
AcDbEntity
  8
0
  6
Continuous
 62
     1
370
    15
100
AcDbSpline
210
0.0
220
0.0
230
1.0
 70
     8
 71
     3
 72
    38
 73
    34
 74
     0
 42
0.000000001
 43
0.00000001
 40
0.0
 40
0.0
 40
0.0
 40
0.0
 40
0.1249999999999985
 40
0.1249999999999985
 40
0.1874999999999986
 40
0.1874999999999986
 40
0.2499999999999986
 40
0.2499999999999986
 40
0.3124999999999987
 40
0.3124999999999987
 40
0.3749999999999987
 40
0.3749999999999987
 40
0.4999999999999987
 40
0.4999999999999987
 40
0.5624999999999984
 40
0.5624999999999984
 40
0.6249999999999983
 40
0.6249999999999983
 40
0.6562499999999981
 40
0.6562499999999981
 40
0.687499999999998
 40
0.687499999999998
 40
0.7187499999999979
 40
0.7187499999999979
 40
0.7499999999999977
 40
0.7499999999999977
 40
0.8124999999999973
 40
0.8124999999999973
 40
0.8749999999999969
 40
0.8749999999999969
 40
0.9374999999999984
 40
0.9374999999999984
 40
1.0
 40
1.0
 40
1.0
 40
1.0
 10
39.464
 20
2.767380750136937
 30
0.0
 10
39.7100730522485
 20
2.546419701607789
 30
0.0
 10
39.94039201725501
 20
2.300074101817899
 30
0.0
 10
40.27133798775799
 20
1.901570881146966
 30
0.0
 10
40.37839620092794
 20
1.764733989200622
 30
0.0
 10
40.58098571340835
 20
1.489018383182128
 30
0.0
 10
40.6772639261693
 20
1.349249901758867
 30
0.0
 10
40.85855814168463
 20
1.064758891351531
 30
0.0
 10
40.94376646048373
 20
0.9194810087650893
 30
0.0
 10
41.09690218989651
 20
0.6291575070433169
 30
0.0
 10
41.16539481671384
 20
0.4832844981917646
 30
0.0
 10
41.34478793980557
 20
0.039035733574849
 30
0.0
 10
41.42902063272064
 20
-0.2675735697258688
 30
0.0
 10
41.49614581078433
 20
-0.7463182579252958
 30
0.0
 10
41.50923818289385
 20
-0.9104015680176047
 30
0.0
 10
41.51371936027645
 20
-1.247585991606044
 30
0.0
 10
41.50546178492556
 20
-1.419922843345176
 30
0.0
 10
41.46749245555574
 20
-1.676731252002782
 30
0.0
 10
41.45061137130671
 20
-1.761251104834429
 30
0.0
 10
41.40409170971179
 20
-1.927086613556497
 30
0.0
 10
41.37437439482098
 20
-2.007880503047119
 30
0.0
 10
41.29905510211643
 20
-2.154155139420098
 30
0.0
 10
41.25297146435841
 20
-2.219777817953528
 30
0.0
 10
41.14708100500445
 20
-2.323450932974069
 30
0.0
 10
41.08643359193242
 20
-2.36216170596326
 30
0.0
 10
40.89555877514498
 20
-2.434414126574652
 30
0.0
 10
40.75703220156608
 20
-2.426772981512826
 30
0.0
 10
40.48773387668776
 20
-2.354388356569032
 30
0.0
 10
40.35345633919118
 20
-2.289369521788728
 30
0.0
 10
40.09210167479671
 20
-2.130340310359784
 30
0.0
 10
39.96502082731959
 20
-2.036349099829209
 30
0.0
 10
39.71197694661043
 20
-1.829404844474652
 30
0.0
 10
39.58679059441764
 20
-1.716386345361656
 30
0.0
 10
39.46400000000003
 20
-1.59782263045669
 30
0.0
  0
SPLINE
  5
272
330
1F
100
AcDbEntity
  8
0
  6
Continuous
 62
     1
370
    15
100
AcDbSpline
210
0.0
220
0.0
230
1.0
 70
     8
 71
     3
 72
    17
 73
    13
 74
     0
 42
0.000000001
 43
0.00000001
 40
0.0
 40
0.0
 40
0.0
 40
0.0
 40
0.1062493083255408
 40
0.2126517475224733
 40
0.3188849771725136
 40
0.4250530885479246
 40
0.5313277122327774
 40
0.6355507428726519
 40
0.7395789794504273
 40
0.8435838380821643
 40
0.9477671072039661
 40
1.0
 40
1.0
 40
1.0
 40
1.0
 10
39.46399999999936
 20
-1.597822630456051
 30
0.0
 10
39.05363981308417
 20
-1.194608129490845
 30
0.0
 10
38.23232801128128
 20
-0.3875979982442743
 30
0.0
 10
36.99892577594309
 20
0.8514128188694343
 30
0.0
 10
35.76768761680401
 20
2.055704279327969
 30
0.0
 10
34.53721199683267
 20
3.183736997033066
 30
0.0
 10
33.31384890576281
 20
4.185357290988875
 30
0.0
 10
32.09741770787707
 20
5.024958073414552
 30
0.0
 10
30.89174269887727
 20
5.682188666975065
 30
0.0
 10
29.68639057024627
 20
6.122746018478779
 30
0.0
 10
28.67946705719574
 20
6.343219672969227
 30
0.0
 10
28.07505000453641
 20
6.326827660156482
 30
0.0
 10
27.8732137573829
 20
6.321353786884941
 30
0.0
  0
LINE
  5
273
330
1F
100
AcDbEntity
  8
0
  6
Continuous
 62
     1
370
    15
100
AcDbLine
 10
10.16496721316257
 20
-5.948222207506575
 30
0.0
 11
10.0
 21
-6.014067544348819
 31
0.0
  0
SPLINE
  5
274
330
1F
100
AcDbEntity
  8
0
  6
Continuous
 62
     1
370
    15
100
AcDbSpline
210
0.0
220
0.0
230
1.0
 70
     8
 71
     3
 72
    10
 73
     6
 74
     0
 42
0.000000001
 43
0.00000001
 40
0.0
 40
0.0
 40
0.0
 40
0.0
 40
0.4447490665097184
 40
0.8892318993622639
 40
0.9999999999999999
 40
0.9999999999999999
 40
0.9999999999999999
 40
0.9999999999999999
 10
10.00000000000161
 20
-5.900390914204607
 30
0.0
 10
10.35626188703057
 20
-6.013267687423166
 30
0.0
 10
11.06857239722301
 20
-6.238953664081251
 30
0.0
 10
11.86848716719565
 20
-6.363214079851858
 30
0.0
 10
12.31370165666652
 20
-6.338172141192146
 30
0.0
 10
12.40251837069722
 20
-6.333176475603281
 30
0.0
  0
SPLINE
  5
275
330
1F
100
AcDbEntity
  8
0
  6
Continuous
 62
     1
370
    15
100
AcDbSpline
210
0.0
220
0.0
230
1.0
 70
     8
 71
     3
 72
    15
 73
    11
 74
     0
 42
0.000000001
 43
0.00000001
 40
0.0
 40
0.0
 40
0.0
 40
0.0
 40
0.0832101693299287
 40
0.2121646583662651
 40
0.3413606161573513
 40
0.4730997501237628
 40
0.6047068503184599
 40
0.7363946718067983
 40
0.8682922472175079
 40
1.0
 40
1.0
 40
1.0
 40
1.0
 10
30.11401805100243
 20
5.93466020885208
 30
0.0
 10
30.37324813786627
 20
6.025365139474317
 30
0.0
 10
31.03421858487559
 20
6.256639523033115
 30
0.0
 10
32.09739230921114
 20
6.3777746354058
 30
0.0
 10
33.31385586630275
 20
6.317694687995782
 30
0.0
 10
34.53721011860716
 20
6.015232478229692
 30
0.0
 10
35.76768812000543
 20
5.487925035553516
 30
0.0
 10
36.99892564147609
 20
4.751911325736188
 30
0.0
 10
38.23232804486386
 20
3.846425321464082
 30
0.0
 10
39.05363982427301
 20
3.126889560957494
 30
0.0
 10
39.46399999999937
 20
2.767380750143531
 30
0.0
  0
LINE
  5
276
330
1F
100
AcDbEntity
  8
0
  6
Continuous
 62
     1
370
    15
100
AcDbLine
 10
10.0
 20
-5.96232803788466
 30
0.0
 11
10.0
 21
-6.014067544348819
 31
0.0
  0
LINE
  5
277
330
1F
100
AcDbEntity
  8
0
  6
Continuous
 62
     1
370
    15
100
AcDbLine
 10
9.999999999999943
 20
4.982660781460353
 30
0.0
 11
10.0
 21
6.014067544348805
 31
0.0
  0
SPLINE
  5
278
330
1F
100
AcDbEntity
  8
0
  6
Continuous
 62
     1
370
    15
100
AcDbSpline
210
0.0
220
0.0
230
1.0
 70
     8
 71
     3
 72
    16
 73
    12
 74
     0
 42
0.000000001
 43
0.00000001
 40
0.0
 40
0.0
 40
0.0
 40
0.0
 40
0.1180680611233241
 40
0.2360654448825452
 40
0.3543834088553183
 40
0.4723920861759734
 40
0.5904433166415906
 40
0.7087461588294551
 40
0.841895584896298
 40
0.975058693780893
 40
1.0
 40
1.0
 40
1.0
 40
1.0
 10
10.00000000000162
 20
-0.9177301327378018
 30
0.0
 10
10.35625041410404
 20
-1.267751494819152
 30
0.0
 10
11.06853798531125
 20
-1.967584690790943
 30
0.0
 10
12.13653418635056
 20
-2.956709477482164
 30
0.0
 10
13.20761326361929
 20
-3.861033163800627
 30
0.0
 10
14.27580708587928
 20
-4.658633837654392
 30
0.0
 10
15.34448676511397
 20
-5.322677068316949
 30
0.0
 10
16.4609960465107
 20
-5.861792078968705
 30
0.0
 10
17.62083286688437
 20
-6.213839453903134
 30
0.0
 10
18.49915144604638
 20
-6.372704290843004
 30
0.0
 10
18.97660304392451
 20
-6.338053881963972
 30
0.0
 10
19.05192204434377
 20
-6.332587706601942
 30
0.0
  0
SPLINE
  5
279
330
1F
100
AcDbEntity
  8
0
  6
Continuous
 62
     1
370
    15
100
AcDbSpline
210
0.0
220
0.0
230
1.0
 70
     8
 71
     3
 72
    10
 73
     6
 74
     0
 42
0.000000001
 43
0.00000001
 40
0.0
 40
0.0
 40
0.0
 40
0.0
 40
0.0878539476003599
 40
0.5442553927327024
 40
0.9999999999999999
 40
0.9999999999999999
 40
0.9999999999999999
 40
0.9999999999999999
 10
36.76122517586069
 20
5.941819607890281
 30
0.0
 10
36.84033658312609
 20
5.97445769305638
 30
0.0
 10
37.33043191984029
 20
6.176650700261035
 30
0.0
 10
38.23239148394117
 20
6.3427691948214
 30
0.0
 10
39.05366096047797
 20
6.336417321523726
 30
0.0
 10
39.46399999999934
 20
6.333243671872054
 30
0.0
  0
LINE
  5
27A
330
1F
100
AcDbEntity
  8
0
  6
Continuous
 62
     1
370
    15
100
AcDbLine
 10
10.0
 20
-0.9177301327384129
 30
0.0
 11
10.0
 21
1.242063891692638
 31
0.0
  0
SPLINE
  5
27B
330
1F
100
AcDbEntity
  8
0
  6
Continuous
 62
     1
370
    15
100
AcDbSpline
210
0.0
220
0.0
230
1.0
 70
     8
 71
     3
 72
    38
 73
    34
 74
     0
 42
0.000000001
 43
0.00000001
 40
0.0
 40
0.0
 40
0.0
 40
0.0
 40
0.1249999999999998
 40
0.1249999999999998
 40
0.1874999999999997
 40
0.1874999999999997
 40
0.2499999999999996
 40
0.2499999999999996
 40
0.3124999999999994
 40
0.3124999999999994
 40
0.3749999999999993
 40
0.3749999999999993
 40
0.4999999999999991
 40
0.4999999999999991
 40
0.5624999999999991
 40
0.5624999999999991
 40
0.6249999999999991
 40
0.6249999999999991
 40
0.6562499999999991
 40
0.6562499999999991
 40
0.6874999999999992
 40
0.6874999999999992
 40
0.7187499999999992
 40
0.7187499999999992
 40
0.7499999999999993
 40
0.7499999999999993
 40
0.8124999999999996
 40
0.8124999999999996
 40
0.8749999999999998
 40
0.8749999999999998
 40
0.9374999999999999
 40
0.9374999999999999
 40
1.0
 40
1.0
 40
1.0
 40
1.0
 10
39.464
 20
6.333243671864935
 30
0.0
 10
39.7100730522485
 20
6.315420502046678
 30
0.0
 10
39.94039201725502
 20
6.245189069244475
 30
0.0
 10
40.27133798775799
 20
6.067872422053583
 30
0.0
 10
40.37839620092794
 20
5.996696156538448
 30
0.0
 10
40.58098571340835
 20
5.834504353890409
 30
0.0
 10
40.6772639261693
 20
5.7430820545557
 30
0.0
 10
40.85855814168463
 20
5.540600302679891
 30
0.0
 10
40.94376646048376
 20
5.428974043336282
 30
0.0
 10
41.09690218989653
 20
5.193646336028976
 30
0.0
 10
41.16539481671384
 20
5.069386696434094
 30
0.0
 10
41.34478793980554
 20
4.682571273722246
 30
0.0
 10
41.42902063272064
 20
4.403743716513659
 30
0.0
 10
41.49614581078436
 20
4.008902648541749
 30
0.0
 10
41.50923818289385
 20
3.880153642408658
 30
0.0
 10
41.51371936027647
 20
3.640100917690333
 30
0.0
 10
41.50546178492556
 20
3.529214456619229
 30
0.0
 10
41.46749245555574
 20
3.39313587433648
 30
0.0
 10
41.45061137130676
 20
3.353255578043601
 30
0.0
 10
41.40409170971182
 20
3.288457549254446
 30
0.0
 10
41.37437439482096
 20
3.26398496182405
 30
0.0
 10
41.29905510211643
 20
3.238711300671369
 30
0.0
 10
41.25297146435841
 20
3.238201016719344
 30
0.0
 10
41.14708100500445
 20
3.263411663064431
 30
0.0
 10
41.08643359193242
 20
3.289327405330013
 30
0.0
 10
40.89555877514496
 20
3.394038670241116
 30
0.0
 10
40.75703220156606
 20
3.497162337143095
 30
0.0
 10
40.48773387668776
 20
3.709694884044978
 30
0.0
 10
40.35345633919121
 20
3.822158578992344
 30
0.0
 10
40.09210167479671
 20
4.039215874051123
 30
0.0
 10
39.96502082731959
 20
4.144145307410426
 30
0.0
 10
39.71197694661043
 20
4.343420490856928
 30
0.0
 10
39.58679059441764
 20
4.437431824333117
 30
0.0
 10
39.46400000000003
 20
4.523409337569674
 30
0.0
  0
LINE
  5
27C
330
1F
100
AcDbEntity
  8
0
  6
Continuous
 62
     1
370
    15
100
AcDbLine
 10
41.75
 20
0.0
 30
0.0
 11
41.75
 21
4.064000000000007
 31
0.0
  0
LINE
  5
27D
330
1F
100
AcDbEntity
  8
0
  6
Continuous
 62
     1
370
    15
100
AcDbLine
 10
41.75
 20
-4.063999999999993
 30
0.0
 11
41.75
 21
0.0
 31
0.0
  0
SPLINE
  5
27E
330
1F
100
AcDbEntity
  8
0
  6
Continuous
 62
     1
370
    15
100
AcDbSpline
210
0.0
220
0.0
230
1.0
 70
     8
 71
     3
 72
    12
 73
     8
 74
     0
 42
0.000000001
 43
0.00000001
 40
0.0
 40
0.0
 40
0.0
 40
0.0
 40
0.249290164079757
 40
0.4989396153930646
 40
0.7481920544681431
 40
0.9972917081216242
 40
1.0
 40
1.0
 40
1.0
 40
1.0
 10
39.46399999999936
 20
4.523409337570158
 30
0.0
 10
39.05363830807727
 20
4.794740075771301
 30
0.0
 10
38.23232349409145
 20
5.337792605188739
 30
0.0
 10
36.99894386309384
 20
5.912697527899951
 30
0.0
 10
35.76761993119115
 20
6.250101365321854
 30
0.0
 10
34.94325090392542
 20
6.388753931880132
 30
0.0
 10
34.52859494926818
 20
6.3491464765318
 30
0.0
 10
34.52413516404599
 20
6.34872048302546
 30
0.0
  0
SPLINE
  5
27F
330
1F
100
AcDbEntity
  8
0
  6
Continuous
 62
     1
370
    15
100
AcDbSpline
210
0.0
220
0.0
230
1.0
 70
     8
 71
     3
 72
    14
 73
    10
 74
     0
 42
0.000000001
 43
0.00000001
 40
0.0
 40
0.0
 40
0.0
 40
0.0
 40
0.0585545344126423
 40
0.2156991946783235
 40
0.3725096327234728
 40
0.5292635463488817
 40
0.6864282932642858
 40
0.8431672053661315
 40
1.0
 40
1.0
 40
1.0
 40
1.0
 10
16.81473329905603
 20
-5.935454355722541
 30
0.0
 10
16.68177959116771
 20
-5.988061862636698
 30
0.0
 10
16.19201380259688
 20
-6.181853803589561
 30
0.0
 10
15.34443230052524
 20
-6.32504935358574
 30
0.0
 10
14.27582165909767
 20
-6.375116320140933
 30
0.0
 10
13.20760934893285
 20
-6.232303844704077
 30
0.0
 10
12.13653522823708
 20
-5.914944579961329
 30
0.0
 10
11.06853772495067
 20
-5.437889702818907
 30
0.0
 10
10.35625032729877
 20
-4.99400996817964
 30
0.0
 10
10.0
 20
-4.77200365265611
 30
0.0
  0
SPLINE
  5
280
330
1F
100
AcDbEntity
  8
0
  6
Continuous
 62
     1
370
    15
100
AcDbSpline
210
0.0
220
0.0
230
1.0
 70
    24
 71
     3
 72
    16
 73
    12
 74
     0
 42
0.000000001
 43
0.00000001
 40
0.0
 40
0.0
 40
0.0
 40
0.0
 40
0.2500000000000001
 40
0.2500000000000001
 40
0.5000000000000001
 40
0.5000000000000001
 40
0.7500000000000002
 40
0.7500000000000002
 40
0.8750000000000002
 40
0.8750000000000002
 40
1.0
 40
1.0
 40
1.0
 40
1.0
 10
10.0
 20
-0.9177301327385834
 30
0.0
 10
10.0
 20
-0.9976202942537071
 30
0.0
 10
10.0
 20
-1.117622743055676
 30
0.0
 10
10.0
 20
-1.486404971765694
 30
0.0
 10
10.0
 20
-1.736952698727734
 30
0.0
 10
10.0
 20
-2.400457806786108
 30
0.0
 10
10.0
 20
-2.815915903222731
 30
0.0
 10
10.0
 20
-3.521073435929665
 30
0.0
 10
10.0
 20
-3.768760508320241
 30
0.0
 10
10.0
 20
-4.270994965729543
 30
0.0
 10
10.0
 20
-4.525365565203344
 30
0.0
 10
10.0
 20
-4.772003652656124
 30
0.0
  0
LINE
  5
281
330
1F
100
AcDbEntity
  8
0
  6
Continuous
 62
     1
370
    15
100
AcDbLine
 10
9.999999999999943
 20
-5.900390914198852
 30
0.0
 11
10.0
 21
-4.772003652656124
 31
0.0
  0
LINE
  5
282
330
1F
100
AcDbEntity
  8
0
  6
Continuous
 62
     8
370
    15
100
AcDbLine
 10
39.464
 20
6.333243671872012
 30
0.0
 11
39.464
 21
6.350000000000009
 31
0.0
  0
LINE
  5
283
330
1F
100
AcDbEntity
  8
중심선
100
AcDbLine
 10
-50.15000000000001
 20
0.0
 30
0.0
 11
44.75
 21
0.0
 31
0.0
  0
CIRCLE
  5
284
330
1F
100
AcDbEntity
  8
외형선
100
AcDbCircle
 10
0.0
 20
0.0
 30
0.0
 40
3.000000000000004
  0
POINT
  5
285
330
1F
100
AcDbEntity
  8
치수문자_일반주서
100
AcDbPoint
 10
0.0
 20
0.0
 30
0.0
  0
DIMENSION
  5
286
330
1F
100
AcDbEntity
  8
치수문자_일반주서
100
AcDbDimension
  2
*D11
 10
57.27597954368467
 20
6.350000000000076
 30
0.0
 11
57.27597954368469
 21
0.0000000000000742
 31
0.0
 70
   160
  1
%%c<>
 71
     2
 42
12.7
 52
-270.0
  3
SLDDIMSTYLE0
100
AcDbAlignedDimension
 13
39.46400000000003
 23
-6.349999999999994
 33
0.0
 14
39.00288985117777
 24
6.350000000000009
 34
0.0
 50
90.0000000000002
100
AcDbRotatedDimension
1001
ACAD
1000
DSTYLE
1002
{
1070
   273
1070
     7
1002
}
  0
DIMENSION
  5
287
330
1F
100
AcDbEntity
  8
치수문자_일반주서
100
AcDbDimension
  2
*D12
 10
41.75
 20
39.00555141807179
 30
0.0
 11
-2.700000000000003
 21
39.00555141807179
 31
0.0
 70
   160
  1
<>
 71
     2
 42
88.9
  3
SLDDIMSTYLE1
100
AcDbAlignedDimension
 13
-47.15000000000001
 23
5.849999999999994
 33
0.0
 14
41.75
 24
4.064000000000007
 34
0.0
100
AcDbRotatedDimension
1001
ACAD
1000
DSTYLE
1002
{
1070
   273
1070
     7
1002
}
  0
DIMENSION
  5
288
330
1F
100
AcDbEntity
  8
치수문자_일반주서
100
AcDbDimension
  2
*D13
 10
10.0
 20
21.69099453033795
 30
0.0
 11
25.52575141487685
 21
21.69099453033795
 31
0.0
 70
   160
  1
<>
 71
     2
 42
31.75
  3
SLDDIMSTYLE2
100
AcDbAlignedDimension
 13
41.75
 23
4.064000000000007
 33
0.0
 14
10.0
 24
-6.014067544348819
 34
0.0
 50
0.0000000000000064
100
AcDbRotatedDimension
1001
ACAD
1000
DSTYLE
1002
{
1070
   273
1070
     7
1002
}
  0
DIMENSION
  5
289
330
1F
100
AcDbEntity
  8
치수문자_일반주서
100
AcDbDimension
  2
*D14
 10
-60.14999999999998
 20
-6.350000000000045
 30
0.0
 11
-60.15000000000001
 21
0.0
 31
0.0
 70
   160
  1
%%c<>
 71
     2
 42
12.7
 52
-270.0
  3
SLDDIMSTYLE3
100
AcDbAlignedDimension
 13
-46.65000000000001
 23
6.350000000000009
 33
0.0
 14
-46.65000000000001
 24
-6.349999999999994
 34
0.0
 50
90.0000000000002
100
AcDbRotatedDimension
1001
ACAD
1000
DSTYLE
1002
{
1070
   273
1070
     7
1002
}
  0
INSERT
  5
28A
330
1F
100
AcDbEntity
  8
외형선
100
AcDbBlockReference
  2
SW_DOWELSYMBOL_0
 10
0.0
 20
0.0
 30
0.0
  0
DIMENSION
  5
2BC
330
1F
100
AcDbEntity
  8
치수문자_일반주서
100
AcDbDimension
  2
*D15
 10
39.464
 20
4.064000000000007
 30
0.0
 11
54.1005084931035
 21
24.19349747963351
 31
0.0
 70
   164
  1
<>
 71
     5
 42
2.286000000000001
  3
SLDDIMSTYLE0
100
AcDbRadialDimension
 15
40.80837269635367
 25
5.912907259247685
 35
0.0
 40
0.0
1001
ACAD
1000
DSTYLE
1002
{
1070
   273
1070
     2
1002
}
1001
ACAD_DSTYLE_DIMRADIAL_EXTENSION
1070
   387
1070
     1
1070
   388
1040
0.0
1070
   390
1040
1.570796326794897
  0
LINE
  5
327
330
1F
100
AcDbEntity
  8
0
  6
Continuous
 62
     4
370
    15
100
AcDbLine
 10
-30.11612499999999
 20
4.825999999999993
 30
0.0
 11
-18.94012500000012
 21
4.825999999999993
 31
0.0
  0
LINE
  5
328
330
1F
100
AcDbEntity
  8
0
  6
Continuous
 62
     4
370
    15
100
AcDbLine
 10
-30.11612499999999
 20
4.825999999999993
 30
0.0
 11
-31.64012499999999
 21
6.349999999999994
 31
0.0
  0
LINE
  5
329
330
1F
100
AcDbEntity
  8
0
  6
Continuous
 62
     4
370
    15
100
AcDbLine
 10
-18.940125
 20
4.825999999999993
 30
0.0
 11
-17.416125
 21
6.349999999999994
 31
0.0
  0
LINE
  5
32A
330
1F
100
AcDbEntity
  8
0
  6
Continuous
 62
     4
370
    15
100
AcDbLine
 10
-31.640125
 20
6.350000000000009
 30
0.0
 11
-46.65000000000001
 21
6.350000000000009
 31
0.0
  0
ENDSEC
  0
SECTION
  2
OBJECTS
  0
DICTIONARY
  5
C
330
0
100
AcDbDictionary
281
     1
  3
ACAD_GROUP
350
D
  3
ACAD_IMAGE_VARS
350
161
  3
ACAD_LAYOUT
350
1A
  3
ACAD_MLINESTYLE
350
17
  3
ACAD_PLOTSETTINGS
350
19
  3
ACAD_PLOTSTYLENAME
350
E
  3
ACAD_SCALELIST
350
47
  3
APPDATA
350
15F
  3
DWGPROPS
350
34F
  0
DICTIONARY
  5
318
330
2
100
AcDbDictionary
280
     1
281
     1
  3
ACAD_LAYERSTATES
360
319
  0
DICTIONARY
  5
34D
330
1F
100
AcDbDictionary
280
     1
281
     1
  3
DIM_BOUNDING_BOXES_V1
360
34E
  0
DICTIONARY
  5
D
102
{ACAD_REACTORS
330
C
102
}
330
C
100
AcDbDictionary
281
     1
  0
RASTERVARIABLES
  5
161
102
{ACAD_REACTORS
330
C
102
}
330
C
100
AcDbRasterVariables
 90
        0
 70
     1
 71
     1
 72
     1
  0
DICTIONARY
  5
1A
102
{ACAD_REACTORS
330
C
102
}
330
C
100
AcDbDictionary
281
     1
  3
Layout1
350
1E
  3
Layout2
350
26
  3
Model
350
22
  0
DICTIONARY
  5
17
102
{ACAD_REACTORS
330
C
102
}
330
C
100
AcDbDictionary
281
     1
  3
Standard
350
18
  0
DICTIONARY
  5
19
102
{ACAD_REACTORS
330
C
102
}
330
C
100
AcDbDictionary
281
     1
  0
ACDBDICTIONARYWDFLT
  5
E
102
{ACAD_REACTORS
330
C
102
}
330
C
100
AcDbDictionary
281
     1
  3
Normal
350
F
100
AcDbDictionaryWithDefault
340
F
  0
DICTIONARY
  5
47
102
{ACAD_REACTORS
330
C
102
}
330
C
100
AcDbDictionary
281
     1
  3
A0
350
48
  3
A1
350
49
  3
A2
350
4A
  3
A3
350
4B
  3
A4
350
4C
  3
A5
350
4D
  3
A6
350
4E
  3
A7
350
4F
  3
A8
350
50
  3
A9
350
51
  3
B0
350
52
  3
B1
350
53
  3
B2
350
54
  3
B3
350
55
  3
B4
350
56
  3
B5
350
57
  3
B6
350
58
  3
B7
350
59
  3
B8
350
5A
  3
B9
350
5B
  3
C0
350
5C
  3
C1
350
5D
  3
C2
350
5E
  3
C3
350
5F
  3
C4
350
60
  3
C5
350
61
  3
C6
350
62
  3
C7
350
63
  3
C8
350
64
  3
C9
350
65
  3
D0
350
66
  3
D1
350
67
  3
D2
350
68
  0
DICTIONARY
  5
15F
102
{ACAD_REACTORS
330
C
102
}
330
C
100
AcDbDictionary
281
     1
  0
XRECORD
  5
34F
102
{ACAD_REACTORS
330
C
102
}
330
C
100
AcDbXrecord
280
     1
  1
DWGPROPS COOKIE
  2

  3

  4

  6

  7

  8
12015018
  9

300
=
301
=
302
=
303
=
304
=
305
=
306
=
307
=
308
=
309
=
 40
0.0
 41
2458236.369305718
 42
2459697.058584884
  1

 90
        0
  0
DICTIONARY
  5
319
102
{ACAD_REACTORS
330
318
102
}
330
318
100
AcDbDictionary
281
     1
  0
DICTIONARY
  5
34E
102
{ACAD_REACTORS
330
34D
102
}
330
34D
100
AcDbDictionary
281
     1
  0
LAYOUT
  5
1E
102
{ACAD_REACTORS
330
1A
102
}
330
1A
100
AcDbPlotSettings
  1

  2
none_device
  4

  6

 40
0.0
 41
0.0
 42
0.0
 43
0.0
 44
0.0
 45
0.0
 46
0.0
 47
0.0
 48
0.0
 49
0.0
140
0.0
141
0.0
142
1.0
143
1.0
 70
   688
 72
     1
 73
     0
 74
     5
  7

 75
    16
147
1.0
148
0.0
149
0.0
100
AcDbLayout
  1
Layout1
 70
     1
 71
     1
 10
0.0
 20
0.0
 11
420.0
 21
297.0
 12
0.0
 22
0.0
 32
0.0
 14
1.000000000000000E+20
 24
1.000000000000000E+20
 34
1.000000000000000E+20
 15
-1.000000000000000E+20
 25
-1.000000000000000E+20
 35
-1.000000000000000E+20
146
0.0
 13
0.0
 23
0.0
 33
0.0
 16
1.0
 26
0.0
 36
0.0
 17
0.0
 27
1.0
 37
0.0
 76
     0
330
1B
  0
LAYOUT
  5
26
102
{ACAD_REACTORS
330
1A
102
}
330
1A
100
AcDbPlotSettings
  1

  2
none_device
  4

  6

 40
0.0
 41
0.0
 42
0.0
 43
0.0
 44
0.0
 45
0.0
 46
0.0
 47
0.0
 48
0.0
 49
0.0
140
0.0
141
0.0
142
1.0
143
1.0
 70
   688
 72
     1
 73
     0
 74
     5
  7

 75
    16
147
1.0
148
0.0
149
0.0
100
AcDbLayout
  1
Layout2
 70
     1
 71
     2
 10
0.0
 20
0.0
 11
0.0
 21
0.0
 12
0.0
 22
0.0
 32
0.0
 14
0.0
 24
0.0
 34
0.0
 15
0.0
 25
0.0
 35
0.0
146
0.0
 13
0.0
 23
0.0
 33
0.0
 16
1.0
 26
0.0
 36
0.0
 17
0.0
 27
1.0
 37
0.0
 76
     0
330
23
  0
LAYOUT
  5
22
102
{ACAD_REACTORS
330
1A
102
}
330
1A
100
AcDbPlotSettings
  1

  2
none_device
  4
ANSI_A_(11.00_x_8.50_Inches)
  6

 40
6.35
 41
19.05
 42
6.35000508
 43
19.05000254
 44
279.4
 45
215.9
 46
136.5397229855028
 47
90.07822858501036
 48
0.0
 49
0.0
140
0.0
141
0.0
142
0.0785215014555152
143
1.0
 70
  1696
 72
     0
 73
     0
 74
     0
  7

 75
     0
147
0.0235690232323232
148
0.0
149
0.0
100
AcDbLayout
  1
Model
 70
     1
 71
     0
 10
0.0
 20
0.0
 11
420.0
 21
297.0
 12
0.0
 22
0.0
 32
0.0
 14
-64.52500000000005
 24
-49.97370379473831
 34
0.0
 15
62.59105127683323
 25
43.38055141807179
 35
0.0
146
0.0
 13
0.0
 23
0.0
 33
0.0
 16
1.0
 26
0.0
 36
0.0
 17
0.0
 27
1.0
 37
0.0
 76
     0
330
1F
331
29
  0
MLINESTYLE
  5
18
102
{ACAD_REACTORS
330
17
102
}
330
17
100
AcDbMlineStyle
  2
Standard
 70
     0
  3

 62
   256
 51
90.0
 52
90.0
 71
     2
 49
0.5
 62
   256
  6
BYLAYER
 49
-0.5
 62
   256
  6
BYLAYER
  0
ACDBPLACEHOLDER
  5
F
102
{ACAD_REACTORS
330
E
102
}
330
E
  0
SCALE
  5
48
102
{ACAD_REACTORS
330
47
102
}
330
47
100
AcDbScale
 70
     0
300
1:1
140
1.0
141
1.0
290
     1
  0
SCALE
  5
49
102
{ACAD_REACTORS
330
47
102
}
330
47
100
AcDbScale
 70
     0
300
1:2
140
1.0
141
2.0
290
     0
  0
SCALE
  5
4A
102
{ACAD_REACTORS
330
47
102
}
330
47
100
AcDbScale
 70
     0
300
1:4
140
1.0
141
4.0
290
     0
  0
SCALE
  5
4B
102
{ACAD_REACTORS
330
47
102
}
330
47
100
AcDbScale
 70
     0
300
1:5
140
1.0
141
5.0
290
     0
  0
SCALE
  5
4C
102
{ACAD_REACTORS
330
47
102
}
330
47
100
AcDbScale
 70
     0
300
1:8
140
1.0
141
8.0
290
     0
  0
SCALE
  5
4D
102
{ACAD_REACTORS
330
47
102
}
330
47
100
AcDbScale
 70
     0
300
1:10
140
1.0
141
10.0
290
     0
  0
SCALE
  5
4E
102
{ACAD_REACTORS
330
47
102
}
330
47
100
AcDbScale
 70
     0
300
1:16
140
1.0
141
16.0
290
     0
  0
SCALE
  5
4F
102
{ACAD_REACTORS
330
47
102
}
330
47
100
AcDbScale
 70
     0
300
1:20
140
1.0
141
20.0
290
     0
  0
SCALE
  5
50
102
{ACAD_REACTORS
330
47
102
}
330
47
100
AcDbScale
 70
     0
300
1:30
140
1.0
141
30.0
290
     0
  0
SCALE
  5
51
102
{ACAD_REACTORS
330
47
102
}
330
47
100
AcDbScale
 70
     0
300
1:40
140
1.0
141
40.0
290
     0
  0
SCALE
  5
52
102
{ACAD_REACTORS
330
47
102
}
330
47
100
AcDbScale
 70
     0
300
1:50
140
1.0
141
50.0
290
     0
  0
SCALE
  5
53
102
{ACAD_REACTORS
330
47
102
}
330
47
100
AcDbScale
 70
     0
300
1:100
140
1.0
141
100.0
290
     0
  0
SCALE
  5
54
102
{ACAD_REACTORS
330
47
102
}
330
47
100
AcDbScale
 70
     0
300
2:1
140
2.0
141
1.0
290
     0
  0
SCALE
  5
55
102
{ACAD_REACTORS
330
47
102
}
330
47
100
AcDbScale
 70
     0
300
4:1
140
4.0
141
1.0
290
     0
  0
SCALE
  5
56
102
{ACAD_REACTORS
330
47
102
}
330
47
100
AcDbScale
 70
     0
300
8:1
140
8.0
141
1.0
290
     0
  0
SCALE
  5
57
102
{ACAD_REACTORS
330
47
102
}
330
47
100
AcDbScale
 70
     0
300
10:1
140
10.0
141
1.0
290
     0
  0
SCALE
  5
58
102
{ACAD_REACTORS
330
47
102
}
330
47
100
AcDbScale
 70
     0
300
100:1
140
100.0
141
1.0
290
     0
  0
SCALE
  5
59
102
{ACAD_REACTORS
330
47
102
}
330
47
100
AcDbScale
 70
     0
300
1/128" = 1'-0"
140
0.0078125
141
12.0
290
     0
  0
SCALE
  5
5A
102
{ACAD_REACTORS
330
47
102
}
330
47
100
AcDbScale
 70
     0
300
1/64" = 1'-0"
140
0.015625
141
12.0
290
     0
  0
SCALE
  5
5B
102
{ACAD_REACTORS
330
47
102
}
330
47
100
AcDbScale
 70
     0
300
1/32" = 1'-0"
140
0.03125
141
12.0
290
     0
  0
SCALE
  5
5C
102
{ACAD_REACTORS
330
47
102
}
330
47
100
AcDbScale
 70
     0
300
1/16" = 1'-0"
140
0.0625
141
12.0
290
     0
  0
SCALE
  5
5D
102
{ACAD_REACTORS
330
47
102
}
330
47
100
AcDbScale
 70
     0
300
3/32" = 1'-0"
140
0.09375
141
12.0
290
     0
  0
SCALE
  5
5E
102
{ACAD_REACTORS
330
47
102
}
330
47
100
AcDbScale
 70
     0
300
1/8" = 1'-0"
140
0.125
141
12.0
290
     0
  0
SCALE
  5
5F
102
{ACAD_REACTORS
330
47
102
}
330
47
100
AcDbScale
 70
     0
300
3/16" = 1'-0"
140
0.1875
141
12.0
290
     0
  0
SCALE
  5
60
102
{ACAD_REACTORS
330
47
102
}
330
47
100
AcDbScale
 70
     0
300
1/4" = 1'-0"
140
0.25
141
12.0
290
     0
  0
SCALE
  5
61
102
{ACAD_REACTORS
330
47
102
}
330
47
100
AcDbScale
 70
     0
300
3/8" = 1'-0"
140
0.375
141
12.0
290
     0
  0
SCALE
  5
62
102
{ACAD_REACTORS
330
47
102
}
330
47
100
AcDbScale
 70
     0
300
1/2" = 1'-0"
140
0.5
141
12.0
290
     0
  0
SCALE
  5
63
102
{ACAD_REACTORS
330
47
102
}
330
47
100
AcDbScale
 70
     0
300
3/4" = 1'-0"
140
0.75
141
12.0
290
     0
  0
SCALE
  5
64
102
{ACAD_REACTORS
330
47
102
}
330
47
100
AcDbScale
 70
     0
300
1" = 1'-0"
140
1.0
141
12.0
290
     0
  0
SCALE
  5
65
102
{ACAD_REACTORS
330
47
102
}
330
47
100
AcDbScale
 70
     0
300
1-1/2" = 1'-0"
140
1.5
141
12.0
290
     0
  0
SCALE
  5
66
102
{ACAD_REACTORS
330
47
102
}
330
47
100
AcDbScale
 70
     0
300
3" = 1'-0"
140
3.0
141
12.0
290
     0
  0
SCALE
  5
67
102
{ACAD_REACTORS
330
47
102
}
330
47
100
AcDbScale
 70
     0
300
6" = 1'-0"
140
6.0
141
12.0
290
     0
  0
SCALE
  5
68
102
{ACAD_REACTORS
330
47
102
}
330
47
100
AcDbScale
 70
     0
300
1'-0" = 1'-0"
140
12.0
141
12.0
290
     0
  0
ENDSEC
  0
EOF
