  0
SECTION
  2
HEADER
  9
$ACADVER
  1
AC1015
  9
$ACADMAINTVER
 70
     6
  9
$DWGCODEPAGE
  3
ANSI_949
  9
$INSBASE
 10
0.0
 20
0.0
 30
0.0
  9
$EXTMIN
 10
-127.6429491924312
 20
-49.97180738881174
 30
0.0
  9
$EXTMAX
 10
59.43121111895964
 20
42.37500000000001
 30
0.0
  9
$LIMMIN
 10
0.0
 20
0.0
  9
$LIMMAX
 10
420.0
 20
297.0
  9
$ORTHOMODE
 70
     1
  9
$REGENMODE
 70
     1
  9
$FILLMODE
 70
     1
  9
$QTEXTMODE
 70
     0
  9
$MIRRTEXT
 70
     1
  9
$LTSCALE
 40
1.0
  9
$ATTMODE
 70
     1
  9
$TEXTSIZE
 40
3.5
  9
$TRACEWID
 40
1.0
  9
$TEXTSTYLE
  7
Standard
  9
$CLAYER
  8
0
  9
$CELTYPE
  6
ByLayer
  9
$CECOLOR
 62
   256
  9
$CELTSCALE
 40
1.0
  9
$DISPSILH
 70
     0
  9
$DIMSCALE
 40
1.0
  9
$DIMASZ
 40
3.302
  9
$DIMEXO
 40
1.0
  9
$DIMDLI
 40
3.75
  9
$DIMRND
 40
0.0
  9
$DIMDLE
 40
0.0
  9
$DIMEXE
 40
1.0
  9
$DIMTP
 40
0.0
  9
$DIMTM
 40
0.0
  9
$DIMTXT
 40
3.5
  9
$DIMCEN
 40
2.5
  9
$DIMTSZ
 40
0.0
  9
$DIMTOL
 70
     0
  9
$DIMLIM
 70
     0
  9
$DIMTIH
 70
     1
  9
$DIMTOH
 70
     1
  9
$DIMSE1
 70
     0
  9
$DIMSE2
 70
     0
  9
$DIMTAD
 70
     1
  9
$DIMZIN
 70
     0
  9
$DIMBLK
  1

  9
$DIMASO
 70
     1
  9
$DIMSHO
 70
     1
  9
$DIMPOST
  1

  9
$DIMAPOST
  1

  9
$DIMALT
 70
     0
  9
$DIMALTD
 70
     3
  9
$DIMALTF
 40
0.0393700787401575
  9
$DIMLFAC
 40
1.0
  9
$DIMTOFL
 70
     1
  9
$DIMTVP
 40
0.0
  9
$DIMTIX
 70
     0
  9
$DIMSOXD
 70
     0
  9
$DIMSAH
 70
     0
  9
$DIMBLK1
  1

  9
$DIMBLK2
  1

  9
$DIMSTYLE
  2
ISO-25
  9
$DIMCLRD
 70
     0
  9
$DIMCLRE
 70
     0
  9
$DIMCLRT
 70
     0
  9
$DIMTFAC
 40
1.0
  9
$DIMGAP
 40
1.524
  9
$DIMJUST
 70
     0
  9
$DIMSD1
 70
     0
  9
$DIMSD2
 70
     0
  9
$DIMTOLJ
 70
     0
  9
$DIMTZIN
 70
     0
  9
$DIMALTZ
 70
     0
  9
$DIMALTTZ
 70
     0
  9
$DIMUPT
 70
     0
  9
$DIMDEC
 70
     2
  9
$DIMTDEC
 70
     2
  9
$DIMALTU
 70
     2
  9
$DIMALTTD
 70
     3
  9
$DIMTXSTY
  7
Standard
  9
$DIMAUNIT
 70
     0
  9
$DIMADEC
 70
     2
  9
$DIMALTRND
 40
0.0
  9
$DIMAZIN
 70
     0
  9
$DIMDSEP
 70
    44
  9
$DIMATFIT
 70
     3
  9
$DIMFRAC
 70
     0
  9
$DIMLDRBLK
  1

  9
$DIMLUNIT
 70
     2
  9
$DIMLWD
 70
    -2
  9
$DIMLWE
 70
    -2
  9
$DIMTMOVE
 70
     0
  9
$LUNITS
 70
     2
  9
$LUPREC
 70
     2
  9
$SKETCHINC
 40
1.0
  9
$FILLETRAD
 40
10.0
  9
$AUNITS
 70
     0
  9
$AUPREC
 70
     2
  9
$MENU
  1
.
  9
$ELEVATION
 40
0.0
  9
$PELEVATION
 40
0.0
  9
$THICKNESS
 40
0.0
  9
$LIMCHECK
 70
     0
  9
$CHAMFERA
 40
0.0
  9
$CHAMFERB
 40
0.0
  9
$CHAMFERC
 40
0.0
  9
$CHAMFERD
 40
0.0
  9
$SKPOLY
 70
     0
  9
$TDCREATE
 40
2458260.592102037
  9
$TDUCREATE
 40
2458260.217102037
  9
$TDUPDATE
 40
2459702.368504618
  9
$TDUUPDATE
 40
2459701.993504618
  9
$TDINDWG
 40
0.0424613657
  9
$TDUSRTIMER
 40
0.0006690394
  9
$USRTIMER
 70
     1
  9
$ANGBASE
 50
0.0
  9
$ANGDIR
 70
     0
  9
$PDMODE
 70
     0
  9
$PDSIZE
 40
-1.0
  9
$PLINEWID
 40
0.0
  9
$SPLFRAME
 70
     0
  9
$SPLINETYPE
 70
     6
  9
$SPLINESEGS
 70
     8
  9
$HANDSEED
  5
228
  9
$SURFTAB1
 70
     6
  9
$SURFTAB2
 70
     6
  9
$SURFTYPE
 70
     6
  9
$SURFU
 70
     6
  9
$SURFV
 70
     6
  9
$UCSBASE
  2

  9
$UCSNAME
  2

  9
$UCSORG
 10
0.0
 20
0.0
 30
0.0
  9
$UCSXDIR
 10
1.0
 20
0.0
 30
0.0
  9
$UCSYDIR
 10
0.0
 20
1.0
 30
0.0
  9
$UCSORTHOREF
  2

  9
$UCSORTHOVIEW
 70
     0
  9
$UCSORGTOP
 10
0.0
 20
0.0
 30
0.0
  9
$UCSORGBOTTOM
 10
0.0
 20
0.0
 30
0.0
  9
$UCSORGLEFT
 10
0.0
 20
0.0
 30
0.0
  9
$UCSORGRIGHT
 10
0.0
 20
0.0
 30
0.0
  9
$UCSORGFRONT
 10
0.0
 20
0.0
 30
0.0
  9
$UCSORGBACK
 10
0.0
 20
0.0
 30
0.0
  9
$PUCSBASE
  2

  9
$PUCSNAME
  2

  9
$PUCSORG
 10
0.0
 20
0.0
 30
0.0
  9
$PUCSXDIR
 10
1.0
 20
0.0
 30
0.0
  9
$PUCSYDIR
 10
0.0
 20
1.0
 30
0.0
  9
$PUCSORTHOREF
  2

  9
$PUCSORTHOVIEW
 70
     0
  9
$PUCSORGTOP
 10
0.0
 20
0.0
 30
0.0
  9
$PUCSORGBOTTOM
 10
0.0
 20
0.0
 30
0.0
  9
$PUCSORGLEFT
 10
0.0
 20
0.0
 30
0.0
  9
$PUCSORGRIGHT
 10
0.0
 20
0.0
 30
0.0
  9
$PUCSORGFRONT
 10
0.0
 20
0.0
 30
0.0
  9
$PUCSORGBACK
 10
0.0
 20
0.0
 30
0.0
  9
$USERI1
 70
     0
  9
$USERI2
 70
     0
  9
$USERI3
 70
     0
  9
$USERI4
 70
     0
  9
$USERI5
 70
     0
  9
$USERR1
 40
0.0
  9
$USERR2
 40
0.0
  9
$USERR3
 40
0.0
  9
$USERR4
 40
0.0
  9
$USERR5
 40
0.0
  9
$WORLDVIEW
 70
     1
  9
$SHADEDGE
 70
     3
  9
$SHADEDIF
 70
    70
  9
$TILEMODE
 70
     1
  9
$MAXACTVP
 70
    64
  9
$PINSBASE
 10
0.0
 20
0.0
 30
0.0
  9
$PLIMCHECK
 70
     0
  9
$PEXTMIN
 10
1.000000000000000E+20
 20
1.000000000000000E+20
 30
1.000000000000000E+20
  9
$PEXTMAX
 10
-1.000000000000000E+20
 20
-1.000000000000000E+20
 30
-1.000000000000000E+20
  9
$PLIMMIN
 10
0.0
 20
0.0
  9
$PLIMMAX
 10
0.0
 20
0.0
  9
$UNITMODE
 70
     0
  9
$VISRETAIN
 70
     1
  9
$PLINEGEN
 70
     0
  9
$PSLTSCALE
 70
     1
  9
$TREEDEPTH
 70
  3020
  9
$CMLSTYLE
  2
Standard
  9
$CMLJUST
 70
     0
  9
$CMLSCALE
 40
20.0
  9
$PROXYGRAPHICS
 70
     1
  9
$MEASUREMENT
 70
     1
  9
$CELWEIGHT
370
    -1
  9
$ENDCAPS
280
     0
  9
$JOINSTYLE
280
     0
  9
$LWDISPLAY
290
     1
  9
$INSUNITS
 70
     4
  9
$HYPERLINKBASE
  1

  9
$STYLESHEET
  1

  9
$XEDIT
290
     1
  9
$CEPSNTYPE
380
     0
  9
$PSTYLEMODE
290
     1
  9
$FINGERPRINTGUID
  2
{CA8EB328-60FF-4249-81B4-F0E9E1FB553F}
  9
$VERSIONGUID
  2
{FAEB1C32-E019-11D5-929B-00C0DF256EC4}
  9
$EXTNAMES
290
     1
  9
$PSVPSCALE
 40
0.0
  9
$OLESTARTUP
290
     0
  0
ENDSEC
  0
SECTION
  2
CLASSES
  0
CLASS
  1
ACDBDICTIONARYWDFLT
  2
AcDbDictionaryWithDefault
  3
ObjectDBX Classes
 90
        0
280
     0
281
     0
  0
CLASS
  1
VISUALSTYLE
  2
AcDbVisualStyle
  3
ObjectDBX Classes
 90
     4095
280
     0
281
     0
  0
CLASS
  1
MATERIAL
  2
AcDbMaterial
  3
ObjectDBX Classes
 90
     1153
280
     0
281
     0
  0
CLASS
  1
SCALE
  2
AcDbScale
  3
ObjectDBX Classes
 90
     1153
280
     0
281
     0
  0
CLASS
  1
SUN
  2
AcDbSun
  3
SCENEOE
 90
     1153
280
     0
281
     0
  0
CLASS
  1
ACDBPLACEHOLDER
  2
AcDbPlaceHolder
  3
ObjectDBX Classes
 90
        0
280
     0
281
     0
  0
CLASS
  1
LAYOUT
  2
AcDbLayout
  3
ObjectDBX Classes
 90
        0
280
     0
281
     0
  0
CLASS
  1
TABLESTYLE
  2
AcDbTableStyle
  3
ObjectDBX Classes
 90
     4095
280
     0
281
     0
  0
CLASS
  1
MLEADERSTYLE
  2
AcDbMLeaderStyle
  3
ACDB_MLEADERSTYLE_CLASS
 90
     4095
280
     0
281
     0
  0
CLASS
  1
DICTIONARYVAR
  2
AcDbDictionaryVar
  3
ObjectDBX Classes
 90
        0
280
     0
281
     0
  0
CLASS
  1
DIMASSOC
  2
AcDbDimAssoc
  3
"AcDbDimAssoc|Product Desc:     AcDim ARX App For Dimension|Company:          Autodesk, Inc.|WEB Address:      www.autodesk.com"
 90
        0
280
     0
281
     0
  0
ENDSEC
  0
SECTION
  2
TABLES
  0
TABLE
  2
VPORT
  5
8
330
0
100
AcDbSymbolTable
 70
     1
  0
VPORT
  5
29
330
8
100
AcDbSymbolTableRecord
100
AcDbViewportTableRecord
  2
*Active
 70
     0
 10
0.0
 20
0.0
 11
1.0
 21
1.0
 12
-22.77475049289947
 22
14.17362157021416
 13
0.0
 23
0.0
 14
10.0
 24
10.0
 15
10.0
 25
10.0
 16
0.0
 26
0.0
 36
1.0
 17
0.0
 27
0.0
 37
0.0
 40
101.232768878826
 41
1.531481481481481
 42
50.0
 43
0.0
 44
0.0
 50
0.0
 51
0.0
 71
    16
 72
  2000
 73
     1
 74
     3
 75
     0
 76
     0
 77
     0
 78
     0
281
     0
 65
     1
110
0.0
120
0.0
130
0.0
111
1.0
121
0.0
131
0.0
112
0.0
122
1.0
132
0.0
 79
     0
146
0.0
  0
ENDTAB
  0
TABLE
  2
LTYPE
  5
5
330
0
100
AcDbSymbolTable
 70
     6
  0
LTYPE
  5
14
330
5
100
AcDbSymbolTableRecord
100
AcDbLinetypeTableRecord
  2
ByBlock
 70
     0
  3

 72
    65
 73
     0
 40
0.0
  0
LTYPE
  5
15
330
5
100
AcDbSymbolTableRecord
100
AcDbLinetypeTableRecord
  2
ByLayer
 70
     0
  3

 72
    65
 73
     0
 40
0.0
  0
LTYPE
  5
16
330
5
100
AcDbSymbolTableRecord
100
AcDbLinetypeTableRecord
  2
Continuous
 70
     0
  3
Solid line
 72
    65
 73
     0
 40
0.0
  0
LTYPE
  5
6A
330
5
100
AcDbSymbolTableRecord
100
AcDbLinetypeTableRecord
  2
HIDDEN
 70
     0
  3
Hidden __ __ __ __ __ __ __ __ __ __ __ __ __ __
 72
    65
 73
     2
 40
1.905
 49
1.27
 74
     0
 49
-0.635
 74
     0
  0
LTYPE
  5
6B
330
5
100
AcDbSymbolTableRecord
100
AcDbLinetypeTableRecord
  2
PHANTOM
 70
     0
  3
Phantom ______  __  __  ______  __  __  ______
 72
    65
 73
     6
 40
12.7
 49
6.35
 74
     0
 49
-1.27
 74
     0
 49
1.27
 74
     0
 49
-1.27
 74
     0
 49
1.27
 74
     0
 49
-1.27
 74
     0
  0
LTYPE
  5
6C
330
5
100
AcDbSymbolTableRecord
100
AcDbLinetypeTableRecord
  2
CENTER
 70
     0
  3
Center ____ _ ____ _ ____ _ ____ _ ____ _ ____
 72
    65
 73
     4
 40
10.16
 49
6.35
 74
     0
 49
-1.27
 74
     0
 49
1.27
 74
     0
 49
-1.27
 74
     0
  0
LTYPE
  5
6D
330
5
100
AcDbSymbolTableRecord
100
AcDbLinetypeTableRecord
  2
CENTERX2
 70
     0
  3
Center (2x) ________  __  ________  __  _____
 72
    65
 73
     4
 40
20.32
 49
12.7
 74
     0
 49
-2.54
 74
     0
 49
2.54
 74
     0
 49
-2.54
 74
     0
  0
LTYPE
  5
6E
330
5
100
AcDbSymbolTableRecord
100
AcDbLinetypeTableRecord
  2
DOT2
 70
     0
  3
Dot (.5x) ........................................
 72
    65
 73
     2
 40
0.635
 49
0.0
 74
     0
 49
-0.635
 74
     0
  0
ENDTAB
  0
TABLE
  2
LAYER
  5
2
102
{ACAD_XDICTIONARY
360
178
102
}
330
0
100
AcDbSymbolTable
 70
    17
  0
LAYER
  5
10
330
2
100
AcDbSymbolTableRecord
100
AcDbLayerTableRecord
  2
0
 70
     0
 62
     7
  6
Continuous
370
    -3
390
F
  0
LAYER
  5
6F
330
2
100
AcDbSymbolTableRecord
100
AcDbLayerTableRecord
  2
FORMAT
 70
     0
 62
     2
  6
Continuous
370
    -3
390
F
  0
LAYER
  5
70
330
2
100
AcDbSymbolTableRecord
100
AcDbLayerTableRecord
  2
외형선
 70
     0
 62
   100
  6
Continuous
370
    30
390
F
  0
LAYER
  5
71
330
2
100
AcDbSymbolTableRecord
100
AcDbLayerTableRecord
  2
숨은선
 70
     0
 62
     2
  6
HIDDEN
370
    15
390
F
  0
LAYER
  5
72
330
2
100
AcDbSymbolTableRecord
100
AcDbLayerTableRecord
  2
중심선
 70
     0
 62
     1
  6
CENTERX2
370
    -3
390
F
  0
LAYER
  5
73
330
2
100
AcDbSymbolTableRecord
100
AcDbLayerTableRecord
  2
파단선
 70
     0
 62
     4
  6
Continuous
370
    -3
390
F
  0
LAYER
  5
74
330
2
100
AcDbSymbolTableRecord
100
AcDbLayerTableRecord
  2
해칭선
 70
     0
 62
     4
  6
Continuous
370
    -3
390
F
  0
LAYER
  5
75
330
2
100
AcDbSymbolTableRecord
100
AcDbLayerTableRecord
  2
가는실선
 70
     0
 62
     4
  6
Continuous
370
    -3
390
F
  0
LAYER
  5
76
330
2
100
AcDbSymbolTableRecord
100
AcDbLayerTableRecord
  2
치수_보조선
 70
     0
 62
     4
  6
Continuous
370
    -3
390
F
  0
LAYER
  5
77
330
2
100
AcDbSymbolTableRecord
100
AcDbLayerTableRecord
  2
치수문자_일반주서
 70
     0
 62
     7
  6
Continuous
370
    15
390
F
  0
LAYER
  5
78
330
2
100
AcDbSymbolTableRecord
100
AcDbLayerTableRecord
  2
개별주서
 70
     0
 62
   100
  6
Continuous
370
    30
390
F
  0
LAYER
  5
79
330
2
100
AcDbSymbolTableRecord
100
AcDbLayerTableRecord
  2
중간선
 70
     0
 62
     2
  6
Continuous
370
    15
390
F
  0
LAYER
  5
7A
330
2
100
AcDbSymbolTableRecord
100
AcDbLayerTableRecord
  2
윤곽선
 70
     0
 62
     3
  6
Continuous
370
    40
390
F
  0
LAYER
  5
7B
330
2
100
AcDbSymbolTableRecord
100
AcDbLayerTableRecord
  2
중심마크
 70
     0
 62
   100
  6
Continuous
370
    30
390
F
  0
LAYER
  5
7C
330
2
100
AcDbSymbolTableRecord
100
AcDbLayerTableRecord
  2
가상선
 70
     0
 62
     4
  6
PHANTOM
370
    -3
390
F
  0
LAYER
  5
7D
330
2
100
AcDbSymbolTableRecord
100
AcDbLayerTableRecord
  2
특수지정선
 70
     0
 62
     5
  6
CENTERX2
370
    60
390
F
  0
LAYER
  5
135
330
2
100
AcDbSymbolTableRecord
100
AcDbLayerTableRecord
  2
Defpoints
 70
     0
 62
     7
  6
Continuous
290
     0
370
    -3
390
F
  0
ENDTAB
  0
TABLE
  2
STYLE
  5
3
330
0
100
AcDbSymbolTable
 70
     2
  0
STYLE
  5
11
330
3
100
AcDbSymbolTableRecord
100
AcDbTextStyleTableRecord
  2
Standard
 70
     0
 40
0.0
 41
1.0
 50
0.0
 71
     0
 42
3.5
  3
txt
  4

  0
STYLE
  5
93
330
3
100
AcDbSymbolTableRecord
100
AcDbTextStyleTableRecord
  2
SLDTEXTSTYLE0
 70
     0
 40
0.0
 41
0.75
 50
0.0
 71
     0
 42
3.5
  3
TXT
  4

  0
ENDTAB
  0
TABLE
  2
VIEW
  5
6
330
0
100
AcDbSymbolTable
 70
     0
  0
ENDTAB
  0
TABLE
  2
UCS
  5
7
330
0
100
AcDbSymbolTable
 70
     0
  0
ENDTAB
  0
TABLE
  2
APPID
  5
9
330
0
100
AcDbSymbolTable
 70
     3
  0
APPID
  5
12
330
9
100
AcDbSymbolTableRecord
100
AcDbRegAppTableRecord
  2
ACAD
 70
     0
  0
APPID
  5
13D
330
9
100
AcDbSymbolTableRecord
100
AcDbRegAppTableRecord
  2
PE_URL
 70
     0
  0
APPID
  5
13E
330
9
100
AcDbSymbolTableRecord
100
AcDbRegAppTableRecord
  2
ACAD_DSTYLE_DIMRADIAL_EXTENSION
 70
     0
  0
ENDTAB
  0
TABLE
  2
DIMSTYLE
  5
A
330
0
100
AcDbSymbolTable
 70
     3
100
AcDbDimStyleTable
  0
DIMSTYLE
105
27
330
A
100
AcDbSymbolTableRecord
100
AcDbDimStyleTableRecord
  2
ISO-25
 70
     0
 41
2.5
 42
0.625
 43
3.75
 44
1.25
 73
     0
 74
     0
 77
     1
 78
     8
140
2.5
141
2.5
143
0.03937007874016
147
0.625
171
     3
172
     1
178
     0
271
     2
272
     2
274
     3
278
    44
283
     0
284
     8
340
11
  0
DIMSTYLE
105
DE
102
{ACAD_REACTORS
330
DD
330
100
330
EB
330
F6
102
}
330
A
100
AcDbSymbolTableRecord
100
AcDbDimStyleTableRecord
  2
SLDDIMSTYLE0
 70
     0
 41
3.302
 44
0.0
 45
0.000000001
 73
     0
 74
     0
 77
     1
 78
    12
 79
     3
140
3.5
147
0.875
172
     1
173
     1
178
     0
271
     2
272
     2
276
     2
284
    12
289
     0
340
93
  0
DIMSTYLE
105
EC
102
{ACAD_REACTORS
330
1ED
102
}
330
A
100
AcDbSymbolTableRecord
100
AcDbDimStyleTableRecord
  2
SLDDIMSTYLE1
 70
     0
 41
3.302
 44
0.0
 45
0.000000001
 73
     0
 74
     0
 77
     1
 78
    12
 79
     3
140
3.5
147
0.875
173
     1
178
     0
271
     2
272
     2
276
     2
284
    12
340
93
  0
ENDTAB
  0
TABLE
  2
BLOCK_RECORD
  5
1
330
0
100
AcDbSymbolTable
 70
    12
  0
BLOCK_RECORD
  5
1F
102
{ACAD_XDICTIONARY
360
225
102
}
330
1
100
AcDbSymbolTableRecord
100
AcDbBlockTableRecord
  2
*Model_Space
340
22
  0
BLOCK_RECORD
  5
1B
330
1
100
AcDbSymbolTableRecord
100
AcDbBlockTableRecord
  2
*Paper_Space
340
1E
  0
BLOCK_RECORD
  5
23
330
1
100
AcDbSymbolTableRecord
100
AcDbBlockTableRecord
  2
*Paper_Space0
340
26
  0
BLOCK_RECORD
  5
7E
330
1
100
AcDbSymbolTableRecord
100
AcDbBlockTableRecord
  2
블럭10
340
0
102
{BLKREFS
331
D5
102
}
  0
BLOCK_RECORD
  5
DF
330
1
100
AcDbSymbolTableRecord
100
AcDbBlockTableRecord
  2
_D
340
0
  0
BLOCK_RECORD
  5
ED
330
1
100
AcDbSymbolTableRecord
100
AcDbBlockTableRecord
  2
_D_1
340
0
  0
BLOCK_RECORD
  5
F7
330
1
100
AcDbSymbolTableRecord
100
AcDbBlockTableRecord
  2
_D_2
340
0
  0
BLOCK_RECORD
  5
101
330
1
100
AcDbSymbolTableRecord
100
AcDbBlockTableRecord
  2
_D_3
340
0
  0
BLOCK_RECORD
  5
10B
330
1
100
AcDbSymbolTableRecord
100
AcDbBlockTableRecord
  2
SW_DOWELSYMBOL_0
340
0
102
{BLKREFS
331
111
102
}
  0
BLOCK_RECORD
  5
16E
330
1
100
AcDbSymbolTableRecord
100
AcDbBlockTableRecord
  2
*D7
340
0
  0
BLOCK_RECORD
  5
17C
330
1
100
AcDbSymbolTableRecord
100
AcDbBlockTableRecord
  2
*D8
340
0
  0
BLOCK_RECORD
  5
18E
330
1
100
AcDbSymbolTableRecord
100
AcDbBlockTableRecord
  2
*D9
340
0
  0
BLOCK_RECORD
  5
19D
330
1
100
AcDbSymbolTableRecord
100
AcDbBlockTableRecord
  2
*D10
340
0
  0
BLOCK_RECORD
  5
1F0
330
1
100
AcDbSymbolTableRecord
100
AcDbBlockTableRecord
  2
*D11
340
0
  0
ENDTAB
  0
ENDSEC
  0
SECTION
  2
BLOCKS
  0
BLOCK
  5
20
330
1F
100
AcDbEntity
  8
0
100
AcDbBlockBegin
  2
*Model_Space
 70
     0
 10
0.0
 20
0.0
 30
0.0
  3
*Model_Space
  1

  0
ENDBLK
  5
21
330
1F
100
AcDbEntity
  8
0
100
AcDbBlockEnd
  0
BLOCK
  5
1C
330
1B
100
AcDbEntity
 67
     1
  8
0
100
AcDbBlockBegin
  2
*Paper_Space
 70
     0
 10
0.0
 20
0.0
 30
0.0
  3
*Paper_Space
  1

  0
ENDBLK
  5
1D
330
1B
100
AcDbEntity
 67
     1
  8
0
100
AcDbBlockEnd
  0
BLOCK
  5
24
330
23
100
AcDbEntity
  8
0
100
AcDbBlockBegin
  2
*Paper_Space0
 70
     0
 10
0.0
 20
0.0
 30
0.0
  3
*Paper_Space0
  1

  0
ENDBLK
  5
25
330
23
100
AcDbEntity
  8
0
100
AcDbBlockEnd
  0
BLOCK
  5
7F
330
7E
100
AcDbEntity
  8
0
100
AcDbBlockBegin
  2
블럭10
 70
     2
 10
0.0
 20
0.0
 30
0.0
  3
블럭10
  1

  0
ELLIPSE
  5
81
330
7E
100
AcDbEntity
  8
중심선
100
AcDbEllipse
 10
20.54032771741204
 20
12.0471743016438
 30
0.0
 11
6.600054785286829
 21
-1.261213355974178E-13
 31
0.0
210
0.0
220
0.0
230
1.0
 40
0.636358354079598
 41
0.9219305317359503
 42
6.513795318482858
  0
ELLIPSE
  5
82
330
7E
100
AcDbEntity
  8
중심선
100
AcDbEllipse
 10
20.54032771746488
 20
12.04717430159265
 30
0.0
 11
3.960054785062283
 21
1.540847449632565E-10
 31
0.0
210
0.0
220
0.0
230
1.0
 40
0.3939339440162632
 41
1.131841032648279
 42
5.62031148352944
  0
LINE
  5
83
330
7E
100
AcDbEntity
  8
중심선
100
AcDbLine
 10
2.268634060543552
 20
16.24717430164393
 30
0.0
 11
5.714909304380834
 21
16.24717430164393
 31
0.0
  0
LINE
  5
84
330
7E
100
AcDbEntity
  8
중심선
100
AcDbLine
 10
5.245725140726316
 20
7.84717430164391
 30
0.0
 11
8.692000384563599
 21
7.84717430164391
 31
0.0
  0
LINE
  5
85
330
7E
100
AcDbEntity
  8
중심선
100
AcDbLine
 10
15.74043728645272
 20
16.24717430164393
 30
0.0
 11
8.692000384563599
 21
7.84717430164391
 31
0.0
  0
LINE
  5
86
330
7E
100
AcDbEntity
  8
중심선
100
AcDbLine
 10
0.1404042013395286
 20
13.71084872107135
 30
0.0
 11
3.58671253028996
 21
13.71088815037384
 31
0.0
  0
LINE
  5
87
330
7E
100
AcDbEntity
  8
중심선
100
AcDbLine
 10
2.750260043222114
 20
10.84717430164391
 30
0.0
 11
6.196535287059397
 21
10.84717430164391
 31
0.0
  0
LINE
  5
88
330
7E
100
AcDbEntity
  8
중심선
100
AcDbLine
 10
12.29416204261559
 20
16.24717430164393
 30
0.0
 11
5.245725140726316
 21
7.84717430164391
 31
0.0
  0
LINE
  5
89
330
7E
100
AcDbEntity
  8
중심선
100
AcDbLine
 10
10.72767329541681
 20
16.24717430164393
 30
0.0
 11
6.196535287059397
 21
10.84717430164391
 31
0.0
  0
LINE
  5
8A
330
7E
100
AcDbEntity
  8
중심선
100
AcDbLine
 10
7.28139805157953
 20
16.24717430164393
 30
0.0
 11
2.750260043222114
 21
10.84717430164391
 31
0.0
  0
LINE
  5
8B
330
7E
100
AcDbEntity
  8
중심선
100
AcDbLine
 10
5.714909304380834
 20
16.24717430164393
 30
0.0
 11
3.58671253028996
 21
13.71088815037384
 31
0.0
  0
LINE
  5
8C
330
7E
100
AcDbEntity
  8
중심선
100
AcDbLine
 10
2.268634060543552
 20
16.24717430164393
 30
0.0
 11
0.1404042013395286
 21
13.71084872107135
 31
0.0
  0
LINE
  5
8D
330
7E
100
AcDbEntity
  8
중심선
100
AcDbLine
 10
7.28139805157953
 20
16.24717430164393
 30
0.0
 11
10.72767329541681
 21
16.24717430164393
 31
0.0
  0
LINE
  5
8E
330
7E
100
AcDbEntity
  8
중심선
100
AcDbLine
 10
12.29416204261559
 20
16.24717430164393
 30
0.0
 11
15.74043728645272
 21
16.24717430164393
 31
0.0
  0
LINE
  5
8F
330
7E
100
AcDbEntity
  8
중심선
100
AcDbLine
 10
19.22036997980202
 20
11.08717430171403
 30
0.0
 11
23.66174974927406
 21
11.08717430171406
 31
0.0
  0
LINE
  5
90
330
7E
100
AcDbEntity
  8
중심선
100
AcDbLine
 10
19.22039502424796
 20
13.00717430171391
 30
0.0
 11
19.22036997980202
 21
11.08717430171403
 31
0.0
  0
LINE
  5
91
330
7E
100
AcDbEntity
  8
중심선
100
AcDbLine
 10
19.22039502424796
 20
13.00717430171391
 30
0.0
 11
26.96566020931264
 21
13.00717430171391
 31
0.0
  0
LINE
  5
92
330
7E
100
AcDbEntity
  8
중심선
100
AcDbLine
 10
22.22332737316547
 20
13.45928029700563
 30
0.0
 11
24.52862924686651
 21
15.39360700705356
 31
0.0
  0
ATTDEF
  5
94
330
7E
100
AcDbEntity
  8
FORMAT
 62
     2
100
AcDbText
 10
-16.62882859820096
 20
2.075366912832191
 30
0.0
 40
4.233333333333333
  1
SEMD9914020E [ 2 FLUTE ]
 41
0.75
  7
SLDTEXTSTYLE0
 11
-16.62882859820096
 21
-0.0412997538344756
 31
0.0
100
AcDbAttributeDefinition
  3

  2
AUTOATTR0
 70
     0
 74
     1
  0
ENDBLK
  5
80
330
7E
100
AcDbEntity
  8
0
100
AcDbBlockEnd
  0
BLOCK
  5
E0
330
DF
100
AcDbEntity
  8
0
100
AcDbBlockBegin
  2
_D
 70
     0
 10
0.0
 20
0.0
 30
0.0
  3
_D
  1

  0
LINE
  5
E2
330
DF
100
AcDbEntity
  8
치수문자_일반주서
 62
     0
370
    -2
100
AcDbLine
 10
41.79455080756887
 20
-6.999999999999998
 30
0.0
 11
56.73205080756892
 21
-6.99999999999994
 31
0.0
  0
LINE
  5
E3
330
DF
100
AcDbEntity
  8
치수문자_일반주서
 62
     0
370
    -2
100
AcDbLine
 10
41.79455080756888
 20
6.939863559395556
 30
0.0
 11
56.73205080756887
 21
6.939863559395612
 31
0.0
  0
LINE
  5
E4
330
DF
100
AcDbEntity
  8
치수문자_일반주서
 62
     0
370
    -2
100
AcDbLine
 10
56.73205080756887
 20
6.939863559395612
 30
0.0
 11
56.73205080756882
 21
21.41886355939561
 31
0.0
  0
LINE
  5
E5
330
DF
100
AcDbEntity
  8
치수문자_일반주서
 62
     0
370
    -2
100
AcDbLine
 10
56.73205080756892
 20
-6.99999999999994
 30
0.0
 11
56.73205080756887
 21
6.939863559395612
 31
0.0
  0
LINE
  5
E6
330
DF
100
AcDbEntity
  8
치수문자_일반주서
 62
     0
370
    -2
100
AcDbLine
 10
56.73205080756893
 20
-10.30199999999994
 30
0.0
 11
56.73205080756895
 21
-13.60399999999994
 31
0.0
  0
LINE
  5
E7
330
DF
100
AcDbEntity
  8
치수문자_일반주서
 62
     0
370
    -2
100
AcDbLine
 10
56.73205080756885
 20
10.24186355939561
 30
0.0
 11
56.73205080756884
 21
13.54386355939561
 31
0.0
  0
SOLID
  5
E8
330
DF
100
AcDbEntity
  8
치수문자_일반주서
 62
     0
100
AcDbTrace
 10
57.28238414090227
 20
-10.30199999999994
 30
0.0
 11
56.1817174742356
 21
-10.30199999999994
 31
0.0
 12
56.73205080756892
 22
-6.99999999999994
 32
0.0
 13
56.73205080756892
 23
-6.99999999999994
 33
0.0
  0
SOLID
  5
E9
330
DF
100
AcDbEntity
  8
치수문자_일반주서
 62
     0
100
AcDbTrace
 10
56.18171747423552
 20
10.24186355939561
 30
0.0
 11
57.28238414090219
 21
10.24186355939561
 31
0.0
 12
56.73205080756887
 22
6.939863559395612
 32
0.0
 13
56.73205080756887
 23
6.939863559395612
 33
0.0
  0
MTEXT
  5
EA
330
DF
100
AcDbEntity
  8
치수문자_일반주서
 62
     0
100
AcDbMText
 10
52.35705080756883
 20
17.48136355939559
 30
0.0
 40
3.5
 41
0.0
 71
     2
 72
     1
  1
\A1;%%c14
  7
SLDTEXTSTYLE0
 11
-3.568040052277506E-15
 21
1.0
 31
0.0
 73
     1
 44
1.0
  0
POINT
  5
1BF
330
DF
100
AcDbEntity
  8
Defpoints
 62
     0
100
AcDbPoint
 10
41.73205080756887
 20
-6.999999999999998
 30
0.0
  0
POINT
  5
1C0
330
DF
100
AcDbEntity
  8
Defpoints
 62
     0
100
AcDbPoint
 10
41.73205080756888
 20
6.939863559395556
 30
0.0
  0
POINT
  5
1C1
330
DF
100
AcDbEntity
  8
Defpoints
 62
     0
100
AcDbPoint
 10
56.73205080756887
 20
6.939863559395612
 30
0.0
  0
ENDBLK
  5
E1
330
DF
100
AcDbEntity
  8
0
100
AcDbBlockEnd
  0
BLOCK
  5
EE
330
ED
100
AcDbEntity
  8
0
100
AcDbBlockBegin
  2
_D_1
 70
     0
 10
0.0
 20
0.0
 30
0.0
  3
_D_1
  1

  0
LINE
  5
F0
330
ED
100
AcDbEntity
  8
치수문자_일반주서
 62
     0
370
    -2
100
AcDbLine
 10
41.73205080756888
 20
7.002363559395556
 30
0.0
 11
41.73205080756888
 21
23.0
 31
0.0
  0
LINE
  5
F1
330
ED
100
AcDbEntity
  8
치수문자_일반주서
 62
     0
370
    -2
100
AcDbLine
 10
6.732050807568871
 20
7.062500000000003
 30
0.0
 11
6.732050807568871
 21
23.0
 31
0.0
  0
LINE
  5
F2
330
ED
100
AcDbEntity
  8
치수문자_일반주서
 62
     0
370
    -2
100
AcDbLine
 10
38.43005080756888
 20
23.0
 30
0.0
 11
10.03405080756887
 21
23.0
 31
0.0
  0
SOLID
  5
F3
330
ED
100
AcDbEntity
  8
치수문자_일반주서
 62
     0
100
AcDbTrace
 10
38.43005080756888
 20
22.44966666666667
 30
0.0
 11
38.43005080756888
 21
23.55033333333334
 31
0.0
 12
41.73205080756888
 22
23.0
 32
0.0
 13
41.73205080756888
 23
23.0
 33
0.0
  0
SOLID
  5
F4
330
ED
100
AcDbEntity
  8
치수문자_일반주서
 62
     0
100
AcDbTrace
 10
10.03405080756887
 20
23.55033333333334
 30
0.0
 11
10.03405080756887
 21
22.44966666666667
 31
0.0
 12
6.732050807568871
 22
23.0
 32
0.0
 13
6.732050807568871
 23
23.0
 33
0.0
  0
MTEXT
  5
F5
330
ED
100
AcDbEntity
  8
치수문자_일반주서
 62
     0
100
AcDbMText
 10
24.23205080756887
 20
27.375
 30
0.0
 40
3.5
 41
0.0
 71
     2
 72
     1
  1
\A1;35
  7
SLDTEXTSTYLE0
 73
     1
 44
1.0
  0
POINT
  5
1AE
330
ED
100
AcDbEntity
  8
Defpoints
 62
     0
100
AcDbPoint
 10
41.73205080756888
 20
6.939863559395556
 30
0.0
  0
POINT
  5
1AF
330
ED
100
AcDbEntity
  8
Defpoints
 62
     0
100
AcDbPoint
 10
6.732050807568871
 20
7.000000000000003
 30
0.0
  0
POINT
  5
1B0
330
ED
100
AcDbEntity
  8
Defpoints
 62
     0
100
AcDbPoint
 10
6.732050807568871
 20
23.0
 30
0.0
  0
ENDBLK
  5
EF
330
ED
100
AcDbEntity
  8
0
100
AcDbBlockEnd
  0
BLOCK
  5
F8
330
F7
100
AcDbEntity
  8
0
100
AcDbBlockBegin
  2
_D_2
 70
     0
 10
0.0
 20
0.0
 30
0.0
  3
_D_2
  1

  0
LINE
  5
FA
330
F7
100
AcDbEntity
  8
치수문자_일반주서
 62
     0
370
    -2
100
AcDbLine
 10
41.73205080756888
 20
7.002363559395556
 30
0.0
 11
41.73205080756889
 21
38.00000000000001
 31
0.0
  0
LINE
  5
FB
330
F7
100
AcDbEntity
  8
치수문자_일반주서
 62
     0
370
    -2
100
AcDbLine
 10
-108.2679491924311
 20
7.062499999999988
 30
0.0
 11
-108.2679491924311
 21
38.00000000000001
 31
0.0
  0
LINE
  5
FC
330
F7
100
AcDbEntity
  8
치수문자_일반주서
 62
     0
370
    -2
100
AcDbLine
 10
38.43005080756889
 20
38.00000000000001
 30
0.0
 11
-104.9659491924311
 21
38.00000000000001
 31
0.0
  0
SOLID
  5
FD
330
F7
100
AcDbEntity
  8
치수문자_일반주서
 62
     0
100
AcDbTrace
 10
38.43005080756889
 20
37.44966666666667
 30
0.0
 11
38.43005080756889
 21
38.55033333333334
 31
0.0
 12
41.73205080756889
 22
38.00000000000001
 32
0.0
 13
41.73205080756889
 23
38.00000000000001
 33
0.0
  0
SOLID
  5
FE
330
F7
100
AcDbEntity
  8
치수문자_일반주서
 62
     0
100
AcDbTrace
 10
-104.9659491924311
 20
38.55033333333334
 30
0.0
 11
-104.9659491924311
 21
37.44966666666667
 31
0.0
 12
-108.2679491924311
 22
38.00000000000001
 32
0.0
 13
-108.2679491924311
 23
38.00000000000001
 33
0.0
  0
MTEXT
  5
FF
330
F7
100
AcDbEntity
  8
치수문자_일반주서
 62
     0
100
AcDbMText
 10
-33.2679491924311
 20
42.37500000000001
 30
0.0
 40
3.5
 41
0.0
 71
     2
 72
     1
  1
\A1;150
  7
SLDTEXTSTYLE0
 73
     1
 44
1.0
  0
POINT
  5
1B1
330
F7
100
AcDbEntity
  8
Defpoints
 62
     0
100
AcDbPoint
 10
41.73205080756888
 20
6.939863559395556
 30
0.0
  0
POINT
  5
1B2
330
F7
100
AcDbEntity
  8
Defpoints
 62
     0
100
AcDbPoint
 10
-108.2679491924311
 20
6.999999999999988
 30
0.0
  0
POINT
  5
1B3
330
F7
100
AcDbEntity
  8
Defpoints
 62
     0
100
AcDbPoint
 10
-108.2679491924311
 20
38.00000000000001
 30
0.0
  0
ENDBLK
  5
F9
330
F7
100
AcDbEntity
  8
0
100
AcDbBlockEnd
  0
BLOCK
  5
102
330
101
100
AcDbEntity
  8
0
100
AcDbBlockBegin
  2
_D_3
 70
     0
 10
0.0
 20
0.0
 30
0.0
  3
_D_3
  1

  0
LINE
  5
104
330
101
100
AcDbEntity
  8
치수문자_일반주서
 62
     0
370
    -2
100
AcDbLine
 10
-107.3304491924311
 20
-8.0
 30
0.0
 11
-123.267949192431
 21
-8.00000000000006
 31
0.0
  0
LINE
  5
105
330
101
100
AcDbEntity
  8
치수문자_일반주서
 62
     0
370
    -2
100
AcDbLine
 10
-107.3304491924311
 20
7.999999999999985
 30
0.0
 11
-123.2679491924311
 21
7.999999999999925
 31
0.0
  0
LINE
  5
106
330
101
100
AcDbEntity
  8
치수문자_일반주서
 62
     0
370
    -2
100
AcDbLine
 10
-123.2679491924311
 20
7.999999999999925
 30
0.0
 11
-123.2679491924312
 21
22.47899999999993
 31
0.0
  0
LINE
  5
107
330
101
100
AcDbEntity
  8
치수문자_일반주서
 62
     0
370
    -2
100
AcDbLine
 10
-123.267949192431
 20
-8.00000000000006
 30
0.0
 11
-123.2679491924311
 21
7.999999999999925
 31
0.0
  0
LINE
  5
108
330
101
100
AcDbEntity
  8
치수문자_일반주서
 62
     0
370
    -2
100
AcDbLine
 10
-123.267949192431
 20
-11.30200000000006
 30
0.0
 11
-123.267949192431
 21
-14.60400000000006
 31
0.0
  0
LINE
  5
109
330
101
100
AcDbEntity
  8
치수문자_일반주서
 62
     0
370
    -2
100
AcDbLine
 10
-123.2679491924311
 20
11.30199999999992
 30
0.0
 11
-123.2679491924311
 21
14.60399999999992
 31
0.0
  0
SOLID
  5
10A
330
101
100
AcDbEntity
  8
치수문자_일반주서
 62
     0
100
AcDbTrace
 10
-122.7176158590977
 20
-11.30200000000006
 30
0.0
 11
-123.8182825257644
 21
-11.30200000000006
 31
0.0
 12
-123.267949192431
 22
-8.00000000000006
 32
0.0
 13
-123.267949192431
 23
-8.00000000000006
 33
0.0
  0
SOLID
  5
1B4
330
101
100
AcDbEntity
  8
치수문자_일반주서
 62
     0
100
AcDbTrace
 10
-123.8182825257644
 20
11.30199999999992
 30
0.0
 11
-122.7176158590978
 21
11.30199999999993
 31
0.0
 12
-123.2679491924311
 22
7.999999999999925
 32
0.0
 13
-123.2679491924311
 23
7.999999999999925
 33
0.0
  0
MTEXT
  5
1B5
330
101
100
AcDbEntity
  8
치수문자_일반주서
 62
     0
100
AcDbMText
 10
-127.6429491924311
 20
18.54149999999991
 30
0.0
 40
3.5
 41
0.0
 71
     2
 72
     1
  1
\A1;%%c16
  7
SLDTEXTSTYLE0
 11
-3.552713678800504E-15
 21
1.0
 31
0.0
 73
     1
 44
1.0
  0
POINT
  5
1BC
330
101
100
AcDbEntity
  8
Defpoints
 62
     0
100
AcDbPoint
 10
-107.2679491924311
 20
-8.0
 30
0.0
  0
POINT
  5
1BD
330
101
100
AcDbEntity
  8
Defpoints
 62
     0
100
AcDbPoint
 10
-107.2679491924311
 20
7.999999999999985
 30
0.0
  0
POINT
  5
1BE
330
101
100
AcDbEntity
  8
Defpoints
 62
     0
100
AcDbPoint
 10
-123.2679491924311
 20
7.999999999999925
 30
0.0
  0
ENDBLK
  5
103
330
101
100
AcDbEntity
  8
0
100
AcDbBlockEnd
  0
BLOCK
  5
10C
330
10B
100
AcDbEntity
  8
0
100
AcDbBlockBegin
  2
SW_DOWELSYMBOL_0
 70
     0
 10
0.0
 20
0.0
 30
0.0
  3
SW_DOWELSYMBOL_0
  1

  0
CIRCLE
  5
10E
330
10B
100
AcDbEntity
  8
외형선
 62
     0
100
AcDbCircle
 10
0.0
 20
0.0
 30
0.0
 40
3.000000000000001
  0
HATCH
  5
10F
330
10B
100
AcDbEntity
  8
0
  6
Continuous
 62
     0
370
    30
100
AcDbHatch
 10
0.0
 20
0.0
 30
0.0
210
0.0
220
0.0
230
1.0
  2
SOLID
 70
     1
 71
     0
 91
        1
 92
        0
 93
        3
 72
     2
 10
-0.0000000000000069
 20
-0.0000000000000035
 40
3.000000000000001
 50
0.0
 51
90.0
 73
     1
 72
     1
 10
-0.0000000000000069
 20
2.999999999999998
 11
-0.0000000000000069
 21
-0.0000000000000036
 72
     1
 10
-0.0000000000000069
 20
-0.0000000000000035
 11
2.999999999999994
 21
-0.0000000000000035
 97
        0
 75
     0
 76
     1
 98
        1
 10
0.0
 20
0.0
  0
HATCH
  5
110
330
10B
100
AcDbEntity
  8
0
  6
Continuous
 62
     0
370
    30
100
AcDbHatch
 10
0.0
 20
0.0
 30
0.0
210
0.0
220
0.0
230
1.0
  2
SOLID
 70
     1
 71
     0
 91
        1
 92
        0
 93
        3
 72
     2
 10
-0.0000000000000069
 20
-0.0000000000000035
 40
3.000000000000001
 50
180.0
 51
270.0000000000007
 73
     1
 72
     1
 10
-0.0000000000000069
 20
-3.000000000000005
 11
-0.0000000000000069
 21
-0.0000000000000036
 72
     1
 10
-0.0000000000000069
 20
-0.0000000000000035
 11
-3.000000000000008
 21
-0.0000000000000035
 97
        0
 75
     0
 76
     1
 98
        1
 10
0.0
 20
0.0
  0
ENDBLK
  5
10D
330
10B
100
AcDbEntity
  8
0
100
AcDbBlockEnd
  0
BLOCK
  5
16F
330
16E
100
AcDbEntity
  8
0
100
AcDbBlockBegin
  2
*D7
 70
     1
 10
0.0
 20
0.0
 30
0.0
  3
*D7
  1

  0
LINE
  5
170
330
16E
100
AcDbEntity
  8
치수문자_일반주서
 62
     0
370
    -2
100
AcDbLine
 10
1.745999999999734
 20
10.43733816641008
 30
0.0
 11
7.771999999998771
 21
-0.0000000000005396
 31
0.0
  0
MTEXT
  5
171
330
16E
100
AcDbEntity
  8
치수문자_일반주서
 62
     0
100
AcDbMText
 10
7.967191684933378
 20
4.911918084478515
 30
0.0
 40
3.5
 41
0.0
 71
     5
 72
     1
  1
\A1;R0.1
  7
SLDTEXTSTYLE0
 11
0.4999999999999198
 21
-0.866025403784485
 31
0.0
 73
     1
 44
1.0
  0
SOLID
  5
172
330
16E
100
AcDbEntity
  8
치수문자_일반주서
 62
     0
100
AcDbTrace
 10
2.222602647215795
 20
10.71250483307671
 30
0.0
 11
1.269397352783672
 21
10.16217149974346
 31
0.0
 12
0.0949999999999989
 22
13.29695404970645
 32
0.0
 13
0.0949999999999989
 23
13.29695404970645
 33
0.0
  0
LINE
  5
173
330
16E
100
AcDbEntity
  8
치수문자_일반주서
 62
     0
100
AcDbLine
 10
0.0000000000000088
 20
13.3835565900849
 30
0.0
 11
0.0900000000000088
 21
13.3835565900849
 31
0.0
  0
LINE
  5
174
330
16E
100
AcDbEntity
  8
치수문자_일반주서
 62
     0
100
AcDbLine
 10
0.0450000000000088
 20
13.3385565900849
 30
0.0
 11
0.0450000000000088
 21
13.4285565900849
 31
0.0
  0
POINT
  5
175
330
16E
100
AcDbEntity
  8
Defpoints
 62
     0
100
AcDbPoint
 10
0.0949999999999989
 20
13.29695404970645
 30
0.0
  0
POINT
  5
176
330
16E
100
AcDbEntity
  8
Defpoints
 62
     0
100
AcDbPoint
 10
0.0450000000000088
 20
13.3835565900849
 30
0.0
  0
ENDBLK
  5
177
330
16E
100
AcDbEntity
  8
0
100
AcDbBlockEnd
  0
BLOCK
  5
17D
330
17C
100
AcDbEntity
  8
0
100
AcDbBlockBegin
  2
*D8
 70
     1
 10
0.0
 20
0.0
 30
0.0
  3
*D8
  1

  0
LINE
  5
17F
330
17C
100
AcDbEntity
  8
치수문자_일반주서
 62
     0
370
    -2
100
AcDbLine
 10
0.1890600798750519
 20
13.2653469445261
 30
0.0
 11
10.12656007987507
 21
13.26534694452613
 31
0.0
  0
LINE
  5
180
330
17C
100
AcDbEntity
  8
치수문자_일반주서
 62
     0
370
    -2
100
AcDbLine
 10
0.1890600798750413
 20
21.26534694452609
 30
0.0
 11
10.12656007987504
 21
21.26534694452613
 31
0.0
  0
LINE
  5
181
330
17C
100
AcDbEntity
  8
치수문자_일반주서
 62
     0
370
    -2
100
AcDbLine
 10
10.12656007987504
 20
21.26534694452613
 30
0.0
 11
10.126560079875
 21
33.99434694452617
 31
0.0
  0
LINE
  5
182
330
17C
100
AcDbEntity
  8
치수문자_일반주서
 62
     0
370
    -2
100
AcDbLine
 10
10.12656007987507
 20
13.26534694452613
 30
0.0
 11
10.12656007987504
 21
21.26534694452613
 31
0.0
  0
LINE
  5
183
330
17C
100
AcDbEntity
  8
치수문자_일반주서
 62
     0
370
    -2
100
AcDbLine
 10
10.12656007987508
 20
9.963346944526133
 30
0.0
 11
10.1265600798751
 21
6.661346944526134
 31
0.0
  0
LINE
  5
184
330
17C
100
AcDbEntity
  8
치수문자_일반주서
 62
     0
370
    -2
100
AcDbLine
 10
10.12656007987503
 20
24.56734694452613
 30
0.0
 11
10.12656007987502
 21
27.86934694452613
 31
0.0
  0
SOLID
  5
185
330
17C
100
AcDbEntity
  8
치수문자_일반주서
 62
     0
100
AcDbTrace
 10
10.67689341320842
 20
9.963346944526135
 30
0.0
 11
9.576226746541751
 21
9.963346944526132
 31
0.0
 12
10.12656007987507
 22
13.26534694452613
 32
0.0
 13
10.12656007987507
 23
13.26534694452613
 33
0.0
  0
SOLID
  5
186
330
17C
100
AcDbEntity
  8
치수문자_일반주서
 62
     0
100
AcDbTrace
 10
9.576226746541698
 20
24.56734694452613
 30
0.0
 11
10.67689341320836
 21
24.56734694452613
 31
0.0
 12
10.12656007987504
 22
21.26534694452613
 32
0.0
 13
10.12656007987504
 23
21.26534694452613
 33
0.0
  0
MTEXT
  5
187
330
17C
100
AcDbEntity
  8
치수문자_일반주서
 62
     0
100
AcDbMText
 10
5.751560079875009
 20
30.93184694452615
 30
0.0
 40
3.5
 41
0.0
 71
     2
 72
     1
  1
\A1;%%c8
  7
SLDTEXTSTYLE0
 11
-3.552713678800502E-15
 21
1.0
 31
0.0
 73
     1
 44
1.0
  0
POINT
  5
188
330
17C
100
AcDbEntity
  8
Defpoints
 62
     0
100
AcDbPoint
 10
0.1265600798750519
 20
13.2653469445261
 30
0.0
  0
POINT
  5
189
330
17C
100
AcDbEntity
  8
Defpoints
 62
     0
100
AcDbPoint
 10
0.1265600798750413
 20
21.26534694452609
 30
0.0
  0
POINT
  5
18A
330
17C
100
AcDbEntity
  8
Defpoints
 62
     0
100
AcDbPoint
 10
10.12656007987504
 20
21.26534694452613
 30
0.0
  0
ENDBLK
  5
17E
330
17C
100
AcDbEntity
  8
0
100
AcDbBlockEnd
  0
BLOCK
  5
18F
330
18E
100
AcDbEntity
  8
0
100
AcDbBlockBegin
  2
*D9
 70
     1
 10
0.0
 20
0.0
 30
0.0
  3
*D9
  1

  0
LINE
  5
191
330
18E
100
AcDbEntity
  8
치수문자_일반주서
 62
     0
370
    -2
100
AcDbLine
 10
60.64057160724577
 20
21.0845282560816
 30
0.0
 11
70.57807160724579
 21
21.08452825608164
 31
0.0
  0
LINE
  5
192
330
18E
100
AcDbEntity
  8
치수문자_일반주서
 62
     0
370
    -2
100
AcDbLine
 10
60.64057160724577
 20
29.0845282560816
 30
0.0
 11
70.57807160724576
 21
29.08452825608164
 31
0.0
  0
LINE
  5
193
330
18E
100
AcDbEntity
  8
치수문자_일반주서
 62
     0
370
    -2
100
AcDbLine
 10
70.57807160724576
 20
29.08452825608164
 30
0.0
 11
70.57807160724572
 21
41.81352825608167
 31
0.0
  0
LINE
  5
194
330
18E
100
AcDbEntity
  8
치수문자_일반주서
 62
     0
370
    -2
100
AcDbLine
 10
70.57807160724579
 20
21.08452825608164
 30
0.0
 11
70.57807160724576
 21
29.08452825608164
 31
0.0
  0
LINE
  5
195
330
18E
100
AcDbEntity
  8
치수문자_일반주서
 62
     0
370
    -2
100
AcDbLine
 10
70.5780716072458
 20
17.78252825608164
 30
0.0
 11
70.57807160724582
 21
14.48052825608164
 31
0.0
  0
LINE
  5
196
330
18E
100
AcDbEntity
  8
치수문자_일반주서
 62
     0
370
    -2
100
AcDbLine
 10
70.57807160724575
 20
32.38652825608163
 30
0.0
 11
70.57807160724573
 21
35.68852825608163
 31
0.0
  0
SOLID
  5
197
330
18E
100
AcDbEntity
  8
치수문자_일반주서
 62
     0
100
AcDbTrace
 10
71.12840494057913
 20
17.78252825608164
 30
0.0
 11
70.02773827391248
 21
17.78252825608164
 31
0.0
 12
70.57807160724579
 22
21.08452825608164
 32
0.0
 13
70.57807160724579
 23
21.08452825608164
 33
0.0
  0
SOLID
  5
198
330
18E
100
AcDbEntity
  8
치수문자_일반주서
 62
     0
100
AcDbTrace
 10
70.02773827391242
 20
32.38652825608163
 30
0.0
 11
71.12840494057907
 21
32.38652825608163
 31
0.0
 12
70.57807160724576
 22
29.08452825608164
 32
0.0
 13
70.57807160724576
 23
29.08452825608164
 33
0.0
  0
MTEXT
  5
199
330
18E
100
AcDbEntity
  8
치수문자_일반주서
 62
     0
100
AcDbMText
 10
66.20307160724573
 20
38.75102825608166
 30
0.0
 40
3.5
 41
0.0
 71
     2
 72
     1
  1
\A1;%%c8
  7
SLDTEXTSTYLE0
 11
-3.552713678800503E-15
 21
1.0
 31
0.0
 73
     1
 44
1.0
  0
POINT
  5
19A
330
18E
100
AcDbEntity
  8
Defpoints
 62
     0
100
AcDbPoint
 10
60.57807160724577
 20
21.0845282560816
 30
0.0
  0
POINT
  5
19B
330
18E
100
AcDbEntity
  8
Defpoints
 62
     0
100
AcDbPoint
 10
60.57807160724577
 20
29.0845282560816
 30
0.0
  0
POINT
  5
19C
330
18E
100
AcDbEntity
  8
Defpoints
 62
     0
100
AcDbPoint
 10
70.57807160724577
 20
29.08452825608164
 30
0.0
  0
ENDBLK
  5
190
330
18E
100
AcDbEntity
  8
0
100
AcDbBlockEnd
  0
BLOCK
  5
19E
330
19D
100
AcDbEntity
  8
0
100
AcDbBlockBegin
  2
*D10
 70
     1
 10
0.0
 20
0.0
 30
0.0
  3
*D10
  1

  0
LINE
  5
1A0
330
19D
100
AcDbEntity
  8
치수문자_일반주서
 62
     0
370
    -2
100
AcDbLine
 10
71.57763275291744
 20
-9.254733168208295
 30
0.0
 11
77.05675775291706
 21
-18.74485604922935
 31
0.0
  0
MTEXT
  5
1A1
330
19D
100
AcDbEntity
  8
치수문자_일반주서
 62
     0
100
AcDbMText
 10
77.79882443785137
 20
-14.78015325013953
 30
0.0
 40
3.5
 41
0.0
 71
     5
 72
     1
  1
\A1;R2
  7
SLDTEXTSTYLE0
 11
0.4999999999999654
 21
-0.8660254037844587
 31
0.0
 73
     1
 44
1.0
  0
SOLID
  5
1A2
330
19D
100
AcDbEntity
  8
치수문자_일반주서
 62
     0
100
AcDbTrace
 10
72.05423540013348
 20
-8.979566501541647
 30
0.0
 11
71.1010301057014
 21
-9.529899834874943
 31
0.0
 12
69.92663275291756
 22
-6.395117284912013
 32
0.0
 13
69.92663275291756
 23
-6.395117284912013
 33
0.0
  0
LINE
  5
1A3
330
19D
100
AcDbEntity
  8
치수문자_일반주서
 62
     0
100
AcDbLine
 10
69.83163275291756
 20
-6.308514744533566
 30
0.0
 11
69.92163275291756
 21
-6.308514744533566
 31
0.0
  0
LINE
  5
1A4
330
19D
100
AcDbEntity
  8
치수문자_일반주서
 62
     0
100
AcDbLine
 10
69.87663275291756
 20
-6.353514744533566
 30
0.0
 11
69.87663275291756
 21
-6.263514744533566
 31
0.0
  0
POINT
  5
1A5
330
19D
100
AcDbEntity
  8
Defpoints
 62
     0
100
AcDbPoint
 10
69.92663275291756
 20
-6.395117284912013
 30
0.0
  0
POINT
  5
1A6
330
19D
100
AcDbEntity
  8
Defpoints
 62
     0
100
AcDbPoint
 10
69.87663275291756
 20
-6.308514744533566
 30
0.0
  0
ENDBLK
  5
19F
330
19D
100
AcDbEntity
  8
0
100
AcDbBlockEnd
  0
BLOCK
  5
1F1
330
1F0
100
AcDbEntity
  8
0
100
AcDbBlockBegin
  2
*D11
 70
     1
 10
0.0
 20
0.0
 30
0.0
  3
*D11
  1

  0
LINE
  5
1F3
330
1F0
100
AcDbEntity
  8
치수문자_일반주서
 62
     0
370
    -2
100
AcDbLine
 10
42.55319431655101
 20
-9.489137255835251
 30
0.0
 11
56.1925323328563
 21
-31.19269832565756
 31
0.0
  0
MTEXT
  5
1F4
330
1F0
100
AcDbEntity
  8
치수문자_일반주서
 62
     0
100
AcDbMText
 10
56.78556011488379
 20
-27.20298037826535
 30
0.0
 40
3.5
 41
0.0
 71
     5
 72
     1
  1
\A1;R2
  7
SLDTEXTSTYLE0
 11
0.5320904392648277
 21
-0.846687524676585
 31
0.0
 73
     1
 44
1.0
  0
SOLID
  5
1F5
330
1F0
100
AcDbEntity
  8
치수문자_일반주서
 62
     0
100
AcDbTrace
 10
43.01915468429802
 20
-9.19631015075984
 30
0.0
 11
42.08723394880399
 21
-9.781964360910662
 31
0.0
 12
40.79623168609854
 22
-6.693375049353167
 32
0.0
 13
40.79623168609854
 23
-6.693375049353167
 33
0.0
  0
LINE
  5
1F6
330
1F0
100
AcDbEntity
  8
치수문자_일반주서
 62
     0
100
AcDbLine
 10
39.68705080756889
 20
-4.999999999999998
 30
0.0
 11
39.77705080756889
 21
-4.999999999999998
 31
0.0
  0
LINE
  5
1F7
330
1F0
100
AcDbEntity
  8
치수문자_일반주서
 62
     0
100
AcDbLine
 10
39.73205080756889
 20
-5.044999999999998
 30
0.0
 11
39.73205080756889
 21
-4.954999999999998
 31
0.0
  0
POINT
  5
1F8
330
1F0
100
AcDbEntity
  8
Defpoints
 62
     0
100
AcDbPoint
 10
40.79623168609854
 20
-6.693375049353167
 30
0.0
  0
POINT
  5
1F9
330
1F0
100
AcDbEntity
  8
Defpoints
 62
     0
100
AcDbPoint
 10
39.73205080756889
 20
-4.999999999999998
 30
0.0
  0
ENDBLK
  5
1F2
330
1F0
100
AcDbEntity
  8
0
100
AcDbBlockEnd
  0
ENDSEC
  0
SECTION
  2
ENTITIES
  0
LINE
  5
95
330
1F
100
AcDbEntity
  8
0
  6
Continuous
 62
   131
370
    15
100
AcDbLine
 10
4.73205080756888
 20
7.999999999999996
 30
0.0
 11
-107.2679491924311
 21
7.99999999999999
 31
0.0
  0
LINE
  5
96
330
1F
100
AcDbEntity
  8
0
  6
Continuous
 62
   131
370
    15
100
AcDbLine
 10
-107.2679491924311
 20
-8.0
 30
0.0
 11
4.732050807568768
 21
-7.999999999999993
 31
0.0
  0
LINE
  5
99
330
1F
100
AcDbEntity
  8
0
  6
Continuous
 62
   131
370
    15
100
AcDbLine
 10
-107.2679491924311
 20
7.999999999999985
 30
0.0
 11
-108.2679491924311
 21
6.999999999999988
 31
0.0
  0
LINE
  5
9A
330
1F
100
AcDbEntity
  8
0
  6
Continuous
 62
   131
370
    15
100
AcDbLine
 10
-108.2679491924311
 20
-6.999999999999997
 30
0.0
 11
-107.2679491924311
 21
-7.999999999999995
 31
0.0
  0
LINE
  5
9B
330
1F
100
AcDbEntity
  8
0
  6
Continuous
 62
   131
370
    15
100
AcDbLine
 10
6.732050807568871
 20
7.000000000000003
 30
0.0
 11
5.732050807568873
 21
7.000000000000003
 31
0.0
  0
LINE
  5
9C
330
1F
100
AcDbEntity
  8
0
  6
Continuous
 62
   131
370
    15
100
AcDbLine
 10
5.732050807568873
 20
-6.999999999999997
 30
0.0
 11
6.732050807568871
 21
-6.999999999999997
 31
0.0
  0
SPLINE
  5
9D
330
1F
100
AcDbEntity
  8
0
  6
Continuous
 62
     1
370
    15
100
AcDbSpline
210
0.0
220
0.0
230
1.0
 70
     8
 71
     3
 72
     9
 73
     5
 74
     0
 42
0.000000001
 43
0.00000001
 40
0.0
 40
0.0
 40
0.0
 40
0.0
 40
0.5125506968706244
 40
0.9999999999999999
 40
0.9999999999999999
 40
0.9999999999999999
 40
0.9999999999999999
 10
23.59790599707026
 20
1.793514135574878
 30
0.0
 10
23.26571753485797
 20
1.951790617211934
 30
0.0
 10
22.61760903702452
 20
2.260592229624935
 30
0.0
 10
21.96986041298886
 20
2.599780382128051
 30
0.0
 10
21.65411579759967
 20
2.765117410695435
 30
0.0
  0
LINE
  5
9E
330
1F
100
AcDbEntity
  8
0
  6
Continuous
 62
     1
370
    15
100
AcDbLine
 10
7.531907803287849
 20
7.000000000000004
 30
0.0
 11
6.732050807568875
 21
7.000000000000004
 31
0.0
1001
PE_URL
1000

  0
SPLINE
  5
9F
330
1F
100
AcDbEntity
  8
0
  6
Continuous
 62
     1
370
    15
100
AcDbSpline
210
0.0
220
0.0
230
1.0
 70
     8
 71
     3
 72
    10
 73
     6
 74
     0
 42
0.000000001
 43
0.00000001
 40
0.0
 40
0.0
 40
0.0
 40
0.0
 40
0.3802786618449523
 40
0.9115622797845312
 40
1.0
 40
1.0
 40
1.0
 40
1.0
 10
21.28316093647765
 20
5.562472879377695
 30
0.0
 10
20.55238659173196
 20
5.53129202981705
 30
0.0
 10
18.80065452116938
 20
5.456548718758731
 30
0.0
 10
16.88060673798227
 20
5.450336884897789
 30
0.0
 10
15.69020279404268
 20
5.501834056851172
 30
0.0
 10
15.52032545651072
 20
5.509182992904687
 30
0.0
  0
SPLINE
  5
A0
330
1F
100
AcDbEntity
  8
0
  6
Continuous
 62
     1
370
    15
100
AcDbSpline
210
0.0
220
0.0
230
1.0
 70
     8
 71
     3
 72
    23
 73
    19
 74
     0
 42
0.000000001
 43
0.00000001
 40
0.0
 40
0.0
 40
0.0
 40
0.0
 40
0.0704807626012599
 40
0.1238347378859929
 40
0.161315630531435
 40
0.1990519615304344
 40
0.2413657932917077
 40
0.2874123606390694
 40
0.3999027373788501
 40
0.5041222943538416
 40
0.5838355476008962
 40
0.6585751149313782
 40
0.7293247520225016
 40
0.7587281535427426
 40
0.7917044282725051
 40
0.8425111772886693
 40
0.9120000519437017
 40
1.0
 40
1.0
 40
1.0
 40
1.0
 10
39.1698270096228
 20
4.790983154966377
 30
0.0
 10
38.88302170545143
 20
4.767415752780205
 30
0.0
 10
38.37910463140804
 20
4.726007814434118
 30
0.0
 10
37.72076992845567
 20
4.685178589438125
 30
0.0
 10
37.18898149160475
 20
4.65784674522318
 30
0.0
 10
36.70464834088003
 20
4.637588097709479
 30
0.0
 10
36.18807382224387
 20
4.621243160954298
 30
0.0
 10
35.36693787311468
 20
4.604733767760662
 30
0.0
 10
34.29669355650537
 20
4.604880477902165
 30
0.0
 10
33.06816685063644
 20
4.639365031278302
 30
0.0
 10
32.00804043514281
 20
4.694435677046325
 30
0.0
 10
31.10900018925887
 20
4.758867143314291
 30
0.0
 10
30.3899548687868
 20
4.822405491303129
 30
0.0
 10
29.84618704304799
 20
4.877111013713634
 30
0.0
 10
29.38387236328904
 20
4.926990657663355
 30
0.0
 10
28.75851472825742
 20
5.00106791200427
 30
0.0
 10
27.90708448419113
 20
5.11198638594838
 30
0.0
 10
27.2618080994885
 20
5.210149400502378
 30
0.0
 10
26.90124734756853
 20
5.264999897401675
 30
0.0
  0
SPLINE
  5
A1
330
1F
100
AcDbEntity
  8
0
  6
Continuous
 62
     1
370
    15
100
AcDbSpline
210
0.0
220
0.0
230
1.0
 70
     8
 71
     3
 72
    12
 73
     8
 74
     0
 42
0.000000001
 43
0.00000001
 40
0.0
 40
0.0
 40
0.0
 40
0.0
 40
0.2087183008013099
 40
0.5009949947839876
 40
0.6986392367182278
 40
0.7918358226005568
 40
1.0
 40
1.0
 40
1.0
 40
1.0
 10
10.75556911933956
 20
-5.824954089031585
 30
0.0
 10
11.48824961720571
 20
-5.757715380583759
 30
0.0
 10
13.24693230481639
 20
-5.59631958415013
 30
0.0
 10
15.69762828102678
 20
-5.481208139188747
 30
0.0
 10
17.74431911774084
 20
-5.46086805699943
 30
0.0
 10
19.49410027544089
 20
-5.482747630870944
 30
0.0
 10
20.5522480584456
 20
-5.529901479141256
 30
0.0
 10
21.28316093647765
 20
-5.562472879377689
 30
0.0
1001
PE_URL
1000

  0
SPLINE
  5
A2
330
1F
100
AcDbEntity
  8
0
  6
Continuous
 62
     1
370
    15
100
AcDbSpline
210
0.0
220
0.0
230
1.0
 70
     8
 71
     3
 72
    14
 73
    10
 74
     0
 42
0.000000001
 43
0.00000001
 40
0.0
 40
0.0
 40
0.0
 40
0.0
 40
0.1804358776819721
 40
0.3100127318105901
 40
0.4114526762859505
 40
0.5300664720252751
 40
0.6639325694043178
 40
0.9299607702983962
 40
1.0
 40
1.0
 40
1.0
 40
1.0
 10
26.90124734756854
 20
-5.264999897401668
 30
0.0
 10
27.21211279257162
 20
-5.217411835470293
 30
0.0
 10
27.74622079298149
 20
-5.135649243293806
 30
0.0
 10
28.46355573206024
 20
-5.039064650810164
 30
0.0
 10
29.08237784405967
 20
-4.961946704822614
 30
0.0
 10
29.70184642097458
 20
-4.891255226952371
 30
0.0
 10
30.60598943668335
 20
-4.801122988559168
 30
0.0
 10
31.42548971005127
 20
-4.729647274073297
 30
0.0
 10
32.01156709891406
 20
-4.699725055427935
 30
0.0
 10
32.13371046992958
 20
-4.693489017793556
 30
0.0
1001
PE_URL
1000

  0
LINE
  5
A3
330
1F
100
AcDbEntity
  8
0
  6
Continuous
 62
     1
370
    15
100
AcDbLine
 10
6.732050807568875
 20
-7.000000000000001
 30
0.0
 11
7.531907803287831
 21
-7.000000000000001
 31
0.0
1001
PE_URL
1000

  0
LINE
  5
A4
330
1F
100
AcDbEntity
  8
0
  6
Continuous
 62
   131
370
    15
100
AcDbLine
 10
4.73205080756888
 20
7.999999999999996
 30
0.0
 11
4.73205080756888
 21
-7.999999999999999
 31
0.0
  0
LINE
  5
A5
330
1F
100
AcDbEntity
  8
0
  6
Continuous
 62
   131
370
    15
100
AcDbLine
 10
-107.2679491924311
 20
7.999999999999985
 30
0.0
 11
-107.2679491924311
 21
-8.0
 31
0.0
  0
LINE
  5
A6
330
1F
100
AcDbEntity
  8
0
  6
Continuous
 62
   131
370
    15
100
AcDbLine
 10
5.732050807568873
 20
7.000000000000003
 30
0.0
 11
5.732050807568873
 21
6.939863559395559
 31
0.0
  0
LINE
  5
AA
330
1F
100
AcDbEntity
  8
0
  6
Continuous
 62
   131
370
    15
100
AcDbLine
 10
5.732050807568873
 20
-6.92280912668535
 30
0.0
 11
5.732050807568873
 21
-6.999999999999997
 31
0.0
  0
LINE
  5
AB
330
1F
100
AcDbEntity
  8
0
  6
Continuous
 62
   131
370
    15
100
AcDbLine
 10
-108.2679491924311
 20
6.999999999999988
 30
0.0
 11
-108.2679491924311
 21
-6.999999999999997
 31
0.0
  0
SPLINE
  5
AE
330
1F
100
AcDbEntity
  8
0
  6
Continuous
 62
   131
370
    15
100
AcDbSpline
210
0.0
220
0.0
230
1.0
 70
    24
 71
     3
 72
    14
 73
    10
 74
     0
 42
0.000000001
 43
0.00000001
 40
0.0
 40
0.0
 40
0.0
 40
0.0
 40
0.2499999999999999
 40
0.2499999999999999
 40
0.4999999999999999
 40
0.4999999999999999
 40
0.7499999999999999
 40
0.7499999999999999
 40
1.0
 40
1.0
 40
1.0
 40
1.0
 10
6.732050807568875
 20
-1.412113747464876
 30
0.0
 10
6.732050807568875
 20
-1.915286180308364
 30
0.0
 10
6.732050807568875
 20
-2.409606137146765
 30
0.0
 10
6.732050807568875
 20
-3.34206314528398
 30
0.0
 10
6.732050807568875
 20
-3.779888213118301
 30
0.0
 10
6.732050807568875
 20
-4.564709390021227
 30
0.0
 10
6.732050807568875
 20
-4.911478866558053
 30
0.0
 10
6.732050807568875
 20
-5.492534898825771
 30
0.0
 10
6.732050807568875
 20
-5.726786178903015
 30
0.0
 10
6.732050807568875
 20
-5.902585391349516
 30
0.0
  0
SPLINE
  5
B0
330
1F
100
AcDbEntity
  8
0
  6
Continuous
 62
   131
370
    15
100
AcDbSpline
210
0.0
220
0.0
230
1.0
 70
    24
 71
     3
 72
    14
 73
    10
 74
     0
 42
0.000000001
 43
0.00000001
 40
0.0
 40
0.0
 40
0.0
 40
0.0
 40
0.25
 40
0.25
 40
0.5
 40
0.5
 40
0.75
 40
0.75
 40
1.0
 40
1.0
 40
1.0
 40
1.0
 10
6.73205080756885
 20
4.741655175553838
 30
0.0
 10
6.732050807568854
 20
4.461127006091792
 30
0.0
 10
6.73205080756885
 20
4.103805176192922
 30
0.0
 10
6.732050807568854
 20
3.248425607037866
 30
0.0
 10
6.732050807568854
 20
2.750510032209205
 30
0.0
 10
6.732050807568854
 20
1.656807874599519
 30
0.0
 10
6.732050807568854
 20
1.061604062053809
 30
0.0
 10
6.732050807568854
 20
-0.1644751272614708
 30
0.0
 10
6.73205080756885
 20
-0.7946876719849811
 30
0.0
 10
6.73205080756885
 20
-1.412113747464867
 30
0.0
  0
SPLINE
  5
B1
330
1F
100
AcDbEntity
  8
0
  6
Continuous
 62
   131
370
    15
100
AcDbSpline
210
0.0
220
0.0
230
1.0
 70
     8
 71
     3
 72
     8
 73
     4
 74
     0
 42
0.000000001
 43
0.00000001
 40
0.0
 40
0.0
 40
0.0
 40
0.0
 40
1.0
 40
1.0
 40
1.0
 40
1.0
 10
6.732050807568879
 20
-6.984750284093811
 30
0.0
 10
6.397796866864443
 20
-6.972019807633017
 30
0.0
 10
6.066039874139914
 20
-6.951379647079231
 30
0.0
 10
5.73205080756887
 20
-6.92280912668535
 30
0.0
  0
SPLINE
  5
B2
330
1F
100
AcDbEntity
  8
0
  6
Continuous
 62
   131
370
    15
100
AcDbSpline
210
0.0
220
0.0
230
1.0
 70
    24
 71
     3
 72
     8
 73
     4
 74
     0
 42
0.000000001
 43
0.00000001
 40
0.0
 40
0.0
 40
0.0
 40
0.0
 40
1.0
 40
1.0
 40
1.0
 40
1.0
 10
6.732050807568875
 20
-5.902585391349519
 30
0.0
 10
6.732050807568875
 20
-6.269013862696763
 30
0.0
 10
6.732050807568875
 20
-6.632079185696357
 30
0.0
 10
6.732050807568875
 20
-6.984750284085932
 30
0.0
  0
SPLINE
  5
B3
330
1F
100
AcDbEntity
  8
0
  6
Continuous
 62
   131
370
    15
100
AcDbSpline
210
0.0
220
0.0
230
1.0
 70
     8
 71
     3
 72
     8
 73
     4
 74
     0
 42
0.000000001
 43
0.00000001
 40
0.0
 40
0.0
 40
0.0
 40
0.0
 40
1.0
 40
1.0
 40
1.0
 40
1.0
 10
5.732050807568873
 20
6.939863559395559
 30
0.0
 10
6.066039874139914
 20
6.914630502897239
 30
0.0
 10
6.397796866864446
 20
6.881567418118545
 30
0.0
 10
6.732050807568879
 20
6.840624904494394
 30
0.0
  0
SPLINE
  5
B4
330
1F
100
AcDbEntity
  8
0
  6
Continuous
 62
   131
370
    15
100
AcDbSpline
210
0.0
220
0.0
230
1.0
 70
    24
 71
     3
 72
    10
 73
     6
 74
     0
 42
0.000000001
 43
0.00000001
 40
0.0
 40
0.0
 40
0.0
 40
0.0
 40
0.5
 40
0.5
 40
1.0
 40
1.0
 40
1.0
 40
1.0
 10
6.732050807568875
 20
6.840624904494386
 30
0.0
 10
6.732050807568875
 20
6.524003377759659
 30
0.0
 10
6.732050807568875
 20
6.164408373966684
 30
0.0
 10
6.732050807568875
 20
5.437571861410997
 30
0.0
 10
6.732050807568875
 20
5.072325442721029
 30
0.0
 10
6.732050807568875
 20
4.741655175553836
 30
0.0
  0
LINE
  5
B5
330
1F
100
AcDbEntity
  8
0
  6
Continuous
 62
   131
370
    15
100
AcDbLine
 10
6.732050807568871
 20
7.000000000000003
 30
0.0
 11
6.732050807568871
 21
6.840624904494396
 31
0.0
  0
LINE
  5
B6
330
1F
100
AcDbEntity
  8
0
  6
Continuous
 62
   131
370
    15
100
AcDbLine
 10
6.732050807568871
 20
-6.984750284093809
 30
0.0
 11
6.732050807568871
 21
-6.999999999999997
 31
0.0
  0
SPLINE
  5
B7
330
1F
100
AcDbEntity
  8
0
  6
Continuous
 62
     1
370
    15
100
AcDbSpline
210
0.0
220
0.0
230
1.0
 70
     8
 71
     3
 72
    54
 73
    50
 74
     0
 42
0.000000001
 43
0.00000001
 40
0.0
 40
0.0
 40
0.0
 40
0.0
 40
0.0625000000000003
 40
0.0625000000000003
 40
0.1250000000000007
 40
0.1250000000000007
 40
0.1562500000000009
 40
0.1562500000000009
 40
0.187500000000001
 40
0.187500000000001
 40
0.2500000000000013
 40
0.2500000000000013
 40
0.2812500000000016
 40
0.2812500000000016
 40
0.3125000000000017
 40
0.3125000000000017
 40
0.3437500000000019
 40
0.3437500000000019
 40
0.375000000000002
 40
0.375000000000002
 40
0.4375000000000024
 40
0.4375000000000024
 40
0.4687500000000026
 40
0.4687500000000026
 40
0.5000000000000026
 40
0.5000000000000026
 40
0.5312500000000027
 40
0.5312500000000027
 40
0.5625000000000027
 40
0.5625000000000027
 40
0.6250000000000027
 40
0.6250000000000027
 40
0.6562500000000024
 40
0.6562500000000024
 40
0.6875000000000023
 40
0.6875000000000023
 40
0.750000000000002
 40
0.750000000000002
 40
0.8125000000000017
 40
0.8125000000000017
 40
0.8437500000000013
 40
0.8437500000000013
 40
0.8750000000000011
 40
0.8750000000000011
 40
0.9375000000000006
 40
0.9375000000000006
 40
0.9687500000000002
 40
0.9687500000000002
 40
1.0
 40
1.0
 40
1.0
 40
1.0
 10
6.732050807568887
 20
6.840624904494396
 30
0.0
 10
7.419625932341249
 20
6.75640434495726
 30
0.0
 10
8.111136410885631
 20
6.638834604060254
 30
0.0
 10
9.479895216465447
 20
6.341926960630687
 30
0.0
 10
10.17291931563386
 20
6.161418744048214
 30
0.0
 10
11.20302952132748
 20
5.848254501063268
 30
0.0
 10
11.54435792826451
 20
5.736918169832355
 30
0.0
 10
12.2323034939034
 20
5.500116443473361
 30
0.0
 10
12.57743808514533
 20
5.374792762360865
 30
0.0
 10
13.6107127576455
 20
4.980066406765968
 30
0.0
 10
14.29379425010356
 20
4.692366240530434
 30
0.0
 10
15.32783776180157
 20
4.227686126837304
 30
0.0
 10
15.67267304659193
 20
4.06746687806263
 30
0.0
 10
16.35891959747882
 20
3.738158109311468
 30
0.0
 10
16.70051312898692
 20
3.569057080553871
 30
0.0
 10
17.38878698088451
 20
3.221821184861047
 30
0.0
 10
17.7339451442971
 20
3.043927338717941
 30
0.0
 10
18.42256007966472
 20
2.681513722856556
 30
0.0
 10
18.7646552149608
 20
2.497244669061323
 30
0.0
 10
19.79304430541492
 20
1.935727162600616
 30
0.0
 10
20.48616395219322
 20
1.548825458678918
 30
0.0
 10
21.51473068821267
 20
0.9621411996526276
 30
0.0
 10
21.85672411825363
 20
0.7653512974043933
 30
0.0
 10
22.54528403457336
 20
0.3695259768622849
 30
0.0
 10
22.89044444985551
 20
0.1707589711076667
 30
0.0
 10
23.57878224719643
 20
-0.2263274864026959
 30
0.0
 10
23.92044902488584
 20
-0.4243556196447267
 30
0.0
 10
24.60658596274902
 20
-0.8194532581050246
 30
0.0
 10
24.9513958576804
 20
-1.016585690191143
 30
0.0
 10
25.98545281945791
 20
-1.603514023533358
 30
0.0
 10
26.66858430541212
 20
-1.987768007530952
 30
0.0
 10
27.70178985584867
 20
-2.548605920796601
 30
0.0
 10
28.04693120223485
 20
-2.73282882966399
 30
0.0
 10
28.73494962661272
 20
-3.093837610979397
 30
0.0
 10
29.07632280571367
 20
-3.270374537401264
 30
0.0
 10
30.1062818514578
 20
-3.788547662965007
 30
0.0
 10
30.79932420421707
 20
-4.118343337253361
 30
0.0
 10
32.16835499154916
 20
-4.732533925968011
 30
0.0
 10
32.85957216349237
 20
-5.019219433860273
 30
0.0
 10
33.89105748632716
 20
-5.410166626781933
 30
0.0
 10
34.23227188576096
 20
-5.533801542472797
 30
0.0
 10
34.9193717880535
 20
-5.768014879699211
 30
0.0
 10
35.26438404107243
 20
-5.878464141660343
 30
0.0
 10
36.29819978480056
 20
-6.187978917455525
 30
0.0
 10
36.98106224314638
 20
-6.364838961839867
 30
0.0
 10
38.01480859661268
 20
-6.644935640214044
 30
0.0
 10
38.3616444517703
 20
-6.734392636452361
 30
0.0
 10
39.04902631274535
 20
-6.881780906568175
 30
0.0
 10
39.38829157800669
 20
-6.921483347242692
 30
0.0
 10
39.73205080756889
 20
-6.999999999999998
 30
0.0
1001
PE_URL
1000

  0
SPLINE
  5
B9
330
1F
100
AcDbEntity
  8
0
  6
Continuous
 62
     1
370
    15
100
AcDbSpline
210
0.0
220
0.0
230
1.0
 70
     8
 71
     3
 72
    14
 73
    10
 74
     0
 42
0.000000001
 43
0.00000001
 40
0.0
 40
0.0
 40
0.0
 40
0.0
 40
0.0627528624618808
 40
0.238234165055999
 40
0.4137128932408544
 40
0.5891030681636101
 40
0.7260770819879023
 40
0.8630423402325692
 40
1.0
 40
1.0
 40
1.0
 40
1.0
 10
24.32238348044157
 20
-0.652818834442733
 30
0.0
 10
23.95442470703701
 20
-0.5070801244363464
 30
0.0
 10
22.55751072227158
 20
0.0462004516616836
 30
0.0
 10
20.13146217793345
 20
1.03844512848217
 30
0.0
 10
17.04498044828743
 20
2.221517880643055
 30
0.0
 10
14.18436308759169
 20
3.190249954038456
 30
0.0
 10
11.55005382872028
 20
3.917447470845067
 30
0.0
 10
9.14098389437081
 20
4.441960100533457
 30
0.0
 10
7.535013653580439
 20
4.641758664649299
 30
0.0
 10
6.732050807568875
 20
4.741655175553836
 30
0.0
1001
PE_URL
1000

  0
SPLINE
  5
BA
330
1F
100
AcDbEntity
  8
0
  6
Continuous
 62
   131
370
    15
100
AcDbSpline
210
0.0
220
0.0
230
1.0
 70
    24
 71
     3
 72
    10
 73
     6
 74
     0
 42
0.000000001
 43
0.00000001
 40
0.0
 40
0.0
 40
0.0
 40
0.0
 40
0.5
 40
0.5
 40
1.0
 40
1.0
 40
1.0
 40
1.0
 10
6.732050807568875
 20
6.840624904494386
 30
0.0
 10
6.732050807568875
 20
6.52400337775966
 30
0.0
 10
6.732050807568875
 20
6.164408373966685
 30
0.0
 10
6.732050807568875
 20
5.437571861410999
 30
0.0
 10
6.732050807568875
 20
5.072325442721029
 30
0.0
 10
6.732050807568875
 20
4.741655175553836
 30
0.0
  0
SPLINE
  5
BB
330
1F
100
AcDbEntity
  8
0
  6
Continuous
 62
     1
370
    15
100
AcDbSpline
210
0.0
220
0.0
230
1.0
 70
     8
 71
     3
 72
    13
 73
     9
 74
     0
 42
0.000000001
 43
0.00000001
 40
0.0
 40
0.0
 40
0.0
 40
0.0
 40
0.167550409228724
 40
0.3351614999963136
 40
0.5027830048978368
 40
0.6748341341298661
 40
0.8467731860889189
 40
1.0
 40
1.0
 40
1.0
 40
1.0
 10
41.4920223981706
 20
-5.477774725151511
 30
0.0
 10
40.49030612572108
 20
-5.253251445256423
 30
0.0
 10
38.48651079039261
 20
-4.804123570128386
 30
0.0
 10
35.48032024014072
 20
-3.747343407698188
 30
0.0
 10
32.44726619394021
 20
-2.473526498379524
 30
0.0
 10
29.3882344257656
 20
-1.028210696705272
 30
0.0
 10
26.41584760906147
 20
0.4494333588225835
 30
0.0
 10
24.47169351263527
 20
1.373395423666926
 30
0.0
 10
23.55555633707288
 20
1.8087909501683
 30
0.0
  0
SPLINE
  5
BC
330
1F
100
AcDbEntity
  8
0
  6
Continuous
 62
     1
370
    15
100
AcDbSpline
210
0.0
220
0.0
230
1.0
 70
     8
 71
     3
 72
    14
 73
    10
 74
     0
 42
0.000000001
 43
0.00000001
 40
0.0
 40
0.0
 40
0.0
 40
0.0
 40
0.25
 40
0.25
 40
0.5
 40
0.5
 40
0.75
 40
0.75
 40
1.0
 40
1.0
 40
1.0
 40
1.0
 10
41.49202239824869
 20
-5.477774725166498
 30
0.0
 10
41.4018340046149
 20
-5.63491195305715
 30
0.0
 10
41.29039706226526
 20
-5.771947761797753
 30
0.0
 10
41.0259193733384
 20
-6.002971157469108
 30
0.0
 10
40.87902491474914
 20
-6.091259324455175
 30
0.0
 10
40.56239977732413
 20
-6.213438382663515
 30
0.0
 10
40.39768686329877
 20
-6.245245837991159
 30
0.0
 10
40.06345105470975
 20
-6.255738499269039
 30
0.0
 10
39.89640590435776
 20
-6.234358020377796
 30
0.0
 10
39.73205080756906
 20
-6.190051370397779
 30
0.0
  0
SPLINE
  5
BD
330
1F
100
AcDbEntity
  8
0
  6
Continuous
 62
     1
370
    15
100
AcDbSpline
210
0.0
220
0.0
230
1.0
 70
     8
 71
     3
 72
    20
 73
    16
 74
     0
 42
0.000000001
 43
0.00000001
 40
0.0
 40
0.0
 40
0.0
 40
0.0
 40
0.0819835069061843
 40
0.163964791139679
 40
0.2459435853944635
 40
0.3279196231888545
 40
0.4098926389525902
 40
0.491863711195999
 40
0.5738375379755298
 40
0.6490088211639421
 40
0.7241828382564426
 40
0.7993530461260373
 40
0.8745192162465844
 40
0.9496817917277862
 40
1.0
 40
1.0
 40
1.0
 40
1.0
 10
39.73205080758075
 20
-6.190051370400929
 30
0.0
 10
38.85206206543948
 20
-5.924471197250055
 30
0.0
 10
37.09210843872316
 20
-5.393318051150153
 30
0.0
 10
34.45223436701207
 20
-4.263565463365858
 30
0.0
 10
31.81245541494609
 20
-2.953476098492142
 30
0.0
 10
29.17278380623
 20
-1.498315162190051
 30
0.0
 10
26.53321212435159
 20
0.0260818684075158
 30
0.0
 10
23.89369399548654
 20
1.549653418353257
 30
0.0
 10
21.32712144091152
 20
2.959853155345714
 30
0.0
 10
18.83360466443855
 20
4.201459967149077
 30
0.0
 10
16.41305120277821
 20
5.239184611894237
 30
0.0
 10
13.99259910973821
 20
6.071717091488583
 30
0.0
 10
11.57229170354288
 20
6.652381478880161
 30
0.0
 10
9.418743135706615
 20
6.969676077296898
 30
0.0
 10
8.071968768018392
 20
6.969321946496496
 30
0.0
 10
7.531907803287845
 20
6.969179938877184
 30
0.0
1001
PE_URL
1000

  0
LINE
  5
BE
330
1F
100
AcDbEntity
  8
0
  6
Continuous
 62
     1
370
    15
100
AcDbLine
 10
39.73205080756889
 20
-6.999999999999998
 30
0.0
 11
39.73205080756887
 21
-6.190051370397732
 31
0.0
  0
SPLINE
  5
BF
330
1F
100
AcDbEntity
  8
0
  6
Continuous
 62
     1
370
    15
100
AcDbSpline
210
0.0
220
0.0
230
1.0
 70
     8
 71
     3
 72
     8
 73
     4
 74
     0
 42
0.000000001
 43
0.00000001
 40
0.0
 40
0.0
 40
0.0
 40
0.0
 40
1.0
 40
1.0
 40
1.0
 40
1.0
 10
41.73205080756887
 20
-1.710100716628357
 30
0.0
 10
41.73205080756887
 20
-1.764053664204946
 30
0.0
 10
41.71275893219298
 20
-1.80620596973493
 30
0.0
 10
41.67608701595977
 20
-1.833914793083064
 30
0.0
1001
PE_URL
1000

  0
SPLINE
  5
C0
330
1F
100
AcDbEntity
  8
0
  6
Continuous
 62
     1
370
    15
100
AcDbSpline
210
0.0
220
0.0
230
1.0
 70
     8
 71
     3
 72
    12
 73
     8
 74
     0
 42
0.000000001
 43
0.00000001
 40
0.0
 40
0.0
 40
0.0
 40
0.0
 40
0.5000000000000006
 40
0.5000000000000006
 40
0.7500000000000009
 40
0.7500000000000009
 40
1.0
 40
1.0
 40
1.0
 40
1.0
 10
41.67608701595978
 20
-1.833914793083065
 30
0.0
 10
40.64708927575989
 20
-1.156689162588559
 30
0.0
 10
39.63642362218675
 20
-0.4461735820163372
 30
0.0
 10
38.15022573712892
 20
0.6737158504821797
 30
0.0
 10
37.65964284143021
 20
1.056374243027852
 30
0.0
 10
36.69182881408804
 20
1.84345027015138
 30
0.0
 10
36.22325455139426
 20
2.240792908743026
 30
0.0
 10
35.77371196112715
 20
2.642858012167118
 30
0.0
1001
PE_URL
1000

  0
SPLINE
  5
C1
330
1F
100
AcDbEntity
  8
0
  6
Continuous
 62
     1
370
    15
100
AcDbSpline
210
0.0
220
0.0
230
1.0
 70
     8
 71
     3
 72
     8
 73
     4
 74
     0
 42
0.000000001
 43
0.00000001
 40
0.0
 40
0.0
 40
0.0
 40
0.0
 40
1.0
 40
1.0
 40
1.0
 40
1.0
 10
35.77371196112725
 20
2.642858012167054
 30
0.0
 10
35.62647971196594
 20
2.806159215138774
 30
0.0
 10
35.4935233394697
 20
2.964080605583334
 30
0.0
 10
35.37710917019177
 20
3.11576812652985
 30
0.0
  0
LINE
  5
C2
330
1F
100
AcDbEntity
  8
0
  6
Continuous
 62
     1
370
    15
100
AcDbLine
 10
35.37710917019176
 20
3.11576812652985
 30
0.0
 11
41.73205080756887
 21
0.0000000000000065
 31
0.0
  0
LINE
  5
C3
330
1F
100
AcDbEntity
  8
0
  6
Continuous
 62
     1
370
    15
100
AcDbLine
 10
41.73205080756887
 20
0.0000000000000065
 30
0.0
 11
41.73205080756887
 21
-1.710100716628358
 31
0.0
1001
PE_URL
1000

  0
SPLINE
  5
C4
330
1F
100
AcDbEntity
  8
0
  6
Continuous
 62
     1
370
    15
100
AcDbSpline
210
0.0
220
0.0
230
1.0
 70
     8
 71
     3
 72
    13
 73
     9
 74
     0
 42
0.000000001
 43
0.00000001
 40
0.0
 40
0.0
 40
0.0
 40
0.0
 40
0.1138476981216612
 40
0.2276866976372425
 40
0.4405550623121633
 40
0.6532828223398179
 40
0.8661117521813296
 40
1.0
 40
1.0
 40
1.0
 40
1.0
 10
35.7737119583016
 20
2.642858013316193
 30
0.0
 10
35.22368329800371
 20
2.862028596199979
 30
0.0
 10
34.12366800269897
 20
3.3003530160992
 30
0.0
 10
31.99546313304123
 20
4.052822318932364
 30
0.0
 10
29.38817480780786
 20
4.82065663581956
 30
0.0
 10
26.30351314053706
 20
5.401479369555522
 30
0.0
 10
23.60000703254512
 20
5.654601644224424
 30
0.0
 10
21.92441896703095
 20
5.557549304775472
 30
0.0
 10
21.2773741575654
 20
5.520071589470987
 30
0.0
  0
SPLINE
  5
C5
330
1F
100
AcDbEntity
  8
0
  6
Continuous
 62
     1
370
    15
100
AcDbSpline
210
0.0
220
0.0
230
1.0
 70
     8
 71
     3
 72
    12
 73
     8
 74
     0
 42
0.000000001
 43
0.00000001
 40
0.0
 40
0.0
 40
0.0
 40
0.0
 40
0.2499999999999999
 40
0.2499999999999999
 40
0.4999999999999998
 40
0.4999999999999998
 40
1.0
 40
1.0
 40
1.0
 40
1.0
 10
41.6760870159598
 20
-1.833914793083066
 30
0.0
 10
41.67781240058001
 20
-2.198688083825363
 30
0.0
 10
41.676694393877
 20
-2.557238521623808
 30
0.0
 10
41.66803325616741
 20
-3.241289071101813
 30
0.0
 10
41.66043391849774
 20
-3.570348025676364
 30
0.0
 10
41.62351907442261
 20
-4.491920264990722
 30
0.0
 10
41.58295473542911
 20
-5.024382452329252
 30
0.0
 10
41.49202239824871
 20
-5.477774725166507
 30
0.0
1001
PE_URL
1000

  0
LINE
  5
C6
330
1F
100
AcDbEntity
  8
0
  6
Continuous
 62
     1
370
    15
100
AcDbLine
 10
41.73205080756887
 20
4.900000000000005
 30
0.0
 11
39.16422594688883
 21
4.76862918997094
 31
0.0
  0
SPLINE
  5
C7
330
1F
100
AcDbEntity
  8
0
  6
Continuous
 62
     1
370
    15
100
AcDbSpline
210
0.0
220
0.0
230
1.0
 70
     8
 71
     3
 72
    10
 73
     6
 74
     0
 42
0.000000001
 43
0.00000001
 40
0.0
 40
0.0
 40
0.0
 40
0.0
 40
0.5
 40
0.5
 40
1.0
 40
1.0
 40
1.0
 40
1.0
 10
41.73205080756887
 20
4.900000000000005
 30
0.0
 10
40.66554977930508
 20
4.643025411189648
 30
0.0
 10
39.60200472897432
 20
4.367890768044785
 30
0.0
 10
37.48197496420777
 20
3.779550397027922
 30
0.0
 10
36.42517059213755
 20
3.46776162414073
 30
0.0
 10
35.37710917019163
 20
3.11576812652998
 30
0.0
  0
SPLINE
  5
C8
330
1F
100
AcDbEntity
  8
0
  6
Continuous
 62
     1
370
    15
100
AcDbSpline
210
0.0
220
0.0
230
1.0
 70
     8
 71
     3
 72
     9
 73
     5
 74
     0
 42
0.000000001
 43
0.00000001
 40
0.0
 40
0.0
 40
0.0
 40
0.0
 40
0.4021376476623948
 40
1.0
 40
1.0
 40
1.0
 40
1.0
 10
10.76122684386663
 20
-5.798813451761524
 30
0.0
 10
10.22112897189505
 20
-5.854545787863966
 30
0.0
 10
8.87806180295144
 20
-5.993135985589578
 30
0.0
 10
7.535010574387837
 20
-5.936466151603199
 30
0.0
 10
6.732050807568886
 20
-5.902585391349519
 30
0.0
1001
PE_URL
1000

  0
SPLINE
  5
C9
330
1F
100
AcDbEntity
  8
0
  6
Continuous
 62
     1
370
    15
100
AcDbSpline
210
0.0
220
0.0
230
1.0
 70
     8
 71
     3
 72
    15
 73
    11
 74
     0
 42
0.000000001
 43
0.00000001
 40
0.0
 40
0.0
 40
0.0
 40
0.0
 40
0.0302485003624719
 40
0.1831193560353863
 40
0.3360610332098642
 40
0.4890005245129711
 40
0.6418648444307867
 40
0.7612503350809833
 40
0.880628392813711
 40
0.9999999999999999
 40
0.9999999999999999
 40
0.9999999999999999
 40
0.9999999999999999
 10
26.91438881720394
 20
-5.236633720712661
 30
0.0
 10
26.71089886811539
 20
-5.276989327874791
 30
0.0
 10
25.47900479104578
 20
-5.521295416024355
 30
0.0
 10
23.21805117037075
 20
-5.637110687695346
 30
0.0
 10
20.13146627678104
 20
-5.540391452275411
 30
0.0
 10
17.04495645114714
 20
-5.057705274732165
 30
0.0
 10
14.1843111550473
 20
-4.315363314579821
 30
0.0
 10
11.55005236519894
 20
-3.420932887475622
 30
0.0
 10
9.140979354216581
 20
-2.472648547520558
 30
0.0
 10
7.535012526429604
 20
-1.765618979967261
 30
0.0
 10
6.732050807568868
 20
-1.412113747464874
 30
0.0
1001
PE_URL
1000

  0
SPLINE
  5
CA
330
1F
100
AcDbEntity
  8
0
  6
Continuous
 62
   131
370
    15
100
AcDbSpline
210
0.0
220
0.0
230
1.0
 70
    24
 71
     3
 72
    14
 73
    10
 74
     0
 42
0.000000001
 43
0.00000001
 40
0.0
 40
0.0
 40
0.0
 40
0.0
 40
0.2499999999999999
 40
0.2499999999999999
 40
0.4999999999999999
 40
0.4999999999999999
 40
0.7499999999999999
 40
0.7499999999999999
 40
1.0
 40
1.0
 40
1.0
 40
1.0
 10
6.732050807568875
 20
-1.412113747464876
 30
0.0
 10
6.732050807568875
 20
-1.915286180308364
 30
0.0
 10
6.732050807568875
 20
-2.409606137146765
 30
0.0
 10
6.732050807568875
 20
-3.34206314528398
 30
0.0
 10
6.732050807568875
 20
-3.779888213118301
 30
0.0
 10
6.732050807568875
 20
-4.564709390021227
 30
0.0
 10
6.732050807568875
 20
-4.911478866558053
 30
0.0
 10
6.732050807568875
 20
-5.492534898825771
 30
0.0
 10
6.732050807568875
 20
-5.726786178903015
 30
0.0
 10
6.732050807568875
 20
-5.902585391349516
 30
0.0
  0
SPLINE
  5
CB
330
1F
100
AcDbEntity
  8
0
  6
Continuous
 62
   131
370
    15
100
AcDbSpline
210
0.0
220
0.0
230
1.0
 70
    24
 71
     3
 72
    14
 73
    10
 74
     0
 42
0.000000001
 43
0.00000001
 40
0.0
 40
0.0
 40
0.0
 40
0.0
 40
0.25
 40
0.25
 40
0.5
 40
0.5
 40
0.75
 40
0.75
 40
1.0
 40
1.0
 40
1.0
 40
1.0
 10
6.73205080756885
 20
4.741655175553838
 30
0.0
 10
6.732050807568854
 20
4.461127006091792
 30
0.0
 10
6.73205080756885
 20
4.103805176192922
 30
0.0
 10
6.732050807568854
 20
3.248425607037866
 30
0.0
 10
6.732050807568854
 20
2.750510032209205
 30
0.0
 10
6.732050807568854
 20
1.656807874599519
 30
0.0
 10
6.732050807568854
 20
1.061604062053809
 30
0.0
 10
6.732050807568854
 20
-0.1644751272614708
 30
0.0
 10
6.73205080756885
 20
-0.7946876719849811
 30
0.0
 10
6.73205080756885
 20
-1.412113747464867
 30
0.0
  0
LINE
  5
CC
330
1F
100
AcDbEntity
  8
0
  6
Continuous
 62
     1
370
    15
100
AcDbLine
 10
41.73205080756887
 20
-1.710100716628358
 30
0.0
 11
41.73205080756887
 21
-4.999698696930561
 31
0.0
1001
PE_URL
1000

  0
LINE
  5
CD
330
1F
100
AcDbEntity
  8
0
  6
Continuous
 62
     1
370
    15
100
AcDbLine
 10
41.73205080756887
 20
0.0000000000000065
 30
0.0
 11
41.73205080756887
 21
4.900000000000005
 31
0.0
  0
SPLINE
  5
CE
330
1F
100
AcDbEntity
  8
0
  6
Continuous
 62
     1
370
    15
100
AcDbSpline
210
0.0
220
0.0
230
1.0
 70
     8
 71
     3
 72
    11
 73
     7
 74
     0
 42
0.000000001
 43
0.00000001
 40
0.0
 40
0.0
 40
0.0
 40
0.0
 40
0.172645672550959
 40
0.4484430937332889
 40
0.7242273255744581
 40
0.9999999999999999
 40
0.9999999999999999
 40
0.9999999999999999
 40
0.9999999999999999
 10
15.50765431245075
 20
-5.513500589472489
 30
0.0
 10
15.00262175617861
 20
-5.69380075716828
 30
0.0
 10
13.69081151139035
 20
-6.162126222889206
 30
0.0
 10
11.57229239993908
 20
-6.649946735184275
 30
0.0
 10
9.152122403975415
 20
-6.997781389978925
 30
0.0
 10
7.538730070606825
 20
-6.989093925375988
 30
0.0
 10
6.732050807568875
 20
-6.984750284093812
 30
0.0
1001
PE_URL
1000

  0
SPLINE
  5
CF
330
1F
100
AcDbEntity
  8
0
  6
Continuous
 62
   131
370
    15
100
AcDbSpline
210
0.0
220
0.0
230
1.0
 70
    24
 71
     3
 72
     8
 73
     4
 74
     0
 42
0.000000001
 43
0.00000001
 40
0.0
 40
0.0
 40
0.0
 40
0.0
 40
1.0
 40
1.0
 40
1.0
 40
1.0
 10
6.732050807568875
 20
-5.902585391349519
 30
0.0
 10
6.732050807568875
 20
-6.269013862696761
 30
0.0
 10
6.732050807568875
 20
-6.632079185696353
 30
0.0
 10
6.732050807568875
 20
-6.984750284085926
 30
0.0
  0
SPLINE
  5
D0
330
1F
100
AcDbEntity
  8
0
  6
Continuous
 62
     1
370
    15
100
AcDbSpline
210
0.0
220
0.0
230
1.0
 70
     8
 71
     3
 72
    11
 73
     7
 74
     0
 42
0.000000001
 43
0.00000001
 40
0.0
 40
0.0
 40
0.0
 40
0.0
 40
0.1711443662854398
 40
0.4420558997879929
 40
0.7210283931152548
 40
1.0
 40
1.0
 40
1.0
 40
1.0
 10
32.12845671623947
 20
4.691444216549571
 30
0.0
 10
32.56207497104494
 20
4.878075073470298
 30
0.0
 10
33.68208559104304
 20
5.360131673841813
 30
0.0
 10
35.51038563016658
 20
5.975414046201277
 30
0.0
 10
37.61123981629333
 20
6.540708021458756
 30
0.0
 10
39.02511455924899
 20
6.902259255306221
 30
0.0
 10
39.73205080756889
 20
6.999999999999994
 30
0.0
  0
SPLINE
  5
D2
330
1F
100
AcDbEntity
  8
0
  6
Continuous
 62
     1
370
    15
100
AcDbSpline
210
0.0
220
0.0
230
1.0
 70
    24
 71
     3
 72
     8
 73
     4
 74
     0
 42
0.000000001
 43
0.00000001
 40
0.0
 40
0.0
 40
0.0
 40
0.0
 40
1.0
 40
1.0
 40
1.0
 40
1.0
 10
41.73205080756887
 20
4.900000000000007
 30
0.0
 10
41.73205080756887
 20
4.93268295750424
 30
0.0
 10
41.73205080756887
 20
4.965924790881563
 30
0.0
 10
41.73205080756887
 20
4.999698696930601
 30
0.0
  0
LINE
  5
D3
330
1F
100
AcDbEntity
  8
중심선
100
AcDbLine
 10
-115.2679491924311
 20
-0.0000000000000018
 30
0.0
 11
48.73205080756891
 21
-0.0000000000000018
 31
0.0
  0
CIRCLE
  5
D4
330
1F
100
AcDbEntity
  8
외형선
100
AcDbCircle
 10
0.0
 20
0.0
 30
0.0
 40
3.000000000000001
  0
INSERT
  5
D5
330
1F
100
AcDbEntity
  8
0
  6
Continuous
 62
     7
100
AcDbBlockReference
 66
     1
  2
블럭10
 10
-47.10128460081754
 20
-52.04717430164393
 30
0.0
  0
ATTRIB
  5
D6
330
D5
100
AcDbEntity
  8
FORMAT
 62
     2
100
AcDbText
 10
-63.73011319901851
 20
-49.97180738881174
 30
0.0
 40
4.233333333333333
  1
SEMD9914020E [ 2 FLUTE ]
 41
0.75
  7
SLDTEXTSTYLE0
 11
-63.73011319901851
 21
-52.08847405547841
 31
0.0
100
AcDbAttribute
  2
AUTOATTR0
 70
     0
 74
     1
  0
SEQEND
  5
D7
330
D5
100
AcDbEntity
  8
0
  6
Continuous
 62
     7
  0
HATCH
  5
D8
330
1F
100
AcDbEntity
  8
중심선
100
AcDbHatch
 10
0.0
 20
0.0
 30
0.0
210
0.0
220
0.0
230
1.0
  2
SOLID
 70
     1
 71
     0
 91
        1
 92
        0
 93
        4
 72
     1
 10
-41.38637529643669
 20
-35.8
 11
-44.83265054027397
 21
-35.8
 72
     1
 10
-44.83265054027397
 20
-35.8
 11
-46.960880399478
 21
-38.33632558057259
 72
     1
 10
-46.960880399478
 20
-38.33632558057259
 11
-43.51457207052756
 21
-38.3362861512701
 72
     1
 10
-43.51457207052756
 20
-38.3362861512701
 11
-41.38637529643669
 21
-35.8
 97
        0
 75
     0
 76
     1
 98
        1
 10
-20.96601275695215
 20
0.0
  0
HATCH
  5
D9
330
1F
100
AcDbEntity
  8
중심선
100
AcDbHatch
 10
0.0
 20
0.0
 30
0.0
210
0.0
220
0.0
230
1.0
  2
SOLID
 70
     1
 71
     0
 91
        1
 92
        0
 93
        4
 72
     1
 10
-36.37361130540074
 20
-35.8
 11
-39.81988654923802
 21
-35.8
 72
     1
 10
-39.81988654923802
 20
-35.8
 11
-44.35102455759541
 21
-41.20000000000002
 72
     1
 10
-44.35102455759541
 20
-41.20000000000002
 11
-40.90474931375812
 21
-41.20000000000002
 72
     1
 10
-40.90474931375813
 20
-41.20000000000002
 11
-36.37361130540074
 21
-35.8
 97
        0
 75
     0
 76
     1
 98
        1
 10
-20.96601275695215
 20
0.0
  0
HATCH
  5
DA
330
1F
100
AcDbEntity
  8
중심선
100
AcDbHatch
 10
0.0
 20
0.0
 30
0.0
210
0.0
220
0.0
230
1.0
  2
SOLID
 70
     1
 71
     0
 91
        1
 92
        0
 93
        4
 72
     1
 10
-31.36084731436485
 20
-35.80000000000003
 11
-34.80712255820196
 21
-35.8
 72
     1
 10
-34.80712255820196
 20
-35.8
 11
-41.85555946009121
 21
-44.20000000000002
 72
     1
 10
-41.85555946009121
 20
-44.20000000000002
 11
-38.40928421625393
 21
-44.20000000000002
 72
     1
 10
-38.40928421625392
 20
-44.20000000000002
 11
-31.36084731436484
 21
-35.80000000000003
 97
        0
 75
     0
 76
     1
 98
        1
 10
-20.96601275695215
 20
0.0
  0
HATCH
  5
DB
330
1F
100
AcDbEntity
  8
중심선
100
AcDbHatch
 10
0.0
 20
0.0
 30
0.0
210
0.0
220
0.0
230
1.0
  2
SOLID
 70
     1
 71
     0
 91
        1
 92
        0
 93
        6
 72
     3
 10
-26.56095688335265
 20
-40.00000000005127
 11
3.960054785062283
 21
1.540882976769353E-10
 40
0.3939339440162628
 50
17.09539180608436
 51
320.0019657685081
 73
     0
 72
     1
 10
-24.87795722765205
 20
-38.5878940046383
 11
-22.57265535395101
 21
-36.65356729459038
 72
     3
 10
-26.56095688340549
 20
-40.00000000000015
 11
6.600054785286829
 21
-1.278976924368180E-13
 40
0.636358354079598
 50
39.99873849337411
 51
368.4976242363724
 73
     1
 72
     1
 10
-20.13562439150488
 20
-39.03999999993002
 11
-27.88088957656957
 21
-39.03999999992999
 72
     1
 10
-27.88088957656957
 20
-39.03999999992999
 11
-27.8809146210155
 21
-40.95999999992991
 72
     1
 10
-27.8809146210155
 20
-40.95999999992991
 11
-23.43953485154347
 21
-40.95999999992988
 97
        0
 75
     0
 76
     1
 98
        1
 10
-20.96601275695215
 20
0.0
  0
POINT
  5
DC
330
1F
100
AcDbEntity
  8
치수문자_일반주서
100
AcDbPoint
 10
2.00000000000002
 20
-0.000000000000002
 30
0.0
  0
DIMENSION
  5
DD
330
1F
100
AcDbEntity
  8
치수문자_일반주서
100
AcDbDimension
  2
_D
 10
56.73205080756887
 20
6.939863559395612
 30
0.0
 11
56.73205080756883
 21
17.48136355939561
 31
0.0
 70
   160
  1
%%c<>
 71
     2
 42
13.93986355939555
 52
-270.0
  3
SLDDIMSTYLE0
100
AcDbAlignedDimension
 13
41.73205080756887
 23
-6.999999999999998
 33
0.0
 14
41.73205080756888
 24
6.939863559395556
 34
0.0
 50
90.0000000000002
100
AcDbRotatedDimension
1001
PE_URL
1000

1001
ACAD
1000
DSTYLE
1002
{
1070
   271
1070
     0
1002
}
  0
DIMENSION
  5
EB
330
1F
100
AcDbEntity
  8
치수문자_일반주서
100
AcDbDimension
  2
_D_1
 10
6.732050807568871
 20
23.0
 30
0.0
 11
24.23205080756887
 21
23.0
 31
0.0
 70
   160
  1
<>
 71
     2
 42
35.00000000000001
  3
SLDDIMSTYLE0
100
AcDbAlignedDimension
 13
41.73205080756888
 23
6.939863559395556
 33
0.0
 14
6.732050807568871
 24
7.000000000000003
 34
0.0
100
AcDbRotatedDimension
1001
PE_URL
1000

1001
ACAD
1000
DSTYLE
1002
{
1070
   271
1070
     0
1002
}
  0
DIMENSION
  5
F6
330
1F
100
AcDbEntity
  8
치수문자_일반주서
100
AcDbDimension
  2
_D_2
 10
-108.2679491924311
 20
38.00000000000001
 30
0.0
 11
-33.2679491924311
 21
38.00000000000001
 31
0.0
 70
   160
  1
<>
 71
     2
 42
150.0
  3
SLDDIMSTYLE0
100
AcDbAlignedDimension
 13
41.73205080756888
 23
6.939863559395556
 33
0.0
 14
-108.2679491924311
 24
6.999999999999988
 34
0.0
 50
0.0000000000000054
100
AcDbRotatedDimension
1001
PE_URL
1000

1001
ACAD
1000
DSTYLE
1002
{
1070
   271
1070
     0
1002
}
  0
DIMENSION
  5
100
330
1F
100
AcDbEntity
  8
치수문자_일반주서
100
AcDbDimension
  2
_D_3
 10
-123.2679491924311
 20
7.999999999999925
 30
0.0
 11
-123.2679491924311
 21
18.54149999999993
 31
0.0
 70
   160
  1
%%c<>
 71
     2
 42
15.99999999999999
 52
-270.0
  3
SLDDIMSTYLE0
100
AcDbAlignedDimension
 13
-107.2679491924311
 23
-8.0
 33
0.0
 14
-107.2679491924311
 24
7.999999999999985
 34
0.0
 50
90.0000000000002
100
AcDbRotatedDimension
1001
PE_URL
1000

1001
ACAD
1000
DSTYLE
1002
{
1070
   271
1070
     0
1002
}
  0
INSERT
  5
111
330
1F
100
AcDbEntity
  8
외형선
100
AcDbBlockReference
  2
SW_DOWELSYMBOL_0
 10
0.0
 20
0.0
 30
0.0
  0
ARC
  5
1EB
330
1F
100
AcDbEntity
  8
0
  6
Continuous
 62
     1
370
    15
100
AcDbCircle
 10
39.73205080756889
 20
-4.999999999999998
 30
0.0
 40
2.0
100
AcDbArc
 50
270.0
 51
0.0
1001
PE_URL
1000

  0
ARC
  5
1EC
330
1F
100
AcDbEntity
  8
0
  6
Continuous
 62
     1
370
    15
100
AcDbCircle
 10
39.73205080756889
 20
4.999999999999994
 30
0.0
 40
2.0
100
AcDbArc
 50
0.0
 51
90.0
1001
PE_URL
1000

  0
DIMENSION
  5
1ED
330
1F
100
AcDbEntity
  8
치수문자_일반주서
100
AcDbDimension
  2
*D11
 10
39.73205080756889
 20
-4.999999999999998
 30
0.0
 11
54.56300536260776
 21
-28.59971778133552
 31
0.0
 70
   164
 71
     5
 42
1.999999999999999
  3
SLDDIMSTYLE1
100
AcDbRadialDimension
 15
40.79623168609854
 25
-6.693375049353167
 35
0.0
 40
0.0
1001
ACAD_DSTYLE_DIMRADIAL_EXTENSION
1070
   387
1070
     1
1070
   388
1040
4.71238898038469
1070
   390
1040
0.0
1001
PE_URL
1000

  0
LINE
  5
21C
330
1F
100
AcDbEntity
  8
0
  6
Continuous
 62
   131
370
    15
100
AcDbLine
 10
5.732050807568873
 20
7.000000000000003
 30
0.0
 11
4.732050807568881
 21
7.999999999999996
 31
0.0
1001
PE_URL
1000

  0
LINE
  5
21D
330
1F
100
AcDbEntity
  8
0
  6
Continuous
 62
   131
370
    15
100
AcDbLine
 10
5.732050807568873
 20
7.000000000000003
 30
0.0
 11
5.732050807568857
 21
-6.999999999999994
 31
0.0
1001
PE_URL
1000

  0
LINE
  5
224
330
1F
100
AcDbEntity
  8
0
  6
Continuous
 62
   131
370
    15
100
AcDbLine
 10
5.732050807568786
 20
-6.999999999999994
 30
0.0
 11
4.732050807568782
 21
-7.999999999999974
 31
0.0
1001
PE_URL
1000

  0
ENDSEC
  0
SECTION
  2
OBJECTS
  0
DICTIONARY
  5
C
330
0
100
AcDbDictionary
281
     1
  3
ACAD_DETAILVIEWSTYLE
350
1AC
  3
ACAD_GROUP
350
D
  3
ACAD_LAYOUT
350
1A
  3
ACAD_MLINESTYLE
350
17
  3
ACAD_PLOTSETTINGS
350
19
  3
ACAD_PLOTSTYLENAME
350
E
  3
ACAD_SCALELIST
350
47
  3
ACAD_SECTIONVIEWSTYLE
350
1AD
  3
AcDbVariableDictionary
350
1A7
  3
APPDATA
350
133
  3
DWGPROPS
350
227
  0
DICTIONARY
  5
178
330
2
100
AcDbDictionary
280
     1
281
     1
  3
ACAD_LAYERSTATES
360
179
  0
DICTIONARY
  5
225
330
1F
100
AcDbDictionary
280
     1
281
     1
  3
DIM_BOUNDING_BOXES_V1
360
226
  0
DICTIONARY
  5
1AC
102
{ACAD_REACTORS
330
C
102
}
330
C
100
AcDbDictionary
281
     1
  0
DICTIONARY
  5
D
102
{ACAD_REACTORS
330
C
102
}
330
C
100
AcDbDictionary
281
     1
  0
DICTIONARY
  5
1A
102
{ACAD_REACTORS
330
C
102
}
330
C
100
AcDbDictionary
281
     1
  3
Layout1
350
1E
  3
Layout2
350
26
  3
Model
350
22
  0
DICTIONARY
  5
17
102
{ACAD_REACTORS
330
C
102
}
330
C
100
AcDbDictionary
281
     1
  3
Standard
350
18
  0
DICTIONARY
  5
19
102
{ACAD_REACTORS
330
C
102
}
330
C
100
AcDbDictionary
281
     1
  0
ACDBDICTIONARYWDFLT
  5
E
102
{ACAD_REACTORS
330
C
102
}
330
C
100
AcDbDictionary
281
     1
  3
Normal
350
F
100
AcDbDictionaryWithDefault
340
F
  0
DICTIONARY
  5
47
102
{ACAD_REACTORS
330
C
102
}
330
C
100
AcDbDictionary
281
     1
  3
A0
350
48
  3
A1
350
49
  3
A2
350
4A
  3
A3
350
4B
  3
A4
350
4C
  3
A5
350
4D
  3
A6
350
4E
  3
A7
350
4F
  3
A8
350
50
  3
A9
350
51
  3
B0
350
52
  3
B1
350
53
  3
B2
350
54
  3
B3
350
55
  3
B4
350
56
  3
B5
350
57
  3
B6
350
58
  3
B7
350
59
  3
B8
350
5A
  3
B9
350
5B
  3
C0
350
5C
  3
C1
350
5D
  3
C2
350
5E
  3
C3
350
5F
  3
C4
350
60
  3
C5
350
61
  3
C6
350
62
  3
C7
350
63
  3
C8
350
64
  3
C9
350
65
  3
D0
350
66
  3
D1
350
67
  3
D2
350
68
  0
DICTIONARY
  5
1AD
102
{ACAD_REACTORS
330
C
102
}
330
C
100
AcDbDictionary
281
     1
  0
DICTIONARY
  5
1A7
102
{ACAD_REACTORS
330
C
102
}
330
C
100
AcDbDictionary
281
     1
  0
DICTIONARY
  5
133
102
{ACAD_REACTORS
330
C
102
}
330
C
100
AcDbDictionary
281
     1
  0
XRECORD
  5
227
102
{ACAD_REACTORS
330
C
102
}
330
C
100
AcDbXrecord
280
     1
  1
DWGPROPS COOKIE
  2

  3

  4

  6

  7

  8
12016016
  9

300
=
301
=
302
=
303
=
304
=
305
=
306
=
307
=
308
=
309
=
 40
0.0
 41
2458260.217102037
 42
2459701.993504618
  1

 90
        0
  0
DICTIONARY
  5
179
102
{ACAD_REACTORS
330
178
102
}
330
178
100
AcDbDictionary
281
     1
  0
DICTIONARY
  5
226
102
{ACAD_REACTORS
330
225
102
}
330
225
100
AcDbDictionary
281
     1
  0
LAYOUT
  5
1E
102
{ACAD_REACTORS
330
1A
102
}
330
1A
100
AcDbPlotSettings
  1

  2
none_device
  4

  6

 40
0.0
 41
0.0
 42
0.0
 43
0.0
 44
0.0
 45
0.0
 46
0.0
 47
0.0
 48
0.0
 49
0.0
140
0.0
141
0.0
142
1.0
143
1.0
 70
   688
 72
     1
 73
     0
 74
     5
  7

 75
    16
147
1.0
148
0.0
149
0.0
100
AcDbLayout
  1
Layout1
 70
     1
 71
     1
 10
0.0
 20
0.0
 11
420.0
 21
297.0
 12
0.0
 22
0.0
 32
0.0
 14
1.000000000000000E+20
 24
1.000000000000000E+20
 34
1.000000000000000E+20
 15
-1.000000000000000E+20
 25
-1.000000000000000E+20
 35
-1.000000000000000E+20
146
0.0
 13
0.0
 23
0.0
 33
0.0
 16
1.0
 26
0.0
 36
0.0
 17
0.0
 27
1.0
 37
0.0
 76
     0
330
1B
  0
LAYOUT
  5
26
102
{ACAD_REACTORS
330
1A
102
}
330
1A
100
AcDbPlotSettings
  1

  2
none_device
  4

  6

 40
0.0
 41
0.0
 42
0.0
 43
0.0
 44
0.0
 45
0.0
 46
0.0
 47
0.0
 48
0.0
 49
0.0
140
0.0
141
0.0
142
1.0
143
1.0
 70
   688
 72
     1
 73
     0
 74
     5
  7

 75
    16
147
1.0
148
0.0
149
0.0
100
AcDbLayout
  1
Layout2
 70
     1
 71
     2
 10
0.0
 20
0.0
 11
0.0
 21
0.0
 12
0.0
 22
0.0
 32
0.0
 14
0.0
 24
0.0
 34
0.0
 15
0.0
 25
0.0
 35
0.0
146
0.0
 13
0.0
 23
0.0
 33
0.0
 16
1.0
 26
0.0
 36
0.0
 17
0.0
 27
1.0
 37
0.0
 76
     0
330
23
  0
LAYOUT
  5
22
102
{ACAD_REACTORS
330
1A
102
}
330
1A
100
AcDbPlotSettings
  1

  2
none_device
  4
ANSI_A_(11.00_x_8.50_Inches)
  6

 40
6.35
 41
19.05
 42
6.35000508
 43
19.05000254
 44
279.4
 45
215.9
 46
186.5382754406064
 47
84.83806546904592
 48
0.0
 49
0.0
140
0.0
141
0.0
142
0.0698076923076923
143
1.0
 70
  1696
 72
     0
 73
     0
 74
     0
  7

 75
     0
147
0.0235690232323232
148
0.0
149
0.0
100
AcDbLayout
  1
Model
 70
     1
 71
     0
 10
0.0
 20
0.0
 11
420.0
 21
297.0
 12
0.0
 22
0.0
 32
0.0
 14
-127.6429491924312
 24
-49.97180738881174
 34
0.0
 15
59.43121111895964
 25
42.37500000000001
 35
0.0
146
0.0
 13
0.0
 23
0.0
 33
0.0
 16
1.0
 26
0.0
 36
0.0
 17
0.0
 27
1.0
 37
0.0
 76
     0
330
1F
331
29
  0
MLINESTYLE
  5
18
102
{ACAD_REACTORS
330
17
102
}
330
17
100
AcDbMlineStyle
  2
Standard
 70
     0
  3

 62
   256
 51
90.0
 52
90.0
 71
     2
 49
0.5
 62
   256
  6
BYLAYER
 49
-0.5
 62
   256
  6
BYLAYER
  0
ACDBPLACEHOLDER
  5
F
102
{ACAD_REACTORS
330
E
102
}
330
E
  0
SCALE
  5
48
102
{ACAD_REACTORS
330
47
102
}
330
47
100
AcDbScale
 70
     0
300
1:1
140
1.0
141
1.0
290
     1
  0
SCALE
  5
49
102
{ACAD_REACTORS
330
47
102
}
330
47
100
AcDbScale
 70
     0
300
1:2
140
1.0
141
2.0
290
     0
  0
SCALE
  5
4A
102
{ACAD_REACTORS
330
47
102
}
330
47
100
AcDbScale
 70
     0
300
1:4
140
1.0
141
4.0
290
     0
  0
SCALE
  5
4B
102
{ACAD_REACTORS
330
47
102
}
330
47
100
AcDbScale
 70
     0
300
1:5
140
1.0
141
5.0
290
     0
  0
SCALE
  5
4C
102
{ACAD_REACTORS
330
47
102
}
330
47
100
AcDbScale
 70
     0
300
1:8
140
1.0
141
8.0
290
     0
  0
SCALE
  5
4D
102
{ACAD_REACTORS
330
47
102
}
330
47
100
AcDbScale
 70
     0
300
1:10
140
1.0
141
10.0
290
     0
  0
SCALE
  5
4E
102
{ACAD_REACTORS
330
47
102
}
330
47
100
AcDbScale
 70
     0
300
1:16
140
1.0
141
16.0
290
     0
  0
SCALE
  5
4F
102
{ACAD_REACTORS
330
47
102
}
330
47
100
AcDbScale
 70
     0
300
1:20
140
1.0
141
20.0
290
     0
  0
SCALE
  5
50
102
{ACAD_REACTORS
330
47
102
}
330
47
100
AcDbScale
 70
     0
300
1:30
140
1.0
141
30.0
290
     0
  0
SCALE
  5
51
102
{ACAD_REACTORS
330
47
102
}
330
47
100
AcDbScale
 70
     0
300
1:40
140
1.0
141
40.0
290
     0
  0
SCALE
  5
52
102
{ACAD_REACTORS
330
47
102
}
330
47
100
AcDbScale
 70
     0
300
1:50
140
1.0
141
50.0
290
     0
  0
SCALE
  5
53
102
{ACAD_REACTORS
330
47
102
}
330
47
100
AcDbScale
 70
     0
300
1:100
140
1.0
141
100.0
290
     0
  0
SCALE
  5
54
102
{ACAD_REACTORS
330
47
102
}
330
47
100
AcDbScale
 70
     0
300
2:1
140
2.0
141
1.0
290
     0
  0
SCALE
  5
55
102
{ACAD_REACTORS
330
47
102
}
330
47
100
AcDbScale
 70
     0
300
4:1
140
4.0
141
1.0
290
     0
  0
SCALE
  5
56
102
{ACAD_REACTORS
330
47
102
}
330
47
100
AcDbScale
 70
     0
300
8:1
140
8.0
141
1.0
290
     0
  0
SCALE
  5
57
102
{ACAD_REACTORS
330
47
102
}
330
47
100
AcDbScale
 70
     0
300
10:1
140
10.0
141
1.0
290
     0
  0
SCALE
  5
58
102
{ACAD_REACTORS
330
47
102
}
330
47
100
AcDbScale
 70
     0
300
100:1
140
100.0
141
1.0
290
     0
  0
SCALE
  5
59
102
{ACAD_REACTORS
330
47
102
}
330
47
100
AcDbScale
 70
     0
300
1/128" = 1'-0"
140
0.0078125
141
12.0
290
     0
  0
SCALE
  5
5A
102
{ACAD_REACTORS
330
47
102
}
330
47
100
AcDbScale
 70
     0
300
1/64" = 1'-0"
140
0.015625
141
12.0
290
     0
  0
SCALE
  5
5B
102
{ACAD_REACTORS
330
47
102
}
330
47
100
AcDbScale
 70
     0
300
1/32" = 1'-0"
140
0.03125
141
12.0
290
     0
  0
SCALE
  5
5C
102
{ACAD_REACTORS
330
47
102
}
330
47
100
AcDbScale
 70
     0
300
1/16" = 1'-0"
140
0.0625
141
12.0
290
     0
  0
SCALE
  5
5D
102
{ACAD_REACTORS
330
47
102
}
330
47
100
AcDbScale
 70
     0
300
3/32" = 1'-0"
140
0.09375
141
12.0
290
     0
  0
SCALE
  5
5E
102
{ACAD_REACTORS
330
47
102
}
330
47
100
AcDbScale
 70
     0
300
1/8" = 1'-0"
140
0.125
141
12.0
290
     0
  0
SCALE
  5
5F
102
{ACAD_REACTORS
330
47
102
}
330
47
100
AcDbScale
 70
     0
300
3/16" = 1'-0"
140
0.1875
141
12.0
290
     0
  0
SCALE
  5
60
102
{ACAD_REACTORS
330
47
102
}
330
47
100
AcDbScale
 70
     0
300
1/4" = 1'-0"
140
0.25
141
12.0
290
     0
  0
SCALE
  5
61
102
{ACAD_REACTORS
330
47
102
}
330
47
100
AcDbScale
 70
     0
300
3/8" = 1'-0"
140
0.375
141
12.0
290
     0
  0
SCALE
  5
62
102
{ACAD_REACTORS
330
47
102
}
330
47
100
AcDbScale
 70
     0
300
1/2" = 1'-0"
140
0.5
141
12.0
290
     0
  0
SCALE
  5
63
102
{ACAD_REACTORS
330
47
102
}
330
47
100
AcDbScale
 70
     0
300
3/4" = 1'-0"
140
0.75
141
12.0
290
     0
  0
SCALE
  5
64
102
{ACAD_REACTORS
330
47
102
}
330
47
100
AcDbScale
 70
     0
300
1" = 1'-0"
140
1.0
141
12.0
290
     0
  0
SCALE
  5
65
102
{ACAD_REACTORS
330
47
102
}
330
47
100
AcDbScale
 70
     0
300
1-1/2" = 1'-0"
140
1.5
141
12.0
290
     0
  0
SCALE
  5
66
102
{ACAD_REACTORS
330
47
102
}
330
47
100
AcDbScale
 70
     0
300
3" = 1'-0"
140
3.0
141
12.0
290
     0
  0
SCALE
  5
67
102
{ACAD_REACTORS
330
47
102
}
330
47
100
AcDbScale
 70
     0
300
6" = 1'-0"
140
6.0
141
12.0
290
     0
  0
SCALE
  5
68
102
{ACAD_REACTORS
330
47
102
}
330
47
100
AcDbScale
 70
     0
300
1'-0" = 1'-0"
140
12.0
141
12.0
290
     0
  0
ENDSEC
  0
EOF
